  0
SECTION
  2
HEADER
  9
$ACADVER
  1
AC1015
  9
$ACADMAINTVER
 70
     6
  9
$DWGCODEPAGE
  3
ANSI_932
  9
$INSBASE
 10
0.0
 20
0.0
 30
0.0
  9
$EXTMIN
 10
19.715965
 20
-17.773567
 30
0.0
  9
$EXTMAX
 10
240.405121
 20
78.903236
 30
0.0
  9
$LIMMIN
 10
0.0
 20
0.0
  9
$LIMMAX
 10
12.0
 20
9.0
  9
$ORTHOMODE
 70
     0
  9
$REGENMODE
 70
     1
  9
$FILLMODE
 70
     1
  9
$QTEXTMODE
 70
     0
  9
$MIRRTEXT
 70
     1
  9
$LTSCALE
 40
3.678153
  9
$ATTMODE
 70
     1
  9
$TEXTSIZE
 40
3.2
  9
$TRACEWID
 40
1.0
  9
$TEXTSTYLE
  7
Standard
  9
$CLAYER
  8
0
  9
$CELTYPE
  6
ByLayer
  9
$CECOLOR
 62
   256
  9
$CELTSCALE
 40
1.0
  9
$DISPSILH
 70
     0
  9
$DIMSCALE
 40
1.0
  9
$DIMASZ
 40
2.5
  9
$DIMEXO
 40
0.625
  9
$DIMDLI
 40
3.75
  9
$DIMRND
 40
0.0
  9
$DIMDLE
 40
0.0
  9
$DIMEXE
 40
1.25
  9
$DIMTP
 40
0.0
  9
$DIMTM
 40
0.0
  9
$DIMTXT
 40
2.5
  9
$DIMCEN
 40
0.09
  9
$DIMTSZ
 40
0.0
  9
$DIMTOL
 70
     0
  9
$DIMLIM
 70
     0
  9
$DIMTIH
 70
     0
  9
$DIMTOH
 70
     0
  9
$DIMSE1
 70
     0
  9
$DIMSE2
 70
     0
  9
$DIMTAD
 70
     0
  9
$DIMZIN
 70
     8
  9
$DIMBLK
  1

  9
$DIMASO
 70
     1
  9
$DIMSHO
 70
     0
  9
$DIMPOST
  1

  9
$DIMAPOST
  1

  9
$DIMALT
 70
     0
  9
$DIMALTD
 70
     3
  9
$DIMALTF
 40
0.03937
  9
$DIMLFAC
 40
1.0
  9
$DIMTOFL
 70
     1
  9
$DIMTVP
 40
0.0
  9
$DIMTIX
 70
     0
  9
$DIMSOXD
 70
     0
  9
$DIMSAH
 70
     0
  9
$DIMBLK1
  1

  9
$DIMBLK2
  1

  9
$DIMSTYLE
  2
ISO-25
  9
$DIMCLRD
 70
     0
  9
$DIMCLRE
 70
     0
  9
$DIMCLRT
 70
     0
  9
$DIMTFAC
 40
1.0
  9
$DIMGAP
 40
0.625
  9
$DIMJUST
 70
     0
  9
$DIMSD1
 70
     0
  9
$DIMSD2
 70
     0
  9
$DIMTOLJ
 70
     0
  9
$DIMTZIN
 70
     8
  9
$DIMALTZ
 70
     0
  9
$DIMALTTZ
 70
     0
  9
$DIMUPT
 70
     0
  9
$DIMDEC
 70
     2
  9
$DIMTDEC
 70
     2
  9
$DIMALTU
 70
     2
  9
$DIMALTTD
 70
     3
  9
$DIMTXSTY
  7
Standard
  9
$DIMAUNIT
 70
     0
  9
$DIMADEC
 70
     0
  9
$DIMALTRND
 40
0.0
  9
$DIMAZIN
 70
     0
  9
$DIMDSEP
 70
    44
  9
$DIMATFIT
 70
     3
  9
$DIMFRAC
 70
     0
  9
$DIMLDRBLK
  1

  9
$DIMLUNIT
 70
     2
  9
$DIMLWD
 70
    -2
  9
$DIMLWE
 70
    -2
  9
$DIMTMOVE
 70
     0
  9
$LUNITS
 70
     2
  9
$LUPREC
 70
     4
  9
$SKETCHINC
 40
1.0
  9
$FILLETRAD
 40
0.0
  9
$AUNITS
 70
     0
  9
$AUPREC
 70
     0
  9
$MENU
  1
.
  9
$ELEVATION
 40
0.0
  9
$PELEVATION
 40
0.0
  9
$THICKNESS
 40
0.0
  9
$LIMCHECK
 70
     0
  9
$CHAMFERA
 40
10.0
  9
$CHAMFERB
 40
10.0
  9
$CHAMFERC
 40
20.0
  9
$CHAMFERD
 40
0.0
  9
$SKPOLY
 70
     0
  9
$TDCREATE
 40
2454620.676850579
  9
$TDUCREATE
 40
2454620.301850579
  9
$TDUPDATE
 40
2454620.67685059
  9
$TDUUPDATE
 40
2454620.30185059
  9
$TDINDWG
 40
0.0000000116
  9
$TDUSRTIMER
 40
0.0000000116
  9
$USRTIMER
 70
     1
  9
$ANGBASE
 50
0.0
  9
$ANGDIR
 70
     0
  9
$PDMODE
 70
     0
  9
$PDSIZE
 40
0.0
  9
$PLINEWID
 40
0.0
  9
$SPLFRAME
 70
     0
  9
$SPLINETYPE
 70
     6
  9
$SPLINESEGS
 70
     8
  9
$HANDSEED
  5
1ED
  9
$SURFTAB1
 70
     6
  9
$SURFTAB2
 70
     6
  9
$SURFTYPE
 70
     6
  9
$SURFU
 70
     6
  9
$SURFV
 70
     6
  9
$UCSBASE
  2

  9
$UCSNAME
  2

  9
$UCSORG
 10
0.0
 20
0.0
 30
0.0
  9
$UCSXDIR
 10
1.0
 20
0.0
 30
0.0
  9
$UCSYDIR
 10
0.0
 20
1.0
 30
0.0
  9
$UCSORTHOREF
  2

  9
$UCSORTHOVIEW
 70
     0
  9
$UCSORGTOP
 10
0.0
 20
0.0
 30
0.0
  9
$UCSORGBOTTOM
 10
0.0
 20
0.0
 30
0.0
  9
$UCSORGLEFT
 10
0.0
 20
0.0
 30
0.0
  9
$UCSORGRIGHT
 10
0.0
 20
0.0
 30
0.0
  9
$UCSORGFRONT
 10
0.0
 20
0.0
 30
0.0
  9
$UCSORGBACK
 10
0.0
 20
0.0
 30
0.0
  9
$PUCSBASE
  2

  9
$PUCSNAME
  2

  9
$PUCSORG
 10
0.0
 20
0.0
 30
0.0
  9
$PUCSXDIR
 10
1.0
 20
0.0
 30
0.0
  9
$PUCSYDIR
 10
0.0
 20
1.0
 30
0.0
  9
$PUCSORTHOREF
  2

  9
$PUCSORTHOVIEW
 70
     0
  9
$PUCSORGTOP
 10
0.0
 20
0.0
 30
0.0
  9
$PUCSORGBOTTOM
 10
0.0
 20
0.0
 30
0.0
  9
$PUCSORGLEFT
 10
0.0
 20
0.0
 30
0.0
  9
$PUCSORGRIGHT
 10
0.0
 20
0.0
 30
0.0
  9
$PUCSORGFRONT
 10
0.0
 20
0.0
 30
0.0
  9
$PUCSORGBACK
 10
0.0
 20
0.0
 30
0.0
  9
$USERI1
 70
     0
  9
$USERI2
 70
     0
  9
$USERI3
 70
     0
  9
$USERI4
 70
     0
  9
$USERI5
 70
     0
  9
$USERR1
 40
0.0
  9
$USERR2
 40
0.0
  9
$USERR3
 40
0.0
  9
$USERR4
 40
0.0
  9
$USERR5
 40
0.0
  9
$WORLDVIEW
 70
     1
  9
$SHADEDGE
 70
     3
  9
$SHADEDIF
 70
    70
  9
$TILEMODE
 70
     1
  9
$MAXACTVP
 70
    64
  9
$PINSBASE
 10
0.0
 20
0.0
 30
0.0
  9
$PLIMCHECK
 70
     0
  9
$PEXTMIN
 10
1.000000E+20
 20
1.000000E+20
 30
0.0
  9
$PEXTMAX
 10
-1.000000E+20
 20
-1.000000E+20
 30
0.0
  9
$PLIMMIN
 10
0.0
 20
0.0
  9
$PLIMMAX
 10
12.0
 20
9.0
  9
$UNITMODE
 70
     0
  9
$VISRETAIN
 70
     1
  9
$PLINEGEN
 70
     0
  9
$PSLTSCALE
 70
     1
  9
$TREEDEPTH
 70
  3020
  9
$CMLSTYLE
  2
Standard
  9
$CMLJUST
 70
     0
  9
$CMLSCALE
 40
20.0
  9
$PROXYGRAPHICS
 70
     1
  9
$MEASUREMENT
 70
     1
  9
$CELWEIGHT
370
    -1
  9
$ENDCAPS
280
     0
  9
$JOINSTYLE
280
     0
  9
$LWDISPLAY
290
     0
  9
$INSUNITS
 70
     4
  9
$HYPERLINKBASE
  1

  9
$STYLESHEET
  1

  9
$XEDIT
290
     1
  9
$CEPSNTYPE
380
     0
  9
$PSTYLEMODE
290
     1
  9
$FINGERPRINTGUID
  2
{6CA360DA-AC89-469B-9961-B7AF3CABD85C}
  9
$VERSIONGUID
  2
{FAEB1C32-E019-11D5-929B-00C0DF256EC4}
  9
$EXTNAMES
290
     1
  9
$PSVPSCALE
 40
0.0
  9
$OLESTARTUP
290
     0
  0
ENDSEC
  0
SECTION
  2
CLASSES
  0
CLASS
  1
ACDBDICTIONARYWDFLT
  2
AcDbDictionaryWithDefault
  3
ObjectDBX Classes
 90
        0
280
     0
281
     0
  0
CLASS
  1
VISUALSTYLE
  2
AcDbVisualStyle
  3
ObjectDBX Classes
 90
     4095
280
     0
281
     0
  0
CLASS
  1
SCALE
  2
AcDbScale
  3
ObjectDBX Classes
 90
     1153
280
     0
281
     0
  0
CLASS
  1
DICTIONARYVAR
  2
AcDbDictionaryVar
  3
ObjectDBX Classes
 90
        0
280
     0
281
     0
  0
CLASS
  1
ACDBPLACEHOLDER
  2
AcDbPlaceHolder
  3
ObjectDBX Classes
 90
        0
280
     0
281
     0
  0
CLASS
  1
LAYOUT
  2
AcDbLayout
  3
ObjectDBX Classes
 90
        0
280
     0
281
     0
  0
ENDSEC
  0
SECTION
  2
TABLES
  0
TABLE
  2
VPORT
  5
8
330
0
100
AcDbSymbolTable
 70
     1
  0
VPORT
  5
29
330
8
100
AcDbSymbolTableRecord
100
AcDbViewportTableRecord
  2
*Active
 70
     0
 10
0.0
 20
0.0
 11
1.0
 21
1.0
 12
130.060543
 22
30.564835
 13
0.0
 23
0.0
 14
1.0
 24
1.0
 15
0.0
 25
0.0
 16
0.0
 26
0.0
 36
1.0
 17
0.0
 27
0.0
 37
0.0
 40
131.79071
 41
1.691288
 42
50.0
 43
0.0
 44
0.0
 50
0.0
 51
0.0
 71
     0
 72
   100
 73
     1
 74
     3
 75
     0
 76
     0
 77
     0
 78
     0
281
     0
 65
     1
110
0.0
120
0.0
130
0.0
111
1.0
121
0.0
131
0.0
112
0.0
122
1.0
132
0.0
 79
     0
146
0.0
  0
ENDTAB
  0
TABLE
  2
LTYPE
  5
5
330
0
100
AcDbSymbolTable
 70
     5
  0
LTYPE
  5
14
330
5
100
AcDbSymbolTableRecord
100
AcDbLinetypeTableRecord
  2
ByBlock
 70
     0
  3

 72
    65
 73
     0
 40
0.0
  0
LTYPE
  5
15
330
5
100
AcDbSymbolTableRecord
100
AcDbLinetypeTableRecord
  2
ByLayer
 70
     0
  3

 72
    65
 73
     0
 40
0.0
  0
LTYPE
  5
16
330
5
100
AcDbSymbolTableRecord
100
AcDbLinetypeTableRecord
  2
Continuous
 70
     0
  3
Solid line
 72
    65
 73
     0
 40
0.0
  0
LTYPE
  5
5D
330
5
100
AcDbSymbolTableRecord
100
AcDbLinetypeTableRecord
  2
DASHED
 70
     0
  3
DASHED
 72
    83
 73
     2
 40
0.75
 49
0.5
 74
     0
 49
-0.25
 74
     0
  0
LTYPE
  5
5E
330
5
100
AcDbSymbolTableRecord
100
AcDbLinetypeTableRecord
  2
HIDDEN
 70
     0
  3
HIDDEN
 72
    83
 73
     2
 40
0.375
 49
0.25
 74
     0
 49
-0.125
 74
     0
  0
LTYPE
  5
5F
330
5
100
AcDbSymbolTableRecord
100
AcDbLinetypeTableRecord
  2
CENTER
 70
     0
  3
CENTER
 72
    83
 73
     4
 40
2.0
 49
1.25
 74
     0
 49
-0.25
 74
     0
 49
0.25
 74
     0
 49
-0.25
 74
     0
  0
LTYPE
  5
60
330
5
100
AcDbSymbolTableRecord
100
AcDbLinetypeTableRecord
  2
PHANTOM
 70
     0
  3
PHANTOM
 72
    83
 73
     6
 40
2.5
 49
1.25
 74
     0
 49
-0.25
 74
     0
 49
0.25
 74
     0
 49
-0.25
 74
     0
 49
0.25
 74
     0
 49
-0.25
 74
     0
  0
ENDTAB
  0
TABLE
  2
LAYER
  5
2
330
0
100
AcDbSymbolTable
 70
     2
  0
LAYER
  5
10
330
2
100
AcDbSymbolTableRecord
100
AcDbLayerTableRecord
  2
0
 70
     0
 62
     7
  6
Continuous
370
    -3
390
F
  0
LAYER
  5
61
330
2
100
AcDbSymbolTableRecord
100
AcDbLayerTableRecord
  2
001
 70
     0
 62
     7
  6
Continuous
370
    -3
390
F
  0
ENDTAB
  0
TABLE
  2
STYLE
  5
3
330
0
100
AcDbSymbolTable
 70
     2
  0
STYLE
  5
11
330
3
100
AcDbSymbolTableRecord
100
AcDbTextStyleTableRecord
  2
Standard
 70
     0
 40
0.0
 41
1.0
 50
0.0
 71
     0
 42
0.2
  3
TXT
  4
BIGFONT
  0
STYLE
  5
62
330
3
100
AcDbSymbolTableRecord
100
AcDbTextStyleTableRecord
  2
TATEGAKI
 70
     4
 40
1.0
 41
1.0
 50
0.0
 71
     0
 42
0.2
  3
TXT
  4
BIGFONT
  0
ENDTAB
  0
TABLE
  2
VIEW
  5
6
330
0
100
AcDbSymbolTable
 70
     0
  0
ENDTAB
  0
TABLE
  2
UCS
  5
7
330
0
100
AcDbSymbolTable
 70
     0
  0
ENDTAB
  0
TABLE
  2
APPID
  5
9
330
0
100
AcDbSymbolTable
 70
     1
  0
APPID
  5
12
330
9
100
AcDbSymbolTableRecord
100
AcDbRegAppTableRecord
  2
ACAD
 70
     0
  0
ENDTAB
  0
TABLE
  2
DIMSTYLE
  5
A
330
0
100
AcDbSymbolTable
 70
     2
100
AcDbDimStyleTable
  0
DIMSTYLE
105
27
330
A
100
AcDbSymbolTableRecord
100
AcDbDimStyleTableRecord
  2
ISO-25
 70
     0
 41
2.5
 42
0.625
 43
3.75
 44
1.25
 73
     0
 74
     0
 77
     1
 78
     8
140
2.5
141
2.5
143
0.03937
147
0.625
171
     3
172
     1
271
     2
272
     2
274
     3
278
    44
283
     0
284
     8
340
11
  0
DIMSTYLE
105
63
102
{ACAD_REACTORS
330
ED
330
EE
330
EF
330
F0
330
FD
330
FE
102
}
330
A
100
AcDbSymbolTableRecord
100
AcDbDimStyleTableRecord
  2
Standard
 70
     0
 41
1.5
 42
0.0
 44
2.75
 73
     0
 74
     0
 77
     1
 78
     8
 79
     2
140
4.0
146
0.8
147
1.0
172
     1
179
     1
271
     1
340
11
  0
ENDTAB
  0
TABLE
  2
BLOCK_RECORD
  5
1
330
0
100
AcDbSymbolTable
 70
     7
  0
BLOCK_RECORD
  5
1F
330
1
100
AcDbSymbolTableRecord
100
AcDbBlockTableRecord
  2
*Model_Space
340
22
  0
BLOCK_RECORD
  5
1B
330
1
100
AcDbSymbolTableRecord
100
AcDbBlockTableRecord
  2
*Paper_Space
340
1E
  0
BLOCK_RECORD
  5
23
330
1
100
AcDbSymbolTableRecord
100
AcDbBlockTableRecord
  2
*Paper_Space0
340
26
  0
BLOCK_RECORD
  5
64
330
1
100
AcDbSymbolTableRecord
100
AcDbBlockTableRecord
  2
*D1
340
0
  0
BLOCK_RECORD
  5
78
330
1
100
AcDbSymbolTableRecord
100
AcDbBlockTableRecord
  2
*D2
340
0
  0
BLOCK_RECORD
  5
8C
330
1
100
AcDbSymbolTableRecord
100
AcDbBlockTableRecord
  2
*D3
340
0
  0
BLOCK_RECORD
  5
A3
330
1
100
AcDbSymbolTableRecord
100
AcDbBlockTableRecord
  2
*D4
340
0
  0
BLOCK_RECORD
  5
B9
330
1
100
AcDbSymbolTableRecord
100
AcDbBlockTableRecord
  2
*D5
340
0
  0
BLOCK_RECORD
  5
CD
330
1
100
AcDbSymbolTableRecord
100
AcDbBlockTableRecord
  2
*D6
340
0
  0
ENDTAB
  0
ENDSEC
  0
SECTION
  2
BLOCKS
  0
BLOCK
  5
20
330
1F
100
AcDbEntity
  8
0
100
AcDbBlockBegin
  2
*Model_Space
 70
     0
 10
0.0
 20
0.0
 30
0.0
  3
*Model_Space
  1

  0
ENDBLK
  5
21
330
1F
100
AcDbEntity
  8
0
100
AcDbBlockEnd
  0
BLOCK
  5
1C
330
1B
100
AcDbEntity
 67
     1
  8
0
100
AcDbBlockBegin
  2
*Paper_Space
 70
     0
 10
0.0
 20
0.0
 30
0.0
  3
*Paper_Space
  1

  0
ENDBLK
  5
1D
330
1B
100
AcDbEntity
 67
     1
  8
0
100
AcDbBlockEnd
  0
BLOCK
  5
24
330
23
100
AcDbEntity
  8
0
100
AcDbBlockBegin
  2
*Paper_Space0
 70
     0
 10
0.0
 20
0.0
 30
0.0
  3
*Paper_Space0
  1

  0
ENDBLK
  5
25
330
23
100
AcDbEntity
  8
0
100
AcDbBlockEnd
  0
BLOCK
  5
65
330
64
100
AcDbEntity
  8
0
100
AcDbBlockBegin
  2
*D1
 70
     1
 10
0.0
 20
0.0
 30
0.0
  3
*D1
  1

  0
LINE
  5
67
330
64
100
AcDbEntity
  8
001
370
     9
100
AcDbLine
 10
213.727839
 20
52.620961
 30
0.0
 11
240.405117
 21
52.620961
 31
0.0
  0
LINE
  5
68
330
64
100
AcDbEntity
  8
001
370
     9
100
AcDbLine
 10
213.727839
 20
20.620961
 30
0.0
 11
240.405117
 21
20.620961
 31
0.0
  0
LINE
  5
69
330
64
100
AcDbEntity
  8
001
370
     9
100
AcDbLine
 10
237.655117
 20
52.620961
 30
0.0
 11
237.655117
 21
20.620961
 31
0.0
  0
POLYLINE
  5
6A
330
64
100
AcDbEntity
  8
001
370
     9
100
AcDb2dPolyline
 66
     1
 10
0.0
 20
0.0
 30
0.0
  0
VERTEX
  5
6C
330
6A
100
AcDbEntity
  8
001
370
     9
100
AcDbVertex
100
AcDb2dVertex
 10
237.253194
 20
51.120961
 30
0.0
  0
VERTEX
  5
6D
330
6A
100
AcDbEntity
  8
001
370
     9
100
AcDbVertex
100
AcDb2dVertex
 10
237.655117
 20
52.620961
 30
0.0
  0
VERTEX
  5
6E
330
6A
100
AcDbEntity
  8
001
370
     9
100
AcDbVertex
100
AcDb2dVertex
 10
238.057041
 20
51.120961
 30
0.0
  0
SEQEND
  5
6B
330
6A
100
AcDbEntity
  8
001
370
     9
  0
POLYLINE
  5
6F
330
64
100
AcDbEntity
  8
001
370
     9
100
AcDb2dPolyline
 66
     1
 10
0.0
 20
0.0
 30
0.0
  0
VERTEX
  5
71
330
6F
100
AcDbEntity
  8
001
370
     9
100
AcDbVertex
100
AcDb2dVertex
 10
238.057041
 20
22.120961
 30
0.0
  0
VERTEX
  5
72
330
6F
100
AcDbEntity
  8
001
370
     9
100
AcDbVertex
100
AcDb2dVertex
 10
237.655117
 20
20.620961
 30
0.0
  0
VERTEX
  5
73
330
6F
100
AcDbEntity
  8
001
370
     9
100
AcDbVertex
100
AcDb2dVertex
 10
237.253194
 20
22.120961
 30
0.0
  0
SEQEND
  5
70
330
6F
100
AcDbEntity
  8
001
370
     9
  0
TEXT
  5
74
330
64
100
AcDbEntity
  8
001
370
    30
100
AcDbText
 10
236.655117
 20
29.426199
 30
0.0
 40
4.0
  1
%%c３２
 50
90.000003
 41
0.882353
100
AcDbText
  0
POINT
  5
75
330
64
100
AcDbEntity
  8
001
370
     9
100
AcDbPoint
 10
213.727839
 20
52.620961
 30
0.0
  0
POINT
  5
76
330
64
100
AcDbEntity
  8
001
370
     9
100
AcDbPoint
 10
213.727839
 20
20.620961
 30
0.0
  0
POINT
  5
77
330
64
100
AcDbEntity
  8
001
370
     9
100
AcDbPoint
 10
237.655117
 20
20.620961
 30
0.0
  0
ENDBLK
  5
66
330
64
100
AcDbEntity
  8
0
100
AcDbBlockEnd
  0
BLOCK
  5
79
330
78
100
AcDbEntity
  8
0
100
AcDbBlockBegin
  2
*D2
 70
     1
 10
0.0
 20
0.0
 30
0.0
  3
*D2
  1

  0
LINE
  5
7B
330
78
100
AcDbEntity
  8
001
370
     9
100
AcDbLine
 10
47.72743
 20
13.549257
 30
0.0
 11
47.72743
 21
-6.645466
 31
0.0
  0
LINE
  5
7C
330
78
100
AcDbEntity
  8
001
370
     9
100
AcDbLine
 10
77.727839
 20
19.220961
 30
0.0
 11
77.727839
 21
-6.645466
 31
0.0
  0
LINE
  5
7D
330
78
100
AcDbEntity
  8
001
370
     9
100
AcDbLine
 10
47.72743
 20
-3.895466
 30
0.0
 11
77.727839
 21
-3.895466
 31
0.0
  0
POLYLINE
  5
7E
330
78
100
AcDbEntity
  8
001
370
     9
100
AcDb2dPolyline
 66
     1
 10
0.0
 20
0.0
 30
0.0
  0
VERTEX
  5
80
330
7E
100
AcDbEntity
  8
001
370
     9
100
AcDbVertex
100
AcDb2dVertex
 10
49.22743
 20
-4.29739
 30
0.0
  0
VERTEX
  5
81
330
7E
100
AcDbEntity
  8
001
370
     9
100
AcDbVertex
100
AcDb2dVertex
 10
47.72743
 20
-3.895466
 30
0.0
  0
VERTEX
  5
82
330
7E
100
AcDbEntity
  8
001
370
     9
100
AcDbVertex
100
AcDb2dVertex
 10
49.22743
 20
-3.493543
 30
0.0
  0
SEQEND
  5
7F
330
7E
100
AcDbEntity
  8
001
370
     9
  0
POLYLINE
  5
83
330
78
100
AcDbEntity
  8
001
370
     9
100
AcDb2dPolyline
 66
     1
 10
0.0
 20
0.0
 30
0.0
  0
VERTEX
  5
85
330
83
100
AcDbEntity
  8
001
370
     9
100
AcDbVertex
100
AcDb2dVertex
 10
76.227839
 20
-3.493543
 30
0.0
  0
VERTEX
  5
86
330
83
100
AcDbEntity
  8
001
370
     9
100
AcDbVertex
100
AcDb2dVertex
 10
77.727839
 20
-3.895466
 30
0.0
  0
VERTEX
  5
87
330
83
100
AcDbEntity
  8
001
370
     9
100
AcDbVertex
100
AcDb2dVertex
 10
76.227839
 20
-4.29739
 30
0.0
  0
SEQEND
  5
84
330
83
100
AcDbEntity
  8
001
370
     9
  0
TEXT
  5
88
330
78
100
AcDbEntity
  8
001
370
    30
100
AcDbText
 10
58.727634
 20
-2.895466
 30
0.0
 40
4.0
  1
３０
 41
0.833333
100
AcDbText
  0
POINT
  5
89
330
78
100
AcDbEntity
  8
001
370
     9
100
AcDbPoint
 10
47.72743
 20
13.549257
 30
0.0
  0
POINT
  5
8A
330
78
100
AcDbEntity
  8
001
370
     9
100
AcDbPoint
 10
77.727839
 20
19.220961
 30
0.0
  0
POINT
  5
8B
330
78
100
AcDbEntity
  8
001
370
     9
100
AcDbPoint
 10
77.727839
 20
-3.895466
 30
0.0
  0
ENDBLK
  5
7A
330
78
100
AcDbEntity
  8
0
100
AcDbBlockEnd
  0
BLOCK
  5
8D
330
8C
100
AcDbEntity
  8
0
100
AcDbBlockBegin
  2
*D3
 70
     1
 10
0.0
 20
0.0
 30
0.0
  3
*D3
  1

  0
LINE
  5
8F
330
8C
100
AcDbEntity
  8
001
370
     9
100
AcDbLine
 10
52.920619
 20
18.353915
 30
0.0
 11
59.605674
 21
-0.013124
 31
0.0
  0
LINE
  5
90
330
8C
100
AcDbEntity
  8
001
370
     9
100
AcDbLine
 10
47.727839
 20
20.120961
 30
0.0
 11
47.727839
 21
-2.107506
 31
0.0
  0
ARC
  5
91
330
8C
100
AcDbEntity
  8
001
370
     9
100
AcDbCircle
 10
47.727839
 20
32.620961
 30
0.0
 40
31.97846789367713
100
AcDbArc
 50
270.0
 51
290.0
  0
POLYLINE
  5
92
330
8C
100
AcDbEntity
  8
001
370
     9
100
AcDb2dPolyline
 66
     1
 10
0.0
 20
0.0
 30
0.0
  0
VERTEX
  5
94
330
92
100
AcDbEntity
  8
001
370
     9
100
AcDbVertex
100
AcDb2dVertex
 10
60.208524
 20
2.742618
 30
0.0
  0
VERTEX
  5
95
330
92
100
AcDbEntity
  8
001
370
     9
100
AcDbVertex
100
AcDb2dVertex
 10
58.665119
 20
2.571031
 30
0.0
  0
VERTEX
  5
96
330
92
100
AcDbEntity
  8
001
370
     9
100
AcDbVertex
100
AcDb2dVertex
 10
59.915954
 20
3.491333
 30
0.0
  0
SEQEND
  5
93
330
92
100
AcDbEntity
  8
001
370
     9
  0
POLYLINE
  5
97
330
8C
100
AcDbEntity
  8
001
370
     9
100
AcDb2dPolyline
 66
     1
 10
0.0
 20
0.0
 30
0.0
  0
VERTEX
  5
99
330
97
100
AcDbEntity
  8
001
370
     9
100
AcDbVertex
100
AcDb2dVertex
 10
46.237677
 20
1.079483
 30
0.0
  0
VERTEX
  5
9A
330
97
100
AcDbEntity
  8
001
370
     9
100
AcDbVertex
100
AcDb2dVertex
 10
47.727839
 20
0.642494
 30
0.0
  0
VERTEX
  5
9B
330
97
100
AcDbEntity
  8
001
370
     9
100
AcDbVertex
100
AcDb2dVertex
 10
46.218826
 20
0.275857
 30
0.0
  0
SEQEND
  5
98
330
97
100
AcDbEntity
  8
001
370
     9
  0
TEXT
  5
9C
330
8C
100
AcDbEntity
  8
001
370
    30
100
AcDbText
 10
60.88643
 20
3.941405
 30
0.0
 40
4.0
  1
２０%%d
 50
35.607825
 41
0.978261
100
AcDbText
  0
POINT
  5
9D
330
8C
100
AcDbEntity
  8
001
370
     9
100
AcDbPoint
 10
52.920619
 20
18.353915
 30
0.0
  0
POINT
  5
9E
330
8C
100
AcDbEntity
  8
001
370
     9
100
AcDbPoint
 10
47.727839
 20
32.620961
 30
0.0
  0
POINT
  5
9F
330
8C
100
AcDbEntity
  8
001
370
     9
100
AcDbPoint
 10
47.727839
 20
32.620961
 30
0.0
  0
POINT
  5
A0
330
8C
100
AcDbEntity
  8
001
370
     9
100
AcDbPoint
 10
47.727839
 20
20.120961
 30
0.0
  0
ARC
  5
A1
330
8C
100
AcDbEntity
  8
001
370
     9
100
AcDbCircle
 10
47.727839
 20
32.620961
 30
0.0
 40
31.97846789367713
100
AcDbArc
 50
265.520753
 51
270.0
  0
ARC
  5
A2
330
8C
100
AcDbEntity
  8
001
370
     9
100
AcDbCircle
 10
47.727839
 20
32.620961
 30
0.0
 40
31.97846789367713
100
AcDbArc
 50
290.0
 51
316.35802
  0
ENDBLK
  5
8E
330
8C
100
AcDbEntity
  8
0
100
AcDbBlockEnd
  0
BLOCK
  5
A4
330
A3
100
AcDbEntity
  8
0
100
AcDbBlockBegin
  2
*D4
 70
     1
 10
0.0
 20
0.0
 30
0.0
  3
*D4
  1

  0
LINE
  5
A6
330
A3
100
AcDbEntity
  8
001
370
     9
100
AcDbLine
 10
53.019966
 20
18.080961
 30
0.0
 11
53.019966
 21
4.429398
 31
0.0
  0
LINE
  5
A7
330
A3
100
AcDbEntity
  8
001
370
     9
100
AcDbLine
 10
47.727839
 20
20.120961
 30
0.0
 11
47.727839
 21
4.429398
 31
0.0
  0
LINE
  5
A8
330
A3
100
AcDbEntity
  8
001
370
     9
100
AcDbLine
 10
53.019966
 20
7.179398
 30
0.0
 11
47.727839
 21
7.179398
 31
0.0
  0
POLYLINE
  5
A9
330
A3
100
AcDbEntity
  8
001
370
     9
100
AcDb2dPolyline
 66
     1
 10
0.0
 20
0.0
 30
0.0
  0
VERTEX
  5
AB
330
A9
100
AcDbEntity
  8
001
370
     9
100
AcDbVertex
100
AcDb2dVertex
 10
54.519966
 20
6.777475
 30
0.0
  0
VERTEX
  5
AC
330
A9
100
AcDbEntity
  8
001
370
     9
100
AcDbVertex
100
AcDb2dVertex
 10
53.019966
 20
7.179398
 30
0.0
  0
VERTEX
  5
AD
330
A9
100
AcDbEntity
  8
001
370
     9
100
AcDbVertex
100
AcDb2dVertex
 10
54.519966
 20
7.581322
 30
0.0
  0
SEQEND
  5
AA
330
A9
100
AcDbEntity
  8
001
370
     9
  0
POLYLINE
  5
AE
330
A3
100
AcDbEntity
  8
001
370
     9
100
AcDb2dPolyline
 66
     1
 10
0.0
 20
0.0
 30
0.0
  0
VERTEX
  5
B0
330
AE
100
AcDbEntity
  8
001
370
     9
100
AcDbVertex
100
AcDb2dVertex
 10
46.227839
 20
7.581322
 30
0.0
  0
VERTEX
  5
B1
330
AE
100
AcDbEntity
  8
001
370
     9
100
AcDbVertex
100
AcDb2dVertex
 10
47.727839
 20
7.179398
 30
0.0
  0
VERTEX
  5
B2
330
AE
100
AcDbEntity
  8
001
370
     9
100
AcDbVertex
100
AcDb2dVertex
 10
46.227839
 20
6.777475
 30
0.0
  0
SEQEND
  5
AF
330
AE
100
AcDbEntity
  8
001
370
     9
  0
TEXT
  5
B3
330
A3
100
AcDbEntity
  8
001
370
    30
100
AcDbText
 10
24.227839
 20
8.179398
 30
0.0
 40
4.0
  1
（５．３）
 41
0.833333
100
AcDbText
  0
POINT
  5
B4
330
A3
100
AcDbEntity
  8
001
370
     9
100
AcDbPoint
 10
53.019966
 20
18.080961
 30
0.0
  0
POINT
  5
B5
330
A3
100
AcDbEntity
  8
001
370
     9
100
AcDbPoint
 10
47.727839
 20
20.120961
 30
0.0
  0
POINT
  5
B6
330
A3
100
AcDbEntity
  8
001
370
     9
100
AcDbPoint
 10
47.727839
 20
7.179398
 30
0.0
  0
LINE
  5
B7
330
A3
100
AcDbEntity
  8
001
370
     9
100
AcDbLine
 10
53.019966
 20
7.179398
 30
0.0
 11
55.519966
 21
7.179398
 31
0.0
  0
LINE
  5
B8
330
A3
100
AcDbEntity
  8
001
370
     9
100
AcDbLine
 10
47.727839
 20
7.179398
 30
0.0
 11
21.227839
 21
7.179398
 31
0.0
  0
ENDBLK
  5
A5
330
A3
100
AcDbEntity
  8
0
100
AcDbBlockEnd
  0
BLOCK
  5
BA
330
B9
100
AcDbEntity
  8
0
100
AcDbBlockBegin
  2
*D5
 70
     1
 10
0.0
 20
0.0
 30
0.0
  3
*D5
  1

  0
LINE
  5
BC
330
B9
100
AcDbEntity
  8
001
370
     9
100
AcDbLine
 10
217.727839
 20
24.620961
 30
0.0
 11
217.727839
 21
-17.773569
 31
0.0
  0
LINE
  5
BD
330
B9
100
AcDbEntity
  8
001
370
     9
100
AcDbLine
 10
47.727839
 20
20.120961
 30
0.0
 11
47.727839
 21
-17.773569
 31
0.0
  0
LINE
  5
BE
330
B9
100
AcDbEntity
  8
001
370
     9
100
AcDbLine
 10
217.727839
 20
-15.023569
 30
0.0
 11
47.727839
 21
-15.023569
 31
0.0
  0
POLYLINE
  5
BF
330
B9
100
AcDbEntity
  8
001
370
     9
100
AcDb2dPolyline
 66
     1
 10
0.0
 20
0.0
 30
0.0
  0
VERTEX
  5
C1
330
BF
100
AcDbEntity
  8
001
370
     9
100
AcDbVertex
100
AcDb2dVertex
 10
216.227839
 20
-14.621645
 30
0.0
  0
VERTEX
  5
C2
330
BF
100
AcDbEntity
  8
001
370
     9
100
AcDbVertex
100
AcDb2dVertex
 10
217.727839
 20
-15.023569
 30
0.0
  0
VERTEX
  5
C3
330
BF
100
AcDbEntity
  8
001
370
     9
100
AcDbVertex
100
AcDb2dVertex
 10
216.227839
 20
-15.425493
 30
0.0
  0
SEQEND
  5
C0
330
BF
100
AcDbEntity
  8
001
370
     9
  0
POLYLINE
  5
C4
330
B9
100
AcDbEntity
  8
001
370
     9
100
AcDb2dPolyline
 66
     1
 10
0.0
 20
0.0
 30
0.0
  0
VERTEX
  5
C6
330
C4
100
AcDbEntity
  8
001
370
     9
100
AcDbVertex
100
AcDb2dVertex
 10
49.227839
 20
-15.425493
 30
0.0
  0
VERTEX
  5
C7
330
C4
100
AcDbEntity
  8
001
370
     9
100
AcDbVertex
100
AcDb2dVertex
 10
47.727839
 20
-15.023569
 30
0.0
  0
VERTEX
  5
C8
330
C4
100
AcDbEntity
  8
001
370
     9
100
AcDbVertex
100
AcDb2dVertex
 10
49.227839
 20
-14.621645
 30
0.0
  0
SEQEND
  5
C5
330
C4
100
AcDbEntity
  8
001
370
     9
  0
TEXT
  5
C9
330
B9
100
AcDbEntity
  8
001
370
    30
100
AcDbText
 10
126.727839
 20
-14.023569
 30
0.0
 40
4.0
  1
１７０
 41
0.833333
100
AcDbText
  0
POINT
  5
CA
330
B9
100
AcDbEntity
  8
001
370
     9
100
AcDbPoint
 10
217.727839
 20
24.620961
 30
0.0
  0
POINT
  5
CB
330
B9
100
AcDbEntity
  8
001
370
     9
100
AcDbPoint
 10
47.727839
 20
20.120961
 30
0.0
  0
POINT
  5
CC
330
B9
100
AcDbEntity
  8
001
370
     9
100
AcDbPoint
 10
47.727839
 20
-15.023569
 30
0.0
  0
ENDBLK
  5
BB
330
B9
100
AcDbEntity
  8
0
100
AcDbBlockEnd
  0
BLOCK
  5
CE
330
CD
100
AcDbEntity
  8
0
100
AcDbBlockBegin
  2
*D6
 70
     1
 10
0.0
 20
0.0
 30
0.0
  3
*D6
  1

  0
LINE
  5
D0
330
CD
100
AcDbEntity
  8
001
370
     9
100
AcDbLine
 10
77.727839
 20
18.720961
 30
0.0
 11
77.727839
 21
-6.645466
 31
0.0
  0
LINE
  5
D1
330
CD
100
AcDbEntity
  8
001
370
     9
100
AcDbLine
 10
217.727839
 20
24.620961
 30
0.0
 11
217.727839
 21
-6.645466
 31
0.0
  0
LINE
  5
D2
330
CD
100
AcDbEntity
  8
001
370
     9
100
AcDbLine
 10
77.727839
 20
-3.895466
 30
0.0
 11
217.727839
 21
-3.895466
 31
0.0
  0
POLYLINE
  5
D3
330
CD
100
AcDbEntity
  8
001
370
     9
100
AcDb2dPolyline
 66
     1
 10
0.0
 20
0.0
 30
0.0
  0
VERTEX
  5
D5
330
D3
100
AcDbEntity
  8
001
370
     9
100
AcDbVertex
100
AcDb2dVertex
 10
79.227839
 20
-4.29739
 30
0.0
  0
VERTEX
  5
D6
330
D3
100
AcDbEntity
  8
001
370
     9
100
AcDbVertex
100
AcDb2dVertex
 10
77.727839
 20
-3.895466
 30
0.0
  0
VERTEX
  5
D7
330
D3
100
AcDbEntity
  8
001
370
     9
100
AcDbVertex
100
AcDb2dVertex
 10
79.227839
 20
-3.493543
 30
0.0
  0
SEQEND
  5
D4
330
D3
100
AcDbEntity
  8
001
370
     9
  0
POLYLINE
  5
D8
330
CD
100
AcDbEntity
  8
001
370
     9
100
AcDb2dPolyline
 66
     1
 10
0.0
 20
0.0
 30
0.0
  0
VERTEX
  5
DA
330
D8
100
AcDbEntity
  8
001
370
     9
100
AcDbVertex
100
AcDb2dVertex
 10
216.227839
 20
-3.493543
 30
0.0
  0
VERTEX
  5
DB
330
D8
100
AcDbEntity
  8
001
370
     9
100
AcDbVertex
100
AcDb2dVertex
 10
217.727839
 20
-3.895466
 30
0.0
  0
VERTEX
  5
DC
330
D8
100
AcDbEntity
  8
001
370
     9
100
AcDbVertex
100
AcDb2dVertex
 10
216.227839
 20
-4.29739
 30
0.0
  0
SEQEND
  5
D9
330
D8
100
AcDbEntity
  8
001
370
     9
  0
TEXT
  5
DD
330
CD
100
AcDbEntity
  8
001
370
    30
100
AcDbText
 10
141.727839
 20
-2.895466
 30
0.0
 40
4.0
  1
１４０
 41
0.833333
100
AcDbText
  0
POINT
  5
DE
330
CD
100
AcDbEntity
  8
001
370
     9
100
AcDbPoint
 10
77.727839
 20
18.720961
 30
0.0
  0
POINT
  5
DF
330
CD
100
AcDbEntity
  8
001
370
     9
100
AcDbPoint
 10
217.727839
 20
24.620961
 30
0.0
  0
POINT
  5
E0
330
CD
100
AcDbEntity
  8
001
370
     9
100
AcDbPoint
 10
217.727839
 20
-3.895466
 30
0.0
  0
ENDBLK
  5
CF
330
CD
100
AcDbEntity
  8
0
100
AcDbBlockEnd
  0
ENDSEC
  0
SECTION
  2
ENTITIES
  0
TEXT
  5
E1
330
1F
100
AcDbEntity
  8
001
370
    30
100
AcDbText
 10
34.025279
 20
32.620961
 30
0.0
 40
4.0
  1
%%c８
 50
90.000003
 41
0.909091
100
AcDbText
  0
POLYLINE
  5
E2
330
1F
100
AcDbEntity
  8
001
370
     9
100
AcDb2dPolyline
 66
     1
 10
0.0
 20
0.0
 30
0.0
  0
VERTEX
  5
E4
330
E2
100
AcDbEntity
  8
001
370
     9
100
AcDbVertex
100
AcDb2dVertex
 10
35.427203
 20
34.120961
 30
0.0
  0
VERTEX
  5
E5
330
E2
100
AcDbEntity
  8
001
370
     9
100
AcDbVertex
100
AcDb2dVertex
 10
35.025279
 20
32.620961
 30
0.0
  0
VERTEX
  5
E6
330
E2
100
AcDbEntity
  8
001
370
     9
100
AcDbVertex
100
AcDb2dVertex
 10
34.623356
 20
34.120961
 30
0.0
  0
SEQEND
  5
E3
330
E2
100
AcDbEntity
  8
001
370
     9
  0
LINE
  5
E7
330
1F
100
AcDbEntity
  8
001
370
     9
100
AcDbLine
 10
35.025279
 20
40.620961
 30
0.0
 11
35.025279
 21
32.620961
 31
0.0
  0
POLYLINE
  5
E8
330
1F
100
AcDbEntity
  8
001
370
     9
100
AcDb2dPolyline
 66
     1
 10
0.0
 20
0.0
 30
0.0
  0
VERTEX
  5
EA
330
E8
100
AcDbEntity
  8
001
370
     9
100
AcDbVertex
100
AcDb2dVertex
 10
47.72743
 20
32.620961
 30
0.0
  0
VERTEX
  5
EB
330
E8
100
AcDbEntity
  8
001
370
     9
100
AcDbVertex
100
AcDb2dVertex
 10
35.025279
 20
32.620961
 30
0.0
  0
VERTEX
  5
EC
330
E8
100
AcDbEntity
  8
001
370
     9
100
AcDbVertex
100
AcDb2dVertex
 10
32.275279
 20
32.620961
 30
0.0
  0
SEQEND
  5
E9
330
E8
100
AcDbEntity
  8
001
370
     9
  0
DIMENSION
  5
ED
330
1F
100
AcDbEntity
  8
001
370
     9
100
AcDbDimension
  2
*D1
 10
237.655117
 20
20.620961
 30
0.0
 11
234.655117
 21
35.426199
 31
0.0
 70
   160
 71
     5
 42
-1.0
  3
Standard
100
AcDbAlignedDimension
 13
213.727839
 23
52.620961
 33
0.0
 14
213.727839
 24
20.620961
 34
0.0
 50
270.0
100
AcDbRotatedDimension
  0
DIMENSION
  5
EE
330
1F
100
AcDbEntity
  8
001
370
     9
100
AcDbDimension
  2
*D2
 10
77.727839
 20
-3.895466
 30
0.0
 11
62.727634
 21
-0.895466
 31
0.0
 70
   160
 71
     5
 42
-1.0
  3
Standard
100
AcDbAlignedDimension
 13
47.72743
 23
13.549257
 33
0.0
 14
77.727839
 24
19.220961
 34
0.0
100
AcDbRotatedDimension
  0
DIMENSION
  5
EF
330
1F
100
AcDbEntity
  8
001
370
     9
100
AcDbDimension
  2
*D3
 10
47.727839
 20
32.620961
 30
0.0
 11
64.60009
 21
9.060852
 31
0.0
 70
    34
 71
     5
 42
-1.0
  3
Standard
100
AcDb2LineAngularDimension
 13
52.920619
 23
18.353915
 33
0.0
 14
47.727839
 24
32.620961
 34
0.0
 15
47.727839
 25
20.120961
 35
0.0
 16
53.280841
 26
1.128318
 36
0.0
  0
DIMENSION
  5
F0
330
1F
100
AcDbEntity
  8
001
370
     9
100
AcDbDimension
  2
*D4
 10
47.727839
 20
7.179398
 30
0.0
 11
34.227839
 21
10.179398
 31
0.0
 70
   160
 71
     5
 42
-1.0
  3
Standard
100
AcDbAlignedDimension
 13
53.019966
 23
18.080961
 33
0.0
 14
47.727839
 24
20.120961
 34
0.0
 50
180.0
100
AcDbRotatedDimension
  0
TEXT
  5
F1
330
1F
100
AcDbEntity
  8
001
370
    30
100
AcDbText
 10
23.715964
 20
20.620961
 30
0.0
 40
4.0
  1
（%%c３７．０８）
 50
90.000003
 41
0.851064
100
AcDbText
  0
POLYLINE
  5
F2
330
1F
100
AcDbEntity
  8
001
370
     9
100
AcDb2dPolyline
 66
     1
 10
0.0
 20
0.0
 30
0.0
  0
VERTEX
  5
F4
330
F2
100
AcDbEntity
  8
001
370
     9
100
AcDbVertex
100
AcDb2dVertex
 10
25.117887
 20
19.580961
 30
0.0
  0
VERTEX
  5
F5
330
F2
100
AcDbEntity
  8
001
370
     9
100
AcDbVertex
100
AcDb2dVertex
 10
24.715964
 20
18.080961
 30
0.0
  0
VERTEX
  5
F6
330
F2
100
AcDbEntity
  8
001
370
     9
100
AcDbVertex
100
AcDb2dVertex
 10
24.31404
 20
19.580961
 30
0.0
  0
SEQEND
  5
F3
330
F2
100
AcDbEntity
  8
001
370
     9
  0
LINE
  5
F7
330
1F
100
AcDbEntity
  8
001
370
     9
100
AcDbLine
 10
24.715964
 20
18.080961
 30
0.0
 11
24.715964
 21
55.160961
 31
0.0
  0
POLYLINE
  5
F8
330
1F
100
AcDbEntity
  8
001
370
     9
100
AcDb2dPolyline
 66
     1
 10
0.0
 20
0.0
 30
0.0
  0
VERTEX
  5
FA
330
F8
100
AcDbEntity
  8
001
370
     9
100
AcDbVertex
100
AcDb2dVertex
 10
53.019966
 20
18.080961
 30
0.0
  0
VERTEX
  5
FB
330
F8
100
AcDbEntity
  8
001
370
     9
100
AcDbVertex
100
AcDb2dVertex
 10
24.715964
 20
18.080961
 30
0.0
  0
VERTEX
  5
FC
330
F8
100
AcDbEntity
  8
001
370
     9
100
AcDbVertex
100
AcDb2dVertex
 10
21.965964
 20
18.080961
 30
0.0
  0
SEQEND
  5
F9
330
F8
100
AcDbEntity
  8
001
370
     9
  0
DIMENSION
  5
FD
330
1F
100
AcDbEntity
  8
001
370
     9
100
AcDbDimension
  2
*D5
 10
47.727839
 20
-15.023569
 30
0.0
 11
132.727839
 21
-12.023569
 31
0.0
 70
   160
 71
     5
 42
-1.0
  3
Standard
100
AcDbAlignedDimension
 13
217.727839
 23
24.620961
 33
0.0
 14
47.727839
 24
20.120961
 34
0.0
 50
180.0
100
AcDbRotatedDimension
  0
DIMENSION
  5
FE
330
1F
100
AcDbEntity
  8
001
370
     9
100
AcDbDimension
  2
*D6
 10
217.727839
 20
-3.895466
 30
0.0
 11
147.727839
 21
-0.895466
 31
0.0
 70
   160
 71
     5
 42
-1.0
  3
Standard
100
AcDbAlignedDimension
 13
77.727839
 23
18.720961
 33
0.0
 14
217.727839
 24
24.620961
 34
0.0
100
AcDbRotatedDimension
  0
LINE
  5
FF
330
1F
100
AcDbEntity
  8
001
370
    50
100
AcDbLine
 10
77.727839
 20
19.220961
 30
0.0
 11
77.727839
 21
54.020961
 31
0.0
  0
POLYLINE
  5
100
330
1F
100
AcDbEntity
  8
001
370
    50
100
AcDb2dPolyline
 66
     1
 10
0.0
 20
0.0
 30
0.0
  0
VERTEX
  5
102
330
100
100
AcDbEntity
  8
001
370
    50
100
AcDbVertex
100
AcDb2dVertex
 10
65.95852
 20
23.135766
 30
0.0
  0
VERTEX
  5
103
330
100
100
AcDbEntity
  8
001
370
    50
100
AcDbVertex
100
AcDb2dVertex
 10
66.0688
 20
22.260068
 30
0.0
  0
VERTEX
  5
104
330
100
100
AcDbEntity
  8
001
370
    50
100
AcDbVertex
100
AcDb2dVertex
 10
66.286398
 20
20.989712
 30
0.0
  0
VERTEX
  5
105
330
100
100
AcDbEntity
  8
001
370
    50
100
AcDbVertex
100
AcDb2dVertex
 10
66.482401
 20
20.175729
 30
0.0
  0
VERTEX
  5
106
330
100
100
AcDbEntity
  8
001
370
    50
100
AcDbVertex
100
AcDb2dVertex
 10
66.653759
 20
19.629489
 30
0.0
  0
SEQEND
  5
101
330
100
100
AcDbEntity
  8
001
370
    50
  0
POLYLINE
  5
107
330
1F
100
AcDbEntity
  8
001
370
    50
100
AcDb2dPolyline
 66
     1
 10
0.0
 20
0.0
 30
0.0
  0
VERTEX
  5
109
330
107
100
AcDbEntity
  8
001
370
    50
100
AcDbVertex
100
AcDb2dVertex
 10
65.95852
 20
23.135766
 30
0.0
  0
VERTEX
  5
10A
330
107
100
AcDbEntity
  8
001
370
    50
100
AcDbVertex
100
AcDb2dVertex
 10
66.776837
 20
24.060305
 30
0.0
  0
VERTEX
  5
10B
330
107
100
AcDbEntity
  8
001
370
    50
100
AcDbVertex
100
AcDb2dVertex
 10
67.822215
 20
25.401639
 30
0.0
  0
VERTEX
  5
10C
330
107
100
AcDbEntity
  8
001
370
    50
100
AcDbVertex
100
AcDb2dVertex
 10
68.670932
 20
26.738984
 30
0.0
  0
VERTEX
  5
10D
330
107
100
AcDbEntity
  8
001
370
    50
100
AcDbVertex
100
AcDb2dVertex
 10
69.315519
 20
28.045538
 30
0.0
  0
VERTEX
  5
10E
330
107
100
AcDbEntity
  8
001
370
    50
100
AcDbVertex
100
AcDb2dVertex
 10
69.8973
 20
29.477479
 30
0.0
  0
VERTEX
  5
10F
330
107
100
AcDbEntity
  8
001
370
    50
100
AcDbVertex
100
AcDb2dVertex
 10
70.388117
 20
30.978379
 30
0.0
  0
VERTEX
  5
110
330
107
100
AcDbEntity
  8
001
370
    50
100
AcDbVertex
100
AcDb2dVertex
 10
70.759354
 20
32.53171
 30
0.0
  0
VERTEX
  5
111
330
107
100
AcDbEntity
  8
001
370
    50
100
AcDbVertex
100
AcDb2dVertex
 10
71.003869
 20
34.101343
 30
0.0
  0
VERTEX
  5
112
330
107
100
AcDbEntity
  8
001
370
    50
100
AcDbVertex
100
AcDb2dVertex
 10
71.132706
 20
35.70145
 30
0.0
  0
VERTEX
  5
113
330
107
100
AcDbEntity
  8
001
370
    50
100
AcDbVertex
100
AcDb2dVertex
 10
71.142027
 20
37.309203
 30
0.0
  0
VERTEX
  5
114
330
107
100
AcDbEntity
  8
001
370
    50
100
AcDbVertex
100
AcDb2dVertex
 10
71.029483
 20
38.909217
 30
0.0
  0
VERTEX
  5
115
330
107
100
AcDbEntity
  8
001
370
    50
100
AcDbVertex
100
AcDb2dVertex
 10
70.797937
 20
40.493874
 30
0.0
  0
VERTEX
  5
116
330
107
100
AcDbEntity
  8
001
370
    50
100
AcDbVertex
100
AcDb2dVertex
 10
70.453705
 20
42.033453
 30
0.0
  0
VERTEX
  5
117
330
107
100
AcDbEntity
  8
001
370
    50
100
AcDbVertex
100
AcDb2dVertex
 10
69.983191
 20
43.548049
 30
0.0
  0
VERTEX
  5
118
330
107
100
AcDbEntity
  8
001
370
    50
100
AcDbVertex
100
AcDb2dVertex
 10
69.397803
 20
44.995978
 30
0.0
  0
VERTEX
  5
119
330
107
100
AcDbEntity
  8
001
370
    50
100
AcDbVertex
100
AcDb2dVertex
 10
68.725242
 20
46.368822
 30
0.0
  0
VERTEX
  5
11A
330
107
100
AcDbEntity
  8
001
370
    50
100
AcDbVertex
100
AcDb2dVertex
 10
67.99925
 20
47.608548
 30
0.0
  0
VERTEX
  5
11B
330
107
100
AcDbEntity
  8
001
370
    50
100
AcDbVertex
100
AcDb2dVertex
 10
67.066476
 20
48.861148
 30
0.0
  0
VERTEX
  5
11C
330
107
100
AcDbEntity
  8
001
370
    50
100
AcDbVertex
100
AcDb2dVertex
 10
65.938125
 20
50.097834
 30
0.0
  0
VERTEX
  5
11D
330
107
100
AcDbEntity
  8
001
370
    50
100
AcDbVertex
100
AcDb2dVertex
 10
65.062785
 20
50.941051
 30
0.0
  0
SEQEND
  5
108
330
107
100
AcDbEntity
  8
001
370
    50
  0
POLYLINE
  5
11E
330
1F
100
AcDbEntity
  8
001
370
    50
100
AcDb2dPolyline
 66
     1
 10
0.0
 20
0.0
 30
0.0
  0
VERTEX
  5
120
330
11E
100
AcDbEntity
  8
001
370
    50
100
AcDbVertex
100
AcDb2dVertex
 10
65.062785
 20
50.941051
 30
0.0
  0
VERTEX
  5
121
330
11E
100
AcDbEntity
  8
001
370
    50
100
AcDbVertex
100
AcDb2dVertex
 10
62.698627
 20
51.10349
 30
0.0
  0
VERTEX
  5
122
330
11E
100
AcDbEntity
  8
001
370
    50
100
AcDbVertex
100
AcDb2dVertex
 10
59.24273
 20
51.331995
 30
0.0
  0
VERTEX
  5
123
330
11E
100
AcDbEntity
  8
001
370
    50
100
AcDbVertex
100
AcDb2dVertex
 10
55.697034
 20
51.553779
 30
0.0
  0
VERTEX
  5
124
330
11E
100
AcDbEntity
  8
001
370
    50
100
AcDbVertex
100
AcDb2dVertex
 10
53.270647
 20
51.699387
 30
0.0
  0
SEQEND
  5
11F
330
11E
100
AcDbEntity
  8
001
370
    50
  0
LINE
  5
125
330
1F
100
AcDbEntity
  8
001
370
    50
100
AcDbLine
 10
53.270647
 20
54.120381
 30
0.0
 11
53.270647
 21
51.699387
 31
0.0
  0
LINE
  5
126
330
1F
100
AcDbEntity
  8
001
370
    50
100
AcDbLine
 10
65.95852
 20
28.420961
 30
0.0
 11
65.95852
 21
23.135766
 31
0.0
  0
POLYLINE
  5
127
330
1F
100
AcDbEntity
  8
001
370
    50
100
AcDb2dPolyline
 66
     1
 10
0.0
 20
0.0
 30
0.0
  0
VERTEX
  5
129
330
127
100
AcDbEntity
  8
001
370
    50
100
AcDbVertex
100
AcDb2dVertex
 10
65.95852
 20
28.420961
 30
0.0
  0
VERTEX
  5
12A
330
127
100
AcDbEntity
  8
001
370
    50
100
AcDbVertex
100
AcDb2dVertex
 10
65.915633
 20
29.215677
 30
0.0
  0
VERTEX
  5
12B
330
127
100
AcDbEntity
  8
001
370
    50
100
AcDbVertex
100
AcDb2dVertex
 10
65.730724
 20
30.357453
 30
0.0
  0
VERTEX
  5
12C
330
127
100
AcDbEntity
  8
001
370
    50
100
AcDbVertex
100
AcDb2dVertex
 10
65.381788
 20
31.444712
 30
0.0
  0
VERTEX
  5
12D
330
127
100
AcDbEntity
  8
001
370
    50
100
AcDbVertex
100
AcDb2dVertex
 10
65.062785
 20
32.162619
 30
0.0
  0
SEQEND
  5
128
330
127
100
AcDbEntity
  8
001
370
    50
  0
LINE
  5
12E
330
1F
100
AcDbEntity
  8
001
370
    50
100
AcDbLine
 10
65.062785
 20
50.941051
 30
0.0
 11
65.062785
 21
32.162619
 31
0.0
  0
LINE
  5
12F
330
1F
100
AcDbEntity
  8
001
370
    50
100
AcDbLine
 10
217.727839
 20
24.620961
 30
0.0
 11
217.727839
 21
48.620961
 31
0.0
  0
POLYLINE
  5
130
330
1F
100
AcDbEntity
  8
001
370
    50
100
AcDb2dPolyline
 66
     1
 10
0.0
 20
0.0
 30
0.0
  0
VERTEX
  5
132
330
130
100
AcDbEntity
  8
001
370
    50
100
AcDbVertex
100
AcDb2dVertex
 10
50.153734
 20
35.920961
 30
0.0
  0
VERTEX
  5
133
330
130
100
AcDbEntity
  8
001
370
    50
100
AcDbVertex
100
AcDb2dVertex
 10
50.151369
 20
36.008957
 30
0.0
  0
VERTEX
  5
134
330
130
100
AcDbEntity
  8
001
370
    50
100
AcDbVertex
100
AcDb2dVertex
 10
50.149186
 20
36.096959
 30
0.0
  0
VERTEX
  5
135
330
130
100
AcDbEntity
  8
001
370
    50
100
AcDbVertex
100
AcDb2dVertex
 10
50.143866
 20
36.746433
 30
0.0
  0
VERTEX
  5
136
330
130
100
AcDbEntity
  8
001
370
    50
100
AcDbVertex
100
AcDb2dVertex
 10
50.156914
 20
37.395864
 30
0.0
  0
VERTEX
  5
137
330
130
100
AcDbEntity
  8
001
370
    50
100
AcDbVertex
100
AcDb2dVertex
 10
50.187075
 20
38.045197
 30
0.0
  0
VERTEX
  5
138
330
130
100
AcDbEntity
  8
001
370
    50
100
AcDbVertex
100
AcDb2dVertex
 10
50.233725
 20
38.693529
 30
0.0
  0
VERTEX
  5
139
330
130
100
AcDbEntity
  8
001
370
    50
100
AcDbVertex
100
AcDb2dVertex
 10
50.296275
 20
39.340144
 30
0.0
  0
VERTEX
  5
13A
330
130
100
AcDbEntity
  8
001
370
    50
100
AcDbVertex
100
AcDb2dVertex
 10
50.373835
 20
39.985137
 30
0.0
  0
VERTEX
  5
13B
330
130
100
AcDbEntity
  8
001
370
    50
100
AcDbVertex
100
AcDb2dVertex
 10
50.467089
 20
40.639814
 30
0.0
  0
VERTEX
  5
13C
330
130
100
AcDbEntity
  8
001
370
    50
100
AcDbVertex
100
AcDb2dVertex
 10
50.573328
 20
41.292513
 30
0.0
  0
VERTEX
  5
13D
330
130
100
AcDbEntity
  8
001
370
    50
100
AcDbVertex
100
AcDb2dVertex
 10
50.691138
 20
41.943444
 30
0.0
  0
VERTEX
  5
13E
330
130
100
AcDbEntity
  8
001
370
    50
100
AcDbVertex
100
AcDb2dVertex
 10
50.819289
 20
42.592416
 30
0.0
  0
VERTEX
  5
13F
330
130
100
AcDbEntity
  8
001
370
    50
100
AcDbVertex
100
AcDb2dVertex
 10
50.956617
 20
43.23937
 30
0.0
  0
VERTEX
  5
140
330
130
100
AcDbEntity
  8
001
370
    50
100
AcDbVertex
100
AcDb2dVertex
 10
51.101959
 20
43.884576
 30
0.0
  0
VERTEX
  5
141
330
130
100
AcDbEntity
  8
001
370
    50
100
AcDbVertex
100
AcDb2dVertex
 10
51.3378
 20
44.870038
 30
0.0
  0
VERTEX
  5
142
330
130
100
AcDbEntity
  8
001
370
    50
100
AcDbVertex
100
AcDb2dVertex
 10
51.587464
 20
45.852098
 30
0.0
  0
VERTEX
  5
143
330
130
100
AcDbEntity
  8
001
370
    50
100
AcDbVertex
100
AcDb2dVertex
 10
51.84877
 20
46.831118
 30
0.0
  0
VERTEX
  5
144
330
130
100
AcDbEntity
  8
001
370
    50
100
AcDbVertex
100
AcDb2dVertex
 10
52.119485
 20
47.80758
 30
0.0
  0
VERTEX
  5
145
330
130
100
AcDbEntity
  8
001
370
    50
100
AcDbVertex
100
AcDb2dVertex
 10
52.398088
 20
48.783241
 30
0.0
  0
VERTEX
  5
146
330
130
100
AcDbEntity
  8
001
370
    50
100
AcDbVertex
100
AcDb2dVertex
 10
52.683665
 20
49.756873
 30
0.0
  0
VERTEX
  5
147
330
130
100
AcDbEntity
  8
001
370
    50
100
AcDbVertex
100
AcDb2dVertex
 10
52.975467
 20
50.728636
 30
0.0
  0
VERTEX
  5
148
330
130
100
AcDbEntity
  8
001
370
    50
100
AcDbVertex
100
AcDb2dVertex
 10
53.270647
 20
51.699387
 30
0.0
  0
SEQEND
  5
131
330
130
100
AcDbEntity
  8
001
370
    50
  0
POLYLINE
  5
149
330
1F
100
AcDbEntity
  8
001
370
    50
100
AcDb2dPolyline
 66
     1
 10
0.0
 20
0.0
 30
0.0
  0
VERTEX
  5
14B
330
149
100
AcDbEntity
  8
001
370
    50
100
AcDbVertex
100
AcDb2dVertex
 10
65.062785
 20
32.162619
 30
0.0
  0
VERTEX
  5
14C
330
149
100
AcDbEntity
  8
001
370
    50
100
AcDbVertex
100
AcDb2dVertex
 10
64.764985
 20
32.62535
 30
0.0
  0
VERTEX
  5
14D
330
149
100
AcDbEntity
  8
001
370
    50
100
AcDbVertex
100
AcDb2dVertex
 10
64.316979
 20
33.235718
 30
0.0
  0
VERTEX
  5
14E
330
149
100
AcDbEntity
  8
001
370
    50
100
AcDbVertex
100
AcDb2dVertex
 10
63.862835
 20
33.743147
 30
0.0
  0
VERTEX
  5
14F
330
149
100
AcDbEntity
  8
001
370
    50
100
AcDbVertex
100
AcDb2dVertex
 10
63.396885
 20
34.162166
 30
0.0
  0
VERTEX
  5
150
330
149
100
AcDbEntity
  8
001
370
    50
100
AcDbVertex
100
AcDb2dVertex
 10
62.88584
 20
34.554836
 30
0.0
  0
VERTEX
  5
151
330
149
100
AcDbEntity
  8
001
370
    50
100
AcDbVertex
100
AcDb2dVertex
 10
62.33053
 20
34.913743
 30
0.0
  0
VERTEX
  5
152
330
149
100
AcDbEntity
  8
001
370
    50
100
AcDbVertex
100
AcDb2dVertex
 10
61.744169
 20
35.218234
 30
0.0
  0
VERTEX
  5
153
330
149
100
AcDbEntity
  8
001
370
    50
100
AcDbVertex
100
AcDb2dVertex
 10
61.150392
 20
35.467558
 30
0.0
  0
VERTEX
  5
154
330
149
100
AcDbEntity
  8
001
370
    50
100
AcDbVertex
100
AcDb2dVertex
 10
60.556848
 20
35.664291
 30
0.0
  0
VERTEX
  5
155
330
149
100
AcDbEntity
  8
001
370
    50
100
AcDbVertex
100
AcDb2dVertex
 10
59.892418
 20
35.806741
 30
0.0
  0
VERTEX
  5
156
330
149
100
AcDbEntity
  8
001
370
    50
100
AcDbVertex
100
AcDb2dVertex
 10
59.142638
 20
35.892421
 30
0.0
  0
VERTEX
  5
157
330
149
100
AcDbEntity
  8
001
370
    50
100
AcDbVertex
100
AcDb2dVertex
 10
58.594923
 20
35.920961
 30
0.0
  0
SEQEND
  5
14A
330
149
100
AcDbEntity
  8
001
370
    50
  0
POLYLINE
  5
158
330
1F
100
AcDbEntity
  8
001
370
    50
100
AcDb2dPolyline
 66
     1
 10
0.0
 20
0.0
 30
0.0
  0
VERTEX
  5
15A
330
158
100
AcDbEntity
  8
001
370
    50
100
AcDbVertex
100
AcDb2dVertex
 10
58.630624
 20
45.370618
 30
0.0
  0
VERTEX
  5
15B
330
158
100
AcDbEntity
  8
001
370
    50
100
AcDbVertex
100
AcDb2dVertex
 10
58.620377
 20
45.564898
 30
0.0
  0
VERTEX
  5
15C
330
158
100
AcDbEntity
  8
001
370
    50
100
AcDbVertex
100
AcDb2dVertex
 10
58.589757
 20
45.830786
 30
0.0
  0
VERTEX
  5
15D
330
158
100
AcDbEntity
  8
001
370
    50
100
AcDbVertex
100
AcDb2dVertex
 10
58.538942
 20
46.066411
 30
0.0
  0
VERTEX
  5
15E
330
158
100
AcDbEntity
  8
001
370
    50
100
AcDbVertex
100
AcDb2dVertex
 10
58.468399
 20
46.276972
 30
0.0
  0
VERTEX
  5
15F
330
158
100
AcDbEntity
  8
001
370
    50
100
AcDbVertex
100
AcDb2dVertex
 10
58.378525
 20
46.488013
 30
0.0
  0
VERTEX
  5
160
330
158
100
AcDbEntity
  8
001
370
    50
100
AcDbVertex
100
AcDb2dVertex
 10
58.270236
 20
46.695618
 30
0.0
  0
VERTEX
  5
161
330
158
100
AcDbEntity
  8
001
370
    50
100
AcDbVertex
100
AcDb2dVertex
 10
58.144111
 20
46.89142
 30
0.0
  0
VERTEX
  5
162
330
158
100
AcDbEntity
  8
001
370
    50
100
AcDbVertex
100
AcDb2dVertex
 10
58.001291
 20
47.074006
 30
0.0
  0
VERTEX
  5
163
330
158
100
AcDbEntity
  8
001
370
    50
100
AcDbVertex
100
AcDb2dVertex
 10
57.842448
 20
47.244362
 30
0.0
  0
VERTEX
  5
164
330
158
100
AcDbEntity
  8
001
370
    50
100
AcDbVertex
100
AcDb2dVertex
 10
57.669734
 20
47.400636
 30
0.0
  0
VERTEX
  5
165
330
158
100
AcDbEntity
  8
001
370
    50
100
AcDbVertex
100
AcDb2dVertex
 10
57.484149
 20
47.541499
 30
0.0
  0
VERTEX
  5
166
330
158
100
AcDbEntity
  8
001
370
    50
100
AcDbVertex
100
AcDb2dVertex
 10
57.28564
 20
47.665586
 30
0.0
  0
VERTEX
  5
167
330
158
100
AcDbEntity
  8
001
370
    50
100
AcDbVertex
100
AcDb2dVertex
 10
57.074715
 20
47.772363
 30
0.0
  0
VERTEX
  5
168
330
158
100
AcDbEntity
  8
001
370
    50
100
AcDbVertex
100
AcDb2dVertex
 10
56.860679
 20
47.860804
 30
0.0
  0
VERTEX
  5
169
330
158
100
AcDbEntity
  8
001
370
    50
100
AcDbVertex
100
AcDb2dVertex
 10
56.646762
 20
47.930339
 30
0.0
  0
VERTEX
  5
16A
330
158
100
AcDbEntity
  8
001
370
    50
100
AcDbVertex
100
AcDb2dVertex
 10
56.407764
 20
47.980359
 30
0.0
  0
VERTEX
  5
16B
330
158
100
AcDbEntity
  8
001
370
    50
100
AcDbVertex
100
AcDb2dVertex
 10
56.137834
 20
48.01053
 30
0.0
  0
VERTEX
  5
16C
330
158
100
AcDbEntity
  8
001
370
    50
100
AcDbVertex
100
AcDb2dVertex
 10
55.940656
 20
48.020618
 30
0.0
  0
SEQEND
  5
159
330
158
100
AcDbEntity
  8
001
370
    50
  0
POLYLINE
  5
16D
330
1F
100
AcDbEntity
  8
001
370
    50
100
AcDb2dPolyline
 66
     1
 10
0.0
 20
0.0
 30
0.0
  0
VERTEX
  5
16F
330
16D
100
AcDbEntity
  8
001
370
    50
100
AcDbVertex
100
AcDb2dVertex
 10
55.940656
 20
42.720618
 30
0.0
  0
VERTEX
  5
170
330
16D
100
AcDbEntity
  8
001
370
    50
100
AcDbVertex
100
AcDb2dVertex
 10
56.137834
 20
42.730707
 30
0.0
  0
VERTEX
  5
171
330
16D
100
AcDbEntity
  8
001
370
    50
100
AcDbVertex
100
AcDb2dVertex
 10
56.407764
 20
42.760878
 30
0.0
  0
VERTEX
  5
172
330
16D
100
AcDbEntity
  8
001
370
    50
100
AcDbVertex
100
AcDb2dVertex
 10
56.646762
 20
42.810898
 30
0.0
  0
VERTEX
  5
173
330
16D
100
AcDbEntity
  8
001
370
    50
100
AcDbVertex
100
AcDb2dVertex
 10
56.860679
 20
42.880433
 30
0.0
  0
VERTEX
  5
174
330
16D
100
AcDbEntity
  8
001
370
    50
100
AcDbVertex
100
AcDb2dVertex
 10
57.074715
 20
42.968874
 30
0.0
  0
VERTEX
  5
175
330
16D
100
AcDbEntity
  8
001
370
    50
100
AcDbVertex
100
AcDb2dVertex
 10
57.28564
 20
43.075651
 30
0.0
  0
VERTEX
  5
176
330
16D
100
AcDbEntity
  8
001
370
    50
100
AcDbVertex
100
AcDb2dVertex
 10
57.484149
 20
43.199738
 30
0.0
  0
VERTEX
  5
177
330
16D
100
AcDbEntity
  8
001
370
    50
100
AcDbVertex
100
AcDb2dVertex
 10
57.669734
 20
43.340601
 30
0.0
  0
VERTEX
  5
178
330
16D
100
AcDbEntity
  8
001
370
    50
100
AcDbVertex
100
AcDb2dVertex
 10
57.842448
 20
43.496875
 30
0.0
  0
VERTEX
  5
179
330
16D
100
AcDbEntity
  8
001
370
    50
100
AcDbVertex
100
AcDb2dVertex
 10
58.001291
 20
43.667231
 30
0.0
  0
VERTEX
  5
17A
330
16D
100
AcDbEntity
  8
001
370
    50
100
AcDbVertex
100
AcDb2dVertex
 10
58.144111
 20
43.849817
 30
0.0
  0
VERTEX
  5
17B
330
16D
100
AcDbEntity
  8
001
370
    50
100
AcDbVertex
100
AcDb2dVertex
 10
58.270236
 20
44.045618
 30
0.0
  0
VERTEX
  5
17C
330
16D
100
AcDbEntity
  8
001
370
    50
100
AcDbVertex
100
AcDb2dVertex
 10
58.378525
 20
44.253224
 30
0.0
  0
VERTEX
  5
17D
330
16D
100
AcDbEntity
  8
001
370
    50
100
AcDbVertex
100
AcDb2dVertex
 10
58.468399
 20
44.464265
 30
0.0
  0
VERTEX
  5
17E
330
16D
100
AcDbEntity
  8
001
370
    50
100
AcDbVertex
100
AcDb2dVertex
 10
58.538942
 20
44.674826
 30
0.0
  0
VERTEX
  5
17F
330
16D
100
AcDbEntity
  8
001
370
    50
100
AcDbVertex
100
AcDb2dVertex
 10
58.589757
 20
44.910451
 30
0.0
  0
VERTEX
  5
180
330
16D
100
AcDbEntity
  8
001
370
    50
100
AcDbVertex
100
AcDb2dVertex
 10
58.620377
 20
45.176339
 30
0.0
  0
VERTEX
  5
181
330
16D
100
AcDbEntity
  8
001
370
    50
100
AcDbVertex
100
AcDb2dVertex
 10
58.630624
 20
45.370618
 30
0.0
  0
SEQEND
  5
16E
330
16D
100
AcDbEntity
  8
001
370
    50
  0
POLYLINE
  5
182
330
1F
100
AcDbEntity
  8
001
370
    50
100
AcDb2dPolyline
 66
     1
 10
0.0
 20
0.0
 30
0.0
  0
VERTEX
  5
184
330
182
100
AcDbEntity
  8
001
370
    50
100
AcDbVertex
100
AcDb2dVertex
 10
55.940656
 20
48.020618
 30
0.0
  0
VERTEX
  5
185
330
182
100
AcDbEntity
  8
001
370
    50
100
AcDbVertex
100
AcDb2dVertex
 10
55.743479
 20
48.010531
 30
0.0
  0
VERTEX
  5
186
330
182
100
AcDbEntity
  8
001
370
    50
100
AcDbVertex
100
AcDb2dVertex
 10
55.473549
 20
47.980359
 30
0.0
  0
VERTEX
  5
187
330
182
100
AcDbEntity
  8
001
370
    50
100
AcDbVertex
100
AcDb2dVertex
 10
55.234551
 20
47.930336
 30
0.0
  0
VERTEX
  5
188
330
182
100
AcDbEntity
  8
001
370
    50
100
AcDbVertex
100
AcDb2dVertex
 10
55.020634
 20
47.860804
 30
0.0
  0
VERTEX
  5
189
330
182
100
AcDbEntity
  8
001
370
    50
100
AcDbVertex
100
AcDb2dVertex
 10
54.806598
 20
47.772377
 30
0.0
  0
VERTEX
  5
18A
330
182
100
AcDbEntity
  8
001
370
    50
100
AcDbVertex
100
AcDb2dVertex
 10
54.595673
 20
47.665586
 30
0.0
  0
VERTEX
  5
18B
330
182
100
AcDbEntity
  8
001
370
    50
100
AcDbVertex
100
AcDb2dVertex
 10
54.397164
 20
47.541447
 30
0.0
  0
VERTEX
  5
18C
330
182
100
AcDbEntity
  8
001
370
    50
100
AcDbVertex
100
AcDb2dVertex
 10
54.211579
 20
47.400636
 30
0.0
  0
VERTEX
  5
18D
330
182
100
AcDbEntity
  8
001
370
    50
100
AcDbVertex
100
AcDb2dVertex
 10
54.038865
 20
47.244553
 30
0.0
  0
VERTEX
  5
18E
330
182
100
AcDbEntity
  8
001
370
    50
100
AcDbVertex
100
AcDb2dVertex
 10
53.880022
 20
47.074006
 30
0.0
  0
VERTEX
  5
18F
330
182
100
AcDbEntity
  8
001
370
    50
100
AcDbVertex
100
AcDb2dVertex
 10
53.737202
 20
46.890709
 30
0.0
  0
VERTEX
  5
190
330
182
100
AcDbEntity
  8
001
370
    50
100
AcDbVertex
100
AcDb2dVertex
 10
53.611077
 20
46.695618
 30
0.0
  0
VERTEX
  5
191
330
182
100
AcDbEntity
  8
001
370
    50
100
AcDbVertex
100
AcDb2dVertex
 10
53.502788
 20
46.490659
 30
0.0
  0
VERTEX
  5
192
330
182
100
AcDbEntity
  8
001
370
    50
100
AcDbVertex
100
AcDb2dVertex
 10
53.412914
 20
46.276972
 30
0.0
  0
VERTEX
  5
193
330
182
100
AcDbEntity
  8
001
370
    50
100
AcDbVertex
100
AcDb2dVertex
 10
53.342371
 20
46.056561
 30
0.0
  0
VERTEX
  5
194
330
182
100
AcDbEntity
  8
001
370
    50
100
AcDbVertex
100
AcDb2dVertex
 10
53.291556
 20
45.830786
 30
0.0
  0
VERTEX
  5
195
330
182
100
AcDbEntity
  8
001
370
    50
100
AcDbVertex
100
AcDb2dVertex
 10
53.260936
 20
45.601607
 30
0.0
  0
VERTEX
  5
196
330
182
100
AcDbEntity
  8
001
370
    50
100
AcDbVertex
100
AcDb2dVertex
 10
53.250689
 20
45.370618
 30
0.0
  0
VERTEX
  5
197
330
182
100
AcDbEntity
  8
001
370
    50
100
AcDbVertex
100
AcDb2dVertex
 10
53.260936
 20
45.13963
 30
0.0
  0
VERTEX
  5
198
330
182
100
AcDbEntity
  8
001
370
    50
100
AcDbVertex
100
AcDb2dVertex
 10
53.291556
 20
44.910451
 30
0.0
  0
VERTEX
  5
199
330
182
100
AcDbEntity
  8
001
370
    50
100
AcDbVertex
100
AcDb2dVertex
 10
53.342371
 20
44.684676
 30
0.0
  0
VERTEX
  5
19A
330
182
100
AcDbEntity
  8
001
370
    50
100
AcDbVertex
100
AcDb2dVertex
 10
53.412914
 20
44.464265
 30
0.0
  0
VERTEX
  5
19B
330
182
100
AcDbEntity
  8
001
370
    50
100
AcDbVertex
100
AcDb2dVertex
 10
53.502788
 20
44.250578
 30
0.0
  0
VERTEX
  5
19C
330
182
100
AcDbEntity
  8
001
370
    50
100
AcDbVertex
100
AcDb2dVertex
 10
53.611077
 20
44.045618
 30
0.0
  0
VERTEX
  5
19D
330
182
100
AcDbEntity
  8
001
370
    50
100
AcDbVertex
100
AcDb2dVertex
 10
53.737202
 20
43.850528
 30
0.0
  0
VERTEX
  5
19E
330
182
100
AcDbEntity
  8
001
370
    50
100
AcDbVertex
100
AcDb2dVertex
 10
53.880022
 20
43.667231
 30
0.0
  0
VERTEX
  5
19F
330
182
100
AcDbEntity
  8
001
370
    50
100
AcDbVertex
100
AcDb2dVertex
 10
54.038865
 20
43.496684
 30
0.0
  0
VERTEX
  5
1A0
330
182
100
AcDbEntity
  8
001
370
    50
100
AcDbVertex
100
AcDb2dVertex
 10
54.211579
 20
43.340601
 30
0.0
  0
VERTEX
  5
1A1
330
182
100
AcDbEntity
  8
001
370
    50
100
AcDbVertex
100
AcDb2dVertex
 10
54.397164
 20
43.19979
 30
0.0
  0
VERTEX
  5
1A2
330
182
100
AcDbEntity
  8
001
370
    50
100
AcDbVertex
100
AcDb2dVertex
 10
54.595673
 20
43.075651
 30
0.0
  0
VERTEX
  5
1A3
330
182
100
AcDbEntity
  8
001
370
    50
100
AcDbVertex
100
AcDb2dVertex
 10
54.806598
 20
42.96886
 30
0.0
  0
VERTEX
  5
1A4
330
182
100
AcDbEntity
  8
001
370
    50
100
AcDbVertex
100
AcDb2dVertex
 10
55.020634
 20
42.880433
 30
0.0
  0
VERTEX
  5
1A5
330
182
100
AcDbEntity
  8
001
370
    50
100
AcDbVertex
100
AcDb2dVertex
 10
55.234551
 20
42.810901
 30
0.0
  0
VERTEX
  5
1A6
330
182
100
AcDbEntity
  8
001
370
    50
100
AcDbVertex
100
AcDb2dVertex
 10
55.473549
 20
42.760878
 30
0.0
  0
VERTEX
  5
1A7
330
182
100
AcDbEntity
  8
001
370
    50
100
AcDbVertex
100
AcDb2dVertex
 10
55.743479
 20
42.730706
 30
0.0
  0
VERTEX
  5
1A8
330
182
100
AcDbEntity
  8
001
370
    50
100
AcDbVertex
100
AcDb2dVertex
 10
55.940656
 20
42.720618
 30
0.0
  0
SEQEND
  5
183
330
182
100
AcDbEntity
  8
001
370
    50
  0
LINE
  5
1A9
330
1F
100
AcDbEntity
  8
001
370
    50
100
AcDbLine
 10
48.227839
 20
33.967799
 30
0.0
 11
48.399375
 21
33.92119
 31
0.0
  0
LINE
  5
1AA
330
1F
100
AcDbEntity
  8
001
370
    50
100
AcDbLine
 10
58.594923
 20
35.920961
 30
0.0
 11
48.227839
 21
35.920961
 31
0.0
  0
LINE
  5
1AB
330
1F
100
AcDbEntity
  8
001
370
    50
100
AcDbLine
 10
80.727839
 20
20.620961
 30
0.0
 11
80.727839
 21
52.620961
 31
0.0
  0
LINE
  5
1AC
330
1F
100
AcDbEntity
  8
001
370
    50
100
AcDbLine
 10
80.727839
 20
52.120961
 30
0.0
 11
77.727839
 21
52.120961
 31
0.0
  0
LINE
  5
1AD
330
1F
100
AcDbEntity
  8
001
370
    50
100
AcDbLine
 10
77.727839
 20
21.120961
 30
0.0
 11
80.727839
 21
21.120961
 31
0.0
  0
LINE
  5
1AE
330
1F
100
AcDbEntity
  8
001
370
    50
100
AcDbLine
 10
213.727839
 20
52.620961
 30
0.0
 11
80.727839
 21
52.620961
 31
0.0
  0
LINE
  5
1AF
330
1F
100
AcDbEntity
  8
001
370
    50
100
AcDbLine
 10
213.727839
 20
20.620961
 30
0.0
 11
80.727839
 21
20.620961
 31
0.0
  0
LINE
  5
1B0
330
1F
100
AcDbEntity
  8
001
370
    50
100
AcDbLine
 10
217.727839
 20
36.620961
 30
0.0
 11
222.057966
 21
39.120961
 31
0.0
  0
LINE
  5
1B1
330
1F
100
AcDbEntity
  8
001
370
    50
100
AcDbLine
 10
217.727839
 20
36.620961
 30
0.0
 11
222.057966
 21
34.120961
 31
0.0
  0
LINE
  5
1B2
330
1F
100
AcDbEntity
  8
001
370
    50
100
AcDbLine
 10
48.227839
 20
36.620961
 30
0.0
 11
44.763737
 21
38.620961
 31
0.0
  0
LINE
  5
1B3
330
1F
100
AcDbEntity
  8
001
370
    50
100
AcDbLine
 10
48.227839
 20
36.620961
 30
0.0
 11
44.763737
 21
34.620961
 31
0.0
  0
ARC
  5
1B4
330
1F
100
AcDbEntity
  8
001
370
    50
100
AcDbCircle
 10
213.727839
 20
48.620961
 30
0.0
 40
4.0
100
AcDbArc
 50
0.0
 51
90.0
  0
ARC
  5
1B5
330
1F
100
AcDbEntity
  8
001
370
    50
100
AcDbCircle
 10
213.727839
 20
24.620961
 30
0.0
 40
4.0
100
AcDbArc
 50
270.0
 51
0.0
  0
LINE
  5
1B6
330
1F
100
AcDbEntity
  8
001
370
    50
100
AcDbLine
 10
48.197298
 20
33.085415
 30
0.0
 11
63.079854
 21
30.461219
 31
0.0
  0
LINE
  5
1B7
330
1F
100
AcDbEntity
  8
001
370
    50
100
AcDbLine
 10
53.591706
 20
18.22025
 30
0.0
 11
63.316812
 21
29.810181
 31
0.0
  0
ARC
  5
1B8
330
1F
100
AcDbEntity
  8
001
370
    50
100
AcDbCircle
 10
63.010395
 20
30.067296
 30
0.0
 40
0.4
100
AcDbArc
 50
320.0
 51
80.0
  0
ARC
  5
1B9
330
1F
100
AcDbEntity
  8
001
370
    50
100
AcDbCircle
 10
48.127839
 20
32.691492
 30
0.0
 40
0.4
100
AcDbArc
 50
80.0
 51
200.0
  0
CIRCLE
  5
1BA
330
1F
100
AcDbEntity
  8
001
370
    50
100
AcDbCircle
 10
54.811577
 20
27.08317
 30
0.0
 40
1.9
  0
LINE
  5
1BB
330
1F
100
AcDbEntity
  8
001
370
     9
100
AcDbLine
 10
47.727839
 20
32.620961
 30
0.0
 11
47.727839
 21
32.691492
 31
0.0
  0
LINE
  5
1BC
330
1F
100
AcDbEntity
  8
001
370
     9
100
AcDbLine
 10
47.751962
 20
32.554684
 30
0.0
 11
47.727839
 21
32.620961
 31
0.0
  0
LINE
  5
1BD
330
1F
100
AcDbEntity
  8
001
370
     9
100
AcDbLine
 10
53.019966
 20
18.080961
 30
0.0
 11
52.920619
 21
18.353915
 31
0.0
  0
LINE
  5
1BE
330
1F
100
AcDbEntity
  8
001
370
    50
100
AcDbLine
 10
52.926583
 20
18.337529
 30
0.0
 11
47.751962
 21
32.554684
 31
0.0
  0
POLYLINE
  5
1BF
330
1F
100
AcDbEntity
  8
001
370
    50
100
AcDb2dPolyline
 66
     1
 10
0.0
 20
0.0
 30
0.0
  0
VERTEX
  5
1C1
330
1BF
100
AcDbEntity
  8
001
370
    50
100
AcDbVertex
100
AcDb2dVertex
 10
54.56221
 20
19.376852
 30
0.0
  0
VERTEX
  5
1C2
330
1BF
100
AcDbEntity
  8
001
370
    50
100
AcDbVertex
100
AcDb2dVertex
 10
57.076704
 20
19.422289
 30
0.0
  0
VERTEX
  5
1C3
330
1BF
100
AcDbEntity
  8
001
370
    50
100
AcDbVertex
100
AcDb2dVertex
 10
60.199425
 20
19.48354
 30
0.0
  0
VERTEX
  5
1C4
330
1BF
100
AcDbEntity
  8
001
370
    50
100
AcDbVertex
100
AcDb2dVertex
 10
62.829029
 20
19.54018
 30
0.0
  0
VERTEX
  5
1C5
330
1BF
100
AcDbEntity
  8
001
370
    50
100
AcDbVertex
100
AcDb2dVertex
 10
65.099985
 20
19.59223
 30
0.0
  0
VERTEX
  5
1C6
330
1BF
100
AcDbEntity
  8
001
370
    50
100
AcDbVertex
100
AcDb2dVertex
 10
66.653759
 20
19.629489
 30
0.0
  0
SEQEND
  5
1C0
330
1BF
100
AcDbEntity
  8
001
370
    50
  0
LINE
  5
1C7
330
1F
100
AcDbEntity
  8
001
370
     9
100
AcDbLine
 10
47.727839
 20
20.120961
 30
0.0
 11
47.727839
 21
32.620961
 31
0.0
  0
ARC
  5
1C8
330
1F
100
AcDbEntity
  8
001
370
    50
100
AcDbCircle
 10
61.506886
 20
29.520064
 30
0.0
 40
3.0
100
AcDbArc
 50
253.578178
 51
146.421822
  0
ARC
  5
1C9
330
1F
100
AcDbEntity
  8
001
370
    50
100
AcDbCircle
 10
48.127839
 20
40.550431
 30
0.0
 40
0.4
100
AcDbArc
 50
160.0
 51
280.0
  0
LINE
  5
1CA
330
1F
100
AcDbEntity
  8
001
370
    50
100
AcDbLine
 10
52.926583
 20
54.904393
 30
0.0
 11
47.751962
 21
40.687239
 31
0.0
  0
LINE
  5
1CB
330
1F
100
AcDbEntity
  8
001
370
    50
100
AcDbLine
 10
53.592301
 20
55.020961
 30
0.0
 11
76.727839
 21
55.020961
 31
0.0
  0
ARC
  5
1CC
330
1F
100
AcDbEntity
  8
001
370
    50
100
AcDbCircle
 10
76.727839
 20
54.020961
 30
0.0
 40
1.0
100
AcDbArc
 50
0.0
 51
90.0
  0
ARC
  5
1CD
330
1F
100
AcDbEntity
  8
001
370
    50
100
AcDbCircle
 10
76.727839
 20
19.220961
 30
0.0
 40
1.0
100
AcDbArc
 50
270.0
 51
0.0
  0
POLYLINE
  5
1CE
330
1F
100
AcDbEntity
  8
001
370
    50
100
AcDb2dPolyline
 66
     1
 10
0.0
 20
0.0
 30
0.0
  0
VERTEX
  5
1D0
330
1CE
100
AcDbEntity
  8
001
370
    50
100
AcDbVertex
100
AcDb2dVertex
 10
53.585737
 20
55.020961
 30
0.0
  0
VERTEX
  5
1D1
330
1CE
100
AcDbEntity
  8
001
370
    50
100
AcDbVertex
100
AcDb2dVertex
 10
53.428192
 20
54.570671
 30
0.0
  0
VERTEX
  5
1D2
330
1CE
100
AcDbEntity
  8
001
370
    50
100
AcDbVertex
100
AcDb2dVertex
 10
53.270647
 20
54.120381
 30
0.0
  0
VERTEX
  5
1D3
330
1CE
100
AcDbEntity
  8
001
370
    50
100
AcDbVertex
100
AcDb2dVertex
 10
52.42737
 20
51.710133
 30
0.0
  0
VERTEX
  5
1D4
330
1CE
100
AcDbEntity
  8
001
370
    50
100
AcDbVertex
100
AcDb2dVertex
 10
51.584119
 20
49.299875
 30
0.0
  0
VERTEX
  5
1D5
330
1CE
100
AcDbEntity
  8
001
370
    50
100
AcDbVertex
100
AcDb2dVertex
 10
50.74092
 20
46.889597
 30
0.0
  0
VERTEX
  5
1D6
330
1CE
100
AcDbEntity
  8
001
370
    50
100
AcDbVertex
100
AcDb2dVertex
 10
50.108902
 20
45.081747
 30
0.0
  0
VERTEX
  5
1D7
330
1CE
100
AcDbEntity
  8
001
370
    50
100
AcDbVertex
100
AcDb2dVertex
 10
49.478943
 20
43.273181
 30
0.0
  0
VERTEX
  5
1D8
330
1CE
100
AcDbEntity
  8
001
370
    50
100
AcDbVertex
100
AcDb2dVertex
 10
48.852372
 20
41.463408
 30
0.0
  0
VERTEX
  5
1D9
330
1CE
100
AcDbEntity
  8
001
370
    50
100
AcDbVertex
100
AcDb2dVertex
 10
48.227839
 20
39.652928
 30
0.0
  0
SEQEND
  5
1CF
330
1CE
100
AcDbEntity
  8
001
370
    50
  0
LINE
  5
1DA
330
1F
100
AcDbEntity
  8
001
370
    50
100
AcDbLine
 10
76.727839
 20
18.220961
 30
0.0
 11
53.592303
 21
18.220961
 31
0.0
  0
LINE
  5
1DB
330
1F
100
AcDbEntity
  8
001
370
    50
100
AcDbLine
 10
48.227839
 20
39.652928
 30
0.0
 11
48.227839
 21
33.08003
 31
0.0
  0
LINE
  5
1DC
330
1F
100
AcDbEntity
  8
001
370
    50
100
AcDbLine
 10
48.630584
 20
33.009015
 30
0.0
 11
48.227839
 21
34.597942
 31
0.0
  0
LINE
  5
1DD
330
1F
100
AcDbEntity
  8
001
370
    50
100
AcDbLine
 10
48.197298
 20
40.156508
 30
0.0
 11
48.414669
 21
40.194836
 31
0.0
  0
ARC
  5
1DE
330
1F
100
AcDbEntity
  8
001
370
    50
100
AcDbCircle
 10
53.293
 20
18.470894
 30
0.0
 40
0.3899328623808274
100
AcDbArc
 50
200.0
 51
320.0
  0
LINE
  5
1DF
330
1F
100
AcDbEntity
  8
001
370
     9
100
AcDbLine
 10
53.019966
 20
18.080961
 30
0.0
 11
53.296496
 21
18.080961
 31
0.0
  0
ARC
  5
1E0
330
1F
100
AcDbEntity
  8
001
370
    50
100
AcDbCircle
 10
53.293
 20
54.771029
 30
0.0
 40
0.3899328623808274
100
AcDbArc
 50
39.863728
 51
160.0
  0
LINE
  5
1E1
330
1F
100
AcDbEntity
  8
001
370
     9
100
AcDbLine
 10
53.019966
 20
55.160961
 30
0.0
 11
52.920619
 21
54.888008
 31
0.0
  0
LINE
  5
1E2
330
1F
100
AcDbEntity
  8
001
370
     9
100
AcDbLine
 10
53.019966
 20
55.160961
 30
0.0
 11
53.296496
 21
55.160961
 31
0.0
  0
LINE
  5
1E3
330
1F
100
AcDbEntity
  8
001
370
     9
100
AcDbLine
 10
47.727839
 20
40.620961
 30
0.0
 11
47.727839
 21
40.550431
 31
0.0
  0
LINE
  5
1E4
330
1F
100
AcDbEntity
  8
001
370
     9
100
AcDbLine
 10
47.751962
 20
40.687239
 30
0.0
 11
47.727839
 21
40.620961
 31
0.0
  0
LINE
  5
1E5
330
1F
100
AcDbEntity
  8
001
  6
CENTER
370
     9
100
AcDbLine
 10
44.527658
 20
36.620961
 30
0.0
 11
224.349909
 21
36.620961
 31
0.0
  0
TEXT
  5
1E6
330
1F
100
AcDbEntity
  8
001
370
    30
100
AcDbText
 10
22.610469
 20
74.903235
 30
0.0
 40
4.0
  1
ＮＫ２０３５ＴＬ（ＮＥＷ）
 41
0.833333
100
AcDbText
  0
ENDSEC
  0
SECTION
  2
OBJECTS
  0
DICTIONARY
  5
C
330
0
100
AcDbDictionary
281
     1
  3
ACAD_GROUP
350
D
  3
ACAD_LAYOUT
350
1A
  3
ACAD_MLEADERSTYLE
350
1EA
  3
ACAD_MLINESTYLE
350
17
  3
ACAD_PLOTSETTINGS
350
19
  3
ACAD_PLOTSTYLENAME
350
E
  3
ACAD_SCALELIST
350
3B
  3
ACAD_TABLESTYLE
350
1E9
  3
ACAD_VISUALSTYLE
350
2A
  3
AcDbVariableDictionary
350
1E7
  0
DICTIONARY
  5
D
102
{ACAD_REACTORS
330
C
102
}
330
C
100
AcDbDictionary
281
     1
  0
DICTIONARY
  5
1A
102
{ACAD_REACTORS
330
C
102
}
330
C
100
AcDbDictionary
281
     1
  3
Layout1
350
1E
  3
Layout2
350
26
  3
Model
350
22
  0
DICTIONARY
  5
1EA
102
{ACAD_REACTORS
330
C
102
}
330
C
100
AcDbDictionary
281
     1
  0
DICTIONARY
  5
17
102
{ACAD_REACTORS
330
C
102
}
330
C
100
AcDbDictionary
281
     1
  3
Standard
350
18
  0
DICTIONARY
  5
19
102
{ACAD_REACTORS
330
C
102
}
330
C
100
AcDbDictionary
281
     1
  0
ACDBDICTIONARYWDFLT
  5
E
102
{ACAD_REACTORS
330
C
102
}
330
C
100
AcDbDictionary
281
     1
  3
Normal
350
F
100
AcDbDictionaryWithDefault
340
F
  0
DICTIONARY
  5
3B
102
{ACAD_REACTORS
330
C
102
}
330
C
100
AcDbDictionary
281
     1
  3
A0
350
3C
  3
A1
350
3D
  3
A2
350
3E
  3
A3
350
3F
  3
A4
350
40
  3
A5
350
41
  3
A6
350
42
  3
A7
350
43
  3
A8
350
44
  3
A9
350
45
  3
B0
350
46
  3
B1
350
47
  3
B2
350
48
  3
B3
350
49
  3
B4
350
4A
  3
B5
350
4B
  3
B6
350
4C
  3
B7
350
4D
  3
B8
350
4E
  3
B9
350
4F
  3
C0
350
50
  3
C1
350
51
  3
C2
350
52
  3
C3
350
53
  3
C4
350
54
  3
C5
350
55
  3
C6
350
56
  3
C7
350
57
  3
C8
350
58
  3
C9
350
59
  3
D0
350
5A
  3
D1
350
5B
  3
D2
350
5C
  0
DICTIONARY
  5
1E9
102
{ACAD_REACTORS
330
C
102
}
330
C
100
AcDbDictionary
281
     1
  0
DICTIONARY
  5
2A
102
{ACAD_REACTORS
330
C
102
}
330
C
100
AcDbDictionary
281
     1
  3
2dWireframe
350
2F
  3
3D Hidden
350
31
  3
3dWireframe
350
30
  3
Basic
350
32
  3
Brighten
350
36
  3
ColorChange
350
3A
  3
Conceptual
350
34
  3
Dim
350
35
  3
Facepattern
350
39
  3
Flat
350
2B
  3
FlatWithEdges
350
2C
  3
Gouraud
350
2D
  3
GouraudWithEdges
350
2E
  3
Linepattern
350
38
  3
Realistic
350
33
  3
Thicken
350
37
  0
DICTIONARY
  5
1E7
102
{ACAD_REACTORS
330
C
102
}
330
C
100
AcDbDictionary
281
     1
  3
CANNOSCALE
350
1E8
  3
PSOLHEIGHT
350
1EC
  3
PSOLWIDTH
350
1EB
  0
LAYOUT
  5
1E
102
{ACAD_REACTORS
330
1A
102
}
330
1A
100
AcDbPlotSettings
  1

  2
none_device
  4

  6

 40
0.0
 41
0.0
 42
0.0
 43
0.0
 44
0.0
 45
0.0
 46
0.0
 47
0.0
 48
0.0
 49
0.0
140
0.0
141
0.0
142
1.0
143
1.0
 70
   688
 72
     0
 73
     0
 74
     5
  7

 75
    16
147
1.0
148
0.0
149
0.0
100
AcDbLayout
  1
Layout1
 70
     1
 71
     1
 10
0.0
 20
0.0
 11
12.0
 21
9.0
 12
0.0
 22
0.0
 32
0.0
 14
1.000000E+20
 24
1.000000E+20
 34
0.0
 15
-1.000000E+20
 25
-1.000000E+20
 35
0.0
146
0.0
 13
0.0
 23
0.0
 33
0.0
 16
1.0
 26
0.0
 36
0.0
 17
0.0
 27
1.0
 37
0.0
 76
     0
330
1B
  0
LAYOUT
  5
26
102
{ACAD_REACTORS
330
1A
102
}
330
1A
100
AcDbPlotSettings
  1

  2
none_device
  4

  6

 40
0.0
 41
0.0
 42
0.0
 43
0.0
 44
0.0
 45
0.0
 46
0.0
 47
0.0
 48
0.0
 49
0.0
140
0.0
141
0.0
142
1.0
143
1.0
 70
   688
 72
     0
 73
     0
 74
     5
  7

 75
    16
147
1.0
148
0.0
149
0.0
100
AcDbLayout
  1
Layout2
 70
     1
 71
     2
 10
0.0
 20
0.0
 11
0.0
 21
0.0
 12
0.0
 22
0.0
 32
0.0
 14
0.0
 24
0.0
 34
0.0
 15
0.0
 25
0.0
 35
0.0
146
0.0
 13
0.0
 23
0.0
 33
0.0
 16
1.0
 26
0.0
 36
0.0
 17
0.0
 27
1.0
 37
0.0
 76
     0
330
23
  0
LAYOUT
  5
22
102
{ACAD_REACTORS
330
1A
102
}
330
1A
100
AcDbPlotSettings
  1

  2
none_device
  4

  6

 40
0.0
 41
0.0
 42
0.0
 43
0.0
 44
0.0
 45
0.0
 46
0.0
 47
0.0
 48
0.0
 49
0.0
140
0.0
141
0.0
142
1.0
143
1.0
 70
  1712
 72
     0
 73
     0
 74
     0
  7

 75
     0
147
1.0
148
0.0
149
0.0
100
AcDbLayout
  1
Model
 70
     1
 71
     0
 10
0.0
 20
0.0
 11
12.0
 21
9.0
 12
0.0
 22
0.0
 32
0.0
 14
19.715965
 24
-17.773567
 34
0.0
 15
240.405121
 25
78.903236
 35
0.0
146
0.0
 13
0.0
 23
0.0
 33
0.0
 16
1.0
 26
0.0
 36
0.0
 17
0.0
 27
1.0
 37
0.0
 76
     0
330
1F
331
29
  0
MLINESTYLE
  5
18
102
{ACAD_REACTORS
330
17
102
}
330
17
100
AcDbMlineStyle
  2
Standard
 70
     0
  3

 62
   256
 51
90.0
 52
90.0
 71
     2
 49
0.5
 62
   256
  6
BYLAYER
 49
-0.5
 62
   256
  6
BYLAYER
  0
ACDBPLACEHOLDER
  5
F
102
{ACAD_REACTORS
330
E
102
}
330
E
  0
SCALE
  5
3C
102
{ACAD_REACTORS
330
3B
102
}
330
3B
100
AcDbScale
 70
     0
300
1:1
140
1.0
141
1.0
290
     1
  0
SCALE
  5
3D
102
{ACAD_REACTORS
330
3B
102
}
330
3B
100
AcDbScale
 70
     0
300
1:2
140
1.0
141
2.0
290
     0
  0
SCALE
  5
3E
102
{ACAD_REACTORS
330
3B
102
}
330
3B
100
AcDbScale
 70
     0
300
1:4
140
1.0
141
4.0
290
     0
  0
SCALE
  5
3F
102
{ACAD_REACTORS
330
3B
102
}
330
3B
100
AcDbScale
 70
     0
300
1:5
140
1.0
141
5.0
290
     0
  0
SCALE
  5
40
102
{ACAD_REACTORS
330
3B
102
}
330
3B
100
AcDbScale
 70
     0
300
1:8
140
1.0
141
8.0
290
     0
  0
SCALE
  5
41
102
{ACAD_REACTORS
330
3B
102
}
330
3B
100
AcDbScale
 70
     0
300
1:10
140
1.0
141
10.0
290
     0
  0
SCALE
  5
42
102
{ACAD_REACTORS
330
3B
102
}
330
3B
100
AcDbScale
 70
     0
300
1:16
140
1.0
141
16.0
290
     0
  0
SCALE
  5
43
102
{ACAD_REACTORS
330
3B
102
}
330
3B
100
AcDbScale
 70
     0
300
1:20
140
1.0
141
20.0
290
     0
  0
SCALE
  5
44
102
{ACAD_REACTORS
330
3B
102
}
330
3B
100
AcDbScale
 70
     0
300
1:30
140
1.0
141
30.0
290
     0
  0
SCALE
  5
45
102
{ACAD_REACTORS
330
3B
102
}
330
3B
100
AcDbScale
 70
     0
300
1:40
140
1.0
141
40.0
290
     0
  0
SCALE
  5
46
102
{ACAD_REACTORS
330
3B
102
}
330
3B
100
AcDbScale
 70
     0
300
1:50
140
1.0
141
50.0
290
     0
  0
SCALE
  5
47
102
{ACAD_REACTORS
330
3B
102
}
330
3B
100
AcDbScale
 70
     0
300
1:100
140
1.0
141
100.0
290
     0
  0
SCALE
  5
48
102
{ACAD_REACTORS
330
3B
102
}
330
3B
100
AcDbScale
 70
     0
300
2:1
140
2.0
141
1.0
290
     0
  0
SCALE
  5
49
102
{ACAD_REACTORS
330
3B
102
}
330
3B
100
AcDbScale
 70
     0
300
4:1
140
4.0
141
1.0
290
     0
  0
SCALE
  5
4A
102
{ACAD_REACTORS
330
3B
102
}
330
3B
100
AcDbScale
 70
     0
300
8:1
140
8.0
141
1.0
290
     0
  0
SCALE
  5
4B
102
{ACAD_REACTORS
330
3B
102
}
330
3B
100
AcDbScale
 70
     0
300
10:1
140
10.0
141
1.0
290
     0
  0
SCALE
  5
4C
102
{ACAD_REACTORS
330
3B
102
}
330
3B
100
AcDbScale
 70
     0
300
100:1
140
100.0
141
1.0
290
     0
  0
SCALE
  5
4D
102
{ACAD_REACTORS
330
3B
102
}
330
3B
100
AcDbScale
 70
     0
300
1/128" = 1'-0"
140
0.007812
141
12.0
290
     0
  0
SCALE
  5
4E
102
{ACAD_REACTORS
330
3B
102
}
330
3B
100
AcDbScale
 70
     0
300
1/64" = 1'-0"
140
0.015625
141
12.0
290
     0
  0
SCALE
  5
4F
102
{ACAD_REACTORS
330
3B
102
}
330
3B
100
AcDbScale
 70
     0
300
1/32" = 1'-0"
140
0.03125
141
12.0
290
     0
  0
SCALE
  5
50
102
{ACAD_REACTORS
330
3B
102
}
330
3B
100
AcDbScale
 70
     0
300
1/16" = 1'-0"
140
0.0625
141
12.0
290
     0
  0
SCALE
  5
51
102
{ACAD_REACTORS
330
3B
102
}
330
3B
100
AcDbScale
 70
     0
300
3/32" = 1'-0"
140
0.09375
141
12.0
290
     0
  0
SCALE
  5
52
102
{ACAD_REACTORS
330
3B
102
}
330
3B
100
AcDbScale
 70
     0
300
1/8" = 1'-0"
140
0.125
141
12.0
290
     0
  0
SCALE
  5
53
102
{ACAD_REACTORS
330
3B
102
}
330
3B
100
AcDbScale
 70
     0
300
3/16" = 1'-0"
140
0.1875
141
12.0
290
     0
  0
SCALE
  5
54
102
{ACAD_REACTORS
330
3B
102
}
330
3B
100
AcDbScale
 70
     0
300
1/4" = 1'-0"
140
0.25
141
12.0
290
     0
  0
SCALE
  5
55
102
{ACAD_REACTORS
330
3B
102
}
330
3B
100
AcDbScale
 70
     0
300
3/8" = 1'-0"
140
0.375
141
12.0
290
     0
  0
SCALE
  5
56
102
{ACAD_REACTORS
330
3B
102
}
330
3B
100
AcDbScale
 70
     0
300
1/2" = 1'-0"
140
0.5
141
12.0
290
     0
  0
SCALE
  5
57
102
{ACAD_REACTORS
330
3B
102
}
330
3B
100
AcDbScale
 70
     0
300
3/4" = 1'-0"
140
0.75
141
12.0
290
     0
  0
SCALE
  5
58
102
{ACAD_REACTORS
330
3B
102
}
330
3B
100
AcDbScale
 70
     0
300
1" = 1'-0"
140
1.0
141
12.0
290
     0
  0
SCALE
  5
59
102
{ACAD_REACTORS
330
3B
102
}
330
3B
100
AcDbScale
 70
     0
300
1-1/2" = 1'-0"
140
1.5
141
12.0
290
     0
  0
SCALE
  5
5A
102
{ACAD_REACTORS
330
3B
102
}
330
3B
100
AcDbScale
 70
     0
300
3" = 1'-0"
140
3.0
141
12.0
290
     0
  0
SCALE
  5
5B
102
{ACAD_REACTORS
330
3B
102
}
330
3B
100
AcDbScale
 70
     0
300
6" = 1'-0"
140
6.0
141
12.0
290
     0
  0
SCALE
  5
5C
102
{ACAD_REACTORS
330
3B
102
}
330
3B
100
AcDbScale
 70
     0
300
1'-0" = 1'-0"
140
12.0
141
12.0
290
     0
  0
VISUALSTYLE
  5
2F
102
{ACAD_REACTORS
330
2A
102
}
330
2A
100
AcDbVisualStyle
  2
2dWireframe
 70
     4
 71
     0
 72
     2
 73
     0
 90
        0
 40
-0.6
 41
-30.0
 62
     5
 63
     7
 74
     1
 91
        4
 64
     7
 65
   257
 75
     1
175
     1
 42
1.0
 92
        0
 66
   257
 43
1.0
 76
     1
 77
     6
 78
     2
 67
     7
 79
     5
170
     0
171
     0
290
     0
174
     0
 93
        1
 44
0.0
173
     0
291
     0
 45
0.0
1001
ACAD
1000
AcDbSavedByObjectVersion
1070
     0
  0
VISUALSTYLE
  5
31
102
{ACAD_REACTORS
330
2A
102
}
330
2A
100
AcDbVisualStyle
  2
3D Hidden
 70
     6
 71
     1
 72
     2
 73
     2
 90
        0
 40
-0.6
 41
-30.0
 62
     5
 63
     7
 74
     2
 91
        2
 64
     7
 65
   257
 75
     2
175
     1
 42
40.0
 92
        0
 66
   257
 43
1.0
 76
     1
 77
     6
 78
     2
 67
     7
 79
     3
170
     0
171
     0
290
     0
174
     0
 93
        1
 44
0.0
173
     0
291
     0
 45
0.0
1001
ACAD
1000
AcDbSavedByObjectVersion
1070
     0
  0
VISUALSTYLE
  5
30
102
{ACAD_REACTORS
330
2A
102
}
330
2A
100
AcDbVisualStyle
  2
3dWireframe
 70
     5
 71
     0
 72
     2
 73
     0
 90
        0
 40
-0.6
 41
-30.0
 62
     5
 63
     7
 74
     1
 91
        4
 64
     7
 65
   257
 75
     1
175
     1
 42
1.0
 92
        0
 66
   257
 43
1.0
 76
     1
 77
     6
 78
     2
 67
     7
 79
     5
170
     0
171
     0
290
     0
174
     0
 93
        1
 44
0.0
173
     0
291
     0
 45
0.0
1001
ACAD
1000
AcDbSavedByObjectVersion
1070
     0
  0
VISUALSTYLE
  5
32
102
{ACAD_REACTORS
330
2A
102
}
330
2A
100
AcDbVisualStyle
  2
Basic
 70
     7
 71
     1
 72
     0
 73
     1
 90
        0
 40
-0.6
 41
-30.0
 62
     5
 63
     7
 74
     0
 91
        4
 64
     7
 65
   257
 75
     1
175
     1
 42
1.0
 92
        8
 66
     7
 43
1.0
 76
     1
 77
     6
 78
     2
 67
     7
 79
     5
170
     0
171
     0
290
     0
174
     0
 93
        1
 44
0.0
173
     0
291
     1
 45
0.0
1001
ACAD
1000
AcDbSavedByObjectVersion
1070
     0
  0
VISUALSTYLE
  5
36
102
{ACAD_REACTORS
330
2A
102
}
330
2A
100
AcDbVisualStyle
  2
Brighten
 70
    12
 71
     2
 72
     2
 73
     0
 90
        0
 40
-0.6
 41
-30.0
 62
     5
 63
     7
 74
     1
 91
        4
 64
     7
 65
   257
 75
     1
175
     1
 42
1.0
 92
        8
 66
     7
 43
1.0
 76
     1
 77
     6
 78
     2
 67
     7
 79
     5
170
     0
171
     0
290
     0
174
     0
 93
        1
 44
50.0
173
     0
291
     1
 45
0.0
1001
ACAD
1000
AcDbSavedByObjectVersion
1070
     0
  0
VISUALSTYLE
  5
3A
102
{ACAD_REACTORS
330
2A
102
}
330
2A
100
AcDbVisualStyle
  2
ColorChange
 70
    16
 71
     2
 72
     2
 73
     3
 90
        0
 40
-0.6
 41
-30.0
 62
     5
 63
     8
 74
     1
 91
        4
 64
     7
 65
   257
 75
     1
175
     1
 42
1.0
 92
        8
 66
     8
 43
1.0
 76
     1
 77
     6
 78
     2
 67
     7
 79
     5
170
     0
171
     0
290
     0
174
     0
 93
        1
 44
0.0
173
     0
291
     1
 45
0.0
1001
ACAD
1000
AcDbSavedByObjectVersion
1070
     0
  0
VISUALSTYLE
  5
34
102
{ACAD_REACTORS
330
2A
102
}
330
2A
100
AcDbVisualStyle
  2
Conceptual
 70
     9
 71
     3
 72
     2
 73
     0
 90
        0
 40
-0.6
 41
-30.0
 62
     5
 63
     7
 74
     2
 91
        2
 64
     7
 65
   257
 75
     1
175
     1
 42
40.0
 92
        8
 66
     7
 43
1.0
 76
     1
 77
     6
 78
     2
 67
     7
 79
     3
170
     0
171
     0
290
     0
174
     0
 93
        1
 44
0.0
173
     0
291
     0
 45
0.0
1001
ACAD
1000
AcDbSavedByObjectVersion
1070
     0
  0
VISUALSTYLE
  5
35
102
{ACAD_REACTORS
330
2A
102
}
330
2A
100
AcDbVisualStyle
  2
Dim
 70
    11
 71
     2
 72
     2
 73
     0
 90
        0
 40
-0.6
 41
-30.0
 62
     5
 63
     7
 74
     1
 91
        4
 64
     7
 65
   257
 75
     1
175
     1
 42
1.0
 92
        8
 66
     7
 43
1.0
 76
     1
 77
     6
 78
     2
 67
     7
 79
     5
170
     0
171
     0
290
     0
174
     0
 93
        1
 44
-50.0
173
     0
291
     1
 45
0.0
1001
ACAD
1000
AcDbSavedByObjectVersion
1070
     0
  0
VISUALSTYLE
  5
39
102
{ACAD_REACTORS
330
2A
102
}
330
2A
100
AcDbVisualStyle
  2
Facepattern
 70
    15
 71
     2
 72
     2
 73
     0
 90
        0
 40
-0.6
 41
-30.0
 62
     5
 63
     7
 74
     1
 91
        4
 64
     7
 65
   257
 75
     1
175
     1
 42
1.0
 92
        8
 66
     7
 43
1.0
 76
     1
 77
     6
 78
     2
 67
     7
 79
     5
170
     0
171
     0
290
     0
174
     0
 93
        1
 44
0.0
173
     0
291
     1
 45
0.0
1001
ACAD
1000
AcDbSavedByObjectVersion
1070
     0
  0
VISUALSTYLE
  5
2B
102
{ACAD_REACTORS
330
2A
102
}
330
2A
100
AcDbVisualStyle
  2
Flat
 70
     0
 71
     2
 72
     1
 73
     1
 90
        2
 40
-0.6
 41
30.0
 62
     5
 63
     7
 74
     0
 91
        4
 64
     7
 65
   257
 75
     1
175
     1
 42
1.0
 92
        8
 66
     7
 43
1.0
 76
     1
 77
     6
 78
     2
 67
     7
 79
     5
170
     0
171
     0
290
     0
174
     0
 93
       13
 44
0.0
173
     0
291
     1
 45
0.0
1001
ACAD
1000
AcDbSavedByObjectVersion
1070
     0
  0
VISUALSTYLE
  5
2C
102
{ACAD_REACTORS
330
2A
102
}
330
2A
100
AcDbVisualStyle
  2
FlatWithEdges
 70
     1
 71
     2
 72
     1
 73
     1
 90
        2
 40
-0.6
 41
30.0
 62
     5
 63
     7
 74
     1
 91
        4
 64
     7
 65
   257
 75
     1
175
     1
 42
1.0
 92
        0
 66
   257
 43
1.0
 76
     1
 77
     6
 78
     2
 67
     7
 79
     5
170
     0
171
     0
290
     0
174
     0
 93
       13
 44
0.0
173
     0
291
     1
 45
0.0
1001
ACAD
1000
AcDbSavedByObjectVersion
1070
     0
  0
VISUALSTYLE
  5
2D
102
{ACAD_REACTORS
330
2A
102
}
330
2A
100
AcDbVisualStyle
  2
Gouraud
 70
     2
 71
     2
 72
     2
 73
     1
 90
        2
 40
-0.6
 41
30.0
 62
     5
 63
     7
 74
     0
 91
        4
 64
     7
 65
   257
 75
     1
175
     1
 42
1.0
 92
        0
 66
     7
 43
1.0
 76
     1
 77
     6
 78
     2
 67
     7
 79
     5
170
     0
171
     0
290
     0
174
     0
 93
       13
 44
0.0
173
     0
291
     1
 45
0.0
1001
ACAD
1000
AcDbSavedByObjectVersion
1070
     0
  0
VISUALSTYLE
  5
2E
102
{ACAD_REACTORS
330
2A
102
}
330
2A
100
AcDbVisualStyle
  2
GouraudWithEdges
 70
     3
 71
     2
 72
     2
 73
     1
 90
        2
 40
-0.6
 41
30.0
 62
     5
 63
     7
 74
     1
 91
        4
 64
     7
 65
   257
 75
     1
175
     1
 42
1.0
 92
        0
 66
   257
 43
1.0
 76
     1
 77
     6
 78
     2
 67
     7
 79
     5
170
     0
171
     0
290
     0
174
     0
 93
       13
 44
0.0
173
     0
291
     1
 45
0.0
1001
ACAD
1000
AcDbSavedByObjectVersion
1070
     0
  0
VISUALSTYLE
  5
38
102
{ACAD_REACTORS
330
2A
102
}
330
2A
100
AcDbVisualStyle
  2
Linepattern
 70
    14
 71
     2
 72
     2
 73
     0
 90
        0
 40
-0.6
 41
-30.0
 62
     5
 63
     7
 74
     1
 91
        4
 64
     7
 65
   257
 75
     7
175
     7
 42
1.0
 92
        8
 66
     7
 43
1.0
 76
     1
 77
     6
 78
     2
 67
     7
 79
     5
170
     0
171
     0
290
     0
174
     0
 93
        1
 44
0.0
173
     0
291
     1
 45
0.0
1001
ACAD
1000
AcDbSavedByObjectVersion
1070
     0
  0
VISUALSTYLE
  5
33
102
{ACAD_REACTORS
330
2A
102
}
330
2A
100
AcDbVisualStyle
  2
Realistic
 70
     8
 71
     2
 72
     2
 73
     0
 90
        0
 40
-0.6
 41
-30.0
 62
     5
 63
     7
 74
     1
 91
        0
 64
     7
 65
   257
 75
     1
175
     1
 42
1.0
 92
        8
 66
     8
 43
1.0
 76
     1
 77
     6
 78
     2
 67
     7
 79
     5
170
     0
171
     0
290
     0
174
     0
 93
       13
 44
0.0
173
     0
291
     0
 45
0.0
1001
ACAD
1000
AcDbSavedByObjectVersion
1070
     0
  0
VISUALSTYLE
  5
37
102
{ACAD_REACTORS
330
2A
102
}
330
2A
100
AcDbVisualStyle
  2
Thicken
 70
    13
 71
     2
 72
     2
 73
     0
 90
        0
 40
-0.6
 41
-30.0
 62
     5
 63
     7
 74
     1
 91
        4
 64
     7
 65
   257
 75
     1
175
     1
 42
1.0
 92
       12
 66
     7
 43
1.0
 76
     1
 77
     6
 78
     2
 67
     7
 79
     5
170
     0
171
     0
290
     0
174
     0
 93
        1
 44
0.0
173
     0
291
     1
 45
0.0
1001
ACAD
1000
AcDbSavedByObjectVersion
1070
     0
  0
DICTIONARYVAR
  5
1E8
102
{ACAD_REACTORS
330
1E7
102
}
330
1E7
100
DictionaryVariables
280
     0
  1
1:1
  0
DICTIONARYVAR
  5
1EC
102
{ACAD_REACTORS
330
1E7
102
}
330
1E7
100
DictionaryVariables
280
     0
  1
80.000000
  0
DICTIONARYVAR
  5
1EB
102
{ACAD_REACTORS
330
1E7
102
}
330
1E7
100
DictionaryVariables
280
     0
  1
5.000000
  0
ENDSEC
  0
EOF
