  0
SECTION
  2
HEADER
  9
$ACADVER
  1
AC1015
  9
$ACADMAINTVER
 70
     6
  9
$DWGCODEPAGE
  3
ANSI_932
  9
$INSBASE
 10
0.0
 20
0.0
 30
0.0
  9
$EXTMIN
 10
11.176239
 20
7.022507
 30
0.0
  9
$EXTMAX
 10
200.248825
 20
101.553703
 30
0.0
  9
$LIMMIN
 10
0.0
 20
0.0
  9
$LIMMAX
 10
12.0
 20
9.0
  9
$ORTHOMODE
 70
     0
  9
$REGENMODE
 70
     1
  9
$FILLMODE
 70
     1
  9
$QTEXTMODE
 70
     0
  9
$MIRRTEXT
 70
     1
  9
$LTSCALE
 40
3.15121
  9
$ATTMODE
 70
     1
  9
$TEXTSIZE
 40
3.2
  9
$TRACEWID
 40
1.0
  9
$TEXTSTYLE
  7
Standard
  9
$CLAYER
  8
0
  9
$CELTYPE
  6
ByLayer
  9
$CECOLOR
 62
   256
  9
$CELTSCALE
 40
1.0
  9
$DISPSILH
 70
     0
  9
$DIMSCALE
 40
1.0
  9
$DIMASZ
 40
2.5
  9
$DIMEXO
 40
0.625
  9
$DIMDLI
 40
3.75
  9
$DIMRND
 40
0.0
  9
$DIMDLE
 40
0.0
  9
$DIMEXE
 40
1.25
  9
$DIMTP
 40
0.0
  9
$DIMTM
 40
0.0
  9
$DIMTXT
 40
2.5
  9
$DIMCEN
 40
0.09
  9
$DIMTSZ
 40
0.0
  9
$DIMTOL
 70
     0
  9
$DIMLIM
 70
     0
  9
$DIMTIH
 70
     0
  9
$DIMTOH
 70
     0
  9
$DIMSE1
 70
     0
  9
$DIMSE2
 70
     0
  9
$DIMTAD
 70
     0
  9
$DIMZIN
 70
     8
  9
$DIMBLK
  1

  9
$DIMASO
 70
     1
  9
$DIMSHO
 70
     0
  9
$DIMPOST
  1

  9
$DIMAPOST
  1

  9
$DIMALT
 70
     0
  9
$DIMALTD
 70
     3
  9
$DIMALTF
 40
0.03937
  9
$DIMLFAC
 40
1.0
  9
$DIMTOFL
 70
     1
  9
$DIMTVP
 40
0.0
  9
$DIMTIX
 70
     0
  9
$DIMSOXD
 70
     0
  9
$DIMSAH
 70
     0
  9
$DIMBLK1
  1

  9
$DIMBLK2
  1

  9
$DIMSTYLE
  2
ISO-25
  9
$DIMCLRD
 70
     0
  9
$DIMCLRE
 70
     0
  9
$DIMCLRT
 70
     0
  9
$DIMTFAC
 40
1.0
  9
$DIMGAP
 40
0.625
  9
$DIMJUST
 70
     0
  9
$DIMSD1
 70
     0
  9
$DIMSD2
 70
     0
  9
$DIMTOLJ
 70
     0
  9
$DIMTZIN
 70
     8
  9
$DIMALTZ
 70
     0
  9
$DIMALTTZ
 70
     0
  9
$DIMUPT
 70
     0
  9
$DIMDEC
 70
     2
  9
$DIMTDEC
 70
     2
  9
$DIMALTU
 70
     2
  9
$DIMALTTD
 70
     3
  9
$DIMTXSTY
  7
Standard
  9
$DIMAUNIT
 70
     0
  9
$DIMADEC
 70
     0
  9
$DIMALTRND
 40
0.0
  9
$DIMAZIN
 70
     0
  9
$DIMDSEP
 70
    44
  9
$DIMATFIT
 70
     3
  9
$DIMFRAC
 70
     0
  9
$DIMLDRBLK
  1

  9
$DIMLUNIT
 70
     2
  9
$DIMLWD
 70
    -2
  9
$DIMLWE
 70
    -2
  9
$DIMTMOVE
 70
     0
  9
$LUNITS
 70
     2
  9
$LUPREC
 70
     4
  9
$SKETCHINC
 40
1.0
  9
$FILLETRAD
 40
0.0
  9
$AUNITS
 70
     0
  9
$AUPREC
 70
     0
  9
$MENU
  1
.
  9
$ELEVATION
 40
0.0
  9
$PELEVATION
 40
0.0
  9
$THICKNESS
 40
0.0
  9
$LIMCHECK
 70
     0
  9
$CHAMFERA
 40
10.0
  9
$CHAMFERB
 40
10.0
  9
$CHAMFERC
 40
20.0
  9
$CHAMFERD
 40
0.0
  9
$SKPOLY
 70
     0
  9
$TDCREATE
 40
2454621.719481331
  9
$TDUCREATE
 40
2454621.344481331
  9
$TDUPDATE
 40
2454621.719481342
  9
$TDUUPDATE
 40
2454621.344481342
  9
$TDINDWG
 40
0.0000000116
  9
$TDUSRTIMER
 40
0.0000000116
  9
$USRTIMER
 70
     1
  9
$ANGBASE
 50
0.0
  9
$ANGDIR
 70
     0
  9
$PDMODE
 70
     0
  9
$PDSIZE
 40
0.0
  9
$PLINEWID
 40
0.0
  9
$SPLFRAME
 70
     0
  9
$SPLINETYPE
 70
     6
  9
$SPLINESEGS
 70
     8
  9
$HANDSEED
  5
22A
  9
$SURFTAB1
 70
     6
  9
$SURFTAB2
 70
     6
  9
$SURFTYPE
 70
     6
  9
$SURFU
 70
     6
  9
$SURFV
 70
     6
  9
$UCSBASE
  2

  9
$UCSNAME
  2

  9
$UCSORG
 10
0.0
 20
0.0
 30
0.0
  9
$UCSXDIR
 10
1.0
 20
0.0
 30
0.0
  9
$UCSYDIR
 10
0.0
 20
1.0
 30
0.0
  9
$UCSORTHOREF
  2

  9
$UCSORTHOVIEW
 70
     0
  9
$UCSORGTOP
 10
0.0
 20
0.0
 30
0.0
  9
$UCSORGBOTTOM
 10
0.0
 20
0.0
 30
0.0
  9
$UCSORGLEFT
 10
0.0
 20
0.0
 30
0.0
  9
$UCSORGRIGHT
 10
0.0
 20
0.0
 30
0.0
  9
$UCSORGFRONT
 10
0.0
 20
0.0
 30
0.0
  9
$UCSORGBACK
 10
0.0
 20
0.0
 30
0.0
  9
$PUCSBASE
  2

  9
$PUCSNAME
  2

  9
$PUCSORG
 10
0.0
 20
0.0
 30
0.0
  9
$PUCSXDIR
 10
1.0
 20
0.0
 30
0.0
  9
$PUCSYDIR
 10
0.0
 20
1.0
 30
0.0
  9
$PUCSORTHOREF
  2

  9
$PUCSORTHOVIEW
 70
     0
  9
$PUCSORGTOP
 10
0.0
 20
0.0
 30
0.0
  9
$PUCSORGBOTTOM
 10
0.0
 20
0.0
 30
0.0
  9
$PUCSORGLEFT
 10
0.0
 20
0.0
 30
0.0
  9
$PUCSORGRIGHT
 10
0.0
 20
0.0
 30
0.0
  9
$PUCSORGFRONT
 10
0.0
 20
0.0
 30
0.0
  9
$PUCSORGBACK
 10
0.0
 20
0.0
 30
0.0
  9
$USERI1
 70
     0
  9
$USERI2
 70
     0
  9
$USERI3
 70
     0
  9
$USERI4
 70
     0
  9
$USERI5
 70
     0
  9
$USERR1
 40
0.0
  9
$USERR2
 40
0.0
  9
$USERR3
 40
0.0
  9
$USERR4
 40
0.0
  9
$USERR5
 40
0.0
  9
$WORLDVIEW
 70
     1
  9
$SHADEDGE
 70
     3
  9
$SHADEDIF
 70
    70
  9
$TILEMODE
 70
     1
  9
$MAXACTVP
 70
    64
  9
$PINSBASE
 10
0.0
 20
0.0
 30
0.0
  9
$PLIMCHECK
 70
     0
  9
$PEXTMIN
 10
1.000000E+20
 20
1.000000E+20
 30
0.0
  9
$PEXTMAX
 10
-1.000000E+20
 20
-1.000000E+20
 30
0.0
  9
$PLIMMIN
 10
0.0
 20
0.0
  9
$PLIMMAX
 10
12.0
 20
9.0
  9
$UNITMODE
 70
     0
  9
$VISRETAIN
 70
     1
  9
$PLINEGEN
 70
     0
  9
$PSLTSCALE
 70
     1
  9
$TREEDEPTH
 70
  3020
  9
$CMLSTYLE
  2
Standard
  9
$CMLJUST
 70
     0
  9
$CMLSCALE
 40
20.0
  9
$PROXYGRAPHICS
 70
     1
  9
$MEASUREMENT
 70
     1
  9
$CELWEIGHT
370
    -1
  9
$ENDCAPS
280
     0
  9
$JOINSTYLE
280
     0
  9
$LWDISPLAY
290
     0
  9
$INSUNITS
 70
     4
  9
$HYPERLINKBASE
  1

  9
$STYLESHEET
  1

  9
$XEDIT
290
     1
  9
$CEPSNTYPE
380
     0
  9
$PSTYLEMODE
290
     1
  9
$FINGERPRINTGUID
  2
{D58C516B-A8E3-4153-96DC-212B5A8CB0BC}
  9
$VERSIONGUID
  2
{FAEB1C32-E019-11D5-929B-00C0DF256EC4}
  9
$EXTNAMES
290
     1
  9
$PSVPSCALE
 40
0.0
  9
$OLESTARTUP
290
     0
  0
ENDSEC
  0
SECTION
  2
CLASSES
  0
CLASS
  1
ACDBDICTIONARYWDFLT
  2
AcDbDictionaryWithDefault
  3
ObjectDBX Classes
 90
        0
280
     0
281
     0
  0
CLASS
  1
VISUALSTYLE
  2
AcDbVisualStyle
  3
ObjectDBX Classes
 90
     4095
280
     0
281
     0
  0
CLASS
  1
SCALE
  2
AcDbScale
  3
ObjectDBX Classes
 90
     1153
280
     0
281
     0
  0
CLASS
  1
DICTIONARYVAR
  2
AcDbDictionaryVar
  3
ObjectDBX Classes
 90
        0
280
     0
281
     0
  0
CLASS
  1
ACDBPLACEHOLDER
  2
AcDbPlaceHolder
  3
ObjectDBX Classes
 90
        0
280
     0
281
     0
  0
CLASS
  1
LAYOUT
  2
AcDbLayout
  3
ObjectDBX Classes
 90
        0
280
     0
281
     0
  0
ENDSEC
  0
SECTION
  2
TABLES
  0
TABLE
  2
VPORT
  5
8
330
0
100
AcDbSymbolTable
 70
     1
  0
VPORT
  5
29
330
8
100
AcDbSymbolTableRecord
100
AcDbViewportTableRecord
  2
*Active
 70
     0
 10
0.0
 20
0.0
 11
1.0
 21
1.0
 12
105.712532
 22
54.288105
 13
0.0
 23
0.0
 14
1.0
 24
1.0
 15
0.0
 25
0.0
 16
0.0
 26
0.0
 36
1.0
 17
0.0
 27
0.0
 37
0.0
 40
112.90999
 41
1.691288
 42
50.0
 43
0.0
 44
0.0
 50
0.0
 51
0.0
 71
     0
 72
   100
 73
     1
 74
     3
 75
     0
 76
     0
 77
     0
 78
     0
281
     0
 65
     1
110
0.0
120
0.0
130
0.0
111
1.0
121
0.0
131
0.0
112
0.0
122
1.0
132
0.0
 79
     0
146
0.0
  0
ENDTAB
  0
TABLE
  2
LTYPE
  5
5
330
0
100
AcDbSymbolTable
 70
     5
  0
LTYPE
  5
14
330
5
100
AcDbSymbolTableRecord
100
AcDbLinetypeTableRecord
  2
ByBlock
 70
     0
  3

 72
    65
 73
     0
 40
0.0
  0
LTYPE
  5
15
330
5
100
AcDbSymbolTableRecord
100
AcDbLinetypeTableRecord
  2
ByLayer
 70
     0
  3

 72
    65
 73
     0
 40
0.0
  0
LTYPE
  5
16
330
5
100
AcDbSymbolTableRecord
100
AcDbLinetypeTableRecord
  2
Continuous
 70
     0
  3
Solid line
 72
    65
 73
     0
 40
0.0
  0
LTYPE
  5
5D
330
5
100
AcDbSymbolTableRecord
100
AcDbLinetypeTableRecord
  2
DASHED
 70
     0
  3
DASHED
 72
    83
 73
     2
 40
0.75
 49
0.5
 74
     0
 49
-0.25
 74
     0
  0
LTYPE
  5
5E
330
5
100
AcDbSymbolTableRecord
100
AcDbLinetypeTableRecord
  2
HIDDEN
 70
     0
  3
HIDDEN
 72
    83
 73
     2
 40
0.375
 49
0.25
 74
     0
 49
-0.125
 74
     0
  0
LTYPE
  5
5F
330
5
100
AcDbSymbolTableRecord
100
AcDbLinetypeTableRecord
  2
CENTER
 70
     0
  3
CENTER
 72
    83
 73
     4
 40
2.0
 49
1.25
 74
     0
 49
-0.25
 74
     0
 49
0.25
 74
     0
 49
-0.25
 74
     0
  0
LTYPE
  5
60
330
5
100
AcDbSymbolTableRecord
100
AcDbLinetypeTableRecord
  2
PHANTOM
 70
     0
  3
PHANTOM
 72
    83
 73
     6
 40
2.5
 49
1.25
 74
     0
 49
-0.25
 74
     0
 49
0.25
 74
     0
 49
-0.25
 74
     0
 49
0.25
 74
     0
 49
-0.25
 74
     0
  0
ENDTAB
  0
TABLE
  2
LAYER
  5
2
330
0
100
AcDbSymbolTable
 70
     2
  0
LAYER
  5
10
330
2
100
AcDbSymbolTableRecord
100
AcDbLayerTableRecord
  2
0
 70
     0
 62
     7
  6
Continuous
370
    -3
390
F
  0
LAYER
  5
61
330
2
100
AcDbSymbolTableRecord
100
AcDbLayerTableRecord
  2
001
 70
     0
 62
     7
  6
Continuous
370
    -3
390
F
  0
ENDTAB
  0
TABLE
  2
STYLE
  5
3
330
0
100
AcDbSymbolTable
 70
     2
  0
STYLE
  5
11
330
3
100
AcDbSymbolTableRecord
100
AcDbTextStyleTableRecord
  2
Standard
 70
     0
 40
0.0
 41
1.0
 50
0.0
 71
     0
 42
0.2
  3
TXT
  4
BIGFONT
  0
STYLE
  5
62
330
3
100
AcDbSymbolTableRecord
100
AcDbTextStyleTableRecord
  2
TATEGAKI
 70
     4
 40
1.0
 41
1.0
 50
0.0
 71
     0
 42
0.2
  3
TXT
  4
BIGFONT
  0
ENDTAB
  0
TABLE
  2
VIEW
  5
6
330
0
100
AcDbSymbolTable
 70
     0
  0
ENDTAB
  0
TABLE
  2
UCS
  5
7
330
0
100
AcDbSymbolTable
 70
     0
  0
ENDTAB
  0
TABLE
  2
APPID
  5
9
330
0
100
AcDbSymbolTable
 70
     1
  0
APPID
  5
12
330
9
100
AcDbSymbolTableRecord
100
AcDbRegAppTableRecord
  2
ACAD
 70
     0
  0
ENDTAB
  0
TABLE
  2
DIMSTYLE
  5
A
330
0
100
AcDbSymbolTable
 70
     2
100
AcDbDimStyleTable
  0
DIMSTYLE
105
27
330
A
100
AcDbSymbolTableRecord
100
AcDbDimStyleTableRecord
  2
ISO-25
 70
     0
 41
2.5
 42
0.625
 43
3.75
 44
1.25
 73
     0
 74
     0
 77
     1
 78
     8
140
2.5
141
2.5
143
0.03937
147
0.625
171
     3
172
     1
271
     2
272
     2
274
     3
278
    44
283
     0
284
     8
340
11
  0
DIMSTYLE
105
63
102
{ACAD_REACTORS
330
F5
330
F6
330
F7
330
F8
330
F9
330
FA
102
}
330
A
100
AcDbSymbolTableRecord
100
AcDbDimStyleTableRecord
  2
Standard
 70
     0
 41
1.5
 42
0.0
 44
2.75
 73
     0
 74
     0
 77
     1
 78
     8
 79
     2
140
4.0
146
0.8
147
1.0
172
     1
179
     1
271
     1
340
11
  0
ENDTAB
  0
TABLE
  2
BLOCK_RECORD
  5
1
330
0
100
AcDbSymbolTable
 70
     7
  0
BLOCK_RECORD
  5
1F
330
1
100
AcDbSymbolTableRecord
100
AcDbBlockTableRecord
  2
*Model_Space
340
22
  0
BLOCK_RECORD
  5
1B
330
1
100
AcDbSymbolTableRecord
100
AcDbBlockTableRecord
  2
*Paper_Space
340
1E
  0
BLOCK_RECORD
  5
23
330
1
100
AcDbSymbolTableRecord
100
AcDbBlockTableRecord
  2
*Paper_Space0
340
26
  0
BLOCK_RECORD
  5
64
330
1
100
AcDbSymbolTableRecord
100
AcDbBlockTableRecord
  2
*D1
340
0
  0
BLOCK_RECORD
  5
78
330
1
100
AcDbSymbolTableRecord
100
AcDbBlockTableRecord
  2
*D2
340
0
  0
BLOCK_RECORD
  5
8C
330
1
100
AcDbSymbolTableRecord
100
AcDbBlockTableRecord
  2
*D3
340
0
  0
BLOCK_RECORD
  5
A0
330
1
100
AcDbSymbolTableRecord
100
AcDbBlockTableRecord
  2
*D4
340
0
  0
BLOCK_RECORD
  5
B5
330
1
100
AcDbSymbolTableRecord
100
AcDbBlockTableRecord
  2
*D5
340
0
  0
BLOCK_RECORD
  5
C9
330
1
100
AcDbSymbolTableRecord
100
AcDbBlockTableRecord
  2
*D6
340
0
  0
ENDTAB
  0
ENDSEC
  0
SECTION
  2
BLOCKS
  0
BLOCK
  5
20
330
1F
100
AcDbEntity
  8
0
100
AcDbBlockBegin
  2
*Model_Space
 70
     0
 10
0.0
 20
0.0
 30
0.0
  3
*Model_Space
  1

  0
ENDBLK
  5
21
330
1F
100
AcDbEntity
  8
0
100
AcDbBlockEnd
  0
BLOCK
  5
1C
330
1B
100
AcDbEntity
 67
     1
  8
0
100
AcDbBlockBegin
  2
*Paper_Space
 70
     0
 10
0.0
 20
0.0
 30
0.0
  3
*Paper_Space
  1

  0
ENDBLK
  5
1D
330
1B
100
AcDbEntity
 67
     1
  8
0
100
AcDbBlockEnd
  0
BLOCK
  5
24
330
23
100
AcDbEntity
  8
0
100
AcDbBlockBegin
  2
*Paper_Space0
 70
     0
 10
0.0
 20
0.0
 30
0.0
  3
*Paper_Space0
  1

  0
ENDBLK
  5
25
330
23
100
AcDbEntity
  8
0
100
AcDbBlockEnd
  0
BLOCK
  5
65
330
64
100
AcDbEntity
  8
0
100
AcDbBlockBegin
  2
*D1
 70
     1
 10
0.0
 20
0.0
 30
0.0
  3
*D1
  1

  0
LINE
  5
67
330
64
100
AcDbEntity
  8
001
370
     9
100
AcDbLine
 10
72.288971
 20
50.932401
 30
0.0
 11
72.288971
 21
19.486437
 31
0.0
  0
LINE
  5
68
330
64
100
AcDbEntity
  8
001
370
     9
100
AcDbLine
 10
42.288971
 20
55.932401
 30
0.0
 11
42.288971
 21
19.486437
 31
0.0
  0
LINE
  5
69
330
64
100
AcDbEntity
  8
001
370
     9
100
AcDbLine
 10
72.288971
 20
22.236437
 30
0.0
 11
42.288971
 21
22.236437
 31
0.0
  0
POLYLINE
  5
6A
330
64
100
AcDbEntity
  8
001
370
     9
100
AcDb2dPolyline
 66
     1
 10
0.0
 20
0.0
 30
0.0
  0
VERTEX
  5
6C
330
6A
100
AcDbEntity
  8
001
370
     9
100
AcDbVertex
100
AcDb2dVertex
 10
70.788971
 20
22.638361
 30
0.0
  0
VERTEX
  5
6D
330
6A
100
AcDbEntity
  8
001
370
     9
100
AcDbVertex
100
AcDb2dVertex
 10
72.288971
 20
22.236437
 30
0.0
  0
VERTEX
  5
6E
330
6A
100
AcDbEntity
  8
001
370
     9
100
AcDbVertex
100
AcDb2dVertex
 10
70.788971
 20
21.834514
 30
0.0
  0
SEQEND
  5
6B
330
6A
100
AcDbEntity
  8
001
370
     9
  0
POLYLINE
  5
6F
330
64
100
AcDbEntity
  8
001
370
     9
100
AcDb2dPolyline
 66
     1
 10
0.0
 20
0.0
 30
0.0
  0
VERTEX
  5
71
330
6F
100
AcDbEntity
  8
001
370
     9
100
AcDbVertex
100
AcDb2dVertex
 10
43.788971
 20
21.834514
 30
0.0
  0
VERTEX
  5
72
330
6F
100
AcDbEntity
  8
001
370
     9
100
AcDbVertex
100
AcDb2dVertex
 10
42.288971
 20
22.236437
 30
0.0
  0
VERTEX
  5
73
330
6F
100
AcDbEntity
  8
001
370
     9
100
AcDbVertex
100
AcDb2dVertex
 10
43.788971
 20
22.638361
 30
0.0
  0
SEQEND
  5
70
330
6F
100
AcDbEntity
  8
001
370
     9
  0
TEXT
  5
74
330
64
100
AcDbEntity
  8
001
370
    30
100
AcDbText
 10
53.288971
 20
23.236437
 30
0.0
 40
4.0
  1
３０
 41
0.833333
100
AcDbText
  0
POINT
  5
75
330
64
100
AcDbEntity
  8
001
370
     9
100
AcDbPoint
 10
72.288971
 20
50.932401
 30
0.0
  0
POINT
  5
76
330
64
100
AcDbEntity
  8
001
370
     9
100
AcDbPoint
 10
42.288971
 20
55.932401
 30
0.0
  0
POINT
  5
77
330
64
100
AcDbEntity
  8
001
370
     9
100
AcDbPoint
 10
42.288971
 20
22.236437
 30
0.0
  0
ENDBLK
  5
66
330
64
100
AcDbEntity
  8
0
100
AcDbBlockEnd
  0
BLOCK
  5
79
330
78
100
AcDbEntity
  8
0
100
AcDbBlockBegin
  2
*D2
 70
     1
 10
0.0
 20
0.0
 30
0.0
  3
*D2
  1

  0
LINE
  5
7B
330
78
100
AcDbEntity
  8
001
370
     9
100
AcDbLine
 10
42.288971
 20
22.236437
 30
0.0
 11
42.288971
 21
7.022507
 31
0.0
  0
LINE
  5
7C
330
78
100
AcDbEntity
  8
001
370
     9
100
AcDbLine
 10
172.288971
 20
54.932401
 30
0.0
 11
172.288971
 21
7.022507
 31
0.0
  0
LINE
  5
7D
330
78
100
AcDbEntity
  8
001
370
     9
100
AcDbLine
 10
42.288971
 20
9.772507
 30
0.0
 11
172.288971
 21
9.772507
 31
0.0
  0
POLYLINE
  5
7E
330
78
100
AcDbEntity
  8
001
370
     9
100
AcDb2dPolyline
 66
     1
 10
0.0
 20
0.0
 30
0.0
  0
VERTEX
  5
80
330
7E
100
AcDbEntity
  8
001
370
     9
100
AcDbVertex
100
AcDb2dVertex
 10
43.788971
 20
9.370583
 30
0.0
  0
VERTEX
  5
81
330
7E
100
AcDbEntity
  8
001
370
     9
100
AcDbVertex
100
AcDb2dVertex
 10
42.288971
 20
9.772507
 30
0.0
  0
VERTEX
  5
82
330
7E
100
AcDbEntity
  8
001
370
     9
100
AcDbVertex
100
AcDb2dVertex
 10
43.788971
 20
10.174431
 30
0.0
  0
SEQEND
  5
7F
330
7E
100
AcDbEntity
  8
001
370
     9
  0
POLYLINE
  5
83
330
78
100
AcDbEntity
  8
001
370
     9
100
AcDb2dPolyline
 66
     1
 10
0.0
 20
0.0
 30
0.0
  0
VERTEX
  5
85
330
83
100
AcDbEntity
  8
001
370
     9
100
AcDbVertex
100
AcDb2dVertex
 10
170.788971
 20
10.174431
 30
0.0
  0
VERTEX
  5
86
330
83
100
AcDbEntity
  8
001
370
     9
100
AcDbVertex
100
AcDb2dVertex
 10
172.288971
 20
9.772507
 30
0.0
  0
VERTEX
  5
87
330
83
100
AcDbEntity
  8
001
370
     9
100
AcDbVertex
100
AcDb2dVertex
 10
170.788971
 20
9.370583
 30
0.0
  0
SEQEND
  5
84
330
83
100
AcDbEntity
  8
001
370
     9
  0
TEXT
  5
88
330
78
100
AcDbEntity
  8
001
370
    30
100
AcDbText
 10
101.288971
 20
10.772507
 30
0.0
 40
4.0
  1
１３０
 41
0.833333
100
AcDbText
  0
POINT
  5
89
330
78
100
AcDbEntity
  8
001
370
     9
100
AcDbPoint
 10
42.288971
 20
22.236437
 30
0.0
  0
POINT
  5
8A
330
78
100
AcDbEntity
  8
001
370
     9
100
AcDbPoint
 10
172.288971
 20
54.932401
 30
0.0
  0
POINT
  5
8B
330
78
100
AcDbEntity
  8
001
370
     9
100
AcDbPoint
 10
172.288971
 20
9.772507
 30
0.0
  0
ENDBLK
  5
7A
330
78
100
AcDbEntity
  8
0
100
AcDbBlockEnd
  0
BLOCK
  5
8D
330
8C
100
AcDbEntity
  8
0
100
AcDbBlockBegin
  2
*D3
 70
     1
 10
0.0
 20
0.0
 30
0.0
  3
*D3
  1

  0
LINE
  5
8F
330
8C
100
AcDbEntity
  8
001
370
     9
100
AcDbLine
 10
56.772588
 20
50.660795
 30
0.0
 11
73.235912
 21
44.668636
 31
0.0
  0
ARC
  5
90
330
8C
100
AcDbEntity
  8
001
370
     9
100
AcDbCircle
 10
42.288971
 20
55.932401
 30
0.0
 40
30.18304629039829
100
AcDbArc
 50
270.0
 51
340.0
  0
POLYLINE
  5
91
330
8C
100
AcDbEntity
  8
001
370
     9
100
AcDb2dPolyline
 66
     1
 10
0.0
 20
0.0
 30
0.0
  0
VERTEX
  5
93
330
91
100
AcDbEntity
  8
001
370
     9
100
AcDbVertex
100
AcDb2dVertex
 10
69.729711
 20
44.359641
 30
0.0
  0
VERTEX
  5
94
330
91
100
AcDbEntity
  8
001
370
     9
100
AcDbVertex
100
AcDb2dVertex
 10
70.651757
 20
45.609191
 30
0.0
  0
VERTEX
  5
95
330
91
100
AcDbEntity
  8
001
370
     9
100
AcDbVertex
100
AcDb2dVertex
 10
70.478017
 20
44.066026
 30
0.0
  0
SEQEND
  5
92
330
91
100
AcDbEntity
  8
001
370
     9
  0
POLYLINE
  5
96
330
8C
100
AcDbEntity
  8
001
370
     9
100
AcDb2dPolyline
 66
     1
 10
0.0
 20
0.0
 30
0.0
  0
VERTEX
  5
98
330
96
100
AcDbEntity
  8
001
370
     9
100
AcDbVertex
100
AcDb2dVertex
 10
43.798494
 20
25.384824
 30
0.0
  0
VERTEX
  5
99
330
96
100
AcDbEntity
  8
001
370
     9
100
AcDbVertex
100
AcDb2dVertex
 10
42.288971
 20
25.749354
 30
0.0
  0
VERTEX
  5
9A
330
96
100
AcDbEntity
  8
001
370
     9
100
AcDbVertex
100
AcDb2dVertex
 10
43.778522
 20
26.188423
 30
0.0
  0
SEQEND
  5
97
330
96
100
AcDbEntity
  8
001
370
     9
  0
TEXT
  5
9B
330
8C
100
AcDbEntity
  8
001
370
    30
100
AcDbText
 10
54.112767
 20
28.58559
 30
0.0
 40
4.0
  1
７０%%d
 50
35.0
 41
0.978261
100
AcDbText
  0
POINT
  5
9C
330
8C
100
AcDbEntity
  8
001
370
     9
100
AcDbPoint
 10
56.772588
 20
50.660795
 30
0.0
  0
POINT
  5
9D
330
8C
100
AcDbEntity
  8
001
370
     9
100
AcDbPoint
 10
42.288971
 20
55.932401
 30
0.0
  0
POINT
  5
9E
330
8C
100
AcDbEntity
  8
001
370
     9
100
AcDbPoint
 10
42.288971
 20
55.932401
 30
0.0
  0
POINT
  5
9F
330
8C
100
AcDbEntity
  8
001
370
     9
100
AcDbPoint
 10
42.288971
 20
28.499354
 30
0.0
  0
ENDBLK
  5
8E
330
8C
100
AcDbEntity
  8
0
100
AcDbBlockEnd
  0
BLOCK
  5
A1
330
A0
100
AcDbEntity
  8
0
100
AcDbBlockBegin
  2
*D4
 70
     1
 10
0.0
 20
0.0
 30
0.0
  3
*D4
  1

  0
LINE
  5
A3
330
A0
100
AcDbEntity
  8
001
370
     9
100
AcDbLine
 10
56.836864
 20
50.637401
 30
0.0
 11
56.836864
 21
36.8174
 31
0.0
  0
LINE
  5
A4
330
A0
100
AcDbEntity
  8
001
370
     9
100
AcDbLine
 10
56.836864
 20
39.5674
 30
0.0
 11
42.288971
 21
39.5674
 31
0.0
  0
POLYLINE
  5
A5
330
A0
100
AcDbEntity
  8
001
370
     9
100
AcDb2dPolyline
 66
     1
 10
0.0
 20
0.0
 30
0.0
  0
VERTEX
  5
A7
330
A5
100
AcDbEntity
  8
001
370
     9
100
AcDbVertex
100
AcDb2dVertex
 10
58.336864
 20
39.165477
 30
0.0
  0
VERTEX
  5
A8
330
A5
100
AcDbEntity
  8
001
370
     9
100
AcDbVertex
100
AcDb2dVertex
 10
56.836864
 20
39.5674
 30
0.0
  0
VERTEX
  5
A9
330
A5
100
AcDbEntity
  8
001
370
     9
100
AcDbVertex
100
AcDb2dVertex
 10
58.336864
 20
39.969324
 30
0.0
  0
SEQEND
  5
A6
330
A5
100
AcDbEntity
  8
001
370
     9
  0
POLYLINE
  5
AA
330
A0
100
AcDbEntity
  8
001
370
     9
100
AcDb2dPolyline
 66
     1
 10
0.0
 20
0.0
 30
0.0
  0
VERTEX
  5
AC
330
AA
100
AcDbEntity
  8
001
370
     9
100
AcDbVertex
100
AcDb2dVertex
 10
40.788971
 20
39.969324
 30
0.0
  0
VERTEX
  5
AD
330
AA
100
AcDbEntity
  8
001
370
     9
100
AcDbVertex
100
AcDb2dVertex
 10
42.288971
 20
39.5674
 30
0.0
  0
VERTEX
  5
AE
330
AA
100
AcDbEntity
  8
001
370
     9
100
AcDbVertex
100
AcDb2dVertex
 10
40.788971
 20
39.165477
 30
0.0
  0
SEQEND
  5
AB
330
AA
100
AcDbEntity
  8
001
370
     9
  0
TEXT
  5
AF
330
A0
100
AcDbEntity
  8
001
370
    30
100
AcDbText
 10
14.788971
 20
40.5674
 30
0.0
 40
4.0
  1
（１４．５）
 41
0.833333
100
AcDbText
  0
POINT
  5
B0
330
A0
100
AcDbEntity
  8
001
370
     9
100
AcDbPoint
 10
56.836864
 20
50.637401
 30
0.0
  0
POINT
  5
B1
330
A0
100
AcDbEntity
  8
001
370
     9
100
AcDbPoint
 10
42.288971
 20
55.932401
 30
0.0
  0
POINT
  5
B2
330
A0
100
AcDbEntity
  8
001
370
     9
100
AcDbPoint
 10
42.288971
 20
39.5674
 30
0.0
  0
LINE
  5
B3
330
A0
100
AcDbEntity
  8
001
370
     9
100
AcDbLine
 10
56.836864
 20
39.5674
 30
0.0
 11
59.336864
 21
39.5674
 31
0.0
  0
LINE
  5
B4
330
A0
100
AcDbEntity
  8
001
370
     9
100
AcDbLine
 10
42.288971
 20
39.5674
 30
0.0
 11
11.788971
 21
39.5674
 31
0.0
  0
ENDBLK
  5
A2
330
A0
100
AcDbEntity
  8
0
100
AcDbBlockEnd
  0
BLOCK
  5
B6
330
B5
100
AcDbEntity
  8
0
100
AcDbBlockBegin
  2
*D5
 70
     1
 10
0.0
 20
0.0
 30
0.0
  3
*D5
  1

  0
LINE
  5
B8
330
B5
100
AcDbEntity
  8
001
370
     9
100
AcDbLine
 10
172.288971
 20
60.932401
 30
0.0
 11
172.288971
 21
19.486437
 31
0.0
  0
LINE
  5
B9
330
B5
100
AcDbEntity
  8
001
370
     9
100
AcDbLine
 10
72.288971
 20
53.282401
 30
0.0
 11
72.288971
 21
19.486437
 31
0.0
  0
LINE
  5
BA
330
B5
100
AcDbEntity
  8
001
370
     9
100
AcDbLine
 10
172.288971
 20
22.236437
 30
0.0
 11
72.288971
 21
22.236437
 31
0.0
  0
POLYLINE
  5
BB
330
B5
100
AcDbEntity
  8
001
370
     9
100
AcDb2dPolyline
 66
     1
 10
0.0
 20
0.0
 30
0.0
  0
VERTEX
  5
BD
330
BB
100
AcDbEntity
  8
001
370
     9
100
AcDbVertex
100
AcDb2dVertex
 10
170.788971
 20
22.638361
 30
0.0
  0
VERTEX
  5
BE
330
BB
100
AcDbEntity
  8
001
370
     9
100
AcDbVertex
100
AcDb2dVertex
 10
172.288971
 20
22.236437
 30
0.0
  0
VERTEX
  5
BF
330
BB
100
AcDbEntity
  8
001
370
     9
100
AcDbVertex
100
AcDb2dVertex
 10
170.788971
 20
21.834514
 30
0.0
  0
SEQEND
  5
BC
330
BB
100
AcDbEntity
  8
001
370
     9
  0
POLYLINE
  5
C0
330
B5
100
AcDbEntity
  8
001
370
     9
100
AcDb2dPolyline
 66
     1
 10
0.0
 20
0.0
 30
0.0
  0
VERTEX
  5
C2
330
C0
100
AcDbEntity
  8
001
370
     9
100
AcDbVertex
100
AcDb2dVertex
 10
73.788971
 20
21.834514
 30
0.0
  0
VERTEX
  5
C3
330
C0
100
AcDbEntity
  8
001
370
     9
100
AcDbVertex
100
AcDb2dVertex
 10
72.288971
 20
22.236437
 30
0.0
  0
VERTEX
  5
C4
330
C0
100
AcDbEntity
  8
001
370
     9
100
AcDbVertex
100
AcDb2dVertex
 10
73.788971
 20
22.638361
 30
0.0
  0
SEQEND
  5
C1
330
C0
100
AcDbEntity
  8
001
370
     9
  0
TEXT
  5
C5
330
B5
100
AcDbEntity
  8
001
370
    30
100
AcDbText
 10
116.288971
 20
23.236437
 30
0.0
 40
4.0
  1
１００
 41
0.833333
100
AcDbText
  0
POINT
  5
C6
330
B5
100
AcDbEntity
  8
001
370
     9
100
AcDbPoint
 10
172.288971
 20
60.932401
 30
0.0
  0
POINT
  5
C7
330
B5
100
AcDbEntity
  8
001
370
     9
100
AcDbPoint
 10
72.288971
 20
53.282401
 30
0.0
  0
POINT
  5
C8
330
B5
100
AcDbEntity
  8
001
370
     9
100
AcDbPoint
 10
72.288971
 20
22.236437
 30
0.0
  0
ENDBLK
  5
B7
330
B5
100
AcDbEntity
  8
0
100
AcDbBlockEnd
  0
BLOCK
  5
CA
330
C9
100
AcDbEntity
  8
0
100
AcDbBlockBegin
  2
*D6
 70
     1
 10
0.0
 20
0.0
 30
0.0
  3
*D6
  1

  0
LINE
  5
CC
330
C9
100
AcDbEntity
  8
001
370
     9
100
AcDbLine
 10
168.288971
 20
79.432401
 30
0.0
 11
200.248819
 21
79.432401
 31
0.0
  0
LINE
  5
CD
330
C9
100
AcDbEntity
  8
001
370
     9
100
AcDbLine
 10
168.288971
 20
54.432401
 30
0.0
 11
200.248819
 21
54.432401
 31
0.0
  0
LINE
  5
CE
330
C9
100
AcDbEntity
  8
001
370
     9
100
AcDbLine
 10
197.498819
 20
79.432401
 30
0.0
 11
197.498819
 21
54.432401
 31
0.0
  0
POLYLINE
  5
CF
330
C9
100
AcDbEntity
  8
001
370
     9
100
AcDb2dPolyline
 66
     1
 10
0.0
 20
0.0
 30
0.0
  0
VERTEX
  5
D1
330
CF
100
AcDbEntity
  8
001
370
     9
100
AcDbVertex
100
AcDb2dVertex
 10
197.096895
 20
77.932401
 30
0.0
  0
VERTEX
  5
D2
330
CF
100
AcDbEntity
  8
001
370
     9
100
AcDbVertex
100
AcDb2dVertex
 10
197.498819
 20
79.432401
 30
0.0
  0
VERTEX
  5
D3
330
CF
100
AcDbEntity
  8
001
370
     9
100
AcDbVertex
100
AcDb2dVertex
 10
197.900743
 20
77.932401
 30
0.0
  0
SEQEND
  5
D0
330
CF
100
AcDbEntity
  8
001
370
     9
  0
POLYLINE
  5
D4
330
C9
100
AcDbEntity
  8
001
370
     9
100
AcDb2dPolyline
 66
     1
 10
0.0
 20
0.0
 30
0.0
  0
VERTEX
  5
D6
330
D4
100
AcDbEntity
  8
001
370
     9
100
AcDbVertex
100
AcDb2dVertex
 10
197.900743
 20
55.932401
 30
0.0
  0
VERTEX
  5
D7
330
D4
100
AcDbEntity
  8
001
370
     9
100
AcDbVertex
100
AcDb2dVertex
 10
197.498819
 20
54.432401
 30
0.0
  0
VERTEX
  5
D8
330
D4
100
AcDbEntity
  8
001
370
     9
100
AcDbVertex
100
AcDb2dVertex
 10
197.096895
 20
55.932401
 30
0.0
  0
SEQEND
  5
D5
330
D4
100
AcDbEntity
  8
001
370
     9
  0
TEXT
  5
D9
330
C9
100
AcDbEntity
  8
001
370
    30
100
AcDbText
 10
196.498819
 20
60.932401
 30
0.0
 40
4.0
  1
%%c２５
 50
90.000003
 41
0.882353
100
AcDbText
  0
POINT
  5
DA
330
C9
100
AcDbEntity
  8
001
370
     9
100
AcDbPoint
 10
168.288971
 20
79.432401
 30
0.0
  0
POINT
  5
DB
330
C9
100
AcDbEntity
  8
001
370
     9
100
AcDbPoint
 10
168.288971
 20
54.432401
 30
0.0
  0
POINT
  5
DC
330
C9
100
AcDbEntity
  8
001
370
     9
100
AcDbPoint
 10
197.498819
 20
54.432401
 30
0.0
  0
ENDBLK
  5
CB
330
C9
100
AcDbEntity
  8
0
100
AcDbBlockEnd
  0
ENDSEC
  0
SECTION
  2
ENTITIES
  0
TEXT
  5
DD
330
1F
100
AcDbEntity
  8
001
370
    30
100
AcDbText
 10
26.19447
 20
60.932401
 30
0.0
 40
4.0
  1
%%c２２
 50
90.000003
 41
0.882353
100
AcDbText
  0
POLYLINE
  5
DE
330
1F
100
AcDbEntity
  8
001
370
     9
100
AcDb2dPolyline
 66
     1
 10
0.0
 20
0.0
 30
0.0
  0
VERTEX
  5
E0
330
DE
100
AcDbEntity
  8
001
370
     9
100
AcDbVertex
100
AcDb2dVertex
 10
27.596394
 20
57.432401
 30
0.0
  0
VERTEX
  5
E1
330
DE
100
AcDbEntity
  8
001
370
     9
100
AcDbVertex
100
AcDb2dVertex
 10
27.19447
 20
55.932401
 30
0.0
  0
VERTEX
  5
E2
330
DE
100
AcDbEntity
  8
001
370
     9
100
AcDbVertex
100
AcDb2dVertex
 10
26.792546
 20
57.432401
 30
0.0
  0
SEQEND
  5
DF
330
DE
100
AcDbEntity
  8
001
370
     9
  0
LINE
  5
E3
330
1F
100
AcDbEntity
  8
001
370
     9
100
AcDbLine
 10
27.19447
 20
77.932401
 30
0.0
 11
27.19447
 21
55.932401
 31
0.0
  0
POLYLINE
  5
E4
330
1F
100
AcDbEntity
  8
001
370
     9
100
AcDb2dPolyline
 66
     1
 10
0.0
 20
0.0
 30
0.0
  0
VERTEX
  5
E6
330
E4
100
AcDbEntity
  8
001
370
     9
100
AcDbVertex
100
AcDb2dVertex
 10
42.288971
 20
55.932401
 30
0.0
  0
VERTEX
  5
E7
330
E4
100
AcDbEntity
  8
001
370
     9
100
AcDbVertex
100
AcDb2dVertex
 10
27.19447
 20
55.932401
 30
0.0
  0
VERTEX
  5
E8
330
E4
100
AcDbEntity
  8
001
370
     9
100
AcDbVertex
100
AcDb2dVertex
 10
24.44447
 20
55.932401
 30
0.0
  0
SEQEND
  5
E5
330
E4
100
AcDbEntity
  8
001
370
     9
  0
TEXT
  5
E9
330
1F
100
AcDbEntity
  8
001
370
    30
100
AcDbText
 10
15.176244
 20
50.932401
 30
0.0
 40
4.0
  1
（%%c３２．５９）
 50
90.000003
 41
0.851064
100
AcDbText
  0
POLYLINE
  5
EA
330
1F
100
AcDbEntity
  8
001
370
     9
100
AcDb2dPolyline
 66
     1
 10
0.0
 20
0.0
 30
0.0
  0
VERTEX
  5
EC
330
EA
100
AcDbEntity
  8
001
370
     9
100
AcDbVertex
100
AcDb2dVertex
 10
16.578168
 20
52.137401
 30
0.0
  0
VERTEX
  5
ED
330
EA
100
AcDbEntity
  8
001
370
     9
100
AcDbVertex
100
AcDb2dVertex
 10
16.176244
 20
50.637401
 30
0.0
  0
VERTEX
  5
EE
330
EA
100
AcDbEntity
  8
001
370
     9
100
AcDbVertex
100
AcDb2dVertex
 10
15.77432
 20
52.137401
 30
0.0
  0
SEQEND
  5
EB
330
EA
100
AcDbEntity
  8
001
370
     9
  0
LINE
  5
EF
330
1F
100
AcDbEntity
  8
001
370
     9
100
AcDbLine
 10
16.176244
 20
83.227401
 30
0.0
 11
16.176244
 21
50.637401
 31
0.0
  0
POLYLINE
  5
F0
330
1F
100
AcDbEntity
  8
001
370
     9
100
AcDb2dPolyline
 66
     1
 10
0.0
 20
0.0
 30
0.0
  0
VERTEX
  5
F2
330
F0
100
AcDbEntity
  8
001
370
     9
100
AcDbVertex
100
AcDb2dVertex
 10
56.836864
 20
50.637401
 30
0.0
  0
VERTEX
  5
F3
330
F0
100
AcDbEntity
  8
001
370
     9
100
AcDbVertex
100
AcDb2dVertex
 10
16.176244
 20
50.637401
 30
0.0
  0
VERTEX
  5
F4
330
F0
100
AcDbEntity
  8
001
370
     9
100
AcDbVertex
100
AcDb2dVertex
 10
13.426244
 20
50.637401
 30
0.0
  0
SEQEND
  5
F1
330
F0
100
AcDbEntity
  8
001
370
     9
  0
DIMENSION
  5
F5
330
1F
100
AcDbEntity
  8
001
370
     9
100
AcDbDimension
  2
*D1
 10
42.288971
 20
22.236437
 30
0.0
 11
57.288971
 21
25.236437
 31
0.0
 70
   160
 71
     5
 42
-1.0
  3
Standard
100
AcDbAlignedDimension
 13
72.288971
 23
50.932401
 33
0.0
 14
42.288971
 24
55.932401
 34
0.0
 50
180.0
100
AcDbRotatedDimension
  0
DIMENSION
  5
F6
330
1F
100
AcDbEntity
  8
001
370
     9
100
AcDbDimension
  2
*D2
 10
172.288971
 20
9.772507
 30
0.0
 11
107.288971
 21
12.772507
 31
0.0
 70
   160
 71
     5
 42
-1.0
  3
Standard
100
AcDbAlignedDimension
 13
42.288971
 23
22.236437
 33
0.0
 14
172.288971
 24
54.932401
 34
0.0
100
AcDbRotatedDimension
  0
DIMENSION
  5
F7
330
1F
100
AcDbEntity
  8
001
370
     9
100
AcDbDimension
  2
*D3
 10
42.288971
 20
55.932401
 30
0.0
 11
57.880526
 21
33.665353
 31
0.0
 70
    34
 71
     5
 42
-1.0
  3
Standard
100
AcDb2LineAngularDimension
 13
56.772588
 23
50.660795
 33
0.0
 14
42.288971
 24
55.932401
 34
0.0
 15
42.288971
 25
28.499354
 35
0.0
 16
59.601255
 26
31.207897
 36
0.0
  0
DIMENSION
  5
F8
330
1F
100
AcDbEntity
  8
001
370
     9
100
AcDbDimension
  2
*D4
 10
42.288971
 20
39.5674
 30
0.0
 11
26.788971
 21
42.5674
 31
0.0
 70
   160
 71
     5
 42
-1.0
  3
Standard
100
AcDbAlignedDimension
 13
56.836864
 23
50.637401
 33
0.0
 14
42.288971
 24
55.932401
 34
0.0
 50
180.0
100
AcDbRotatedDimension
  0
DIMENSION
  5
F9
330
1F
100
AcDbEntity
  8
001
370
     9
100
AcDbDimension
  2
*D5
 10
72.288971
 20
22.236437
 30
0.0
 11
122.288971
 21
25.236437
 31
0.0
 70
   160
 71
     5
 42
-1.0
  3
Standard
100
AcDbAlignedDimension
 13
172.288971
 23
60.932401
 33
0.0
 14
72.288971
 24
53.282401
 34
0.0
 50
180.0
100
AcDbRotatedDimension
  0
DIMENSION
  5
FA
330
1F
100
AcDbEntity
  8
001
370
     9
100
AcDbDimension
  2
*D6
 10
197.498819
 20
54.432401
 30
0.0
 11
194.498819
 21
66.932401
 31
0.0
 70
   160
 71
     5
 42
-1.0
  3
Standard
100
AcDbAlignedDimension
 13
168.288971
 23
79.432401
 33
0.0
 14
168.288971
 24
54.432401
 34
0.0
 50
270.0
100
AcDbRotatedDimension
  0
LINE
  5
FB
330
1F
100
AcDbEntity
  8
001
370
    50
100
AcDbLine
 10
54.00843
 20
66.2328
 30
0.0
 11
42.431856
 21
56.518902
 31
0.0
  0
LINE
  5
FC
330
1F
100
AcDbEntity
  8
001
370
    50
100
AcDbLine
 10
57.287296
 20
51.092687
 30
0.0
 11
54.659468
 21
65.995842
 31
0.0
  0
ARC
  5
FD
330
1F
100
AcDbEntity
  8
001
370
    50
100
AcDbCircle
 10
42.688971
 20
56.212484
 30
0.0
 40
0.4
100
AcDbArc
 50
130.0
 51
250.0
  0
ARC
  5
FE
330
1F
100
AcDbEntity
  8
001
370
    50
100
AcDbCircle
 10
54.265545
 20
65.926382
 30
0.0
 40
0.4
100
AcDbArc
 50
10.0
 51
130.0
  0
CIRCLE
  5
FF
330
1F
100
AcDbEntity
  8
001
370
    50
100
AcDbCircle
 10
51.281419
 20
57.727564
 30
0.0
 40
1.9
  0
LINE
  5
100
330
1F
100
AcDbEntity
  8
001
370
     9
100
AcDbLine
 10
56.836864
 20
50.637401
 30
0.0
 11
56.77331
 21
50.660533
 31
0.0
  0
LINE
  5
101
330
1F
100
AcDbEntity
  8
001
370
     9
100
AcDbLine
 10
42.288971
 20
55.932401
 30
0.0
 11
42.552163
 21
55.836607
 31
0.0
  0
LINE
  5
102
330
1F
100
AcDbEntity
  8
001
370
    50
100
AcDbLine
 10
56.772588
 20
50.660795
 30
0.0
 11
42.552163
 21
55.836607
 31
0.0
  0
LINE
  5
103
330
1F
100
AcDbEntity
  8
001
370
    50
100
AcDbLine
 10
172.288971
 20
58.432401
 30
0.0
 11
172.288971
 21
75.432401
 31
0.0
  0
LINE
  5
104
330
1F
100
AcDbEntity
  8
001
370
    50
100
AcDbLine
 10
72.288971
 20
53.282401
 30
0.0
 11
72.288971
 21
80.582401
 31
0.0
  0
LINE
  5
105
330
1F
100
AcDbEntity
  8
001
370
    50
100
AcDbLine
 10
57.209508
 20
82.582401
 30
0.0
 11
57.209508
 21
79.119593
 31
0.0
  0
LINE
  5
106
330
1F
100
AcDbEntity
  8
001
370
    50
100
AcDbLine
 10
70.288971
 20
82.582401
 30
0.0
 11
57.209508
 21
82.582401
 31
0.0
  0
POLYLINE
  5
107
330
1F
100
AcDbEntity
  8
001
370
    50
100
AcDb2dPolyline
 66
     1
 10
0.0
 20
0.0
 30
0.0
  0
VERTEX
  5
109
330
107
100
AcDbEntity
  8
001
370
    50
100
AcDbVertex
100
AcDb2dVertex
 10
60.519653
 20
55.954105
 30
0.0
  0
VERTEX
  5
10A
330
107
100
AcDbEntity
  8
001
370
    50
100
AcDbVertex
100
AcDb2dVertex
 10
60.625238
 20
54.931774
 30
0.0
  0
VERTEX
  5
10B
330
107
100
AcDbEntity
  8
001
370
    50
100
AcDbVertex
100
AcDb2dVertex
 10
60.84039
 20
53.446201
 30
0.0
  0
VERTEX
  5
10C
330
107
100
AcDbEntity
  8
001
370
    50
100
AcDbVertex
100
AcDb2dVertex
 10
61.038508
 20
52.494244
 30
0.0
  0
VERTEX
  5
10D
330
107
100
AcDbEntity
  8
001
370
    50
100
AcDbVertex
100
AcDb2dVertex
 10
61.214891
 20
51.853189
 30
0.0
  0
SEQEND
  5
108
330
107
100
AcDbEntity
  8
001
370
    50
  0
POLYLINE
  5
10E
330
1F
100
AcDbEntity
  8
001
370
    50
100
AcDb2dPolyline
 66
     1
 10
0.0
 20
0.0
 30
0.0
  0
VERTEX
  5
110
330
10E
100
AcDbEntity
  8
001
370
    50
100
AcDbVertex
100
AcDb2dVertex
 10
60.519653
 20
55.954105
 30
0.0
  0
VERTEX
  5
111
330
10E
100
AcDbEntity
  8
001
370
    50
100
AcDbVertex
100
AcDb2dVertex
 10
61.176779
 20
56.865073
 30
0.0
  0
VERTEX
  5
112
330
10E
100
AcDbEntity
  8
001
370
    50
100
AcDbVertex
100
AcDb2dVertex
 10
62.004972
 20
58.171729
 30
0.0
  0
VERTEX
  5
113
330
10E
100
AcDbEntity
  8
001
370
    50
100
AcDbVertex
100
AcDb2dVertex
 10
62.65821
 20
59.450854
 30
0.0
  0
VERTEX
  5
114
330
10E
100
AcDbEntity
  8
001
370
    50
100
AcDbVertex
100
AcDb2dVertex
 10
63.134447
 20
60.683055
 30
0.0
  0
VERTEX
  5
115
330
10E
100
AcDbEntity
  8
001
370
    50
100
AcDbVertex
100
AcDb2dVertex
 10
63.544698
 20
62.016369
 30
0.0
  0
VERTEX
  5
116
330
10E
100
AcDbEntity
  8
001
370
    50
100
AcDbVertex
100
AcDb2dVertex
 10
63.870212
 20
63.40389
 30
0.0
  0
VERTEX
  5
117
330
10E
100
AcDbEntity
  8
001
370
    50
100
AcDbVertex
100
AcDb2dVertex
 10
64.085599
 20
64.820733
 30
0.0
  0
VERTEX
  5
118
330
10E
100
AcDbEntity
  8
001
370
    50
100
AcDbVertex
100
AcDb2dVertex
 10
64.1876
 20
66.243018
 30
0.0
  0
VERTEX
  5
119
330
10E
100
AcDbEntity
  8
001
370
    50
100
AcDbVertex
100
AcDb2dVertex
 10
64.183955
 20
67.676169
 30
0.0
  0
VERTEX
  5
11A
330
10E
100
AcDbEntity
  8
001
370
    50
100
AcDbVertex
100
AcDb2dVertex
 10
64.075972
 20
69.105257
 30
0.0
  0
VERTEX
  5
11B
330
10E
100
AcDbEntity
  8
001
370
    50
100
AcDbVertex
100
AcDb2dVertex
 10
63.864174
 20
70.507237
 30
0.0
  0
VERTEX
  5
11C
330
10E
100
AcDbEntity
  8
001
370
    50
100
AcDbVertex
100
AcDb2dVertex
 10
63.539069
 20
71.894651
 30
0.0
  0
VERTEX
  5
11D
330
10E
100
AcDbEntity
  8
001
370
    50
100
AcDbVertex
100
AcDb2dVertex
 10
63.107486
 20
73.236606
 30
0.0
  0
VERTEX
  5
11E
330
10E
100
AcDbEntity
  8
001
370
    50
100
AcDbVertex
100
AcDb2dVertex
 10
62.594891
 20
74.517687
 30
0.0
  0
VERTEX
  5
11F
330
10E
100
AcDbEntity
  8
001
370
    50
100
AcDbVertex
100
AcDb2dVertex
 10
62.025773
 20
75.687619
 30
0.0
  0
VERTEX
  5
120
330
10E
100
AcDbEntity
  8
001
370
    50
100
AcDbVertex
100
AcDb2dVertex
 10
61.275092
 20
76.886426
 30
0.0
  0
VERTEX
  5
121
330
10E
100
AcDbEntity
  8
001
370
    50
100
AcDbVertex
100
AcDb2dVertex
 10
60.349179
 20
78.090627
 30
0.0
  0
VERTEX
  5
122
330
10E
100
AcDbEntity
  8
001
370
    50
100
AcDbVertex
100
AcDb2dVertex
 10
59.623917
 20
78.921456
 30
0.0
  0
SEQEND
  5
10F
330
10E
100
AcDbEntity
  8
001
370
    50
  0
POLYLINE
  5
123
330
1F
100
AcDbEntity
  8
001
370
    50
100
AcDb2dPolyline
 66
     1
 10
0.0
 20
0.0
 30
0.0
  0
VERTEX
  5
125
330
123
100
AcDbEntity
  8
001
370
    50
100
AcDbVertex
100
AcDb2dVertex
 10
59.623917
 20
78.921456
 30
0.0
  0
VERTEX
  5
126
330
123
100
AcDbEntity
  8
001
370
    50
100
AcDbVertex
100
AcDb2dVertex
 10
59.135518
 20
78.962165
 30
0.0
  0
VERTEX
  5
127
330
123
100
AcDbEntity
  8
001
370
    50
100
AcDbVertex
100
AcDb2dVertex
 10
58.421659
 20
79.021125
 30
0.0
  0
VERTEX
  5
128
330
123
100
AcDbEntity
  8
001
370
    50
100
AcDbVertex
100
AcDb2dVertex
 10
57.701962
 20
79.079809
 30
0.0
  0
VERTEX
  5
129
330
123
100
AcDbEntity
  8
001
370
    50
100
AcDbVertex
100
AcDb2dVertex
 10
57.209508
 20
79.119593
 30
0.0
  0
SEQEND
  5
124
330
123
100
AcDbEntity
  8
001
370
    50
  0
LINE
  5
12A
330
1F
100
AcDbEntity
  8
001
370
    50
100
AcDbLine
 10
60.519653
 20
58.932401
 30
0.0
 11
60.519653
 21
55.954105
 31
0.0
  0
POLYLINE
  5
12B
330
1F
100
AcDbEntity
  8
001
370
    50
100
AcDb2dPolyline
 66
     1
 10
0.0
 20
0.0
 30
0.0
  0
VERTEX
  5
12D
330
12B
100
AcDbEntity
  8
001
370
    50
100
AcDbVertex
100
AcDb2dVertex
 10
60.519653
 20
58.932401
 30
0.0
  0
VERTEX
  5
12E
330
12B
100
AcDbEntity
  8
001
370
    50
100
AcDbVertex
100
AcDb2dVertex
 10
60.476765
 20
59.727116
 30
0.0
  0
VERTEX
  5
12F
330
12B
100
AcDbEntity
  8
001
370
    50
100
AcDbVertex
100
AcDb2dVertex
 10
60.291857
 20
60.868892
 30
0.0
  0
VERTEX
  5
130
330
12B
100
AcDbEntity
  8
001
370
    50
100
AcDbVertex
100
AcDb2dVertex
 10
59.942921
 20
61.956152
 30
0.0
  0
VERTEX
  5
131
330
12B
100
AcDbEntity
  8
001
370
    50
100
AcDbVertex
100
AcDb2dVertex
 10
59.623917
 20
62.674058
 30
0.0
  0
SEQEND
  5
12C
330
12B
100
AcDbEntity
  8
001
370
    50
  0
LINE
  5
132
330
1F
100
AcDbEntity
  8
001
370
    50
100
AcDbLine
 10
59.623917
 20
78.921456
 30
0.0
 11
59.623917
 21
62.674058
 31
0.0
  0
POLYLINE
  5
133
330
1F
100
AcDbEntity
  8
001
370
    50
100
AcDb2dPolyline
 66
     1
 10
0.0
 20
0.0
 30
0.0
  0
VERTEX
  5
135
330
133
100
AcDbEntity
  8
001
370
    50
100
AcDbVertex
100
AcDb2dVertex
 10
56.060555
 20
65.841079
 30
0.0
  0
VERTEX
  5
136
330
133
100
AcDbEntity
  8
001
370
    50
100
AcDbVertex
100
AcDb2dVertex
 10
55.934811
 20
66.100028
 30
0.0
  0
VERTEX
  5
137
330
133
100
AcDbEntity
  8
001
370
    50
100
AcDbVertex
100
AcDb2dVertex
 10
55.737814
 20
66.443545
 30
0.0
  0
VERTEX
  5
138
330
133
100
AcDbEntity
  8
001
370
    50
100
AcDbVertex
100
AcDb2dVertex
 10
55.528258
 20
66.731486
 30
0.0
  0
VERTEX
  5
139
330
133
100
AcDbEntity
  8
001
370
    50
100
AcDbVertex
100
AcDb2dVertex
 10
55.304605
 20
66.971395
 30
0.0
  0
VERTEX
  5
13A
330
133
100
AcDbEntity
  8
001
370
    50
100
AcDbVertex
100
AcDb2dVertex
 10
55.054191
 20
67.197249
 30
0.0
  0
VERTEX
  5
13B
330
133
100
AcDbEntity
  8
001
370
    50
100
AcDbVertex
100
AcDb2dVertex
 10
54.777485
 20
67.404456
 30
0.0
  0
VERTEX
  5
13C
330
133
100
AcDbEntity
  8
001
370
    50
100
AcDbVertex
100
AcDb2dVertex
 10
54.480646
 20
67.581024
 30
0.0
  0
VERTEX
  5
13D
330
133
100
AcDbEntity
  8
001
370
    50
100
AcDbVertex
100
AcDb2dVertex
 10
54.1766
 20
67.726177
 30
0.0
  0
VERTEX
  5
13E
330
133
100
AcDbEntity
  8
001
370
    50
100
AcDbVertex
100
AcDb2dVertex
 10
53.870243
 20
67.840984
 30
0.0
  0
VERTEX
  5
13F
330
133
100
AcDbEntity
  8
001
370
    50
100
AcDbVertex
100
AcDb2dVertex
 10
53.524913
 20
67.924263
 30
0.0
  0
VERTEX
  5
140
330
133
100
AcDbEntity
  8
001
370
    50
100
AcDbVertex
100
AcDb2dVertex
 10
53.133613
 20
67.974418
 30
0.0
  0
VERTEX
  5
141
330
133
100
AcDbEntity
  8
001
370
    50
100
AcDbVertex
100
AcDb2dVertex
 10
52.847331
 20
67.991144
 30
0.0
  0
SEQEND
  5
134
330
133
100
AcDbEntity
  8
001
370
    50
  0
POLYLINE
  5
142
330
1F
100
AcDbEntity
  8
001
370
    50
100
AcDb2dPolyline
 66
     1
 10
0.0
 20
0.0
 30
0.0
  0
VERTEX
  5
144
330
142
100
AcDbEntity
  8
001
370
    50
100
AcDbVertex
100
AcDb2dVertex
 10
49.779436
 20
66.432401
 30
0.0
  0
VERTEX
  5
145
330
142
100
AcDbEntity
  8
001
370
    50
100
AcDbVertex
100
AcDb2dVertex
 10
49.165378
 20
66.397412
 30
0.0
  0
VERTEX
  5
146
330
142
100
AcDbEntity
  8
001
370
    50
100
AcDbVertex
100
AcDb2dVertex
 10
48.323493
 20
66.28829
 30
0.0
  0
VERTEX
  5
147
330
142
100
AcDbEntity
  8
001
370
    50
100
AcDbVertex
100
AcDb2dVertex
 10
47.57606
 20
66.103592
 30
0.0
  0
VERTEX
  5
148
330
142
100
AcDbEntity
  8
001
370
    50
100
AcDbVertex
100
AcDb2dVertex
 10
46.923501
 20
65.861497
 30
0.0
  0
VERTEX
  5
149
330
142
100
AcDbEntity
  8
001
370
    50
100
AcDbVertex
100
AcDb2dVertex
 10
46.291495
 20
65.568788
 30
0.0
  0
VERTEX
  5
14A
330
142
100
AcDbEntity
  8
001
370
    50
100
AcDbVertex
100
AcDb2dVertex
 10
45.633262
 20
65.168423
 30
0.0
  0
VERTEX
  5
14B
330
142
100
AcDbEntity
  8
001
370
    50
100
AcDbVertex
100
AcDb2dVertex
 10
44.961064
 20
64.647248
 30
0.0
  0
VERTEX
  5
14C
330
142
100
AcDbEntity
  8
001
370
    50
100
AcDbVertex
100
AcDb2dVertex
 10
44.502357
 20
64.235702
 30
0.0
  0
SEQEND
  5
143
330
142
100
AcDbEntity
  8
001
370
    50
  0
LINE
  5
14D
330
1F
100
AcDbEntity
  8
001
370
    50
100
AcDbLine
 10
42.788971
 20
62.513802
 30
0.0
 11
44.502357
 21
64.235702
 31
0.0
  0
POLYLINE
  5
14E
330
1F
100
AcDbEntity
  8
001
370
    50
100
AcDb2dPolyline
 66
     1
 10
0.0
 20
0.0
 30
0.0
  0
VERTEX
  5
150
330
14E
100
AcDbEntity
  8
001
370
    50
100
AcDbVertex
100
AcDb2dVertex
 10
42.788971
 20
73.425238
 30
0.0
  0
VERTEX
  5
151
330
14E
100
AcDbEntity
  8
001
370
    50
100
AcDbVertex
100
AcDb2dVertex
 10
43.666791
 20
73.807511
 30
0.0
  0
VERTEX
  5
152
330
14E
100
AcDbEntity
  8
001
370
    50
100
AcDbVertex
100
AcDb2dVertex
 10
44.546305
 20
74.18583
 30
0.0
  0
VERTEX
  5
153
330
14E
100
AcDbEntity
  8
001
370
    50
100
AcDbVertex
100
AcDb2dVertex
 10
45.428959
 20
74.557186
 30
0.0
  0
VERTEX
  5
154
330
14E
100
AcDbEntity
  8
001
370
    50
100
AcDbVertex
100
AcDb2dVertex
 10
46.314351
 20
74.921992
 30
0.0
  0
VERTEX
  5
155
330
14E
100
AcDbEntity
  8
001
370
    50
100
AcDbVertex
100
AcDb2dVertex
 10
48.091605
 20
75.637586
 30
0.0
  0
VERTEX
  5
156
330
14E
100
AcDbEntity
  8
001
370
    50
100
AcDbVertex
100
AcDb2dVertex
 10
49.873039
 20
76.342795
 30
0.0
  0
SEQEND
  5
14F
330
14E
100
AcDbEntity
  8
001
370
    50
  0
POLYLINE
  5
157
330
1F
100
AcDbEntity
  8
001
370
    50
100
AcDb2dPolyline
 66
     1
 10
0.0
 20
0.0
 30
0.0
  0
VERTEX
  5
159
330
157
100
AcDbEntity
  8
001
370
    50
100
AcDbVertex
100
AcDb2dVertex
 10
49.873039
 20
76.342795
 30
0.0
  0
VERTEX
  5
15A
330
157
100
AcDbEntity
  8
001
370
    50
100
AcDbVertex
100
AcDb2dVertex
 10
49.836517
 20
76.14497
 30
0.0
  0
VERTEX
  5
15B
330
157
100
AcDbEntity
  8
001
370
    50
100
AcDbVertex
100
AcDb2dVertex
 10
49.8038
 20
75.870186
 30
0.0
  0
VERTEX
  5
15C
330
157
100
AcDbEntity
  8
001
370
    50
100
AcDbVertex
100
AcDb2dVertex
 10
49.799479
 20
75.621303
 30
0.0
  0
VERTEX
  5
15D
330
157
100
AcDbEntity
  8
001
370
    50
100
AcDbVertex
100
AcDb2dVertex
 10
49.821777
 20
75.39301
 30
0.0
  0
VERTEX
  5
15E
330
157
100
AcDbEntity
  8
001
370
    50
100
AcDbVertex
100
AcDb2dVertex
 10
49.864059
 20
75.160144
 30
0.0
  0
VERTEX
  5
15F
330
157
100
AcDbEntity
  8
001
370
    50
100
AcDbVertex
100
AcDb2dVertex
 10
49.926386
 20
74.926758
 30
0.0
  0
VERTEX
  5
160
330
157
100
AcDbEntity
  8
001
370
    50
100
AcDbVertex
100
AcDb2dVertex
 10
50.01012
 20
74.701671
 30
0.0
  0
VERTEX
  5
161
330
157
100
AcDbEntity
  8
001
370
    50
100
AcDbVertex
100
AcDb2dVertex
 10
50.114232
 20
74.48657
 30
0.0
  0
VERTEX
  5
162
330
157
100
AcDbEntity
  8
001
370
    50
100
AcDbVertex
100
AcDb2dVertex
 10
50.237646
 20
74.280833
 30
0.0
  0
VERTEX
  5
163
330
157
100
AcDbEntity
  8
001
370
    50
100
AcDbVertex
100
AcDb2dVertex
 10
50.379215
 20
74.086737
 30
0.0
  0
VERTEX
  5
164
330
157
100
AcDbEntity
  8
001
370
    50
100
AcDbVertex
100
AcDb2dVertex
 10
50.538336
 20
73.905911
 30
0.0
  0
VERTEX
  5
165
330
157
100
AcDbEntity
  8
001
370
    50
100
AcDbVertex
100
AcDb2dVertex
 10
50.712731
 20
73.740242
 30
0.0
  0
VERTEX
  5
166
330
157
100
AcDbEntity
  8
001
370
    50
100
AcDbVertex
100
AcDb2dVertex
 10
50.901281
 20
73.59052
 30
0.0
  0
VERTEX
  5
167
330
157
100
AcDbEntity
  8
001
370
    50
100
AcDbVertex
100
AcDb2dVertex
 10
51.103952
 20
73.458335
 30
0.0
  0
VERTEX
  5
168
330
157
100
AcDbEntity
  8
001
370
    50
100
AcDbVertex
100
AcDb2dVertex
 10
51.320164
 20
73.344501
 30
0.0
  0
VERTEX
  5
169
330
157
100
AcDbEntity
  8
001
370
    50
100
AcDbVertex
100
AcDb2dVertex
 10
51.540175
 20
73.250169
 30
0.0
  0
VERTEX
  5
16A
330
157
100
AcDbEntity
  8
001
370
    50
100
AcDbVertex
100
AcDb2dVertex
 10
51.760562
 20
73.175937
 30
0.0
  0
VERTEX
  5
16B
330
157
100
AcDbEntity
  8
001
370
    50
100
AcDbVertex
100
AcDb2dVertex
 10
52.007237
 20
73.122503
 30
0.0
  0
VERTEX
  5
16C
330
157
100
AcDbEntity
  8
001
370
    50
100
AcDbVertex
100
AcDb2dVertex
 10
52.286152
 20
73.090263
 30
0.0
  0
VERTEX
  5
16D
330
157
100
AcDbEntity
  8
001
370
    50
100
AcDbVertex
100
AcDb2dVertex
 10
52.489973
 20
73.079482
 30
0.0
  0
SEQEND
  5
158
330
157
100
AcDbEntity
  8
001
370
    50
  0
LINE
  5
16E
330
1F
100
AcDbEntity
  8
001
370
    50
100
AcDbLine
 10
53.999324
 20
77.923007
 30
0.0
 11
57.209508
 21
79.119593
 31
0.0
  0
POLYLINE
  5
16F
330
1F
100
AcDbEntity
  8
001
370
    50
100
AcDb2dPolyline
 66
     1
 10
0.0
 20
0.0
 30
0.0
  0
VERTEX
  5
171
330
16F
100
AcDbEntity
  8
001
370
    50
100
AcDbVertex
100
AcDb2dVertex
 10
59.623917
 20
62.674058
 30
0.0
  0
VERTEX
  5
172
330
16F
100
AcDbEntity
  8
001
370
    50
100
AcDbVertex
100
AcDb2dVertex
 10
59.242059
 20
63.244663
 30
0.0
  0
VERTEX
  5
173
330
16F
100
AcDbEntity
  8
001
370
    50
100
AcDbVertex
100
AcDb2dVertex
 10
58.674438
 20
63.981566
 30
0.0
  0
VERTEX
  5
174
330
16F
100
AcDbEntity
  8
001
370
    50
100
AcDbVertex
100
AcDb2dVertex
 10
58.114504
 20
64.566432
 30
0.0
  0
VERTEX
  5
175
330
16F
100
AcDbEntity
  8
001
370
    50
100
AcDbVertex
100
AcDb2dVertex
 10
57.467918
 20
65.053889
 30
0.0
  0
VERTEX
  5
176
330
16F
100
AcDbEntity
  8
001
370
    50
100
AcDbVertex
100
AcDb2dVertex
 10
56.670939
 20
65.529871
 30
0.0
  0
VERTEX
  5
177
330
16F
100
AcDbEntity
  8
001
370
    50
100
AcDbVertex
100
AcDb2dVertex
 10
56.060555
 20
65.841079
 30
0.0
  0
SEQEND
  5
170
330
16F
100
AcDbEntity
  8
001
370
    50
  0
LINE
  5
178
330
1F
100
AcDbEntity
  8
001
370
    50
100
AcDbLine
 10
57.209508
 20
82.582401
 30
0.0
 11
49.387138
 21
79.843046
 31
0.0
  0
LINE
  5
179
330
1F
100
AcDbEntity
  8
001
370
    50
100
AcDbLine
 10
49.133688
 20
79.754283
 30
0.0
 11
42.788971
 21
77.512704
 31
0.0
  0
LINE
  5
17A
330
1F
100
AcDbEntity
  8
001
370
    50
100
AcDbLine
 10
49.386026
 20
79.84265
 30
0.0
 11
49.133688
 21
79.754283
 31
0.0
  0
POLYLINE
  5
17B
330
1F
100
AcDbEntity
  8
001
370
    50
100
AcDb2dPolyline
 66
     1
 10
0.0
 20
0.0
 30
0.0
  0
VERTEX
  5
17D
330
17B
100
AcDbEntity
  8
001
370
    50
100
AcDbVertex
100
AcDb2dVertex
 10
53.999324
 20
77.923007
 30
0.0
  0
VERTEX
  5
17E
330
17B
100
AcDbEntity
  8
001
370
    50
100
AcDbVertex
100
AcDb2dVertex
 10
53.853106
 20
78.0032
 30
0.0
  0
VERTEX
  5
17F
330
17B
100
AcDbEntity
  8
001
370
    50
100
AcDbVertex
100
AcDb2dVertex
 10
53.704545
 20
78.078629
 30
0.0
  0
VERTEX
  5
180
330
17B
100
AcDbEntity
  8
001
370
    50
100
AcDbVertex
100
AcDb2dVertex
 10
53.547365
 20
78.147273
 30
0.0
  0
VERTEX
  5
181
330
17B
100
AcDbEntity
  8
001
370
    50
100
AcDbVertex
100
AcDb2dVertex
 10
53.386352
 20
78.206744
 30
0.0
  0
VERTEX
  5
182
330
17B
100
AcDbEntity
  8
001
370
    50
100
AcDbVertex
100
AcDb2dVertex
 10
53.216292
 20
78.259486
 30
0.0
  0
VERTEX
  5
183
330
17B
100
AcDbEntity
  8
001
370
    50
100
AcDbVertex
100
AcDb2dVertex
 10
53.043668
 20
78.302871
 30
0.0
  0
VERTEX
  5
184
330
17B
100
AcDbEntity
  8
001
370
    50
100
AcDbVertex
100
AcDb2dVertex
 10
52.860409
 20
78.337935
 30
0.0
  0
VERTEX
  5
185
330
17B
100
AcDbEntity
  8
001
370
    50
100
AcDbVertex
100
AcDb2dVertex
 10
52.675415
 20
78.362524
 30
0.0
  0
VERTEX
  5
186
330
17B
100
AcDbEntity
  8
001
370
    50
100
AcDbVertex
100
AcDb2dVertex
 10
52.547435
 20
78.373398
 30
0.0
  0
VERTEX
  5
187
330
17B
100
AcDbEntity
  8
001
370
    50
100
AcDbVertex
100
AcDb2dVertex
 10
52.419158
 20
78.378785
 30
0.0
  0
VERTEX
  5
188
330
17B
100
AcDbEntity
  8
001
370
    50
100
AcDbVertex
100
AcDb2dVertex
 10
52.386769
 20
78.379231
 30
0.0
  0
VERTEX
  5
189
330
17B
100
AcDbEntity
  8
001
370
    50
100
AcDbVertex
100
AcDb2dVertex
 10
52.354376
 20
78.379482
 30
0.0
  0
SEQEND
  5
17C
330
17B
100
AcDbEntity
  8
001
370
    50
  0
POLYLINE
  5
18A
330
1F
100
AcDbEntity
  8
001
370
    50
100
AcDb2dPolyline
 66
     1
 10
0.0
 20
0.0
 30
0.0
  0
VERTEX
  5
18C
330
18A
100
AcDbEntity
  8
001
370
    50
100
AcDbVertex
100
AcDb2dVertex
 10
52.489973
 20
73.079482
 30
0.0
  0
VERTEX
  5
18D
330
18A
100
AcDbEntity
  8
001
370
    50
100
AcDbVertex
100
AcDb2dVertex
 10
52.695383
 20
73.090432
 30
0.0
  0
VERTEX
  5
18E
330
18A
100
AcDbEntity
  8
001
370
    50
100
AcDbVertex
100
AcDb2dVertex
 10
52.976447
 20
73.123177
 30
0.0
  0
VERTEX
  5
18F
330
18A
100
AcDbEntity
  8
001
370
    50
100
AcDbVertex
100
AcDb2dVertex
 10
53.224954
 20
73.177442
 30
0.0
  0
VERTEX
  5
190
330
18A
100
AcDbEntity
  8
001
370
    50
100
AcDbVertex
100
AcDb2dVertex
 10
53.446878
 20
73.252823
 30
0.0
  0
VERTEX
  5
191
330
18A
100
AcDbEntity
  8
001
370
    50
100
AcDbVertex
100
AcDb2dVertex
 10
53.668301
 20
73.348599
 30
0.0
  0
VERTEX
  5
192
330
18A
100
AcDbEntity
  8
001
370
    50
100
AcDbVertex
100
AcDb2dVertex
 10
53.885752
 20
73.464143
 30
0.0
  0
VERTEX
  5
193
330
18A
100
AcDbEntity
  8
001
370
    50
100
AcDbVertex
100
AcDb2dVertex
 10
54.089388
 20
73.598266
 30
0.0
  0
VERTEX
  5
194
330
18A
100
AcDbEntity
  8
001
370
    50
100
AcDbVertex
100
AcDb2dVertex
 10
54.278597
 20
73.750169
 30
0.0
  0
VERTEX
  5
195
330
18A
100
AcDbEntity
  8
001
370
    50
100
AcDbVertex
100
AcDb2dVertex
 10
54.453323
 20
73.918223
 30
0.0
  0
VERTEX
  5
196
330
18A
100
AcDbEntity
  8
001
370
    50
100
AcDbVertex
100
AcDb2dVertex
 10
54.612458
 20
74.101468
 30
0.0
  0
VERTEX
  5
197
330
18A
100
AcDbEntity
  8
001
370
    50
100
AcDbVertex
100
AcDb2dVertex
 10
54.753705
 20
74.297927
 30
0.0
  0
VERTEX
  5
198
330
18A
100
AcDbEntity
  8
001
370
    50
100
AcDbVertex
100
AcDb2dVertex
 10
54.876323
 20
74.506455
 30
0.0
  0
VERTEX
  5
199
330
18A
100
AcDbEntity
  8
001
370
    50
100
AcDbVertex
100
AcDb2dVertex
 10
54.979127
 20
74.724859
 30
0.0
  0
VERTEX
  5
19A
330
18A
100
AcDbEntity
  8
001
370
    50
100
AcDbVertex
100
AcDb2dVertex
 10
55.061492
 20
74.951774
 30
0.0
  0
VERTEX
  5
19B
330
18A
100
AcDbEntity
  8
001
370
    50
100
AcDbVertex
100
AcDb2dVertex
 10
55.12252
 20
75.184953
 30
0.0
  0
VERTEX
  5
19C
330
18A
100
AcDbEntity
  8
001
370
    50
100
AcDbVertex
100
AcDb2dVertex
 10
55.161858
 20
75.422741
 30
0.0
  0
VERTEX
  5
19D
330
18A
100
AcDbEntity
  8
001
370
    50
100
AcDbVertex
100
AcDb2dVertex
 10
55.179127
 20
75.662971
 30
0.0
  0
VERTEX
  5
19E
330
18A
100
AcDbEntity
  8
001
370
    50
100
AcDbVertex
100
AcDb2dVertex
 10
55.174112
 20
75.903824
 30
0.0
  0
VERTEX
  5
19F
330
18A
100
AcDbEntity
  8
001
370
    50
100
AcDbVertex
100
AcDb2dVertex
 10
55.146776
 20
76.143357
 30
0.0
  0
VERTEX
  5
1A0
330
18A
100
AcDbEntity
  8
001
370
    50
100
AcDbVertex
100
AcDb2dVertex
 10
55.097849
 20
76.379157
 30
0.0
  0
VERTEX
  5
1A1
330
18A
100
AcDbEntity
  8
001
370
    50
100
AcDbVertex
100
AcDb2dVertex
 10
55.027765
 20
76.609434
 30
0.0
  0
VERTEX
  5
1A2
330
18A
100
AcDbEntity
  8
001
370
    50
100
AcDbVertex
100
AcDb2dVertex
 10
54.935584
 20
76.833065
 30
0.0
  0
VERTEX
  5
1A3
330
18A
100
AcDbEntity
  8
001
370
    50
100
AcDbVertex
100
AcDb2dVertex
 10
54.821402
 20
77.048911
 30
0.0
  0
VERTEX
  5
1A4
330
18A
100
AcDbEntity
  8
001
370
    50
100
AcDbVertex
100
AcDb2dVertex
 10
54.692668
 20
77.25058
 30
0.0
  0
VERTEX
  5
1A5
330
18A
100
AcDbEntity
  8
001
370
    50
100
AcDbVertex
100
AcDb2dVertex
 10
54.551822
 20
77.435728
 30
0.0
  0
VERTEX
  5
1A6
330
18A
100
AcDbEntity
  8
001
370
    50
100
AcDbVertex
100
AcDb2dVertex
 10
54.377113
 20
77.617932
 30
0.0
  0
VERTEX
  5
1A7
330
18A
100
AcDbEntity
  8
001
370
    50
100
AcDbVertex
100
AcDb2dVertex
 10
54.163053
 20
77.800454
 30
0.0
  0
VERTEX
  5
1A8
330
18A
100
AcDbEntity
  8
001
370
    50
100
AcDbVertex
100
AcDb2dVertex
 10
53.999324
 20
77.923007
 30
0.0
  0
SEQEND
  5
18B
330
18A
100
AcDbEntity
  8
001
370
    50
  0
POLYLINE
  5
1A9
330
1F
100
AcDbEntity
  8
001
370
    50
100
AcDb2dPolyline
 66
     1
 10
0.0
 20
0.0
 30
0.0
  0
VERTEX
  5
1AB
330
1A9
100
AcDbEntity
  8
001
370
    50
100
AcDbVertex
100
AcDb2dVertex
 10
52.354376
 20
78.379482
 30
0.0
  0
VERTEX
  5
1AC
330
1A9
100
AcDbEntity
  8
001
370
    50
100
AcDbVertex
100
AcDb2dVertex
 10
52.251749
 20
78.377135
 30
0.0
  0
VERTEX
  5
1AD
330
1A9
100
AcDbEntity
  8
001
370
    50
100
AcDbVertex
100
AcDb2dVertex
 10
52.149239
 20
78.372592
 30
0.0
  0
VERTEX
  5
1AE
330
1A9
100
AcDbEntity
  8
001
370
    50
100
AcDbVertex
100
AcDb2dVertex
 10
52.005397
 20
78.359428
 30
0.0
  0
VERTEX
  5
1AF
330
1A9
100
AcDbEntity
  8
001
370
    50
100
AcDbVertex
100
AcDb2dVertex
 10
51.862385
 20
78.338509
 30
0.0
  0
VERTEX
  5
1B0
330
1A9
100
AcDbEntity
  8
001
370
    50
100
AcDbVertex
100
AcDb2dVertex
 10
51.713448
 20
78.308926
 30
0.0
  0
VERTEX
  5
1B1
330
1A9
100
AcDbEntity
  8
001
370
    50
100
AcDbVertex
100
AcDb2dVertex
 10
51.566417
 20
78.271231
 30
0.0
  0
VERTEX
  5
1B2
330
1A9
100
AcDbEntity
  8
001
370
    50
100
AcDbVertex
100
AcDb2dVertex
 10
51.457229
 20
78.237177
 30
0.0
  0
VERTEX
  5
1B3
330
1A9
100
AcDbEntity
  8
001
370
    50
100
AcDbVertex
100
AcDb2dVertex
 10
51.34964
 20
78.198333
 30
0.0
  0
VERTEX
  5
1B4
330
1A9
100
AcDbEntity
  8
001
370
    50
100
AcDbVertex
100
AcDb2dVertex
 10
51.243167
 20
78.154496
 30
0.0
  0
VERTEX
  5
1B5
330
1A9
100
AcDbEntity
  8
001
370
    50
100
AcDbVertex
100
AcDb2dVertex
 10
51.138841
 20
78.105798
 30
0.0
  0
VERTEX
  5
1B6
330
1A9
100
AcDbEntity
  8
001
370
    50
100
AcDbVertex
100
AcDb2dVertex
 10
51.038401
 20
78.052929
 30
0.0
  0
VERTEX
  5
1B7
330
1A9
100
AcDbEntity
  8
001
370
    50
100
AcDbVertex
100
AcDb2dVertex
 10
50.940567
 20
77.995368
 30
0.0
  0
VERTEX
  5
1B8
330
1A9
100
AcDbEntity
  8
001
370
    50
100
AcDbVertex
100
AcDb2dVertex
 10
50.848315
 20
77.935168
 30
0.0
  0
VERTEX
  5
1B9
330
1A9
100
AcDbEntity
  8
001
370
    50
100
AcDbVertex
100
AcDb2dVertex
 10
50.758995
 20
77.870698
 30
0.0
  0
VERTEX
  5
1BA
330
1A9
100
AcDbEntity
  8
001
370
    50
100
AcDbVertex
100
AcDb2dVertex
 10
50.646074
 20
77.779123
 30
0.0
  0
VERTEX
  5
1BB
330
1A9
100
AcDbEntity
  8
001
370
    50
100
AcDbVertex
100
AcDb2dVertex
 10
50.539198
 20
77.680524
 30
0.0
  0
VERTEX
  5
1BC
330
1A9
100
AcDbEntity
  8
001
370
    50
100
AcDbVertex
100
AcDb2dVertex
 10
50.444378
 20
77.581537
 30
0.0
  0
VERTEX
  5
1BD
330
1A9
100
AcDbEntity
  8
001
370
    50
100
AcDbVertex
100
AcDb2dVertex
 10
50.355763
 20
77.476985
 30
0.0
  0
VERTEX
  5
1BE
330
1A9
100
AcDbEntity
  8
001
370
    50
100
AcDbVertex
100
AcDb2dVertex
 10
50.235052
 20
77.310149
 30
0.0
  0
VERTEX
  5
1BF
330
1A9
100
AcDbEntity
  8
001
370
    50
100
AcDbVertex
100
AcDb2dVertex
 10
50.129506
 20
77.133058
 30
0.0
  0
VERTEX
  5
1C0
330
1A9
100
AcDbEntity
  8
001
370
    50
100
AcDbVertex
100
AcDb2dVertex
 10
50.0443
 20
76.95782
 30
0.0
  0
VERTEX
  5
1C1
330
1A9
100
AcDbEntity
  8
001
370
    50
100
AcDbVertex
100
AcDb2dVertex
 10
49.975576
 20
76.775935
 30
0.0
  0
VERTEX
  5
1C2
330
1A9
100
AcDbEntity
  8
001
370
    50
100
AcDbVertex
100
AcDb2dVertex
 10
49.917979
 20
76.561223
 30
0.0
  0
VERTEX
  5
1C3
330
1A9
100
AcDbEntity
  8
001
370
    50
100
AcDbVertex
100
AcDb2dVertex
 10
49.873039
 20
76.342795
 30
0.0
  0
SEQEND
  5
1AA
330
1A9
100
AcDbEntity
  8
001
370
    50
  0
POLYLINE
  5
1C4
330
1F
100
AcDbEntity
  8
001
370
    50
100
AcDb2dPolyline
 66
     1
 10
0.0
 20
0.0
 30
0.0
  0
VERTEX
  5
1C6
330
1C4
100
AcDbEntity
  8
001
370
    50
100
AcDbVertex
100
AcDb2dVertex
 10
52.847331
 20
67.991144
 30
0.0
  0
VERTEX
  5
1C7
330
1C4
100
AcDbEntity
  8
001
370
    50
100
AcDbVertex
100
AcDb2dVertex
 10
52.559798
 20
67.974066
 30
0.0
  0
VERTEX
  5
1C8
330
1C4
100
AcDbEntity
  8
001
370
    50
100
AcDbVertex
100
AcDb2dVertex
 10
52.167131
 20
67.92374
 30
0.0
  0
VERTEX
  5
1C9
330
1C4
100
AcDbEntity
  8
001
370
    50
100
AcDbVertex
100
AcDb2dVertex
 10
51.821202
 20
67.840922
 30
0.0
  0
VERTEX
  5
1CA
330
1C4
100
AcDbEntity
  8
001
370
    50
100
AcDbVertex
100
AcDb2dVertex
 10
51.513129
 20
67.724126
 30
0.0
  0
VERTEX
  5
1CB
330
1C4
100
AcDbEntity
  8
001
370
    50
100
AcDbVertex
100
AcDb2dVertex
 10
51.205586
 20
67.573658
 30
0.0
  0
VERTEX
  5
1CC
330
1C4
100
AcDbEntity
  8
001
370
    50
100
AcDbVertex
100
AcDb2dVertex
 10
50.910517
 20
67.399989
 30
0.0
  0
VERTEX
  5
1CD
330
1C4
100
AcDbEntity
  8
001
370
    50
100
AcDbVertex
100
AcDb2dVertex
 10
50.642813
 20
67.207037
 30
0.0
  0
VERTEX
  5
1CE
330
1C4
100
AcDbEntity
  8
001
370
    50
100
AcDbVertex
100
AcDb2dVertex
 10
50.382503
 20
66.963814
 30
0.0
  0
VERTEX
  5
1CF
330
1C4
100
AcDbEntity
  8
001
370
    50
100
AcDbVertex
100
AcDb2dVertex
 10
50.123004
 20
66.663326
 30
0.0
  0
VERTEX
  5
1D0
330
1C4
100
AcDbEntity
  8
001
370
    50
100
AcDbVertex
100
AcDb2dVertex
 10
49.949425
 20
66.432401
 30
0.0
  0
SEQEND
  5
1C5
330
1C4
100
AcDbEntity
  8
001
370
    50
  0
POLYLINE
  5
1D1
330
1F
100
AcDbEntity
  8
001
370
    50
100
AcDb2dPolyline
 66
     1
 10
0.0
 20
0.0
 30
0.0
  0
VERTEX
  5
1D3
330
1D1
100
AcDbEntity
  8
001
370
    50
100
AcDbVertex
100
AcDb2dVertex
 10
50.375355
 20
66.432401
 30
0.0
  0
VERTEX
  5
1D4
330
1D1
100
AcDbEntity
  8
001
370
    50
100
AcDbVertex
100
AcDb2dVertex
 10
49.761297
 20
66.397412
 30
0.0
  0
VERTEX
  5
1D5
330
1D1
100
AcDbEntity
  8
001
370
    50
100
AcDbVertex
100
AcDb2dVertex
 10
48.919412
 20
66.28829
 30
0.0
  0
VERTEX
  5
1D6
330
1D1
100
AcDbEntity
  8
001
370
    50
100
AcDbVertex
100
AcDb2dVertex
 10
48.171979
 20
66.103592
 30
0.0
  0
VERTEX
  5
1D7
330
1D1
100
AcDbEntity
  8
001
370
    50
100
AcDbVertex
100
AcDb2dVertex
 10
47.51942
 20
65.861497
 30
0.0
  0
VERTEX
  5
1D8
330
1D1
100
AcDbEntity
  8
001
370
    50
100
AcDbVertex
100
AcDb2dVertex
 10
46.887414
 20
65.568788
 30
0.0
  0
VERTEX
  5
1D9
330
1D1
100
AcDbEntity
  8
001
370
    50
100
AcDbVertex
100
AcDb2dVertex
 10
46.22918
 20
65.168423
 30
0.0
  0
VERTEX
  5
1DA
330
1D1
100
AcDbEntity
  8
001
370
    50
100
AcDbVertex
100
AcDb2dVertex
 10
45.556982
 20
64.647248
 30
0.0
  0
VERTEX
  5
1DB
330
1D1
100
AcDbEntity
  8
001
370
    50
100
AcDbVertex
100
AcDb2dVertex
 10
45.098275
 20
64.235702
 30
0.0
  0
SEQEND
  5
1D2
330
1D1
100
AcDbEntity
  8
001
370
    50
  0
LINE
  5
1DC
330
1F
100
AcDbEntity
  8
001
370
    50
100
AcDbLine
 10
45.098275
 20
64.235702
 30
0.0
 11
42.788971
 21
61.914923
 31
0.0
  0
LINE
  5
1DD
330
1F
100
AcDbEntity
  8
001
370
    50
100
AcDbLine
 10
49.779436
 20
66.432401
 30
0.0
 11
50.545344
 21
66.432401
 31
0.0
  0
LINE
  5
1DE
330
1F
100
AcDbEntity
  8
001
  6
CENTER
370
     9
100
AcDbLine
 10
40.575625
 20
66.932401
 30
0.0
 11
176.107041
 21
66.932401
 31
0.0
  0
LINE
  5
1DF
330
1F
100
AcDbEntity
  8
001
370
    50
100
AcDbLine
 10
75.288971
 20
79.432401
 30
0.0
 11
168.288971
 21
79.432401
 31
0.0
  0
LINE
  5
1E0
330
1F
100
AcDbEntity
  8
001
370
    50
100
AcDbLine
 10
75.288971
 20
54.432401
 30
0.0
 11
168.288971
 21
54.432401
 31
0.0
  0
LINE
  5
1E1
330
1F
100
AcDbEntity
  8
001
370
    50
100
AcDbLine
 10
172.288971
 20
66.932401
 30
0.0
 11
176.619098
 21
69.432401
 31
0.0
  0
LINE
  5
1E2
330
1F
100
AcDbEntity
  8
001
370
    50
100
AcDbLine
 10
172.288971
 20
66.932401
 30
0.0
 11
176.619098
 21
64.432401
 31
0.0
  0
LINE
  5
1E3
330
1F
100
AcDbEntity
  8
001
370
    50
100
AcDbLine
 10
42.788971
 20
66.932401
 30
0.0
 11
38.458844
 21
69.432401
 31
0.0
  0
LINE
  5
1E4
330
1F
100
AcDbEntity
  8
001
370
    50
100
AcDbLine
 10
42.788971
 20
66.932401
 30
0.0
 11
38.458844
 21
64.432401
 31
0.0
  0
ARC
  5
1E5
330
1F
100
AcDbEntity
  8
001
370
    50
100
AcDbCircle
 10
168.288971
 20
75.432401
 30
0.0
 40
4.0
100
AcDbArc
 50
0.0
 51
90.0
  0
ARC
  5
1E6
330
1F
100
AcDbEntity
  8
001
370
    50
100
AcDbCircle
 10
168.288971
 20
58.432401
 30
0.0
 40
4.0
100
AcDbArc
 50
270.0
 51
0.0
  0
LINE
  5
1E7
330
1F
100
AcDbEntity
  8
001
370
     9
100
AcDbLine
 10
42.288971
 20
55.932401
 30
0.0
 11
42.288971
 21
56.212484
 31
0.0
  0
LINE
  5
1E8
330
1F
100
AcDbEntity
  8
001
370
    50
100
AcDbLine
 10
70.288971
 20
51.282401
 30
0.0
 11
57.253844
 21
51.282401
 31
0.0
  0
POLYLINE
  5
1E9
330
1F
100
AcDbEntity
  8
001
370
    50
100
AcDb2dPolyline
 66
     1
 10
0.0
 20
0.0
 30
0.0
  0
VERTEX
  5
1EB
330
1E9
100
AcDbEntity
  8
001
370
    50
100
AcDbVertex
100
AcDb2dVertex
 10
57.171944
 20
51.746882
 30
0.0
  0
VERTEX
  5
1EC
330
1E9
100
AcDbEntity
  8
001
370
    50
100
AcDbVertex
100
AcDb2dVertex
 10
57.222137
 20
51.748134
 30
0.0
  0
VERTEX
  5
1ED
330
1E9
100
AcDbEntity
  8
001
370
    50
100
AcDbVertex
100
AcDb2dVertex
 10
57.27233
 20
51.749386
 30
0.0
  0
VERTEX
  5
1EE
330
1E9
100
AcDbEntity
  8
001
370
    50
100
AcDbVertex
100
AcDb2dVertex
 10
58.074544
 20
51.769652
 30
0.0
  0
VERTEX
  5
1EF
330
1E9
100
AcDbEntity
  8
001
370
    50
100
AcDbVertex
100
AcDb2dVertex
 10
59.246991
 20
51.800008
 30
0.0
  0
VERTEX
  5
1F0
330
1E9
100
AcDbEntity
  8
001
370
    50
100
AcDbVertex
100
AcDb2dVertex
 10
60.41544
 20
51.831286
 30
0.0
  0
VERTEX
  5
1F1
330
1E9
100
AcDbEntity
  8
001
370
    50
100
AcDbVertex
100
AcDb2dVertex
 10
61.214891
 20
51.853189
 30
0.0
  0
SEQEND
  5
1EA
330
1E9
100
AcDbEntity
  8
001
370
    50
  0
LINE
  5
1F2
330
1F
100
AcDbEntity
  8
001
370
    50
100
AcDbLine
 10
42.788971
 20
56.818557
 30
0.0
 11
42.788971
 21
77.512704
 31
0.0
  0
ARC
  5
1F3
330
1F
100
AcDbEntity
  8
001
370
    50
100
AcDbCircle
 10
56.905266
 20
51.025325
 30
0.0
 40
0.3879238236674749
100
AcDbArc
 50
250.0
 51
10.0
  0
LINE
  5
1F4
330
1F
100
AcDbEntity
  8
001
370
     9
100
AcDbLine
 10
56.836864
 20
50.637401
 30
0.0
 11
56.898291
 21
50.637401
 31
0.0
  0
ARC
  5
1F5
330
1F
100
AcDbEntity
  8
001
370
    50
100
AcDbCircle
 10
42.688971
 20
77.652318
 30
0.0
 40
0.4
100
AcDbArc
 50
110.0
 51
230.0
  0
LINE
  5
1F6
330
1F
100
AcDbEntity
  8
001
370
     9
100
AcDbLine
 10
56.836864
 20
83.227401
 30
0.0
 11
56.77331
 21
83.204269
 31
0.0
  0
LINE
  5
1F7
330
1F
100
AcDbEntity
  8
001
370
     9
100
AcDbLine
 10
42.288971
 20
77.932401
 30
0.0
 11
42.552163
 21
78.028195
 31
0.0
  0
LINE
  5
1F8
330
1F
100
AcDbEntity
  8
001
370
    50
100
AcDbLine
 10
56.772588
 20
83.204006
 30
0.0
 11
42.552163
 21
78.028195
 31
0.0
  0
LINE
  5
1F9
330
1F
100
AcDbEntity
  8
001
370
     9
100
AcDbLine
 10
42.288971
 20
77.932401
 30
0.0
 11
42.288971
 21
77.652318
 31
0.0
  0
ARC
  5
1FA
330
1F
100
AcDbEntity
  8
001
370
    50
100
AcDbCircle
 10
56.905266
 20
82.839477
 30
0.0
 40
0.3879238236674749
100
AcDbArc
 50
350.0
 51
110.0
  0
LINE
  5
1FB
330
1F
100
AcDbEntity
  8
001
370
     9
100
AcDbLine
 10
56.836864
 20
83.227401
 30
0.0
 11
56.898291
 21
83.227401
 31
0.0
  0
POLYLINE
  5
1FC
330
1F
100
AcDbEntity
  8
001
370
    50
100
AcDb2dPolyline
 66
     1
 10
0.0
 20
0.0
 30
0.0
  0
VERTEX
  5
1FE
330
1FC
100
AcDbEntity
  8
001
370
    50
100
AcDbVertex
100
AcDb2dVertex
 10
50.545344
 20
66.432401
 30
0.0
  0
VERTEX
  5
1FF
330
1FC
100
AcDbEntity
  8
001
370
    50
100
AcDbVertex
100
AcDb2dVertex
 10
50.412576
 20
66.20702
 30
0.0
  0
VERTEX
  5
200
330
1FC
100
AcDbEntity
  8
001
370
    50
100
AcDbVertex
100
AcDb2dVertex
 10
50.249359
 20
65.886649
 30
0.0
  0
VERTEX
  5
201
330
1FC
100
AcDbEntity
  8
001
370
    50
100
AcDbVertex
100
AcDb2dVertex
 10
50.131084
 20
65.585957
 30
0.0
  0
VERTEX
  5
202
330
1FC
100
AcDbEntity
  8
001
370
    50
100
AcDbVertex
100
AcDb2dVertex
 10
50.054099
 20
65.296888
 30
0.0
  0
VERTEX
  5
203
330
1FC
100
AcDbEntity
  8
001
370
    50
100
AcDbVertex
100
AcDb2dVertex
 10
49.999304
 20
64.990827
 30
0.0
  0
VERTEX
  5
204
330
1FC
100
AcDbEntity
  8
001
370
    50
100
AcDbVertex
100
AcDb2dVertex
 10
49.965721
 20
64.681717
 30
0.0
  0
VERTEX
  5
205
330
1FC
100
AcDbEntity
  8
001
370
    50
100
AcDbVertex
100
AcDb2dVertex
 10
49.958205
 20
64.38252
 30
0.0
  0
VERTEX
  5
206
330
1FC
100
AcDbEntity
  8
001
370
    50
100
AcDbVertex
100
AcDb2dVertex
 10
49.987013
 20
64.060535
 30
0.0
  0
VERTEX
  5
207
330
1FC
100
AcDbEntity
  8
001
370
    50
100
AcDbVertex
100
AcDb2dVertex
 10
50.053397
 20
63.706834
 30
0.0
  0
VERTEX
  5
208
330
1FC
100
AcDbEntity
  8
001
370
    50
100
AcDbVertex
100
AcDb2dVertex
 10
50.117304
 20
63.452934
 30
0.0
  0
VERTEX
  5
209
330
1FC
100
AcDbEntity
  8
001
370
    50
100
AcDbVertex
100
AcDb2dVertex
 10
50.176841
 20
63.260303
 30
0.0
  0
VERTEX
  5
20A
330
1FC
100
AcDbEntity
  8
001
370
    50
100
AcDbVertex
100
AcDb2dVertex
 10
50.236378
 20
63.067673
 30
0.0
  0
SEQEND
  5
1FD
330
1FC
100
AcDbEntity
  8
001
370
    50
  0
POLYLINE
  5
20B
330
1F
100
AcDbEntity
  8
001
370
    50
100
AcDb2dPolyline
 66
     1
 10
0.0
 20
0.0
 30
0.0
  0
VERTEX
  5
20D
330
20B
100
AcDbEntity
  8
001
370
    50
100
AcDbVertex
100
AcDb2dVertex
 10
55.431424
 20
61.617859
 30
0.0
  0
VERTEX
  5
20E
330
20B
100
AcDbEntity
  8
001
370
    50
100
AcDbVertex
100
AcDb2dVertex
 10
55.638952
 20
61.779937
 30
0.0
  0
VERTEX
  5
20F
330
20B
100
AcDbEntity
  8
001
370
    50
100
AcDbVertex
100
AcDb2dVertex
 10
55.889698
 20
62.000108
 30
0.0
  0
VERTEX
  5
210
330
20B
100
AcDbEntity
  8
001
370
    50
100
AcDbVertex
100
AcDb2dVertex
 10
56.113807
 20
62.238886
 30
0.0
  0
VERTEX
  5
211
330
20B
100
AcDbEntity
  8
001
370
    50
100
AcDbVertex
100
AcDb2dVertex
 10
56.294172
 20
62.480854
 30
0.0
  0
VERTEX
  5
212
330
20B
100
AcDbEntity
  8
001
370
    50
100
AcDbVertex
100
AcDb2dVertex
 10
56.459512
 20
62.744952
 30
0.0
  0
VERTEX
  5
213
330
20B
100
AcDbEntity
  8
001
370
    50
100
AcDbVertex
100
AcDb2dVertex
 10
56.606405
 20
63.026643
 30
0.0
  0
VERTEX
  5
214
330
20B
100
AcDbEntity
  8
001
370
    50
100
AcDbVertex
100
AcDb2dVertex
 10
56.725721
 20
63.318145
 30
0.0
  0
VERTEX
  5
215
330
20B
100
AcDbEntity
  8
001
370
    50
100
AcDbVertex
100
AcDb2dVertex
 10
56.816295
 20
63.619816
 30
0.0
  0
VERTEX
  5
216
330
20B
100
AcDbEntity
  8
001
370
    50
100
AcDbVertex
100
AcDb2dVertex
 10
56.879367
 20
63.931538
 30
0.0
  0
VERTEX
  5
217
330
20B
100
AcDbEntity
  8
001
370
    50
100
AcDbVertex
100
AcDb2dVertex
 10
56.91705
 20
64.24118
 30
0.0
  0
VERTEX
  5
218
330
20B
100
AcDbEntity
  8
001
370
    50
100
AcDbVertex
100
AcDb2dVertex
 10
56.929189
 20
64.543351
 30
0.0
  0
VERTEX
  5
219
330
20B
100
AcDbEntity
  8
001
370
    50
100
AcDbVertex
100
AcDb2dVertex
 10
56.905412
 20
64.870632
 30
0.0
  0
VERTEX
  5
21A
330
20B
100
AcDbEntity
  8
001
370
    50
100
AcDbVertex
100
AcDb2dVertex
 10
56.843227
 20
65.229947
 30
0.0
  0
VERTEX
  5
21B
330
20B
100
AcDbEntity
  8
001
370
    50
100
AcDbVertex
100
AcDb2dVertex
 10
56.781755
 20
65.487806
 30
0.0
  0
SEQEND
  5
20C
330
20B
100
AcDbEntity
  8
001
370
    50
  0
LINE
  5
21C
330
1F
100
AcDbEntity
  8
001
370
    50
100
AcDbLine
 10
57.287296
 20
82.772115
 30
0.0
 11
57.253844
 21
82.582401
 31
0.0
  0
LINE
  5
21D
330
1F
100
AcDbEntity
  8
001
370
    50
100
AcDbLine
 10
42.788971
 20
77.046245
 30
0.0
 11
42.431856
 21
77.3459
 31
0.0
  0
ARC
  5
21E
330
1F
100
AcDbEntity
  8
001
370
    50
100
AcDbCircle
 10
70.288971
 20
80.582401
 30
0.0
 40
2.0
100
AcDbArc
 50
0.0
 51
90.0
  0
ARC
  5
21F
330
1F
100
AcDbEntity
  8
001
370
    50
100
AcDbCircle
 10
70.288971
 20
53.282401
 30
0.0
 40
2.0
100
AcDbArc
 50
270.0
 51
0.0
  0
LINE
  5
220
330
1F
100
AcDbEntity
  8
001
370
    50
100
AcDbLine
 10
75.288971
 20
79.432401
 30
0.0
 11
75.288971
 21
54.432401
 31
0.0
  0
LINE
  5
221
330
1F
100
AcDbEntity
  8
001
370
    50
100
AcDbLine
 10
75.288971
 20
78.932401
 30
0.0
 11
72.288971
 21
78.932401
 31
0.0
  0
LINE
  5
222
330
1F
100
AcDbEntity
  8
001
370
    50
100
AcDbLine
 10
75.288971
 20
54.932401
 30
0.0
 11
72.288971
 21
54.932401
 31
0.0
  0
TEXT
  5
223
330
1F
100
AcDbEntity
  8
001
370
    30
100
AcDbText
 10
26.857961
 20
97.553704
 30
0.0
 40
4.0
  1
ＮＫ７０３２Ｔ－２５（ＮＥＷ）
 41
0.833333
100
AcDbText
  0
ENDSEC
  0
SECTION
  2
OBJECTS
  0
DICTIONARY
  5
C
330
0
100
AcDbDictionary
281
     1
  3
ACAD_GROUP
350
D
  3
ACAD_LAYOUT
350
1A
  3
ACAD_MLEADERSTYLE
350
227
  3
ACAD_MLINESTYLE
350
17
  3
ACAD_PLOTSETTINGS
350
19
  3
ACAD_PLOTSTYLENAME
350
E
  3
ACAD_SCALELIST
350
3B
  3
ACAD_TABLESTYLE
350
226
  3
ACAD_VISUALSTYLE
350
2A
  3
AcDbVariableDictionary
350
224
  0
DICTIONARY
  5
D
102
{ACAD_REACTORS
330
C
102
}
330
C
100
AcDbDictionary
281
     1
  0
DICTIONARY
  5
1A
102
{ACAD_REACTORS
330
C
102
}
330
C
100
AcDbDictionary
281
     1
  3
Layout1
350
1E
  3
Layout2
350
26
  3
Model
350
22
  0
DICTIONARY
  5
227
102
{ACAD_REACTORS
330
C
102
}
330
C
100
AcDbDictionary
281
     1
  0
DICTIONARY
  5
17
102
{ACAD_REACTORS
330
C
102
}
330
C
100
AcDbDictionary
281
     1
  3
Standard
350
18
  0
DICTIONARY
  5
19
102
{ACAD_REACTORS
330
C
102
}
330
C
100
AcDbDictionary
281
     1
  0
ACDBDICTIONARYWDFLT
  5
E
102
{ACAD_REACTORS
330
C
102
}
330
C
100
AcDbDictionary
281
     1
  3
Normal
350
F
100
AcDbDictionaryWithDefault
340
F
  0
DICTIONARY
  5
3B
102
{ACAD_REACTORS
330
C
102
}
330
C
100
AcDbDictionary
281
     1
  3
A0
350
3C
  3
A1
350
3D
  3
A2
350
3E
  3
A3
350
3F
  3
A4
350
40
  3
A5
350
41
  3
A6
350
42
  3
A7
350
43
  3
A8
350
44
  3
A9
350
45
  3
B0
350
46
  3
B1
350
47
  3
B2
350
48
  3
B3
350
49
  3
B4
350
4A
  3
B5
350
4B
  3
B6
350
4C
  3
B7
350
4D
  3
B8
350
4E
  3
B9
350
4F
  3
C0
350
50
  3
C1
350
51
  3
C2
350
52
  3
C3
350
53
  3
C4
350
54
  3
C5
350
55
  3
C6
350
56
  3
C7
350
57
  3
C8
350
58
  3
C9
350
59
  3
D0
350
5A
  3
D1
350
5B
  3
D2
350
5C
  0
DICTIONARY
  5
226
102
{ACAD_REACTORS
330
C
102
}
330
C
100
AcDbDictionary
281
     1
  0
DICTIONARY
  5
2A
102
{ACAD_REACTORS
330
C
102
}
330
C
100
AcDbDictionary
281
     1
  3
2dWireframe
350
2F
  3
3D Hidden
350
31
  3
3dWireframe
350
30
  3
Basic
350
32
  3
Brighten
350
36
  3
ColorChange
350
3A
  3
Conceptual
350
34
  3
Dim
350
35
  3
Facepattern
350
39
  3
Flat
350
2B
  3
FlatWithEdges
350
2C
  3
Gouraud
350
2D
  3
GouraudWithEdges
350
2E
  3
Linepattern
350
38
  3
Realistic
350
33
  3
Thicken
350
37
  0
DICTIONARY
  5
224
102
{ACAD_REACTORS
330
C
102
}
330
C
100
AcDbDictionary
281
     1
  3
CANNOSCALE
350
225
  3
PSOLHEIGHT
350
229
  3
PSOLWIDTH
350
228
  0
LAYOUT
  5
1E
102
{ACAD_REACTORS
330
1A
102
}
330
1A
100
AcDbPlotSettings
  1

  2
none_device
  4

  6

 40
0.0
 41
0.0
 42
0.0
 43
0.0
 44
0.0
 45
0.0
 46
0.0
 47
0.0
 48
0.0
 49
0.0
140
0.0
141
0.0
142
1.0
143
1.0
 70
   688
 72
     0
 73
     0
 74
     5
  7

 75
    16
147
1.0
148
0.0
149
0.0
100
AcDbLayout
  1
Layout1
 70
     1
 71
     1
 10
0.0
 20
0.0
 11
12.0
 21
9.0
 12
0.0
 22
0.0
 32
0.0
 14
1.000000E+20
 24
1.000000E+20
 34
0.0
 15
-1.000000E+20
 25
-1.000000E+20
 35
0.0
146
0.0
 13
0.0
 23
0.0
 33
0.0
 16
1.0
 26
0.0
 36
0.0
 17
0.0
 27
1.0
 37
0.0
 76
     0
330
1B
  0
LAYOUT
  5
26
102
{ACAD_REACTORS
330
1A
102
}
330
1A
100
AcDbPlotSettings
  1

  2
none_device
  4

  6

 40
0.0
 41
0.0
 42
0.0
 43
0.0
 44
0.0
 45
0.0
 46
0.0
 47
0.0
 48
0.0
 49
0.0
140
0.0
141
0.0
142
1.0
143
1.0
 70
   688
 72
     0
 73
     0
 74
     5
  7

 75
    16
147
1.0
148
0.0
149
0.0
100
AcDbLayout
  1
Layout2
 70
     1
 71
     2
 10
0.0
 20
0.0
 11
0.0
 21
0.0
 12
0.0
 22
0.0
 32
0.0
 14
0.0
 24
0.0
 34
0.0
 15
0.0
 25
0.0
 35
0.0
146
0.0
 13
0.0
 23
0.0
 33
0.0
 16
1.0
 26
0.0
 36
0.0
 17
0.0
 27
1.0
 37
0.0
 76
     0
330
23
  0
LAYOUT
  5
22
102
{ACAD_REACTORS
330
1A
102
}
330
1A
100
AcDbPlotSettings
  1

  2
none_device
  4

  6

 40
0.0
 41
0.0
 42
0.0
 43
0.0
 44
0.0
 45
0.0
 46
0.0
 47
0.0
 48
0.0
 49
0.0
140
0.0
141
0.0
142
1.0
143
1.0
 70
  1712
 72
     0
 73
     0
 74
     0
  7

 75
     0
147
1.0
148
0.0
149
0.0
100
AcDbLayout
  1
Model
 70
     1
 71
     0
 10
0.0
 20
0.0
 11
12.0
 21
9.0
 12
0.0
 22
0.0
 32
0.0
 14
11.176239
 24
7.022507
 34
0.0
 15
200.248825
 25
101.553703
 35
0.0
146
0.0
 13
0.0
 23
0.0
 33
0.0
 16
1.0
 26
0.0
 36
0.0
 17
0.0
 27
1.0
 37
0.0
 76
     0
330
1F
331
29
  0
MLINESTYLE
  5
18
102
{ACAD_REACTORS
330
17
102
}
330
17
100
AcDbMlineStyle
  2
Standard
 70
     0
  3

 62
   256
 51
90.0
 52
90.0
 71
     2
 49
0.5
 62
   256
  6
BYLAYER
 49
-0.5
 62
   256
  6
BYLAYER
  0
ACDBPLACEHOLDER
  5
F
102
{ACAD_REACTORS
330
E
102
}
330
E
  0
SCALE
  5
3C
102
{ACAD_REACTORS
330
3B
102
}
330
3B
100
AcDbScale
 70
     0
300
1:1
140
1.0
141
1.0
290
     1
  0
SCALE
  5
3D
102
{ACAD_REACTORS
330
3B
102
}
330
3B
100
AcDbScale
 70
     0
300
1:2
140
1.0
141
2.0
290
     0
  0
SCALE
  5
3E
102
{ACAD_REACTORS
330
3B
102
}
330
3B
100
AcDbScale
 70
     0
300
1:4
140
1.0
141
4.0
290
     0
  0
SCALE
  5
3F
102
{ACAD_REACTORS
330
3B
102
}
330
3B
100
AcDbScale
 70
     0
300
1:5
140
1.0
141
5.0
290
     0
  0
SCALE
  5
40
102
{ACAD_REACTORS
330
3B
102
}
330
3B
100
AcDbScale
 70
     0
300
1:8
140
1.0
141
8.0
290
     0
  0
SCALE
  5
41
102
{ACAD_REACTORS
330
3B
102
}
330
3B
100
AcDbScale
 70
     0
300
1:10
140
1.0
141
10.0
290
     0
  0
SCALE
  5
42
102
{ACAD_REACTORS
330
3B
102
}
330
3B
100
AcDbScale
 70
     0
300
1:16
140
1.0
141
16.0
290
     0
  0
SCALE
  5
43
102
{ACAD_REACTORS
330
3B
102
}
330
3B
100
AcDbScale
 70
     0
300
1:20
140
1.0
141
20.0
290
     0
  0
SCALE
  5
44
102
{ACAD_REACTORS
330
3B
102
}
330
3B
100
AcDbScale
 70
     0
300
1:30
140
1.0
141
30.0
290
     0
  0
SCALE
  5
45
102
{ACAD_REACTORS
330
3B
102
}
330
3B
100
AcDbScale
 70
     0
300
1:40
140
1.0
141
40.0
290
     0
  0
SCALE
  5
46
102
{ACAD_REACTORS
330
3B
102
}
330
3B
100
AcDbScale
 70
     0
300
1:50
140
1.0
141
50.0
290
     0
  0
SCALE
  5
47
102
{ACAD_REACTORS
330
3B
102
}
330
3B
100
AcDbScale
 70
     0
300
1:100
140
1.0
141
100.0
290
     0
  0
SCALE
  5
48
102
{ACAD_REACTORS
330
3B
102
}
330
3B
100
AcDbScale
 70
     0
300
2:1
140
2.0
141
1.0
290
     0
  0
SCALE
  5
49
102
{ACAD_REACTORS
330
3B
102
}
330
3B
100
AcDbScale
 70
     0
300
4:1
140
4.0
141
1.0
290
     0
  0
SCALE
  5
4A
102
{ACAD_REACTORS
330
3B
102
}
330
3B
100
AcDbScale
 70
     0
300
8:1
140
8.0
141
1.0
290
     0
  0
SCALE
  5
4B
102
{ACAD_REACTORS
330
3B
102
}
330
3B
100
AcDbScale
 70
     0
300
10:1
140
10.0
141
1.0
290
     0
  0
SCALE
  5
4C
102
{ACAD_REACTORS
330
3B
102
}
330
3B
100
AcDbScale
 70
     0
300
100:1
140
100.0
141
1.0
290
     0
  0
SCALE
  5
4D
102
{ACAD_REACTORS
330
3B
102
}
330
3B
100
AcDbScale
 70
     0
300
1/128" = 1'-0"
140
0.007812
141
12.0
290
     0
  0
SCALE
  5
4E
102
{ACAD_REACTORS
330
3B
102
}
330
3B
100
AcDbScale
 70
     0
300
1/64" = 1'-0"
140
0.015625
141
12.0
290
     0
  0
SCALE
  5
4F
102
{ACAD_REACTORS
330
3B
102
}
330
3B
100
AcDbScale
 70
     0
300
1/32" = 1'-0"
140
0.03125
141
12.0
290
     0
  0
SCALE
  5
50
102
{ACAD_REACTORS
330
3B
102
}
330
3B
100
AcDbScale
 70
     0
300
1/16" = 1'-0"
140
0.0625
141
12.0
290
     0
  0
SCALE
  5
51
102
{ACAD_REACTORS
330
3B
102
}
330
3B
100
AcDbScale
 70
     0
300
3/32" = 1'-0"
140
0.09375
141
12.0
290
     0
  0
SCALE
  5
52
102
{ACAD_REACTORS
330
3B
102
}
330
3B
100
AcDbScale
 70
     0
300
1/8" = 1'-0"
140
0.125
141
12.0
290
     0
  0
SCALE
  5
53
102
{ACAD_REACTORS
330
3B
102
}
330
3B
100
AcDbScale
 70
     0
300
3/16" = 1'-0"
140
0.1875
141
12.0
290
     0
  0
SCALE
  5
54
102
{ACAD_REACTORS
330
3B
102
}
330
3B
100
AcDbScale
 70
     0
300
1/4" = 1'-0"
140
0.25
141
12.0
290
     0
  0
SCALE
  5
55
102
{ACAD_REACTORS
330
3B
102
}
330
3B
100
AcDbScale
 70
     0
300
3/8" = 1'-0"
140
0.375
141
12.0
290
     0
  0
SCALE
  5
56
102
{ACAD_REACTORS
330
3B
102
}
330
3B
100
AcDbScale
 70
     0
300
1/2" = 1'-0"
140
0.5
141
12.0
290
     0
  0
SCALE
  5
57
102
{ACAD_REACTORS
330
3B
102
}
330
3B
100
AcDbScale
 70
     0
300
3/4" = 1'-0"
140
0.75
141
12.0
290
     0
  0
SCALE
  5
58
102
{ACAD_REACTORS
330
3B
102
}
330
3B
100
AcDbScale
 70
     0
300
1" = 1'-0"
140
1.0
141
12.0
290
     0
  0
SCALE
  5
59
102
{ACAD_REACTORS
330
3B
102
}
330
3B
100
AcDbScale
 70
     0
300
1-1/2" = 1'-0"
140
1.5
141
12.0
290
     0
  0
SCALE
  5
5A
102
{ACAD_REACTORS
330
3B
102
}
330
3B
100
AcDbScale
 70
     0
300
3" = 1'-0"
140
3.0
141
12.0
290
     0
  0
SCALE
  5
5B
102
{ACAD_REACTORS
330
3B
102
}
330
3B
100
AcDbScale
 70
     0
300
6" = 1'-0"
140
6.0
141
12.0
290
     0
  0
SCALE
  5
5C
102
{ACAD_REACTORS
330
3B
102
}
330
3B
100
AcDbScale
 70
     0
300
1'-0" = 1'-0"
140
12.0
141
12.0
290
     0
  0
VISUALSTYLE
  5
2F
102
{ACAD_REACTORS
330
2A
102
}
330
2A
100
AcDbVisualStyle
  2
2dWireframe
 70
     4
 71
     0
 72
     2
 73
     0
 90
        0
 40
-0.6
 41
-30.0
 62
     5
 63
     7
 74
     1
 91
        4
 64
     7
 65
   257
 75
     1
175
     1
 42
1.0
 92
        0
 66
   257
 43
1.0
 76
     1
 77
     6
 78
     2
 67
     7
 79
     5
170
     0
171
     0
290
     0
174
     0
 93
        1
 44
0.0
173
     0
291
     0
 45
0.0
1001
ACAD
1000
AcDbSavedByObjectVersion
1070
     0
  0
VISUALSTYLE
  5
31
102
{ACAD_REACTORS
330
2A
102
}
330
2A
100
AcDbVisualStyle
  2
3D Hidden
 70
     6
 71
     1
 72
     2
 73
     2
 90
        0
 40
-0.6
 41
-30.0
 62
     5
 63
     7
 74
     2
 91
        2
 64
     7
 65
   257
 75
     2
175
     1
 42
40.0
 92
        0
 66
   257
 43
1.0
 76
     1
 77
     6
 78
     2
 67
     7
 79
     3
170
     0
171
     0
290
     0
174
     0
 93
        1
 44
0.0
173
     0
291
     0
 45
0.0
1001
ACAD
1000
AcDbSavedByObjectVersion
1070
     0
  0
VISUALSTYLE
  5
30
102
{ACAD_REACTORS
330
2A
102
}
330
2A
100
AcDbVisualStyle
  2
3dWireframe
 70
     5
 71
     0
 72
     2
 73
     0
 90
        0
 40
-0.6
 41
-30.0
 62
     5
 63
     7
 74
     1
 91
        4
 64
     7
 65
   257
 75
     1
175
     1
 42
1.0
 92
        0
 66
   257
 43
1.0
 76
     1
 77
     6
 78
     2
 67
     7
 79
     5
170
     0
171
     0
290
     0
174
     0
 93
        1
 44
0.0
173
     0
291
     0
 45
0.0
1001
ACAD
1000
AcDbSavedByObjectVersion
1070
     0
  0
VISUALSTYLE
  5
32
102
{ACAD_REACTORS
330
2A
102
}
330
2A
100
AcDbVisualStyle
  2
Basic
 70
     7
 71
     1
 72
     0
 73
     1
 90
        0
 40
-0.6
 41
-30.0
 62
     5
 63
     7
 74
     0
 91
        4
 64
     7
 65
   257
 75
     1
175
     1
 42
1.0
 92
        8
 66
     7
 43
1.0
 76
     1
 77
     6
 78
     2
 67
     7
 79
     5
170
     0
171
     0
290
     0
174
     0
 93
        1
 44
0.0
173
     0
291
     1
 45
0.0
1001
ACAD
1000
AcDbSavedByObjectVersion
1070
     0
  0
VISUALSTYLE
  5
36
102
{ACAD_REACTORS
330
2A
102
}
330
2A
100
AcDbVisualStyle
  2
Brighten
 70
    12
 71
     2
 72
     2
 73
     0
 90
        0
 40
-0.6
 41
-30.0
 62
     5
 63
     7
 74
     1
 91
        4
 64
     7
 65
   257
 75
     1
175
     1
 42
1.0
 92
        8
 66
     7
 43
1.0
 76
     1
 77
     6
 78
     2
 67
     7
 79
     5
170
     0
171
     0
290
     0
174
     0
 93
        1
 44
50.0
173
     0
291
     1
 45
0.0
1001
ACAD
1000
AcDbSavedByObjectVersion
1070
     0
  0
VISUALSTYLE
  5
3A
102
{ACAD_REACTORS
330
2A
102
}
330
2A
100
AcDbVisualStyle
  2
ColorChange
 70
    16
 71
     2
 72
     2
 73
     3
 90
        0
 40
-0.6
 41
-30.0
 62
     5
 63
     8
 74
     1
 91
        4
 64
     7
 65
   257
 75
     1
175
     1
 42
1.0
 92
        8
 66
     8
 43
1.0
 76
     1
 77
     6
 78
     2
 67
     7
 79
     5
170
     0
171
     0
290
     0
174
     0
 93
        1
 44
0.0
173
     0
291
     1
 45
0.0
1001
ACAD
1000
AcDbSavedByObjectVersion
1070
     0
  0
VISUALSTYLE
  5
34
102
{ACAD_REACTORS
330
2A
102
}
330
2A
100
AcDbVisualStyle
  2
Conceptual
 70
     9
 71
     3
 72
     2
 73
     0
 90
        0
 40
-0.6
 41
-30.0
 62
     5
 63
     7
 74
     2
 91
        2
 64
     7
 65
   257
 75
     1
175
     1
 42
40.0
 92
        8
 66
     7
 43
1.0
 76
     1
 77
     6
 78
     2
 67
     7
 79
     3
170
     0
171
     0
290
     0
174
     0
 93
        1
 44
0.0
173
     0
291
     0
 45
0.0
1001
ACAD
1000
AcDbSavedByObjectVersion
1070
     0
  0
VISUALSTYLE
  5
35
102
{ACAD_REACTORS
330
2A
102
}
330
2A
100
AcDbVisualStyle
  2
Dim
 70
    11
 71
     2
 72
     2
 73
     0
 90
        0
 40
-0.6
 41
-30.0
 62
     5
 63
     7
 74
     1
 91
        4
 64
     7
 65
   257
 75
     1
175
     1
 42
1.0
 92
        8
 66
     7
 43
1.0
 76
     1
 77
     6
 78
     2
 67
     7
 79
     5
170
     0
171
     0
290
     0
174
     0
 93
        1
 44
-50.0
173
     0
291
     1
 45
0.0
1001
ACAD
1000
AcDbSavedByObjectVersion
1070
     0
  0
VISUALSTYLE
  5
39
102
{ACAD_REACTORS
330
2A
102
}
330
2A
100
AcDbVisualStyle
  2
Facepattern
 70
    15
 71
     2
 72
     2
 73
     0
 90
        0
 40
-0.6
 41
-30.0
 62
     5
 63
     7
 74
     1
 91
        4
 64
     7
 65
   257
 75
     1
175
     1
 42
1.0
 92
        8
 66
     7
 43
1.0
 76
     1
 77
     6
 78
     2
 67
     7
 79
     5
170
     0
171
     0
290
     0
174
     0
 93
        1
 44
0.0
173
     0
291
     1
 45
0.0
1001
ACAD
1000
AcDbSavedByObjectVersion
1070
     0
  0
VISUALSTYLE
  5
2B
102
{ACAD_REACTORS
330
2A
102
}
330
2A
100
AcDbVisualStyle
  2
Flat
 70
     0
 71
     2
 72
     1
 73
     1
 90
        2
 40
-0.6
 41
30.0
 62
     5
 63
     7
 74
     0
 91
        4
 64
     7
 65
   257
 75
     1
175
     1
 42
1.0
 92
        8
 66
     7
 43
1.0
 76
     1
 77
     6
 78
     2
 67
     7
 79
     5
170
     0
171
     0
290
     0
174
     0
 93
       13
 44
0.0
173
     0
291
     1
 45
0.0
1001
ACAD
1000
AcDbSavedByObjectVersion
1070
     0
  0
VISUALSTYLE
  5
2C
102
{ACAD_REACTORS
330
2A
102
}
330
2A
100
AcDbVisualStyle
  2
FlatWithEdges
 70
     1
 71
     2
 72
     1
 73
     1
 90
        2
 40
-0.6
 41
30.0
 62
     5
 63
     7
 74
     1
 91
        4
 64
     7
 65
   257
 75
     1
175
     1
 42
1.0
 92
        0
 66
   257
 43
1.0
 76
     1
 77
     6
 78
     2
 67
     7
 79
     5
170
     0
171
     0
290
     0
174
     0
 93
       13
 44
0.0
173
     0
291
     1
 45
0.0
1001
ACAD
1000
AcDbSavedByObjectVersion
1070
     0
  0
VISUALSTYLE
  5
2D
102
{ACAD_REACTORS
330
2A
102
}
330
2A
100
AcDbVisualStyle
  2
Gouraud
 70
     2
 71
     2
 72
     2
 73
     1
 90
        2
 40
-0.6
 41
30.0
 62
     5
 63
     7
 74
     0
 91
        4
 64
     7
 65
   257
 75
     1
175
     1
 42
1.0
 92
        0
 66
     7
 43
1.0
 76
     1
 77
     6
 78
     2
 67
     7
 79
     5
170
     0
171
     0
290
     0
174
     0
 93
       13
 44
0.0
173
     0
291
     1
 45
0.0
1001
ACAD
1000
AcDbSavedByObjectVersion
1070
     0
  0
VISUALSTYLE
  5
2E
102
{ACAD_REACTORS
330
2A
102
}
330
2A
100
AcDbVisualStyle
  2
GouraudWithEdges
 70
     3
 71
     2
 72
     2
 73
     1
 90
        2
 40
-0.6
 41
30.0
 62
     5
 63
     7
 74
     1
 91
        4
 64
     7
 65
   257
 75
     1
175
     1
 42
1.0
 92
        0
 66
   257
 43
1.0
 76
     1
 77
     6
 78
     2
 67
     7
 79
     5
170
     0
171
     0
290
     0
174
     0
 93
       13
 44
0.0
173
     0
291
     1
 45
0.0
1001
ACAD
1000
AcDbSavedByObjectVersion
1070
     0
  0
VISUALSTYLE
  5
38
102
{ACAD_REACTORS
330
2A
102
}
330
2A
100
AcDbVisualStyle
  2
Linepattern
 70
    14
 71
     2
 72
     2
 73
     0
 90
        0
 40
-0.6
 41
-30.0
 62
     5
 63
     7
 74
     1
 91
        4
 64
     7
 65
   257
 75
     7
175
     7
 42
1.0
 92
        8
 66
     7
 43
1.0
 76
     1
 77
     6
 78
     2
 67
     7
 79
     5
170
     0
171
     0
290
     0
174
     0
 93
        1
 44
0.0
173
     0
291
     1
 45
0.0
1001
ACAD
1000
AcDbSavedByObjectVersion
1070
     0
  0
VISUALSTYLE
  5
33
102
{ACAD_REACTORS
330
2A
102
}
330
2A
100
AcDbVisualStyle
  2
Realistic
 70
     8
 71
     2
 72
     2
 73
     0
 90
        0
 40
-0.6
 41
-30.0
 62
     5
 63
     7
 74
     1
 91
        0
 64
     7
 65
   257
 75
     1
175
     1
 42
1.0
 92
        8
 66
     8
 43
1.0
 76
     1
 77
     6
 78
     2
 67
     7
 79
     5
170
     0
171
     0
290
     0
174
     0
 93
       13
 44
0.0
173
     0
291
     0
 45
0.0
1001
ACAD
1000
AcDbSavedByObjectVersion
1070
     0
  0
VISUALSTYLE
  5
37
102
{ACAD_REACTORS
330
2A
102
}
330
2A
100
AcDbVisualStyle
  2
Thicken
 70
    13
 71
     2
 72
     2
 73
     0
 90
        0
 40
-0.6
 41
-30.0
 62
     5
 63
     7
 74
     1
 91
        4
 64
     7
 65
   257
 75
     1
175
     1
 42
1.0
 92
       12
 66
     7
 43
1.0
 76
     1
 77
     6
 78
     2
 67
     7
 79
     5
170
     0
171
     0
290
     0
174
     0
 93
        1
 44
0.0
173
     0
291
     1
 45
0.0
1001
ACAD
1000
AcDbSavedByObjectVersion
1070
     0
  0
DICTIONARYVAR
  5
225
102
{ACAD_REACTORS
330
224
102
}
330
224
100
DictionaryVariables
280
     0
  1
1:1
  0
DICTIONARYVAR
  5
229
102
{ACAD_REACTORS
330
224
102
}
330
224
100
DictionaryVariables
280
     0
  1
80.000000
  0
DICTIONARYVAR
  5
228
102
{ACAD_REACTORS
330
224
102
}
330
224
100
DictionaryVariables
280
     0
  1
5.000000
  0
ENDSEC
  0
EOF
