  0
SECTION
  2
HEADER
  9
$ACADVER
  1
AC1015
  9
$ACADMAINTVER
 70
     6
  9
$DWGCODEPAGE
  3
ANSI_932
  9
$INSBASE
 10
0.0
 20
0.0
 30
0.0
  9
$EXTMIN
 10
-5.130447
 20
4.546082
 30
0.0
  9
$EXTMAX
 10
175.615067
 20
94.09977
 30
0.0
  9
$LIMMIN
 10
0.0
 20
0.0
  9
$LIMMAX
 10
12.0
 20
9.0
  9
$ORTHOMODE
 70
     0
  9
$REGENMODE
 70
     1
  9
$FILLMODE
 70
     1
  9
$QTEXTMODE
 70
     0
  9
$MIRRTEXT
 70
     1
  9
$LTSCALE
 40
2.017147
  9
$ATTMODE
 70
     1
  9
$TEXTSIZE
 40
3.2
  9
$TRACEWID
 40
1.0
  9
$TEXTSTYLE
  7
Standard
  9
$CLAYER
  8
0
  9
$CELTYPE
  6
ByLayer
  9
$CECOLOR
 62
   256
  9
$CELTSCALE
 40
1.0
  9
$DISPSILH
 70
     0
  9
$DIMSCALE
 40
1.0
  9
$DIMASZ
 40
2.5
  9
$DIMEXO
 40
0.625
  9
$DIMDLI
 40
3.75
  9
$DIMRND
 40
0.0
  9
$DIMDLE
 40
0.0
  9
$DIMEXE
 40
1.25
  9
$DIMTP
 40
0.0
  9
$DIMTM
 40
0.0
  9
$DIMTXT
 40
2.5
  9
$DIMCEN
 40
0.09
  9
$DIMTSZ
 40
0.0
  9
$DIMTOL
 70
     0
  9
$DIMLIM
 70
     0
  9
$DIMTIH
 70
     0
  9
$DIMTOH
 70
     0
  9
$DIMSE1
 70
     0
  9
$DIMSE2
 70
     0
  9
$DIMTAD
 70
     0
  9
$DIMZIN
 70
     8
  9
$DIMBLK
  1

  9
$DIMASO
 70
     1
  9
$DIMSHO
 70
     0
  9
$DIMPOST
  1

  9
$DIMAPOST
  1

  9
$DIMALT
 70
     0
  9
$DIMALTD
 70
     3
  9
$DIMALTF
 40
0.03937
  9
$DIMLFAC
 40
1.0
  9
$DIMTOFL
 70
     1
  9
$DIMTVP
 40
0.0
  9
$DIMTIX
 70
     0
  9
$DIMSOXD
 70
     0
  9
$DIMSAH
 70
     0
  9
$DIMBLK1
  1

  9
$DIMBLK2
  1

  9
$DIMSTYLE
  2
ISO-25
  9
$DIMCLRD
 70
     0
  9
$DIMCLRE
 70
     0
  9
$DIMCLRT
 70
     0
  9
$DIMTFAC
 40
1.0
  9
$DIMGAP
 40
0.625
  9
$DIMJUST
 70
     0
  9
$DIMSD1
 70
     0
  9
$DIMSD2
 70
     0
  9
$DIMTOLJ
 70
     0
  9
$DIMTZIN
 70
     8
  9
$DIMALTZ
 70
     0
  9
$DIMALTTZ
 70
     0
  9
$DIMUPT
 70
     0
  9
$DIMDEC
 70
     2
  9
$DIMTDEC
 70
     2
  9
$DIMALTU
 70
     2
  9
$DIMALTTD
 70
     3
  9
$DIMTXSTY
  7
Standard
  9
$DIMAUNIT
 70
     0
  9
$DIMADEC
 70
     0
  9
$DIMALTRND
 40
0.0
  9
$DIMAZIN
 70
     0
  9
$DIMDSEP
 70
    44
  9
$DIMATFIT
 70
     3
  9
$DIMFRAC
 70
     0
  9
$DIMLDRBLK
  1

  9
$DIMLUNIT
 70
     2
  9
$DIMLWD
 70
    -2
  9
$DIMLWE
 70
    -2
  9
$DIMTMOVE
 70
     0
  9
$LUNITS
 70
     2
  9
$LUPREC
 70
     4
  9
$SKETCHINC
 40
1.0
  9
$FILLETRAD
 40
0.0
  9
$AUNITS
 70
     0
  9
$AUPREC
 70
     0
  9
$MENU
  1
.
  9
$ELEVATION
 40
0.0
  9
$PELEVATION
 40
0.0
  9
$THICKNESS
 40
0.0
  9
$LIMCHECK
 70
     0
  9
$CHAMFERA
 40
10.0
  9
$CHAMFERB
 40
10.0
  9
$CHAMFERC
 40
20.0
  9
$CHAMFERD
 40
0.0
  9
$SKPOLY
 70
     0
  9
$TDCREATE
 40
2456244.602737268
  9
$TDUCREATE
 40
2456244.227737268
  9
$TDUPDATE
 40
2456244.60273728
  9
$TDUUPDATE
 40
2456244.22773728
  9
$TDINDWG
 40
0.0000000116
  9
$TDUSRTIMER
 40
0.0000000116
  9
$USRTIMER
 70
     1
  9
$ANGBASE
 50
0.0
  9
$ANGDIR
 70
     0
  9
$PDMODE
 70
     0
  9
$PDSIZE
 40
0.0
  9
$PLINEWID
 40
0.0
  9
$SPLFRAME
 70
     0
  9
$SPLINETYPE
 70
     6
  9
$SPLINESEGS
 70
     8
  9
$HANDSEED
  5
4C8
  9
$SURFTAB1
 70
     6
  9
$SURFTAB2
 70
     6
  9
$SURFTYPE
 70
     6
  9
$SURFU
 70
     6
  9
$SURFV
 70
     6
  9
$UCSBASE
  2

  9
$UCSNAME
  2

  9
$UCSORG
 10
0.0
 20
0.0
 30
0.0
  9
$UCSXDIR
 10
1.0
 20
0.0
 30
0.0
  9
$UCSYDIR
 10
0.0
 20
1.0
 30
0.0
  9
$UCSORTHOREF
  2

  9
$UCSORTHOVIEW
 70
     0
  9
$UCSORGTOP
 10
0.0
 20
0.0
 30
0.0
  9
$UCSORGBOTTOM
 10
0.0
 20
0.0
 30
0.0
  9
$UCSORGLEFT
 10
0.0
 20
0.0
 30
0.0
  9
$UCSORGRIGHT
 10
0.0
 20
0.0
 30
0.0
  9
$UCSORGFRONT
 10
0.0
 20
0.0
 30
0.0
  9
$UCSORGBACK
 10
0.0
 20
0.0
 30
0.0
  9
$PUCSBASE
  2

  9
$PUCSNAME
  2

  9
$PUCSORG
 10
0.0
 20
0.0
 30
0.0
  9
$PUCSXDIR
 10
1.0
 20
0.0
 30
0.0
  9
$PUCSYDIR
 10
0.0
 20
1.0
 30
0.0
  9
$PUCSORTHOREF
  2

  9
$PUCSORTHOVIEW
 70
     0
  9
$PUCSORGTOP
 10
0.0
 20
0.0
 30
0.0
  9
$PUCSORGBOTTOM
 10
0.0
 20
0.0
 30
0.0
  9
$PUCSORGLEFT
 10
0.0
 20
0.0
 30
0.0
  9
$PUCSORGRIGHT
 10
0.0
 20
0.0
 30
0.0
  9
$PUCSORGFRONT
 10
0.0
 20
0.0
 30
0.0
  9
$PUCSORGBACK
 10
0.0
 20
0.0
 30
0.0
  9
$USERI1
 70
     0
  9
$USERI2
 70
     0
  9
$USERI3
 70
     0
  9
$USERI4
 70
     0
  9
$USERI5
 70
     0
  9
$USERR1
 40
0.0
  9
$USERR2
 40
0.0
  9
$USERR3
 40
0.0
  9
$USERR4
 40
0.0
  9
$USERR5
 40
0.0
  9
$WORLDVIEW
 70
     1
  9
$SHADEDGE
 70
     3
  9
$SHADEDIF
 70
    70
  9
$TILEMODE
 70
     1
  9
$MAXACTVP
 70
    64
  9
$PINSBASE
 10
0.0
 20
0.0
 30
0.0
  9
$PLIMCHECK
 70
     0
  9
$PEXTMIN
 10
1.000000E+20
 20
1.000000E+20
 30
0.0
  9
$PEXTMAX
 10
-1.000000E+20
 20
-1.000000E+20
 30
0.0
  9
$PLIMMIN
 10
0.0
 20
0.0
  9
$PLIMMAX
 10
12.0
 20
9.0
  9
$UNITMODE
 70
     0
  9
$VISRETAIN
 70
     1
  9
$PLINEGEN
 70
     0
  9
$PSLTSCALE
 70
     1
  9
$TREEDEPTH
 70
  3020
  9
$CMLSTYLE
  2
Standard
  9
$CMLJUST
 70
     0
  9
$CMLSCALE
 40
20.0
  9
$PROXYGRAPHICS
 70
     1
  9
$MEASUREMENT
 70
     1
  9
$CELWEIGHT
370
    -1
  9
$ENDCAPS
280
     0
  9
$JOINSTYLE
280
     0
  9
$LWDISPLAY
290
     0
  9
$INSUNITS
 70
     4
  9
$HYPERLINKBASE
  1

  9
$STYLESHEET
  1

  9
$XEDIT
290
     1
  9
$CEPSNTYPE
380
     0
  9
$PSTYLEMODE
290
     1
  9
$FINGERPRINTGUID
  2
{6A2FE0EC-B8B1-4E4D-9B81-A304CE1C806B}
  9
$VERSIONGUID
  2
{FAEB1C32-E019-11D5-929B-00C0DF256EC4}
  9
$EXTNAMES
290
     1
  9
$PSVPSCALE
 40
0.0
  9
$OLESTARTUP
290
     0
  0
ENDSEC
  0
SECTION
  2
CLASSES
  0
CLASS
  1
ACDBDICTIONARYWDFLT
  2
AcDbDictionaryWithDefault
  3
ObjectDBX Classes
 90
        0
280
     0
281
     0
  0
CLASS
  1
VISUALSTYLE
  2
AcDbVisualStyle
  3
ObjectDBX Classes
 90
     4095
280
     0
281
     0
  0
CLASS
  1
SCALE
  2
AcDbScale
  3
ObjectDBX Classes
 90
     1153
280
     0
281
     0
  0
CLASS
  1
DICTIONARYVAR
  2
AcDbDictionaryVar
  3
ObjectDBX Classes
 90
        0
280
     0
281
     0
  0
CLASS
  1
ACDBPLACEHOLDER
  2
AcDbPlaceHolder
  3
ObjectDBX Classes
 90
        0
280
     0
281
     0
  0
CLASS
  1
LAYOUT
  2
AcDbLayout
  3
ObjectDBX Classes
 90
        0
280
     0
281
     0
  0
ENDSEC
  0
SECTION
  2
TABLES
  0
TABLE
  2
VPORT
  5
8
330
0
100
AcDbSymbolTable
 70
     1
  0
VPORT
  5
29
330
8
100
AcDbSymbolTableRecord
100
AcDbViewportTableRecord
  2
*Active
 70
     0
 10
0.0
 20
0.0
 11
1.0
 21
1.0
 12
85.24231
 22
49.322926
 13
0.0
 23
0.0
 14
1.0
 24
1.0
 15
0.0
 25
0.0
 16
0.0
 26
0.0
 36
1.0
 17
0.0
 27
0.0
 37
0.0
 40
107.937246
 41
1.691288
 42
50.0
 43
0.0
 44
0.0
 50
0.0
 51
0.0
 71
     0
 72
   100
 73
     1
 74
     3
 75
     0
 76
     0
 77
     0
 78
     0
281
     0
 65
     1
110
0.0
120
0.0
130
0.0
111
1.0
121
0.0
131
0.0
112
0.0
122
1.0
132
0.0
 79
     0
146
0.0
  0
ENDTAB
  0
TABLE
  2
LTYPE
  5
5
330
0
100
AcDbSymbolTable
 70
     5
  0
LTYPE
  5
14
330
5
100
AcDbSymbolTableRecord
100
AcDbLinetypeTableRecord
  2
ByBlock
 70
     0
  3

 72
    65
 73
     0
 40
0.0
  0
LTYPE
  5
15
330
5
100
AcDbSymbolTableRecord
100
AcDbLinetypeTableRecord
  2
ByLayer
 70
     0
  3

 72
    65
 73
     0
 40
0.0
  0
LTYPE
  5
16
330
5
100
AcDbSymbolTableRecord
100
AcDbLinetypeTableRecord
  2
Continuous
 70
     0
  3
Solid line
 72
    65
 73
     0
 40
0.0
  0
LTYPE
  5
5D
330
5
100
AcDbSymbolTableRecord
100
AcDbLinetypeTableRecord
  2
DASHED
 70
     0
  3
DASHED
 72
    83
 73
     2
 40
0.75
 49
0.5
 74
     0
 49
-0.25
 74
     0
  0
LTYPE
  5
5E
330
5
100
AcDbSymbolTableRecord
100
AcDbLinetypeTableRecord
  2
HIDDEN
 70
     0
  3
HIDDEN
 72
    83
 73
     2
 40
0.375
 49
0.25
 74
     0
 49
-0.125
 74
     0
  0
LTYPE
  5
5F
330
5
100
AcDbSymbolTableRecord
100
AcDbLinetypeTableRecord
  2
CENTER
 70
     0
  3
CENTER
 72
    83
 73
     4
 40
2.0
 49
1.25
 74
     0
 49
-0.25
 74
     0
 49
0.25
 74
     0
 49
-0.25
 74
     0
  0
LTYPE
  5
60
330
5
100
AcDbSymbolTableRecord
100
AcDbLinetypeTableRecord
  2
PHANTOM
 70
     0
  3
PHANTOM
 72
    83
 73
     6
 40
2.5
 49
1.25
 74
     0
 49
-0.25
 74
     0
 49
0.25
 74
     0
 49
-0.25
 74
     0
 49
0.25
 74
     0
 49
-0.25
 74
     0
  0
ENDTAB
  0
TABLE
  2
LAYER
  5
2
330
0
100
AcDbSymbolTable
 70
     2
  0
LAYER
  5
10
330
2
100
AcDbSymbolTableRecord
100
AcDbLayerTableRecord
  2
0
 70
     0
 62
     7
  6
Continuous
370
    -3
390
F
  0
LAYER
  5
61
330
2
100
AcDbSymbolTableRecord
100
AcDbLayerTableRecord
  2
001
 70
     0
 62
     7
  6
Continuous
370
    -3
390
F
  0
ENDTAB
  0
TABLE
  2
STYLE
  5
3
330
0
100
AcDbSymbolTable
 70
     2
  0
STYLE
  5
11
330
3
100
AcDbSymbolTableRecord
100
AcDbTextStyleTableRecord
  2
Standard
 70
     0
 40
0.0
 41
1.0
 50
0.0
 71
     0
 42
0.2
  3
TXT
  4
BIGFONT
  0
STYLE
  5
62
330
3
100
AcDbSymbolTableRecord
100
AcDbTextStyleTableRecord
  2
TATEGAKI
 70
     4
 40
1.0
 41
1.0
 50
0.0
 71
     0
 42
0.2
  3
TXT
  4
BIGFONT
  0
ENDTAB
  0
TABLE
  2
VIEW
  5
6
330
0
100
AcDbSymbolTable
 70
     0
  0
ENDTAB
  0
TABLE
  2
UCS
  5
7
330
0
100
AcDbSymbolTable
 70
     0
  0
ENDTAB
  0
TABLE
  2
APPID
  5
9
330
0
100
AcDbSymbolTable
 70
     1
  0
APPID
  5
12
330
9
100
AcDbSymbolTableRecord
100
AcDbRegAppTableRecord
  2
ACAD
 70
     0
  0
ENDTAB
  0
TABLE
  2
DIMSTYLE
  5
A
330
0
100
AcDbSymbolTable
 70
     2
100
AcDbDimStyleTable
  0
DIMSTYLE
105
27
330
A
100
AcDbSymbolTableRecord
100
AcDbDimStyleTableRecord
  2
ISO-25
 70
     0
 41
2.5
 42
0.625
 43
3.75
 44
1.25
 73
     0
 74
     0
 77
     1
 78
     8
140
2.5
141
2.5
143
0.03937
147
0.625
171
     3
172
     1
271
     2
272
     2
274
     3
278
    44
283
     0
284
     8
340
11
  0
DIMSTYLE
105
63
102
{ACAD_REACTORS
330
424
330
431
330
432
330
433
330
434
330
441
102
}
330
A
100
AcDbSymbolTableRecord
100
AcDbDimStyleTableRecord
  2
Standard
 70
     0
 41
1.5
 42
0.0
 44
2.75
 73
     0
 74
     0
 77
     1
 78
     8
 79
     2
140
4.0
146
0.8
147
1.0
172
     1
179
     1
271
     1
340
11
  0
ENDTAB
  0
TABLE
  2
BLOCK_RECORD
  5
1
330
0
100
AcDbSymbolTable
 70
     9
  0
BLOCK_RECORD
  5
1F
330
1
100
AcDbSymbolTableRecord
100
AcDbBlockTableRecord
  2
*Model_Space
340
22
  0
BLOCK_RECORD
  5
1B
330
1
100
AcDbSymbolTableRecord
100
AcDbBlockTableRecord
  2
*Paper_Space
340
1E
  0
BLOCK_RECORD
  5
23
330
1
100
AcDbSymbolTableRecord
100
AcDbBlockTableRecord
  2
*Paper_Space0
340
26
  0
BLOCK_RECORD
  5
64
330
1
100
AcDbSymbolTableRecord
100
AcDbBlockTableRecord
  2
M-1-1
340
0
102
{BLKREFS
331
422
102
}
  0
BLOCK_RECORD
  5
23D
330
1
100
AcDbSymbolTableRecord
100
AcDbBlockTableRecord
  2
C32GUX-2
340
0
102
{BLKREFS
331
423
102
}
  0
BLOCK_RECORD
  5
3A4
330
1
100
AcDbSymbolTableRecord
100
AcDbBlockTableRecord
  2
*D3
340
0
  0
BLOCK_RECORD
  5
3B8
330
1
100
AcDbSymbolTableRecord
100
AcDbBlockTableRecord
  2
*D4
340
0
  0
BLOCK_RECORD
  5
3CE
330
1
100
AcDbSymbolTableRecord
100
AcDbBlockTableRecord
  2
*D5
340
0
  0
BLOCK_RECORD
  5
3E5
330
1
100
AcDbSymbolTableRecord
100
AcDbBlockTableRecord
  2
*D6
340
0
  0
BLOCK_RECORD
  5
3F9
330
1
100
AcDbSymbolTableRecord
100
AcDbBlockTableRecord
  2
*D7
340
0
  0
BLOCK_RECORD
  5
40D
330
1
100
AcDbSymbolTableRecord
100
AcDbBlockTableRecord
  2
*D8
340
0
  0
ENDTAB
  0
ENDSEC
  0
SECTION
  2
BLOCKS
  0
BLOCK
  5
20
330
1F
100
AcDbEntity
  8
0
100
AcDbBlockBegin
  2
*Model_Space
 70
     0
 10
0.0
 20
0.0
 30
0.0
  3
*Model_Space
  1

  0
ENDBLK
  5
21
330
1F
100
AcDbEntity
  8
0
100
AcDbBlockEnd
  0
BLOCK
  5
1C
330
1B
100
AcDbEntity
 67
     1
  8
0
100
AcDbBlockBegin
  2
*Paper_Space
 70
     0
 10
0.0
 20
0.0
 30
0.0
  3
*Paper_Space
  1

  0
ENDBLK
  5
1D
330
1B
100
AcDbEntity
 67
     1
  8
0
100
AcDbBlockEnd
  0
BLOCK
  5
24
330
23
100
AcDbEntity
  8
0
100
AcDbBlockBegin
  2
*Paper_Space0
 70
     0
 10
0.0
 20
0.0
 30
0.0
  3
*Paper_Space0
  1

  0
ENDBLK
  5
25
330
23
100
AcDbEntity
  8
0
100
AcDbBlockEnd
  0
BLOCK
  5
65
330
64
100
AcDbEntity
  8
0
100
AcDbBlockBegin
  2
M-1-1
 70
     0
 10
0.0
 20
0.0
 30
0.0
  3
M-1-1
  1

  0
POLYLINE
  5
67
330
64
100
AcDbEntity
  8
001
 62
     5
370
    50
100
AcDb2dPolyline
 66
     1
 10
0.0
 20
0.0
 30
0.0
  0
VERTEX
  5
69
330
67
100
AcDbEntity
  8
001
 62
     5
370
    50
100
AcDbVertex
100
AcDb2dVertex
 10
31.360196
 20
51.51012
 30
0.0
  0
VERTEX
  5
6A
330
67
100
AcDbEntity
  8
001
 62
     5
370
    50
100
AcDbVertex
100
AcDb2dVertex
 10
31.295765
 20
51.493094
 30
0.0
  0
VERTEX
  5
6B
330
67
100
AcDbEntity
  8
001
 62
     5
370
    50
100
AcDbVertex
100
AcDb2dVertex
 10
31.231758
 20
51.474641
 30
0.0
  0
VERTEX
  5
6C
330
67
100
AcDbEntity
  8
001
 62
     5
370
    50
100
AcDbVertex
100
AcDb2dVertex
 10
31.15433
 20
51.448504
 30
0.0
  0
VERTEX
  5
6D
330
67
100
AcDbEntity
  8
001
 62
     5
370
    50
100
AcDbVertex
100
AcDb2dVertex
 10
31.078201
 20
51.418684
 30
0.0
  0
VERTEX
  5
6E
330
67
100
AcDbEntity
  8
001
 62
     5
370
    50
100
AcDbVertex
100
AcDb2dVertex
 10
31.003161
 20
51.385565
 30
0.0
  0
VERTEX
  5
6F
330
67
100
AcDbEntity
  8
001
 62
     5
370
    50
100
AcDbVertex
100
AcDb2dVertex
 10
30.929614
 20
51.349293
 30
0.0
  0
VERTEX
  5
70
330
67
100
AcDbEntity
  8
001
 62
     5
370
    50
100
AcDbVertex
100
AcDb2dVertex
 10
30.857433
 20
51.309674
 30
0.0
  0
VERTEX
  5
71
330
67
100
AcDbEntity
  8
001
 62
     5
370
    50
100
AcDbVertex
100
AcDb2dVertex
 10
30.787036
 20
51.26695
 30
0.0
  0
VERTEX
  5
72
330
67
100
AcDbEntity
  8
001
 62
     5
370
    50
100
AcDbVertex
100
AcDb2dVertex
 10
30.718236
 20
51.221038
 30
0.0
  0
VERTEX
  5
73
330
67
100
AcDbEntity
  8
001
 62
     5
370
    50
100
AcDbVertex
100
AcDb2dVertex
 10
30.651464
 20
51.172225
 30
0.0
  0
VERTEX
  5
74
330
67
100
AcDbEntity
  8
001
 62
     5
370
    50
100
AcDbVertex
100
AcDb2dVertex
 10
30.586527
 20
51.120357
 30
0.0
  0
VERTEX
  5
75
330
67
100
AcDbEntity
  8
001
 62
     5
370
    50
100
AcDbVertex
100
AcDb2dVertex
 10
30.523851
 20
51.065776
 30
0.0
  0
VERTEX
  5
76
330
67
100
AcDbEntity
  8
001
 62
     5
370
    50
100
AcDbVertex
100
AcDb2dVertex
 10
30.463238
 20
51.008309
 30
0.0
  0
VERTEX
  5
77
330
67
100
AcDbEntity
  8
001
 62
     5
370
    50
100
AcDbVertex
100
AcDb2dVertex
 10
30.405096
 20
50.948343
 30
0.0
  0
VERTEX
  5
78
330
67
100
AcDbEntity
  8
001
 62
     5
370
    50
100
AcDbVertex
100
AcDb2dVertex
 10
30.349237
 20
50.885681
 30
0.0
  0
VERTEX
  5
79
330
67
100
AcDbEntity
  8
001
 62
     5
370
    50
100
AcDbVertex
100
AcDb2dVertex
 10
30.296039
 20
50.820744
 30
0.0
  0
VERTEX
  5
7A
330
67
100
AcDbEntity
  8
001
 62
     5
370
    50
100
AcDbVertex
100
AcDb2dVertex
 10
30.245333
 20
50.753326
 30
0.0
  0
VERTEX
  5
7B
330
67
100
AcDbEntity
  8
001
 62
     5
370
    50
100
AcDbVertex
100
AcDb2dVertex
 10
30.197454
 20
50.683871
 30
0.0
  0
VERTEX
  5
7C
330
67
100
AcDbEntity
  8
001
 62
     5
370
    50
100
AcDbVertex
100
AcDb2dVertex
 10
30.152263
 20
50.612173
 30
0.0
  0
VERTEX
  5
7D
330
67
100
AcDbEntity
  8
001
 62
     5
370
    50
100
AcDbVertex
100
AcDb2dVertex
 10
30.110044
 20
50.538684
 30
0.0
  0
VERTEX
  5
7E
330
67
100
AcDbEntity
  8
001
 62
     5
370
    50
100
AcDbVertex
100
AcDb2dVertex
 10
30.070689
 20
50.463212
 30
0.0
  0
VERTEX
  5
7F
330
67
100
AcDbEntity
  8
001
 62
     5
370
    50
100
AcDbVertex
100
AcDb2dVertex
 10
30.034432
 20
50.386203
 30
0.0
  0
VERTEX
  5
80
330
67
100
AcDbEntity
  8
001
 62
     5
370
    50
100
AcDbVertex
100
AcDb2dVertex
 10
30.001195
 20
50.30749
 30
0.0
  0
VERTEX
  5
81
330
67
100
AcDbEntity
  8
001
 62
     5
370
    50
100
AcDbVertex
100
AcDb2dVertex
 10
29.97116
 20
50.227501
 30
0.0
  0
VERTEX
  5
82
330
67
100
AcDbEntity
  8
001
 62
     5
370
    50
100
AcDbVertex
100
AcDb2dVertex
 10
29.944278
 20
50.146105
 30
0.0
  0
VERTEX
  5
83
330
67
100
AcDbEntity
  8
001
 62
     5
370
    50
100
AcDbVertex
100
AcDb2dVertex
 10
29.920681
 20
50.063697
 30
0.0
  0
VERTEX
  5
84
330
67
100
AcDbEntity
  8
001
 62
     5
370
    50
100
AcDbVertex
100
AcDb2dVertex
 10
29.900346
 20
49.980195
 30
0.0
  0
VERTEX
  5
85
330
67
100
AcDbEntity
  8
001
 62
     5
370
    50
100
AcDbVertex
100
AcDb2dVertex
 10
29.88336
 20
49.895948
 30
0.0
  0
VERTEX
  5
86
330
67
100
AcDbEntity
  8
001
 62
     5
370
    50
100
AcDbVertex
100
AcDb2dVertex
 10
29.869718
 20
49.810931
 30
0.0
  0
VERTEX
  5
87
330
67
100
AcDbEntity
  8
001
 62
     5
370
    50
100
AcDbVertex
100
AcDb2dVertex
 10
29.859468
 20
49.725438
 30
0.0
  0
VERTEX
  5
88
330
67
100
AcDbEntity
  8
001
 62
     5
370
    50
100
AcDbVertex
100
AcDb2dVertex
 10
29.852616
 20
49.639508
 30
0.0
  0
VERTEX
  5
89
330
67
100
AcDbEntity
  8
001
 62
     5
370
    50
100
AcDbVertex
100
AcDb2dVertex
 10
29.849181
 20
49.553374
 30
0.0
  0
VERTEX
  5
8A
330
67
100
AcDbEntity
  8
001
 62
     5
370
    50
100
AcDbVertex
100
AcDb2dVertex
 10
29.849169
 20
49.46714
 30
0.0
  0
VERTEX
  5
8B
330
67
100
AcDbEntity
  8
001
 62
     5
370
    50
100
AcDbVertex
100
AcDb2dVertex
 10
29.852579
 20
49.380973
 30
0.0
  0
VERTEX
  5
8C
330
67
100
AcDbEntity
  8
001
 62
     5
370
    50
100
AcDbVertex
100
AcDb2dVertex
 10
29.859406
 20
49.295045
 30
0.0
  0
VERTEX
  5
8D
330
67
100
AcDbEntity
  8
001
 62
     5
370
    50
100
AcDbVertex
100
AcDb2dVertex
 10
29.869644
 20
49.209457
 30
0.0
  0
VERTEX
  5
8E
330
67
100
AcDbEntity
  8
001
 62
     5
370
    50
100
AcDbVertex
100
AcDb2dVertex
 10
29.883264
 20
49.124446
 30
0.0
  0
VERTEX
  5
8F
330
67
100
AcDbEntity
  8
001
 62
     5
370
    50
100
AcDbVertex
100
AcDb2dVertex
 10
29.900262
 20
49.040046
 30
0.0
  0
VERTEX
  5
90
330
67
100
AcDbEntity
  8
001
 62
     5
370
    50
100
AcDbVertex
100
AcDb2dVertex
 10
29.920578
 20
48.956554
 30
0.0
  0
VERTEX
  5
91
330
67
100
AcDbEntity
  8
001
 62
     5
370
    50
100
AcDbVertex
100
AcDb2dVertex
 10
29.94422
 20
48.873942
 30
0.0
  0
VERTEX
  5
92
330
67
100
AcDbEntity
  8
001
 62
     5
370
    50
100
AcDbVertex
100
AcDb2dVertex
 10
29.971089
 20
48.792559
 30
0.0
  0
VERTEX
  5
93
330
67
100
AcDbEntity
  8
001
 62
     5
370
    50
100
AcDbVertex
100
AcDb2dVertex
 10
30.001212
 20
48.712325
 30
0.0
  0
VERTEX
  5
94
330
67
100
AcDbEntity
  8
001
 62
     5
370
    50
100
AcDbVertex
100
AcDb2dVertex
 10
30.034444
 20
48.63363
 30
0.0
  0
VERTEX
  5
95
330
67
100
AcDbEntity
  8
001
 62
     5
370
    50
100
AcDbVertex
100
AcDb2dVertex
 10
30.070838
 20
48.556346
 30
0.0
  0
VERTEX
  5
96
330
67
100
AcDbEntity
  8
001
 62
     5
370
    50
100
AcDbVertex
100
AcDb2dVertex
 10
30.110198
 20
48.480895
 30
0.0
  0
VERTEX
  5
97
330
67
100
AcDbEntity
  8
001
 62
     5
370
    50
100
AcDbVertex
100
AcDb2dVertex
 10
30.152606
 20
48.407115
 30
0.0
  0
VERTEX
  5
98
330
67
100
AcDbEntity
  8
001
 62
     5
370
    50
100
AcDbVertex
100
AcDb2dVertex
 10
30.197813
 20
48.335443
 30
0.0
  0
VERTEX
  5
99
330
67
100
AcDbEntity
  8
001
 62
     5
370
    50
100
AcDbVertex
100
AcDb2dVertex
 10
30.245935
 20
48.265696
 30
0.0
  0
VERTEX
  5
9A
330
67
100
AcDbEntity
  8
001
 62
     5
370
    50
100
AcDbVertex
100
AcDb2dVertex
 10
30.296669
 20
48.198312
 30
0.0
  0
VERTEX
  5
9B
330
67
100
AcDbEntity
  8
001
 62
     5
370
    50
100
AcDbVertex
100
AcDb2dVertex
 10
30.350161
 20
48.133097
 30
0.0
  0
VERTEX
  5
9C
330
67
100
AcDbEntity
  8
001
 62
     5
370
    50
100
AcDbVertex
100
AcDb2dVertex
 10
30.406061
 20
48.070478
 30
0.0
  0
VERTEX
  5
9D
330
67
100
AcDbEntity
  8
001
 62
     5
370
    50
100
AcDbVertex
100
AcDb2dVertex
 10
30.464539
 20
48.010262
 30
0.0
  0
VERTEX
  5
9E
330
67
100
AcDbEntity
  8
001
 62
     5
370
    50
100
AcDbVertex
100
AcDb2dVertex
 10
30.525206
 20
47.952852
 30
0.0
  0
VERTEX
  5
9F
330
67
100
AcDbEntity
  8
001
 62
     5
370
    50
100
AcDbVertex
100
AcDb2dVertex
 10
30.588251
 20
47.898064
 30
0.0
  0
VERTEX
  5
A0
330
67
100
AcDbEntity
  8
001
 62
     5
370
    50
100
AcDbVertex
100
AcDb2dVertex
 10
30.653252
 20
47.846267
 30
0.0
  0
VERTEX
  5
A1
330
67
100
AcDbEntity
  8
001
 62
     5
370
    50
100
AcDbVertex
100
AcDb2dVertex
 10
30.720409
 20
47.797299
 30
0.0
  0
VERTEX
  5
A2
330
67
100
AcDbEntity
  8
001
 62
     5
370
    50
100
AcDbVertex
100
AcDb2dVertex
 10
30.789282
 20
47.751482
 30
0.0
  0
VERTEX
  5
A3
330
67
100
AcDbEntity
  8
001
 62
     5
370
    50
100
AcDbVertex
100
AcDb2dVertex
 10
30.860066
 20
47.708676
 30
0.0
  0
VERTEX
  5
A4
330
67
100
AcDbEntity
  8
001
 62
     5
370
    50
100
AcDbVertex
100
AcDb2dVertex
 10
30.932319
 20
47.669149
 30
0.0
  0
VERTEX
  5
A5
330
67
100
AcDbEntity
  8
001
 62
     5
370
    50
100
AcDbVertex
100
AcDb2dVertex
 10
31.006224
 20
47.632817
 30
0.0
  0
VERTEX
  5
A6
330
67
100
AcDbEntity
  8
001
 62
     5
370
    50
100
AcDbVertex
100
AcDb2dVertex
 10
31.081349
 20
47.599898
 30
0.0
  0
VERTEX
  5
A7
330
67
100
AcDbEntity
  8
001
 62
     5
370
    50
100
AcDbVertex
100
AcDb2dVertex
 10
31.157837
 20
47.570248
 30
0.0
  0
VERTEX
  5
A8
330
67
100
AcDbEntity
  8
001
 62
     5
370
    50
100
AcDbVertex
100
AcDb2dVertex
 10
31.235276
 20
47.544007
 30
0.0
  0
VERTEX
  5
A9
330
67
100
AcDbEntity
  8
001
 62
     5
370
    50
100
AcDbVertex
100
AcDb2dVertex
 10
31.313826
 20
47.521398
 30
0.0
  0
VERTEX
  5
AA
330
67
100
AcDbEntity
  8
001
 62
     5
370
    50
100
AcDbVertex
100
AcDb2dVertex
 10
31.342807
 20
47.514065
 30
0.0
  0
VERTEX
  5
AB
330
67
100
AcDbEntity
  8
001
 62
     5
370
    50
100
AcDbVertex
100
AcDb2dVertex
 10
31.371856
 20
47.507002
 30
0.0
  0
SEQEND
  5
68
330
67
100
AcDbEntity
  8
001
370
    50
  0
POLYLINE
  5
AC
330
64
100
AcDbEntity
  8
001
 62
     5
370
    50
100
AcDb2dPolyline
 66
     1
 10
0.0
 20
0.0
 30
0.0
  0
VERTEX
  5
AE
330
AC
100
AcDbEntity
  8
001
 62
     5
370
    50
100
AcDbVertex
100
AcDb2dVertex
 10
31.784377
 20
47.459927
 30
0.0
  0
VERTEX
  5
AF
330
AC
100
AcDbEntity
  8
001
 62
     5
370
    50
100
AcDbVertex
100
AcDb2dVertex
 10
31.920832
 20
47.465826
 30
0.0
  0
VERTEX
  5
B0
330
AC
100
AcDbEntity
  8
001
 62
     5
370
    50
100
AcDbVertex
100
AcDb2dVertex
 10
32.118343
 20
47.491075
 30
0.0
  0
VERTEX
  5
B1
330
AC
100
AcDbEntity
  8
001
 62
     5
370
    50
100
AcDbVertex
100
AcDb2dVertex
 10
32.15482
 20
47.498343
 30
0.0
  0
VERTEX
  5
B2
330
AC
100
AcDbEntity
  8
001
 62
     5
370
    50
100
AcDbVertex
100
AcDb2dVertex
 10
32.179705
 20
47.503708
 30
0.0
  0
SEQEND
  5
AD
330
AC
100
AcDbEntity
  8
001
370
    50
  0
POLYLINE
  5
B3
330
64
100
AcDbEntity
  8
001
 62
     5
370
    50
100
AcDb2dPolyline
 66
     1
 10
0.0
 20
0.0
 30
0.0
  0
VERTEX
  5
B5
330
B3
100
AcDbEntity
  8
001
 62
     5
370
    50
100
AcDbVertex
100
AcDb2dVertex
 10
31.784327
 20
51.559927
 30
0.0
  0
VERTEX
  5
B6
330
B3
100
AcDbEntity
  8
001
 62
     5
370
    50
100
AcDbVertex
100
AcDb2dVertex
 10
31.647866
 20
51.554025
 30
0.0
  0
VERTEX
  5
B7
330
B3
100
AcDbEntity
  8
001
 62
     5
370
    50
100
AcDbVertex
100
AcDb2dVertex
 10
31.450361
 20
51.528779
 30
0.0
  0
VERTEX
  5
B8
330
B3
100
AcDbEntity
  8
001
 62
     5
370
    50
100
AcDbVertex
100
AcDb2dVertex
 10
31.400009
 20
51.518529
 30
0.0
  0
VERTEX
  5
B9
330
B3
100
AcDbEntity
  8
001
 62
     5
370
    50
100
AcDbVertex
100
AcDb2dVertex
 10
31.365702
 20
51.510769
 30
0.0
  0
SEQEND
  5
B4
330
B3
100
AcDbEntity
  8
001
370
    50
  0
POLYLINE
  5
BA
330
64
100
AcDbEntity
  8
001
 62
     5
370
    50
100
AcDb2dPolyline
 66
     1
 10
0.0
 20
0.0
 30
0.0
  0
VERTEX
  5
BC
330
BA
100
AcDbEntity
  8
001
 62
     5
370
    50
100
AcDbVertex
100
AcDb2dVertex
 10
30.564534
 20
49.446672
 30
0.0
  0
VERTEX
  5
BD
330
BA
100
AcDbEntity
  8
001
 62
     5
370
    50
100
AcDbVertex
100
AcDb2dVertex
 10
30.522676
 20
49.408841
 30
0.0
  0
VERTEX
  5
BE
330
BA
100
AcDbEntity
  8
001
 62
     5
370
    50
100
AcDbVertex
100
AcDb2dVertex
 10
30.475572
 20
49.348771
 30
0.0
  0
VERTEX
  5
BF
330
BA
100
AcDbEntity
  8
001
 62
     5
370
    50
100
AcDbVertex
100
AcDb2dVertex
 10
30.454785
 20
49.303427
 30
0.0
  0
VERTEX
  5
C0
330
BA
100
AcDbEntity
  8
001
 62
     5
370
    50
100
AcDbVertex
100
AcDb2dVertex
 10
30.444371
 20
49.257392
 30
0.0
  0
VERTEX
  5
C1
330
BA
100
AcDbEntity
  8
001
 62
     5
370
    50
100
AcDbVertex
100
AcDb2dVertex
 10
30.441515
 20
49.233245
 30
0.0
  0
VERTEX
  5
C2
330
BA
100
AcDbEntity
  8
001
 62
     5
370
    50
100
AcDbVertex
100
AcDb2dVertex
 10
30.440381
 20
49.208771
 30
0.0
  0
VERTEX
  5
C3
330
BA
100
AcDbEntity
  8
001
 62
     5
370
    50
100
AcDbVertex
100
AcDb2dVertex
 10
30.441338
 20
49.184359
 30
0.0
  0
VERTEX
  5
C4
330
BA
100
AcDbEntity
  8
001
 62
     5
370
    50
100
AcDbVertex
100
AcDb2dVertex
 10
30.444372
 20
49.160149
 30
0.0
  0
VERTEX
  5
C5
330
BA
100
AcDbEntity
  8
001
 62
     5
370
    50
100
AcDbVertex
100
AcDb2dVertex
 10
30.456184
 20
49.113247
 30
0.0
  0
VERTEX
  5
C6
330
BA
100
AcDbEntity
  8
001
 62
     5
370
    50
100
AcDbVertex
100
AcDb2dVertex
 10
30.475576
 20
49.068771
 30
0.0
  0
VERTEX
  5
C7
330
BA
100
AcDbEntity
  8
001
 62
     5
370
    50
100
AcDbVertex
100
AcDb2dVertex
 10
30.516811
 20
49.011218
 30
0.0
  0
VERTEX
  5
C8
330
BA
100
AcDbEntity
  8
001
 62
     5
370
    50
100
AcDbVertex
100
AcDb2dVertex
 10
30.571727
 20
48.966285
 30
0.0
  0
VERTEX
  5
C9
330
BA
100
AcDbEntity
  8
001
 62
     5
370
    50
100
AcDbVertex
100
AcDb2dVertex
 10
30.592326
 20
48.955007
 30
0.0
  0
VERTEX
  5
CA
330
BA
100
AcDbEntity
  8
001
 62
     5
370
    50
100
AcDbVertex
100
AcDb2dVertex
 10
30.613226
 20
48.945659
 30
0.0
  0
VERTEX
  5
CB
330
BA
100
AcDbEntity
  8
001
 62
     5
370
    50
100
AcDbVertex
100
AcDb2dVertex
 10
30.634028
 20
48.938341
 30
0.0
  0
VERTEX
  5
CC
330
BA
100
AcDbEntity
  8
001
 62
     5
370
    50
100
AcDbVertex
100
AcDb2dVertex
 10
30.657455
 20
48.933027
 30
0.0
  0
VERTEX
  5
CD
330
BA
100
AcDbEntity
  8
001
 62
     5
370
    50
100
AcDbVertex
100
AcDb2dVertex
 10
30.682156
 20
48.929938
 30
0.0
  0
VERTEX
  5
CE
330
BA
100
AcDbEntity
  8
001
 62
     5
370
    50
100
AcDbVertex
100
AcDb2dVertex
 10
30.70017
 20
48.928791
 30
0.0
  0
SEQEND
  5
BB
330
BA
100
AcDbEntity
  8
001
370
    50
  0
POLYLINE
  5
CF
330
64
100
AcDbEntity
  8
001
 62
     5
370
    50
100
AcDb2dPolyline
 66
     1
 10
0.0
 20
0.0
 30
0.0
  0
VERTEX
  5
D1
330
CF
100
AcDbEntity
  8
001
 62
     5
370
    50
100
AcDbVertex
100
AcDb2dVertex
 10
31.191218
 20
48.416191
 30
0.0
  0
VERTEX
  5
D2
330
CF
100
AcDbEntity
  8
001
 62
     5
370
    50
100
AcDbVertex
100
AcDb2dVertex
 10
31.189024
 20
48.447374
 30
0.0
  0
VERTEX
  5
D3
330
CF
100
AcDbEntity
  8
001
 62
     5
370
    50
100
AcDbVertex
100
AcDb2dVertex
 10
31.183923
 20
48.491257
 30
0.0
  0
VERTEX
  5
D4
330
CF
100
AcDbEntity
  8
001
 62
     5
370
    50
100
AcDbVertex
100
AcDb2dVertex
 10
31.161471
 20
48.585495
 30
0.0
  0
VERTEX
  5
D5
330
CF
100
AcDbEntity
  8
001
 62
     5
370
    50
100
AcDbVertex
100
AcDb2dVertex
 10
31.124912
 20
48.664067
 30
0.0
  0
VERTEX
  5
D6
330
CF
100
AcDbEntity
  8
001
 62
     5
370
    50
100
AcDbVertex
100
AcDb2dVertex
 10
31.046973
 20
48.770765
 30
0.0
  0
VERTEX
  5
D7
330
CF
100
AcDbEntity
  8
001
 62
     5
370
    50
100
AcDbVertex
100
AcDb2dVertex
 10
30.943076
 20
48.857883
 30
0.0
  0
VERTEX
  5
D8
330
CF
100
AcDbEntity
  8
001
 62
     5
370
    50
100
AcDbVertex
100
AcDb2dVertex
 10
30.904117
 20
48.879321
 30
0.0
  0
VERTEX
  5
D9
330
CF
100
AcDbEntity
  8
001
 62
     5
370
    50
100
AcDbVertex
100
AcDb2dVertex
 10
30.864594
 20
48.896891
 30
0.0
  0
VERTEX
  5
DA
330
CF
100
AcDbEntity
  8
001
 62
     5
370
    50
100
AcDbVertex
100
AcDb2dVertex
 10
30.825255
 20
48.910702
 30
0.0
  0
VERTEX
  5
DB
330
CF
100
AcDbEntity
  8
001
 62
     5
370
    50
100
AcDbVertex
100
AcDb2dVertex
 10
30.78095
 20
48.920779
 30
0.0
  0
VERTEX
  5
DC
330
CF
100
AcDbEntity
  8
001
 62
     5
370
    50
100
AcDbVertex
100
AcDb2dVertex
 10
30.734237
 20
48.926626
 30
0.0
  0
VERTEX
  5
DD
330
CF
100
AcDbEntity
  8
001
 62
     5
370
    50
100
AcDbVertex
100
AcDb2dVertex
 10
30.70017
 20
48.928791
 30
0.0
  0
SEQEND
  5
D0
330
CF
100
AcDbEntity
  8
001
370
    50
  0
POLYLINE
  5
DE
330
64
100
AcDbEntity
  8
001
 62
     5
370
    50
100
AcDb2dPolyline
 66
     1
 10
0.0
 20
0.0
 30
0.0
  0
VERTEX
  5
E0
330
DE
100
AcDbEntity
  8
001
 62
     5
370
    50
100
AcDbVertex
100
AcDb2dVertex
 10
31.453774
 20
48.145123
 30
0.0
  0
VERTEX
  5
E1
330
DE
100
AcDbEntity
  8
001
 62
     5
370
    50
100
AcDbVertex
100
AcDb2dVertex
 10
31.473022
 20
48.146166
 30
0.0
  0
VERTEX
  5
E2
330
DE
100
AcDbEntity
  8
001
 62
     5
370
    50
100
AcDbVertex
100
AcDb2dVertex
 10
31.499389
 20
48.149377
 30
0.0
  0
VERTEX
  5
E3
330
DE
100
AcDbEntity
  8
001
 62
     5
370
    50
100
AcDbVertex
100
AcDb2dVertex
 10
31.522853
 20
48.154798
 30
0.0
  0
VERTEX
  5
E4
330
DE
100
AcDbEntity
  8
001
 62
     5
370
    50
100
AcDbVertex
100
AcDb2dVertex
 10
31.543618
 20
48.16201
 30
0.0
  0
VERTEX
  5
E5
330
DE
100
AcDbEntity
  8
001
 62
     5
370
    50
100
AcDbVertex
100
AcDb2dVertex
 10
31.564275
 20
48.170907
 30
0.0
  0
VERTEX
  5
E6
330
DE
100
AcDbEntity
  8
001
 62
     5
370
    50
100
AcDbVertex
100
AcDb2dVertex
 10
31.585117
 20
48.182637
 30
0.0
  0
VERTEX
  5
E7
330
DE
100
AcDbEntity
  8
001
 62
     5
370
    50
100
AcDbVertex
100
AcDb2dVertex
 10
31.643806
 20
48.235169
 30
0.0
  0
VERTEX
  5
E8
330
DE
100
AcDbEntity
  8
001
 62
     5
370
    50
100
AcDbVertex
100
AcDb2dVertex
 10
31.679801
 20
48.282457
 30
0.0
  0
SEQEND
  5
DF
330
DE
100
AcDbEntity
  8
001
370
    50
  0
POLYLINE
  5
E9
330
64
100
AcDbEntity
  8
001
 62
     5
370
    50
100
AcDb2dPolyline
 66
     1
 10
0.0
 20
0.0
 30
0.0
  0
VERTEX
  5
EB
330
E9
100
AcDbEntity
  8
001
 62
     5
370
    50
100
AcDbVertex
100
AcDb2dVertex
 10
32.341799
 20
48.479446
 30
0.0
  0
VERTEX
  5
EC
330
E9
100
AcDbEntity
  8
001
 62
     5
370
    50
100
AcDbVertex
100
AcDb2dVertex
 10
32.31481
 20
48.493177
 30
0.0
  0
VERTEX
  5
ED
330
E9
100
AcDbEntity
  8
001
 62
     5
370
    50
100
AcDbVertex
100
AcDb2dVertex
 10
32.277162
 20
48.510244
 30
0.0
  0
VERTEX
  5
EE
330
E9
100
AcDbEntity
  8
001
 62
     5
370
    50
100
AcDbVertex
100
AcDb2dVertex
 10
32.23595
 20
48.525094
 30
0.0
  0
VERTEX
  5
EF
330
E9
100
AcDbEntity
  8
001
 62
     5
370
    50
100
AcDbVertex
100
AcDb2dVertex
 10
32.193518
 20
48.534133
 30
0.0
  0
VERTEX
  5
F0
330
E9
100
AcDbEntity
  8
001
 62
     5
370
    50
100
AcDbVertex
100
AcDb2dVertex
 10
32.144041
 20
48.539963
 30
0.0
  0
VERTEX
  5
F1
330
E9
100
AcDbEntity
  8
001
 62
     5
370
    50
100
AcDbVertex
100
AcDb2dVertex
 10
32.107253
 20
48.542176
 30
0.0
  0
SEQEND
  5
EA
330
E9
100
AcDbEntity
  8
001
370
    50
  0
POLYLINE
  5
F2
330
64
100
AcDbEntity
  8
001
 62
     5
370
    50
100
AcDb2dPolyline
 66
     1
 10
0.0
 20
0.0
 30
0.0
  0
VERTEX
  5
F4
330
F2
100
AcDbEntity
  8
001
 62
     5
370
    50
100
AcDbVertex
100
AcDb2dVertex
 10
32.465821
 20
48.446275
 30
0.0
  0
VERTEX
  5
F5
330
F2
100
AcDbEntity
  8
001
 62
     5
370
    50
100
AcDbVertex
100
AcDb2dVertex
 10
32.485083
 20
48.447342
 30
0.0
  0
VERTEX
  5
F6
330
F2
100
AcDbEntity
  8
001
 62
     5
370
    50
100
AcDbVertex
100
AcDb2dVertex
 10
32.511436
 20
48.45053
 30
0.0
  0
VERTEX
  5
F7
330
F2
100
AcDbEntity
  8
001
 62
     5
370
    50
100
AcDbVertex
100
AcDb2dVertex
 10
32.534835
 20
48.455833
 30
0.0
  0
VERTEX
  5
F8
330
F2
100
AcDbEntity
  8
001
 62
     5
370
    50
100
AcDbVertex
100
AcDb2dVertex
 10
32.555665
 20
48.463162
 30
0.0
  0
VERTEX
  5
F9
330
F2
100
AcDbEntity
  8
001
 62
     5
370
    50
100
AcDbVertex
100
AcDb2dVertex
 10
32.576576
 20
48.472512
 30
0.0
  0
VERTEX
  5
FA
330
F2
100
AcDbEntity
  8
001
 62
     5
370
    50
100
AcDbVertex
100
AcDb2dVertex
 10
32.597164
 20
48.48379
 30
0.0
  0
VERTEX
  5
FB
330
F2
100
AcDbEntity
  8
001
 62
     5
370
    50
100
AcDbVertex
100
AcDb2dVertex
 10
32.652033
 20
48.528776
 30
0.0
  0
VERTEX
  5
FC
330
F2
100
AcDbEntity
  8
001
 62
     5
370
    50
100
AcDbVertex
100
AcDb2dVertex
 10
32.693313
 20
48.586278
 30
0.0
  0
VERTEX
  5
FD
330
F2
100
AcDbEntity
  8
001
 62
     5
370
    50
100
AcDbVertex
100
AcDb2dVertex
 10
32.712798
 20
48.63061
 30
0.0
  0
VERTEX
  5
FE
330
F2
100
AcDbEntity
  8
001
 62
     5
370
    50
100
AcDbVertex
100
AcDb2dVertex
 10
32.724514
 20
48.677657
 30
0.0
  0
VERTEX
  5
FF
330
F2
100
AcDbEntity
  8
001
 62
     5
370
    50
100
AcDbVertex
100
AcDb2dVertex
 10
32.727407
 20
48.702083
 30
0.0
  0
VERTEX
  5
100
330
F2
100
AcDbEntity
  8
001
 62
     5
370
    50
100
AcDbVertex
100
AcDb2dVertex
 10
32.728504
 20
48.726278
 30
0.0
  0
VERTEX
  5
101
330
F2
100
AcDbEntity
  8
001
 62
     5
370
    50
100
AcDbVertex
100
AcDb2dVertex
 10
32.727853
 20
48.750008
 30
0.0
  0
VERTEX
  5
102
330
F2
100
AcDbEntity
  8
001
 62
     5
370
    50
100
AcDbVertex
100
AcDb2dVertex
 10
32.724513
 20
48.7749
 30
0.0
  0
VERTEX
  5
103
330
F2
100
AcDbEntity
  8
001
 62
     5
370
    50
100
AcDbVertex
100
AcDb2dVertex
 10
32.709924
 20
48.826622
 30
0.0
  0
VERTEX
  5
104
330
F2
100
AcDbEntity
  8
001
 62
     5
370
    50
100
AcDbVertex
100
AcDb2dVertex
 10
32.694746
 20
48.863592
 30
0.0
  0
SEQEND
  5
F3
330
F2
100
AcDbEntity
  8
001
370
    50
  0
POLYLINE
  5
105
330
64
100
AcDbEntity
  8
001
 62
     5
370
    50
100
AcDb2dPolyline
 66
     1
 10
0.0
 20
0.0
 30
0.0
  0
VERTEX
  5
107
330
105
100
AcDbEntity
  8
001
 62
     5
370
    50
100
AcDbVertex
100
AcDb2dVertex
 10
32.865695
 20
49.573181
 30
0.0
  0
VERTEX
  5
108
330
105
100
AcDbEntity
  8
001
 62
     5
370
    50
100
AcDbVertex
100
AcDb2dVertex
 10
32.786575
 20
49.501565
 30
0.0
  0
VERTEX
  5
109
330
105
100
AcDbEntity
  8
001
 62
     5
370
    50
100
AcDbVertex
100
AcDb2dVertex
 10
32.697456
 20
49.388035
 30
0.0
  0
VERTEX
  5
10A
330
105
100
AcDbEntity
  8
001
 62
     5
370
    50
100
AcDbVertex
100
AcDb2dVertex
 10
32.658019
 20
49.302521
 30
0.0
  0
VERTEX
  5
10B
330
105
100
AcDbEntity
  8
001
 62
     5
370
    50
100
AcDbVertex
100
AcDb2dVertex
 10
32.638449
 20
49.215224
 30
0.0
  0
VERTEX
  5
10C
330
105
100
AcDbEntity
  8
001
 62
     5
370
    50
100
AcDbVertex
100
AcDb2dVertex
 10
32.633237
 20
49.169198
 30
0.0
  0
VERTEX
  5
10D
330
105
100
AcDbEntity
  8
001
 62
     5
370
    50
100
AcDbVertex
100
AcDb2dVertex
 10
32.630903
 20
49.123273
 30
0.0
  0
VERTEX
  5
10E
330
105
100
AcDbEntity
  8
001
 62
     5
370
    50
100
AcDbVertex
100
AcDb2dVertex
 10
32.632061
 20
49.07835
 30
0.0
  0
VERTEX
  5
10F
330
105
100
AcDbEntity
  8
001
 62
     5
370
    50
100
AcDbVertex
100
AcDb2dVertex
 10
32.638451
 20
49.031323
 30
0.0
  0
VERTEX
  5
110
330
105
100
AcDbEntity
  8
001
 62
     5
370
    50
100
AcDbVertex
100
AcDb2dVertex
 10
32.666076
 20
48.93353
 30
0.0
  0
VERTEX
  5
111
330
105
100
AcDbEntity
  8
001
 62
     5
370
    50
100
AcDbVertex
100
AcDb2dVertex
 10
32.694746
 20
48.863592
 30
0.0
  0
SEQEND
  5
106
330
105
100
AcDbEntity
  8
001
370
    50
  0
POLYLINE
  5
112
330
64
100
AcDbEntity
  8
001
 62
     5
370
    50
100
AcDb2dPolyline
 66
     1
 10
0.0
 20
0.0
 30
0.0
  0
VERTEX
  5
114
330
112
100
AcDbEntity
  8
001
 62
     5
370
    50
100
AcDbVertex
100
AcDb2dVertex
 10
32.865695
 20
49.573181
 30
0.0
  0
VERTEX
  5
115
330
112
100
AcDbEntity
  8
001
 62
     5
370
    50
100
AcDbVertex
100
AcDb2dVertex
 10
32.907552
 20
49.611011
 30
0.0
  0
VERTEX
  5
116
330
112
100
AcDbEntity
  8
001
 62
     5
370
    50
100
AcDbVertex
100
AcDb2dVertex
 10
32.954656
 20
49.671081
 30
0.0
  0
VERTEX
  5
117
330
112
100
AcDbEntity
  8
001
 62
     5
370
    50
100
AcDbVertex
100
AcDb2dVertex
 10
32.975443
 20
49.716425
 30
0.0
  0
VERTEX
  5
118
330
112
100
AcDbEntity
  8
001
 62
     5
370
    50
100
AcDbVertex
100
AcDb2dVertex
 10
32.985858
 20
49.76246
 30
0.0
  0
VERTEX
  5
119
330
112
100
AcDbEntity
  8
001
 62
     5
370
    50
100
AcDbVertex
100
AcDb2dVertex
 10
32.988714
 20
49.786607
 30
0.0
  0
VERTEX
  5
11A
330
112
100
AcDbEntity
  8
001
 62
     5
370
    50
100
AcDbVertex
100
AcDb2dVertex
 10
32.989848
 20
49.811082
 30
0.0
  0
VERTEX
  5
11B
330
112
100
AcDbEntity
  8
001
 62
     5
370
    50
100
AcDbVertex
100
AcDb2dVertex
 10
32.98889
 20
49.835493
 30
0.0
  0
VERTEX
  5
11C
330
112
100
AcDbEntity
  8
001
 62
     5
370
    50
100
AcDbVertex
100
AcDb2dVertex
 10
32.985857
 20
49.859703
 30
0.0
  0
VERTEX
  5
11D
330
112
100
AcDbEntity
  8
001
 62
     5
370
    50
100
AcDbVertex
100
AcDb2dVertex
 10
32.974045
 20
49.906605
 30
0.0
  0
VERTEX
  5
11E
330
112
100
AcDbEntity
  8
001
 62
     5
370
    50
100
AcDbVertex
100
AcDb2dVertex
 10
32.954653
 20
49.951081
 30
0.0
  0
VERTEX
  5
11F
330
112
100
AcDbEntity
  8
001
 62
     5
370
    50
100
AcDbVertex
100
AcDb2dVertex
 10
32.913417
 20
50.008634
 30
0.0
  0
VERTEX
  5
120
330
112
100
AcDbEntity
  8
001
 62
     5
370
    50
100
AcDbVertex
100
AcDb2dVertex
 10
32.858502
 20
50.053567
 30
0.0
  0
VERTEX
  5
121
330
112
100
AcDbEntity
  8
001
 62
     5
370
    50
100
AcDbVertex
100
AcDb2dVertex
 10
32.837903
 20
50.064846
 30
0.0
  0
VERTEX
  5
122
330
112
100
AcDbEntity
  8
001
 62
     5
370
    50
100
AcDbVertex
100
AcDb2dVertex
 10
32.817003
 20
50.074194
 30
0.0
  0
VERTEX
  5
123
330
112
100
AcDbEntity
  8
001
 62
     5
370
    50
100
AcDbVertex
100
AcDb2dVertex
 10
32.796201
 20
50.081511
 30
0.0
  0
VERTEX
  5
124
330
112
100
AcDbEntity
  8
001
 62
     5
370
    50
100
AcDbVertex
100
AcDb2dVertex
 10
32.772773
 20
50.086825
 30
0.0
  0
VERTEX
  5
125
330
112
100
AcDbEntity
  8
001
 62
     5
370
    50
100
AcDbVertex
100
AcDb2dVertex
 10
32.748073
 20
50.089914
 30
0.0
  0
VERTEX
  5
126
330
112
100
AcDbEntity
  8
001
 62
     5
370
    50
100
AcDbVertex
100
AcDb2dVertex
 10
32.730059
 20
50.091061
 30
0.0
  0
SEQEND
  5
113
330
112
100
AcDbEntity
  8
001
370
    50
  0
POLYLINE
  5
127
330
64
100
AcDbEntity
  8
001
 62
     5
370
    50
100
AcDb2dPolyline
 66
     1
 10
0.0
 20
0.0
 30
0.0
  0
VERTEX
  5
129
330
127
100
AcDbEntity
  8
001
 62
     5
370
    50
100
AcDbVertex
100
AcDb2dVertex
 10
32.23901
 20
50.603661
 30
0.0
  0
VERTEX
  5
12A
330
127
100
AcDbEntity
  8
001
 62
     5
370
    50
100
AcDbVertex
100
AcDb2dVertex
 10
32.241204
 20
50.572478
 30
0.0
  0
VERTEX
  5
12B
330
127
100
AcDbEntity
  8
001
 62
     5
370
    50
100
AcDbVertex
100
AcDb2dVertex
 10
32.246306
 20
50.528596
 30
0.0
  0
VERTEX
  5
12C
330
127
100
AcDbEntity
  8
001
 62
     5
370
    50
100
AcDbVertex
100
AcDb2dVertex
 10
32.268757
 20
50.434357
 30
0.0
  0
VERTEX
  5
12D
330
127
100
AcDbEntity
  8
001
 62
     5
370
    50
100
AcDbVertex
100
AcDb2dVertex
 10
32.305317
 20
50.355786
 30
0.0
  0
VERTEX
  5
12E
330
127
100
AcDbEntity
  8
001
 62
     5
370
    50
100
AcDbVertex
100
AcDb2dVertex
 10
32.383256
 20
50.249087
 30
0.0
  0
VERTEX
  5
12F
330
127
100
AcDbEntity
  8
001
 62
     5
370
    50
100
AcDbVertex
100
AcDb2dVertex
 10
32.487153
 20
50.161969
 30
0.0
  0
VERTEX
  5
130
330
127
100
AcDbEntity
  8
001
 62
     5
370
    50
100
AcDbVertex
100
AcDb2dVertex
 10
32.526111
 20
50.140532
 30
0.0
  0
VERTEX
  5
131
330
127
100
AcDbEntity
  8
001
 62
     5
370
    50
100
AcDbVertex
100
AcDb2dVertex
 10
32.565635
 20
50.122961
 30
0.0
  0
VERTEX
  5
132
330
127
100
AcDbEntity
  8
001
 62
     5
370
    50
100
AcDbVertex
100
AcDb2dVertex
 10
32.604973
 20
50.10915
 30
0.0
  0
VERTEX
  5
133
330
127
100
AcDbEntity
  8
001
 62
     5
370
    50
100
AcDbVertex
100
AcDb2dVertex
 10
32.649279
 20
50.099073
 30
0.0
  0
VERTEX
  5
134
330
127
100
AcDbEntity
  8
001
 62
     5
370
    50
100
AcDbVertex
100
AcDb2dVertex
 10
32.695992
 20
50.093227
 30
0.0
  0
VERTEX
  5
135
330
127
100
AcDbEntity
  8
001
 62
     5
370
    50
100
AcDbVertex
100
AcDb2dVertex
 10
32.730059
 20
50.091061
 30
0.0
  0
SEQEND
  5
128
330
127
100
AcDbEntity
  8
001
370
    50
  0
POLYLINE
  5
136
330
64
100
AcDbEntity
  8
001
 62
     5
370
    50
100
AcDb2dPolyline
 66
     1
 10
0.0
 20
0.0
 30
0.0
  0
VERTEX
  5
138
330
136
100
AcDbEntity
  8
001
 62
     5
370
    50
100
AcDbVertex
100
AcDb2dVertex
 10
31.976455
 20
50.87473
 30
0.0
  0
VERTEX
  5
139
330
136
100
AcDbEntity
  8
001
 62
     5
370
    50
100
AcDbVertex
100
AcDb2dVertex
 10
31.957206
 20
50.873686
 30
0.0
  0
VERTEX
  5
13A
330
136
100
AcDbEntity
  8
001
 62
     5
370
    50
100
AcDbVertex
100
AcDb2dVertex
 10
31.93084
 20
50.870475
 30
0.0
  0
VERTEX
  5
13B
330
136
100
AcDbEntity
  8
001
 62
     5
370
    50
100
AcDbVertex
100
AcDb2dVertex
 10
31.907375
 20
50.865054
 30
0.0
  0
VERTEX
  5
13C
330
136
100
AcDbEntity
  8
001
 62
     5
370
    50
100
AcDbVertex
100
AcDb2dVertex
 10
31.886611
 20
50.857842
 30
0.0
  0
VERTEX
  5
13D
330
136
100
AcDbEntity
  8
001
 62
     5
370
    50
100
AcDbVertex
100
AcDb2dVertex
 10
31.865954
 20
50.848945
 30
0.0
  0
VERTEX
  5
13E
330
136
100
AcDbEntity
  8
001
 62
     5
370
    50
100
AcDbVertex
100
AcDb2dVertex
 10
31.845112
 20
50.837215
 30
0.0
  0
VERTEX
  5
13F
330
136
100
AcDbEntity
  8
001
 62
     5
370
    50
100
AcDbVertex
100
AcDb2dVertex
 10
31.786422
 20
50.784683
 30
0.0
  0
VERTEX
  5
140
330
136
100
AcDbEntity
  8
001
 62
     5
370
    50
100
AcDbVertex
100
AcDb2dVertex
 10
31.750427
 20
50.737396
 30
0.0
  0
SEQEND
  5
137
330
136
100
AcDbEntity
  8
001
370
    50
  0
POLYLINE
  5
141
330
64
100
AcDbEntity
  8
001
 62
     5
370
    50
100
AcDb2dPolyline
 66
     1
 10
0.0
 20
0.0
 30
0.0
  0
VERTEX
  5
143
330
141
100
AcDbEntity
  8
001
 62
     5
370
    50
100
AcDbVertex
100
AcDb2dVertex
 10
31.08843
 20
50.540407
 30
0.0
  0
VERTEX
  5
144
330
141
100
AcDbEntity
  8
001
 62
     5
370
    50
100
AcDbVertex
100
AcDb2dVertex
 10
31.115418
 20
50.526675
 30
0.0
  0
VERTEX
  5
145
330
141
100
AcDbEntity
  8
001
 62
     5
370
    50
100
AcDbVertex
100
AcDb2dVertex
 10
31.153066
 20
50.509608
 30
0.0
  0
VERTEX
  5
146
330
141
100
AcDbEntity
  8
001
 62
     5
370
    50
100
AcDbVertex
100
AcDb2dVertex
 10
31.194279
 20
50.494758
 30
0.0
  0
VERTEX
  5
147
330
141
100
AcDbEntity
  8
001
 62
     5
370
    50
100
AcDbVertex
100
AcDb2dVertex
 10
31.23671
 20
50.48572
 30
0.0
  0
VERTEX
  5
148
330
141
100
AcDbEntity
  8
001
 62
     5
370
    50
100
AcDbVertex
100
AcDb2dVertex
 10
31.286187
 20
50.47989
 30
0.0
  0
VERTEX
  5
149
330
141
100
AcDbEntity
  8
001
 62
     5
370
    50
100
AcDbVertex
100
AcDb2dVertex
 10
31.322975
 20
50.477676
 30
0.0
  0
SEQEND
  5
142
330
141
100
AcDbEntity
  8
001
370
    50
  0
POLYLINE
  5
14A
330
64
100
AcDbEntity
  8
001
 62
     5
370
    50
100
AcDb2dPolyline
 66
     1
 10
0.0
 20
0.0
 30
0.0
  0
VERTEX
  5
14C
330
14A
100
AcDbEntity
  8
001
 62
     5
370
    50
100
AcDbVertex
100
AcDb2dVertex
 10
30.964407
 20
50.573577
 30
0.0
  0
VERTEX
  5
14D
330
14A
100
AcDbEntity
  8
001
 62
     5
370
    50
100
AcDbVertex
100
AcDb2dVertex
 10
30.945146
 20
50.57251
 30
0.0
  0
VERTEX
  5
14E
330
14A
100
AcDbEntity
  8
001
 62
     5
370
    50
100
AcDbVertex
100
AcDb2dVertex
 10
30.918792
 20
50.569323
 30
0.0
  0
VERTEX
  5
14F
330
14A
100
AcDbEntity
  8
001
 62
     5
370
    50
100
AcDbVertex
100
AcDb2dVertex
 10
30.895394
 20
50.56402
 30
0.0
  0
VERTEX
  5
150
330
14A
100
AcDbEntity
  8
001
 62
     5
370
    50
100
AcDbVertex
100
AcDb2dVertex
 10
30.874563
 20
50.55669
 30
0.0
  0
VERTEX
  5
151
330
14A
100
AcDbEntity
  8
001
 62
     5
370
    50
100
AcDbVertex
100
AcDb2dVertex
 10
30.853653
 20
50.547341
 30
0.0
  0
VERTEX
  5
152
330
14A
100
AcDbEntity
  8
001
 62
     5
370
    50
100
AcDbVertex
100
AcDb2dVertex
 10
30.833065
 20
50.536063
 30
0.0
  0
VERTEX
  5
153
330
14A
100
AcDbEntity
  8
001
 62
     5
370
    50
100
AcDbVertex
100
AcDb2dVertex
 10
30.778195
 20
50.491076
 30
0.0
  0
VERTEX
  5
154
330
14A
100
AcDbEntity
  8
001
 62
     5
370
    50
100
AcDbVertex
100
AcDb2dVertex
 10
30.736916
 20
50.433574
 30
0.0
  0
VERTEX
  5
155
330
14A
100
AcDbEntity
  8
001
 62
     5
370
    50
100
AcDbVertex
100
AcDb2dVertex
 10
30.71743
 20
50.389242
 30
0.0
  0
VERTEX
  5
156
330
14A
100
AcDbEntity
  8
001
 62
     5
370
    50
100
AcDbVertex
100
AcDb2dVertex
 10
30.705715
 20
50.342196
 30
0.0
  0
VERTEX
  5
157
330
14A
100
AcDbEntity
  8
001
 62
     5
370
    50
100
AcDbVertex
100
AcDb2dVertex
 10
30.702822
 20
50.317769
 30
0.0
  0
VERTEX
  5
158
330
14A
100
AcDbEntity
  8
001
 62
     5
370
    50
100
AcDbVertex
100
AcDb2dVertex
 10
30.701724
 20
50.293574
 30
0.0
  0
VERTEX
  5
159
330
14A
100
AcDbEntity
  8
001
 62
     5
370
    50
100
AcDbVertex
100
AcDb2dVertex
 10
30.702376
 20
50.269845
 30
0.0
  0
VERTEX
  5
15A
330
14A
100
AcDbEntity
  8
001
 62
     5
370
    50
100
AcDbVertex
100
AcDb2dVertex
 10
30.705716
 20
50.244953
 30
0.0
  0
VERTEX
  5
15B
330
14A
100
AcDbEntity
  8
001
 62
     5
370
    50
100
AcDbVertex
100
AcDb2dVertex
 10
30.720305
 20
50.19323
 30
0.0
  0
VERTEX
  5
15C
330
14A
100
AcDbEntity
  8
001
 62
     5
370
    50
100
AcDbVertex
100
AcDb2dVertex
 10
30.735483
 20
50.15626
 30
0.0
  0
SEQEND
  5
14B
330
14A
100
AcDbEntity
  8
001
370
    50
  0
POLYLINE
  5
15D
330
64
100
AcDbEntity
  8
001
 62
     5
370
    50
100
AcDb2dPolyline
 66
     1
 10
0.0
 20
0.0
 30
0.0
  0
VERTEX
  5
15F
330
15D
100
AcDbEntity
  8
001
 62
     5
370
    50
100
AcDbVertex
100
AcDb2dVertex
 10
30.564534
 20
49.446672
 30
0.0
  0
VERTEX
  5
160
330
15D
100
AcDbEntity
  8
001
 62
     5
370
    50
100
AcDbVertex
100
AcDb2dVertex
 10
30.643653
 20
49.518288
 30
0.0
  0
VERTEX
  5
161
330
15D
100
AcDbEntity
  8
001
 62
     5
370
    50
100
AcDbVertex
100
AcDb2dVertex
 10
30.732773
 20
49.631817
 30
0.0
  0
VERTEX
  5
162
330
15D
100
AcDbEntity
  8
001
 62
     5
370
    50
100
AcDbVertex
100
AcDb2dVertex
 10
30.772209
 20
49.717331
 30
0.0
  0
VERTEX
  5
163
330
15D
100
AcDbEntity
  8
001
 62
     5
370
    50
100
AcDbVertex
100
AcDb2dVertex
 10
30.79178
 20
49.804628
 30
0.0
  0
VERTEX
  5
164
330
15D
100
AcDbEntity
  8
001
 62
     5
370
    50
100
AcDbVertex
100
AcDb2dVertex
 10
30.796991
 20
49.850654
 30
0.0
  0
VERTEX
  5
165
330
15D
100
AcDbEntity
  8
001
 62
     5
370
    50
100
AcDbVertex
100
AcDb2dVertex
 10
30.799326
 20
49.896579
 30
0.0
  0
VERTEX
  5
166
330
15D
100
AcDbEntity
  8
001
 62
     5
370
    50
100
AcDbVertex
100
AcDb2dVertex
 10
30.798167
 20
49.941503
 30
0.0
  0
VERTEX
  5
167
330
15D
100
AcDbEntity
  8
001
 62
     5
370
    50
100
AcDbVertex
100
AcDb2dVertex
 10
30.791777
 20
49.98853
 30
0.0
  0
VERTEX
  5
168
330
15D
100
AcDbEntity
  8
001
 62
     5
370
    50
100
AcDbVertex
100
AcDb2dVertex
 10
30.764152
 20
50.086322
 30
0.0
  0
VERTEX
  5
169
330
15D
100
AcDbEntity
  8
001
 62
     5
370
    50
100
AcDbVertex
100
AcDb2dVertex
 10
30.735483
 20
50.15626
 30
0.0
  0
SEQEND
  5
15E
330
15D
100
AcDbEntity
  8
001
370
    50
  0
POLYLINE
  5
16A
330
64
100
AcDbEntity
  8
001
 62
     5
370
    50
100
AcDb2dPolyline
 66
     1
 10
0.0
 20
0.0
 30
0.0
  0
VERTEX
  5
16C
330
16A
100
AcDbEntity
  8
001
 62
     5
370
    50
100
AcDbVertex
100
AcDb2dVertex
 10
31.888233
 20
47.459928
 30
0.0
  0
VERTEX
  5
16D
330
16A
100
AcDbEntity
  8
001
 62
     5
370
    50
100
AcDbVertex
100
AcDb2dVertex
 10
32.029255
 20
47.467739
 30
0.0
  0
VERTEX
  5
16E
330
16A
100
AcDbEntity
  8
001
 62
     5
370
    50
100
AcDbVertex
100
AcDb2dVertex
 10
32.2222
 20
47.491076
 30
0.0
  0
VERTEX
  5
16F
330
16A
100
AcDbEntity
  8
001
 62
     5
370
    50
100
AcDbVertex
100
AcDb2dVertex
 10
32.393511
 20
47.529899
 30
0.0
  0
VERTEX
  5
170
330
16A
100
AcDbEntity
  8
001
 62
     5
370
    50
100
AcDbVertex
100
AcDb2dVertex
 10
32.546018
 20
47.583566
 30
0.0
  0
VERTEX
  5
171
330
16A
100
AcDbEntity
  8
001
 62
     5
370
    50
100
AcDbVertex
100
AcDb2dVertex
 10
32.699103
 20
47.652034
 30
0.0
  0
VERTEX
  5
172
330
16A
100
AcDbEntity
  8
001
 62
     5
370
    50
100
AcDbVertex
100
AcDb2dVertex
 10
32.849849
 20
47.734588
 30
0.0
  0
VERTEX
  5
173
330
16A
100
AcDbEntity
  8
001
 62
     5
370
    50
100
AcDbVertex
100
AcDb2dVertex
 10
33.251761
 20
48.063591
 30
0.0
  0
VERTEX
  5
174
330
16A
100
AcDbEntity
  8
001
 62
     5
370
    50
100
AcDbVertex
100
AcDb2dVertex
 10
33.553794
 20
48.484948
 30
0.0
  0
VERTEX
  5
175
330
16A
100
AcDbEntity
  8
001
 62
     5
370
    50
100
AcDbVertex
100
AcDb2dVertex
 10
33.695965
 20
48.810459
 30
0.0
  0
VERTEX
  5
176
330
16A
100
AcDbEntity
  8
001
 62
     5
370
    50
100
AcDbVertex
100
AcDb2dVertex
 10
33.782233
 20
49.153972
 30
0.0
  0
VERTEX
  5
177
330
16A
100
AcDbEntity
  8
001
 62
     5
370
    50
100
AcDbVertex
100
AcDb2dVertex
 10
33.804147
 20
49.331412
 30
0.0
  0
VERTEX
  5
178
330
16A
100
AcDbEntity
  8
001
 62
     5
370
    50
100
AcDbVertex
100
AcDb2dVertex
 10
33.811447
 20
49.509951
 30
0.0
  0
VERTEX
  5
179
330
16A
100
AcDbEntity
  8
001
 62
     5
370
    50
100
AcDbVertex
100
AcDb2dVertex
 10
33.804142
 20
49.688491
 30
0.0
  0
VERTEX
  5
17A
330
16A
100
AcDbEntity
  8
001
 62
     5
370
    50
100
AcDbVertex
100
AcDb2dVertex
 10
33.782224
 20
49.86593
 30
0.0
  0
VERTEX
  5
17B
330
16A
100
AcDbEntity
  8
001
 62
     5
370
    50
100
AcDbVertex
100
AcDb2dVertex
 10
33.695948
 20
50.209441
 30
0.0
  0
VERTEX
  5
17C
330
16A
100
AcDbEntity
  8
001
 62
     5
370
    50
100
AcDbVertex
100
AcDb2dVertex
 10
33.553769
 20
50.534948
 30
0.0
  0
VERTEX
  5
17D
330
16A
100
AcDbEntity
  8
001
 62
     5
370
    50
100
AcDbVertex
100
AcDb2dVertex
 10
33.251726
 20
50.956298
 30
0.0
  0
VERTEX
  5
17E
330
16A
100
AcDbEntity
  8
001
 62
     5
370
    50
100
AcDbVertex
100
AcDb2dVertex
 10
32.849806
 20
51.285292
 30
0.0
  0
VERTEX
  5
17F
330
16A
100
AcDbEntity
  8
001
 62
     5
370
    50
100
AcDbVertex
100
AcDb2dVertex
 10
32.699059
 20
51.367841
 30
0.0
  0
VERTEX
  5
180
330
16A
100
AcDbEntity
  8
001
 62
     5
370
    50
100
AcDbVertex
100
AcDb2dVertex
 10
32.545972
 20
51.436306
 30
0.0
  0
VERTEX
  5
181
330
16A
100
AcDbEntity
  8
001
 62
     5
370
    50
100
AcDbVertex
100
AcDb2dVertex
 10
32.393464
 20
51.489969
 30
0.0
  0
VERTEX
  5
182
330
16A
100
AcDbEntity
  8
001
 62
     5
370
    50
100
AcDbVertex
100
AcDb2dVertex
 10
32.222151
 20
51.528788
 30
0.0
  0
VERTEX
  5
183
330
16A
100
AcDbEntity
  8
001
 62
     5
370
    50
100
AcDbVertex
100
AcDb2dVertex
 10
32.029206
 20
51.552121
 30
0.0
  0
VERTEX
  5
184
330
16A
100
AcDbEntity
  8
001
 62
     5
370
    50
100
AcDbVertex
100
AcDb2dVertex
 10
31.888184
 20
51.559928
 30
0.0
  0
SEQEND
  5
16B
330
16A
100
AcDbEntity
  8
001
370
    50
  0
POLYLINE
  5
185
330
64
100
AcDbEntity
  8
001
 62
     5
370
    50
100
AcDb2dPolyline
 66
     1
 10
0.0
 20
0.0
 30
0.0
  0
VERTEX
  5
187
330
185
100
AcDbEntity
  8
001
 62
     5
370
    50
100
AcDbVertex
100
AcDb2dVertex
 10
32.167312
 20
51.518874
 30
0.0
  0
VERTEX
  5
188
330
185
100
AcDbEntity
  8
001
 62
     5
370
    50
100
AcDbVertex
100
AcDb2dVertex
 10
32.147426
 20
51.52305
 30
0.0
  0
VERTEX
  5
189
330
185
100
AcDbEntity
  8
001
 62
     5
370
    50
100
AcDbVertex
100
AcDb2dVertex
 10
32.118295
 20
51.528787
 30
0.0
  0
VERTEX
  5
18A
330
185
100
AcDbEntity
  8
001
 62
     5
370
    50
100
AcDbVertex
100
AcDb2dVertex
 10
31.92078
 20
51.554032
 30
0.0
  0
VERTEX
  5
18B
330
185
100
AcDbEntity
  8
001
 62
     5
370
    50
100
AcDbVertex
100
AcDb2dVertex
 10
31.784327
 20
51.559927
 30
0.0
  0
SEQEND
  5
186
330
185
100
AcDbEntity
  8
001
370
    50
  0
POLYLINE
  5
18C
330
64
100
AcDbEntity
  8
001
 62
     5
370
    50
100
AcDb2dPolyline
 66
     1
 10
0.0
 20
0.0
 30
0.0
  0
VERTEX
  5
18E
330
18C
100
AcDbEntity
  8
001
 62
     5
370
    50
100
AcDbVertex
100
AcDb2dVertex
 10
31.377137
 20
47.506407
 30
0.0
  0
VERTEX
  5
18F
330
18C
100
AcDbEntity
  8
001
 62
     5
370
    50
100
AcDbVertex
100
AcDb2dVertex
 10
31.40684
 20
47.499843
 30
0.0
  0
VERTEX
  5
190
330
18C
100
AcDbEntity
  8
001
 62
     5
370
    50
100
AcDbVertex
100
AcDb2dVertex
 10
31.450409
 20
47.491067
 30
0.0
  0
VERTEX
  5
191
330
18C
100
AcDbEntity
  8
001
 62
     5
370
    50
100
AcDbVertex
100
AcDb2dVertex
 10
31.647917
 20
47.465824
 30
0.0
  0
VERTEX
  5
192
330
18C
100
AcDbEntity
  8
001
 62
     5
370
    50
100
AcDbVertex
100
AcDb2dVertex
 10
31.784377
 20
47.459927
 30
0.0
  0
SEQEND
  5
18D
330
18C
100
AcDbEntity
  8
001
370
    50
  0
LINE
  5
193
330
64
100
AcDbEntity
  8
001
 62
     5
370
    50
100
AcDbLine
 10
31.784377
 20
47.459927
 30
0.0
 11
31.888233
 21
47.459928
 31
0.0
  0
LINE
  5
194
330
64
100
AcDbEntity
  8
001
 62
     5
370
    50
100
AcDbLine
 10
31.888184
 20
51.559928
 30
0.0
 11
31.784327
 21
51.559927
 31
0.0
  0
POLYLINE
  5
195
330
64
100
AcDbEntity
  8
001
 62
     5
370
    50
100
AcDb2dPolyline
 66
     1
 10
0.0
 20
0.0
 30
0.0
  0
VERTEX
  5
197
330
195
100
AcDbEntity
  8
001
 62
     5
370
    50
100
AcDbVertex
100
AcDb2dVertex
 10
32.341799
 20
48.479446
 30
0.0
  0
VERTEX
  5
198
330
195
100
AcDbEntity
  8
001
 62
     5
370
    50
100
AcDbVertex
100
AcDb2dVertex
 10
32.35607
 20
48.472185
 30
0.0
  0
VERTEX
  5
199
330
195
100
AcDbEntity
  8
001
 62
     5
370
    50
100
AcDbVertex
100
AcDb2dVertex
 10
32.375977
 20
48.46316
 30
0.0
  0
VERTEX
  5
19A
330
195
100
AcDbEntity
  8
001
 62
     5
370
    50
100
AcDbVertex
100
AcDb2dVertex
 10
32.397769
 20
48.455308
 30
0.0
  0
VERTEX
  5
19B
330
195
100
AcDbEntity
  8
001
 62
     5
370
    50
100
AcDbVertex
100
AcDb2dVertex
 10
32.420206
 20
48.450528
 30
0.0
  0
VERTEX
  5
19C
330
195
100
AcDbEntity
  8
001
 62
     5
370
    50
100
AcDbVertex
100
AcDb2dVertex
 10
32.446368
 20
48.447445
 30
0.0
  0
VERTEX
  5
19D
330
195
100
AcDbEntity
  8
001
 62
     5
370
    50
100
AcDbVertex
100
AcDb2dVertex
 10
32.465821
 20
48.446275
 30
0.0
  0
SEQEND
  5
196
330
195
100
AcDbEntity
  8
001
370
    50
  0
POLYLINE
  5
19E
330
64
100
AcDbEntity
  8
001
 62
     5
370
    50
100
AcDb2dPolyline
 66
     1
 10
0.0
 20
0.0
 30
0.0
  0
VERTEX
  5
1A0
330
19E
100
AcDbEntity
  8
001
 62
     5
370
    50
100
AcDbVertex
100
AcDb2dVertex
 10
32.107253
 20
48.542176
 30
0.0
  0
VERTEX
  5
1A1
330
19E
100
AcDbEntity
  8
001
 62
     5
370
    50
100
AcDbVertex
100
AcDb2dVertex
 10
32.070851
 20
48.540203
 30
0.0
  0
VERTEX
  5
1A2
330
19E
100
AcDbEntity
  8
001
 62
     5
370
    50
100
AcDbVertex
100
AcDb2dVertex
 10
32.020988
 20
48.53413
 30
0.0
  0
VERTEX
  5
1A3
330
19E
100
AcDbEntity
  8
001
 62
     5
370
    50
100
AcDbVertex
100
AcDb2dVertex
 10
31.976614
 20
48.523878
 30
0.0
  0
VERTEX
  5
1A4
330
19E
100
AcDbEntity
  8
001
 62
     5
370
    50
100
AcDbVertex
100
AcDb2dVertex
 10
31.937345
 20
48.51024
 30
0.0
  0
VERTEX
  5
1A5
330
19E
100
AcDbEntity
  8
001
 62
     5
370
    50
100
AcDbVertex
100
AcDb2dVertex
 10
31.898279
 20
48.493414
 30
0.0
  0
VERTEX
  5
1A6
330
19E
100
AcDbEntity
  8
001
 62
     5
370
    50
100
AcDbVertex
100
AcDb2dVertex
 10
31.858864
 20
48.471231
 30
0.0
  0
VERTEX
  5
1A7
330
19E
100
AcDbEntity
  8
001
 62
     5
370
    50
100
AcDbVertex
100
AcDb2dVertex
 10
31.747873
 20
48.371885
 30
0.0
  0
VERTEX
  5
1A8
330
19E
100
AcDbEntity
  8
001
 62
     5
370
    50
100
AcDbVertex
100
AcDb2dVertex
 10
31.679801
 20
48.282457
 30
0.0
  0
SEQEND
  5
19F
330
19E
100
AcDbEntity
  8
001
370
    50
  0
POLYLINE
  5
1A9
330
64
100
AcDbEntity
  8
001
 62
     5
370
    50
100
AcDb2dPolyline
 66
     1
 10
0.0
 20
0.0
 30
0.0
  0
VERTEX
  5
1AB
330
1A9
100
AcDbEntity
  8
001
 62
     5
370
    50
100
AcDbVertex
100
AcDb2dVertex
 10
32.647849
 20
48.524402
 30
0.0
  0
VERTEX
  5
1AC
330
1A9
100
AcDbEntity
  8
001
 62
     5
370
    50
100
AcDbVertex
100
AcDb2dVertex
 10
32.631121
 20
48.528769
 30
0.0
  0
VERTEX
  5
1AD
330
1A9
100
AcDbEntity
  8
001
 62
     5
370
    50
100
AcDbVertex
100
AcDb2dVertex
 10
32.606459
 20
48.534137
 30
0.0
  0
VERTEX
  5
1AE
330
1A9
100
AcDbEntity
  8
001
 62
     5
370
    50
100
AcDbVertex
100
AcDb2dVertex
 10
32.555448
 20
48.540656
 30
0.0
  0
VERTEX
  5
1AF
330
1A9
100
AcDbEntity
  8
001
 62
     5
370
    50
100
AcDbVertex
100
AcDb2dVertex
 10
32.520194
 20
48.542181
 30
0.0
  0
SEQEND
  5
1AA
330
1A9
100
AcDbEntity
  8
001
370
    50
  0
LINE
  5
1B0
330
64
100
AcDbEntity
  8
001
 62
     5
370
    50
100
AcDbLine
 10
32.520194
 20
48.542181
 30
0.0
 11
32.107253
 21
48.542176
 31
0.0
  0
POLYLINE
  5
1B1
330
64
100
AcDbEntity
  8
001
 62
     5
370
    50
100
AcDb2dPolyline
 66
     1
 10
0.0
 20
0.0
 30
0.0
  0
VERTEX
  5
1B3
330
1B1
100
AcDbEntity
  8
001
 62
     5
370
    50
100
AcDbVertex
100
AcDb2dVertex
 10
32.23901
 20
50.603661
 30
0.0
  0
VERTEX
  5
1B4
330
1B1
100
AcDbEntity
  8
001
 62
     5
370
    50
100
AcDbVertex
100
AcDb2dVertex
 10
32.23785
 20
50.62015
 30
0.0
  0
VERTEX
  5
1B5
330
1B1
100
AcDbEntity
  8
001
 62
     5
370
    50
100
AcDbVertex
100
AcDb2dVertex
 10
32.235153
 20
50.643354
 30
0.0
  0
VERTEX
  5
1B6
330
1B1
100
AcDbEntity
  8
001
 62
     5
370
    50
100
AcDbVertex
100
AcDb2dVertex
 10
32.223282
 20
50.693185
 30
0.0
  0
VERTEX
  5
1B7
330
1B1
100
AcDbEntity
  8
001
 62
     5
370
    50
100
AcDbVertex
100
AcDb2dVertex
 10
32.203949
 20
50.734732
 30
0.0
  0
VERTEX
  5
1B8
330
1B1
100
AcDbEntity
  8
001
 62
     5
370
    50
100
AcDbVertex
100
AcDb2dVertex
 10
32.162728
 20
50.791156
 30
0.0
  0
VERTEX
  5
1B9
330
1B1
100
AcDbEntity
  8
001
 62
     5
370
    50
100
AcDbVertex
100
AcDb2dVertex
 10
32.107798
 20
50.837218
 30
0.0
  0
VERTEX
  5
1BA
330
1B1
100
AcDbEntity
  8
001
 62
     5
370
    50
100
AcDbVertex
100
AcDb2dVertex
 10
32.087207
 20
50.84855
 30
0.0
  0
VERTEX
  5
1BB
330
1B1
100
AcDbEntity
  8
001
 62
     5
370
    50
100
AcDbVertex
100
AcDb2dVertex
 10
32.066299
 20
50.857845
 30
0.0
  0
VERTEX
  5
1BC
330
1B1
100
AcDbEntity
  8
001
 62
     5
370
    50
100
AcDbVertex
100
AcDb2dVertex
 10
32.045469
 20
50.865159
 30
0.0
  0
VERTEX
  5
1BD
330
1B1
100
AcDbEntity
  8
001
 62
     5
370
    50
100
AcDbVertex
100
AcDb2dVertex
 10
32.02207
 20
50.870476
 30
0.0
  0
VERTEX
  5
1BE
330
1B1
100
AcDbEntity
  8
001
 62
     5
370
    50
100
AcDbVertex
100
AcDb2dVertex
 10
31.995716
 20
50.873666
 30
0.0
  0
VERTEX
  5
1BF
330
1B1
100
AcDbEntity
  8
001
 62
     5
370
    50
100
AcDbVertex
100
AcDb2dVertex
 10
31.976455
 20
50.87473
 30
0.0
  0
SEQEND
  5
1B2
330
1B1
100
AcDbEntity
  8
001
370
    50
  0
POLYLINE
  5
1C0
330
64
100
AcDbEntity
  8
001
 62
     5
370
    50
100
AcDb2dPolyline
 66
     1
 10
0.0
 20
0.0
 30
0.0
  0
VERTEX
  5
1C2
330
1C0
100
AcDbEntity
  8
001
 62
     5
370
    50
100
AcDbVertex
100
AcDb2dVertex
 10
32.182926
 20
50.767837
 30
0.0
  0
VERTEX
  5
1C3
330
1C0
100
AcDbEntity
  8
001
 62
     5
370
    50
100
AcDbVertex
100
AcDb2dVertex
 10
32.178657
 20
50.761865
 30
0.0
  0
VERTEX
  5
1C4
330
1C0
100
AcDbEntity
  8
001
 62
     5
370
    50
100
AcDbVertex
100
AcDb2dVertex
 10
32.172677
 20
50.752962
 30
0.0
  0
VERTEX
  5
1C5
330
1C0
100
AcDbEntity
  8
001
 62
     5
370
    50
100
AcDbVertex
100
AcDb2dVertex
 10
32.167041
 20
50.743789
 30
0.0
  0
VERTEX
  5
1C6
330
1C0
100
AcDbEntity
  8
001
 62
     5
370
    50
100
AcDbVertex
100
AcDb2dVertex
 10
32.163368
 20
50.737401
 30
0.0
  0
SEQEND
  5
1C1
330
1C0
100
AcDbEntity
  8
001
370
    50
  0
POLYLINE
  5
1C7
330
64
100
AcDbEntity
  8
001
 62
     5
370
    50
100
AcDb2dPolyline
 66
     1
 10
0.0
 20
0.0
 30
0.0
  0
VERTEX
  5
1C9
330
1C7
100
AcDbEntity
  8
001
 62
     5
370
    50
100
AcDbVertex
100
AcDb2dVertex
 10
31.322975
 20
50.477676
 30
0.0
  0
VERTEX
  5
1CA
330
1C7
100
AcDbEntity
  8
001
 62
     5
370
    50
100
AcDbVertex
100
AcDb2dVertex
 10
31.359377
 20
50.479649
 30
0.0
  0
VERTEX
  5
1CB
330
1C7
100
AcDbEntity
  8
001
 62
     5
370
    50
100
AcDbVertex
100
AcDb2dVertex
 10
31.40924
 20
50.485722
 30
0.0
  0
VERTEX
  5
1CC
330
1C7
100
AcDbEntity
  8
001
 62
     5
370
    50
100
AcDbVertex
100
AcDb2dVertex
 10
31.453615
 20
50.495974
 30
0.0
  0
VERTEX
  5
1CD
330
1C7
100
AcDbEntity
  8
001
 62
     5
370
    50
100
AcDbVertex
100
AcDb2dVertex
 10
31.492884
 20
50.509612
 30
0.0
  0
VERTEX
  5
1CE
330
1C7
100
AcDbEntity
  8
001
 62
     5
370
    50
100
AcDbVertex
100
AcDb2dVertex
 10
31.53195
 20
50.526438
 30
0.0
  0
VERTEX
  5
1CF
330
1C7
100
AcDbEntity
  8
001
 62
     5
370
    50
100
AcDbVertex
100
AcDb2dVertex
 10
31.571364
 20
50.548622
 30
0.0
  0
VERTEX
  5
1D0
330
1C7
100
AcDbEntity
  8
001
 62
     5
370
    50
100
AcDbVertex
100
AcDb2dVertex
 10
31.682356
 20
50.647967
 30
0.0
  0
VERTEX
  5
1D1
330
1C7
100
AcDbEntity
  8
001
 62
     5
370
    50
100
AcDbVertex
100
AcDb2dVertex
 10
31.750427
 20
50.737396
 30
0.0
  0
SEQEND
  5
1C8
330
1C7
100
AcDbEntity
  8
001
370
    50
  0
LINE
  5
1D2
330
64
100
AcDbEntity
  8
001
 62
     5
370
    50
100
AcDbLine
 10
31.322975
 20
50.477676
 30
0.0
 11
31.735916
 21
50.477681
 31
0.0
  0
POLYLINE
  5
1D3
330
64
100
AcDbEntity
  8
001
 62
     5
370
    50
100
AcDb2dPolyline
 66
     1
 10
0.0
 20
0.0
 30
0.0
  0
VERTEX
  5
1D5
330
1D3
100
AcDbEntity
  8
001
 62
     5
370
    50
100
AcDbVertex
100
AcDb2dVertex
 10
31.735916
 20
50.477681
 30
0.0
  0
VERTEX
  5
1D6
330
1D3
100
AcDbEntity
  8
001
 62
     5
370
    50
100
AcDbVertex
100
AcDb2dVertex
 10
31.772318
 20
50.479654
 30
0.0
  0
VERTEX
  5
1D7
330
1D3
100
AcDbEntity
  8
001
 62
     5
370
    50
100
AcDbVertex
100
AcDb2dVertex
 10
31.822181
 20
50.485727
 30
0.0
  0
VERTEX
  5
1D8
330
1D3
100
AcDbEntity
  8
001
 62
     5
370
    50
100
AcDbVertex
100
AcDb2dVertex
 10
31.866556
 20
50.495979
 30
0.0
  0
VERTEX
  5
1D9
330
1D3
100
AcDbEntity
  8
001
 62
     5
370
    50
100
AcDbVertex
100
AcDb2dVertex
 10
31.905825
 20
50.509617
 30
0.0
  0
VERTEX
  5
1DA
330
1D3
100
AcDbEntity
  8
001
 62
     5
370
    50
100
AcDbVertex
100
AcDb2dVertex
 10
31.944891
 20
50.526443
 30
0.0
  0
VERTEX
  5
1DB
330
1D3
100
AcDbEntity
  8
001
 62
     5
370
    50
100
AcDbVertex
100
AcDb2dVertex
 10
31.984305
 20
50.548627
 30
0.0
  0
VERTEX
  5
1DC
330
1D3
100
AcDbEntity
  8
001
 62
     5
370
    50
100
AcDbVertex
100
AcDb2dVertex
 10
32.095297
 20
50.647972
 30
0.0
  0
VERTEX
  5
1DD
330
1D3
100
AcDbEntity
  8
001
 62
     5
370
    50
100
AcDbVertex
100
AcDb2dVertex
 10
32.163368
 20
50.737401
 30
0.0
  0
SEQEND
  5
1D4
330
1D3
100
AcDbEntity
  8
001
370
    50
  0
POLYLINE
  5
1DE
330
64
100
AcDbEntity
  8
001
 62
     5
370
    50
100
AcDb2dPolyline
 66
     1
 10
0.0
 20
0.0
 30
0.0
  0
VERTEX
  5
1E0
330
1DE
100
AcDbEntity
  8
001
 62
     5
370
    50
100
AcDbVertex
100
AcDb2dVertex
 10
31.191218
 20
48.416191
 30
0.0
  0
VERTEX
  5
1E1
330
1DE
100
AcDbEntity
  8
001
 62
     5
370
    50
100
AcDbVertex
100
AcDb2dVertex
 10
31.192378
 20
48.399702
 30
0.0
  0
VERTEX
  5
1E2
330
1DE
100
AcDbEntity
  8
001
 62
     5
370
    50
100
AcDbVertex
100
AcDb2dVertex
 10
31.195076
 20
48.376498
 30
0.0
  0
VERTEX
  5
1E3
330
1DE
100
AcDbEntity
  8
001
 62
     5
370
    50
100
AcDbVertex
100
AcDb2dVertex
 10
31.206946
 20
48.326668
 30
0.0
  0
VERTEX
  5
1E4
330
1DE
100
AcDbEntity
  8
001
 62
     5
370
    50
100
AcDbVertex
100
AcDb2dVertex
 10
31.226279
 20
48.28512
 30
0.0
  0
VERTEX
  5
1E5
330
1DE
100
AcDbEntity
  8
001
 62
     5
370
    50
100
AcDbVertex
100
AcDb2dVertex
 10
31.2675
 20
48.228697
 30
0.0
  0
VERTEX
  5
1E6
330
1DE
100
AcDbEntity
  8
001
 62
     5
370
    50
100
AcDbVertex
100
AcDb2dVertex
 10
31.32243
 20
48.182634
 30
0.0
  0
VERTEX
  5
1E7
330
1DE
100
AcDbEntity
  8
001
 62
     5
370
    50
100
AcDbVertex
100
AcDb2dVertex
 10
31.343022
 20
48.171302
 30
0.0
  0
VERTEX
  5
1E8
330
1DE
100
AcDbEntity
  8
001
 62
     5
370
    50
100
AcDbVertex
100
AcDb2dVertex
 10
31.36393
 20
48.162008
 30
0.0
  0
VERTEX
  5
1E9
330
1DE
100
AcDbEntity
  8
001
 62
     5
370
    50
100
AcDbVertex
100
AcDb2dVertex
 10
31.38476
 20
48.154693
 30
0.0
  0
VERTEX
  5
1EA
330
1DE
100
AcDbEntity
  8
001
 62
     5
370
    50
100
AcDbVertex
100
AcDb2dVertex
 10
31.408159
 20
48.149376
 30
0.0
  0
VERTEX
  5
1EB
330
1DE
100
AcDbEntity
  8
001
 62
     5
370
    50
100
AcDbVertex
100
AcDb2dVertex
 10
31.434512
 20
48.146186
 30
0.0
  0
VERTEX
  5
1EC
330
1DE
100
AcDbEntity
  8
001
 62
     5
370
    50
100
AcDbVertex
100
AcDb2dVertex
 10
31.453774
 20
48.145123
 30
0.0
  0
SEQEND
  5
1DF
330
1DE
100
AcDbEntity
  8
001
370
    50
  0
POLYLINE
  5
1ED
330
64
100
AcDbEntity
  8
001
 62
     5
370
    50
100
AcDb2dPolyline
 66
     1
 10
0.0
 20
0.0
 30
0.0
  0
VERTEX
  5
1EF
330
1ED
100
AcDbEntity
  8
001
 62
     5
370
    50
100
AcDbVertex
100
AcDb2dVertex
 10
31.604159
 20
48.416196
 30
0.0
  0
VERTEX
  5
1F0
330
1ED
100
AcDbEntity
  8
001
 62
     5
370
    50
100
AcDbVertex
100
AcDb2dVertex
 10
31.605396
 20
48.399582
 30
0.0
  0
VERTEX
  5
1F1
330
1ED
100
AcDbEntity
  8
001
 62
     5
370
    50
100
AcDbVertex
100
AcDb2dVertex
 10
31.608017
 20
48.376503
 30
0.0
  0
VERTEX
  5
1F2
330
1ED
100
AcDbEntity
  8
001
 62
     5
370
    50
100
AcDbVertex
100
AcDb2dVertex
 10
31.618424
 20
48.329044
 30
0.0
  0
VERTEX
  5
1F3
330
1ED
100
AcDbEntity
  8
001
 62
     5
370
    50
100
AcDbVertex
100
AcDb2dVertex
 10
31.63922
 20
48.285125
 30
0.0
  0
VERTEX
  5
1F4
330
1ED
100
AcDbEntity
  8
001
 62
     5
370
    50
100
AcDbVertex
100
AcDb2dVertex
 10
31.65114
 20
48.265635
 30
0.0
  0
VERTEX
  5
1F5
330
1ED
100
AcDbEntity
  8
001
 62
     5
370
    50
100
AcDbVertex
100
AcDb2dVertex
 10
31.660243
 20
48.252021
 30
0.0
  0
SEQEND
  5
1EE
330
1ED
100
AcDbEntity
  8
001
370
    50
  0
POLYLINE
  5
1F6
330
64
100
AcDbEntity
  8
001
 62
     5
370
    50
100
AcDb2dPolyline
 66
     1
 10
0.0
 20
0.0
 30
0.0
  0
VERTEX
  5
1F8
330
1F6
100
AcDbEntity
  8
001
 62
     5
370
    50
100
AcDbVertex
100
AcDb2dVertex
 10
31.604159
 20
48.416196
 30
0.0
  0
VERTEX
  5
1F9
330
1F6
100
AcDbEntity
  8
001
 62
     5
370
    50
100
AcDbVertex
100
AcDb2dVertex
 10
31.601965
 20
48.447379
 30
0.0
  0
VERTEX
  5
1FA
330
1F6
100
AcDbEntity
  8
001
 62
     5
370
    50
100
AcDbVertex
100
AcDb2dVertex
 10
31.596863
 20
48.491262
 30
0.0
  0
VERTEX
  5
1FB
330
1F6
100
AcDbEntity
  8
001
 62
     5
370
    50
100
AcDbVertex
100
AcDb2dVertex
 10
31.574412
 20
48.5855
 30
0.0
  0
VERTEX
  5
1FC
330
1F6
100
AcDbEntity
  8
001
 62
     5
370
    50
100
AcDbVertex
100
AcDb2dVertex
 10
31.537853
 20
48.664072
 30
0.0
  0
VERTEX
  5
1FD
330
1F6
100
AcDbEntity
  8
001
 62
     5
370
    50
100
AcDbVertex
100
AcDb2dVertex
 10
31.459914
 20
48.77077
 30
0.0
  0
VERTEX
  5
1FE
330
1F6
100
AcDbEntity
  8
001
 62
     5
370
    50
100
AcDbVertex
100
AcDb2dVertex
 10
31.356016
 20
48.857888
 30
0.0
  0
VERTEX
  5
1FF
330
1F6
100
AcDbEntity
  8
001
 62
     5
370
    50
100
AcDbVertex
100
AcDb2dVertex
 10
31.317058
 20
48.879326
 30
0.0
  0
VERTEX
  5
200
330
1F6
100
AcDbEntity
  8
001
 62
     5
370
    50
100
AcDbVertex
100
AcDb2dVertex
 10
31.277535
 20
48.896896
 30
0.0
  0
VERTEX
  5
201
330
1F6
100
AcDbEntity
  8
001
 62
     5
370
    50
100
AcDbVertex
100
AcDb2dVertex
 10
31.238196
 20
48.910707
 30
0.0
  0
VERTEX
  5
202
330
1F6
100
AcDbEntity
  8
001
 62
     5
370
    50
100
AcDbVertex
100
AcDb2dVertex
 10
31.193891
 20
48.920784
 30
0.0
  0
VERTEX
  5
203
330
1F6
100
AcDbEntity
  8
001
 62
     5
370
    50
100
AcDbVertex
100
AcDb2dVertex
 10
31.147178
 20
48.926631
 30
0.0
  0
VERTEX
  5
204
330
1F6
100
AcDbEntity
  8
001
 62
     5
370
    50
100
AcDbVertex
100
AcDb2dVertex
 10
31.113111
 20
48.928796
 30
0.0
  0
SEQEND
  5
1F7
330
1F6
100
AcDbEntity
  8
001
370
    50
  0
POLYLINE
  5
205
330
64
100
AcDbEntity
  8
001
 62
     5
370
    50
100
AcDb2dPolyline
 66
     1
 10
0.0
 20
0.0
 30
0.0
  0
VERTEX
  5
207
330
205
100
AcDbEntity
  8
001
 62
     5
370
    50
100
AcDbVertex
100
AcDb2dVertex
 10
31.08843
 20
50.540407
 30
0.0
  0
VERTEX
  5
208
330
205
100
AcDbEntity
  8
001
 62
     5
370
    50
100
AcDbVertex
100
AcDb2dVertex
 10
31.074159
 20
50.547668
 30
0.0
  0
VERTEX
  5
209
330
205
100
AcDbEntity
  8
001
 62
     5
370
    50
100
AcDbVertex
100
AcDb2dVertex
 10
31.054251
 20
50.556692
 30
0.0
  0
VERTEX
  5
20A
330
205
100
AcDbEntity
  8
001
 62
     5
370
    50
100
AcDbVertex
100
AcDb2dVertex
 10
31.032459
 20
50.564545
 30
0.0
  0
VERTEX
  5
20B
330
205
100
AcDbEntity
  8
001
 62
     5
370
    50
100
AcDbVertex
100
AcDb2dVertex
 10
31.010022
 20
50.569324
 30
0.0
  0
VERTEX
  5
20C
330
205
100
AcDbEntity
  8
001
 62
     5
370
    50
100
AcDbVertex
100
AcDb2dVertex
 10
30.98386
 20
50.572407
 30
0.0
  0
VERTEX
  5
20D
330
205
100
AcDbEntity
  8
001
 62
     5
370
    50
100
AcDbVertex
100
AcDb2dVertex
 10
30.964407
 20
50.573577
 30
0.0
  0
SEQEND
  5
206
330
205
100
AcDbEntity
  8
001
370
    50
  0
POLYLINE
  5
20E
330
64
100
AcDbEntity
  8
001
 62
     5
370
    50
100
AcDb2dPolyline
 66
     1
 10
0.0
 20
0.0
 30
0.0
  0
VERTEX
  5
210
330
20E
100
AcDbEntity
  8
001
 62
     5
370
    50
100
AcDbVertex
100
AcDb2dVertex
 10
31.19532
 20
50.495456
 30
0.0
  0
VERTEX
  5
211
330
20E
100
AcDbEntity
  8
001
 62
     5
370
    50
100
AcDbVertex
100
AcDb2dVertex
 10
31.174812
 20
50.470546
 30
0.0
  0
VERTEX
  5
212
330
20E
100
AcDbEntity
  8
001
 62
     5
370
    50
100
AcDbVertex
100
AcDb2dVertex
 10
31.149857
 20
50.433579
 30
0.0
  0
VERTEX
  5
213
330
20E
100
AcDbEntity
  8
001
 62
     5
370
    50
100
AcDbVertex
100
AcDb2dVertex
 10
31.128946
 20
50.387791
 30
0.0
  0
VERTEX
  5
214
330
20E
100
AcDbEntity
  8
001
 62
     5
370
    50
100
AcDbVertex
100
AcDb2dVertex
 10
31.118656
 20
50.342201
 30
0.0
  0
VERTEX
  5
215
330
20E
100
AcDbEntity
  8
001
 62
     5
370
    50
100
AcDbVertex
100
AcDb2dVertex
 10
31.115906
 20
50.31792
 30
0.0
  0
VERTEX
  5
216
330
20E
100
AcDbEntity
  8
001
 62
     5
370
    50
100
AcDbVertex
100
AcDb2dVertex
 10
31.114665
 20
50.293579
 30
0.0
  0
VERTEX
  5
217
330
20E
100
AcDbEntity
  8
001
 62
     5
370
    50
100
AcDbVertex
100
AcDb2dVertex
 10
31.115276
 20
50.269808
 30
0.0
  0
VERTEX
  5
218
330
20E
100
AcDbEntity
  8
001
 62
     5
370
    50
100
AcDbVertex
100
AcDb2dVertex
 10
31.118657
 20
50.244958
 30
0.0
  0
VERTEX
  5
219
330
20E
100
AcDbEntity
  8
001
 62
     5
370
    50
100
AcDbVertex
100
AcDb2dVertex
 10
31.133265
 20
50.193255
 30
0.0
  0
VERTEX
  5
21A
330
20E
100
AcDbEntity
  8
001
 62
     5
370
    50
100
AcDbVertex
100
AcDb2dVertex
 10
31.148424
 20
50.156265
 30
0.0
  0
SEQEND
  5
20F
330
20E
100
AcDbEntity
  8
001
370
    50
  0
POLYLINE
  5
21B
330
64
100
AcDbEntity
  8
001
 62
     5
370
    50
100
AcDb2dPolyline
 66
     1
 10
0.0
 20
0.0
 30
0.0
  0
VERTEX
  5
21D
330
21B
100
AcDbEntity
  8
001
 62
     5
370
    50
100
AcDbVertex
100
AcDb2dVertex
 10
30.977474
 20
49.446677
 30
0.0
  0
VERTEX
  5
21E
330
21B
100
AcDbEntity
  8
001
 62
     5
370
    50
100
AcDbVertex
100
AcDb2dVertex
 10
31.056594
 20
49.518293
 30
0.0
  0
VERTEX
  5
21F
330
21B
100
AcDbEntity
  8
001
 62
     5
370
    50
100
AcDbVertex
100
AcDb2dVertex
 10
31.145714
 20
49.631822
 30
0.0
  0
VERTEX
  5
220
330
21B
100
AcDbEntity
  8
001
 62
     5
370
    50
100
AcDbVertex
100
AcDb2dVertex
 10
31.18515
 20
49.717336
 30
0.0
  0
VERTEX
  5
221
330
21B
100
AcDbEntity
  8
001
 62
     5
370
    50
100
AcDbVertex
100
AcDb2dVertex
 10
31.204721
 20
49.804633
 30
0.0
  0
VERTEX
  5
222
330
21B
100
AcDbEntity
  8
001
 62
     5
370
    50
100
AcDbVertex
100
AcDb2dVertex
 10
31.209932
 20
49.850659
 30
0.0
  0
VERTEX
  5
223
330
21B
100
AcDbEntity
  8
001
 62
     5
370
    50
100
AcDbVertex
100
AcDb2dVertex
 10
31.212267
 20
49.896584
 30
0.0
  0
VERTEX
  5
224
330
21B
100
AcDbEntity
  8
001
 62
     5
370
    50
100
AcDbVertex
100
AcDb2dVertex
 10
31.211108
 20
49.941508
 30
0.0
  0
VERTEX
  5
225
330
21B
100
AcDbEntity
  8
001
 62
     5
370
    50
100
AcDbVertex
100
AcDb2dVertex
 10
31.204718
 20
49.988535
 30
0.0
  0
VERTEX
  5
226
330
21B
100
AcDbEntity
  8
001
 62
     5
370
    50
100
AcDbVertex
100
AcDb2dVertex
 10
31.177093
 20
50.086327
 30
0.0
  0
VERTEX
  5
227
330
21B
100
AcDbEntity
  8
001
 62
     5
370
    50
100
AcDbVertex
100
AcDb2dVertex
 10
31.148424
 20
50.156265
 30
0.0
  0
SEQEND
  5
21C
330
21B
100
AcDbEntity
  8
001
370
    50
  0
POLYLINE
  5
228
330
64
100
AcDbEntity
  8
001
 62
     5
370
    50
100
AcDb2dPolyline
 66
     1
 10
0.0
 20
0.0
 30
0.0
  0
VERTEX
  5
22A
330
228
100
AcDbEntity
  8
001
 62
     5
370
    50
100
AcDbVertex
100
AcDb2dVertex
 10
30.977474
 20
49.446677
 30
0.0
  0
VERTEX
  5
22B
330
228
100
AcDbEntity
  8
001
 62
     5
370
    50
100
AcDbVertex
100
AcDb2dVertex
 10
30.935617
 20
49.408846
 30
0.0
  0
VERTEX
  5
22C
330
228
100
AcDbEntity
  8
001
 62
     5
370
    50
100
AcDbVertex
100
AcDb2dVertex
 10
30.888513
 20
49.348776
 30
0.0
  0
VERTEX
  5
22D
330
228
100
AcDbEntity
  8
001
 62
     5
370
    50
100
AcDbVertex
100
AcDb2dVertex
 10
30.867726
 20
49.303432
 30
0.0
  0
VERTEX
  5
22E
330
228
100
AcDbEntity
  8
001
 62
     5
370
    50
100
AcDbVertex
100
AcDb2dVertex
 10
30.857312
 20
49.257397
 30
0.0
  0
VERTEX
  5
22F
330
228
100
AcDbEntity
  8
001
 62
     5
370
    50
100
AcDbVertex
100
AcDb2dVertex
 10
30.854456
 20
49.23325
 30
0.0
  0
VERTEX
  5
230
330
228
100
AcDbEntity
  8
001
 62
     5
370
    50
100
AcDbVertex
100
AcDb2dVertex
 10
30.853322
 20
49.208776
 30
0.0
  0
VERTEX
  5
231
330
228
100
AcDbEntity
  8
001
 62
     5
370
    50
100
AcDbVertex
100
AcDb2dVertex
 10
30.854279
 20
49.184364
 30
0.0
  0
VERTEX
  5
232
330
228
100
AcDbEntity
  8
001
 62
     5
370
    50
100
AcDbVertex
100
AcDb2dVertex
 10
30.857313
 20
49.160154
 30
0.0
  0
VERTEX
  5
233
330
228
100
AcDbEntity
  8
001
 62
     5
370
    50
100
AcDbVertex
100
AcDb2dVertex
 10
30.869125
 20
49.113252
 30
0.0
  0
VERTEX
  5
234
330
228
100
AcDbEntity
  8
001
 62
     5
370
    50
100
AcDbVertex
100
AcDb2dVertex
 10
30.888517
 20
49.068776
 30
0.0
  0
VERTEX
  5
235
330
228
100
AcDbEntity
  8
001
 62
     5
370
    50
100
AcDbVertex
100
AcDb2dVertex
 10
30.929752
 20
49.011223
 30
0.0
  0
VERTEX
  5
236
330
228
100
AcDbEntity
  8
001
 62
     5
370
    50
100
AcDbVertex
100
AcDb2dVertex
 10
30.984668
 20
48.96629
 30
0.0
  0
VERTEX
  5
237
330
228
100
AcDbEntity
  8
001
 62
     5
370
    50
100
AcDbVertex
100
AcDb2dVertex
 10
31.005267
 20
48.955012
 30
0.0
  0
VERTEX
  5
238
330
228
100
AcDbEntity
  8
001
 62
     5
370
    50
100
AcDbVertex
100
AcDb2dVertex
 10
31.026167
 20
48.945664
 30
0.0
  0
VERTEX
  5
239
330
228
100
AcDbEntity
  8
001
 62
     5
370
    50
100
AcDbVertex
100
AcDb2dVertex
 10
31.046969
 20
48.938346
 30
0.0
  0
VERTEX
  5
23A
330
228
100
AcDbEntity
  8
001
 62
     5
370
    50
100
AcDbVertex
100
AcDb2dVertex
 10
31.070396
 20
48.933032
 30
0.0
  0
VERTEX
  5
23B
330
228
100
AcDbEntity
  8
001
 62
     5
370
    50
100
AcDbVertex
100
AcDb2dVertex
 10
31.095097
 20
48.929943
 30
0.0
  0
VERTEX
  5
23C
330
228
100
AcDbEntity
  8
001
 62
     5
370
    50
100
AcDbVertex
100
AcDb2dVertex
 10
31.113111
 20
48.928796
 30
0.0
  0
SEQEND
  5
229
330
228
100
AcDbEntity
  8
001
370
    50
  0
ENDBLK
  5
66
330
64
100
AcDbEntity
  8
0
100
AcDbBlockEnd
  0
BLOCK
  5
23E
330
23D
100
AcDbEntity
  8
0
100
AcDbBlockBegin
  2
C32GUX-2
 70
     0
 10
0.0
 20
0.0
 30
0.0
  3
C32GUX-2
  1

  0
LINE
  5
240
330
23D
100
AcDbEntity
  8
001
 62
    40
370
    50
100
AcDbLine
 10
38.019175
 20
48.602271
 30
0.0
 11
38.339789
 21
48.255929
 31
0.0
  0
LINE
  5
241
330
23D
100
AcDbEntity
  8
001
 62
    40
370
    50
100
AcDbLine
 10
38.244555
 20
47.721258
 30
0.0
 11
38.313706
 21
47.798019
 31
0.0
  0
POLYLINE
  5
242
330
23D
100
AcDbEntity
  8
001
 62
    40
370
    50
100
AcDb2dPolyline
 66
     1
 10
0.0
 20
0.0
 30
0.0
  0
VERTEX
  5
244
330
242
100
AcDbEntity
  8
001
 62
    40
370
    50
100
AcDbVertex
100
AcDb2dVertex
 10
38.244555
 20
47.721258
 30
0.0
  0
VERTEX
  5
245
330
242
100
AcDbEntity
  8
001
 62
    40
370
    50
100
AcDbVertex
100
AcDb2dVertex
 10
38.232498
 20
47.817495
 30
0.0
  0
VERTEX
  5
246
330
242
100
AcDbEntity
  8
001
 62
    40
370
    50
100
AcDbVertex
100
AcDb2dVertex
 10
38.209573
 20
47.957254
 30
0.0
  0
VERTEX
  5
247
330
242
100
AcDbEntity
  8
001
 62
    40
370
    50
100
AcDbVertex
100
AcDb2dVertex
 10
38.109984
 20
48.343702
 30
0.0
  0
VERTEX
  5
248
330
242
100
AcDbEntity
  8
001
 62
    40
370
    50
100
AcDbVertex
100
AcDb2dVertex
 10
38.019175
 20
48.602271
 30
0.0
  0
SEQEND
  5
243
330
242
100
AcDbEntity
  8
001
370
    50
  0
LINE
  5
249
330
23D
100
AcDbEntity
  8
001
 62
    40
370
    50
100
AcDbLine
 10
38.019175
 20
48.602271
 30
0.0
 11
33.4458
 21
54.911926
 31
0.0
  0
LINE
  5
24A
330
23D
100
AcDbEntity
  8
001
 62
    40
370
    50
100
AcDbLine
 10
33.265234
 20
55.256566
 30
0.0
 11
33.4458
 21
54.911926
 31
0.0
  0
LINE
  5
24B
330
23D
100
AcDbEntity
  8
001
 62
    40
370
    50
100
AcDbLine
 10
37.898244
 20
50.287915
 30
0.0
 11
37.616618
 21
50.676461
 31
0.0
  0
POLYLINE
  5
24C
330
23D
100
AcDbEntity
  8
001
 62
    40
370
    50
100
AcDb2dPolyline
 66
     1
 10
0.0
 20
0.0
 30
0.0
  0
VERTEX
  5
24E
330
24C
100
AcDbEntity
  8
001
 62
    40
370
    50
100
AcDbVertex
100
AcDb2dVertex
 10
35.272599
 20
47.065936
 30
0.0
  0
VERTEX
  5
24F
330
24C
100
AcDbEntity
  8
001
 62
    40
370
    50
100
AcDbVertex
100
AcDb2dVertex
 10
35.482792
 20
46.955165
 30
0.0
  0
VERTEX
  5
250
330
24C
100
AcDbEntity
  8
001
 62
    40
370
    50
100
AcDbVertex
100
AcDb2dVertex
 10
35.79603
 20
46.806004
 30
0.0
  0
VERTEX
  5
251
330
24C
100
AcDbEntity
  8
001
 62
    40
370
    50
100
AcDbVertex
100
AcDb2dVertex
 10
36.087418
 20
46.687508
 30
0.0
  0
VERTEX
  5
252
330
24C
100
AcDbEntity
  8
001
 62
    40
370
    50
100
AcDbVertex
100
AcDb2dVertex
 10
36.290284
 20
46.615146
 30
0.0
  0
SEQEND
  5
24D
330
24C
100
AcDbEntity
  8
001
370
    50
  0
LINE
  5
253
330
23D
100
AcDbEntity
  8
001
 62
    40
370
    50
100
AcDbLine
 10
33.94175
 20
48.902042
 30
0.0
 11
35.272599
 21
47.065936
 31
0.0
  0
POLYLINE
  5
254
330
23D
100
AcDbEntity
  8
001
 62
    40
370
    50
100
AcDb2dPolyline
 66
     1
 10
0.0
 20
0.0
 30
0.0
  0
VERTEX
  5
256
330
254
100
AcDbEntity
  8
001
 62
    40
370
    50
100
AcDbVertex
100
AcDb2dVertex
 10
33.94175
 20
48.902042
 30
0.0
  0
VERTEX
  5
257
330
254
100
AcDbEntity
  8
001
 62
    40
370
    50
100
AcDbVertex
100
AcDb2dVertex
 10
33.955267
 20
49.057342
 30
0.0
  0
VERTEX
  5
258
330
254
100
AcDbEntity
  8
001
 62
    40
370
    50
100
AcDbVertex
100
AcDb2dVertex
 10
33.964429
 20
49.212869
 30
0.0
  0
VERTEX
  5
259
330
254
100
AcDbEntity
  8
001
 62
    40
370
    50
100
AcDbVertex
100
AcDb2dVertex
 10
33.96551
 20
49.374728
 30
0.0
  0
VERTEX
  5
25A
330
254
100
AcDbEntity
  8
001
 62
    40
370
    50
100
AcDbVertex
100
AcDb2dVertex
 10
33.957375
 20
49.536458
 30
0.0
  0
VERTEX
  5
25B
330
254
100
AcDbEntity
  8
001
 62
    40
370
    50
100
AcDbVertex
100
AcDb2dVertex
 10
33.940351
 20
49.695791
 30
0.0
  0
VERTEX
  5
25C
330
254
100
AcDbEntity
  8
001
 62
    40
370
    50
100
AcDbVertex
100
AcDb2dVertex
 10
33.914188
 20
49.853852
 30
0.0
  0
VERTEX
  5
25D
330
254
100
AcDbEntity
  8
001
 62
    40
370
    50
100
AcDbVertex
100
AcDb2dVertex
 10
33.877865
 20
50.013069
 30
0.0
  0
VERTEX
  5
25E
330
254
100
AcDbEntity
  8
001
 62
    40
370
    50
100
AcDbVertex
100
AcDb2dVertex
 10
33.831709
 20
50.169744
 30
0.0
  0
VERTEX
  5
25F
330
254
100
AcDbEntity
  8
001
 62
    40
370
    50
100
AcDbVertex
100
AcDb2dVertex
 10
33.775331
 20
50.323934
 30
0.0
  0
VERTEX
  5
260
330
254
100
AcDbEntity
  8
001
 62
    40
370
    50
100
AcDbVertex
100
AcDb2dVertex
 10
33.708696
 20
50.473938
 30
0.0
  0
VERTEX
  5
261
330
254
100
AcDbEntity
  8
001
 62
    40
370
    50
100
AcDbVertex
100
AcDb2dVertex
 10
33.64037
 20
50.603713
 30
0.0
  0
VERTEX
  5
262
330
254
100
AcDbEntity
  8
001
 62
    40
370
    50
100
AcDbVertex
100
AcDb2dVertex
 10
33.564176
 20
50.729044
 30
0.0
  0
VERTEX
  5
263
330
254
100
AcDbEntity
  8
001
 62
    40
370
    50
100
AcDbVertex
100
AcDb2dVertex
 10
33.479887
 20
50.850587
 30
0.0
  0
VERTEX
  5
264
330
254
100
AcDbEntity
  8
001
 62
    40
370
    50
100
AcDbVertex
100
AcDb2dVertex
 10
33.388498
 20
50.966886
 30
0.0
  0
VERTEX
  5
265
330
254
100
AcDbEntity
  8
001
 62
    40
370
    50
100
AcDbVertex
100
AcDb2dVertex
 10
33.290217
 20
51.077693
 30
0.0
  0
VERTEX
  5
266
330
254
100
AcDbEntity
  8
001
 62
    40
370
    50
100
AcDbVertex
100
AcDb2dVertex
 10
33.18548
 20
51.1824
 30
0.0
  0
VERTEX
  5
267
330
254
100
AcDbEntity
  8
001
 62
    40
370
    50
100
AcDbVertex
100
AcDb2dVertex
 10
33.08177
 20
51.274689
 30
0.0
  0
VERTEX
  5
268
330
254
100
AcDbEntity
  8
001
 62
    40
370
    50
100
AcDbVertex
100
AcDb2dVertex
 10
32.973296
 20
51.361338
 30
0.0
  0
VERTEX
  5
269
330
254
100
AcDbEntity
  8
001
 62
    40
370
    50
100
AcDbVertex
100
AcDb2dVertex
 10
32.859663
 20
51.443156
 30
0.0
  0
VERTEX
  5
26A
330
254
100
AcDbEntity
  8
001
 62
    40
370
    50
100
AcDbVertex
100
AcDb2dVertex
 10
32.74228
 20
51.519494
 30
0.0
  0
VERTEX
  5
26B
330
254
100
AcDbEntity
  8
001
 62
    40
370
    50
100
AcDbVertex
100
AcDb2dVertex
 10
32.621331
 20
51.590618
 30
0.0
  0
VERTEX
  5
26C
330
254
100
AcDbEntity
  8
001
 62
    40
370
    50
100
AcDbVertex
100
AcDb2dVertex
 10
32.497436
 20
51.656461
 30
0.0
  0
VERTEX
  5
26D
330
254
100
AcDbEntity
  8
001
 62
    40
370
    50
100
AcDbVertex
100
AcDb2dVertex
 10
32.372215
 20
51.716651
 30
0.0
  0
VERTEX
  5
26E
330
254
100
AcDbEntity
  8
001
 62
    40
370
    50
100
AcDbVertex
100
AcDb2dVertex
 10
32.244943
 20
51.772404
 30
0.0
  0
VERTEX
  5
26F
330
254
100
AcDbEntity
  8
001
 62
    40
370
    50
100
AcDbVertex
100
AcDb2dVertex
 10
32.116069
 20
51.824283
 30
0.0
  0
VERTEX
  5
270
330
254
100
AcDbEntity
  8
001
 62
    40
370
    50
100
AcDbVertex
100
AcDb2dVertex
 10
31.985806
 20
51.872527
 30
0.0
  0
VERTEX
  5
271
330
254
100
AcDbEntity
  8
001
 62
    40
370
    50
100
AcDbVertex
100
AcDb2dVertex
 10
31.855872
 20
51.917067
 30
0.0
  0
VERTEX
  5
272
330
254
100
AcDbEntity
  8
001
 62
    40
370
    50
100
AcDbVertex
100
AcDb2dVertex
 10
31.725347
 20
51.959902
 30
0.0
  0
SEQEND
  5
255
330
254
100
AcDbEntity
  8
001
370
    50
  0
LINE
  5
273
330
23D
100
AcDbEntity
  8
001
 62
    40
370
    50
100
AcDbLine
 10
30.699224
 20
53.375592
 30
0.0
 11
31.725347
 21
51.959902
 31
0.0
  0
POLYLINE
  5
274
330
23D
100
AcDbEntity
  8
001
 62
    40
370
    50
100
AcDb2dPolyline
 66
     1
 10
0.0
 20
0.0
 30
0.0
  0
VERTEX
  5
276
330
274
100
AcDbEntity
  8
001
 62
    40
370
    50
100
AcDbVertex
100
AcDb2dVertex
 10
30.742676
 20
54.268902
 30
0.0
  0
VERTEX
  5
277
330
274
100
AcDbEntity
  8
001
 62
    40
370
    50
100
AcDbVertex
100
AcDb2dVertex
 10
30.717332
 20
54.096833
 30
0.0
  0
VERTEX
  5
278
330
274
100
AcDbEntity
  8
001
 62
    40
370
    50
100
AcDbVertex
100
AcDb2dVertex
 10
30.694758
 20
53.843971
 30
0.0
  0
VERTEX
  5
279
330
274
100
AcDbEntity
  8
001
 62
    40
370
    50
100
AcDbVertex
100
AcDb2dVertex
 10
30.691353
 20
53.565961
 30
0.0
  0
VERTEX
  5
27A
330
274
100
AcDbEntity
  8
001
 62
    40
370
    50
100
AcDbVertex
100
AcDb2dVertex
 10
30.699224
 20
53.375592
 30
0.0
  0
SEQEND
  5
275
330
274
100
AcDbEntity
  8
001
370
    50
  0
POLYLINE
  5
27B
330
23D
100
AcDbEntity
  8
001
 62
    40
370
    50
100
AcDb2dPolyline
 66
     1
 10
0.0
 20
0.0
 30
0.0
  0
VERTEX
  5
27D
330
27B
100
AcDbEntity
  8
001
 62
    40
370
    50
100
AcDbVertex
100
AcDb2dVertex
 10
30.742676
 20
54.268902
 30
0.0
  0
VERTEX
  5
27E
330
27B
100
AcDbEntity
  8
001
 62
    40
370
    50
100
AcDbVertex
100
AcDb2dVertex
 10
30.799687
 20
54.294572
 30
0.0
  0
VERTEX
  5
27F
330
27B
100
AcDbEntity
  8
001
 62
    40
370
    50
100
AcDbVertex
100
AcDb2dVertex
 10
30.880169
 20
54.331173
 30
0.0
  0
VERTEX
  5
280
330
27B
100
AcDbEntity
  8
001
 62
    40
370
    50
100
AcDbVertex
100
AcDb2dVertex
 10
31.065846
 20
54.41782
 30
0.0
  0
VERTEX
  5
281
330
27B
100
AcDbEntity
  8
001
 62
    40
370
    50
100
AcDbVertex
100
AcDb2dVertex
 10
31.229909
 20
54.497993
 30
0.0
  0
VERTEX
  5
282
330
27B
100
AcDbEntity
  8
001
 62
    40
370
    50
100
AcDbVertex
100
AcDb2dVertex
 10
31.401316
 20
54.584679
 30
0.0
  0
VERTEX
  5
283
330
27B
100
AcDbEntity
  8
001
 62
    40
370
    50
100
AcDbVertex
100
AcDb2dVertex
 10
31.574877
 20
54.67447
 30
0.0
  0
VERTEX
  5
284
330
27B
100
AcDbEntity
  8
001
 62
    40
370
    50
100
AcDbVertex
100
AcDb2dVertex
 10
31.883982
 20
54.841037
 30
0.0
  0
VERTEX
  5
285
330
27B
100
AcDbEntity
  8
001
 62
    40
370
    50
100
AcDbVertex
100
AcDb2dVertex
 10
32.209035
 20
55.034815
 30
0.0
  0
VERTEX
  5
286
330
27B
100
AcDbEntity
  8
001
 62
    40
370
    50
100
AcDbVertex
100
AcDb2dVertex
 10
32.495192
 20
55.221417
 30
0.0
  0
VERTEX
  5
287
330
27B
100
AcDbEntity
  8
001
 62
    40
370
    50
100
AcDbVertex
100
AcDb2dVertex
 10
32.698138
 20
55.362716
 30
0.0
  0
SEQEND
  5
27C
330
27B
100
AcDbEntity
  8
001
370
    50
  0
POLYLINE
  5
288
330
23D
100
AcDbEntity
  8
001
 62
    40
370
    50
100
AcDb2dPolyline
 66
     1
 10
0.0
 20
0.0
 30
0.0
  0
VERTEX
  5
28A
330
288
100
AcDbEntity
  8
001
 62
    40
370
    50
100
AcDbVertex
100
AcDb2dVertex
 10
33.4458
 20
54.911926
 30
0.0
  0
VERTEX
  5
28B
330
288
100
AcDbEntity
  8
001
 62
    40
370
    50
100
AcDbVertex
100
AcDb2dVertex
 10
33.295987
 20
55.022725
 30
0.0
  0
VERTEX
  5
28C
330
288
100
AcDbEntity
  8
001
 62
    40
370
    50
100
AcDbVertex
100
AcDb2dVertex
 10
33.068683
 20
55.171859
 30
0.0
  0
VERTEX
  5
28D
330
288
100
AcDbEntity
  8
001
 62
    40
370
    50
100
AcDbVertex
100
AcDb2dVertex
 10
32.851537
 20
55.290503
 30
0.0
  0
VERTEX
  5
28E
330
288
100
AcDbEntity
  8
001
 62
    40
370
    50
100
AcDbVertex
100
AcDb2dVertex
 10
32.698138
 20
55.362716
 30
0.0
  0
SEQEND
  5
289
330
288
100
AcDbEntity
  8
001
370
    50
  0
POLYLINE
  5
28F
330
23D
100
AcDbEntity
  8
001
 62
    40
370
    50
100
AcDb2dPolyline
 66
     1
 10
0.0
 20
0.0
 30
0.0
  0
VERTEX
  5
291
330
28F
100
AcDbEntity
  8
001
 62
    40
370
    50
100
AcDbVertex
100
AcDb2dVertex
 10
38.126373
 20
47.622469
 30
0.0
  0
VERTEX
  5
292
330
28F
100
AcDbEntity
  8
001
 62
    40
370
    50
100
AcDbVertex
100
AcDb2dVertex
 10
38.15787
 20
47.645866
 30
0.0
  0
VERTEX
  5
293
330
28F
100
AcDbEntity
  8
001
 62
    40
370
    50
100
AcDbVertex
100
AcDb2dVertex
 10
38.18856
 20
47.670228
 30
0.0
  0
VERTEX
  5
294
330
28F
100
AcDbEntity
  8
001
 62
    40
370
    50
100
AcDbVertex
100
AcDb2dVertex
 10
38.216934
 20
47.695293
 30
0.0
  0
VERTEX
  5
295
330
28F
100
AcDbEntity
  8
001
 62
    40
370
    50
100
AcDbVertex
100
AcDb2dVertex
 10
38.244555
 20
47.721258
 30
0.0
  0
SEQEND
  5
290
330
28F
100
AcDbEntity
  8
001
370
    50
  0
POLYLINE
  5
296
330
23D
100
AcDbEntity
  8
001
 62
    40
370
    50
100
AcDb2dPolyline
 66
     1
 10
0.0
 20
0.0
 30
0.0
  0
VERTEX
  5
298
330
296
100
AcDbEntity
  8
001
 62
    40
370
    50
100
AcDbVertex
100
AcDb2dVertex
 10
36.290284
 20
46.615146
 30
0.0
  0
VERTEX
  5
299
330
296
100
AcDbEntity
  8
001
 62
    40
370
    50
100
AcDbVertex
100
AcDb2dVertex
 10
36.347297
 20
46.640817
 30
0.0
  0
VERTEX
  5
29A
330
296
100
AcDbEntity
  8
001
 62
    40
370
    50
100
AcDbVertex
100
AcDb2dVertex
 10
36.427777
 20
46.677417
 30
0.0
  0
VERTEX
  5
29B
330
296
100
AcDbEntity
  8
001
 62
    40
370
    50
100
AcDbVertex
100
AcDb2dVertex
 10
36.613409
 20
46.764046
 30
0.0
  0
VERTEX
  5
29C
330
296
100
AcDbEntity
  8
001
 62
    40
370
    50
100
AcDbVertex
100
AcDb2dVertex
 10
36.777517
 20
46.844237
 30
0.0
  0
VERTEX
  5
29D
330
296
100
AcDbEntity
  8
001
 62
    40
370
    50
100
AcDbVertex
100
AcDb2dVertex
 10
36.949116
 20
46.931002
 30
0.0
  0
VERTEX
  5
29E
330
296
100
AcDbEntity
  8
001
 62
    40
370
    50
100
AcDbVertex
100
AcDb2dVertex
 10
37.122486
 20
47.020714
 30
0.0
  0
VERTEX
  5
29F
330
296
100
AcDbEntity
  8
001
 62
    40
370
    50
100
AcDbVertex
100
AcDb2dVertex
 10
37.429796
 20
47.186541
 30
0.0
  0
VERTEX
  5
2A0
330
296
100
AcDbEntity
  8
001
 62
    40
370
    50
100
AcDbVertex
100
AcDb2dVertex
 10
37.756643
 20
47.381059
 30
0.0
  0
VERTEX
  5
2A1
330
296
100
AcDbEntity
  8
001
 62
    40
370
    50
100
AcDbVertex
100
AcDb2dVertex
 10
37.973108
 20
47.519832
 30
0.0
  0
VERTEX
  5
2A2
330
296
100
AcDbEntity
  8
001
 62
    40
370
    50
100
AcDbVertex
100
AcDb2dVertex
 10
38.126373
 20
47.622469
 30
0.0
  0
SEQEND
  5
297
330
296
100
AcDbEntity
  8
001
370
    50
  0
POLYLINE
  5
2A3
330
23D
100
AcDbEntity
  8
001
 62
    40
370
    50
100
AcDb2dPolyline
 66
     1
 10
0.0
 20
0.0
 30
0.0
  0
VERTEX
  5
2A5
330
2A3
100
AcDbEntity
  8
001
 62
    40
370
    50
100
AcDbVertex
100
AcDb2dVertex
 10
38.406703
 20
48.075906
 30
0.0
  0
VERTEX
  5
2A6
330
2A3
100
AcDbEntity
  8
001
 62
    40
370
    50
100
AcDbVertex
100
AcDb2dVertex
 10
38.405225
 20
48.097089
 30
0.0
  0
VERTEX
  5
2A7
330
2A3
100
AcDbEntity
  8
001
 62
    40
370
    50
100
AcDbVertex
100
AcDb2dVertex
 10
38.402981
 20
48.11825
 30
0.0
  0
VERTEX
  5
2A8
330
2A3
100
AcDbEntity
  8
001
 62
    40
370
    50
100
AcDbVertex
100
AcDb2dVertex
 10
38.393221
 20
48.162746
 30
0.0
  0
VERTEX
  5
2A9
330
2A3
100
AcDbEntity
  8
001
 62
    40
370
    50
100
AcDbVertex
100
AcDb2dVertex
 10
38.375615
 20
48.204512
 30
0.0
  0
VERTEX
  5
2AA
330
2A3
100
AcDbEntity
  8
001
 62
    40
370
    50
100
AcDbVertex
100
AcDb2dVertex
 10
38.358751
 20
48.230852
 30
0.0
  0
VERTEX
  5
2AB
330
2A3
100
AcDbEntity
  8
001
 62
    40
370
    50
100
AcDbVertex
100
AcDb2dVertex
 10
38.339789
 20
48.255929
 30
0.0
  0
SEQEND
  5
2A4
330
2A3
100
AcDbEntity
  8
001
370
    50
  0
POLYLINE
  5
2AC
330
23D
100
AcDbEntity
  8
001
 62
    40
370
    50
100
AcDb2dPolyline
 66
     1
 10
0.0
 20
0.0
 30
0.0
  0
VERTEX
  5
2AE
330
2AC
100
AcDbEntity
  8
001
 62
    40
370
    50
100
AcDbVertex
100
AcDb2dVertex
 10
38.313706
 20
47.798019
 30
0.0
  0
VERTEX
  5
2AF
330
2AC
100
AcDbEntity
  8
001
 62
    40
370
    50
100
AcDbVertex
100
AcDb2dVertex
 10
38.325416
 20
47.815043
 30
0.0
  0
VERTEX
  5
2B0
330
2AC
100
AcDbEntity
  8
001
 62
    40
370
    50
100
AcDbVertex
100
AcDb2dVertex
 10
38.336701
 20
47.832332
 30
0.0
  0
VERTEX
  5
2B1
330
2AC
100
AcDbEntity
  8
001
 62
    40
370
    50
100
AcDbVertex
100
AcDb2dVertex
 10
38.358374
 20
47.871275
 30
0.0
  0
VERTEX
  5
2B2
330
2AC
100
AcDbEntity
  8
001
 62
    40
370
    50
100
AcDbVertex
100
AcDb2dVertex
 10
38.376416
 20
47.912159
 30
0.0
  0
VERTEX
  5
2B3
330
2AC
100
AcDbEntity
  8
001
 62
    40
370
    50
100
AcDbVertex
100
AcDb2dVertex
 10
38.390847
 20
47.954412
 30
0.0
  0
VERTEX
  5
2B4
330
2AC
100
AcDbEntity
  8
001
 62
    40
370
    50
100
AcDbVertex
100
AcDb2dVertex
 10
38.40062
 20
47.997794
 30
0.0
  0
VERTEX
  5
2B5
330
2AC
100
AcDbEntity
  8
001
 62
    40
370
    50
100
AcDbVertex
100
AcDb2dVertex
 10
38.404829
 20
48.036684
 30
0.0
  0
VERTEX
  5
2B6
330
2AC
100
AcDbEntity
  8
001
 62
    40
370
    50
100
AcDbVertex
100
AcDb2dVertex
 10
38.406703
 20
48.075906
 30
0.0
  0
SEQEND
  5
2AD
330
2AC
100
AcDbEntity
  8
001
370
    50
  0
POLYLINE
  5
2B7
330
23D
100
AcDbEntity
  8
001
 62
    40
370
    50
100
AcDb2dPolyline
 66
     1
 10
0.0
 20
0.0
 30
0.0
  0
VERTEX
  5
2B9
330
2B7
100
AcDbEntity
  8
001
 62
    40
370
    50
100
AcDbVertex
100
AcDb2dVertex
 10
37.132096
 20
46.545764
 30
0.0
  0
VERTEX
  5
2BA
330
2B7
100
AcDbEntity
  8
001
 62
    40
370
    50
100
AcDbVertex
100
AcDb2dVertex
 10
37.165983
 20
46.565154
 30
0.0
  0
VERTEX
  5
2BB
330
2B7
100
AcDbEntity
  8
001
 62
    40
370
    50
100
AcDbVertex
100
AcDb2dVertex
 10
37.214938
 20
46.594399
 30
0.0
  0
VERTEX
  5
2BC
330
2B7
100
AcDbEntity
  8
001
 62
    40
370
    50
100
AcDbVertex
100
AcDb2dVertex
 10
37.641974
 20
46.937144
 30
0.0
  0
VERTEX
  5
2BD
330
2B7
100
AcDbEntity
  8
001
 62
    40
370
    50
100
AcDbVertex
100
AcDb2dVertex
 10
37.891682
 20
47.221998
 30
0.0
  0
SEQEND
  5
2B8
330
2B7
100
AcDbEntity
  8
001
370
    50
  0
POLYLINE
  5
2BE
330
23D
100
AcDbEntity
  8
001
 62
    40
370
    50
100
AcDb2dPolyline
 66
     1
 10
0.0
 20
0.0
 30
0.0
  0
VERTEX
  5
2C0
330
2BE
100
AcDbEntity
  8
001
 62
    40
370
    50
100
AcDbVertex
100
AcDb2dVertex
 10
38.406701
 20
48.075956
 30
0.0
  0
VERTEX
  5
2C1
330
2BE
100
AcDbEntity
  8
001
 62
    40
370
    50
100
AcDbVertex
100
AcDb2dVertex
 10
38.401893
 20
48.25733
 30
0.0
  0
VERTEX
  5
2C2
330
2BE
100
AcDbEntity
  8
001
 62
    40
370
    50
100
AcDbVertex
100
AcDb2dVertex
 10
38.397085
 20
48.438705
 30
0.0
  0
VERTEX
  5
2C3
330
2BE
100
AcDbEntity
  8
001
 62
    40
370
    50
100
AcDbVertex
100
AcDb2dVertex
 10
38.391927
 20
48.633308
 30
0.0
  0
VERTEX
  5
2C4
330
2BE
100
AcDbEntity
  8
001
 62
    40
370
    50
100
AcDbVertex
100
AcDb2dVertex
 10
38.386768
 20
48.827911
 30
0.0
  0
SEQEND
  5
2BF
330
2BE
100
AcDbEntity
  8
001
370
    50
  0
POLYLINE
  5
2C5
330
23D
100
AcDbEntity
  8
001
 62
    40
370
    50
100
AcDb2dPolyline
 66
     1
 10
0.0
 20
0.0
 30
0.0
  0
VERTEX
  5
2C7
330
2C5
100
AcDbEntity
  8
001
 62
    40
370
    50
100
AcDbVertex
100
AcDb2dVertex
 10
37.891087
 20
47.221185
 30
0.0
  0
VERTEX
  5
2C8
330
2C5
100
AcDbEntity
  8
001
 62
    40
370
    50
100
AcDbVertex
100
AcDb2dVertex
 10
38.003696
 20
47.374887
 30
0.0
  0
VERTEX
  5
2C9
330
2C5
100
AcDbEntity
  8
001
 62
    40
370
    50
100
AcDbVertex
100
AcDb2dVertex
 10
38.116306
 20
47.528588
 30
0.0
  0
VERTEX
  5
2CA
330
2C5
100
AcDbEntity
  8
001
 62
    40
370
    50
100
AcDbVertex
100
AcDb2dVertex
 10
38.214867
 20
47.663113
 30
0.0
  0
VERTEX
  5
2CB
330
2C5
100
AcDbEntity
  8
001
 62
    40
370
    50
100
AcDbVertex
100
AcDb2dVertex
 10
38.313427
 20
47.797638
 30
0.0
  0
SEQEND
  5
2C6
330
2C5
100
AcDbEntity
  8
001
370
    50
  0
POLYLINE
  5
2CC
330
23D
100
AcDbEntity
  8
001
 62
    40
370
    50
100
AcDb2dPolyline
 66
     1
 10
0.0
 20
0.0
 30
0.0
  0
VERTEX
  5
2CE
330
2CC
100
AcDbEntity
  8
001
 62
    40
370
    50
100
AcDbVertex
100
AcDb2dVertex
 10
38.386795
 20
48.82686
 30
0.0
  0
VERTEX
  5
2CF
330
2CC
100
AcDbEntity
  8
001
 62
    40
370
    50
100
AcDbVertex
100
AcDb2dVertex
 10
38.375839
 20
48.980492
 30
0.0
  0
VERTEX
  5
2D0
330
2CC
100
AcDbEntity
  8
001
 62
    40
370
    50
100
AcDbVertex
100
AcDb2dVertex
 10
38.352015
 20
49.193583
 30
0.0
  0
VERTEX
  5
2D1
330
2CC
100
AcDbEntity
  8
001
 62
    40
370
    50
100
AcDbVertex
100
AcDb2dVertex
 10
38.259317
 20
49.616517
 30
0.0
  0
VERTEX
  5
2D2
330
2CC
100
AcDbEntity
  8
001
 62
    40
370
    50
100
AcDbVertex
100
AcDb2dVertex
 10
38.073421
 20
50.009462
 30
0.0
  0
VERTEX
  5
2D3
330
2CC
100
AcDbEntity
  8
001
 62
    40
370
    50
100
AcDbVertex
100
AcDb2dVertex
 10
37.973852
 20
50.173423
 30
0.0
  0
VERTEX
  5
2D4
330
2CC
100
AcDbEntity
  8
001
 62
    40
370
    50
100
AcDbVertex
100
AcDb2dVertex
 10
37.898244
 20
50.287915
 30
0.0
  0
SEQEND
  5
2CD
330
2CC
100
AcDbEntity
  8
001
370
    50
  0
LINE
  5
2D5
330
23D
100
AcDbEntity
  8
001
 62
    40
370
    50
100
AcDbLine
 10
31.002113
 20
43.657136
 30
0.0
 11
30.745969
 21
43.513858
 31
0.0
  0
POLYLINE
  5
2D6
330
23D
100
AcDbEntity
  8
001
 62
    40
370
    50
100
AcDb2dPolyline
 66
     1
 10
0.0
 20
0.0
 30
0.0
  0
VERTEX
  5
2D8
330
2D6
100
AcDbEntity
  8
001
 62
    40
370
    50
100
AcDbVertex
100
AcDb2dVertex
 10
31.002113
 20
43.657136
 30
0.0
  0
VERTEX
  5
2D9
330
2D6
100
AcDbEntity
  8
001
 62
    40
370
    50
100
AcDbVertex
100
AcDb2dVertex
 10
31.059511
 20
43.683
 30
0.0
  0
VERTEX
  5
2DA
330
2D6
100
AcDbEntity
  8
001
 62
    40
370
    50
100
AcDbVertex
100
AcDb2dVertex
 10
31.139606
 20
43.719407
 30
0.0
  0
VERTEX
  5
2DB
330
2D6
100
AcDbEntity
  8
001
 62
    40
370
    50
100
AcDbVertex
100
AcDb2dVertex
 10
31.317196
 20
43.802002
 30
0.0
  0
VERTEX
  5
2DC
330
2D6
100
AcDbEntity
  8
001
 62
    40
370
    50
100
AcDbVertex
100
AcDb2dVertex
 10
31.489347
 20
43.886227
 30
0.0
  0
VERTEX
  5
2DD
330
2D6
100
AcDbEntity
  8
001
 62
    40
370
    50
100
AcDbVertex
100
AcDb2dVertex
 10
31.618782
 20
43.951277
 30
0.0
  0
VERTEX
  5
2DE
330
2D6
100
AcDbEntity
  8
001
 62
    40
370
    50
100
AcDbVertex
100
AcDb2dVertex
 10
31.713238
 20
43.999372
 30
0.0
  0
SEQEND
  5
2D7
330
2D6
100
AcDbEntity
  8
001
370
    50
  0
LINE
  5
2DF
330
23D
100
AcDbEntity
  8
001
 62
    40
370
    50
100
AcDbLine
 10
36.290284
 20
46.615146
 30
0.0
 11
35.587366
 21
46.22196
 31
0.0
  0
LINE
  5
2E0
330
23D
100
AcDbEntity
  8
001
 62
    40
370
    50
100
AcDbLine
 10
31.711818
 20
43.513858
 30
0.0
 11
31.864914
 21
43.599494
 31
0.0
  0
LINE
  5
2E1
330
23D
100
AcDbEntity
  8
001
 62
    40
370
    50
100
AcDbLine
 10
36.553216
 20
46.22196
 30
0.0
 11
37.132096
 21
46.545764
 31
0.0
  0
POLYLINE
  5
2E2
330
23D
100
AcDbEntity
  8
001
 62
    40
370
    50
100
AcDb2dPolyline
 66
     1
 10
0.0
 20
0.0
 30
0.0
  0
VERTEX
  5
2E4
330
2E2
100
AcDbEntity
  8
001
 62
    40
370
    50
100
AcDbVertex
100
AcDb2dVertex
 10
32.954031
 20
44.78576
 30
0.0
  0
VERTEX
  5
2E5
330
2E2
100
AcDbEntity
  8
001
 62
    40
370
    50
100
AcDbVertex
100
AcDb2dVertex
 10
32.942521
 20
44.87279
 30
0.0
  0
VERTEX
  5
2E6
330
2E2
100
AcDbEntity
  8
001
 62
    40
370
    50
100
AcDbVertex
100
AcDb2dVertex
 10
32.921402
 20
44.999244
 30
0.0
  0
VERTEX
  5
2E7
330
2E2
100
AcDbEntity
  8
001
 62
    40
370
    50
100
AcDbVertex
100
AcDb2dVertex
 10
32.821763
 20
45.385691
 30
0.0
  0
VERTEX
  5
2E8
330
2E2
100
AcDbEntity
  8
001
 62
    40
370
    50
100
AcDbVertex
100
AcDb2dVertex
 10
32.731004
 20
45.644261
 30
0.0
  0
SEQEND
  5
2E3
330
2E2
100
AcDbEntity
  8
001
370
    50
  0
LINE
  5
2E9
330
23D
100
AcDbEntity
  8
001
 62
    40
370
    50
100
AcDbLine
 10
35.272599
 20
47.065936
 30
0.0
 11
32.731004
 21
45.644261
 31
0.0
  0
LINE
  5
2EA
330
23D
100
AcDbEntity
  8
001
 62
    40
370
    50
100
AcDbLine
 10
32.731004
 20
45.644261
 30
0.0
 11
31.704882
 21
47.05995
 31
0.0
  0
POLYLINE
  5
2EB
330
23D
100
AcDbEntity
  8
001
 62
    40
370
    50
100
AcDb2dPolyline
 66
     1
 10
0.0
 20
0.0
 30
0.0
  0
VERTEX
  5
2ED
330
2EB
100
AcDbEntity
  8
001
 62
    40
370
    50
100
AcDbVertex
100
AcDb2dVertex
 10
31.704882
 20
47.05995
 30
0.0
  0
VERTEX
  5
2EE
330
2EB
100
AcDbEntity
  8
001
 62
    40
370
    50
100
AcDbVertex
100
AcDb2dVertex
 10
31.709045
 20
47.059937
 30
0.0
  0
VERTEX
  5
2EF
330
2EB
100
AcDbEntity
  8
001
 62
    40
370
    50
100
AcDbVertex
100
AcDb2dVertex
 10
31.715114
 20
47.059926
 30
0.0
  0
VERTEX
  5
2F0
330
2EB
100
AcDbEntity
  8
001
 62
    40
370
    50
100
AcDbVertex
100
AcDb2dVertex
 10
31.931024
 20
47.06926
 30
0.0
  0
VERTEX
  5
2F1
330
2EB
100
AcDbEntity
  8
001
 62
    40
370
    50
100
AcDbVertex
100
AcDb2dVertex
 10
32.114246
 20
47.097147
 30
0.0
  0
VERTEX
  5
2F2
330
2EB
100
AcDbEntity
  8
001
 62
    40
370
    50
100
AcDbVertex
100
AcDb2dVertex
 10
32.306016
 20
47.143193
 30
0.0
  0
VERTEX
  5
2F3
330
2EB
100
AcDbEntity
  8
001
 62
    40
370
    50
100
AcDbVertex
100
AcDb2dVertex
 10
32.501251
 20
47.207679
 30
0.0
  0
VERTEX
  5
2F4
330
2EB
100
AcDbEntity
  8
001
 62
    40
370
    50
100
AcDbVertex
100
AcDb2dVertex
 10
32.688451
 20
47.290919
 30
0.0
  0
VERTEX
  5
2F5
330
2EB
100
AcDbEntity
  8
001
 62
    40
370
    50
100
AcDbVertex
100
AcDb2dVertex
 10
32.864369
 20
47.388164
 30
0.0
  0
VERTEX
  5
2F6
330
2EB
100
AcDbEntity
  8
001
 62
    40
370
    50
100
AcDbVertex
100
AcDb2dVertex
 10
33.334108
 20
47.753267
 30
0.0
  0
VERTEX
  5
2F7
330
2EB
100
AcDbEntity
  8
001
 62
    40
370
    50
100
AcDbVertex
100
AcDb2dVertex
 10
33.705682
 20
48.284926
 30
0.0
  0
VERTEX
  5
2F8
330
2EB
100
AcDbEntity
  8
001
 62
    40
370
    50
100
AcDbVertex
100
AcDb2dVertex
 10
33.857201
 20
48.639823
 30
0.0
  0
VERTEX
  5
2F9
330
2EB
100
AcDbEntity
  8
001
 62
    40
370
    50
100
AcDbVertex
100
AcDb2dVertex
 10
33.94175
 20
48.902042
 30
0.0
  0
SEQEND
  5
2EC
330
2EB
100
AcDbEntity
  8
001
370
    50
  0
POLYLINE
  5
2FA
330
23D
100
AcDbEntity
  8
001
 62
    40
370
    50
100
AcDb2dPolyline
 66
     1
 10
0.0
 20
0.0
 30
0.0
  0
VERTEX
  5
2FC
330
2FA
100
AcDbEntity
  8
001
 62
    40
370
    50
100
AcDbVertex
100
AcDb2dVertex
 10
29.488478
 20
50.117811
 30
0.0
  0
VERTEX
  5
2FD
330
2FA
100
AcDbEntity
  8
001
 62
    40
370
    50
100
AcDbVertex
100
AcDb2dVertex
 10
29.532765
 20
49.9624
 30
0.0
  0
VERTEX
  5
2FE
330
2FA
100
AcDbEntity
  8
001
 62
    40
370
    50
100
AcDbVertex
100
AcDb2dVertex
 10
29.577038
 20
49.806984
 30
0.0
  0
VERTEX
  5
2FF
330
2FA
100
AcDbEntity
  8
001
 62
    40
370
    50
100
AcDbVertex
100
AcDb2dVertex
 10
29.623474
 20
49.644944
 30
0.0
  0
VERTEX
  5
300
330
2FA
100
AcDbEntity
  8
001
 62
    40
370
    50
100
AcDbVertex
100
AcDb2dVertex
 10
29.671579
 20
49.483395
 30
0.0
  0
VERTEX
  5
301
330
2FA
100
AcDbEntity
  8
001
 62
    40
370
    50
100
AcDbVertex
100
AcDb2dVertex
 10
29.722469
 20
49.324036
 30
0.0
  0
VERTEX
  5
302
330
2FA
100
AcDbEntity
  8
001
 62
    40
370
    50
100
AcDbVertex
100
AcDb2dVertex
 10
29.777308
 20
49.166
 30
0.0
  0
VERTEX
  5
303
330
2FA
100
AcDbEntity
  8
001
 62
    40
370
    50
100
AcDbVertex
100
AcDb2dVertex
 10
29.837713
 20
49.00705
 30
0.0
  0
VERTEX
  5
304
330
2FA
100
AcDbEntity
  8
001
 62
    40
370
    50
100
AcDbVertex
100
AcDb2dVertex
 10
29.903263
 20
48.850108
 30
0.0
  0
VERTEX
  5
305
330
2FA
100
AcDbEntity
  8
001
 62
    40
370
    50
100
AcDbVertex
100
AcDb2dVertex
 10
29.974307
 20
48.696197
 30
0.0
  0
VERTEX
  5
306
330
2FA
100
AcDbEntity
  8
001
 62
    40
370
    50
100
AcDbVertex
100
AcDb2dVertex
 10
30.052519
 20
48.545915
 30
0.0
  0
VERTEX
  5
307
330
2FA
100
AcDbEntity
  8
001
 62
    40
370
    50
100
AcDbVertex
100
AcDb2dVertex
 10
30.111595
 20
48.443929
 30
0.0
  0
VERTEX
  5
308
330
2FA
100
AcDbEntity
  8
001
 62
    40
370
    50
100
AcDbVertex
100
AcDb2dVertex
 10
30.172807
 20
48.343149
 30
0.0
  0
SEQEND
  5
2FB
330
2FA
100
AcDbEntity
  8
001
370
    50
  0
POLYLINE
  5
309
330
23D
100
AcDbEntity
  8
001
 62
    40
370
    50
100
AcDb2dPolyline
 66
     1
 10
0.0
 20
0.0
 30
0.0
  0
VERTEX
  5
30B
330
309
100
AcDbEntity
  8
001
 62
    40
370
    50
100
AcDbVertex
100
AcDb2dVertex
 10
30.172807
 20
48.343149
 30
0.0
  0
VERTEX
  5
30C
330
309
100
AcDbEntity
  8
001
 62
    40
370
    50
100
AcDbVertex
100
AcDb2dVertex
 10
30.190136
 20
48.316942
 30
0.0
  0
VERTEX
  5
30D
330
309
100
AcDbEntity
  8
001
 62
    40
370
    50
100
AcDbVertex
100
AcDb2dVertex
 10
30.207576
 20
48.290808
 30
0.0
  0
VERTEX
  5
30E
330
309
100
AcDbEntity
  8
001
 62
    40
370
    50
100
AcDbVertex
100
AcDb2dVertex
 10
30.292434
 20
48.170012
 30
0.0
  0
VERTEX
  5
30F
330
309
100
AcDbEntity
  8
001
 62
    40
370
    50
100
AcDbVertex
100
AcDb2dVertex
 10
30.382425
 20
48.052966
 30
0.0
  0
VERTEX
  5
310
330
309
100
AcDbEntity
  8
001
 62
    40
370
    50
100
AcDbVertex
100
AcDb2dVertex
 10
30.47528
 20
47.942959
 30
0.0
  0
VERTEX
  5
311
330
309
100
AcDbEntity
  8
001
 62
    40
370
    50
100
AcDbVertex
100
AcDb2dVertex
 10
30.5732
 20
47.837452
 30
0.0
  0
VERTEX
  5
312
330
309
100
AcDbEntity
  8
001
 62
    40
370
    50
100
AcDbVertex
100
AcDb2dVertex
 10
30.666265
 20
47.745986
 30
0.0
  0
VERTEX
  5
313
330
309
100
AcDbEntity
  8
001
 62
    40
370
    50
100
AcDbVertex
100
AcDb2dVertex
 10
30.7631
 20
47.658514
 30
0.0
  0
VERTEX
  5
314
330
309
100
AcDbEntity
  8
001
 62
    40
370
    50
100
AcDbVertex
100
AcDb2dVertex
 10
30.860118
 20
47.577588
 30
0.0
  0
VERTEX
  5
315
330
309
100
AcDbEntity
  8
001
 62
    40
370
    50
100
AcDbVertex
100
AcDb2dVertex
 10
30.9601
 20
47.500358
 30
0.0
  0
VERTEX
  5
316
330
309
100
AcDbEntity
  8
001
 62
    40
370
    50
100
AcDbVertex
100
AcDb2dVertex
 10
31.057948
 20
47.430191
 30
0.0
  0
VERTEX
  5
317
330
309
100
AcDbEntity
  8
001
 62
    40
370
    50
100
AcDbVertex
100
AcDb2dVertex
 10
31.158119
 20
47.363391
 30
0.0
  0
VERTEX
  5
318
330
309
100
AcDbEntity
  8
001
 62
    40
370
    50
100
AcDbVertex
100
AcDb2dVertex
 10
31.253389
 20
47.304122
 30
0.0
  0
VERTEX
  5
319
330
309
100
AcDbEntity
  8
001
 62
    40
370
    50
100
AcDbVertex
100
AcDb2dVertex
 10
31.350227
 20
47.247448
 30
0.0
  0
VERTEX
  5
31A
330
309
100
AcDbEntity
  8
001
 62
    40
370
    50
100
AcDbVertex
100
AcDb2dVertex
 10
31.441793
 20
47.196569
 30
0.0
  0
VERTEX
  5
31B
330
309
100
AcDbEntity
  8
001
 62
    40
370
    50
100
AcDbVertex
100
AcDb2dVertex
 10
31.534246
 20
47.147326
 30
0.0
  0
VERTEX
  5
31C
330
309
100
AcDbEntity
  8
001
 62
    40
370
    50
100
AcDbVertex
100
AcDb2dVertex
 10
31.619423
 20
47.103365
 30
0.0
  0
VERTEX
  5
31D
330
309
100
AcDbEntity
  8
001
 62
    40
370
    50
100
AcDbVertex
100
AcDb2dVertex
 10
31.704882
 20
47.05995
 30
0.0
  0
SEQEND
  5
30A
330
309
100
AcDbEntity
  8
001
370
    50
  0
POLYLINE
  5
31E
330
23D
100
AcDbEntity
  8
001
 62
    40
370
    50
100
AcDb2dPolyline
 66
     1
 10
0.0
 20
0.0
 30
0.0
  0
VERTEX
  5
320
330
31E
100
AcDbEntity
  8
001
 62
    40
370
    50
100
AcDbVertex
100
AcDb2dVertex
 10
31.725347
 20
51.959902
 30
0.0
  0
VERTEX
  5
321
330
31E
100
AcDbEntity
  8
001
 62
    40
370
    50
100
AcDbVertex
100
AcDb2dVertex
 10
31.721183
 20
51.959916
 30
0.0
  0
VERTEX
  5
322
330
31E
100
AcDbEntity
  8
001
 62
    40
370
    50
100
AcDbVertex
100
AcDb2dVertex
 10
31.715114
 20
51.959926
 30
0.0
  0
VERTEX
  5
323
330
31E
100
AcDbEntity
  8
001
 62
    40
370
    50
100
AcDbVertex
100
AcDb2dVertex
 10
31.499204
 20
51.950592
 30
0.0
  0
VERTEX
  5
324
330
31E
100
AcDbEntity
  8
001
 62
    40
370
    50
100
AcDbVertex
100
AcDb2dVertex
 10
31.315982
 20
51.922705
 30
0.0
  0
VERTEX
  5
325
330
31E
100
AcDbEntity
  8
001
 62
    40
370
    50
100
AcDbVertex
100
AcDb2dVertex
 10
31.124212
 20
51.87666
 30
0.0
  0
VERTEX
  5
326
330
31E
100
AcDbEntity
  8
001
 62
    40
370
    50
100
AcDbVertex
100
AcDb2dVertex
 10
30.928978
 20
51.812173
 30
0.0
  0
VERTEX
  5
327
330
31E
100
AcDbEntity
  8
001
 62
    40
370
    50
100
AcDbVertex
100
AcDb2dVertex
 10
30.741778
 20
51.728933
 30
0.0
  0
VERTEX
  5
328
330
31E
100
AcDbEntity
  8
001
 62
    40
370
    50
100
AcDbVertex
100
AcDb2dVertex
 10
30.56586
 20
51.631689
 30
0.0
  0
VERTEX
  5
329
330
31E
100
AcDbEntity
  8
001
 62
    40
370
    50
100
AcDbVertex
100
AcDb2dVertex
 10
30.09612
 20
51.266586
 30
0.0
  0
VERTEX
  5
32A
330
31E
100
AcDbEntity
  8
001
 62
    40
370
    50
100
AcDbVertex
100
AcDb2dVertex
 10
29.724547
 20
50.734926
 30
0.0
  0
VERTEX
  5
32B
330
31E
100
AcDbEntity
  8
001
 62
    40
370
    50
100
AcDbVertex
100
AcDb2dVertex
 10
29.573027
 20
50.38003
 30
0.0
  0
VERTEX
  5
32C
330
31E
100
AcDbEntity
  8
001
 62
    40
370
    50
100
AcDbVertex
100
AcDb2dVertex
 10
29.488478
 20
50.117811
 30
0.0
  0
SEQEND
  5
31F
330
31E
100
AcDbEntity
  8
001
370
    50
  0
LINE
  5
32D
330
23D
100
AcDbEntity
  8
001
 62
    40
370
    50
100
AcDbLine
 10
32.698138
 20
55.362716
 30
0.0
 11
32.954282
 21
55.505994
 31
0.0
  0
POLYLINE
  5
32E
330
23D
100
AcDbEntity
  8
001
 62
    40
370
    50
100
AcDb2dPolyline
 66
     1
 10
0.0
 20
0.0
 30
0.0
  0
VERTEX
  5
330
330
32E
100
AcDbEntity
  8
001
 62
    40
370
    50
100
AcDbVertex
100
AcDb2dVertex
 10
33.037774
 20
55.528898
 30
0.0
  0
VERTEX
  5
331
330
32E
100
AcDbEntity
  8
001
 62
    40
370
    50
100
AcDbVertex
100
AcDb2dVertex
 10
33.026505
 20
55.528399
 30
0.0
  0
VERTEX
  5
332
330
32E
100
AcDbEntity
  8
001
 62
    40
370
    50
100
AcDbVertex
100
AcDb2dVertex
 10
33.010204
 20
55.526398
 30
0.0
  0
VERTEX
  5
333
330
32E
100
AcDbEntity
  8
001
 62
    40
370
    50
100
AcDbVertex
100
AcDb2dVertex
 10
32.976359
 20
55.516398
 30
0.0
  0
VERTEX
  5
334
330
32E
100
AcDbEntity
  8
001
 62
    40
370
    50
100
AcDbVertex
100
AcDb2dVertex
 10
32.954282
 20
55.505994
 30
0.0
  0
SEQEND
  5
32F
330
32E
100
AcDbEntity
  8
001
370
    50
  0
POLYLINE
  5
335
330
23D
100
AcDbEntity
  8
001
 62
    40
370
    50
100
AcDb2dPolyline
 66
     1
 10
0.0
 20
0.0
 30
0.0
  0
VERTEX
  5
337
330
335
100
AcDbEntity
  8
001
 62
    40
370
    50
100
AcDbVertex
100
AcDb2dVertex
 10
28.157629
 20
51.953916
 30
0.0
  0
VERTEX
  5
338
330
335
100
AcDbEntity
  8
001
 62
    40
370
    50
100
AcDbVertex
100
AcDb2dVertex
 10
28.007816
 20
52.064715
 30
0.0
  0
VERTEX
  5
339
330
335
100
AcDbEntity
  8
001
 62
    40
370
    50
100
AcDbVertex
100
AcDb2dVertex
 10
27.780513
 20
52.213848
 30
0.0
  0
VERTEX
  5
33A
330
335
100
AcDbEntity
  8
001
 62
    40
370
    50
100
AcDbVertex
100
AcDb2dVertex
 10
27.563366
 20
52.332493
 30
0.0
  0
VERTEX
  5
33B
330
335
100
AcDbEntity
  8
001
 62
    40
370
    50
100
AcDbVertex
100
AcDb2dVertex
 10
27.409967
 20
52.404706
 30
0.0
  0
SEQEND
  5
336
330
335
100
AcDbEntity
  8
001
370
    50
  0
LINE
  5
33C
330
23D
100
AcDbEntity
  8
001
 62
    40
370
    50
100
AcDbLine
 10
29.488478
 20
50.117811
 30
0.0
 11
28.157629
 21
51.953916
 31
0.0
  0
POLYLINE
  5
33D
330
23D
100
AcDbEntity
  8
001
 62
    40
370
    50
100
AcDb2dPolyline
 66
     1
 10
0.0
 20
0.0
 30
0.0
  0
VERTEX
  5
33F
330
33D
100
AcDbEntity
  8
001
 62
    40
370
    50
100
AcDbVertex
100
AcDb2dVertex
 10
29.984429
 20
44.107926
 30
0.0
  0
VERTEX
  5
340
330
33D
100
AcDbEntity
  8
001
 62
    40
370
    50
100
AcDbVertex
100
AcDb2dVertex
 10
30.194621
 20
43.997154
 30
0.0
  0
VERTEX
  5
341
330
33D
100
AcDbEntity
  8
001
 62
    40
370
    50
100
AcDbVertex
100
AcDb2dVertex
 10
30.507859
 20
43.847994
 30
0.0
  0
VERTEX
  5
342
330
33D
100
AcDbEntity
  8
001
 62
    40
370
    50
100
AcDbVertex
100
AcDb2dVertex
 10
30.799248
 20
43.729498
 30
0.0
  0
VERTEX
  5
343
330
33D
100
AcDbEntity
  8
001
 62
    40
370
    50
100
AcDbVertex
100
AcDb2dVertex
 10
31.002113
 20
43.657136
 30
0.0
  0
SEQEND
  5
33E
330
33D
100
AcDbEntity
  8
001
370
    50
  0
POLYLINE
  5
344
330
23D
100
AcDbEntity
  8
001
 62
    40
370
    50
100
AcDb2dPolyline
 66
     1
 10
0.0
 20
0.0
 30
0.0
  0
VERTEX
  5
346
330
344
100
AcDbEntity
  8
001
 62
    40
370
    50
100
AcDbVertex
100
AcDb2dVertex
 10
25.452264
 20
51.298594
 30
0.0
  0
VERTEX
  5
347
330
344
100
AcDbEntity
  8
001
 62
    40
370
    50
100
AcDbVertex
100
AcDb2dVertex
 10
25.427883
 20
51.128695
 30
0.0
  0
VERTEX
  5
348
330
344
100
AcDbEntity
  8
001
 62
    40
370
    50
100
AcDbVertex
100
AcDb2dVertex
 10
25.40626
 20
50.879088
 30
0.0
  0
VERTEX
  5
349
330
344
100
AcDbEntity
  8
001
 62
    40
370
    50
100
AcDbVertex
100
AcDb2dVertex
 10
25.403243
 20
50.605148
 30
0.0
  0
VERTEX
  5
34A
330
344
100
AcDbEntity
  8
001
 62
    40
370
    50
100
AcDbVertex
100
AcDb2dVertex
 10
25.411053
 20
50.417582
 30
0.0
  0
SEQEND
  5
345
330
344
100
AcDbEntity
  8
001
370
    50
  0
POLYLINE
  5
34B
330
23D
100
AcDbEntity
  8
001
 62
    40
370
    50
100
AcDb2dPolyline
 66
     1
 10
0.0
 20
0.0
 30
0.0
  0
VERTEX
  5
34D
330
34B
100
AcDbEntity
  8
001
 62
    40
370
    50
100
AcDbVertex
100
AcDb2dVertex
 10
25.644382
 20
51.397383
 30
0.0
  0
VERTEX
  5
34E
330
34B
100
AcDbEntity
  8
001
 62
    40
370
    50
100
AcDbVertex
100
AcDb2dVertex
 10
25.595549
 20
51.373844
 30
0.0
  0
VERTEX
  5
34F
330
34B
100
AcDbEntity
  8
001
 62
    40
370
    50
100
AcDbVertex
100
AcDb2dVertex
 10
25.547066
 20
51.349624
 30
0.0
  0
VERTEX
  5
350
330
34B
100
AcDbEntity
  8
001
 62
    40
370
    50
100
AcDbVertex
100
AcDb2dVertex
 10
25.499493
 20
51.324445
 30
0.0
  0
VERTEX
  5
351
330
34B
100
AcDbEntity
  8
001
 62
    40
370
    50
100
AcDbVertex
100
AcDb2dVertex
 10
25.452264
 20
51.298594
 30
0.0
  0
SEQEND
  5
34C
330
34B
100
AcDbEntity
  8
001
370
    50
  0
POLYLINE
  5
352
330
23D
100
AcDbEntity
  8
001
 62
    40
370
    50
100
AcDb2dPolyline
 66
     1
 10
0.0
 20
0.0
 30
0.0
  0
VERTEX
  5
354
330
352
100
AcDbEntity
  8
001
 62
    40
370
    50
100
AcDbVertex
100
AcDb2dVertex
 10
25.644382
 20
51.397383
 30
0.0
  0
VERTEX
  5
355
330
352
100
AcDbEntity
  8
001
 62
    40
370
    50
100
AcDbVertex
100
AcDb2dVertex
 10
25.769111
 20
51.45641
 30
0.0
  0
VERTEX
  5
356
330
352
100
AcDbEntity
  8
001
 62
    40
370
    50
100
AcDbVertex
100
AcDb2dVertex
 10
25.941738
 20
51.539983
 30
0.0
  0
VERTEX
  5
357
330
352
100
AcDbEntity
  8
001
 62
    40
370
    50
100
AcDbVertex
100
AcDb2dVertex
 10
26.12475
 20
51.631993
 30
0.0
  0
VERTEX
  5
358
330
352
100
AcDbEntity
  8
001
 62
    40
370
    50
100
AcDbVertex
100
AcDb2dVertex
 10
26.286707
 20
51.71646
 30
0.0
  0
VERTEX
  5
359
330
352
100
AcDbEntity
  8
001
 62
    40
370
    50
100
AcDbVertex
100
AcDb2dVertex
 10
26.589036
 20
51.879919
 30
0.0
  0
VERTEX
  5
35A
330
352
100
AcDbEntity
  8
001
 62
    40
370
    50
100
AcDbVertex
100
AcDb2dVertex
 10
26.920864
 20
52.076805
 30
0.0
  0
VERTEX
  5
35B
330
352
100
AcDbEntity
  8
001
 62
    40
370
    50
100
AcDbVertex
100
AcDb2dVertex
 10
27.20802
 20
52.263865
 30
0.0
  0
VERTEX
  5
35C
330
352
100
AcDbEntity
  8
001
 62
    40
370
    50
100
AcDbVertex
100
AcDb2dVertex
 10
27.409967
 20
52.404706
 30
0.0
  0
SEQEND
  5
353
330
352
100
AcDbEntity
  8
001
370
    50
  0
POLYLINE
  5
35D
330
23D
100
AcDbEntity
  8
001
 62
    40
370
    50
100
AcDb2dPolyline
 66
     1
 10
0.0
 20
0.0
 30
0.0
  0
VERTEX
  5
35F
330
35D
100
AcDbEntity
  8
001
 62
    40
370
    50
100
AcDbVertex
100
AcDb2dVertex
 10
33.07057
 20
55.525134
 30
0.0
  0
VERTEX
  5
360
330
35D
100
AcDbEntity
  8
001
 62
    40
370
    50
100
AcDbVertex
100
AcDb2dVertex
 10
33.070333
 20
55.52519
 30
0.0
  0
VERTEX
  5
361
330
35D
100
AcDbEntity
  8
001
 62
    40
370
    50
100
AcDbVertex
100
AcDb2dVertex
 10
33.069989
 20
55.52527
 30
0.0
  0
VERTEX
  5
362
330
35D
100
AcDbEntity
  8
001
 62
    40
370
    50
100
AcDbVertex
100
AcDb2dVertex
 10
33.055309
 20
55.528052
 30
0.0
  0
VERTEX
  5
363
330
35D
100
AcDbEntity
  8
001
 62
    40
370
    50
100
AcDbVertex
100
AcDb2dVertex
 10
33.040574
 20
55.528872
 30
0.0
  0
VERTEX
  5
364
330
35D
100
AcDbEntity
  8
001
 62
    40
370
    50
100
AcDbVertex
100
AcDb2dVertex
 10
33.038922
 20
55.528891
 30
0.0
  0
VERTEX
  5
365
330
35D
100
AcDbEntity
  8
001
 62
    40
370
    50
100
AcDbVertex
100
AcDb2dVertex
 10
33.037774
 20
55.528898
 30
0.0
  0
SEQEND
  5
35E
330
35D
100
AcDbEntity
  8
001
370
    50
  0
LINE
  5
366
330
23D
100
AcDbEntity
  8
001
 62
    40
370
    50
100
AcDbLine
 10
33.067841
 20
55.528898
 30
0.0
 11
33.037774
 21
55.528898
 31
0.0
  0
LINE
  5
367
330
23D
100
AcDbEntity
  8
001
 62
    40
370
    50
100
AcDbLine
 10
28.157629
 20
51.953916
 30
0.0
 11
30.699224
 21
53.375592
 31
0.0
  0
POLYLINE
  5
368
330
23D
100
AcDbEntity
  8
001
 62
    40
370
    50
100
AcDb2dPolyline
 66
     1
 10
0.0
 20
0.0
 30
0.0
  0
VERTEX
  5
36A
330
368
100
AcDbEntity
  8
001
 62
    40
370
    50
100
AcDbVertex
100
AcDb2dVertex
 10
33.603797
 20
48.584003
 30
0.0
  0
VERTEX
  5
36B
330
368
100
AcDbEntity
  8
001
 62
    40
370
    50
100
AcDbVertex
100
AcDb2dVertex
 10
33.705001
 20
48.831532
 30
0.0
  0
VERTEX
  5
36C
330
368
100
AcDbEntity
  8
001
 62
    40
370
    50
100
AcDbVertex
100
AcDb2dVertex
 10
33.801956
 20
49.179126
 30
0.0
  0
VERTEX
  5
36D
330
368
100
AcDbEntity
  8
001
 62
    40
370
    50
100
AcDbVertex
100
AcDb2dVertex
 10
33.824004
 20
49.349801
 30
0.0
  0
VERTEX
  5
36E
330
368
100
AcDbEntity
  8
001
 62
    40
370
    50
100
AcDbVertex
100
AcDb2dVertex
 10
33.829108
 20
49.509926
 30
0.0
  0
VERTEX
  5
36F
330
368
100
AcDbEntity
  8
001
 62
    40
370
    50
100
AcDbVertex
100
AcDb2dVertex
 10
33.824004
 20
49.670051
 30
0.0
  0
VERTEX
  5
370
330
368
100
AcDbEntity
  8
001
 62
    40
370
    50
100
AcDbVertex
100
AcDb2dVertex
 10
33.801956
 20
49.840726
 30
0.0
  0
VERTEX
  5
371
330
368
100
AcDbEntity
  8
001
 62
    40
370
    50
100
AcDbVertex
100
AcDb2dVertex
 10
33.705001
 20
50.18832
 30
0.0
  0
VERTEX
  5
372
330
368
100
AcDbEntity
  8
001
 62
    40
370
    50
100
AcDbVertex
100
AcDb2dVertex
 10
33.603797
 20
50.435849
 30
0.0
  0
SEQEND
  5
369
330
368
100
AcDbEntity
  8
001
370
    50
  0
LINE
  5
373
330
23D
100
AcDbEntity
  8
001
 62
    40
370
    50
100
AcDbLine
 10
27.409967
 20
52.404706
 30
0.0
 11
30.742676
 21
54.268902
 31
0.0
  0
LINE
  5
374
330
23D
100
AcDbEntity
  8
001
 62
    40
370
    50
100
AcDbLine
 10
30.483619
 20
43.568678
 30
0.0
 11
29.984429
 21
44.107926
 31
0.0
  0
POLYLINE
  5
375
330
23D
100
AcDbEntity
  8
001
 62
    40
370
    50
100
AcDb2dPolyline
 66
     1
 10
0.0
 20
0.0
 30
0.0
  0
VERTEX
  5
377
330
375
100
AcDbEntity
  8
001
 62
    40
370
    50
100
AcDbVertex
100
AcDb2dVertex
 10
30.655082
 20
43.490954
 30
0.0
  0
VERTEX
  5
378
330
375
100
AcDbEntity
  8
001
 62
    40
370
    50
100
AcDbVertex
100
AcDb2dVertex
 10
30.678398
 20
43.492991
 30
0.0
  0
VERTEX
  5
379
330
375
100
AcDbEntity
  8
001
 62
    40
370
    50
100
AcDbVertex
100
AcDb2dVertex
 10
30.708533
 20
43.498325
 30
0.0
  0
VERTEX
  5
37A
330
375
100
AcDbEntity
  8
001
 62
    40
370
    50
100
AcDbVertex
100
AcDb2dVertex
 10
30.723919
 20
43.503147
 30
0.0
  0
VERTEX
  5
37B
330
375
100
AcDbEntity
  8
001
 62
    40
370
    50
100
AcDbVertex
100
AcDb2dVertex
 10
30.739842
 20
43.510593
 30
0.0
  0
VERTEX
  5
37C
330
375
100
AcDbEntity
  8
001
 62
    40
370
    50
100
AcDbVertex
100
AcDb2dVertex
 10
30.743455
 20
43.512496
 30
0.0
  0
VERTEX
  5
37D
330
375
100
AcDbEntity
  8
001
 62
    40
370
    50
100
AcDbVertex
100
AcDb2dVertex
 10
30.745969
 20
43.513858
 30
0.0
  0
SEQEND
  5
376
330
375
100
AcDbEntity
  8
001
370
    50
  0
POLYLINE
  5
37E
330
23D
100
AcDbEntity
  8
001
 62
    40
370
    50
100
AcDb2dPolyline
 66
     1
 10
0.0
 20
0.0
 30
0.0
  0
VERTEX
  5
380
330
37E
100
AcDbEntity
  8
001
 62
    40
370
    50
100
AcDbVertex
100
AcDb2dVertex
 10
31.624629
 20
43.490954
 30
0.0
  0
VERTEX
  5
381
330
37E
100
AcDbEntity
  8
001
 62
    40
370
    50
100
AcDbVertex
100
AcDb2dVertex
 10
31.638529
 20
43.491791
 30
0.0
  0
VERTEX
  5
382
330
37E
100
AcDbEntity
  8
001
 62
    40
370
    50
100
AcDbVertex
100
AcDb2dVertex
 10
31.657211
 20
43.493993
 30
0.0
  0
VERTEX
  5
383
330
37E
100
AcDbEntity
  8
001
 62
    40
370
    50
100
AcDbVertex
100
AcDb2dVertex
 10
31.673213
 20
43.497403
 30
0.0
  0
VERTEX
  5
384
330
37E
100
AcDbEntity
  8
001
 62
    40
370
    50
100
AcDbVertex
100
AcDb2dVertex
 10
31.688803
 20
43.503016
 30
0.0
  0
VERTEX
  5
385
330
37E
100
AcDbEntity
  8
001
 62
    40
370
    50
100
AcDbVertex
100
AcDb2dVertex
 10
31.702213
 20
43.509044
 30
0.0
  0
VERTEX
  5
386
330
37E
100
AcDbEntity
  8
001
 62
    40
370
    50
100
AcDbVertex
100
AcDb2dVertex
 10
31.711818
 20
43.513858
 30
0.0
  0
SEQEND
  5
37F
330
37E
100
AcDbEntity
  8
001
370
    50
  0
POLYLINE
  5
387
330
23D
100
AcDbEntity
  8
001
 62
    40
370
    50
100
AcDb2dPolyline
 66
     1
 10
0.0
 20
0.0
 30
0.0
  0
VERTEX
  5
389
330
387
100
AcDbEntity
  8
001
 62
    40
370
    50
100
AcDbVertex
100
AcDb2dVertex
 10
30.483619
 20
43.568678
 30
0.0
  0
VERTEX
  5
38A
330
387
100
AcDbEntity
  8
001
 62
    40
370
    50
100
AcDbVertex
100
AcDb2dVertex
 10
30.492404
 20
43.559825
 30
0.0
  0
VERTEX
  5
38B
330
387
100
AcDbEntity
  8
001
 62
    40
370
    50
100
AcDbVertex
100
AcDb2dVertex
 10
30.505152
 20
43.548052
 30
0.0
  0
VERTEX
  5
38C
330
387
100
AcDbEntity
  8
001
 62
    40
370
    50
100
AcDbVertex
100
AcDb2dVertex
 10
30.520763
 20
43.535713
 30
0.0
  0
VERTEX
  5
38D
330
387
100
AcDbEntity
  8
001
 62
    40
370
    50
100
AcDbVertex
100
AcDb2dVertex
 10
30.53561
 20
43.525925
 30
0.0
  0
VERTEX
  5
38E
330
387
100
AcDbEntity
  8
001
 62
    40
370
    50
100
AcDbVertex
100
AcDb2dVertex
 10
30.566515
 20
43.509349
 30
0.0
  0
VERTEX
  5
38F
330
387
100
AcDbEntity
  8
001
 62
    40
370
    50
100
AcDbVertex
100
AcDb2dVertex
 10
30.603802
 20
43.497235
 30
0.0
  0
VERTEX
  5
390
330
387
100
AcDbEntity
  8
001
 62
    40
370
    50
100
AcDbVertex
100
AcDb2dVertex
 10
30.633546
 20
43.492504
 30
0.0
  0
VERTEX
  5
391
330
387
100
AcDbEntity
  8
001
 62
    40
370
    50
100
AcDbVertex
100
AcDb2dVertex
 10
30.655082
 20
43.490954
 30
0.0
  0
SEQEND
  5
388
330
387
100
AcDbEntity
  8
001
370
    50
  0
LINE
  5
392
330
23D
100
AcDbEntity
  8
001
 62
    40
370
    50
100
AcDbLine
 10
30.655082
 20
43.490954
 30
0.0
 11
31.624629
 21
43.490954
 31
0.0
  0
POLYLINE
  5
393
330
23D
100
AcDbEntity
  8
001
 62
    40
370
    50
100
AcDb2dPolyline
 66
     1
 10
0.0
 20
0.0
 30
0.0
  0
VERTEX
  5
395
330
393
100
AcDbEntity
  8
001
 62
    40
370
    50
100
AcDbVertex
100
AcDb2dVertex
 10
25.452264
 20
51.298594
 30
0.0
  0
VERTEX
  5
396
330
393
100
AcDbEntity
  8
001
 62
    40
370
    50
100
AcDbVertex
100
AcDb2dVertex
 10
25.396306
 20
51.244778
 30
0.0
  0
VERTEX
  5
397
330
393
100
AcDbEntity
  8
001
 62
    40
370
    50
100
AcDbVertex
100
AcDb2dVertex
 10
25.344359
 20
51.187521
 30
0.0
  0
VERTEX
  5
398
330
393
100
AcDbEntity
  8
001
 62
    40
370
    50
100
AcDbVertex
100
AcDb2dVertex
 10
25.315459
 20
51.148645
 30
0.0
  0
VERTEX
  5
399
330
393
100
AcDbEntity
  8
001
 62
    40
370
    50
100
AcDbVertex
100
AcDb2dVertex
 10
25.289393
 20
51.107693
 30
0.0
  0
VERTEX
  5
39A
330
393
100
AcDbEntity
  8
001
 62
    40
370
    50
100
AcDbVertex
100
AcDb2dVertex
 10
25.266224
 20
51.065606
 30
0.0
  0
VERTEX
  5
39B
330
393
100
AcDbEntity
  8
001
 62
    40
370
    50
100
AcDbVertex
100
AcDb2dVertex
 10
25.246104
 20
51.022058
 30
0.0
  0
VERTEX
  5
39C
330
393
100
AcDbEntity
  8
001
 62
    40
370
    50
100
AcDbVertex
100
AcDb2dVertex
 10
25.225404
 20
50.963047
 30
0.0
  0
VERTEX
  5
39D
330
393
100
AcDbEntity
  8
001
 62
    40
370
    50
100
AcDbVertex
100
AcDb2dVertex
 10
25.212207
 20
50.901603
 30
0.0
  0
VERTEX
  5
39E
330
393
100
AcDbEntity
  8
001
 62
    40
370
    50
100
AcDbVertex
100
AcDb2dVertex
 10
25.208668
 20
50.858165
 30
0.0
  0
VERTEX
  5
39F
330
393
100
AcDbEntity
  8
001
 62
    40
370
    50
100
AcDbVertex
100
AcDb2dVertex
 10
25.212685
 20
50.81534
 30
0.0
  0
VERTEX
  5
3A0
330
393
100
AcDbEntity
  8
001
 62
    40
370
    50
100
AcDbVertex
100
AcDb2dVertex
 10
25.220067
 20
50.789402
 30
0.0
  0
VERTEX
  5
3A1
330
393
100
AcDbEntity
  8
001
 62
    40
370
    50
100
AcDbVertex
100
AcDb2dVertex
 10
25.229596
 20
50.763923
 30
0.0
  0
SEQEND
  5
394
330
393
100
AcDbEntity
  8
001
370
    50
  0
LINE
  5
3A2
330
23D
100
AcDbEntity
  8
001
 62
    40
370
    50
100
AcDbLine
 10
25.411053
 20
50.417582
 30
0.0
 11
25.229596
 21
50.763923
 31
0.0
  0
LINE
  5
3A3
330
23D
100
AcDbEntity
  8
001
 62
    40
370
    50
100
AcDbLine
 10
25.209171
 20
50.696108
 30
0.0
 11
30.431623
 21
43.490954
 31
0.0
  0
ENDBLK
  5
23F
330
23D
100
AcDbEntity
  8
0
100
AcDbBlockEnd
  0
BLOCK
  5
3A5
330
3A4
100
AcDbEntity
  8
0
100
AcDbBlockBegin
  2
*D3
 70
     1
 10
0.0
 20
0.0
 30
0.0
  3
*D3
  1

  0
LINE
  5
3A7
330
3A4
100
AcDbEntity
  8
001
370
     9
100
AcDbLine
 10
55.209171
 20
43.349453
 30
0.0
 11
55.209171
 21
15.217101
 31
0.0
  0
LINE
  5
3A8
330
3A4
100
AcDbEntity
  8
001
370
     9
100
AcDbLine
 10
25.209171
 20
38.555691
 30
0.0
 11
25.209171
 21
15.217101
 31
0.0
  0
LINE
  5
3A9
330
3A4
100
AcDbEntity
  8
001
370
     9
100
AcDbLine
 10
55.209171
 20
17.967101
 30
0.0
 11
25.209171
 21
17.967101
 31
0.0
  0
POLYLINE
  5
3AA
330
3A4
100
AcDbEntity
  8
001
370
     9
100
AcDb2dPolyline
 66
     1
 10
0.0
 20
0.0
 30
0.0
  0
VERTEX
  5
3AC
330
3AA
100
AcDbEntity
  8
001
370
     9
100
AcDbVertex
100
AcDb2dVertex
 10
53.709171
 20
18.369025
 30
0.0
  0
VERTEX
  5
3AD
330
3AA
100
AcDbEntity
  8
001
370
     9
100
AcDbVertex
100
AcDb2dVertex
 10
55.209171
 20
17.967101
 30
0.0
  0
VERTEX
  5
3AE
330
3AA
100
AcDbEntity
  8
001
370
     9
100
AcDbVertex
100
AcDb2dVertex
 10
53.709171
 20
17.565178
 30
0.0
  0
SEQEND
  5
3AB
330
3AA
100
AcDbEntity
  8
001
370
     9
  0
POLYLINE
  5
3AF
330
3A4
100
AcDbEntity
  8
001
370
     9
100
AcDb2dPolyline
 66
     1
 10
0.0
 20
0.0
 30
0.0
  0
VERTEX
  5
3B1
330
3AF
100
AcDbEntity
  8
001
370
     9
100
AcDbVertex
100
AcDb2dVertex
 10
26.709171
 20
17.565178
 30
0.0
  0
VERTEX
  5
3B2
330
3AF
100
AcDbEntity
  8
001
370
     9
100
AcDbVertex
100
AcDb2dVertex
 10
25.209171
 20
17.967101
 30
0.0
  0
VERTEX
  5
3B3
330
3AF
100
AcDbEntity
  8
001
370
     9
100
AcDbVertex
100
AcDb2dVertex
 10
26.709171
 20
18.369025
 30
0.0
  0
SEQEND
  5
3B0
330
3AF
100
AcDbEntity
  8
001
370
     9
  0
TEXT
  5
3B4
330
3A4
100
AcDbEntity
  8
001
370
    30
100
AcDbText
 10
39.958274
 20
18.967101
 30
0.0
 40
4.0
  1
３０
 41
0.833333
100
AcDbText
  0
POINT
  5
3B5
330
3A4
100
AcDbEntity
  8
001
370
     9
100
AcDbPoint
 10
55.209171
 20
43.349453
 30
0.0
  0
POINT
  5
3B6
330
3A4
100
AcDbEntity
  8
001
370
     9
100
AcDbPoint
 10
25.209171
 20
38.555691
 30
0.0
  0
POINT
  5
3B7
330
3A4
100
AcDbEntity
  8
001
370
     9
100
AcDbPoint
 10
25.209171
 20
17.967101
 30
0.0
  0
ENDBLK
  5
3A6
330
3A4
100
AcDbEntity
  8
0
100
AcDbBlockEnd
  0
BLOCK
  5
3B9
330
3B8
100
AcDbEntity
  8
0
100
AcDbBlockBegin
  2
*D4
 70
     1
 10
0.0
 20
0.0
 30
0.0
  3
*D4
  1

  0
LINE
  5
3BB
330
3B8
100
AcDbEntity
  8
001
370
     9
100
AcDbLine
 10
25.209171
 20
38.555691
 30
0.0
 11
25.209171
 21
25.173422
 31
0.0
  0
LINE
  5
3BC
330
3B8
100
AcDbEntity
  8
001
370
     9
100
AcDbLine
 10
30.431623
 20
43.490954
 30
0.0
 11
30.431623
 21
25.173422
 31
0.0
  0
LINE
  5
3BD
330
3B8
100
AcDbEntity
  8
001
370
     9
100
AcDbLine
 10
25.209171
 20
27.923422
 30
0.0
 11
30.431623
 21
27.923422
 31
0.0
  0
POLYLINE
  5
3BE
330
3B8
100
AcDbEntity
  8
001
370
     9
100
AcDb2dPolyline
 66
     1
 10
0.0
 20
0.0
 30
0.0
  0
VERTEX
  5
3C0
330
3BE
100
AcDbEntity
  8
001
370
     9
100
AcDbVertex
100
AcDb2dVertex
 10
23.709171
 20
28.325346
 30
0.0
  0
VERTEX
  5
3C1
330
3BE
100
AcDbEntity
  8
001
370
     9
100
AcDbVertex
100
AcDb2dVertex
 10
25.209171
 20
27.923422
 30
0.0
  0
VERTEX
  5
3C2
330
3BE
100
AcDbEntity
  8
001
370
     9
100
AcDbVertex
100
AcDb2dVertex
 10
23.709171
 20
27.521498
 30
0.0
  0
SEQEND
  5
3BF
330
3BE
100
AcDbEntity
  8
001
370
     9
  0
POLYLINE
  5
3C3
330
3B8
100
AcDbEntity
  8
001
370
     9
100
AcDb2dPolyline
 66
     1
 10
0.0
 20
0.0
 30
0.0
  0
VERTEX
  5
3C5
330
3C3
100
AcDbEntity
  8
001
370
     9
100
AcDbVertex
100
AcDb2dVertex
 10
31.931623
 20
27.521498
 30
0.0
  0
VERTEX
  5
3C6
330
3C3
100
AcDbEntity
  8
001
370
     9
100
AcDbVertex
100
AcDb2dVertex
 10
30.431623
 20
27.923422
 30
0.0
  0
VERTEX
  5
3C7
330
3C3
100
AcDbEntity
  8
001
370
     9
100
AcDbVertex
100
AcDb2dVertex
 10
31.931623
 20
28.325346
 30
0.0
  0
SEQEND
  5
3C4
330
3C3
100
AcDbEntity
  8
001
370
     9
  0
TEXT
  5
3C8
330
3B8
100
AcDbEntity
  8
001
370
    30
100
AcDbText
 10
1.709171
 20
28.923422
 30
0.0
 40
4.0
  1
（５．２）
 41
0.833333
100
AcDbText
  0
POINT
  5
3C9
330
3B8
100
AcDbEntity
  8
001
370
     9
100
AcDbPoint
 10
25.209171
 20
38.555691
 30
0.0
  0
POINT
  5
3CA
330
3B8
100
AcDbEntity
  8
001
370
     9
100
AcDbPoint
 10
30.431623
 20
43.490954
 30
0.0
  0
POINT
  5
3CB
330
3B8
100
AcDbEntity
  8
001
370
     9
100
AcDbPoint
 10
30.431623
 20
27.923422
 30
0.0
  0
LINE
  5
3CC
330
3B8
100
AcDbEntity
  8
001
370
     9
100
AcDbLine
 10
25.209171
 20
27.923422
 30
0.0
 11
-1.290829
 21
27.923422
 31
0.0
  0
LINE
  5
3CD
330
3B8
100
AcDbEntity
  8
001
370
     9
100
AcDbLine
 10
30.431623
 20
27.923422
 30
0.0
 11
32.931623
 21
27.923422
 31
0.0
  0
ENDBLK
  5
3BA
330
3B8
100
AcDbEntity
  8
0
100
AcDbBlockEnd
  0
BLOCK
  5
3CF
330
3CE
100
AcDbEntity
  8
0
100
AcDbBlockBegin
  2
*D5
 70
     1
 10
0.0
 20
0.0
 30
0.0
  3
*D5
  1

  0
LINE
  5
3D1
330
3CE
100
AcDbEntity
  8
001
370
     9
100
AcDbLine
 10
30.431623
 20
43.490954
 30
0.0
 11
43.873883
 21
24.945345
 31
0.0
  0
LINE
  5
3D2
330
3CE
100
AcDbEntity
  8
001
370
     9
100
AcDbLine
 10
25.209171
 20
38.555691
 30
0.0
 11
25.209171
 21
18.892441
 31
0.0
  0
ARC
  5
3D3
330
3CE
100
AcDbEntity
  8
001
370
     9
100
AcDbCircle
 10
25.209171
 20
50.696108
 30
0.0
 40
29.05366731987993
100
AcDbArc
 50
270.0
 51
305.935415
  0
POLYLINE
  5
3D4
330
3CE
100
AcDbEntity
  8
001
370
     9
100
AcDb2dPolyline
 66
     1
 10
0.0
 20
0.0
 30
0.0
  0
VERTEX
  5
3D6
330
3D4
100
AcDbEntity
  8
001
370
     9
100
AcDbVertex
100
AcDb2dVertex
 10
43.695574
 20
27.764095
 30
0.0
  0
VERTEX
  5
3D7
330
3D4
100
AcDbEntity
  8
001
370
     9
100
AcDbVertex
100
AcDb2dVertex
 10
42.259982
 20
27.171963
 30
0.0
  0
VERTEX
  5
3D8
330
3D4
100
AcDbEntity
  8
001
370
     9
100
AcDbVertex
100
AcDb2dVertex
 10
43.207175
 20
28.40256
 30
0.0
  0
SEQEND
  5
3D5
330
3D4
100
AcDbEntity
  8
001
370
     9
  0
POLYLINE
  5
3D9
330
3CE
100
AcDbEntity
  8
001
370
     9
100
AcDb2dPolyline
 66
     1
 10
0.0
 20
0.0
 30
0.0
  0
VERTEX
  5
3DB
330
3D9
100
AcDbEntity
  8
001
370
     9
100
AcDbVertex
100
AcDb2dVertex
 10
23.720045
 20
22.082948
 30
0.0
  0
VERTEX
  5
3DC
330
3D9
100
AcDbEntity
  8
001
370
     9
100
AcDbVertex
100
AcDb2dVertex
 10
25.209171
 20
21.642441
 30
0.0
  0
VERTEX
  5
3DD
330
3D9
100
AcDbEntity
  8
001
370
     9
100
AcDbVertex
100
AcDb2dVertex
 10
23.699297
 20
21.279368
 30
0.0
  0
SEQEND
  5
3DA
330
3D9
100
AcDbEntity
  8
001
370
     9
  0
TEXT
  5
3DE
330
3CE
100
AcDbEntity
  8
001
370
    30
100
AcDbText
 10
43.658164
 20
28.726973
 30
0.0
 40
4.0
  1
３５%%d
 50
52.094789
 41
0.978261
100
AcDbText
  0
POINT
  5
3DF
330
3CE
100
AcDbEntity
  8
001
370
     9
100
AcDbPoint
 10
30.431623
 20
43.490954
 30
0.0
  0
POINT
  5
3E0
330
3CE
100
AcDbEntity
  8
001
370
     9
100
AcDbPoint
 10
25.209171
 20
50.696108
 30
0.0
  0
POINT
  5
3E1
330
3CE
100
AcDbEntity
  8
001
370
     9
100
AcDbPoint
 10
25.209171
 20
50.696108
 30
0.0
  0
POINT
  5
3E2
330
3CE
100
AcDbEntity
  8
001
370
     9
100
AcDbPoint
 10
25.209171
 20
38.555691
 30
0.0
  0
ARC
  5
3E3
330
3CE
100
AcDbEntity
  8
001
370
     9
100
AcDbCircle
 10
25.209171
 20
50.696108
 30
0.0
 40
29.05366731987993
100
AcDbArc
 50
265.069832
 51
270.0
  0
ARC
  5
3E4
330
3CE
100
AcDbEntity
  8
001
370
     9
100
AcDbCircle
 10
25.209171
 20
50.696108
 30
0.0
 40
29.05366731987993
100
AcDbArc
 50
305.935415
 51
333.92719
  0
ENDBLK
  5
3D0
330
3CE
100
AcDbEntity
  8
0
100
AcDbBlockEnd
  0
BLOCK
  5
3E6
330
3E5
100
AcDbEntity
  8
0
100
AcDbBlockBegin
  2
*D6
 70
     1
 10
0.0
 20
0.0
 30
0.0
  3
*D6
  1

  0
LINE
  5
3E8
330
3E5
100
AcDbEntity
  8
001
370
     9
100
AcDbLine
 10
25.209171
 20
38.555691
 30
0.0
 11
25.209171
 21
4.546083
 31
0.0
  0
LINE
  5
3E9
330
3E5
100
AcDbEntity
  8
001
370
     9
100
AcDbLine
 10
150.209171
 20
47.049453
 30
0.0
 11
150.209171
 21
4.546083
 31
0.0
  0
LINE
  5
3EA
330
3E5
100
AcDbEntity
  8
001
370
     9
100
AcDbLine
 10
25.209171
 20
7.296083
 30
0.0
 11
150.209171
 21
7.296083
 31
0.0
  0
POLYLINE
  5
3EB
330
3E5
100
AcDbEntity
  8
001
370
     9
100
AcDb2dPolyline
 66
     1
 10
0.0
 20
0.0
 30
0.0
  0
VERTEX
  5
3ED
330
3EB
100
AcDbEntity
  8
001
370
     9
100
AcDbVertex
100
AcDb2dVertex
 10
26.709171
 20
6.89416
 30
0.0
  0
VERTEX
  5
3EE
330
3EB
100
AcDbEntity
  8
001
370
     9
100
AcDbVertex
100
AcDb2dVertex
 10
25.209171
 20
7.296083
 30
0.0
  0
VERTEX
  5
3EF
330
3EB
100
AcDbEntity
  8
001
370
     9
100
AcDbVertex
100
AcDb2dVertex
 10
26.709171
 20
7.698007
 30
0.0
  0
SEQEND
  5
3EC
330
3EB
100
AcDbEntity
  8
001
370
     9
  0
POLYLINE
  5
3F0
330
3E5
100
AcDbEntity
  8
001
370
     9
100
AcDb2dPolyline
 66
     1
 10
0.0
 20
0.0
 30
0.0
  0
VERTEX
  5
3F2
330
3F0
100
AcDbEntity
  8
001
370
     9
100
AcDbVertex
100
AcDb2dVertex
 10
148.709171
 20
7.698007
 30
0.0
  0
VERTEX
  5
3F3
330
3F0
100
AcDbEntity
  8
001
370
     9
100
AcDbVertex
100
AcDb2dVertex
 10
150.209171
 20
7.296083
 30
0.0
  0
VERTEX
  5
3F4
330
3F0
100
AcDbEntity
  8
001
370
     9
100
AcDbVertex
100
AcDb2dVertex
 10
148.709171
 20
6.89416
 30
0.0
  0
SEQEND
  5
3F1
330
3F0
100
AcDbEntity
  8
001
370
     9
  0
TEXT
  5
3F5
330
3E5
100
AcDbEntity
  8
001
370
    30
100
AcDbText
 10
81.709171
 20
8.296083
 30
0.0
 40
4.0
  1
１２５
 41
0.833333
100
AcDbText
  0
POINT
  5
3F6
330
3E5
100
AcDbEntity
  8
001
370
     9
100
AcDbPoint
 10
25.209171
 20
38.555691
 30
0.0
  0
POINT
  5
3F7
330
3E5
100
AcDbEntity
  8
001
370
     9
100
AcDbPoint
 10
150.209171
 20
47.049453
 30
0.0
  0
POINT
  5
3F8
330
3E5
100
AcDbEntity
  8
001
370
     9
100
AcDbPoint
 10
150.209171
 20
7.296083
 30
0.0
  0
ENDBLK
  5
3E7
330
3E5
100
AcDbEntity
  8
0
100
AcDbBlockEnd
  0
BLOCK
  5
3FA
330
3F9
100
AcDbEntity
  8
0
100
AcDbBlockBegin
  2
*D7
 70
     1
 10
0.0
 20
0.0
 30
0.0
  3
*D7
  1

  0
LINE
  5
3FC
330
3F9
100
AcDbEntity
  8
001
370
     9
100
AcDbLine
 10
150.209171
 20
47.049453
 30
0.0
 11
150.209171
 21
15.217101
 31
0.0
  0
LINE
  5
3FD
330
3F9
100
AcDbEntity
  8
001
370
     9
100
AcDbLine
 10
55.209171
 20
43.349453
 30
0.0
 11
55.209171
 21
15.217101
 31
0.0
  0
LINE
  5
3FE
330
3F9
100
AcDbEntity
  8
001
370
     9
100
AcDbLine
 10
150.209171
 20
17.967101
 30
0.0
 11
55.209171
 21
17.967101
 31
0.0
  0
POLYLINE
  5
3FF
330
3F9
100
AcDbEntity
  8
001
370
     9
100
AcDb2dPolyline
 66
     1
 10
0.0
 20
0.0
 30
0.0
  0
VERTEX
  5
401
330
3FF
100
AcDbEntity
  8
001
370
     9
100
AcDbVertex
100
AcDb2dVertex
 10
148.709171
 20
18.369025
 30
0.0
  0
VERTEX
  5
402
330
3FF
100
AcDbEntity
  8
001
370
     9
100
AcDbVertex
100
AcDb2dVertex
 10
150.209171
 20
17.967101
 30
0.0
  0
VERTEX
  5
403
330
3FF
100
AcDbEntity
  8
001
370
     9
100
AcDbVertex
100
AcDb2dVertex
 10
148.709171
 20
17.565178
 30
0.0
  0
SEQEND
  5
400
330
3FF
100
AcDbEntity
  8
001
370
     9
  0
POLYLINE
  5
404
330
3F9
100
AcDbEntity
  8
001
370
     9
100
AcDb2dPolyline
 66
     1
 10
0.0
 20
0.0
 30
0.0
  0
VERTEX
  5
406
330
404
100
AcDbEntity
  8
001
370
     9
100
AcDbVertex
100
AcDb2dVertex
 10
56.709171
 20
17.565178
 30
0.0
  0
VERTEX
  5
407
330
404
100
AcDbEntity
  8
001
370
     9
100
AcDbVertex
100
AcDb2dVertex
 10
55.209171
 20
17.967101
 30
0.0
  0
VERTEX
  5
408
330
404
100
AcDbEntity
  8
001
370
     9
100
AcDbVertex
100
AcDb2dVertex
 10
56.709171
 20
18.369025
 30
0.0
  0
SEQEND
  5
405
330
404
100
AcDbEntity
  8
001
370
     9
  0
TEXT
  5
409
330
3F9
100
AcDbEntity
  8
001
370
    30
100
AcDbText
 10
98.709171
 20
18.967101
 30
0.0
 40
4.0
  1
９５
 41
0.833333
100
AcDbText
  0
POINT
  5
40A
330
3F9
100
AcDbEntity
  8
001
370
     9
100
AcDbPoint
 10
150.209171
 20
47.049453
 30
0.0
  0
POINT
  5
40B
330
3F9
100
AcDbEntity
  8
001
370
     9
100
AcDbPoint
 10
55.209171
 20
43.349453
 30
0.0
  0
POINT
  5
40C
330
3F9
100
AcDbEntity
  8
001
370
     9
100
AcDbPoint
 10
55.209171
 20
17.967101
 30
0.0
  0
ENDBLK
  5
3FB
330
3F9
100
AcDbEntity
  8
0
100
AcDbBlockEnd
  0
BLOCK
  5
40E
330
40D
100
AcDbEntity
  8
0
100
AcDbBlockBegin
  2
*D8
 70
     1
 10
0.0
 20
0.0
 30
0.0
  3
*D8
  1

  0
LINE
  5
410
330
40D
100
AcDbEntity
  8
001
370
     9
100
AcDbLine
 10
144.209171
 20
61.049453
 30
0.0
 11
175.615062
 21
61.049453
 31
0.0
  0
LINE
  5
411
330
40D
100
AcDbEntity
  8
001
370
     9
100
AcDbLine
 10
144.209171
 20
41.049453
 30
0.0
 11
175.615062
 21
41.049453
 31
0.0
  0
LINE
  5
412
330
40D
100
AcDbEntity
  8
001
370
     9
100
AcDbLine
 10
172.865062
 20
61.049453
 30
0.0
 11
172.865062
 21
41.049453
 31
0.0
  0
POLYLINE
  5
413
330
40D
100
AcDbEntity
  8
001
370
     9
100
AcDb2dPolyline
 66
     1
 10
0.0
 20
0.0
 30
0.0
  0
VERTEX
  5
415
330
413
100
AcDbEntity
  8
001
370
     9
100
AcDbVertex
100
AcDb2dVertex
 10
172.463138
 20
59.549453
 30
0.0
  0
VERTEX
  5
416
330
413
100
AcDbEntity
  8
001
370
     9
100
AcDbVertex
100
AcDb2dVertex
 10
172.865062
 20
61.049453
 30
0.0
  0
VERTEX
  5
417
330
413
100
AcDbEntity
  8
001
370
     9
100
AcDbVertex
100
AcDb2dVertex
 10
173.266985
 20
59.549453
 30
0.0
  0
SEQEND
  5
414
330
413
100
AcDbEntity
  8
001
370
     9
  0
POLYLINE
  5
418
330
40D
100
AcDbEntity
  8
001
370
     9
100
AcDb2dPolyline
 66
     1
 10
0.0
 20
0.0
 30
0.0
  0
VERTEX
  5
41A
330
418
100
AcDbEntity
  8
001
370
     9
100
AcDbVertex
100
AcDb2dVertex
 10
173.266985
 20
42.549453
 30
0.0
  0
VERTEX
  5
41B
330
418
100
AcDbEntity
  8
001
370
     9
100
AcDbVertex
100
AcDb2dVertex
 10
172.865062
 20
41.049453
 30
0.0
  0
VERTEX
  5
41C
330
418
100
AcDbEntity
  8
001
370
     9
100
AcDbVertex
100
AcDb2dVertex
 10
172.463138
 20
42.549453
 30
0.0
  0
SEQEND
  5
419
330
418
100
AcDbEntity
  8
001
370
     9
  0
TEXT
  5
41D
330
40D
100
AcDbEntity
  8
001
370
    30
100
AcDbText
 10
171.865062
 20
25.549453
 30
0.0
 40
4.0
  1
%%c２０
 50
90.000003
 41
0.882353
100
AcDbText
  0
POINT
  5
41E
330
40D
100
AcDbEntity
  8
001
370
     9
100
AcDbPoint
 10
144.209171
 20
61.049453
 30
0.0
  0
POINT
  5
41F
330
40D
100
AcDbEntity
  8
001
370
     9
100
AcDbPoint
 10
144.209171
 20
41.049453
 30
0.0
  0
POINT
  5
420
330
40D
100
AcDbEntity
  8
001
370
     9
100
AcDbPoint
 10
172.865062
 20
41.049453
 30
0.0
  0
LINE
  5
421
330
40D
100
AcDbEntity
  8
001
370
     9
100
AcDbLine
 10
172.865062
 20
41.049453
 30
0.0
 11
172.865062
 21
22.549453
 31
0.0
  0
ENDBLK
  5
40F
330
40D
100
AcDbEntity
  8
0
100
AcDbBlockEnd
  0
ENDSEC
  0
SECTION
  2
ENTITIES
  0
INSERT
  5
422
330
1F
100
AcDbEntity
  8
001
  6
ByBlock
 62
     0
370
    -2
100
AcDbBlockReference
  2
M-1-1
 10
0.0
 20
0.0
 30
0.0
  0
INSERT
  5
423
330
1F
100
AcDbEntity
  8
001
  6
ByBlock
 62
     0
370
    -2
100
AcDbBlockReference
  2
C32GUX-2
 10
0.0
 20
0.0
 30
0.0
  0
DIMENSION
  5
424
330
1F
100
AcDbEntity
  8
001
370
     9
100
AcDbDimension
  2
*D3
 10
25.209171
 20
17.967101
 30
0.0
 11
43.958274
 21
20.967101
 31
0.0
 70
   160
 71
     5
 42
-1.0
  3
Standard
100
AcDbAlignedDimension
 13
55.209171
 23
43.349453
 33
0.0
 14
25.209171
 24
38.555691
 34
0.0
 50
180.0
100
AcDbRotatedDimension
  0
TEXT
  5
425
330
1F
100
AcDbEntity
  8
001
370
    30
100
AcDbText
 10
9.351355
 20
54.92766
 30
0.0
 40
4.0
  1
%%c０．７３
 50
90.000003
 41
0.862069
100
AcDbText
  0
POLYLINE
  5
426
330
1F
100
AcDbEntity
  8
001
370
     9
100
AcDb2dPolyline
 66
     1
 10
0.0
 20
0.0
 30
0.0
  0
VERTEX
  5
428
330
426
100
AcDbEntity
  8
001
370
     9
100
AcDbVertex
100
AcDb2dVertex
 10
10.753279
 20
52.196108
 30
0.0
  0
VERTEX
  5
429
330
426
100
AcDbEntity
  8
001
370
     9
100
AcDbVertex
100
AcDb2dVertex
 10
10.351355
 20
50.696108
 30
0.0
  0
VERTEX
  5
42A
330
426
100
AcDbEntity
  8
001
370
     9
100
AcDbVertex
100
AcDb2dVertex
 10
9.949432
 20
52.196108
 30
0.0
  0
SEQEND
  5
427
330
426
100
AcDbEntity
  8
001
370
     9
  0
LINE
  5
42B
330
1F
100
AcDbEntity
  8
001
370
     9
100
AcDbLine
 10
10.351355
 20
77.92766
 30
0.0
 11
10.351355
 21
50.696108
 31
0.0
  0
POLYLINE
  5
42C
330
1F
100
AcDbEntity
  8
001
370
     9
100
AcDb2dPolyline
 66
     1
 10
0.0
 20
0.0
 30
0.0
  0
VERTEX
  5
42E
330
42C
100
AcDbEntity
  8
001
370
     9
100
AcDbVertex
100
AcDb2dVertex
 10
25.209171
 20
50.696108
 30
0.0
  0
VERTEX
  5
42F
330
42C
100
AcDbEntity
  8
001
370
     9
100
AcDbVertex
100
AcDb2dVertex
 10
10.351355
 20
50.696108
 30
0.0
  0
VERTEX
  5
430
330
42C
100
AcDbEntity
  8
001
370
     9
100
AcDbVertex
100
AcDb2dVertex
 10
7.601355
 20
50.696108
 30
0.0
  0
SEQEND
  5
42D
330
42C
100
AcDbEntity
  8
001
370
     9
  0
DIMENSION
  5
431
330
1F
100
AcDbEntity
  8
001
370
     9
100
AcDbDimension
  2
*D4
 10
30.431623
 20
27.923422
 30
0.0
 11
11.709171
 21
30.923422
 31
0.0
 70
   160
 71
     5
 42
-1.0
  3
Standard
100
AcDbAlignedDimension
 13
25.209171
 23
38.555691
 33
0.0
 14
30.431623
 24
43.490954
 34
0.0
100
AcDbRotatedDimension
  0
DIMENSION
  5
432
330
1F
100
AcDbEntity
  8
001
370
     9
100
AcDbDimension
  2
*D5
 10
25.209171
 20
50.696108
 30
0.0
 11
45.766249
 21
34.689856
 31
0.0
 70
    34
 71
     5
 42
-1.0
  3
Standard
100
AcDb2LineAngularDimension
 13
30.431623
 23
43.490954
 33
0.0
 14
25.209171
 24
50.696108
 34
0.0
 15
25.209171
 25
38.555691
 35
0.0
 16
34.171673
 26
23.059373
 36
0.0
  0
DIMENSION
  5
433
330
1F
100
AcDbEntity
  8
001
370
     9
100
AcDbDimension
  2
*D6
 10
150.209171
 20
7.296083
 30
0.0
 11
87.709171
 21
10.296083
 31
0.0
 70
   160
 71
     5
 42
-1.0
  3
Standard
100
AcDbAlignedDimension
 13
25.209171
 23
38.555691
 33
0.0
 14
150.209171
 24
47.049453
 34
0.0
100
AcDbRotatedDimension
  0
DIMENSION
  5
434
330
1F
100
AcDbEntity
  8
001
370
     9
100
AcDbDimension
  2
*D7
 10
55.209171
 20
17.967101
 30
0.0
 11
102.709171
 21
20.967101
 31
0.0
 70
   160
 71
     5
 42
-1.0
  3
Standard
100
AcDbAlignedDimension
 13
150.209171
 23
47.049453
 33
0.0
 14
55.209171
 24
43.349453
 34
0.0
 50
180.0
100
AcDbRotatedDimension
  0
TEXT
  5
435
330
1F
100
AcDbEntity
  8
001
370
    30
100
AcDbText
 10
-1.130443
 20
46.597415
 30
0.0
 40
4.0
  1
%%c１５．４９
 50
90.000003
 41
0.857143
100
AcDbText
  0
POLYLINE
  5
436
330
1F
100
AcDbEntity
  8
001
370
     9
100
AcDb2dPolyline
 66
     1
 10
0.0
 20
0.0
 30
0.0
  0
VERTEX
  5
438
330
436
100
AcDbEntity
  8
001
370
     9
100
AcDbVertex
100
AcDb2dVertex
 10
0.271481
 20
44.990954
 30
0.0
  0
VERTEX
  5
439
330
436
100
AcDbEntity
  8
001
370
     9
100
AcDbVertex
100
AcDb2dVertex
 10
-0.130443
 20
43.490954
 30
0.0
  0
VERTEX
  5
43A
330
436
100
AcDbEntity
  8
001
370
     9
100
AcDbVertex
100
AcDb2dVertex
 10
-0.532367
 20
44.990954
 30
0.0
  0
SEQEND
  5
437
330
436
100
AcDbEntity
  8
001
370
     9
  0
LINE
  5
43B
330
1F
100
AcDbEntity
  8
001
370
     9
100
AcDbLine
 10
-0.130443
 20
58.985482
 30
0.0
 11
-0.130443
 21
43.490954
 31
0.0
  0
POLYLINE
  5
43C
330
1F
100
AcDbEntity
  8
001
370
     9
100
AcDb2dPolyline
 66
     1
 10
0.0
 20
0.0
 30
0.0
  0
VERTEX
  5
43E
330
43C
100
AcDbEntity
  8
001
370
     9
100
AcDbVertex
100
AcDb2dVertex
 10
30.655082
 20
43.490954
 30
0.0
  0
VERTEX
  5
43F
330
43C
100
AcDbEntity
  8
001
370
     9
100
AcDbVertex
100
AcDb2dVertex
 10
-0.130443
 20
43.490954
 30
0.0
  0
VERTEX
  5
440
330
43C
100
AcDbEntity
  8
001
370
     9
100
AcDbVertex
100
AcDb2dVertex
 10
-2.880443
 20
43.490954
 30
0.0
  0
SEQEND
  5
43D
330
43C
100
AcDbEntity
  8
001
370
     9
  0
DIMENSION
  5
441
330
1F
100
AcDbEntity
  8
001
370
     9
100
AcDbDimension
  2
*D8
 10
172.865062
 20
41.049453
 30
0.0
 11
169.865061
 21
31.549453
 31
0.0
 70
   160
 71
     5
 42
-1.0
  3
Standard
100
AcDbAlignedDimension
 13
144.209171
 23
61.049453
 33
0.0
 14
144.209171
 24
41.049453
 34
0.0
 50
270.0
100
AcDbRotatedDimension
  0
TEXT
  5
442
330
1F
100
AcDbEntity
  8
001
370
    30
100
AcDbText
 10
18.435906
 20
86.09977
 30
0.0
 40
8.0
  1
面取りカッター面面　ＳＮＫ３５１４Ｃ
 41
0.833333
100
AcDbText
  0
ARC
  5
443
330
1F
100
AcDbEntity
  8
001
 62
   253
370
    50
100
AcDbCircle
 10
144.209171
 20
55.049453
 30
0.0
 40
6.0
100
AcDbArc
 50
0.0
 51
90.0
  0
ARC
  5
444
330
1F
100
AcDbEntity
  8
001
 62
   253
370
    50
100
AcDbCircle
 10
144.209171
 20
47.049453
 30
0.0
 40
6.0
100
AcDbArc
 50
270.0
 51
0.0
  0
LINE
  5
445
330
1F
100
AcDbEntity
  8
001
 62
   253
370
    50
100
AcDbLine
 10
150.209171
 20
55.049453
 30
0.0
 11
150.209171
 21
47.049453
 31
0.0
  0
LINE
  5
446
330
1F
100
AcDbEntity
  8
001
 62
   253
370
    50
100
AcDbLine
 10
144.209171
 20
61.049453
 30
0.0
 11
57.709171
 21
61.049453
 31
0.0
  0
LINE
  5
447
330
1F
100
AcDbEntity
  8
001
 62
   253
370
    50
100
AcDbLine
 10
144.209171
 20
41.049453
 30
0.0
 11
57.709171
 21
41.049453
 31
0.0
  0
LINE
  5
448
330
1F
100
AcDbEntity
  8
001
 62
   253
370
    50
100
AcDbLine
 10
57.709171
 20
61.049453
 30
0.0
 11
57.709171
 21
41.049453
 31
0.0
  0
LINE
  5
449
330
1F
100
AcDbEntity
  8
001
 62
   253
370
    50
100
AcDbLine
 10
57.709171
 20
61.049453
 30
0.0
 11
55.209171
 21
58.549453
 31
0.0
  0
LINE
  5
44A
330
1F
100
AcDbEntity
  8
001
 62
   253
370
    50
100
AcDbLine
 10
55.209171
 20
43.549453
 30
0.0
 11
57.709171
 21
41.049453
 31
0.0
  0
LINE
  5
44B
330
1F
100
AcDbEntity
  8
001
 62
   253
370
    50
100
AcDbLine
 10
55.209171
 20
58.549453
 30
0.0
 11
55.209171
 21
43.549453
 31
0.0
  0
POLYLINE
  5
44C
330
1F
100
AcDbEntity
  8
001
 62
   253
370
    50
100
AcDb2dPolyline
 66
     1
 10
0.0
 20
0.0
 30
0.0
  0
VERTEX
  5
44E
330
44C
100
AcDbEntity
  8
001
 62
   253
370
    50
100
AcDbVertex
100
AcDb2dVertex
 10
40.250264
 20
58.549453
 30
0.0
  0
VERTEX
  5
44F
330
44C
100
AcDbEntity
  8
001
 62
   253
370
    50
100
AcDbVertex
100
AcDb2dVertex
 10
40.229626
 20
58.549189
 30
0.0
  0
VERTEX
  5
450
330
44C
100
AcDbEntity
  8
001
 62
   253
370
    50
100
AcDbVertex
100
AcDb2dVertex
 10
40.199655
 20
58.548487
 30
0.0
  0
VERTEX
  5
451
330
44C
100
AcDbEntity
  8
001
 62
   253
370
    50
100
AcDbVertex
100
AcDb2dVertex
 10
39.761925
 20
58.501603
 30
0.0
  0
VERTEX
  5
452
330
44C
100
AcDbEntity
  8
001
 62
   253
370
    50
100
AcDbVertex
100
AcDb2dVertex
 10
39.397415
 20
58.413653
 30
0.0
  0
VERTEX
  5
453
330
44C
100
AcDbEntity
  8
001
 62
   253
370
    50
100
AcDbVertex
100
AcDb2dVertex
 10
38.806907
 20
58.251255
 30
0.0
  0
VERTEX
  5
454
330
44C
100
AcDbEntity
  8
001
 62
   253
370
    50
100
AcDbVertex
100
AcDb2dVertex
 10
38.152764
 20
58.055061
 30
0.0
  0
VERTEX
  5
455
330
44C
100
AcDbEntity
  8
001
 62
   253
370
    50
100
AcDbVertex
100
AcDb2dVertex
 10
37.079419
 20
57.69133
 30
0.0
  0
VERTEX
  5
456
330
44C
100
AcDbEntity
  8
001
 62
   253
370
    50
100
AcDbVertex
100
AcDb2dVertex
 10
36.302494
 20
57.409567
 30
0.0
  0
SEQEND
  5
44D
330
44C
100
AcDbEntity
  8
001
370
    50
  0
LINE
  5
457
330
1F
100
AcDbEntity
  8
001
 62
   253
370
    50
100
AcDbLine
 10
55.209171
 20
58.549453
 30
0.0
 11
40.250264
 21
58.549453
 31
0.0
  0
LINE
  5
458
330
1F
100
AcDbEntity
  8
001
 62
   253
370
    50
100
AcDbLine
 10
31.909971
 20
43.549453
 30
0.0
 11
55.209171
 21
43.549453
 31
0.0
  0
POLYLINE
  5
459
330
1F
100
AcDbEntity
  8
001
 62
   253
370
    50
100
AcDb2dPolyline
 66
     1
 10
0.0
 20
0.0
 30
0.0
  0
VERTEX
  5
45B
330
459
100
AcDbEntity
  8
001
 62
   253
370
    50
100
AcDbVertex
100
AcDb2dVertex
 10
31.909971
 20
43.928435
 30
0.0
  0
VERTEX
  5
45C
330
459
100
AcDbEntity
  8
001
 62
   253
370
    50
100
AcDbVertex
100
AcDb2dVertex
 10
33.454148
 20
44.143856
 30
0.0
  0
VERTEX
  5
45D
330
459
100
AcDbEntity
  8
001
 62
   253
370
    50
100
AcDbVertex
100
AcDb2dVertex
 10
35.693306
 20
44.554263
 30
0.0
  0
VERTEX
  5
45E
330
459
100
AcDbEntity
  8
001
 62
   253
370
    50
100
AcDbVertex
100
AcDb2dVertex
 10
37.791366
 20
45.075828
 30
0.0
  0
VERTEX
  5
45F
330
459
100
AcDbEntity
  8
001
 62
   253
370
    50
100
AcDbVertex
100
AcDb2dVertex
 10
39.209171
 20
45.501998
 30
0.0
  0
SEQEND
  5
45A
330
459
100
AcDbEntity
  8
001
370
    50
  0
POLYLINE
  5
460
330
1F
100
AcDbEntity
  8
001
 62
   253
370
    50
100
AcDb2dPolyline
 66
     1
 10
0.0
 20
0.0
 30
0.0
  0
VERTEX
  5
462
330
460
100
AcDbEntity
  8
001
 62
   253
370
    50
100
AcDbVertex
100
AcDb2dVertex
 10
39.209171
 20
45.501998
 30
0.0
  0
VERTEX
  5
463
330
460
100
AcDbEntity
  8
001
 62
   253
370
    50
100
AcDbVertex
100
AcDb2dVertex
 10
39.519378
 20
46.243793
 30
0.0
  0
VERTEX
  5
464
330
460
100
AcDbEntity
  8
001
 62
   253
370
    50
100
AcDbVertex
100
AcDb2dVertex
 10
39.876512
 20
47.299453
 30
0.0
  0
VERTEX
  5
465
330
460
100
AcDbEntity
  8
001
 62
   253
370
    50
100
AcDbVertex
100
AcDb2dVertex
 10
40.160786
 20
48.563782
 30
0.0
  0
VERTEX
  5
466
330
460
100
AcDbEntity
  8
001
 62
   253
370
    50
100
AcDbVertex
100
AcDb2dVertex
 10
40.287132
 20
49.747092
 30
0.0
  0
VERTEX
  5
467
330
460
100
AcDbEntity
  8
001
 62
   253
370
    50
100
AcDbVertex
100
AcDb2dVertex
 10
40.324687
 20
50.391199
 30
0.0
  0
VERTEX
  5
468
330
460
100
AcDbEntity
  8
001
 62
   253
370
    50
100
AcDbVertex
100
AcDb2dVertex
 10
40.339651
 20
51.049453
 30
0.0
  0
VERTEX
  5
469
330
460
100
AcDbEntity
  8
001
 62
   253
370
    50
100
AcDbVertex
100
AcDb2dVertex
 10
40.324687
 20
51.707707
 30
0.0
  0
VERTEX
  5
46A
330
460
100
AcDbEntity
  8
001
 62
   253
370
    50
100
AcDbVertex
100
AcDb2dVertex
 10
40.287132
 20
52.351814
 30
0.0
  0
VERTEX
  5
46B
330
460
100
AcDbEntity
  8
001
 62
   253
370
    50
100
AcDbVertex
100
AcDb2dVertex
 10
40.160786
 20
53.535124
 30
0.0
  0
VERTEX
  5
46C
330
460
100
AcDbEntity
  8
001
 62
   253
370
    50
100
AcDbVertex
100
AcDb2dVertex
 10
39.876512
 20
54.799453
 30
0.0
  0
VERTEX
  5
46D
330
460
100
AcDbEntity
  8
001
 62
   253
370
    50
100
AcDbVertex
100
AcDb2dVertex
 10
39.519378
 20
55.855113
 30
0.0
  0
VERTEX
  5
46E
330
460
100
AcDbEntity
  8
001
 62
   253
370
    50
100
AcDbVertex
100
AcDb2dVertex
 10
39.209171
 20
56.596908
 30
0.0
  0
SEQEND
  5
461
330
460
100
AcDbEntity
  8
001
370
    50
  0
POLYLINE
  5
46F
330
1F
100
AcDbEntity
  8
001
 62
   253
370
    50
100
AcDb2dPolyline
 66
     1
 10
0.0
 20
0.0
 30
0.0
  0
VERTEX
  5
471
330
46F
100
AcDbEntity
  8
001
 62
   253
370
    50
100
AcDbVertex
100
AcDb2dVertex
 10
39.209171
 20
56.596908
 30
0.0
  0
VERTEX
  5
472
330
46F
100
AcDbEntity
  8
001
 62
   253
370
    50
100
AcDbVertex
100
AcDb2dVertex
 10
38.641131
 20
56.77939
 30
0.0
  0
VERTEX
  5
473
330
46F
100
AcDbEntity
  8
001
 62
   253
370
    50
100
AcDbVertex
100
AcDb2dVertex
 10
37.805326
 20
57.027341
 30
0.0
  0
VERTEX
  5
474
330
46F
100
AcDbEntity
  8
001
 62
   253
370
    50
100
AcDbVertex
100
AcDb2dVertex
 10
36.915082
 20
57.262092
 30
0.0
  0
VERTEX
  5
475
330
46F
100
AcDbEntity
  8
001
 62
   253
370
    50
100
AcDbVertex
100
AcDb2dVertex
 10
36.302494
 20
57.409567
 30
0.0
  0
SEQEND
  5
470
330
46F
100
AcDbEntity
  8
001
370
    50
  0
LINE
  5
476
330
1F
100
AcDbEntity
  8
001
 62
   253
370
    50
100
AcDbLine
 10
31.909971
 20
43.928435
 30
0.0
 11
31.909971
 21
43.549453
 31
0.0
  0
LINE
  5
477
330
1F
100
AcDbEntity
  8
001
 62
   253
370
    50
100
AcDbLine
 10
39.209171
 20
45.501998
 30
0.0
 11
39.209171
 21
56.596908
 31
0.0
  0
LINE
  5
478
330
1F
100
AcDbEntity
  8
001
 62
   253
370
    50
100
AcDbLine
 10
31.909971
 20
43.928435
 30
0.0
 11
31.739905
 21
44.106622
 31
0.0
  0
LINE
  5
479
330
1F
100
AcDbEntity
  8
001
 62
   253
370
    50
100
AcDbLine
 10
35.521591
 20
46.22196
 30
0.0
 11
31.739905
 21
44.106622
 31
0.0
  0
POLYLINE
  5
47A
330
1F
100
AcDbEntity
  8
001
 62
   253
370
    50
100
AcDb2dPolyline
 66
     1
 10
0.0
 20
0.0
 30
0.0
  0
VERTEX
  5
47C
330
47A
100
AcDbEntity
  8
001
 62
   253
370
    50
100
AcDbVertex
100
AcDb2dVertex
 10
36.742338
 20
50.856642
 30
0.0
  0
VERTEX
  5
47D
330
47A
100
AcDbEntity
  8
001
 62
   253
370
    50
100
AcDbVertex
100
AcDb2dVertex
 10
36.686258
 20
50.855829
 30
0.0
  0
VERTEX
  5
47E
330
47A
100
AcDbEntity
  8
001
 62
   253
370
    50
100
AcDbVertex
100
AcDb2dVertex
 10
36.604395
 20
50.852314
 30
0.0
  0
VERTEX
  5
47F
330
47A
100
AcDbEntity
  8
001
 62
   253
370
    50
100
AcDbVertex
100
AcDb2dVertex
 10
36.522697
 20
50.845558
 30
0.0
  0
VERTEX
  5
480
330
47A
100
AcDbEntity
  8
001
 62
   253
370
    50
100
AcDbVertex
100
AcDb2dVertex
 10
36.466931
 20
50.839347
 30
0.0
  0
SEQEND
  5
47B
330
47A
100
AcDbEntity
  8
001
370
    50
  0
LINE
  5
481
330
1F
100
AcDbEntity
  8
001
 62
   253
370
    50
100
AcDbLine
 10
33.030626
 20
55.580243
 30
0.0
 11
36.466931
 21
50.839347
 31
0.0
  0
LINE
  5
482
330
1F
100
AcDbEntity
  8
001
 62
   253
370
    50
100
AcDbLine
 10
36.302494
 20
57.409567
 30
0.0
 11
33.030626
 21
55.580243
 31
0.0
  0
POLYLINE
  5
483
330
1F
100
AcDbEntity
  8
001
 62
   253
370
    50
100
AcDb2dPolyline
 66
     1
 10
0.0
 20
0.0
 30
0.0
  0
VERTEX
  5
485
330
483
100
AcDbEntity
  8
001
 62
   253
370
    50
100
AcDbVertex
100
AcDb2dVertex
 10
35.521591
 20
46.22196
 30
0.0
  0
VERTEX
  5
486
330
483
100
AcDbEntity
  8
001
 62
   253
370
    50
100
AcDbVertex
100
AcDb2dVertex
 10
35.541191
 20
46.209422
 30
0.0
  0
VERTEX
  5
487
330
483
100
AcDbEntity
  8
001
 62
   253
370
    50
100
AcDbVertex
100
AcDb2dVertex
 10
35.569629
 20
46.191578
 30
0.0
  0
VERTEX
  5
488
330
483
100
AcDbEntity
  8
001
 62
   253
370
    50
100
AcDbVertex
100
AcDb2dVertex
 10
35.764788
 20
46.083157
 30
0.0
  0
VERTEX
  5
489
330
483
100
AcDbEntity
  8
001
 62
   253
370
    50
100
AcDbVertex
100
AcDb2dVertex
 10
35.940158
 20
46.00741
 30
0.0
  0
VERTEX
  5
48A
330
483
100
AcDbEntity
  8
001
 62
   253
370
    50
100
AcDbVertex
100
AcDb2dVertex
 10
36.123195
 20
45.943983
 30
0.0
  0
VERTEX
  5
48B
330
483
100
AcDbEntity
  8
001
 62
   253
370
    50
100
AcDbVertex
100
AcDb2dVertex
 10
36.33506
 20
45.894623
 30
0.0
  0
VERTEX
  5
48C
330
483
100
AcDbEntity
  8
001
 62
   253
370
    50
100
AcDbVertex
100
AcDb2dVertex
 10
36.570946
 20
45.865764
 30
0.0
  0
VERTEX
  5
48D
330
483
100
AcDbEntity
  8
001
 62
   253
370
    50
100
AcDbVertex
100
AcDb2dVertex
 10
36.742338
 20
45.856642
 30
0.0
  0
SEQEND
  5
484
330
483
100
AcDbEntity
  8
001
370
    50
  0
POLYLINE
  5
48E
330
1F
100
AcDbEntity
  8
001
 62
   253
370
    50
100
AcDb2dPolyline
 66
     1
 10
0.0
 20
0.0
 30
0.0
  0
VERTEX
  5
490
330
48E
100
AcDbEntity
  8
001
 62
   253
370
    50
100
AcDbVertex
100
AcDb2dVertex
 10
36.742338
 20
45.856642
 30
0.0
  0
VERTEX
  5
491
330
48E
100
AcDbEntity
  8
001
 62
   253
370
    50
100
AcDbVertex
100
AcDb2dVertex
 10
36.914316
 20
45.866165
 30
0.0
  0
VERTEX
  5
492
330
48E
100
AcDbEntity
  8
001
 62
   253
370
    50
100
AcDbVertex
100
AcDb2dVertex
 10
37.149615
 20
45.894623
 30
0.0
  0
VERTEX
  5
493
330
48E
100
AcDbEntity
  8
001
 62
   253
370
    50
100
AcDbVertex
100
AcDb2dVertex
 10
37.358533
 20
45.941965
 30
0.0
  0
VERTEX
  5
494
330
48E
100
AcDbEntity
  8
001
 62
   253
370
    50
100
AcDbVertex
100
AcDb2dVertex
 10
37.544518
 20
46.00741
 30
0.0
  0
VERTEX
  5
495
330
48E
100
AcDbEntity
  8
001
 62
   253
370
    50
100
AcDbVertex
100
AcDb2dVertex
 10
37.731209
 20
46.090906
 30
0.0
  0
VERTEX
  5
496
330
48E
100
AcDbEntity
  8
001
 62
   253
370
    50
100
AcDbVertex
100
AcDb2dVertex
 10
37.915047
 20
46.191578
 30
0.0
  0
VERTEX
  5
497
330
48E
100
AcDbEntity
  8
001
 62
   253
370
    50
100
AcDbVertex
100
AcDb2dVertex
 10
38.405189
 20
46.592796
 30
0.0
  0
VERTEX
  5
498
330
48E
100
AcDbEntity
  8
001
 62
   253
370
    50
100
AcDbVertex
100
AcDb2dVertex
 10
38.773529
 20
47.106642
 30
0.0
  0
VERTEX
  5
499
330
48E
100
AcDbEntity
  8
001
 62
   253
370
    50
100
AcDbVertex
100
AcDb2dVertex
 10
38.946914
 20
47.503604
 30
0.0
  0
VERTEX
  5
49A
330
48E
100
AcDbEntity
  8
001
 62
   253
370
    50
100
AcDbVertex
100
AcDb2dVertex
 10
39.052124
 20
47.922522
 30
0.0
  0
VERTEX
  5
49B
330
48E
100
AcDbEntity
  8
001
 62
   253
370
    50
100
AcDbVertex
100
AcDb2dVertex
 10
39.078851
 20
48.138911
 30
0.0
  0
VERTEX
  5
49C
330
48E
100
AcDbEntity
  8
001
 62
   253
370
    50
100
AcDbVertex
100
AcDb2dVertex
 10
39.087756
 20
48.356642
 30
0.0
  0
VERTEX
  5
49D
330
48E
100
AcDbEntity
  8
001
 62
   253
370
    50
100
AcDbVertex
100
AcDb2dVertex
 10
39.078851
 20
48.574373
 30
0.0
  0
VERTEX
  5
49E
330
48E
100
AcDbEntity
  8
001
 62
   253
370
    50
100
AcDbVertex
100
AcDb2dVertex
 10
39.052124
 20
48.790762
 30
0.0
  0
VERTEX
  5
49F
330
48E
100
AcDbEntity
  8
001
 62
   253
370
    50
100
AcDbVertex
100
AcDb2dVertex
 10
38.946914
 20
49.20968
 30
0.0
  0
VERTEX
  5
4A0
330
48E
100
AcDbEntity
  8
001
 62
   253
370
    50
100
AcDbVertex
100
AcDb2dVertex
 10
38.773529
 20
49.606642
 30
0.0
  0
VERTEX
  5
4A1
330
48E
100
AcDbEntity
  8
001
 62
   253
370
    50
100
AcDbVertex
100
AcDb2dVertex
 10
38.405189
 20
50.120487
 30
0.0
  0
VERTEX
  5
4A2
330
48E
100
AcDbEntity
  8
001
 62
   253
370
    50
100
AcDbVertex
100
AcDb2dVertex
 10
37.915047
 20
50.521705
 30
0.0
  0
VERTEX
  5
4A3
330
48E
100
AcDbEntity
  8
001
 62
   253
370
    50
100
AcDbVertex
100
AcDb2dVertex
 10
37.731209
 20
50.622378
 30
0.0
  0
VERTEX
  5
4A4
330
48E
100
AcDbEntity
  8
001
 62
   253
370
    50
100
AcDbVertex
100
AcDb2dVertex
 10
37.544518
 20
50.705873
 30
0.0
  0
VERTEX
  5
4A5
330
48E
100
AcDbEntity
  8
001
 62
   253
370
    50
100
AcDbVertex
100
AcDb2dVertex
 10
37.358533
 20
50.771319
 30
0.0
  0
VERTEX
  5
4A6
330
48E
100
AcDbEntity
  8
001
 62
   253
370
    50
100
AcDbVertex
100
AcDb2dVertex
 10
37.149615
 20
50.818661
 30
0.0
  0
VERTEX
  5
4A7
330
48E
100
AcDbEntity
  8
001
 62
   253
370
    50
100
AcDbVertex
100
AcDb2dVertex
 10
36.914316
 20
50.847119
 30
0.0
  0
VERTEX
  5
4A8
330
48E
100
AcDbEntity
  8
001
 62
   253
370
    50
100
AcDbVertex
100
AcDb2dVertex
 10
36.742338
 20
50.856642
 30
0.0
  0
SEQEND
  5
48F
330
48E
100
AcDbEntity
  8
001
370
    50
  0
LINE
  5
4A9
330
1F
100
AcDbEntity
  8
001
 62
   253
370
    50
100
AcDbLine
 10
35.521591
 20
46.22196
 30
0.0
 11
36.55322
 21
46.22196
 31
0.0
  0
POLYLINE
  5
4AA
330
1F
100
AcDbEntity
  8
001
 62
   253
370
    50
100
AcDb2dPolyline
 66
     1
 10
0.0
 20
0.0
 30
0.0
  0
VERTEX
  5
4AC
330
4AA
100
AcDbEntity
  8
001
 62
   253
370
    50
100
AcDbVertex
100
AcDb2dVertex
 10
36.55322
 20
46.22196
 30
0.0
  0
VERTEX
  5
4AD
330
4AA
100
AcDbEntity
  8
001
 62
   253
370
    50
100
AcDbVertex
100
AcDb2dVertex
 10
36.5729
 20
46.209405
 30
0.0
  0
VERTEX
  5
4AE
330
4AA
100
AcDbEntity
  8
001
 62
   253
370
    50
100
AcDbVertex
100
AcDb2dVertex
 10
36.601257
 20
46.191578
 30
0.0
  0
VERTEX
  5
4AF
330
4AA
100
AcDbEntity
  8
001
 62
   253
370
    50
100
AcDbVertex
100
AcDb2dVertex
 10
36.78615
 20
46.085409
 30
0.0
  0
VERTEX
  5
4B0
330
4AA
100
AcDbEntity
  8
001
 62
   253
370
    50
100
AcDbVertex
100
AcDb2dVertex
 10
36.971786
 20
46.00741
 30
0.0
  0
VERTEX
  5
4B1
330
4AA
100
AcDbEntity
  8
001
 62
   253
370
    50
100
AcDbVertex
100
AcDb2dVertex
 10
37.135633
 20
45.953094
 30
0.0
  0
VERTEX
  5
4B2
330
4AA
100
AcDbEntity
  8
001
 62
   253
370
    50
100
AcDbVertex
100
AcDb2dVertex
 10
37.258152
 20
45.91785
 30
0.0
  0
SEQEND
  5
4AB
330
4AA
100
AcDbEntity
  8
001
370
    50
  0
LINE
  5
4B3
330
1F
100
AcDbEntity
  8
001
 62
   253
370
    50
100
AcDbLine
 10
37.017745
 20
50.839347
 30
0.0
 11
36.466931
 21
50.839347
 31
0.0
  0
LINE
  5
4B4
330
1F
100
AcDbEntity
  8
001
 62
   253
370
    50
100
AcDbLine
 10
31.77007
 20
43.704829
 30
0.0
 11
31.909971
 21
43.549453
 31
0.0
  0
POLYLINE
  5
4B5
330
1F
100
AcDbEntity
  8
001
 62
   253
370
    50
100
AcDb2dPolyline
 66
     1
 10
0.0
 20
0.0
 30
0.0
  0
VERTEX
  5
4B7
330
4B5
100
AcDbEntity
  8
001
 62
   253
370
    50
100
AcDbVertex
100
AcDb2dVertex
 10
31.739905
 20
44.106622
 30
0.0
  0
VERTEX
  5
4B8
330
4B5
100
AcDbEntity
  8
001
 62
   253
370
    50
100
AcDbVertex
100
AcDb2dVertex
 10
31.714891
 20
44.027994
 30
0.0
  0
VERTEX
  5
4B9
330
4B5
100
AcDbEntity
  8
001
 62
   253
370
    50
100
AcDbVertex
100
AcDb2dVertex
 10
31.697998
 20
43.947082
 30
0.0
  0
VERTEX
  5
4BA
330
4B5
100
AcDbEntity
  8
001
 62
   253
370
    50
100
AcDbVertex
100
AcDb2dVertex
 10
31.69586
 20
43.878242
 30
0.0
  0
VERTEX
  5
4BB
330
4B5
100
AcDbEntity
  8
001
 62
   253
370
    50
100
AcDbVertex
100
AcDb2dVertex
 10
31.708906
 20
43.811698
 30
0.0
  0
VERTEX
  5
4BC
330
4B5
100
AcDbEntity
  8
001
 62
   253
370
    50
100
AcDbVertex
100
AcDb2dVertex
 10
31.735413
 20
43.756826
 30
0.0
  0
VERTEX
  5
4BD
330
4B5
100
AcDbEntity
  8
001
 62
   253
370
    50
100
AcDbVertex
100
AcDb2dVertex
 10
31.769829
 20
43.705097
 30
0.0
  0
SEQEND
  5
4B6
330
4B5
100
AcDbEntity
  8
001
370
    50
  0
LINE
  5
4BE
330
1F
100
AcDbEntity
  8
001
  6
CENTER
 62
   253
370
     9
100
AcDbLine
 10
22.63532
 20
51.049453
 30
0.0
 11
159.40516
 21
51.049453
 31
0.0
  0
LINE
  5
4BF
330
1F
100
AcDbEntity
  8
001
370
    50
100
AcDbLine
 10
150.209171
 20
51.049453
 30
0.0
 11
154.314495
 21
53.419663
 31
0.0
  0
LINE
  5
4C0
330
1F
100
AcDbEntity
  8
001
370
    50
100
AcDbLine
 10
150.209171
 20
51.049453
 30
0.0
 11
154.314495
 21
48.679243
 31
0.0
  0
LINE
  5
4C1
330
1F
100
AcDbEntity
  8
001
 62
   253
370
     9
100
AcDbLine
 10
25.209171
 20
38.555691
 30
0.0
 11
25.209171
 21
50.872627
 31
0.0
  0
ENDSEC
  0
SECTION
  2
OBJECTS
  0
DICTIONARY
  5
C
330
0
100
AcDbDictionary
281
     1
  3
ACAD_GROUP
350
D
  3
ACAD_LAYOUT
350
1A
  3
ACAD_MLEADERSTYLE
350
4C5
  3
ACAD_MLINESTYLE
350
17
  3
ACAD_PLOTSETTINGS
350
19
  3
ACAD_PLOTSTYLENAME
350
E
  3
ACAD_SCALELIST
350
3B
  3
ACAD_TABLESTYLE
350
4C4
  3
ACAD_VISUALSTYLE
350
2A
  3
AcDbVariableDictionary
350
4C2
  0
DICTIONARY
  5
D
102
{ACAD_REACTORS
330
C
102
}
330
C
100
AcDbDictionary
281
     1
  0
DICTIONARY
  5
1A
102
{ACAD_REACTORS
330
C
102
}
330
C
100
AcDbDictionary
281
     1
  3
Layout1
350
1E
  3
Layout2
350
26
  3
Model
350
22
  0
DICTIONARY
  5
4C5
102
{ACAD_REACTORS
330
C
102
}
330
C
100
AcDbDictionary
281
     1
  0
DICTIONARY
  5
17
102
{ACAD_REACTORS
330
C
102
}
330
C
100
AcDbDictionary
281
     1
  3
Standard
350
18
  0
DICTIONARY
  5
19
102
{ACAD_REACTORS
330
C
102
}
330
C
100
AcDbDictionary
281
     1
  0
ACDBDICTIONARYWDFLT
  5
E
102
{ACAD_REACTORS
330
C
102
}
330
C
100
AcDbDictionary
281
     1
  3
Normal
350
F
100
AcDbDictionaryWithDefault
340
F
  0
DICTIONARY
  5
3B
102
{ACAD_REACTORS
330
C
102
}
330
C
100
AcDbDictionary
281
     1
  3
A0
350
3C
  3
A1
350
3D
  3
A2
350
3E
  3
A3
350
3F
  3
A4
350
40
  3
A5
350
41
  3
A6
350
42
  3
A7
350
43
  3
A8
350
44
  3
A9
350
45
  3
B0
350
46
  3
B1
350
47
  3
B2
350
48
  3
B3
350
49
  3
B4
350
4A
  3
B5
350
4B
  3
B6
350
4C
  3
B7
350
4D
  3
B8
350
4E
  3
B9
350
4F
  3
C0
350
50
  3
C1
350
51
  3
C2
350
52
  3
C3
350
53
  3
C4
350
54
  3
C5
350
55
  3
C6
350
56
  3
C7
350
57
  3
C8
350
58
  3
C9
350
59
  3
D0
350
5A
  3
D1
350
5B
  3
D2
350
5C
  0
DICTIONARY
  5
4C4
102
{ACAD_REACTORS
330
C
102
}
330
C
100
AcDbDictionary
281
     1
  0
DICTIONARY
  5
2A
102
{ACAD_REACTORS
330
C
102
}
330
C
100
AcDbDictionary
281
     1
  3
2dWireframe
350
2F
  3
3D Hidden
350
31
  3
3dWireframe
350
30
  3
Basic
350
32
  3
Brighten
350
36
  3
ColorChange
350
3A
  3
Conceptual
350
34
  3
Dim
350
35
  3
Facepattern
350
39
  3
Flat
350
2B
  3
FlatWithEdges
350
2C
  3
Gouraud
350
2D
  3
GouraudWithEdges
350
2E
  3
Linepattern
350
38
  3
Realistic
350
33
  3
Thicken
350
37
  0
DICTIONARY
  5
4C2
102
{ACAD_REACTORS
330
C
102
}
330
C
100
AcDbDictionary
281
     1
  3
CANNOSCALE
350
4C3
  3
PSOLHEIGHT
350
4C7
  3
PSOLWIDTH
350
4C6
  0
LAYOUT
  5
1E
102
{ACAD_REACTORS
330
1A
102
}
330
1A
100
AcDbPlotSettings
  1

  2
none_device
  4

  6

 40
0.0
 41
0.0
 42
0.0
 43
0.0
 44
0.0
 45
0.0
 46
0.0
 47
0.0
 48
0.0
 49
0.0
140
0.0
141
0.0
142
1.0
143
1.0
 70
   688
 72
     0
 73
     0
 74
     5
  7

 75
    16
147
1.0
148
0.0
149
0.0
100
AcDbLayout
  1
Layout1
 70
     1
 71
     1
 10
0.0
 20
0.0
 11
12.0
 21
9.0
 12
0.0
 22
0.0
 32
0.0
 14
1.000000E+20
 24
1.000000E+20
 34
0.0
 15
-1.000000E+20
 25
-1.000000E+20
 35
0.0
146
0.0
 13
0.0
 23
0.0
 33
0.0
 16
1.0
 26
0.0
 36
0.0
 17
0.0
 27
1.0
 37
0.0
 76
     0
330
1B
  0
LAYOUT
  5
26
102
{ACAD_REACTORS
330
1A
102
}
330
1A
100
AcDbPlotSettings
  1

  2
none_device
  4

  6

 40
0.0
 41
0.0
 42
0.0
 43
0.0
 44
0.0
 45
0.0
 46
0.0
 47
0.0
 48
0.0
 49
0.0
140
0.0
141
0.0
142
1.0
143
1.0
 70
   688
 72
     0
 73
     0
 74
     5
  7

 75
    16
147
1.0
148
0.0
149
0.0
100
AcDbLayout
  1
Layout2
 70
     1
 71
     2
 10
0.0
 20
0.0
 11
0.0
 21
0.0
 12
0.0
 22
0.0
 32
0.0
 14
0.0
 24
0.0
 34
0.0
 15
0.0
 25
0.0
 35
0.0
146
0.0
 13
0.0
 23
0.0
 33
0.0
 16
1.0
 26
0.0
 36
0.0
 17
0.0
 27
1.0
 37
0.0
 76
     0
330
23
  0
LAYOUT
  5
22
102
{ACAD_REACTORS
330
1A
102
}
330
1A
100
AcDbPlotSettings
  1

  2
none_device
  4

  6

 40
0.0
 41
0.0
 42
0.0
 43
0.0
 44
0.0
 45
0.0
 46
0.0
 47
0.0
 48
0.0
 49
0.0
140
0.0
141
0.0
142
1.0
143
1.0
 70
  1712
 72
     0
 73
     0
 74
     0
  7

 75
     0
147
1.0
148
0.0
149
0.0
100
AcDbLayout
  1
Model
 70
     1
 71
     0
 10
0.0
 20
0.0
 11
12.0
 21
9.0
 12
0.0
 22
0.0
 32
0.0
 14
-5.130447
 24
4.546082
 34
0.0
 15
175.615067
 25
94.09977
 35
0.0
146
0.0
 13
0.0
 23
0.0
 33
0.0
 16
1.0
 26
0.0
 36
0.0
 17
0.0
 27
1.0
 37
0.0
 76
     0
330
1F
331
29
  0
MLINESTYLE
  5
18
102
{ACAD_REACTORS
330
17
102
}
330
17
100
AcDbMlineStyle
  2
Standard
 70
     0
  3

 62
   256
 51
90.0
 52
90.0
 71
     2
 49
0.5
 62
   256
  6
BYLAYER
 49
-0.5
 62
   256
  6
BYLAYER
  0
ACDBPLACEHOLDER
  5
F
102
{ACAD_REACTORS
330
E
102
}
330
E
  0
SCALE
  5
3C
102
{ACAD_REACTORS
330
3B
102
}
330
3B
100
AcDbScale
 70
     0
300
1:1
140
1.0
141
1.0
290
     1
  0
SCALE
  5
3D
102
{ACAD_REACTORS
330
3B
102
}
330
3B
100
AcDbScale
 70
     0
300
1:2
140
1.0
141
2.0
290
     0
  0
SCALE
  5
3E
102
{ACAD_REACTORS
330
3B
102
}
330
3B
100
AcDbScale
 70
     0
300
1:4
140
1.0
141
4.0
290
     0
  0
SCALE
  5
3F
102
{ACAD_REACTORS
330
3B
102
}
330
3B
100
AcDbScale
 70
     0
300
1:5
140
1.0
141
5.0
290
     0
  0
SCALE
  5
40
102
{ACAD_REACTORS
330
3B
102
}
330
3B
100
AcDbScale
 70
     0
300
1:8
140
1.0
141
8.0
290
     0
  0
SCALE
  5
41
102
{ACAD_REACTORS
330
3B
102
}
330
3B
100
AcDbScale
 70
     0
300
1:10
140
1.0
141
10.0
290
     0
  0
SCALE
  5
42
102
{ACAD_REACTORS
330
3B
102
}
330
3B
100
AcDbScale
 70
     0
300
1:16
140
1.0
141
16.0
290
     0
  0
SCALE
  5
43
102
{ACAD_REACTORS
330
3B
102
}
330
3B
100
AcDbScale
 70
     0
300
1:20
140
1.0
141
20.0
290
     0
  0
SCALE
  5
44
102
{ACAD_REACTORS
330
3B
102
}
330
3B
100
AcDbScale
 70
     0
300
1:30
140
1.0
141
30.0
290
     0
  0
SCALE
  5
45
102
{ACAD_REACTORS
330
3B
102
}
330
3B
100
AcDbScale
 70
     0
300
1:40
140
1.0
141
40.0
290
     0
  0
SCALE
  5
46
102
{ACAD_REACTORS
330
3B
102
}
330
3B
100
AcDbScale
 70
     0
300
1:50
140
1.0
141
50.0
290
     0
  0
SCALE
  5
47
102
{ACAD_REACTORS
330
3B
102
}
330
3B
100
AcDbScale
 70
     0
300
1:100
140
1.0
141
100.0
290
     0
  0
SCALE
  5
48
102
{ACAD_REACTORS
330
3B
102
}
330
3B
100
AcDbScale
 70
     0
300
2:1
140
2.0
141
1.0
290
     0
  0
SCALE
  5
49
102
{ACAD_REACTORS
330
3B
102
}
330
3B
100
AcDbScale
 70
     0
300
4:1
140
4.0
141
1.0
290
     0
  0
SCALE
  5
4A
102
{ACAD_REACTORS
330
3B
102
}
330
3B
100
AcDbScale
 70
     0
300
8:1
140
8.0
141
1.0
290
     0
  0
SCALE
  5
4B
102
{ACAD_REACTORS
330
3B
102
}
330
3B
100
AcDbScale
 70
     0
300
10:1
140
10.0
141
1.0
290
     0
  0
SCALE
  5
4C
102
{ACAD_REACTORS
330
3B
102
}
330
3B
100
AcDbScale
 70
     0
300
100:1
140
100.0
141
1.0
290
     0
  0
SCALE
  5
4D
102
{ACAD_REACTORS
330
3B
102
}
330
3B
100
AcDbScale
 70
     0
300
1/128" = 1'-0"
140
0.007812
141
12.0
290
     0
  0
SCALE
  5
4E
102
{ACAD_REACTORS
330
3B
102
}
330
3B
100
AcDbScale
 70
     0
300
1/64" = 1'-0"
140
0.015625
141
12.0
290
     0
  0
SCALE
  5
4F
102
{ACAD_REACTORS
330
3B
102
}
330
3B
100
AcDbScale
 70
     0
300
1/32" = 1'-0"
140
0.03125
141
12.0
290
     0
  0
SCALE
  5
50
102
{ACAD_REACTORS
330
3B
102
}
330
3B
100
AcDbScale
 70
     0
300
1/16" = 1'-0"
140
0.0625
141
12.0
290
     0
  0
SCALE
  5
51
102
{ACAD_REACTORS
330
3B
102
}
330
3B
100
AcDbScale
 70
     0
300
3/32" = 1'-0"
140
0.09375
141
12.0
290
     0
  0
SCALE
  5
52
102
{ACAD_REACTORS
330
3B
102
}
330
3B
100
AcDbScale
 70
     0
300
1/8" = 1'-0"
140
0.125
141
12.0
290
     0
  0
SCALE
  5
53
102
{ACAD_REACTORS
330
3B
102
}
330
3B
100
AcDbScale
 70
     0
300
3/16" = 1'-0"
140
0.1875
141
12.0
290
     0
  0
SCALE
  5
54
102
{ACAD_REACTORS
330
3B
102
}
330
3B
100
AcDbScale
 70
     0
300
1/4" = 1'-0"
140
0.25
141
12.0
290
     0
  0
SCALE
  5
55
102
{ACAD_REACTORS
330
3B
102
}
330
3B
100
AcDbScale
 70
     0
300
3/8" = 1'-0"
140
0.375
141
12.0
290
     0
  0
SCALE
  5
56
102
{ACAD_REACTORS
330
3B
102
}
330
3B
100
AcDbScale
 70
     0
300
1/2" = 1'-0"
140
0.5
141
12.0
290
     0
  0
SCALE
  5
57
102
{ACAD_REACTORS
330
3B
102
}
330
3B
100
AcDbScale
 70
     0
300
3/4" = 1'-0"
140
0.75
141
12.0
290
     0
  0
SCALE
  5
58
102
{ACAD_REACTORS
330
3B
102
}
330
3B
100
AcDbScale
 70
     0
300
1" = 1'-0"
140
1.0
141
12.0
290
     0
  0
SCALE
  5
59
102
{ACAD_REACTORS
330
3B
102
}
330
3B
100
AcDbScale
 70
     0
300
1-1/2" = 1'-0"
140
1.5
141
12.0
290
     0
  0
SCALE
  5
5A
102
{ACAD_REACTORS
330
3B
102
}
330
3B
100
AcDbScale
 70
     0
300
3" = 1'-0"
140
3.0
141
12.0
290
     0
  0
SCALE
  5
5B
102
{ACAD_REACTORS
330
3B
102
}
330
3B
100
AcDbScale
 70
     0
300
6" = 1'-0"
140
6.0
141
12.0
290
     0
  0
SCALE
  5
5C
102
{ACAD_REACTORS
330
3B
102
}
330
3B
100
AcDbScale
 70
     0
300
1'-0" = 1'-0"
140
12.0
141
12.0
290
     0
  0
VISUALSTYLE
  5
2F
102
{ACAD_REACTORS
330
2A
102
}
330
2A
100
AcDbVisualStyle
  2
2dWireframe
 70
     4
 71
     0
 72
     2
 73
     0
 90
        0
 40
-0.6
 41
-30.0
 62
     5
 63
     7
 74
     1
 91
        4
 64
     7
 65
   257
 75
     1
175
     1
 42
1.0
 92
        0
 66
   257
 43
1.0
 76
     1
 77
     6
 78
     2
 67
     7
 79
     5
170
     0
171
     0
290
     0
174
     0
 93
        1
 44
0.0
173
     0
291
     0
 45
0.0
1001
ACAD
1000
AcDbSavedByObjectVersion
1070
     0
  0
VISUALSTYLE
  5
31
102
{ACAD_REACTORS
330
2A
102
}
330
2A
100
AcDbVisualStyle
  2
3D Hidden
 70
     6
 71
     1
 72
     2
 73
     2
 90
        0
 40
-0.6
 41
-30.0
 62
     5
 63
     7
 74
     2
 91
        2
 64
     7
 65
   257
 75
     2
175
     1
 42
40.0
 92
        0
 66
   257
 43
1.0
 76
     1
 77
     6
 78
     2
 67
     7
 79
     3
170
     0
171
     0
290
     0
174
     0
 93
        1
 44
0.0
173
     0
291
     0
 45
0.0
1001
ACAD
1000
AcDbSavedByObjectVersion
1070
     0
  0
VISUALSTYLE
  5
30
102
{ACAD_REACTORS
330
2A
102
}
330
2A
100
AcDbVisualStyle
  2
3dWireframe
 70
     5
 71
     0
 72
     2
 73
     0
 90
        0
 40
-0.6
 41
-30.0
 62
     5
 63
     7
 74
     1
 91
        4
 64
     7
 65
   257
 75
     1
175
     1
 42
1.0
 92
        0
 66
   257
 43
1.0
 76
     1
 77
     6
 78
     2
 67
     7
 79
     5
170
     0
171
     0
290
     0
174
     0
 93
        1
 44
0.0
173
     0
291
     0
 45
0.0
1001
ACAD
1000
AcDbSavedByObjectVersion
1070
     0
  0
VISUALSTYLE
  5
32
102
{ACAD_REACTORS
330
2A
102
}
330
2A
100
AcDbVisualStyle
  2
Basic
 70
     7
 71
     1
 72
     0
 73
     1
 90
        0
 40
-0.6
 41
-30.0
 62
     5
 63
     7
 74
     0
 91
        4
 64
     7
 65
   257
 75
     1
175
     1
 42
1.0
 92
        8
 66
     7
 43
1.0
 76
     1
 77
     6
 78
     2
 67
     7
 79
     5
170
     0
171
     0
290
     0
174
     0
 93
        1
 44
0.0
173
     0
291
     1
 45
0.0
1001
ACAD
1000
AcDbSavedByObjectVersion
1070
     0
  0
VISUALSTYLE
  5
36
102
{ACAD_REACTORS
330
2A
102
}
330
2A
100
AcDbVisualStyle
  2
Brighten
 70
    12
 71
     2
 72
     2
 73
     0
 90
        0
 40
-0.6
 41
-30.0
 62
     5
 63
     7
 74
     1
 91
        4
 64
     7
 65
   257
 75
     1
175
     1
 42
1.0
 92
        8
 66
     7
 43
1.0
 76
     1
 77
     6
 78
     2
 67
     7
 79
     5
170
     0
171
     0
290
     0
174
     0
 93
        1
 44
50.0
173
     0
291
     1
 45
0.0
1001
ACAD
1000
AcDbSavedByObjectVersion
1070
     0
  0
VISUALSTYLE
  5
3A
102
{ACAD_REACTORS
330
2A
102
}
330
2A
100
AcDbVisualStyle
  2
ColorChange
 70
    16
 71
     2
 72
     2
 73
     3
 90
        0
 40
-0.6
 41
-30.0
 62
     5
 63
     8
 74
     1
 91
        4
 64
     7
 65
   257
 75
     1
175
     1
 42
1.0
 92
        8
 66
     8
 43
1.0
 76
     1
 77
     6
 78
     2
 67
     7
 79
     5
170
     0
171
     0
290
     0
174
     0
 93
        1
 44
0.0
173
     0
291
     1
 45
0.0
1001
ACAD
1000
AcDbSavedByObjectVersion
1070
     0
  0
VISUALSTYLE
  5
34
102
{ACAD_REACTORS
330
2A
102
}
330
2A
100
AcDbVisualStyle
  2
Conceptual
 70
     9
 71
     3
 72
     2
 73
     0
 90
        0
 40
-0.6
 41
-30.0
 62
     5
 63
     7
 74
     2
 91
        2
 64
     7
 65
   257
 75
     1
175
     1
 42
40.0
 92
        8
 66
     7
 43
1.0
 76
     1
 77
     6
 78
     2
 67
     7
 79
     3
170
     0
171
     0
290
     0
174
     0
 93
        1
 44
0.0
173
     0
291
     0
 45
0.0
1001
ACAD
1000
AcDbSavedByObjectVersion
1070
     0
  0
VISUALSTYLE
  5
35
102
{ACAD_REACTORS
330
2A
102
}
330
2A
100
AcDbVisualStyle
  2
Dim
 70
    11
 71
     2
 72
     2
 73
     0
 90
        0
 40
-0.6
 41
-30.0
 62
     5
 63
     7
 74
     1
 91
        4
 64
     7
 65
   257
 75
     1
175
     1
 42
1.0
 92
        8
 66
     7
 43
1.0
 76
     1
 77
     6
 78
     2
 67
     7
 79
     5
170
     0
171
     0
290
     0
174
     0
 93
        1
 44
-50.0
173
     0
291
     1
 45
0.0
1001
ACAD
1000
AcDbSavedByObjectVersion
1070
     0
  0
VISUALSTYLE
  5
39
102
{ACAD_REACTORS
330
2A
102
}
330
2A
100
AcDbVisualStyle
  2
Facepattern
 70
    15
 71
     2
 72
     2
 73
     0
 90
        0
 40
-0.6
 41
-30.0
 62
     5
 63
     7
 74
     1
 91
        4
 64
     7
 65
   257
 75
     1
175
     1
 42
1.0
 92
        8
 66
     7
 43
1.0
 76
     1
 77
     6
 78
     2
 67
     7
 79
     5
170
     0
171
     0
290
     0
174
     0
 93
        1
 44
0.0
173
     0
291
     1
 45
0.0
1001
ACAD
1000
AcDbSavedByObjectVersion
1070
     0
  0
VISUALSTYLE
  5
2B
102
{ACAD_REACTORS
330
2A
102
}
330
2A
100
AcDbVisualStyle
  2
Flat
 70
     0
 71
     2
 72
     1
 73
     1
 90
        2
 40
-0.6
 41
30.0
 62
     5
 63
     7
 74
     0
 91
        4
 64
     7
 65
   257
 75
     1
175
     1
 42
1.0
 92
        8
 66
     7
 43
1.0
 76
     1
 77
     6
 78
     2
 67
     7
 79
     5
170
     0
171
     0
290
     0
174
     0
 93
       13
 44
0.0
173
     0
291
     1
 45
0.0
1001
ACAD
1000
AcDbSavedByObjectVersion
1070
     0
  0
VISUALSTYLE
  5
2C
102
{ACAD_REACTORS
330
2A
102
}
330
2A
100
AcDbVisualStyle
  2
FlatWithEdges
 70
     1
 71
     2
 72
     1
 73
     1
 90
        2
 40
-0.6
 41
30.0
 62
     5
 63
     7
 74
     1
 91
        4
 64
     7
 65
   257
 75
     1
175
     1
 42
1.0
 92
        0
 66
   257
 43
1.0
 76
     1
 77
     6
 78
     2
 67
     7
 79
     5
170
     0
171
     0
290
     0
174
     0
 93
       13
 44
0.0
173
     0
291
     1
 45
0.0
1001
ACAD
1000
AcDbSavedByObjectVersion
1070
     0
  0
VISUALSTYLE
  5
2D
102
{ACAD_REACTORS
330
2A
102
}
330
2A
100
AcDbVisualStyle
  2
Gouraud
 70
     2
 71
     2
 72
     2
 73
     1
 90
        2
 40
-0.6
 41
30.0
 62
     5
 63
     7
 74
     0
 91
        4
 64
     7
 65
   257
 75
     1
175
     1
 42
1.0
 92
        0
 66
     7
 43
1.0
 76
     1
 77
     6
 78
     2
 67
     7
 79
     5
170
     0
171
     0
290
     0
174
     0
 93
       13
 44
0.0
173
     0
291
     1
 45
0.0
1001
ACAD
1000
AcDbSavedByObjectVersion
1070
     0
  0
VISUALSTYLE
  5
2E
102
{ACAD_REACTORS
330
2A
102
}
330
2A
100
AcDbVisualStyle
  2
GouraudWithEdges
 70
     3
 71
     2
 72
     2
 73
     1
 90
        2
 40
-0.6
 41
30.0
 62
     5
 63
     7
 74
     1
 91
        4
 64
     7
 65
   257
 75
     1
175
     1
 42
1.0
 92
        0
 66
   257
 43
1.0
 76
     1
 77
     6
 78
     2
 67
     7
 79
     5
170
     0
171
     0
290
     0
174
     0
 93
       13
 44
0.0
173
     0
291
     1
 45
0.0
1001
ACAD
1000
AcDbSavedByObjectVersion
1070
     0
  0
VISUALSTYLE
  5
38
102
{ACAD_REACTORS
330
2A
102
}
330
2A
100
AcDbVisualStyle
  2
Linepattern
 70
    14
 71
     2
 72
     2
 73
     0
 90
        0
 40
-0.6
 41
-30.0
 62
     5
 63
     7
 74
     1
 91
        4
 64
     7
 65
   257
 75
     7
175
     7
 42
1.0
 92
        8
 66
     7
 43
1.0
 76
     1
 77
     6
 78
     2
 67
     7
 79
     5
170
     0
171
     0
290
     0
174
     0
 93
        1
 44
0.0
173
     0
291
     1
 45
0.0
1001
ACAD
1000
AcDbSavedByObjectVersion
1070
     0
  0
VISUALSTYLE
  5
33
102
{ACAD_REACTORS
330
2A
102
}
330
2A
100
AcDbVisualStyle
  2
Realistic
 70
     8
 71
     2
 72
     2
 73
     0
 90
        0
 40
-0.6
 41
-30.0
 62
     5
 63
     7
 74
     1
 91
        0
 64
     7
 65
   257
 75
     1
175
     1
 42
1.0
 92
        8
 66
     8
 43
1.0
 76
     1
 77
     6
 78
     2
 67
     7
 79
     5
170
     0
171
     0
290
     0
174
     0
 93
       13
 44
0.0
173
     0
291
     0
 45
0.0
1001
ACAD
1000
AcDbSavedByObjectVersion
1070
     0
  0
VISUALSTYLE
  5
37
102
{ACAD_REACTORS
330
2A
102
}
330
2A
100
AcDbVisualStyle
  2
Thicken
 70
    13
 71
     2
 72
     2
 73
     0
 90
        0
 40
-0.6
 41
-30.0
 62
     5
 63
     7
 74
     1
 91
        4
 64
     7
 65
   257
 75
     1
175
     1
 42
1.0
 92
       12
 66
     7
 43
1.0
 76
     1
 77
     6
 78
     2
 67
     7
 79
     5
170
     0
171
     0
290
     0
174
     0
 93
        1
 44
0.0
173
     0
291
     1
 45
0.0
1001
ACAD
1000
AcDbSavedByObjectVersion
1070
     0
  0
DICTIONARYVAR
  5
4C3
102
{ACAD_REACTORS
330
4C2
102
}
330
4C2
100
DictionaryVariables
280
     0
  1
1:1
  0
DICTIONARYVAR
  5
4C7
102
{ACAD_REACTORS
330
4C2
102
}
330
4C2
100
DictionaryVariables
280
     0
  1
80.000000
  0
DICTIONARYVAR
  5
4C6
102
{ACAD_REACTORS
330
4C2
102
}
330
4C2
100
DictionaryVariables
280
     0
  1
5.000000
  0
ENDSEC
  0
EOF
