  0
SECTION
  2
HEADER
  9
$ACADVER
  1
AC1015
  9
$ACADMAINTVER
 70
     6
  9
$DWGCODEPAGE
  3
ANSI_932
  9
$INSBASE
 10
0.0
 20
0.0
 30
0.0
  9
$EXTMIN
 10
45.170822
 20
1.328049
 30
0.0
  9
$EXTMAX
 10
222.076706
 20
81.61039
 30
0.0
  9
$LIMMIN
 10
0.0
 20
0.0
  9
$LIMMAX
 10
12.0
 20
9.0
  9
$ORTHOMODE
 70
     0
  9
$REGENMODE
 70
     1
  9
$FILLMODE
 70
     1
  9
$QTEXTMODE
 70
     0
  9
$MIRRTEXT
 70
     1
  9
$LTSCALE
 40
1.942703
  9
$ATTMODE
 70
     1
  9
$TEXTSIZE
 40
3.2
  9
$TRACEWID
 40
1.0
  9
$TEXTSTYLE
  7
Standard
  9
$CLAYER
  8
0
  9
$CELTYPE
  6
ByLayer
  9
$CECOLOR
 62
   256
  9
$CELTSCALE
 40
1.0
  9
$DISPSILH
 70
     0
  9
$DIMSCALE
 40
1.0
  9
$DIMASZ
 40
2.5
  9
$DIMEXO
 40
0.625
  9
$DIMDLI
 40
3.75
  9
$DIMRND
 40
0.0
  9
$DIMDLE
 40
0.0
  9
$DIMEXE
 40
1.25
  9
$DIMTP
 40
0.0
  9
$DIMTM
 40
0.0
  9
$DIMTXT
 40
2.5
  9
$DIMCEN
 40
0.09
  9
$DIMTSZ
 40
0.0
  9
$DIMTOL
 70
     0
  9
$DIMLIM
 70
     0
  9
$DIMTIH
 70
     0
  9
$DIMTOH
 70
     0
  9
$DIMSE1
 70
     0
  9
$DIMSE2
 70
     0
  9
$DIMTAD
 70
     0
  9
$DIMZIN
 70
     8
  9
$DIMBLK
  1

  9
$DIMASO
 70
     1
  9
$DIMSHO
 70
     0
  9
$DIMPOST
  1

  9
$DIMAPOST
  1

  9
$DIMALT
 70
     0
  9
$DIMALTD
 70
     3
  9
$DIMALTF
 40
0.03937
  9
$DIMLFAC
 40
1.0
  9
$DIMTOFL
 70
     1
  9
$DIMTVP
 40
0.0
  9
$DIMTIX
 70
     0
  9
$DIMSOXD
 70
     0
  9
$DIMSAH
 70
     0
  9
$DIMBLK1
  1

  9
$DIMBLK2
  1

  9
$DIMSTYLE
  2
ISO-25
  9
$DIMCLRD
 70
     0
  9
$DIMCLRE
 70
     0
  9
$DIMCLRT
 70
     0
  9
$DIMTFAC
 40
1.0
  9
$DIMGAP
 40
0.625
  9
$DIMJUST
 70
     0
  9
$DIMSD1
 70
     0
  9
$DIMSD2
 70
     0
  9
$DIMTOLJ
 70
     0
  9
$DIMTZIN
 70
     8
  9
$DIMALTZ
 70
     0
  9
$DIMALTTZ
 70
     0
  9
$DIMUPT
 70
     0
  9
$DIMDEC
 70
     2
  9
$DIMTDEC
 70
     2
  9
$DIMALTU
 70
     2
  9
$DIMALTTD
 70
     3
  9
$DIMTXSTY
  7
Standard
  9
$DIMAUNIT
 70
     0
  9
$DIMADEC
 70
     0
  9
$DIMALTRND
 40
0.0
  9
$DIMAZIN
 70
     0
  9
$DIMDSEP
 70
    44
  9
$DIMATFIT
 70
     3
  9
$DIMFRAC
 70
     0
  9
$DIMLDRBLK
  1

  9
$DIMLUNIT
 70
     2
  9
$DIMLWD
 70
    -2
  9
$DIMLWE
 70
    -2
  9
$DIMTMOVE
 70
     0
  9
$LUNITS
 70
     2
  9
$LUPREC
 70
     4
  9
$SKETCHINC
 40
1.0
  9
$FILLETRAD
 40
0.0
  9
$AUNITS
 70
     0
  9
$AUPREC
 70
     0
  9
$MENU
  1
.
  9
$ELEVATION
 40
0.0
  9
$PELEVATION
 40
0.0
  9
$THICKNESS
 40
0.0
  9
$LIMCHECK
 70
     0
  9
$CHAMFERA
 40
10.0
  9
$CHAMFERB
 40
10.0
  9
$CHAMFERC
 40
20.0
  9
$CHAMFERD
 40
0.0
  9
$SKPOLY
 70
     0
  9
$TDCREATE
 40
2456244.616850035
  9
$TDUCREATE
 40
2456244.241850035
  9
$TDUPDATE
 40
2456244.616850046
  9
$TDUUPDATE
 40
2456244.241850046
  9
$TDINDWG
 40
0.0000000116
  9
$TDUSRTIMER
 40
0.0000000116
  9
$USRTIMER
 70
     1
  9
$ANGBASE
 50
0.0
  9
$ANGDIR
 70
     0
  9
$PDMODE
 70
     0
  9
$PDSIZE
 40
0.0
  9
$PLINEWID
 40
0.0
  9
$SPLFRAME
 70
     0
  9
$SPLINETYPE
 70
     6
  9
$SPLINESEGS
 70
     8
  9
$HANDSEED
  5
4F9
  9
$SURFTAB1
 70
     6
  9
$SURFTAB2
 70
     6
  9
$SURFTYPE
 70
     6
  9
$SURFU
 70
     6
  9
$SURFV
 70
     6
  9
$UCSBASE
  2

  9
$UCSNAME
  2

  9
$UCSORG
 10
0.0
 20
0.0
 30
0.0
  9
$UCSXDIR
 10
1.0
 20
0.0
 30
0.0
  9
$UCSYDIR
 10
0.0
 20
1.0
 30
0.0
  9
$UCSORTHOREF
  2

  9
$UCSORTHOVIEW
 70
     0
  9
$UCSORGTOP
 10
0.0
 20
0.0
 30
0.0
  9
$UCSORGBOTTOM
 10
0.0
 20
0.0
 30
0.0
  9
$UCSORGLEFT
 10
0.0
 20
0.0
 30
0.0
  9
$UCSORGRIGHT
 10
0.0
 20
0.0
 30
0.0
  9
$UCSORGFRONT
 10
0.0
 20
0.0
 30
0.0
  9
$UCSORGBACK
 10
0.0
 20
0.0
 30
0.0
  9
$PUCSBASE
  2

  9
$PUCSNAME
  2

  9
$PUCSORG
 10
0.0
 20
0.0
 30
0.0
  9
$PUCSXDIR
 10
1.0
 20
0.0
 30
0.0
  9
$PUCSYDIR
 10
0.0
 20
1.0
 30
0.0
  9
$PUCSORTHOREF
  2

  9
$PUCSORTHOVIEW
 70
     0
  9
$PUCSORGTOP
 10
0.0
 20
0.0
 30
0.0
  9
$PUCSORGBOTTOM
 10
0.0
 20
0.0
 30
0.0
  9
$PUCSORGLEFT
 10
0.0
 20
0.0
 30
0.0
  9
$PUCSORGRIGHT
 10
0.0
 20
0.0
 30
0.0
  9
$PUCSORGFRONT
 10
0.0
 20
0.0
 30
0.0
  9
$PUCSORGBACK
 10
0.0
 20
0.0
 30
0.0
  9
$USERI1
 70
     0
  9
$USERI2
 70
     0
  9
$USERI3
 70
     0
  9
$USERI4
 70
     0
  9
$USERI5
 70
     0
  9
$USERR1
 40
0.0
  9
$USERR2
 40
0.0
  9
$USERR3
 40
0.0
  9
$USERR4
 40
0.0
  9
$USERR5
 40
0.0
  9
$WORLDVIEW
 70
     1
  9
$SHADEDGE
 70
     3
  9
$SHADEDIF
 70
    70
  9
$TILEMODE
 70
     1
  9
$MAXACTVP
 70
    64
  9
$PINSBASE
 10
0.0
 20
0.0
 30
0.0
  9
$PLIMCHECK
 70
     0
  9
$PEXTMIN
 10
1.000000E+20
 20
1.000000E+20
 30
0.0
  9
$PEXTMAX
 10
-1.000000E+20
 20
-1.000000E+20
 30
0.0
  9
$PLIMMIN
 10
0.0
 20
0.0
  9
$PLIMMAX
 10
12.0
 20
9.0
  9
$UNITMODE
 70
     0
  9
$VISRETAIN
 70
     1
  9
$PLINEGEN
 70
     0
  9
$PSLTSCALE
 70
     1
  9
$TREEDEPTH
 70
  3020
  9
$CMLSTYLE
  2
Standard
  9
$CMLJUST
 70
     0
  9
$CMLSCALE
 40
20.0
  9
$PROXYGRAPHICS
 70
     1
  9
$MEASUREMENT
 70
     1
  9
$CELWEIGHT
370
    -1
  9
$ENDCAPS
280
     0
  9
$JOINSTYLE
280
     0
  9
$LWDISPLAY
290
     0
  9
$INSUNITS
 70
     4
  9
$HYPERLINKBASE
  1

  9
$STYLESHEET
  1

  9
$XEDIT
290
     1
  9
$CEPSNTYPE
380
     0
  9
$PSTYLEMODE
290
     1
  9
$FINGERPRINTGUID
  2
{41BB286E-C120-41D6-82BE-6341785C8398}
  9
$VERSIONGUID
  2
{FAEB1C32-E019-11D5-929B-00C0DF256EC4}
  9
$EXTNAMES
290
     1
  9
$PSVPSCALE
 40
0.0
  9
$OLESTARTUP
290
     0
  0
ENDSEC
  0
SECTION
  2
CLASSES
  0
CLASS
  1
ACDBDICTIONARYWDFLT
  2
AcDbDictionaryWithDefault
  3
ObjectDBX Classes
 90
        0
280
     0
281
     0
  0
CLASS
  1
VISUALSTYLE
  2
AcDbVisualStyle
  3
ObjectDBX Classes
 90
     4095
280
     0
281
     0
  0
CLASS
  1
SCALE
  2
AcDbScale
  3
ObjectDBX Classes
 90
     1153
280
     0
281
     0
  0
CLASS
  1
DICTIONARYVAR
  2
AcDbDictionaryVar
  3
ObjectDBX Classes
 90
        0
280
     0
281
     0
  0
CLASS
  1
ACDBPLACEHOLDER
  2
AcDbPlaceHolder
  3
ObjectDBX Classes
 90
        0
280
     0
281
     0
  0
CLASS
  1
LAYOUT
  2
AcDbLayout
  3
ObjectDBX Classes
 90
        0
280
     0
281
     0
  0
ENDSEC
  0
SECTION
  2
TABLES
  0
TABLE
  2
VPORT
  5
8
330
0
100
AcDbSymbolTable
 70
     1
  0
VPORT
  5
29
330
8
100
AcDbSymbolTableRecord
100
AcDbViewportTableRecord
  2
*Active
 70
     0
 10
0.0
 20
0.0
 11
1.0
 21
1.0
 12
133.623764
 22
41.469219
 13
0.0
 23
0.0
 14
1.0
 24
1.0
 15
0.0
 25
0.0
 16
0.0
 26
0.0
 36
1.0
 17
0.0
 27
0.0
 37
0.0
 40
105.644303
 41
1.691288
 42
50.0
 43
0.0
 44
0.0
 50
0.0
 51
0.0
 71
     0
 72
   100
 73
     1
 74
     3
 75
     0
 76
     0
 77
     0
 78
     0
281
     0
 65
     1
110
0.0
120
0.0
130
0.0
111
1.0
121
0.0
131
0.0
112
0.0
122
1.0
132
0.0
 79
     0
146
0.0
  0
ENDTAB
  0
TABLE
  2
LTYPE
  5
5
330
0
100
AcDbSymbolTable
 70
     5
  0
LTYPE
  5
14
330
5
100
AcDbSymbolTableRecord
100
AcDbLinetypeTableRecord
  2
ByBlock
 70
     0
  3

 72
    65
 73
     0
 40
0.0
  0
LTYPE
  5
15
330
5
100
AcDbSymbolTableRecord
100
AcDbLinetypeTableRecord
  2
ByLayer
 70
     0
  3

 72
    65
 73
     0
 40
0.0
  0
LTYPE
  5
16
330
5
100
AcDbSymbolTableRecord
100
AcDbLinetypeTableRecord
  2
Continuous
 70
     0
  3
Solid line
 72
    65
 73
     0
 40
0.0
  0
LTYPE
  5
5D
330
5
100
AcDbSymbolTableRecord
100
AcDbLinetypeTableRecord
  2
DASHED
 70
     0
  3
DASHED
 72
    83
 73
     2
 40
0.75
 49
0.5
 74
     0
 49
-0.25
 74
     0
  0
LTYPE
  5
5E
330
5
100
AcDbSymbolTableRecord
100
AcDbLinetypeTableRecord
  2
HIDDEN
 70
     0
  3
HIDDEN
 72
    83
 73
     2
 40
0.375
 49
0.25
 74
     0
 49
-0.125
 74
     0
  0
LTYPE
  5
5F
330
5
100
AcDbSymbolTableRecord
100
AcDbLinetypeTableRecord
  2
CENTER
 70
     0
  3
CENTER
 72
    83
 73
     4
 40
2.0
 49
1.25
 74
     0
 49
-0.25
 74
     0
 49
0.25
 74
     0
 49
-0.25
 74
     0
  0
LTYPE
  5
60
330
5
100
AcDbSymbolTableRecord
100
AcDbLinetypeTableRecord
  2
PHANTOM
 70
     0
  3
PHANTOM
 72
    83
 73
     6
 40
2.5
 49
1.25
 74
     0
 49
-0.25
 74
     0
 49
0.25
 74
     0
 49
-0.25
 74
     0
 49
0.25
 74
     0
 49
-0.25
 74
     0
  0
ENDTAB
  0
TABLE
  2
LAYER
  5
2
330
0
100
AcDbSymbolTable
 70
     2
  0
LAYER
  5
10
330
2
100
AcDbSymbolTableRecord
100
AcDbLayerTableRecord
  2
0
 70
     0
 62
     7
  6
Continuous
370
    -3
390
F
  0
LAYER
  5
61
330
2
100
AcDbSymbolTableRecord
100
AcDbLayerTableRecord
  2
001
 70
     0
 62
     7
  6
Continuous
370
    -3
390
F
  0
ENDTAB
  0
TABLE
  2
STYLE
  5
3
330
0
100
AcDbSymbolTable
 70
     2
  0
STYLE
  5
11
330
3
100
AcDbSymbolTableRecord
100
AcDbTextStyleTableRecord
  2
Standard
 70
     0
 40
0.0
 41
1.0
 50
0.0
 71
     0
 42
0.2
  3
TXT
  4
BIGFONT
  0
STYLE
  5
62
330
3
100
AcDbSymbolTableRecord
100
AcDbTextStyleTableRecord
  2
TATEGAKI
 70
     4
 40
1.0
 41
1.0
 50
0.0
 71
     0
 42
0.2
  3
TXT
  4
BIGFONT
  0
ENDTAB
  0
TABLE
  2
VIEW
  5
6
330
0
100
AcDbSymbolTable
 70
     0
  0
ENDTAB
  0
TABLE
  2
UCS
  5
7
330
0
100
AcDbSymbolTable
 70
     0
  0
ENDTAB
  0
TABLE
  2
APPID
  5
9
330
0
100
AcDbSymbolTable
 70
     1
  0
APPID
  5
12
330
9
100
AcDbSymbolTableRecord
100
AcDbRegAppTableRecord
  2
ACAD
 70
     0
  0
ENDTAB
  0
TABLE
  2
DIMSTYLE
  5
A
330
0
100
AcDbSymbolTable
 70
     2
100
AcDbDimStyleTable
  0
DIMSTYLE
105
27
330
A
100
AcDbSymbolTableRecord
100
AcDbDimStyleTableRecord
  2
ISO-25
 70
     0
 41
2.5
 42
0.625
 43
3.75
 44
1.25
 73
     0
 74
     0
 77
     1
 78
     8
140
2.5
141
2.5
143
0.03937
147
0.625
171
     3
172
     1
271
     2
272
     2
274
     3
278
    44
283
     0
284
     8
340
11
  0
DIMSTYLE
105
63
102
{ACAD_REACTORS
330
443
330
444
330
445
330
452
330
453
330
460
102
}
330
A
100
AcDbSymbolTableRecord
100
AcDbDimStyleTableRecord
  2
Standard
 70
     0
 41
1.5
 42
0.0
 44
2.75
 73
     0
 74
     0
 77
     1
 78
     8
 79
     2
140
4.0
146
0.8
147
1.0
172
     1
179
     1
271
     1
340
11
  0
ENDTAB
  0
TABLE
  2
BLOCK_RECORD
  5
1
330
0
100
AcDbSymbolTable
 70
     9
  0
BLOCK_RECORD
  5
1F
330
1
100
AcDbSymbolTableRecord
100
AcDbBlockTableRecord
  2
*Model_Space
340
22
  0
BLOCK_RECORD
  5
1B
330
1
100
AcDbSymbolTableRecord
100
AcDbBlockTableRecord
  2
*Paper_Space
340
1E
  0
BLOCK_RECORD
  5
23
330
1
100
AcDbSymbolTableRecord
100
AcDbBlockTableRecord
  2
*Paper_Space0
340
26
  0
BLOCK_RECORD
  5
64
330
1
100
AcDbSymbolTableRecord
100
AcDbBlockTableRecord
  2
M-1-1
340
0
102
{BLKREFS
331
441
102
}
  0
BLOCK_RECORD
  5
268
330
1
100
AcDbSymbolTableRecord
100
AcDbBlockTableRecord
  2
C32GUX-2
340
0
102
{BLKREFS
331
442
102
}
  0
BLOCK_RECORD
  5
3C3
330
1
100
AcDbSymbolTableRecord
100
AcDbBlockTableRecord
  2
*D3
340
0
  0
BLOCK_RECORD
  5
3D7
330
1
100
AcDbSymbolTableRecord
100
AcDbBlockTableRecord
  2
*D4
340
0
  0
BLOCK_RECORD
  5
3EE
330
1
100
AcDbSymbolTableRecord
100
AcDbBlockTableRecord
  2
*D5
340
0
  0
BLOCK_RECORD
  5
404
330
1
100
AcDbSymbolTableRecord
100
AcDbBlockTableRecord
  2
*D6
340
0
  0
BLOCK_RECORD
  5
418
330
1
100
AcDbSymbolTableRecord
100
AcDbBlockTableRecord
  2
*D7
340
0
  0
BLOCK_RECORD
  5
42C
330
1
100
AcDbSymbolTableRecord
100
AcDbBlockTableRecord
  2
*D8
340
0
  0
ENDTAB
  0
ENDSEC
  0
SECTION
  2
BLOCKS
  0
BLOCK
  5
20
330
1F
100
AcDbEntity
  8
0
100
AcDbBlockBegin
  2
*Model_Space
 70
     0
 10
0.0
 20
0.0
 30
0.0
  3
*Model_Space
  1

  0
ENDBLK
  5
21
330
1F
100
AcDbEntity
  8
0
100
AcDbBlockEnd
  0
BLOCK
  5
1C
330
1B
100
AcDbEntity
 67
     1
  8
0
100
AcDbBlockBegin
  2
*Paper_Space
 70
     0
 10
0.0
 20
0.0
 30
0.0
  3
*Paper_Space
  1

  0
ENDBLK
  5
1D
330
1B
100
AcDbEntity
 67
     1
  8
0
100
AcDbBlockEnd
  0
BLOCK
  5
24
330
23
100
AcDbEntity
  8
0
100
AcDbBlockBegin
  2
*Paper_Space0
 70
     0
 10
0.0
 20
0.0
 30
0.0
  3
*Paper_Space0
  1

  0
ENDBLK
  5
25
330
23
100
AcDbEntity
  8
0
100
AcDbBlockEnd
  0
BLOCK
  5
65
330
64
100
AcDbEntity
  8
0
100
AcDbBlockBegin
  2
M-1-1
 70
     0
 10
0.0
 20
0.0
 30
0.0
  3
M-1-1
  1

  0
POLYLINE
  5
67
330
64
100
AcDbEntity
  8
001
 62
     5
370
    50
100
AcDb2dPolyline
 66
     1
 10
0.0
 20
0.0
 30
0.0
  0
VERTEX
  5
69
330
67
100
AcDbEntity
  8
001
 62
     5
370
    50
100
AcDbVertex
100
AcDb2dVertex
 10
77.140967
 20
48.260608
 30
0.0
  0
VERTEX
  5
6A
330
67
100
AcDbEntity
  8
001
 62
     5
370
    50
100
AcDbVertex
100
AcDb2dVertex
 10
77.102786
 20
48.234413
 30
0.0
  0
VERTEX
  5
6B
330
67
100
AcDbEntity
  8
001
 62
     5
370
    50
100
AcDbVertex
100
AcDb2dVertex
 10
77.06497
 20
48.207704
 30
0.0
  0
VERTEX
  5
6C
330
67
100
AcDbEntity
  8
001
 62
     5
370
    50
100
AcDbVertex
100
AcDb2dVertex
 10
76.996908
 20
48.155909
 30
0.0
  0
VERTEX
  5
6D
330
67
100
AcDbEntity
  8
001
 62
     5
370
    50
100
AcDbVertex
100
AcDb2dVertex
 10
76.931223
 20
48.101085
 30
0.0
  0
VERTEX
  5
6E
330
67
100
AcDbEntity
  8
001
 62
     5
370
    50
100
AcDbVertex
100
AcDb2dVertex
 10
76.867794
 20
48.043578
 30
0.0
  0
VERTEX
  5
6F
330
67
100
AcDbEntity
  8
001
 62
     5
370
    50
100
AcDbVertex
100
AcDb2dVertex
 10
76.806798
 20
47.983515
 30
0.0
  0
VERTEX
  5
70
330
67
100
AcDbEntity
  8
001
 62
     5
370
    50
100
AcDbVertex
100
AcDb2dVertex
 10
76.748342
 20
47.920874
 30
0.0
  0
VERTEX
  5
71
330
67
100
AcDbEntity
  8
001
 62
     5
370
    50
100
AcDbVertex
100
AcDb2dVertex
 10
76.692574
 20
47.855821
 30
0.0
  0
VERTEX
  5
72
330
67
100
AcDbEntity
  8
001
 62
     5
370
    50
100
AcDbVertex
100
AcDb2dVertex
 10
76.639532
 20
47.78844
 30
0.0
  0
VERTEX
  5
73
330
67
100
AcDbEntity
  8
001
 62
     5
370
    50
100
AcDbVertex
100
AcDb2dVertex
 10
76.589354
 20
47.718901
 30
0.0
  0
VERTEX
  5
74
330
67
100
AcDbEntity
  8
001
 62
     5
370
    50
100
AcDbVertex
100
AcDb2dVertex
 10
76.542093
 20
47.647266
 30
0.0
  0
VERTEX
  5
75
330
67
100
AcDbEntity
  8
001
 62
     5
370
    50
100
AcDbVertex
100
AcDb2dVertex
 10
76.497867
 20
47.573718
 30
0.0
  0
VERTEX
  5
76
330
67
100
AcDbEntity
  8
001
 62
     5
370
    50
100
AcDbVertex
100
AcDb2dVertex
 10
76.456722
 20
47.498331
 30
0.0
  0
VERTEX
  5
77
330
67
100
AcDbEntity
  8
001
 62
     5
370
    50
100
AcDbVertex
100
AcDb2dVertex
 10
76.41876
 20
47.421292
 30
0.0
  0
VERTEX
  5
78
330
67
100
AcDbEntity
  8
001
 62
     5
370
    50
100
AcDbVertex
100
AcDb2dVertex
 10
76.384021
 20
47.342685
 30
0.0
  0
VERTEX
  5
79
330
67
100
AcDbEntity
  8
001
 62
     5
370
    50
100
AcDbVertex
100
AcDb2dVertex
 10
76.35259
 20
47.262698
 30
0.0
  0
VERTEX
  5
7A
330
67
100
AcDbEntity
  8
001
 62
     5
370
    50
100
AcDbVertex
100
AcDb2dVertex
 10
76.324504
 20
47.181424
 30
0.0
  0
VERTEX
  5
7B
330
67
100
AcDbEntity
  8
001
 62
     5
370
    50
100
AcDbVertex
100
AcDb2dVertex
 10
76.299827
 20
47.099051
 30
0.0
  0
VERTEX
  5
7C
330
67
100
AcDbEntity
  8
001
 62
     5
370
    50
100
AcDbVertex
100
AcDb2dVertex
 10
76.278592
 20
47.015684
 30
0.0
  0
VERTEX
  5
7D
330
67
100
AcDbEntity
  8
001
 62
     5
370
    50
100
AcDbVertex
100
AcDb2dVertex
 10
76.260845
 20
46.931505
 30
0.0
  0
VERTEX
  5
7E
330
67
100
AcDbEntity
  8
001
 62
     5
370
    50
100
AcDbVertex
100
AcDb2dVertex
 10
76.246611
 20
46.846632
 30
0.0
  0
VERTEX
  5
7F
330
67
100
AcDbEntity
  8
001
 62
     5
370
    50
100
AcDbVertex
100
AcDb2dVertex
 10
76.235919
 20
46.761241
 30
0.0
  0
VERTEX
  5
80
330
67
100
AcDbEntity
  8
001
 62
     5
370
    50
100
AcDbVertex
100
AcDb2dVertex
 10
76.228787
 20
46.675461
 30
0.0
  0
VERTEX
  5
81
330
67
100
AcDbEntity
  8
001
 62
     5
370
    50
100
AcDbVertex
100
AcDb2dVertex
 10
76.225228
 20
46.589458
 30
0.0
  0
VERTEX
  5
82
330
67
100
AcDbEntity
  8
001
 62
     5
370
    50
100
AcDbVertex
100
AcDb2dVertex
 10
76.225249
 20
46.503376
 30
0.0
  0
VERTEX
  5
83
330
67
100
AcDbEntity
  8
001
 62
     5
370
    50
100
AcDbVertex
100
AcDb2dVertex
 10
76.228849
 20
46.417369
 30
0.0
  0
VERTEX
  5
84
330
67
100
AcDbEntity
  8
001
 62
     5
370
    50
100
AcDbVertex
100
AcDb2dVertex
 10
76.236023
 20
46.331592
 30
0.0
  0
VERTEX
  5
85
330
67
100
AcDbEntity
  8
001
 62
     5
370
    50
100
AcDbVertex
100
AcDb2dVertex
 10
76.246758
 20
46.246188
 30
0.0
  0
VERTEX
  5
86
330
67
100
AcDbEntity
  8
001
 62
     5
370
    50
100
AcDbVertex
100
AcDb2dVertex
 10
76.261034
 20
46.161322
 30
0.0
  0
VERTEX
  5
87
330
67
100
AcDbEntity
  8
001
 62
     5
370
    50
100
AcDbVertex
100
AcDb2dVertex
 10
76.278829
 20
46.077124
 30
0.0
  0
VERTEX
  5
88
330
67
100
AcDbEntity
  8
001
 62
     5
370
    50
100
AcDbVertex
100
AcDb2dVertex
 10
76.300107
 20
45.993768
 30
0.0
  0
VERTEX
  5
89
330
67
100
AcDbEntity
  8
001
 62
     5
370
    50
100
AcDbVertex
100
AcDb2dVertex
 10
76.324837
 20
45.91137
 30
0.0
  0
VERTEX
  5
8A
330
67
100
AcDbEntity
  8
001
 62
     5
370
    50
100
AcDbVertex
100
AcDb2dVertex
 10
76.352966
 20
45.830112
 30
0.0
  0
VERTEX
  5
8B
330
67
100
AcDbEntity
  8
001
 62
     5
370
    50
100
AcDbVertex
100
AcDb2dVertex
 10
76.384457
 20
45.750096
 30
0.0
  0
VERTEX
  5
8C
330
67
100
AcDbEntity
  8
001
 62
     5
370
    50
100
AcDbVertex
100
AcDb2dVertex
 10
76.419239
 20
45.671508
 30
0.0
  0
VERTEX
  5
8D
330
67
100
AcDbEntity
  8
001
 62
     5
370
    50
100
AcDbVertex
100
AcDb2dVertex
 10
76.45727
 20
45.594441
 30
0.0
  0
VERTEX
  5
8E
330
67
100
AcDbEntity
  8
001
 62
     5
370
    50
100
AcDbVertex
100
AcDb2dVertex
 10
76.498458
 20
45.519078
 30
0.0
  0
VERTEX
  5
8F
330
67
100
AcDbEntity
  8
001
 62
     5
370
    50
100
AcDbVertex
100
AcDb2dVertex
 10
76.54276
 20
45.445502
 30
0.0
  0
VERTEX
  5
90
330
67
100
AcDbEntity
  8
001
 62
     5
370
    50
100
AcDbVertex
100
AcDb2dVertex
 10
76.590064
 20
45.373896
 30
0.0
  0
VERTEX
  5
91
330
67
100
AcDbEntity
  8
001
 62
     5
370
    50
100
AcDbVertex
100
AcDb2dVertex
 10
76.640324
 20
45.304332
 30
0.0
  0
VERTEX
  5
92
330
67
100
AcDbEntity
  8
001
 62
     5
370
    50
100
AcDbVertex
100
AcDb2dVertex
 10
76.693411
 20
45.23699
 30
0.0
  0
VERTEX
  5
93
330
67
100
AcDbEntity
  8
001
 62
     5
370
    50
100
AcDbVertex
100
AcDb2dVertex
 10
76.749272
 20
45.171926
 30
0.0
  0
VERTEX
  5
94
330
67
100
AcDbEntity
  8
001
 62
     5
370
    50
100
AcDbVertex
100
AcDb2dVertex
 10
76.807762
 20
45.10931
 30
0.0
  0
VERTEX
  5
95
330
67
100
AcDbEntity
  8
001
 62
     5
370
    50
100
AcDbVertex
100
AcDb2dVertex
 10
76.868836
 20
45.049218
 30
0.0
  0
VERTEX
  5
96
330
67
100
AcDbEntity
  8
001
 62
     5
370
    50
100
AcDbVertex
100
AcDb2dVertex
 10
76.932339
 20
44.991814
 30
0.0
  0
VERTEX
  5
97
330
67
100
AcDbEntity
  8
001
 62
     5
370
    50
100
AcDbVertex
100
AcDb2dVertex
 10
76.99817
 20
44.937073
 30
0.0
  0
VERTEX
  5
98
330
67
100
AcDbEntity
  8
001
 62
     5
370
    50
100
AcDbVertex
100
AcDb2dVertex
 10
77.066145
 20
44.885118
 30
0.0
  0
VERTEX
  5
99
330
67
100
AcDbEntity
  8
001
 62
     5
370
    50
100
AcDbVertex
100
AcDb2dVertex
 10
77.13636
 20
44.83628
 30
0.0
  0
VERTEX
  5
9A
330
67
100
AcDbEntity
  8
001
 62
     5
370
    50
100
AcDbVertex
100
AcDb2dVertex
 10
77.171204
 20
44.813768
 30
0.0
  0
VERTEX
  5
9B
330
67
100
AcDbEntity
  8
001
 62
     5
370
    50
100
AcDbVertex
100
AcDb2dVertex
 10
77.206321
 20
44.791675
 30
0.0
  0
SEQEND
  5
68
330
67
100
AcDbEntity
  8
001
370
    50
  0
POLYLINE
  5
9C
330
64
100
AcDbEntity
  8
001
 62
     5
370
    50
100
AcDb2dPolyline
 66
     1
 10
0.0
 20
0.0
 30
0.0
  0
VERTEX
  5
9E
330
9C
100
AcDbEntity
  8
001
 62
     5
370
    50
100
AcDbVertex
100
AcDb2dVertex
 10
78.255363
 20
44.496913
 30
0.0
  0
VERTEX
  5
9F
330
9C
100
AcDbEntity
  8
001
 62
     5
370
    50
100
AcDbVertex
100
AcDb2dVertex
 10
78.403612
 20
44.504405
 30
0.0
  0
VERTEX
  5
A0
330
9C
100
AcDbEntity
  8
001
 62
     5
370
    50
100
AcDbVertex
100
AcDb2dVertex
 10
78.607603
 20
44.528057
 30
0.0
  0
VERTEX
  5
A1
330
9C
100
AcDbEntity
  8
001
 62
     5
370
    50
100
AcDbVertex
100
AcDb2dVertex
 10
78.790247
 20
44.56836
 30
0.0
  0
VERTEX
  5
A2
330
9C
100
AcDbEntity
  8
001
 62
     5
370
    50
100
AcDbVertex
100
AcDb2dVertex
 10
78.949141
 20
44.620543
 30
0.0
  0
VERTEX
  5
A3
330
9C
100
AcDbEntity
  8
001
 62
     5
370
    50
100
AcDbVertex
100
AcDb2dVertex
 10
79.101899
 20
44.683003
 30
0.0
  0
VERTEX
  5
A4
330
9C
100
AcDbEntity
  8
001
 62
     5
370
    50
100
AcDbVertex
100
AcDb2dVertex
 10
79.269599
 20
44.771561
 30
0.0
  0
VERTEX
  5
A5
330
9C
100
AcDbEntity
  8
001
 62
     5
370
    50
100
AcDbVertex
100
AcDb2dVertex
 10
79.327628
 20
44.807007
 30
0.0
  0
VERTEX
  5
A6
330
9C
100
AcDbEntity
  8
001
 62
     5
370
    50
100
AcDbVertex
100
AcDb2dVertex
 10
79.367886
 20
44.832742
 30
0.0
  0
SEQEND
  5
9D
330
9C
100
AcDbEntity
  8
001
370
    50
  0
POLYLINE
  5
A7
330
64
100
AcDbEntity
  8
001
 62
     5
370
    50
100
AcDb2dPolyline
 66
     1
 10
0.0
 20
0.0
 30
0.0
  0
VERTEX
  5
A9
330
A7
100
AcDbEntity
  8
001
 62
     5
370
    50
100
AcDbVertex
100
AcDb2dVertex
 10
78.255363
 20
48.596913
 30
0.0
  0
VERTEX
  5
AA
330
A7
100
AcDbEntity
  8
001
 62
     5
370
    50
100
AcDbVertex
100
AcDb2dVertex
 10
78.107114
 20
48.589421
 30
0.0
  0
VERTEX
  5
AB
330
A7
100
AcDbEntity
  8
001
 62
     5
370
    50
100
AcDbVertex
100
AcDb2dVertex
 10
77.903123
 20
48.565769
 30
0.0
  0
VERTEX
  5
AC
330
A7
100
AcDbEntity
  8
001
 62
     5
370
    50
100
AcDbVertex
100
AcDb2dVertex
 10
77.720479
 20
48.525466
 30
0.0
  0
VERTEX
  5
AD
330
A7
100
AcDbEntity
  8
001
 62
     5
370
    50
100
AcDbVertex
100
AcDb2dVertex
 10
77.561585
 20
48.473283
 30
0.0
  0
VERTEX
  5
AE
330
A7
100
AcDbEntity
  8
001
 62
     5
370
    50
100
AcDbVertex
100
AcDb2dVertex
 10
77.408828
 20
48.410824
 30
0.0
  0
VERTEX
  5
AF
330
A7
100
AcDbEntity
  8
001
 62
     5
370
    50
100
AcDbVertex
100
AcDb2dVertex
 10
77.241127
 20
48.322265
 30
0.0
  0
VERTEX
  5
B0
330
A7
100
AcDbEntity
  8
001
 62
     5
370
    50
100
AcDbVertex
100
AcDb2dVertex
 10
77.183116
 20
48.286831
 30
0.0
  0
VERTEX
  5
B1
330
A7
100
AcDbEntity
  8
001
 62
     5
370
    50
100
AcDbVertex
100
AcDb2dVertex
 10
77.142872
 20
48.261105
 30
0.0
  0
SEQEND
  5
A8
330
A7
100
AcDbEntity
  8
001
370
    50
  0
POLYLINE
  5
B2
330
64
100
AcDbEntity
  8
001
 62
     5
370
    50
100
AcDb2dPolyline
 66
     1
 10
0.0
 20
0.0
 30
0.0
  0
VERTEX
  5
B4
330
B2
100
AcDbEntity
  8
001
 62
     5
370
    50
100
AcDbVertex
100
AcDb2dVertex
 10
77.581783
 20
45.355907
 30
0.0
  0
VERTEX
  5
B5
330
B2
100
AcDbEntity
  8
001
 62
     5
370
    50
100
AcDbVertex
100
AcDb2dVertex
 10
77.60205
 20
45.356937
 30
0.0
  0
VERTEX
  5
B6
330
B2
100
AcDbEntity
  8
001
 62
     5
370
    50
100
AcDbVertex
100
AcDb2dVertex
 10
77.629894
 20
45.360161
 30
0.0
  0
VERTEX
  5
B7
330
B2
100
AcDbEntity
  8
001
 62
     5
370
    50
100
AcDbVertex
100
AcDb2dVertex
 10
77.654753
 20
45.365633
 30
0.0
  0
VERTEX
  5
B8
330
B2
100
AcDbEntity
  8
001
 62
     5
370
    50
100
AcDbVertex
100
AcDb2dVertex
 10
77.676543
 20
45.372793
 30
0.0
  0
VERTEX
  5
B9
330
B2
100
AcDbEntity
  8
001
 62
     5
370
    50
100
AcDbVertex
100
AcDb2dVertex
 10
77.697742
 20
45.381449
 30
0.0
  0
VERTEX
  5
BA
330
B2
100
AcDbEntity
  8
001
 62
     5
370
    50
100
AcDbVertex
100
AcDb2dVertex
 10
77.720313
 20
45.39342
 30
0.0
  0
VERTEX
  5
BB
330
B2
100
AcDbEntity
  8
001
 62
     5
370
    50
100
AcDbVertex
100
AcDb2dVertex
 10
77.739675
 20
45.406055
 30
0.0
  0
VERTEX
  5
BC
330
B2
100
AcDbEntity
  8
001
 62
     5
370
    50
100
AcDbVertex
100
AcDb2dVertex
 10
77.753117
 20
45.415865
 30
0.0
  0
SEQEND
  5
B3
330
B2
100
AcDbEntity
  8
001
370
    50
  0
POLYLINE
  5
BD
330
64
100
AcDbEntity
  8
001
 62
     5
370
    50
100
AcDb2dPolyline
 66
     1
 10
0.0
 20
0.0
 30
0.0
  0
VERTEX
  5
BF
330
BD
100
AcDbEntity
  8
001
 62
     5
370
    50
100
AcDbVertex
100
AcDb2dVertex
 10
78.474611
 20
45.344747
 30
0.0
  0
VERTEX
  5
C0
330
BD
100
AcDbEntity
  8
001
 62
     5
370
    50
100
AcDbVertex
100
AcDb2dVertex
 10
78.420456
 20
45.397187
 30
0.0
  0
VERTEX
  5
C1
330
BD
100
AcDbEntity
  8
001
 62
     5
370
    50
100
AcDbVertex
100
AcDb2dVertex
 10
78.339115
 20
45.458312
 30
0.0
  0
VERTEX
  5
C2
330
BD
100
AcDbEntity
  8
001
 62
     5
370
    50
100
AcDbVertex
100
AcDb2dVertex
 10
78.297129
 20
45.480691
 30
0.0
  0
VERTEX
  5
C3
330
BD
100
AcDbEntity
  8
001
 62
     5
370
    50
100
AcDbVertex
100
AcDb2dVertex
 10
78.25634
 20
45.497321
 30
0.0
  0
VERTEX
  5
C4
330
BD
100
AcDbEntity
  8
001
 62
     5
370
    50
100
AcDbVertex
100
AcDb2dVertex
 10
78.214947
 20
45.51093
 30
0.0
  0
VERTEX
  5
C5
330
BD
100
AcDbEntity
  8
001
 62
     5
370
    50
100
AcDbVertex
100
AcDb2dVertex
 10
78.168119
 20
45.52121
 30
0.0
  0
VERTEX
  5
C6
330
BD
100
AcDbEntity
  8
001
 62
     5
370
    50
100
AcDbVertex
100
AcDb2dVertex
 10
78.115497
 20
45.527294
 30
0.0
  0
VERTEX
  5
C7
330
BD
100
AcDbEntity
  8
001
 62
     5
370
    50
100
AcDbVertex
100
AcDb2dVertex
 10
78.077134
 20
45.529255
 30
0.0
  0
SEQEND
  5
BE
330
BD
100
AcDbEntity
  8
001
370
    50
  0
POLYLINE
  5
C8
330
64
100
AcDbEntity
  8
001
 62
     5
370
    50
100
AcDb2dPolyline
 66
     1
 10
0.0
 20
0.0
 30
0.0
  0
VERTEX
  5
CA
330
C8
100
AcDbEntity
  8
001
 62
     5
370
    50
100
AcDbVertex
100
AcDb2dVertex
 10
78.684788
 20
45.247184
 30
0.0
  0
VERTEX
  5
CB
330
C8
100
AcDbEntity
  8
001
 62
     5
370
    50
100
AcDbVertex
100
AcDb2dVertex
 10
78.705097
 20
45.24825
 30
0.0
  0
VERTEX
  5
CC
330
C8
100
AcDbEntity
  8
001
 62
     5
370
    50
100
AcDbVertex
100
AcDb2dVertex
 10
78.732898
 20
45.251438
 30
0.0
  0
VERTEX
  5
CD
330
C8
100
AcDbEntity
  8
001
 62
     5
370
    50
100
AcDbVertex
100
AcDb2dVertex
 10
78.757543
 20
45.256728
 30
0.0
  0
VERTEX
  5
CE
330
C8
100
AcDbEntity
  8
001
 62
     5
370
    50
100
AcDbVertex
100
AcDb2dVertex
 10
78.779548
 20
45.26407
 30
0.0
  0
VERTEX
  5
CF
330
C8
100
AcDbEntity
  8
001
 62
     5
370
    50
100
AcDbVertex
100
AcDb2dVertex
 10
78.80156
 20
45.273416
 30
0.0
  0
VERTEX
  5
D0
330
C8
100
AcDbEntity
  8
001
 62
     5
370
    50
100
AcDbVertex
100
AcDb2dVertex
 10
78.823317
 20
45.284697
 30
0.0
  0
VERTEX
  5
D1
330
C8
100
AcDbEntity
  8
001
 62
     5
370
    50
100
AcDbVertex
100
AcDb2dVertex
 10
78.880936
 20
45.328986
 30
0.0
  0
VERTEX
  5
D2
330
C8
100
AcDbEntity
  8
001
 62
     5
370
    50
100
AcDbVertex
100
AcDb2dVertex
 10
78.924728
 20
45.387184
 30
0.0
  0
VERTEX
  5
D3
330
C8
100
AcDbEntity
  8
001
 62
     5
370
    50
100
AcDbVertex
100
AcDb2dVertex
 10
78.945036
 20
45.432338
 30
0.0
  0
VERTEX
  5
D4
330
C8
100
AcDbEntity
  8
001
 62
     5
370
    50
100
AcDbVertex
100
AcDb2dVertex
 10
78.957638
 20
45.478562
 30
0.0
  0
VERTEX
  5
D5
330
C8
100
AcDbEntity
  8
001
 62
     5
370
    50
100
AcDbVertex
100
AcDb2dVertex
 10
78.96097
 20
45.501571
 30
0.0
  0
VERTEX
  5
D6
330
C8
100
AcDbEntity
  8
001
 62
     5
370
    50
100
AcDbVertex
100
AcDb2dVertex
 10
78.961847
 20
45.527184
 30
0.0
  0
VERTEX
  5
D7
330
C8
100
AcDbEntity
  8
001
 62
     5
370
    50
100
AcDbVertex
100
AcDb2dVertex
 10
78.960678
 20
45.550421
 30
0.0
  0
VERTEX
  5
D8
330
C8
100
AcDbEntity
  8
001
 62
     5
370
    50
100
AcDbVertex
100
AcDb2dVertex
 10
78.959015
 20
45.567116
 30
0.0
  0
SEQEND
  5
C9
330
C8
100
AcDbEntity
  8
001
370
    50
  0
POLYLINE
  5
D9
330
64
100
AcDbEntity
  8
001
 62
     5
370
    50
100
AcDb2dPolyline
 66
     1
 10
0.0
 20
0.0
 30
0.0
  0
VERTEX
  5
DB
330
D9
100
AcDbEntity
  8
001
 62
     5
370
    50
100
AcDbVertex
100
AcDb2dVertex
 10
79.380705
 20
46.163021
 30
0.0
  0
VERTEX
  5
DC
330
D9
100
AcDbEntity
  8
001
 62
     5
370
    50
100
AcDbVertex
100
AcDb2dVertex
 10
79.345841
 20
46.154597
 30
0.0
  0
VERTEX
  5
DD
330
D9
100
AcDbEntity
  8
001
 62
     5
370
    50
100
AcDbVertex
100
AcDb2dVertex
 10
79.298416
 20
46.140224
 30
0.0
  0
VERTEX
  5
DE
330
D9
100
AcDbEntity
  8
001
 62
     5
370
    50
100
AcDbVertex
100
AcDb2dVertex
 10
79.253974
 20
46.122126
 30
0.0
  0
VERTEX
  5
DF
330
D9
100
AcDbEntity
  8
001
 62
     5
370
    50
100
AcDbVertex
100
AcDb2dVertex
 10
79.21564
 20
46.101215
 30
0.0
  0
VERTEX
  5
E0
330
D9
100
AcDbEntity
  8
001
 62
     5
370
    50
100
AcDbVertex
100
AcDb2dVertex
 10
79.109498
 20
46.017883
 30
0.0
  0
VERTEX
  5
E1
330
D9
100
AcDbEntity
  8
001
 62
     5
370
    50
100
AcDbVertex
100
AcDb2dVertex
 10
79.023857
 20
45.907396
 30
0.0
  0
VERTEX
  5
E2
330
D9
100
AcDbEntity
  8
001
 62
     5
370
    50
100
AcDbVertex
100
AcDb2dVertex
 10
78.985058
 20
45.821943
 30
0.0
  0
VERTEX
  5
E3
330
D9
100
AcDbEntity
  8
001
 62
     5
370
    50
100
AcDbVertex
100
AcDb2dVertex
 10
78.961619
 20
45.734586
 30
0.0
  0
VERTEX
  5
E4
330
D9
100
AcDbEntity
  8
001
 62
     5
370
    50
100
AcDbVertex
100
AcDb2dVertex
 10
78.955356
 20
45.691078
 30
0.0
  0
VERTEX
  5
E5
330
D9
100
AcDbEntity
  8
001
 62
     5
370
    50
100
AcDbVertex
100
AcDb2dVertex
 10
78.953659
 20
45.642635
 30
0.0
  0
VERTEX
  5
E6
330
D9
100
AcDbEntity
  8
001
 62
     5
370
    50
100
AcDbVertex
100
AcDb2dVertex
 10
78.955864
 20
45.598688
 30
0.0
  0
VERTEX
  5
E7
330
D9
100
AcDbEntity
  8
001
 62
     5
370
    50
100
AcDbVertex
100
AcDb2dVertex
 10
78.959015
 20
45.567116
 30
0.0
  0
SEQEND
  5
DA
330
D9
100
AcDbEntity
  8
001
370
    50
  0
POLYLINE
  5
E8
330
64
100
AcDbEntity
  8
001
 62
     5
370
    50
100
AcDb2dPolyline
 66
     1
 10
0.0
 20
0.0
 30
0.0
  0
VERTEX
  5
EA
330
E8
100
AcDbEntity
  8
001
 62
     5
370
    50
100
AcDbVertex
100
AcDb2dVertex
 10
79.380705
 20
46.163021
 30
0.0
  0
VERTEX
  5
EB
330
E8
100
AcDbEntity
  8
001
 62
     5
370
    50
100
AcDbVertex
100
AcDb2dVertex
 10
79.39914
 20
46.167478
 30
0.0
  0
VERTEX
  5
EC
330
E8
100
AcDbEntity
  8
001
 62
     5
370
    50
100
AcDbVertex
100
AcDb2dVertex
 10
79.424218
 20
46.175075
 30
0.0
  0
VERTEX
  5
ED
330
E8
100
AcDbEntity
  8
001
 62
     5
370
    50
100
AcDbVertex
100
AcDb2dVertex
 10
79.447721
 20
46.184628
 30
0.0
  0
VERTEX
  5
EE
330
E8
100
AcDbEntity
  8
001
 62
     5
370
    50
100
AcDbVertex
100
AcDb2dVertex
 10
79.467988
 20
46.195702
 30
0.0
  0
VERTEX
  5
EF
330
E8
100
AcDbEntity
  8
001
 62
     5
370
    50
100
AcDbVertex
100
AcDb2dVertex
 10
79.524062
 20
46.240095
 30
0.0
  0
VERTEX
  5
F0
330
E8
100
AcDbEntity
  8
001
 62
     5
370
    50
100
AcDbVertex
100
AcDb2dVertex
 10
79.569399
 20
46.298189
 30
0.0
  0
VERTEX
  5
F1
330
E8
100
AcDbEntity
  8
001
 62
     5
370
    50
100
AcDbVertex
100
AcDb2dVertex
 10
79.590044
 20
46.342548
 30
0.0
  0
VERTEX
  5
F2
330
E8
100
AcDbEntity
  8
001
 62
     5
370
    50
100
AcDbVertex
100
AcDb2dVertex
 10
79.602309
 20
46.389568
 30
0.0
  0
VERTEX
  5
F3
330
E8
100
AcDbEntity
  8
001
 62
     5
370
    50
100
AcDbVertex
100
AcDb2dVertex
 10
79.60543
 20
46.413799
 30
0.0
  0
VERTEX
  5
F4
330
E8
100
AcDbEntity
  8
001
 62
     5
370
    50
100
AcDbVertex
100
AcDb2dVertex
 10
79.606518
 20
46.438189
 30
0.0
  0
VERTEX
  5
F5
330
E8
100
AcDbEntity
  8
001
 62
     5
370
    50
100
AcDbVertex
100
AcDb2dVertex
 10
79.605524
 20
46.462561
 30
0.0
  0
VERTEX
  5
F6
330
E8
100
AcDbEntity
  8
001
 62
     5
370
    50
100
AcDbVertex
100
AcDb2dVertex
 10
79.602309
 20
46.486811
 30
0.0
  0
VERTEX
  5
F7
330
E8
100
AcDbEntity
  8
001
 62
     5
370
    50
100
AcDbVertex
100
AcDb2dVertex
 10
79.589296
 20
46.534086
 30
0.0
  0
VERTEX
  5
F8
330
E8
100
AcDbEntity
  8
001
 62
     5
370
    50
100
AcDbVertex
100
AcDb2dVertex
 10
79.569399
 20
46.578189
 30
0.0
  0
VERTEX
  5
F9
330
E8
100
AcDbEntity
  8
001
 62
     5
370
    50
100
AcDbVertex
100
AcDb2dVertex
 10
79.529307
 20
46.634432
 30
0.0
  0
VERTEX
  5
FA
330
E8
100
AcDbEntity
  8
001
 62
     5
370
    50
100
AcDbVertex
100
AcDb2dVertex
 10
79.467988
 20
46.680676
 30
0.0
  0
VERTEX
  5
FB
330
E8
100
AcDbEntity
  8
001
 62
     5
370
    50
100
AcDbVertex
100
AcDb2dVertex
 10
79.447251
 20
46.691379
 30
0.0
  0
VERTEX
  5
FC
330
E8
100
AcDbEntity
  8
001
 62
     5
370
    50
100
AcDbVertex
100
AcDb2dVertex
 10
79.432353
 20
46.698164
 30
0.0
  0
SEQEND
  5
E9
330
E8
100
AcDbEntity
  8
001
370
    50
  0
POLYLINE
  5
FD
330
64
100
AcDbEntity
  8
001
 62
     5
370
    50
100
AcDb2dPolyline
 66
     1
 10
0.0
 20
0.0
 30
0.0
  0
VERTEX
  5
FF
330
FD
100
AcDbEntity
  8
001
 62
     5
370
    50
100
AcDbVertex
100
AcDb2dVertex
 10
79.132549
 20
47.365187
 30
0.0
  0
VERTEX
  5
100
330
FD
100
AcDbEntity
  8
001
 62
     5
370
    50
100
AcDbVertex
100
AcDb2dVertex
 10
79.122316
 20
47.330427
 30
0.0
  0
VERTEX
  5
101
330
FD
100
AcDbEntity
  8
001
 62
     5
370
    50
100
AcDbVertex
100
AcDb2dVertex
 10
79.110939
 20
47.281767
 30
0.0
  0
VERTEX
  5
102
330
FD
100
AcDbEntity
  8
001
 62
     5
370
    50
100
AcDbVertex
100
AcDb2dVertex
 10
79.104333
 20
47.234024
 30
0.0
  0
VERTEX
  5
103
330
FD
100
AcDbEntity
  8
001
 62
     5
370
    50
100
AcDbVertex
100
AcDb2dVertex
 10
79.102979
 20
47.189816
 30
0.0
  0
VERTEX
  5
104
330
FD
100
AcDbEntity
  8
001
 62
     5
370
    50
100
AcDbVertex
100
AcDb2dVertex
 10
79.105063
 20
47.144282
 30
0.0
  0
VERTEX
  5
105
330
FD
100
AcDbEntity
  8
001
 62
     5
370
    50
100
AcDbVertex
100
AcDb2dVertex
 10
79.110939
 20
47.097865
 30
0.0
  0
VERTEX
  5
106
330
FD
100
AcDbEntity
  8
001
 62
     5
370
    50
100
AcDbVertex
100
AcDb2dVertex
 10
79.135411
 20
47.008086
 30
0.0
  0
VERTEX
  5
107
330
FD
100
AcDbEntity
  8
001
 62
     5
370
    50
100
AcDbVertex
100
AcDb2dVertex
 10
79.173177
 20
46.925055
 30
0.0
  0
VERTEX
  5
108
330
FD
100
AcDbEntity
  8
001
 62
     5
370
    50
100
AcDbVertex
100
AcDb2dVertex
 10
79.249049
 20
46.818837
 30
0.0
  0
VERTEX
  5
109
330
FD
100
AcDbEntity
  8
001
 62
     5
370
    50
100
AcDbVertex
100
AcDb2dVertex
 10
79.36496
 20
46.731236
 30
0.0
  0
VERTEX
  5
10A
330
FD
100
AcDbEntity
  8
001
 62
     5
370
    50
100
AcDbVertex
100
AcDb2dVertex
 10
79.404176
 20
46.710992
 30
0.0
  0
VERTEX
  5
10B
330
FD
100
AcDbEntity
  8
001
 62
     5
370
    50
100
AcDbVertex
100
AcDb2dVertex
 10
79.432353
 20
46.698164
 30
0.0
  0
SEQEND
  5
FE
330
FD
100
AcDbEntity
  8
001
370
    50
  0
POLYLINE
  5
10C
330
64
100
AcDbEntity
  8
001
 62
     5
370
    50
100
AcDb2dPolyline
 66
     1
 10
0.0
 20
0.0
 30
0.0
  0
VERTEX
  5
10E
330
10C
100
AcDbEntity
  8
001
 62
     5
370
    50
100
AcDbVertex
100
AcDb2dVertex
 10
78.871125
 20
47.737919
 30
0.0
  0
VERTEX
  5
10F
330
10C
100
AcDbEntity
  8
001
 62
     5
370
    50
100
AcDbVertex
100
AcDb2dVertex
 10
78.850859
 20
47.736889
 30
0.0
  0
VERTEX
  5
110
330
10C
100
AcDbEntity
  8
001
 62
     5
370
    50
100
AcDbVertex
100
AcDb2dVertex
 10
78.823014
 20
47.733665
 30
0.0
  0
VERTEX
  5
111
330
10C
100
AcDbEntity
  8
001
 62
     5
370
    50
100
AcDbVertex
100
AcDb2dVertex
 10
78.798155
 20
47.728193
 30
0.0
  0
VERTEX
  5
112
330
10C
100
AcDbEntity
  8
001
 62
     5
370
    50
100
AcDbVertex
100
AcDb2dVertex
 10
78.776365
 20
47.721033
 30
0.0
  0
VERTEX
  5
113
330
10C
100
AcDbEntity
  8
001
 62
     5
370
    50
100
AcDbVertex
100
AcDb2dVertex
 10
78.755166
 20
47.712377
 30
0.0
  0
VERTEX
  5
114
330
10C
100
AcDbEntity
  8
001
 62
     5
370
    50
100
AcDbVertex
100
AcDb2dVertex
 10
78.732595
 20
47.700406
 30
0.0
  0
VERTEX
  5
115
330
10C
100
AcDbEntity
  8
001
 62
     5
370
    50
100
AcDbVertex
100
AcDb2dVertex
 10
78.713233
 20
47.687771
 30
0.0
  0
VERTEX
  5
116
330
10C
100
AcDbEntity
  8
001
 62
     5
370
    50
100
AcDbVertex
100
AcDb2dVertex
 10
78.699792
 20
47.677961
 30
0.0
  0
SEQEND
  5
10D
330
10C
100
AcDbEntity
  8
001
370
    50
  0
POLYLINE
  5
117
330
64
100
AcDbEntity
  8
001
 62
     5
370
    50
100
AcDb2dPolyline
 66
     1
 10
0.0
 20
0.0
 30
0.0
  0
VERTEX
  5
119
330
117
100
AcDbEntity
  8
001
 62
     5
370
    50
100
AcDbVertex
100
AcDb2dVertex
 10
77.978298
 20
47.749079
 30
0.0
  0
VERTEX
  5
11A
330
117
100
AcDbEntity
  8
001
 62
     5
370
    50
100
AcDbVertex
100
AcDb2dVertex
 10
78.032453
 20
47.696639
 30
0.0
  0
VERTEX
  5
11B
330
117
100
AcDbEntity
  8
001
 62
     5
370
    50
100
AcDbVertex
100
AcDb2dVertex
 10
78.113793
 20
47.635514
 30
0.0
  0
VERTEX
  5
11C
330
117
100
AcDbEntity
  8
001
 62
     5
370
    50
100
AcDbVertex
100
AcDb2dVertex
 10
78.15578
 20
47.613135
 30
0.0
  0
VERTEX
  5
11D
330
117
100
AcDbEntity
  8
001
 62
     5
370
    50
100
AcDbVertex
100
AcDb2dVertex
 10
78.196569
 20
47.596505
 30
0.0
  0
VERTEX
  5
11E
330
117
100
AcDbEntity
  8
001
 62
     5
370
    50
100
AcDbVertex
100
AcDb2dVertex
 10
78.237961
 20
47.582896
 30
0.0
  0
VERTEX
  5
11F
330
117
100
AcDbEntity
  8
001
 62
     5
370
    50
100
AcDbVertex
100
AcDb2dVertex
 10
78.284789
 20
47.572616
 30
0.0
  0
VERTEX
  5
120
330
117
100
AcDbEntity
  8
001
 62
     5
370
    50
100
AcDbVertex
100
AcDb2dVertex
 10
78.337411
 20
47.566532
 30
0.0
  0
VERTEX
  5
121
330
117
100
AcDbEntity
  8
001
 62
     5
370
    50
100
AcDbVertex
100
AcDb2dVertex
 10
78.375774
 20
47.564571
 30
0.0
  0
SEQEND
  5
118
330
117
100
AcDbEntity
  8
001
370
    50
  0
POLYLINE
  5
122
330
64
100
AcDbEntity
  8
001
 62
     5
370
    50
100
AcDb2dPolyline
 66
     1
 10
0.0
 20
0.0
 30
0.0
  0
VERTEX
  5
124
330
122
100
AcDbEntity
  8
001
 62
     5
370
    50
100
AcDbVertex
100
AcDb2dVertex
 10
77.768121
 20
47.846642
 30
0.0
  0
VERTEX
  5
125
330
122
100
AcDbEntity
  8
001
 62
     5
370
    50
100
AcDbVertex
100
AcDb2dVertex
 10
77.747812
 20
47.845576
 30
0.0
  0
VERTEX
  5
126
330
122
100
AcDbEntity
  8
001
 62
     5
370
    50
100
AcDbVertex
100
AcDb2dVertex
 10
77.72001
 20
47.842389
 30
0.0
  0
VERTEX
  5
127
330
122
100
AcDbEntity
  8
001
 62
     5
370
    50
100
AcDbVertex
100
AcDb2dVertex
 10
77.695365
 20
47.837098
 30
0.0
  0
VERTEX
  5
128
330
122
100
AcDbEntity
  8
001
 62
     5
370
    50
100
AcDbVertex
100
AcDb2dVertex
 10
77.673361
 20
47.829756
 30
0.0
  0
VERTEX
  5
129
330
122
100
AcDbEntity
  8
001
 62
     5
370
    50
100
AcDbVertex
100
AcDb2dVertex
 10
77.651348
 20
47.82041
 30
0.0
  0
VERTEX
  5
12A
330
122
100
AcDbEntity
  8
001
 62
     5
370
    50
100
AcDbVertex
100
AcDb2dVertex
 10
77.629591
 20
47.809129
 30
0.0
  0
VERTEX
  5
12B
330
122
100
AcDbEntity
  8
001
 62
     5
370
    50
100
AcDbVertex
100
AcDb2dVertex
 10
77.571973
 20
47.764841
 30
0.0
  0
VERTEX
  5
12C
330
122
100
AcDbEntity
  8
001
 62
     5
370
    50
100
AcDbVertex
100
AcDb2dVertex
 10
77.52818
 20
47.706642
 30
0.0
  0
VERTEX
  5
12D
330
122
100
AcDbEntity
  8
001
 62
     5
370
    50
100
AcDbVertex
100
AcDb2dVertex
 10
77.507873
 20
47.661488
 30
0.0
  0
VERTEX
  5
12E
330
122
100
AcDbEntity
  8
001
 62
     5
370
    50
100
AcDbVertex
100
AcDb2dVertex
 10
77.495271
 20
47.615264
 30
0.0
  0
VERTEX
  5
12F
330
122
100
AcDbEntity
  8
001
 62
     5
370
    50
100
AcDbVertex
100
AcDb2dVertex
 10
77.491939
 20
47.592255
 30
0.0
  0
VERTEX
  5
130
330
122
100
AcDbEntity
  8
001
 62
     5
370
    50
100
AcDbVertex
100
AcDb2dVertex
 10
77.491061
 20
47.566642
 30
0.0
  0
VERTEX
  5
131
330
122
100
AcDbEntity
  8
001
 62
     5
370
    50
100
AcDbVertex
100
AcDb2dVertex
 10
77.49223
 20
47.543405
 30
0.0
  0
VERTEX
  5
132
330
122
100
AcDbEntity
  8
001
 62
     5
370
    50
100
AcDbVertex
100
AcDb2dVertex
 10
77.493893
 20
47.52671
 30
0.0
  0
SEQEND
  5
123
330
122
100
AcDbEntity
  8
001
370
    50
  0
POLYLINE
  5
133
330
64
100
AcDbEntity
  8
001
 62
     5
370
    50
100
AcDb2dPolyline
 66
     1
 10
0.0
 20
0.0
 30
0.0
  0
VERTEX
  5
135
330
133
100
AcDbEntity
  8
001
 62
     5
370
    50
100
AcDbVertex
100
AcDb2dVertex
 10
77.072203
 20
46.930805
 30
0.0
  0
VERTEX
  5
136
330
133
100
AcDbEntity
  8
001
 62
     5
370
    50
100
AcDbVertex
100
AcDb2dVertex
 10
77.107068
 20
46.939229
 30
0.0
  0
VERTEX
  5
137
330
133
100
AcDbEntity
  8
001
 62
     5
370
    50
100
AcDbVertex
100
AcDb2dVertex
 10
77.154493
 20
46.953602
 30
0.0
  0
VERTEX
  5
138
330
133
100
AcDbEntity
  8
001
 62
     5
370
    50
100
AcDbVertex
100
AcDb2dVertex
 10
77.198935
 20
46.9717
 30
0.0
  0
VERTEX
  5
139
330
133
100
AcDbEntity
  8
001
 62
     5
370
    50
100
AcDbVertex
100
AcDb2dVertex
 10
77.237268
 20
46.992611
 30
0.0
  0
VERTEX
  5
13A
330
133
100
AcDbEntity
  8
001
 62
     5
370
    50
100
AcDbVertex
100
AcDb2dVertex
 10
77.34341
 20
47.075943
 30
0.0
  0
VERTEX
  5
13B
330
133
100
AcDbEntity
  8
001
 62
     5
370
    50
100
AcDbVertex
100
AcDb2dVertex
 10
77.429052
 20
47.18643
 30
0.0
  0
VERTEX
  5
13C
330
133
100
AcDbEntity
  8
001
 62
     5
370
    50
100
AcDbVertex
100
AcDb2dVertex
 10
77.46785
 20
47.271883
 30
0.0
  0
VERTEX
  5
13D
330
133
100
AcDbEntity
  8
001
 62
     5
370
    50
100
AcDbVertex
100
AcDb2dVertex
 10
77.491289
 20
47.35924
 30
0.0
  0
VERTEX
  5
13E
330
133
100
AcDbEntity
  8
001
 62
     5
370
    50
100
AcDbVertex
100
AcDb2dVertex
 10
77.497553
 20
47.402748
 30
0.0
  0
VERTEX
  5
13F
330
133
100
AcDbEntity
  8
001
 62
     5
370
    50
100
AcDbVertex
100
AcDb2dVertex
 10
77.499249
 20
47.451191
 30
0.0
  0
VERTEX
  5
140
330
133
100
AcDbEntity
  8
001
 62
     5
370
    50
100
AcDbVertex
100
AcDb2dVertex
 10
77.497045
 20
47.495138
 30
0.0
  0
VERTEX
  5
141
330
133
100
AcDbEntity
  8
001
 62
     5
370
    50
100
AcDbVertex
100
AcDb2dVertex
 10
77.493893
 20
47.52671
 30
0.0
  0
SEQEND
  5
134
330
133
100
AcDbEntity
  8
001
370
    50
  0
POLYLINE
  5
142
330
64
100
AcDbEntity
  8
001
 62
     5
370
    50
100
AcDb2dPolyline
 66
     1
 10
0.0
 20
0.0
 30
0.0
  0
VERTEX
  5
144
330
142
100
AcDbEntity
  8
001
 62
     5
370
    50
100
AcDbVertex
100
AcDb2dVertex
 10
77.072203
 20
46.930805
 30
0.0
  0
VERTEX
  5
145
330
142
100
AcDbEntity
  8
001
 62
     5
370
    50
100
AcDbVertex
100
AcDb2dVertex
 10
77.053768
 20
46.926348
 30
0.0
  0
VERTEX
  5
146
330
142
100
AcDbEntity
  8
001
 62
     5
370
    50
100
AcDbVertex
100
AcDb2dVertex
 10
77.02869
 20
46.918751
 30
0.0
  0
VERTEX
  5
147
330
142
100
AcDbEntity
  8
001
 62
     5
370
    50
100
AcDbVertex
100
AcDb2dVertex
 10
77.005188
 20
46.909198
 30
0.0
  0
VERTEX
  5
148
330
142
100
AcDbEntity
  8
001
 62
     5
370
    50
100
AcDbVertex
100
AcDb2dVertex
 10
76.98492
 20
46.898124
 30
0.0
  0
VERTEX
  5
149
330
142
100
AcDbEntity
  8
001
 62
     5
370
    50
100
AcDbVertex
100
AcDb2dVertex
 10
76.928846
 20
46.853731
 30
0.0
  0
VERTEX
  5
14A
330
142
100
AcDbEntity
  8
001
 62
     5
370
    50
100
AcDbVertex
100
AcDb2dVertex
 10
76.88351
 20
46.795637
 30
0.0
  0
VERTEX
  5
14B
330
142
100
AcDbEntity
  8
001
 62
     5
370
    50
100
AcDbVertex
100
AcDb2dVertex
 10
76.862865
 20
46.751278
 30
0.0
  0
VERTEX
  5
14C
330
142
100
AcDbEntity
  8
001
 62
     5
370
    50
100
AcDbVertex
100
AcDb2dVertex
 10
76.8506
 20
46.704258
 30
0.0
  0
VERTEX
  5
14D
330
142
100
AcDbEntity
  8
001
 62
     5
370
    50
100
AcDbVertex
100
AcDb2dVertex
 10
76.847479
 20
46.680027
 30
0.0
  0
VERTEX
  5
14E
330
142
100
AcDbEntity
  8
001
 62
     5
370
    50
100
AcDbVertex
100
AcDb2dVertex
 10
76.846391
 20
46.655637
 30
0.0
  0
VERTEX
  5
14F
330
142
100
AcDbEntity
  8
001
 62
     5
370
    50
100
AcDbVertex
100
AcDb2dVertex
 10
76.847384
 20
46.631265
 30
0.0
  0
VERTEX
  5
150
330
142
100
AcDbEntity
  8
001
 62
     5
370
    50
100
AcDbVertex
100
AcDb2dVertex
 10
76.8506
 20
46.607015
 30
0.0
  0
VERTEX
  5
151
330
142
100
AcDbEntity
  8
001
 62
     5
370
    50
100
AcDbVertex
100
AcDb2dVertex
 10
76.863613
 20
46.559741
 30
0.0
  0
VERTEX
  5
152
330
142
100
AcDbEntity
  8
001
 62
     5
370
    50
100
AcDbVertex
100
AcDb2dVertex
 10
76.88351
 20
46.515637
 30
0.0
  0
VERTEX
  5
153
330
142
100
AcDbEntity
  8
001
 62
     5
370
    50
100
AcDbVertex
100
AcDb2dVertex
 10
76.923601
 20
46.459395
 30
0.0
  0
VERTEX
  5
154
330
142
100
AcDbEntity
  8
001
 62
     5
370
    50
100
AcDbVertex
100
AcDb2dVertex
 10
76.98492
 20
46.41315
 30
0.0
  0
VERTEX
  5
155
330
142
100
AcDbEntity
  8
001
 62
     5
370
    50
100
AcDbVertex
100
AcDb2dVertex
 10
77.005658
 20
46.402447
 30
0.0
  0
VERTEX
  5
156
330
142
100
AcDbEntity
  8
001
 62
     5
370
    50
100
AcDbVertex
100
AcDb2dVertex
 10
77.020556
 20
46.395662
 30
0.0
  0
SEQEND
  5
143
330
142
100
AcDbEntity
  8
001
370
    50
  0
POLYLINE
  5
157
330
64
100
AcDbEntity
  8
001
 62
     5
370
    50
100
AcDb2dPolyline
 66
     1
 10
0.0
 20
0.0
 30
0.0
  0
VERTEX
  5
159
330
157
100
AcDbEntity
  8
001
 62
     5
370
    50
100
AcDbVertex
100
AcDb2dVertex
 10
77.32036
 20
45.728639
 30
0.0
  0
VERTEX
  5
15A
330
157
100
AcDbEntity
  8
001
 62
     5
370
    50
100
AcDbVertex
100
AcDb2dVertex
 10
77.330593
 20
45.763399
 30
0.0
  0
VERTEX
  5
15B
330
157
100
AcDbEntity
  8
001
 62
     5
370
    50
100
AcDbVertex
100
AcDb2dVertex
 10
77.341969
 20
45.812059
 30
0.0
  0
VERTEX
  5
15C
330
157
100
AcDbEntity
  8
001
 62
     5
370
    50
100
AcDbVertex
100
AcDb2dVertex
 10
77.348576
 20
45.859802
 30
0.0
  0
VERTEX
  5
15D
330
157
100
AcDbEntity
  8
001
 62
     5
370
    50
100
AcDbVertex
100
AcDb2dVertex
 10
77.349929
 20
45.90401
 30
0.0
  0
VERTEX
  5
15E
330
157
100
AcDbEntity
  8
001
 62
     5
370
    50
100
AcDbVertex
100
AcDb2dVertex
 10
77.347845
 20
45.949544
 30
0.0
  0
VERTEX
  5
15F
330
157
100
AcDbEntity
  8
001
 62
     5
370
    50
100
AcDbVertex
100
AcDb2dVertex
 10
77.341969
 20
45.995961
 30
0.0
  0
VERTEX
  5
160
330
157
100
AcDbEntity
  8
001
 62
     5
370
    50
100
AcDbVertex
100
AcDb2dVertex
 10
77.317497
 20
46.08574
 30
0.0
  0
VERTEX
  5
161
330
157
100
AcDbEntity
  8
001
 62
     5
370
    50
100
AcDbVertex
100
AcDb2dVertex
 10
77.279732
 20
46.168771
 30
0.0
  0
VERTEX
  5
162
330
157
100
AcDbEntity
  8
001
 62
     5
370
    50
100
AcDbVertex
100
AcDb2dVertex
 10
77.203859
 20
46.274989
 30
0.0
  0
VERTEX
  5
163
330
157
100
AcDbEntity
  8
001
 62
     5
370
    50
100
AcDbVertex
100
AcDb2dVertex
 10
77.087948
 20
46.36259
 30
0.0
  0
VERTEX
  5
164
330
157
100
AcDbEntity
  8
001
 62
     5
370
    50
100
AcDbVertex
100
AcDb2dVertex
 10
77.048732
 20
46.382834
 30
0.0
  0
VERTEX
  5
165
330
157
100
AcDbEntity
  8
001
 62
     5
370
    50
100
AcDbVertex
100
AcDb2dVertex
 10
77.020556
 20
46.395662
 30
0.0
  0
SEQEND
  5
158
330
157
100
AcDbEntity
  8
001
370
    50
  0
POLYLINE
  5
166
330
64
100
AcDbEntity
  8
001
 62
     5
370
    50
100
AcDb2dPolyline
 66
     1
 10
0.0
 20
0.0
 30
0.0
  0
VERTEX
  5
168
330
166
100
AcDbEntity
  8
001
 62
     5
370
    50
100
AcDbVertex
100
AcDb2dVertex
 10
79.132549
 20
47.365187
 30
0.0
  0
VERTEX
  5
169
330
166
100
AcDbEntity
  8
001
 62
     5
370
    50
100
AcDbVertex
100
AcDb2dVertex
 10
79.137957
 20
47.383568
 30
0.0
  0
VERTEX
  5
16A
330
166
100
AcDbEntity
  8
001
 62
     5
370
    50
100
AcDbVertex
100
AcDb2dVertex
 10
79.143975
 20
47.409297
 30
0.0
  0
VERTEX
  5
16B
330
166
100
AcDbEntity
  8
001
 62
     5
370
    50
100
AcDbVertex
100
AcDb2dVertex
 10
79.147482
 20
47.434537
 30
0.0
  0
VERTEX
  5
16C
330
166
100
AcDbEntity
  8
001
 62
     5
370
    50
100
AcDbVertex
100
AcDb2dVertex
 10
79.148185
 20
47.457919
 30
0.0
  0
VERTEX
  5
16D
330
166
100
AcDbEntity
  8
001
 62
     5
370
    50
100
AcDbVertex
100
AcDb2dVertex
 10
79.147031
 20
47.482019
 30
0.0
  0
VERTEX
  5
16E
330
166
100
AcDbEntity
  8
001
 62
     5
370
    50
100
AcDbVertex
100
AcDb2dVertex
 10
79.143975
 20
47.50654
 30
0.0
  0
VERTEX
  5
16F
330
166
100
AcDbEntity
  8
001
 62
     5
370
    50
100
AcDbVertex
100
AcDb2dVertex
 10
79.13156
 20
47.553786
 30
0.0
  0
VERTEX
  5
170
330
166
100
AcDbEntity
  8
001
 62
     5
370
    50
100
AcDbVertex
100
AcDb2dVertex
 10
79.111066
 20
47.597919
 30
0.0
  0
VERTEX
  5
171
330
166
100
AcDbEntity
  8
001
 62
     5
370
    50
100
AcDbVertex
100
AcDb2dVertex
 10
79.067199
 20
47.65571
 30
0.0
  0
VERTEX
  5
172
330
166
100
AcDbEntity
  8
001
 62
     5
370
    50
100
AcDbVertex
100
AcDb2dVertex
 10
79.009655
 20
47.700406
 30
0.0
  0
VERTEX
  5
173
330
166
100
AcDbEntity
  8
001
 62
     5
370
    50
100
AcDbVertex
100
AcDb2dVertex
 10
78.987901
 20
47.711708
 30
0.0
  0
VERTEX
  5
174
330
166
100
AcDbEntity
  8
001
 62
     5
370
    50
100
AcDbVertex
100
AcDb2dVertex
 10
78.965885
 20
47.721033
 30
0.0
  0
VERTEX
  5
175
330
166
100
AcDbEntity
  8
001
 62
     5
370
    50
100
AcDbVertex
100
AcDb2dVertex
 10
78.94388
 20
47.728369
 30
0.0
  0
VERTEX
  5
176
330
166
100
AcDbEntity
  8
001
 62
     5
370
    50
100
AcDbVertex
100
AcDb2dVertex
 10
78.919236
 20
47.733665
 30
0.0
  0
VERTEX
  5
177
330
166
100
AcDbEntity
  8
001
 62
     5
370
    50
100
AcDbVertex
100
AcDb2dVertex
 10
78.891434
 20
47.736854
 30
0.0
  0
VERTEX
  5
178
330
166
100
AcDbEntity
  8
001
 62
     5
370
    50
100
AcDbVertex
100
AcDb2dVertex
 10
78.871125
 20
47.737919
 30
0.0
  0
SEQEND
  5
167
330
166
100
AcDbEntity
  8
001
370
    50
  0
POLYLINE
  5
179
330
64
100
AcDbEntity
  8
001
 62
     5
370
    50
100
AcDb2dPolyline
 66
     1
 10
0.0
 20
0.0
 30
0.0
  0
VERTEX
  5
17B
330
179
100
AcDbEntity
  8
001
 62
     5
370
    50
100
AcDbVertex
100
AcDb2dVertex
 10
78.957332
 20
47.72402
 30
0.0
  0
VERTEX
  5
17C
330
179
100
AcDbEntity
  8
001
 62
     5
370
    50
100
AcDbVertex
100
AcDb2dVertex
 10
78.953802
 20
47.722808
 30
0.0
  0
VERTEX
  5
17D
330
179
100
AcDbEntity
  8
001
 62
     5
370
    50
100
AcDbVertex
100
AcDb2dVertex
 10
78.94878
 20
47.721033
 30
0.0
  0
VERTEX
  5
17E
330
179
100
AcDbEntity
  8
001
 62
     5
370
    50
100
AcDbVertex
100
AcDb2dVertex
 10
78.925654
 20
47.711751
 30
0.0
  0
VERTEX
  5
17F
330
179
100
AcDbEntity
  8
001
 62
     5
370
    50
100
AcDbVertex
100
AcDb2dVertex
 10
78.90501
 20
47.700406
 30
0.0
  0
VERTEX
  5
180
330
179
100
AcDbEntity
  8
001
 62
     5
370
    50
100
AcDbVertex
100
AcDb2dVertex
 10
78.885939
 20
47.687865
 30
0.0
  0
VERTEX
  5
181
330
179
100
AcDbEntity
  8
001
 62
     5
370
    50
100
AcDbVertex
100
AcDb2dVertex
 10
78.872207
 20
47.677961
 30
0.0
  0
SEQEND
  5
17A
330
179
100
AcDbEntity
  8
001
370
    50
  0
POLYLINE
  5
182
330
64
100
AcDbEntity
  8
001
 62
     5
370
    50
100
AcDb2dPolyline
 66
     1
 10
0.0
 20
0.0
 30
0.0
  0
VERTEX
  5
184
330
182
100
AcDbEntity
  8
001
 62
     5
370
    50
100
AcDbVertex
100
AcDb2dVertex
 10
78.474611
 20
45.344747
 30
0.0
  0
VERTEX
  5
185
330
182
100
AcDbEntity
  8
001
 62
     5
370
    50
100
AcDbVertex
100
AcDb2dVertex
 10
78.503247
 20
45.317018
 30
0.0
  0
VERTEX
  5
186
330
182
100
AcDbEntity
  8
001
 62
     5
370
    50
100
AcDbVertex
100
AcDb2dVertex
 10
78.546258
 20
45.284697
 30
0.0
  0
VERTEX
  5
187
330
182
100
AcDbEntity
  8
001
 62
     5
370
    50
100
AcDbVertex
100
AcDb2dVertex
 10
78.568459
 20
45.272863
 30
0.0
  0
VERTEX
  5
188
330
182
100
AcDbEntity
  8
001
 62
     5
370
    50
100
AcDbVertex
100
AcDb2dVertex
 10
78.590028
 20
45.26407
 30
0.0
  0
VERTEX
  5
189
330
182
100
AcDbEntity
  8
001
 62
     5
370
    50
100
AcDbVertex
100
AcDb2dVertex
 10
78.611915
 20
45.256873
 30
0.0
  0
VERTEX
  5
18A
330
182
100
AcDbEntity
  8
001
 62
     5
370
    50
100
AcDbVertex
100
AcDb2dVertex
 10
78.636677
 20
45.251438
 30
0.0
  0
VERTEX
  5
18B
330
182
100
AcDbEntity
  8
001
 62
     5
370
    50
100
AcDbVertex
100
AcDb2dVertex
 10
78.664502
 20
45.248221
 30
0.0
  0
VERTEX
  5
18C
330
182
100
AcDbEntity
  8
001
 62
     5
370
    50
100
AcDbVertex
100
AcDb2dVertex
 10
78.684788
 20
45.247184
 30
0.0
  0
SEQEND
  5
183
330
182
100
AcDbEntity
  8
001
370
    50
  0
POLYLINE
  5
18D
330
64
100
AcDbEntity
  8
001
 62
     5
370
    50
100
AcDb2dPolyline
 66
     1
 10
0.0
 20
0.0
 30
0.0
  0
VERTEX
  5
18F
330
18D
100
AcDbEntity
  8
001
 62
     5
370
    50
100
AcDbVertex
100
AcDb2dVertex
 10
78.647026
 20
45.344747
 30
0.0
  0
VERTEX
  5
190
330
18D
100
AcDbEntity
  8
001
 62
     5
370
    50
100
AcDbVertex
100
AcDb2dVertex
 10
78.676635
 20
45.316704
 30
0.0
  0
VERTEX
  5
191
330
18D
100
AcDbEntity
  8
001
 62
     5
370
    50
100
AcDbVertex
100
AcDb2dVertex
 10
78.718673
 20
45.284697
 30
0.0
  0
VERTEX
  5
192
330
18D
100
AcDbEntity
  8
001
 62
     5
370
    50
100
AcDbVertex
100
AcDb2dVertex
 10
78.738841
 20
45.27352
 30
0.0
  0
VERTEX
  5
193
330
18D
100
AcDbEntity
  8
001
 62
     5
370
    50
100
AcDbVertex
100
AcDb2dVertex
 10
78.762443
 20
45.26407
 30
0.0
  0
VERTEX
  5
194
330
18D
100
AcDbEntity
  8
001
 62
     5
370
    50
100
AcDbVertex
100
AcDb2dVertex
 10
78.767472
 20
45.262292
 30
0.0
  0
VERTEX
  5
195
330
18D
100
AcDbEntity
  8
001
 62
     5
370
    50
100
AcDbVertex
100
AcDb2dVertex
 10
78.770995
 20
45.261083
 30
0.0
  0
SEQEND
  5
18E
330
18D
100
AcDbEntity
  8
001
370
    50
  0
POLYLINE
  5
196
330
64
100
AcDbEntity
  8
001
 62
     5
370
    50
100
AcDb2dPolyline
 66
     1
 10
0.0
 20
0.0
 30
0.0
  0
VERTEX
  5
198
330
196
100
AcDbEntity
  8
001
 62
     5
370
    50
100
AcDbVertex
100
AcDb2dVertex
 10
78.298726
 20
44.496913
 30
0.0
  0
VERTEX
  5
199
330
196
100
AcDbEntity
  8
001
 62
     5
370
    50
100
AcDbVertex
100
AcDb2dVertex
 10
78.447418
 20
44.504712
 30
0.0
  0
VERTEX
  5
19A
330
196
100
AcDbEntity
  8
001
 62
     5
370
    50
100
AcDbVertex
100
AcDb2dVertex
 10
78.650967
 20
44.528057
 30
0.0
  0
VERTEX
  5
19B
330
196
100
AcDbEntity
  8
001
 62
     5
370
    50
100
AcDbVertex
100
AcDb2dVertex
 10
78.831397
 20
44.566825
 30
0.0
  0
VERTEX
  5
19C
330
196
100
AcDbEntity
  8
001
 62
     5
370
    50
100
AcDbVertex
100
AcDb2dVertex
 10
78.992504
 20
44.620543
 30
0.0
  0
VERTEX
  5
19D
330
196
100
AcDbEntity
  8
001
 62
     5
370
    50
100
AcDbVertex
100
AcDb2dVertex
 10
79.153686
 20
44.688845
 30
0.0
  0
VERTEX
  5
19E
330
196
100
AcDbEntity
  8
001
 62
     5
370
    50
100
AcDbVertex
100
AcDb2dVertex
 10
79.312962
 20
44.771561
 30
0.0
  0
VERTEX
  5
19F
330
196
100
AcDbEntity
  8
001
 62
     5
370
    50
100
AcDbVertex
100
AcDb2dVertex
 10
79.734469
 20
45.098217
 30
0.0
  0
VERTEX
  5
1A0
330
196
100
AcDbEntity
  8
001
 62
     5
370
    50
100
AcDbVertex
100
AcDb2dVertex
 10
80.055434
 20
45.521913
 30
0.0
  0
VERTEX
  5
1A1
330
196
100
AcDbEntity
  8
001
 62
     5
370
    50
100
AcDbVertex
100
AcDb2dVertex
 10
80.204976
 20
45.846481
 30
0.0
  0
VERTEX
  5
1A2
330
196
100
AcDbEntity
  8
001
 62
     5
370
    50
100
AcDbVertex
100
AcDb2dVertex
 10
80.296381
 20
46.190934
 30
0.0
  0
VERTEX
  5
1A3
330
196
100
AcDbEntity
  8
001
 62
     5
370
    50
100
AcDbVertex
100
AcDb2dVertex
 10
80.319496
 20
46.368314
 30
0.0
  0
VERTEX
  5
1A4
330
196
100
AcDbEntity
  8
001
 62
     5
370
    50
100
AcDbVertex
100
AcDb2dVertex
 10
80.327198
 20
46.546913
 30
0.0
  0
VERTEX
  5
1A5
330
196
100
AcDbEntity
  8
001
 62
     5
370
    50
100
AcDbVertex
100
AcDb2dVertex
 10
80.319496
 20
46.725512
 30
0.0
  0
VERTEX
  5
1A6
330
196
100
AcDbEntity
  8
001
 62
     5
370
    50
100
AcDbVertex
100
AcDb2dVertex
 10
80.296381
 20
46.902892
 30
0.0
  0
VERTEX
  5
1A7
330
196
100
AcDbEntity
  8
001
 62
     5
370
    50
100
AcDbVertex
100
AcDb2dVertex
 10
80.204976
 20
47.247345
 30
0.0
  0
VERTEX
  5
1A8
330
196
100
AcDbEntity
  8
001
 62
     5
370
    50
100
AcDbVertex
100
AcDb2dVertex
 10
80.055434
 20
47.571913
 30
0.0
  0
VERTEX
  5
1A9
330
196
100
AcDbEntity
  8
001
 62
     5
370
    50
100
AcDbVertex
100
AcDb2dVertex
 10
79.734469
 20
47.995609
 30
0.0
  0
VERTEX
  5
1AA
330
196
100
AcDbEntity
  8
001
 62
     5
370
    50
100
AcDbVertex
100
AcDb2dVertex
 10
79.312962
 20
48.322265
 30
0.0
  0
VERTEX
  5
1AB
330
196
100
AcDbEntity
  8
001
 62
     5
370
    50
100
AcDbVertex
100
AcDb2dVertex
 10
79.153686
 20
48.404981
 30
0.0
  0
VERTEX
  5
1AC
330
196
100
AcDbEntity
  8
001
 62
     5
370
    50
100
AcDbVertex
100
AcDb2dVertex
 10
78.992504
 20
48.473283
 30
0.0
  0
VERTEX
  5
1AD
330
196
100
AcDbEntity
  8
001
 62
     5
370
    50
100
AcDbVertex
100
AcDb2dVertex
 10
78.831397
 20
48.527001
 30
0.0
  0
VERTEX
  5
1AE
330
196
100
AcDbEntity
  8
001
 62
     5
370
    50
100
AcDbVertex
100
AcDb2dVertex
 10
78.650967
 20
48.565769
 30
0.0
  0
VERTEX
  5
1AF
330
196
100
AcDbEntity
  8
001
 62
     5
370
    50
100
AcDbVertex
100
AcDb2dVertex
 10
78.447418
 20
48.589114
 30
0.0
  0
VERTEX
  5
1B0
330
196
100
AcDbEntity
  8
001
 62
     5
370
    50
100
AcDbVertex
100
AcDb2dVertex
 10
78.298726
 20
48.596913
 30
0.0
  0
SEQEND
  5
197
330
196
100
AcDbEntity
  8
001
370
    50
  0
POLYLINE
  5
1B1
330
64
100
AcDbEntity
  8
001
 62
     5
370
    50
100
AcDb2dPolyline
 66
     1
 10
0.0
 20
0.0
 30
0.0
  0
VERTEX
  5
1B3
330
1B1
100
AcDbEntity
  8
001
 62
     5
370
    50
100
AcDbVertex
100
AcDb2dVertex
 10
79.31021
 20
48.297928
 30
0.0
  0
VERTEX
  5
1B4
330
1B1
100
AcDbEntity
  8
001
 62
     5
370
    50
100
AcDbVertex
100
AcDb2dVertex
 10
79.293638
 20
48.30797
 30
0.0
  0
VERTEX
  5
1B5
330
1B1
100
AcDbEntity
  8
001
 62
     5
370
    50
100
AcDbVertex
100
AcDb2dVertex
 10
79.269599
 20
48.322265
 30
0.0
  0
VERTEX
  5
1B6
330
1B1
100
AcDbEntity
  8
001
 62
     5
370
    50
100
AcDbVertex
100
AcDb2dVertex
 10
79.100444
 20
48.411364
 30
0.0
  0
VERTEX
  5
1B7
330
1B1
100
AcDbEntity
  8
001
 62
     5
370
    50
100
AcDbVertex
100
AcDb2dVertex
 10
78.949141
 20
48.473283
 30
0.0
  0
VERTEX
  5
1B8
330
1B1
100
AcDbEntity
  8
001
 62
     5
370
    50
100
AcDbVertex
100
AcDb2dVertex
 10
78.790629
 20
48.525324
 30
0.0
  0
VERTEX
  5
1B9
330
1B1
100
AcDbEntity
  8
001
 62
     5
370
    50
100
AcDbVertex
100
AcDb2dVertex
 10
78.607603
 20
48.565769
 30
0.0
  0
VERTEX
  5
1BA
330
1B1
100
AcDbEntity
  8
001
 62
     5
370
    50
100
AcDbVertex
100
AcDb2dVertex
 10
78.403536
 20
48.589449
 30
0.0
  0
VERTEX
  5
1BB
330
1B1
100
AcDbEntity
  8
001
 62
     5
370
    50
100
AcDbVertex
100
AcDb2dVertex
 10
78.255363
 20
48.596913
 30
0.0
  0
SEQEND
  5
1B2
330
1B1
100
AcDbEntity
  8
001
370
    50
  0
POLYLINE
  5
1BC
330
64
100
AcDbEntity
  8
001
 62
     5
370
    50
100
AcDb2dPolyline
 66
     1
 10
0.0
 20
0.0
 30
0.0
  0
VERTEX
  5
1BE
330
1BC
100
AcDbEntity
  8
001
 62
     5
370
    50
100
AcDbVertex
100
AcDb2dVertex
 10
77.20821
 20
44.791188
 30
0.0
  0
VERTEX
  5
1BF
330
1BC
100
AcDbEntity
  8
001
 62
     5
370
    50
100
AcDbVertex
100
AcDb2dVertex
 10
77.221633
 20
44.783112
 30
0.0
  0
VERTEX
  5
1C0
330
1BC
100
AcDbEntity
  8
001
 62
     5
370
    50
100
AcDbVertex
100
AcDb2dVertex
 10
77.241127
 20
44.771561
 30
0.0
  0
VERTEX
  5
1C1
330
1BC
100
AcDbEntity
  8
001
 62
     5
370
    50
100
AcDbVertex
100
AcDb2dVertex
 10
77.410506
 20
44.682378
 30
0.0
  0
VERTEX
  5
1C2
330
1BC
100
AcDbEntity
  8
001
 62
     5
370
    50
100
AcDbVertex
100
AcDb2dVertex
 10
77.561585
 20
44.620543
 30
0.0
  0
VERTEX
  5
1C3
330
1BC
100
AcDbEntity
  8
001
 62
     5
370
    50
100
AcDbVertex
100
AcDb2dVertex
 10
77.720038
 20
44.568524
 30
0.0
  0
VERTEX
  5
1C4
330
1BC
100
AcDbEntity
  8
001
 62
     5
370
    50
100
AcDbVertex
100
AcDb2dVertex
 10
77.903123
 20
44.528057
 30
0.0
  0
VERTEX
  5
1C5
330
1BC
100
AcDbEntity
  8
001
 62
     5
370
    50
100
AcDbVertex
100
AcDb2dVertex
 10
78.107202
 20
44.504372
 30
0.0
  0
VERTEX
  5
1C6
330
1BC
100
AcDbEntity
  8
001
 62
     5
370
    50
100
AcDbVertex
100
AcDb2dVertex
 10
78.255363
 20
44.496913
 30
0.0
  0
SEQEND
  5
1BD
330
1BC
100
AcDbEntity
  8
001
370
    50
  0
LINE
  5
1C7
330
64
100
AcDbEntity
  8
001
 62
     5
370
    50
100
AcDbLine
 10
78.255363
 20
44.496913
 30
0.0
 11
78.298726
 21
44.496913
 31
0.0
  0
LINE
  5
1C8
330
64
100
AcDbEntity
  8
001
 62
     5
370
    50
100
AcDbLine
 10
78.298726
 20
48.596913
 30
0.0
 11
78.255363
 21
48.596913
 31
0.0
  0
POLYLINE
  5
1C9
330
64
100
AcDbEntity
  8
001
 62
     5
370
    50
100
AcDb2dPolyline
 66
     1
 10
0.0
 20
0.0
 30
0.0
  0
VERTEX
  5
1CB
330
1C9
100
AcDbEntity
  8
001
 62
     5
370
    50
100
AcDbVertex
100
AcDb2dVertex
 10
78.375774
 20
47.564571
 30
0.0
  0
VERTEX
  5
1CC
330
1C9
100
AcDbEntity
  8
001
 62
     5
370
    50
100
AcDbVertex
100
AcDb2dVertex
 10
78.414101
 20
47.566519
 30
0.0
  0
VERTEX
  5
1CD
330
1C9
100
AcDbEntity
  8
001
 62
     5
370
    50
100
AcDbVertex
100
AcDb2dVertex
 10
78.466759
 20
47.572616
 30
0.0
  0
VERTEX
  5
1CE
330
1C9
100
AcDbEntity
  8
001
 62
     5
370
    50
100
AcDbVertex
100
AcDb2dVertex
 10
78.513771
 20
47.582964
 30
0.0
  0
VERTEX
  5
1CF
330
1C9
100
AcDbEntity
  8
001
 62
     5
370
    50
100
AcDbVertex
100
AcDb2dVertex
 10
78.55498
 20
47.596505
 30
0.0
  0
VERTEX
  5
1D0
330
1C9
100
AcDbEntity
  8
001
 62
     5
370
    50
100
AcDbVertex
100
AcDb2dVertex
 10
78.59507
 20
47.612875
 30
0.0
  0
VERTEX
  5
1D1
330
1C9
100
AcDbEntity
  8
001
 62
     5
370
    50
100
AcDbVertex
100
AcDb2dVertex
 10
78.637755
 20
47.635514
 30
0.0
  0
VERTEX
  5
1D2
330
1C9
100
AcDbEntity
  8
001
 62
     5
370
    50
100
AcDbVertex
100
AcDb2dVertex
 10
78.674372
 20
47.659408
 30
0.0
  0
VERTEX
  5
1D3
330
1C9
100
AcDbEntity
  8
001
 62
     5
370
    50
100
AcDbVertex
100
AcDb2dVertex
 10
78.699792
 20
47.677961
 30
0.0
  0
SEQEND
  5
1CA
330
1C9
100
AcDbEntity
  8
001
370
    50
  0
LINE
  5
1D4
330
64
100
AcDbEntity
  8
001
 62
     5
370
    50
100
AcDbLine
 10
78.375774
 20
47.564571
 30
0.0
 11
78.548189
 21
47.564571
 31
0.0
  0
POLYLINE
  5
1D5
330
64
100
AcDbEntity
  8
001
 62
     5
370
    50
100
AcDb2dPolyline
 66
     1
 10
0.0
 20
0.0
 30
0.0
  0
VERTEX
  5
1D7
330
1D5
100
AcDbEntity
  8
001
 62
     5
370
    50
100
AcDbVertex
100
AcDb2dVertex
 10
78.548189
 20
47.564571
 30
0.0
  0
VERTEX
  5
1D8
330
1D5
100
AcDbEntity
  8
001
 62
     5
370
    50
100
AcDbVertex
100
AcDb2dVertex
 10
78.586516
 20
47.566519
 30
0.0
  0
VERTEX
  5
1D9
330
1D5
100
AcDbEntity
  8
001
 62
     5
370
    50
100
AcDbVertex
100
AcDb2dVertex
 10
78.639174
 20
47.572616
 30
0.0
  0
VERTEX
  5
1DA
330
1D5
100
AcDbEntity
  8
001
 62
     5
370
    50
100
AcDbVertex
100
AcDb2dVertex
 10
78.686186
 20
47.582964
 30
0.0
  0
VERTEX
  5
1DB
330
1D5
100
AcDbEntity
  8
001
 62
     5
370
    50
100
AcDbVertex
100
AcDb2dVertex
 10
78.727395
 20
47.596505
 30
0.0
  0
VERTEX
  5
1DC
330
1D5
100
AcDbEntity
  8
001
 62
     5
370
    50
100
AcDbVertex
100
AcDb2dVertex
 10
78.767485
 20
47.612875
 30
0.0
  0
VERTEX
  5
1DD
330
1D5
100
AcDbEntity
  8
001
 62
     5
370
    50
100
AcDbVertex
100
AcDb2dVertex
 10
78.81017
 20
47.635514
 30
0.0
  0
VERTEX
  5
1DE
330
1D5
100
AcDbEntity
  8
001
 62
     5
370
    50
100
AcDbVertex
100
AcDb2dVertex
 10
78.846787
 20
47.659408
 30
0.0
  0
VERTEX
  5
1DF
330
1D5
100
AcDbEntity
  8
001
 62
     5
370
    50
100
AcDbVertex
100
AcDb2dVertex
 10
78.872207
 20
47.677961
 30
0.0
  0
SEQEND
  5
1D6
330
1D5
100
AcDbEntity
  8
001
370
    50
  0
POLYLINE
  5
1E0
330
64
100
AcDbEntity
  8
001
 62
     5
370
    50
100
AcDb2dPolyline
 66
     1
 10
0.0
 20
0.0
 30
0.0
  0
VERTEX
  5
1E2
330
1E0
100
AcDbEntity
  8
001
 62
     5
370
    50
100
AcDbVertex
100
AcDb2dVertex
 10
78.077134
 20
45.529255
 30
0.0
  0
VERTEX
  5
1E3
330
1E0
100
AcDbEntity
  8
001
 62
     5
370
    50
100
AcDbVertex
100
AcDb2dVertex
 10
78.038807
 20
45.527307
 30
0.0
  0
VERTEX
  5
1E4
330
1E0
100
AcDbEntity
  8
001
 62
     5
370
    50
100
AcDbVertex
100
AcDb2dVertex
 10
77.986149
 20
45.52121
 30
0.0
  0
VERTEX
  5
1E5
330
1E0
100
AcDbEntity
  8
001
 62
     5
370
    50
100
AcDbVertex
100
AcDb2dVertex
 10
77.939137
 20
45.510862
 30
0.0
  0
VERTEX
  5
1E6
330
1E0
100
AcDbEntity
  8
001
 62
     5
370
    50
100
AcDbVertex
100
AcDb2dVertex
 10
77.897929
 20
45.497321
 30
0.0
  0
VERTEX
  5
1E7
330
1E0
100
AcDbEntity
  8
001
 62
     5
370
    50
100
AcDbVertex
100
AcDb2dVertex
 10
77.857839
 20
45.480951
 30
0.0
  0
VERTEX
  5
1E8
330
1E0
100
AcDbEntity
  8
001
 62
     5
370
    50
100
AcDbVertex
100
AcDb2dVertex
 10
77.815153
 20
45.458312
 30
0.0
  0
VERTEX
  5
1E9
330
1E0
100
AcDbEntity
  8
001
 62
     5
370
    50
100
AcDbVertex
100
AcDb2dVertex
 10
77.778537
 20
45.434418
 30
0.0
  0
VERTEX
  5
1EA
330
1E0
100
AcDbEntity
  8
001
 62
     5
370
    50
100
AcDbVertex
100
AcDb2dVertex
 10
77.753117
 20
45.415865
 30
0.0
  0
SEQEND
  5
1E1
330
1E0
100
AcDbEntity
  8
001
370
    50
  0
POLYLINE
  5
1EB
330
64
100
AcDbEntity
  8
001
 62
     5
370
    50
100
AcDb2dPolyline
 66
     1
 10
0.0
 20
0.0
 30
0.0
  0
VERTEX
  5
1ED
330
1EB
100
AcDbEntity
  8
001
 62
     5
370
    50
100
AcDbVertex
100
AcDb2dVertex
 10
78.647026
 20
45.344747
 30
0.0
  0
VERTEX
  5
1EE
330
1EB
100
AcDbEntity
  8
001
 62
     5
370
    50
100
AcDbVertex
100
AcDb2dVertex
 10
78.592871
 20
45.397187
 30
0.0
  0
VERTEX
  5
1EF
330
1EB
100
AcDbEntity
  8
001
 62
     5
370
    50
100
AcDbVertex
100
AcDb2dVertex
 10
78.51153
 20
45.458312
 30
0.0
  0
VERTEX
  5
1F0
330
1EB
100
AcDbEntity
  8
001
 62
     5
370
    50
100
AcDbVertex
100
AcDb2dVertex
 10
78.469544
 20
45.480691
 30
0.0
  0
VERTEX
  5
1F1
330
1EB
100
AcDbEntity
  8
001
 62
     5
370
    50
100
AcDbVertex
100
AcDb2dVertex
 10
78.428755
 20
45.497321
 30
0.0
  0
VERTEX
  5
1F2
330
1EB
100
AcDbEntity
  8
001
 62
     5
370
    50
100
AcDbVertex
100
AcDb2dVertex
 10
78.387362
 20
45.51093
 30
0.0
  0
VERTEX
  5
1F3
330
1EB
100
AcDbEntity
  8
001
 62
     5
370
    50
100
AcDbVertex
100
AcDb2dVertex
 10
78.340534
 20
45.52121
 30
0.0
  0
VERTEX
  5
1F4
330
1EB
100
AcDbEntity
  8
001
 62
     5
370
    50
100
AcDbVertex
100
AcDb2dVertex
 10
78.287912
 20
45.527294
 30
0.0
  0
VERTEX
  5
1F5
330
1EB
100
AcDbEntity
  8
001
 62
     5
370
    50
100
AcDbVertex
100
AcDb2dVertex
 10
78.249549
 20
45.529255
 30
0.0
  0
SEQEND
  5
1EC
330
1EB
100
AcDbEntity
  8
001
370
    50
  0
LINE
  5
1F6
330
64
100
AcDbEntity
  8
001
 62
     5
370
    50
100
AcDbLine
 10
78.249549
 20
45.529255
 30
0.0
 11
78.077134
 21
45.529255
 31
0.0
  0
POLYLINE
  5
1F7
330
64
100
AcDbEntity
  8
001
 62
     5
370
    50
100
AcDb2dPolyline
 66
     1
 10
0.0
 20
0.0
 30
0.0
  0
VERTEX
  5
1F9
330
1F7
100
AcDbEntity
  8
001
 62
     5
370
    50
100
AcDbVertex
100
AcDb2dVertex
 10
77.978298
 20
47.749079
 30
0.0
  0
VERTEX
  5
1FA
330
1F7
100
AcDbEntity
  8
001
 62
     5
370
    50
100
AcDbVertex
100
AcDb2dVertex
 10
77.949662
 20
47.776808
 30
0.0
  0
VERTEX
  5
1FB
330
1F7
100
AcDbEntity
  8
001
 62
     5
370
    50
100
AcDbVertex
100
AcDb2dVertex
 10
77.906651
 20
47.809129
 30
0.0
  0
VERTEX
  5
1FC
330
1F7
100
AcDbEntity
  8
001
 62
     5
370
    50
100
AcDbVertex
100
AcDb2dVertex
 10
77.884449
 20
47.820963
 30
0.0
  0
VERTEX
  5
1FD
330
1F7
100
AcDbEntity
  8
001
 62
     5
370
    50
100
AcDbVertex
100
AcDb2dVertex
 10
77.862881
 20
47.829756
 30
0.0
  0
VERTEX
  5
1FE
330
1F7
100
AcDbEntity
  8
001
 62
     5
370
    50
100
AcDbVertex
100
AcDb2dVertex
 10
77.840993
 20
47.836953
 30
0.0
  0
VERTEX
  5
1FF
330
1F7
100
AcDbEntity
  8
001
 62
     5
370
    50
100
AcDbVertex
100
AcDb2dVertex
 10
77.816232
 20
47.842389
 30
0.0
  0
VERTEX
  5
200
330
1F7
100
AcDbEntity
  8
001
 62
     5
370
    50
100
AcDbVertex
100
AcDb2dVertex
 10
77.788407
 20
47.845605
 30
0.0
  0
VERTEX
  5
201
330
1F7
100
AcDbEntity
  8
001
 62
     5
370
    50
100
AcDbVertex
100
AcDb2dVertex
 10
77.768121
 20
47.846642
 30
0.0
  0
SEQEND
  5
1F8
330
1F7
100
AcDbEntity
  8
001
370
    50
  0
POLYLINE
  5
202
330
64
100
AcDbEntity
  8
001
 62
     5
370
    50
100
AcDb2dPolyline
 66
     1
 10
0.0
 20
0.0
 30
0.0
  0
VERTEX
  5
204
330
202
100
AcDbEntity
  8
001
 62
     5
370
    50
100
AcDbVertex
100
AcDb2dVertex
 10
77.854328
 20
47.832743
 30
0.0
  0
VERTEX
  5
205
330
202
100
AcDbEntity
  8
001
 62
     5
370
    50
100
AcDbVertex
100
AcDb2dVertex
 10
77.850811
 20
47.83154
 30
0.0
  0
VERTEX
  5
206
330
202
100
AcDbEntity
  8
001
 62
     5
370
    50
100
AcDbVertex
100
AcDb2dVertex
 10
77.845776
 20
47.829756
 30
0.0
  0
VERTEX
  5
207
330
202
100
AcDbEntity
  8
001
 62
     5
370
    50
100
AcDbVertex
100
AcDb2dVertex
 10
77.82173
 20
47.81984
 30
0.0
  0
VERTEX
  5
208
330
202
100
AcDbEntity
  8
001
 62
     5
370
    50
100
AcDbVertex
100
AcDb2dVertex
 10
77.802006
 20
47.809129
 30
0.0
  0
VERTEX
  5
209
330
202
100
AcDbEntity
  8
001
 62
     5
370
    50
100
AcDbVertex
100
AcDb2dVertex
 10
77.746429
 20
47.765412
 30
0.0
  0
VERTEX
  5
20A
330
202
100
AcDbEntity
  8
001
 62
     5
370
    50
100
AcDbVertex
100
AcDb2dVertex
 10
77.700595
 20
47.706642
 30
0.0
  0
VERTEX
  5
20B
330
202
100
AcDbEntity
  8
001
 62
     5
370
    50
100
AcDbVertex
100
AcDb2dVertex
 10
77.680003
 20
47.661408
 30
0.0
  0
VERTEX
  5
20C
330
202
100
AcDbEntity
  8
001
 62
     5
370
    50
100
AcDbVertex
100
AcDb2dVertex
 10
77.667685
 20
47.615264
 30
0.0
  0
VERTEX
  5
20D
330
202
100
AcDbEntity
  8
001
 62
     5
370
    50
100
AcDbVertex
100
AcDb2dVertex
 10
77.664381
 20
47.592263
 30
0.0
  0
VERTEX
  5
20E
330
202
100
AcDbEntity
  8
001
 62
     5
370
    50
100
AcDbVertex
100
AcDb2dVertex
 10
77.663476
 20
47.566642
 30
0.0
  0
VERTEX
  5
20F
330
202
100
AcDbEntity
  8
001
 62
     5
370
    50
100
AcDbVertex
100
AcDb2dVertex
 10
77.664641
 20
47.543404
 30
0.0
  0
VERTEX
  5
210
330
202
100
AcDbEntity
  8
001
 62
     5
370
    50
100
AcDbVertex
100
AcDb2dVertex
 10
77.666308
 20
47.52671
 30
0.0
  0
SEQEND
  5
203
330
202
100
AcDbEntity
  8
001
370
    50
  0
POLYLINE
  5
211
330
64
100
AcDbEntity
  8
001
 62
     5
370
    50
100
AcDb2dPolyline
 66
     1
 10
0.0
 20
0.0
 30
0.0
  0
VERTEX
  5
213
330
211
100
AcDbEntity
  8
001
 62
     5
370
    50
100
AcDbVertex
100
AcDb2dVertex
 10
77.32036
 20
45.728639
 30
0.0
  0
VERTEX
  5
214
330
211
100
AcDbEntity
  8
001
 62
     5
370
    50
100
AcDbVertex
100
AcDb2dVertex
 10
77.314951
 20
45.710258
 30
0.0
  0
VERTEX
  5
215
330
211
100
AcDbEntity
  8
001
 62
     5
370
    50
100
AcDbVertex
100
AcDb2dVertex
 10
77.308933
 20
45.684529
 30
0.0
  0
VERTEX
  5
216
330
211
100
AcDbEntity
  8
001
 62
     5
370
    50
100
AcDbVertex
100
AcDb2dVertex
 10
77.305426
 20
45.659289
 30
0.0
  0
VERTEX
  5
217
330
211
100
AcDbEntity
  8
001
 62
     5
370
    50
100
AcDbVertex
100
AcDb2dVertex
 10
77.304724
 20
45.635907
 30
0.0
  0
VERTEX
  5
218
330
211
100
AcDbEntity
  8
001
 62
     5
370
    50
100
AcDbVertex
100
AcDb2dVertex
 10
77.305878
 20
45.611807
 30
0.0
  0
VERTEX
  5
219
330
211
100
AcDbEntity
  8
001
 62
     5
370
    50
100
AcDbVertex
100
AcDb2dVertex
 10
77.308933
 20
45.587286
 30
0.0
  0
VERTEX
  5
21A
330
211
100
AcDbEntity
  8
001
 62
     5
370
    50
100
AcDbVertex
100
AcDb2dVertex
 10
77.321349
 20
45.54004
 30
0.0
  0
VERTEX
  5
21B
330
211
100
AcDbEntity
  8
001
 62
     5
370
    50
100
AcDbVertex
100
AcDb2dVertex
 10
77.341843
 20
45.495907
 30
0.0
  0
VERTEX
  5
21C
330
211
100
AcDbEntity
  8
001
 62
     5
370
    50
100
AcDbVertex
100
AcDb2dVertex
 10
77.385709
 20
45.438116
 30
0.0
  0
VERTEX
  5
21D
330
211
100
AcDbEntity
  8
001
 62
     5
370
    50
100
AcDbVertex
100
AcDb2dVertex
 10
77.443254
 20
45.39342
 30
0.0
  0
VERTEX
  5
21E
330
211
100
AcDbEntity
  8
001
 62
     5
370
    50
100
AcDbVertex
100
AcDb2dVertex
 10
77.465007
 20
45.382118
 30
0.0
  0
VERTEX
  5
21F
330
211
100
AcDbEntity
  8
001
 62
     5
370
    50
100
AcDbVertex
100
AcDb2dVertex
 10
77.487024
 20
45.372793
 30
0.0
  0
VERTEX
  5
220
330
211
100
AcDbEntity
  8
001
 62
     5
370
    50
100
AcDbVertex
100
AcDb2dVertex
 10
77.509029
 20
45.365457
 30
0.0
  0
VERTEX
  5
221
330
211
100
AcDbEntity
  8
001
 62
     5
370
    50
100
AcDbVertex
100
AcDb2dVertex
 10
77.533673
 20
45.360161
 30
0.0
  0
VERTEX
  5
222
330
211
100
AcDbEntity
  8
001
 62
     5
370
    50
100
AcDbVertex
100
AcDb2dVertex
 10
77.561474
 20
45.356972
 30
0.0
  0
VERTEX
  5
223
330
211
100
AcDbEntity
  8
001
 62
     5
370
    50
100
AcDbVertex
100
AcDb2dVertex
 10
77.581783
 20
45.355907
 30
0.0
  0
SEQEND
  5
212
330
211
100
AcDbEntity
  8
001
370
    50
  0
POLYLINE
  5
224
330
64
100
AcDbEntity
  8
001
 62
     5
370
    50
100
AcDb2dPolyline
 66
     1
 10
0.0
 20
0.0
 30
0.0
  0
VERTEX
  5
226
330
224
100
AcDbEntity
  8
001
 62
     5
370
    50
100
AcDbVertex
100
AcDb2dVertex
 10
77.492775
 20
45.728639
 30
0.0
  0
VERTEX
  5
227
330
224
100
AcDbEntity
  8
001
 62
     5
370
    50
100
AcDbVertex
100
AcDb2dVertex
 10
77.487367
 20
45.710258
 30
0.0
  0
VERTEX
  5
228
330
224
100
AcDbEntity
  8
001
 62
     5
370
    50
100
AcDbVertex
100
AcDb2dVertex
 10
77.481348
 20
45.684529
 30
0.0
  0
VERTEX
  5
229
330
224
100
AcDbEntity
  8
001
 62
     5
370
    50
100
AcDbVertex
100
AcDb2dVertex
 10
77.477834
 20
45.659292
 30
0.0
  0
VERTEX
  5
22A
330
224
100
AcDbEntity
  8
001
 62
     5
370
    50
100
AcDbVertex
100
AcDb2dVertex
 10
77.477139
 20
45.635907
 30
0.0
  0
VERTEX
  5
22B
330
224
100
AcDbEntity
  8
001
 62
     5
370
    50
100
AcDbVertex
100
AcDb2dVertex
 10
77.478321
 20
45.611799
 30
0.0
  0
VERTEX
  5
22C
330
224
100
AcDbEntity
  8
001
 62
     5
370
    50
100
AcDbVertex
100
AcDb2dVertex
 10
77.481348
 20
45.587286
 30
0.0
  0
VERTEX
  5
22D
330
224
100
AcDbEntity
  8
001
 62
     5
370
    50
100
AcDbVertex
100
AcDb2dVertex
 10
77.493478
 20
45.540121
 30
0.0
  0
VERTEX
  5
22E
330
224
100
AcDbEntity
  8
001
 62
     5
370
    50
100
AcDbVertex
100
AcDb2dVertex
 10
77.514258
 20
45.495907
 30
0.0
  0
VERTEX
  5
22F
330
224
100
AcDbEntity
  8
001
 62
     5
370
    50
100
AcDbVertex
100
AcDb2dVertex
 10
77.560165
 20
45.437539
 30
0.0
  0
VERTEX
  5
230
330
224
100
AcDbEntity
  8
001
 62
     5
370
    50
100
AcDbVertex
100
AcDb2dVertex
 10
77.615669
 20
45.39342
 30
0.0
  0
VERTEX
  5
231
330
224
100
AcDbEntity
  8
001
 62
     5
370
    50
100
AcDbVertex
100
AcDb2dVertex
 10
77.63539
 20
45.382693
 30
0.0
  0
VERTEX
  5
232
330
224
100
AcDbEntity
  8
001
 62
     5
370
    50
100
AcDbVertex
100
AcDb2dVertex
 10
77.659438
 20
45.372793
 30
0.0
  0
VERTEX
  5
233
330
224
100
AcDbEntity
  8
001
 62
     5
370
    50
100
AcDbVertex
100
AcDb2dVertex
 10
77.664474
 20
45.37101
 30
0.0
  0
VERTEX
  5
234
330
224
100
AcDbEntity
  8
001
 62
     5
370
    50
100
AcDbVertex
100
AcDb2dVertex
 10
77.667991
 20
45.369807
 30
0.0
  0
SEQEND
  5
225
330
224
100
AcDbEntity
  8
001
370
    50
  0
POLYLINE
  5
235
330
64
100
AcDbEntity
  8
001
 62
     5
370
    50
100
AcDb2dPolyline
 66
     1
 10
0.0
 20
0.0
 30
0.0
  0
VERTEX
  5
237
330
235
100
AcDbEntity
  8
001
 62
     5
370
    50
100
AcDbVertex
100
AcDb2dVertex
 10
77.244618
 20
46.930805
 30
0.0
  0
VERTEX
  5
238
330
235
100
AcDbEntity
  8
001
 62
     5
370
    50
100
AcDbVertex
100
AcDb2dVertex
 10
77.279483
 20
46.939229
 30
0.0
  0
VERTEX
  5
239
330
235
100
AcDbEntity
  8
001
 62
     5
370
    50
100
AcDbVertex
100
AcDb2dVertex
 10
77.326908
 20
46.953602
 30
0.0
  0
VERTEX
  5
23A
330
235
100
AcDbEntity
  8
001
 62
     5
370
    50
100
AcDbVertex
100
AcDb2dVertex
 10
77.37135
 20
46.9717
 30
0.0
  0
VERTEX
  5
23B
330
235
100
AcDbEntity
  8
001
 62
     5
370
    50
100
AcDbVertex
100
AcDb2dVertex
 10
77.409683
 20
46.992611
 30
0.0
  0
VERTEX
  5
23C
330
235
100
AcDbEntity
  8
001
 62
     5
370
    50
100
AcDbVertex
100
AcDb2dVertex
 10
77.515825
 20
47.075943
 30
0.0
  0
VERTEX
  5
23D
330
235
100
AcDbEntity
  8
001
 62
     5
370
    50
100
AcDbVertex
100
AcDb2dVertex
 10
77.601467
 20
47.18643
 30
0.0
  0
VERTEX
  5
23E
330
235
100
AcDbEntity
  8
001
 62
     5
370
    50
100
AcDbVertex
100
AcDb2dVertex
 10
77.640265
 20
47.271883
 30
0.0
  0
VERTEX
  5
23F
330
235
100
AcDbEntity
  8
001
 62
     5
370
    50
100
AcDbVertex
100
AcDb2dVertex
 10
77.663704
 20
47.35924
 30
0.0
  0
VERTEX
  5
240
330
235
100
AcDbEntity
  8
001
 62
     5
370
    50
100
AcDbVertex
100
AcDb2dVertex
 10
77.669968
 20
47.402748
 30
0.0
  0
VERTEX
  5
241
330
235
100
AcDbEntity
  8
001
 62
     5
370
    50
100
AcDbVertex
100
AcDb2dVertex
 10
77.671664
 20
47.451191
 30
0.0
  0
VERTEX
  5
242
330
235
100
AcDbEntity
  8
001
 62
     5
370
    50
100
AcDbVertex
100
AcDb2dVertex
 10
77.66946
 20
47.495138
 30
0.0
  0
VERTEX
  5
243
330
235
100
AcDbEntity
  8
001
 62
     5
370
    50
100
AcDbVertex
100
AcDb2dVertex
 10
77.666308
 20
47.52671
 30
0.0
  0
SEQEND
  5
236
330
235
100
AcDbEntity
  8
001
370
    50
  0
POLYLINE
  5
244
330
64
100
AcDbEntity
  8
001
 62
     5
370
    50
100
AcDb2dPolyline
 66
     1
 10
0.0
 20
0.0
 30
0.0
  0
VERTEX
  5
246
330
244
100
AcDbEntity
  8
001
 62
     5
370
    50
100
AcDbVertex
100
AcDb2dVertex
 10
77.492775
 20
45.728639
 30
0.0
  0
VERTEX
  5
247
330
244
100
AcDbEntity
  8
001
 62
     5
370
    50
100
AcDbVertex
100
AcDb2dVertex
 10
77.503008
 20
45.763399
 30
0.0
  0
VERTEX
  5
248
330
244
100
AcDbEntity
  8
001
 62
     5
370
    50
100
AcDbVertex
100
AcDb2dVertex
 10
77.514384
 20
45.812059
 30
0.0
  0
VERTEX
  5
249
330
244
100
AcDbEntity
  8
001
 62
     5
370
    50
100
AcDbVertex
100
AcDb2dVertex
 10
77.520991
 20
45.859802
 30
0.0
  0
VERTEX
  5
24A
330
244
100
AcDbEntity
  8
001
 62
     5
370
    50
100
AcDbVertex
100
AcDb2dVertex
 10
77.522344
 20
45.90401
 30
0.0
  0
VERTEX
  5
24B
330
244
100
AcDbEntity
  8
001
 62
     5
370
    50
100
AcDbVertex
100
AcDb2dVertex
 10
77.52026
 20
45.949544
 30
0.0
  0
VERTEX
  5
24C
330
244
100
AcDbEntity
  8
001
 62
     5
370
    50
100
AcDbVertex
100
AcDb2dVertex
 10
77.514384
 20
45.995961
 30
0.0
  0
VERTEX
  5
24D
330
244
100
AcDbEntity
  8
001
 62
     5
370
    50
100
AcDbVertex
100
AcDb2dVertex
 10
77.489912
 20
46.08574
 30
0.0
  0
VERTEX
  5
24E
330
244
100
AcDbEntity
  8
001
 62
     5
370
    50
100
AcDbVertex
100
AcDb2dVertex
 10
77.452147
 20
46.168771
 30
0.0
  0
VERTEX
  5
24F
330
244
100
AcDbEntity
  8
001
 62
     5
370
    50
100
AcDbVertex
100
AcDb2dVertex
 10
77.376274
 20
46.274989
 30
0.0
  0
VERTEX
  5
250
330
244
100
AcDbEntity
  8
001
 62
     5
370
    50
100
AcDbVertex
100
AcDb2dVertex
 10
77.260363
 20
46.36259
 30
0.0
  0
VERTEX
  5
251
330
244
100
AcDbEntity
  8
001
 62
     5
370
    50
100
AcDbVertex
100
AcDb2dVertex
 10
77.221147
 20
46.382834
 30
0.0
  0
VERTEX
  5
252
330
244
100
AcDbEntity
  8
001
 62
     5
370
    50
100
AcDbVertex
100
AcDb2dVertex
 10
77.192971
 20
46.395662
 30
0.0
  0
SEQEND
  5
245
330
244
100
AcDbEntity
  8
001
370
    50
  0
POLYLINE
  5
253
330
64
100
AcDbEntity
  8
001
 62
     5
370
    50
100
AcDb2dPolyline
 66
     1
 10
0.0
 20
0.0
 30
0.0
  0
VERTEX
  5
255
330
253
100
AcDbEntity
  8
001
 62
     5
370
    50
100
AcDbVertex
100
AcDb2dVertex
 10
77.244618
 20
46.930805
 30
0.0
  0
VERTEX
  5
256
330
253
100
AcDbEntity
  8
001
 62
     5
370
    50
100
AcDbVertex
100
AcDb2dVertex
 10
77.226183
 20
46.926348
 30
0.0
  0
VERTEX
  5
257
330
253
100
AcDbEntity
  8
001
 62
     5
370
    50
100
AcDbVertex
100
AcDb2dVertex
 10
77.201105
 20
46.918751
 30
0.0
  0
VERTEX
  5
258
330
253
100
AcDbEntity
  8
001
 62
     5
370
    50
100
AcDbVertex
100
AcDb2dVertex
 10
77.177603
 20
46.909198
 30
0.0
  0
VERTEX
  5
259
330
253
100
AcDbEntity
  8
001
 62
     5
370
    50
100
AcDbVertex
100
AcDb2dVertex
 10
77.157335
 20
46.898124
 30
0.0
  0
VERTEX
  5
25A
330
253
100
AcDbEntity
  8
001
 62
     5
370
    50
100
AcDbVertex
100
AcDb2dVertex
 10
77.101261
 20
46.853731
 30
0.0
  0
VERTEX
  5
25B
330
253
100
AcDbEntity
  8
001
 62
     5
370
    50
100
AcDbVertex
100
AcDb2dVertex
 10
77.055925
 20
46.795637
 30
0.0
  0
VERTEX
  5
25C
330
253
100
AcDbEntity
  8
001
 62
     5
370
    50
100
AcDbVertex
100
AcDb2dVertex
 10
77.03528
 20
46.751278
 30
0.0
  0
VERTEX
  5
25D
330
253
100
AcDbEntity
  8
001
 62
     5
370
    50
100
AcDbVertex
100
AcDb2dVertex
 10
77.023015
 20
46.704258
 30
0.0
  0
VERTEX
  5
25E
330
253
100
AcDbEntity
  8
001
 62
     5
370
    50
100
AcDbVertex
100
AcDb2dVertex
 10
77.019893
 20
46.680027
 30
0.0
  0
VERTEX
  5
25F
330
253
100
AcDbEntity
  8
001
 62
     5
370
    50
100
AcDbVertex
100
AcDb2dVertex
 10
77.018806
 20
46.655637
 30
0.0
  0
VERTEX
  5
260
330
253
100
AcDbEntity
  8
001
 62
     5
370
    50
100
AcDbVertex
100
AcDb2dVertex
 10
77.019799
 20
46.631265
 30
0.0
  0
VERTEX
  5
261
330
253
100
AcDbEntity
  8
001
 62
     5
370
    50
100
AcDbVertex
100
AcDb2dVertex
 10
77.023015
 20
46.607015
 30
0.0
  0
VERTEX
  5
262
330
253
100
AcDbEntity
  8
001
 62
     5
370
    50
100
AcDbVertex
100
AcDb2dVertex
 10
77.036028
 20
46.559741
 30
0.0
  0
VERTEX
  5
263
330
253
100
AcDbEntity
  8
001
 62
     5
370
    50
100
AcDbVertex
100
AcDb2dVertex
 10
77.055925
 20
46.515637
 30
0.0
  0
VERTEX
  5
264
330
253
100
AcDbEntity
  8
001
 62
     5
370
    50
100
AcDbVertex
100
AcDb2dVertex
 10
77.096016
 20
46.459395
 30
0.0
  0
VERTEX
  5
265
330
253
100
AcDbEntity
  8
001
 62
     5
370
    50
100
AcDbVertex
100
AcDb2dVertex
 10
77.157335
 20
46.41315
 30
0.0
  0
VERTEX
  5
266
330
253
100
AcDbEntity
  8
001
 62
     5
370
    50
100
AcDbVertex
100
AcDb2dVertex
 10
77.178073
 20
46.402447
 30
0.0
  0
VERTEX
  5
267
330
253
100
AcDbEntity
  8
001
 62
     5
370
    50
100
AcDbVertex
100
AcDb2dVertex
 10
77.192971
 20
46.395662
 30
0.0
  0
SEQEND
  5
254
330
253
100
AcDbEntity
  8
001
370
    50
  0
ENDBLK
  5
66
330
64
100
AcDbEntity
  8
0
100
AcDbBlockEnd
  0
BLOCK
  5
269
330
268
100
AcDbEntity
  8
0
100
AcDbBlockBegin
  2
C32GUX-2
 70
     0
 10
0.0
 20
0.0
 30
0.0
  3
C32GUX-2
  1

  0
POLYLINE
  5
26B
330
268
100
AcDbEntity
  8
001
 62
    40
370
    50
100
AcDb2dPolyline
 66
     1
 10
0.0
 20
0.0
 30
0.0
  0
VERTEX
  5
26D
330
26B
100
AcDbEntity
  8
001
 62
    40
370
    50
100
AcDbVertex
100
AcDb2dVertex
 10
82.68933
 20
46.645472
 30
0.0
  0
VERTEX
  5
26E
330
26B
100
AcDbEntity
  8
001
 62
    40
370
    50
100
AcDbVertex
100
AcDb2dVertex
 10
82.920784
 20
46.661152
 30
0.0
  0
VERTEX
  5
26F
330
26B
100
AcDbEntity
  8
001
 62
    40
370
    50
100
AcDbVertex
100
AcDb2dVertex
 10
83.25737
 20
46.698879
 30
0.0
  0
VERTEX
  5
270
330
26B
100
AcDbEntity
  8
001
 62
    40
370
    50
100
AcDbVertex
100
AcDb2dVertex
 10
83.560898
 20
46.752429
 30
0.0
  0
VERTEX
  5
271
330
26B
100
AcDbEntity
  8
001
 62
    40
370
    50
100
AcDbVertex
100
AcDb2dVertex
 10
83.766798
 20
46.798846
 30
0.0
  0
SEQEND
  5
26C
330
26B
100
AcDbEntity
  8
001
370
    50
  0
LINE
  5
272
330
268
100
AcDbEntity
  8
001
 62
    40
370
    50
100
AcDbLine
 10
80.509
 20
47.372329
 30
0.0
 11
82.68933
 21
46.645472
 31
0.0
  0
POLYLINE
  5
273
330
268
100
AcDbEntity
  8
001
 62
    40
370
    50
100
AcDb2dPolyline
 66
     1
 10
0.0
 20
0.0
 30
0.0
  0
VERTEX
  5
275
330
273
100
AcDbEntity
  8
001
 62
    40
370
    50
100
AcDbVertex
100
AcDb2dVertex
 10
80.509
 20
47.372329
 30
0.0
  0
VERTEX
  5
276
330
273
100
AcDbEntity
  8
001
 62
    40
370
    50
100
AcDbVertex
100
AcDb2dVertex
 10
80.421287
 20
47.492166
 30
0.0
  0
VERTEX
  5
277
330
273
100
AcDbEntity
  8
001
 62
    40
370
    50
100
AcDbVertex
100
AcDb2dVertex
 10
80.331209
 20
47.610189
 30
0.0
  0
VERTEX
  5
278
330
273
100
AcDbEntity
  8
001
 62
    40
370
    50
100
AcDbVertex
100
AcDb2dVertex
 10
80.231157
 20
47.731356
 30
0.0
  0
VERTEX
  5
279
330
273
100
AcDbEntity
  8
001
 62
    40
370
    50
100
AcDbVertex
100
AcDb2dVertex
 10
80.125785
 20
47.847964
 30
0.0
  0
VERTEX
  5
27A
330
273
100
AcDbEntity
  8
001
 62
    40
370
    50
100
AcDbVertex
100
AcDb2dVertex
 10
80.014535
 20
47.960035
 30
0.0
  0
VERTEX
  5
27B
330
273
100
AcDbEntity
  8
001
 62
    40
370
    50
100
AcDbVertex
100
AcDb2dVertex
 10
79.897909
 20
48.066484
 30
0.0
  0
VERTEX
  5
27C
330
273
100
AcDbEntity
  8
001
 62
    40
370
    50
100
AcDbVertex
100
AcDb2dVertex
 10
79.772141
 20
48.169764
 30
0.0
  0
VERTEX
  5
27D
330
273
100
AcDbEntity
  8
001
 62
    40
370
    50
100
AcDbVertex
100
AcDb2dVertex
 10
79.640881
 20
48.265997
 30
0.0
  0
VERTEX
  5
27E
330
273
100
AcDbEntity
  8
001
 62
    40
370
    50
100
AcDbVertex
100
AcDb2dVertex
 10
79.502476
 20
48.355724
 30
0.0
  0
VERTEX
  5
27F
330
273
100
AcDbEntity
  8
001
 62
    40
370
    50
100
AcDbVertex
100
AcDb2dVertex
 10
79.358847
 20
48.436766
 30
0.0
  0
VERTEX
  5
280
330
273
100
AcDbEntity
  8
001
 62
    40
370
    50
100
AcDbVertex
100
AcDb2dVertex
 10
79.225557
 20
48.501565
 30
0.0
  0
VERTEX
  5
281
330
273
100
AcDbEntity
  8
001
 62
    40
370
    50
100
AcDbVertex
100
AcDb2dVertex
 10
79.088801
 20
48.558716
 30
0.0
  0
VERTEX
  5
282
330
273
100
AcDbEntity
  8
001
 62
    40
370
    50
100
AcDbVertex
100
AcDb2dVertex
 10
78.947506
 20
48.608826
 30
0.0
  0
VERTEX
  5
283
330
273
100
AcDbEntity
  8
001
 62
    40
370
    50
100
AcDbVertex
100
AcDb2dVertex
 10
78.803688
 20
48.651157
 30
0.0
  0
VERTEX
  5
284
330
273
100
AcDbEntity
  8
001
 62
    40
370
    50
100
AcDbVertex
100
AcDb2dVertex
 10
78.657502
 20
48.68569
 30
0.0
  0
VERTEX
  5
285
330
273
100
AcDbEntity
  8
001
 62
    40
370
    50
100
AcDbVertex
100
AcDb2dVertex
 10
78.509661
 20
48.712186
 30
0.0
  0
VERTEX
  5
286
330
273
100
AcDbEntity
  8
001
 62
    40
370
    50
100
AcDbVertex
100
AcDb2dVertex
 10
78.370262
 20
48.729653
 30
0.0
  0
VERTEX
  5
287
330
273
100
AcDbEntity
  8
001
 62
    40
370
    50
100
AcDbVertex
100
AcDb2dVertex
 10
78.230181
 20
48.740438
 30
0.0
  0
VERTEX
  5
288
330
273
100
AcDbEntity
  8
001
 62
    40
370
    50
100
AcDbVertex
100
AcDb2dVertex
 10
78.089342
 20
48.745022
 30
0.0
  0
VERTEX
  5
289
330
273
100
AcDbEntity
  8
001
 62
    40
370
    50
100
AcDbVertex
100
AcDb2dVertex
 10
77.948437
 20
48.743733
 30
0.0
  0
VERTEX
  5
28A
330
273
100
AcDbEntity
  8
001
 62
    40
370
    50
100
AcDbVertex
100
AcDb2dVertex
 10
77.80868
 20
48.736973
 30
0.0
  0
VERTEX
  5
28B
330
273
100
AcDbEntity
  8
001
 62
    40
370
    50
100
AcDbVertex
100
AcDb2dVertex
 10
77.669273
 20
48.725041
 30
0.0
  0
VERTEX
  5
28C
330
273
100
AcDbEntity
  8
001
 62
    40
370
    50
100
AcDbVertex
100
AcDb2dVertex
 10
77.533456
 20
48.708714
 30
0.0
  0
VERTEX
  5
28D
330
273
100
AcDbEntity
  8
001
 62
    40
370
    50
100
AcDbVertex
100
AcDb2dVertex
 10
77.398169
 20
48.688412
 30
0.0
  0
VERTEX
  5
28E
330
273
100
AcDbEntity
  8
001
 62
    40
370
    50
100
AcDbVertex
100
AcDb2dVertex
 10
77.265511
 20
48.665171
 30
0.0
  0
VERTEX
  5
28F
330
273
100
AcDbEntity
  8
001
 62
    40
370
    50
100
AcDbVertex
100
AcDb2dVertex
 10
77.133386
 20
48.639107
 30
0.0
  0
VERTEX
  5
290
330
273
100
AcDbEntity
  8
001
 62
    40
370
    50
100
AcDbVertex
100
AcDb2dVertex
 10
77.0055
 20
48.611557
 30
0.0
  0
VERTEX
  5
291
330
273
100
AcDbEntity
  8
001
 62
    40
370
    50
100
AcDbVertex
100
AcDb2dVertex
 10
76.877865
 20
48.58284
 30
0.0
  0
SEQEND
  5
274
330
273
100
AcDbEntity
  8
001
370
    50
  0
LINE
  5
292
330
268
100
AcDbEntity
  8
001
 62
    40
370
    50
100
AcDbLine
 10
75.196768
 20
49.143267
 30
0.0
 11
76.877865
 21
48.58284
 31
0.0
  0
POLYLINE
  5
293
330
268
100
AcDbEntity
  8
001
 62
    40
370
    50
100
AcDb2dPolyline
 66
     1
 10
0.0
 20
0.0
 30
0.0
  0
VERTEX
  5
295
330
293
100
AcDbEntity
  8
001
 62
    40
370
    50
100
AcDbVertex
100
AcDb2dVertex
 10
74.678149
 20
49.828729
 30
0.0
  0
VERTEX
  5
296
330
293
100
AcDbEntity
  8
001
 62
    40
370
    50
100
AcDbVertex
100
AcDb2dVertex
 10
74.71454
 20
49.763717
 30
0.0
  0
VERTEX
  5
297
330
293
100
AcDbEntity
  8
001
 62
    40
370
    50
100
AcDbVertex
100
AcDb2dVertex
 10
74.770711
 20
49.670538
 30
0.0
  0
VERTEX
  5
298
330
293
100
AcDbEntity
  8
001
 62
    40
370
    50
100
AcDbVertex
100
AcDb2dVertex
 10
75.010572
 20
49.34766
 30
0.0
  0
VERTEX
  5
299
330
293
100
AcDbEntity
  8
001
 62
    40
370
    50
100
AcDbVertex
100
AcDb2dVertex
 10
75.196768
 20
49.143267
 30
0.0
  0
SEQEND
  5
294
330
293
100
AcDbEntity
  8
001
370
    50
  0
POLYLINE
  5
29A
330
268
100
AcDbEntity
  8
001
 62
    40
370
    50
100
AcDb2dPolyline
 66
     1
 10
0.0
 20
0.0
 30
0.0
  0
VERTEX
  5
29C
330
29A
100
AcDbEntity
  8
001
 62
    40
370
    50
100
AcDbVertex
100
AcDb2dVertex
 10
74.678149
 20
49.828729
 30
0.0
  0
VERTEX
  5
29D
330
29A
100
AcDbEntity
  8
001
 62
    40
370
    50
100
AcDbVertex
100
AcDb2dVertex
 10
74.824142
 20
50.067332
 30
0.0
  0
VERTEX
  5
29E
330
29A
100
AcDbEntity
  8
001
 62
    40
370
    50
100
AcDbVertex
100
AcDb2dVertex
 10
75.016528
 20
50.392811
 30
0.0
  0
VERTEX
  5
29F
330
29A
100
AcDbEntity
  8
001
 62
    40
370
    50
100
AcDbVertex
100
AcDb2dVertex
 10
75.114961
 20
50.566455
 30
0.0
  0
VERTEX
  5
2A0
330
29A
100
AcDbEntity
  8
001
 62
    40
370
    50
100
AcDbVertex
100
AcDb2dVertex
 10
75.205363
 20
50.731771
 30
0.0
  0
VERTEX
  5
2A1
330
29A
100
AcDbEntity
  8
001
 62
    40
370
    50
100
AcDbVertex
100
AcDb2dVertex
 10
75.296966
 20
50.903458
 30
0.0
  0
VERTEX
  5
2A2
330
29A
100
AcDbEntity
  8
001
 62
    40
370
    50
100
AcDbVertex
100
AcDb2dVertex
 10
75.386716
 20
51.074792
 30
0.0
  0
VERTEX
  5
2A3
330
29A
100
AcDbEntity
  8
001
 62
    40
370
    50
100
AcDbVertex
100
AcDb2dVertex
 10
75.541927
 20
51.381691
 30
0.0
  0
VERTEX
  5
2A4
330
29A
100
AcDbEntity
  8
001
 62
    40
370
    50
100
AcDbVertex
100
AcDb2dVertex
 10
75.705329
 20
51.731522
 30
0.0
  0
VERTEX
  5
2A5
330
29A
100
AcDbEntity
  8
001
 62
    40
370
    50
100
AcDbVertex
100
AcDb2dVertex
 10
75.749933
 20
51.83171
 30
0.0
  0
VERTEX
  5
2A6
330
29A
100
AcDbEntity
  8
001
 62
    40
370
    50
100
AcDbVertex
100
AcDb2dVertex
 10
75.780822
 20
51.902152
 30
0.0
  0
SEQEND
  5
29B
330
29A
100
AcDbEntity
  8
001
370
    50
  0
POLYLINE
  5
2A7
330
268
100
AcDbEntity
  8
001
 62
    40
370
    50
100
AcDb2dPolyline
 66
     1
 10
0.0
 20
0.0
 30
0.0
  0
VERTEX
  5
2A9
330
2A7
100
AcDbEntity
  8
001
 62
    40
370
    50
100
AcDbVertex
100
AcDb2dVertex
 10
76.745545
 20
52.055527
 30
0.0
  0
VERTEX
  5
2AA
330
2A7
100
AcDbEntity
  8
001
 62
    40
370
    50
100
AcDbVertex
100
AcDb2dVertex
 10
76.538842
 20
52.039751
 30
0.0
  0
VERTEX
  5
2AB
330
2A7
100
AcDbEntity
  8
001
 62
    40
370
    50
100
AcDbVertex
100
AcDb2dVertex
 10
76.238597
 20
52.002119
 30
0.0
  0
VERTEX
  5
2AC
330
2A7
100
AcDbEntity
  8
001
 62
    40
370
    50
100
AcDbVertex
100
AcDb2dVertex
 10
75.965641
 20
51.948478
 30
0.0
  0
VERTEX
  5
2AD
330
2A7
100
AcDbEntity
  8
001
 62
    40
370
    50
100
AcDbVertex
100
AcDb2dVertex
 10
75.780822
 20
51.902152
 30
0.0
  0
SEQEND
  5
2A8
330
2A7
100
AcDbEntity
  8
001
370
    50
  0
LINE
  5
2AE
330
268
100
AcDbEntity
  8
001
 62
    40
370
    50
100
AcDbLine
 10
84.238108
 20
49.557731
 30
0.0
 11
76.745545
 21
52.055527
 31
0.0
  0
POLYLINE
  5
2AF
330
268
100
AcDbEntity
  8
001
 62
    40
370
    50
100
AcDb2dPolyline
 66
     1
 10
0.0
 20
0.0
 30
0.0
  0
VERTEX
  5
2B1
330
2AF
100
AcDbEntity
  8
001
 62
    40
370
    50
100
AcDbVertex
100
AcDb2dVertex
 10
84.862399
 20
48.882771
 30
0.0
  0
VERTEX
  5
2B2
330
2AF
100
AcDbEntity
  8
001
 62
    40
370
    50
100
AcDbVertex
100
AcDb2dVertex
 10
84.815477
 20
48.949066
 30
0.0
  0
VERTEX
  5
2B3
330
2AF
100
AcDbEntity
  8
001
 62
    40
370
    50
100
AcDbVertex
100
AcDb2dVertex
 10
84.743916
 20
49.043661
 30
0.0
  0
VERTEX
  5
2B4
330
2AF
100
AcDbEntity
  8
001
 62
    40
370
    50
100
AcDbVertex
100
AcDb2dVertex
 10
84.455603
 20
49.359885
 30
0.0
  0
VERTEX
  5
2B5
330
2AF
100
AcDbEntity
  8
001
 62
    40
370
    50
100
AcDbVertex
100
AcDb2dVertex
 10
84.238108
 20
49.557731
 30
0.0
  0
SEQEND
  5
2B0
330
2AF
100
AcDbEntity
  8
001
370
    50
  0
POLYLINE
  5
2B6
330
268
100
AcDbEntity
  8
001
 62
    40
370
    50
100
AcDb2dPolyline
 66
     1
 10
0.0
 20
0.0
 30
0.0
  0
VERTEX
  5
2B8
330
2B6
100
AcDbEntity
  8
001
 62
    40
370
    50
100
AcDbVertex
100
AcDb2dVertex
 10
84.796998
 20
48.708316
 30
0.0
  0
VERTEX
  5
2B9
330
2B6
100
AcDbEntity
  8
001
 62
    40
370
    50
100
AcDbVertex
100
AcDb2dVertex
 10
84.815485
 20
48.751697
 30
0.0
  0
VERTEX
  5
2BA
330
2B6
100
AcDbEntity
  8
001
 62
    40
370
    50
100
AcDbVertex
100
AcDb2dVertex
 10
84.83289
 20
48.795488
 30
0.0
  0
VERTEX
  5
2BB
330
2B6
100
AcDbEntity
  8
001
 62
    40
370
    50
100
AcDbVertex
100
AcDb2dVertex
 10
84.844032
 20
48.826641
 30
0.0
  0
VERTEX
  5
2BC
330
2B6
100
AcDbEntity
  8
001
 62
    40
370
    50
100
AcDbVertex
100
AcDb2dVertex
 10
84.85464
 20
48.857997
 30
0.0
  0
SEQEND
  5
2B7
330
2B6
100
AcDbEntity
  8
001
370
    50
  0
POLYLINE
  5
2BD
330
268
100
AcDbEntity
  8
001
 62
    40
370
    50
100
AcDb2dPolyline
 66
     1
 10
0.0
 20
0.0
 30
0.0
  0
VERTEX
  5
2BF
330
2BD
100
AcDbEntity
  8
001
 62
    40
370
    50
100
AcDbVertex
100
AcDb2dVertex
 10
83.766798
 20
46.798846
 30
0.0
  0
VERTEX
  5
2C0
330
2BD
100
AcDbEntity
  8
001
 62
    40
370
    50
100
AcDbVertex
100
AcDb2dVertex
 10
83.912821
 20
47.037503
 30
0.0
  0
VERTEX
  5
2C1
330
2BD
100
AcDbEntity
  8
001
 62
    40
370
    50
100
AcDbVertex
100
AcDb2dVertex
 10
84.105177
 20
47.362928
 30
0.0
  0
VERTEX
  5
2C2
330
2BD
100
AcDbEntity
  8
001
 62
    40
370
    50
100
AcDbVertex
100
AcDb2dVertex
 10
84.203538
 20
47.53644
 30
0.0
  0
VERTEX
  5
2C3
330
2BD
100
AcDbEntity
  8
001
 62
    40
370
    50
100
AcDbVertex
100
AcDb2dVertex
 10
84.294012
 20
47.701888
 30
0.0
  0
VERTEX
  5
2C4
330
2BD
100
AcDbEntity
  8
001
 62
    40
370
    50
100
AcDbVertex
100
AcDb2dVertex
 10
84.385875
 20
47.874045
 30
0.0
  0
VERTEX
  5
2C5
330
2BD
100
AcDbEntity
  8
001
 62
    40
370
    50
100
AcDbVertex
100
AcDb2dVertex
 10
84.475365
 20
48.044909
 30
0.0
  0
VERTEX
  5
2C6
330
2BD
100
AcDbEntity
  8
001
 62
    40
370
    50
100
AcDbVertex
100
AcDb2dVertex
 10
84.628172
 20
48.347461
 30
0.0
  0
VERTEX
  5
2C7
330
2BD
100
AcDbEntity
  8
001
 62
    40
370
    50
100
AcDbVertex
100
AcDb2dVertex
 10
84.793978
 20
48.701639
 30
0.0
  0
VERTEX
  5
2C8
330
2BD
100
AcDbEntity
  8
001
 62
    40
370
    50
100
AcDbVertex
100
AcDb2dVertex
 10
84.795771
 20
48.705602
 30
0.0
  0
VERTEX
  5
2C9
330
2BD
100
AcDbEntity
  8
001
 62
    40
370
    50
100
AcDbVertex
100
AcDb2dVertex
 10
84.796998
 20
48.708316
 30
0.0
  0
SEQEND
  5
2BE
330
2BD
100
AcDbEntity
  8
001
370
    50
  0
LINE
  5
2CA
330
268
100
AcDbEntity
  8
001
 62
    40
370
    50
100
AcDbLine
 10
76.3652
 20
52.19196
 30
0.0
 11
76.745545
 21
52.055527
 31
0.0
  0
LINE
  5
2CB
330
268
100
AcDbEntity
  8
001
 62
    40
370
    50
100
AcDbLine
 10
82.696096
 20
50.225025
 30
0.0
 11
82.041284
 21
50.443319
 31
0.0
  0
LINE
  5
2CC
330
268
100
AcDbEntity
  8
001
 62
    40
370
    50
100
AcDbLine
 10
84.238108
 20
49.557731
 30
0.0
 11
84.678431
 21
49.420625
 31
0.0
  0
POLYLINE
  5
2CD
330
268
100
AcDbEntity
  8
001
 62
    40
370
    50
100
AcDb2dPolyline
 66
     1
 10
0.0
 20
0.0
 30
0.0
  0
VERTEX
  5
2CF
330
2CD
100
AcDbEntity
  8
001
 62
    40
370
    50
100
AcDbVertex
100
AcDb2dVertex
 10
84.862399
 20
48.882771
 30
0.0
  0
VERTEX
  5
2D0
330
2CD
100
AcDbEntity
  8
001
 62
    40
370
    50
100
AcDbVertex
100
AcDb2dVertex
 10
84.876982
 20
48.958397
 30
0.0
  0
VERTEX
  5
2D1
330
2CD
100
AcDbEntity
  8
001
 62
    40
370
    50
100
AcDbVertex
100
AcDb2dVertex
 10
84.88497
 20
49.0345
 30
0.0
  0
VERTEX
  5
2D2
330
2CD
100
AcDbEntity
  8
001
 62
    40
370
    50
100
AcDbVertex
100
AcDb2dVertex
 10
84.884112
 20
49.081769
 30
0.0
  0
VERTEX
  5
2D3
330
2CD
100
AcDbEntity
  8
001
 62
    40
370
    50
100
AcDbVertex
100
AcDb2dVertex
 10
84.878921
 20
49.128895
 30
0.0
  0
VERTEX
  5
2D4
330
2CD
100
AcDbEntity
  8
001
 62
    40
370
    50
100
AcDbVertex
100
AcDb2dVertex
 10
84.869982
 20
49.174955
 30
0.0
  0
VERTEX
  5
2D5
330
2CD
100
AcDbEntity
  8
001
 62
    40
370
    50
100
AcDbVertex
100
AcDb2dVertex
 10
84.856975
 20
49.219987
 30
0.0
  0
VERTEX
  5
2D6
330
2CD
100
AcDbEntity
  8
001
 62
    40
370
    50
100
AcDbVertex
100
AcDb2dVertex
 10
84.832605
 20
49.277478
 30
0.0
  0
VERTEX
  5
2D7
330
2CD
100
AcDbEntity
  8
001
 62
    40
370
    50
100
AcDbVertex
100
AcDb2dVertex
 10
84.799489
 20
49.330606
 30
0.0
  0
VERTEX
  5
2D8
330
2CD
100
AcDbEntity
  8
001
 62
    40
370
    50
100
AcDbVertex
100
AcDb2dVertex
 10
84.769373
 20
49.36524
 30
0.0
  0
VERTEX
  5
2D9
330
2CD
100
AcDbEntity
  8
001
 62
    40
370
    50
100
AcDbVertex
100
AcDb2dVertex
 10
84.733912
 20
49.393765
 30
0.0
  0
VERTEX
  5
2DA
330
2CD
100
AcDbEntity
  8
001
 62
    40
370
    50
100
AcDbVertex
100
AcDb2dVertex
 10
84.716783
 20
49.403763
 30
0.0
  0
VERTEX
  5
2DB
330
2CD
100
AcDbEntity
  8
001
 62
    40
370
    50
100
AcDbVertex
100
AcDb2dVertex
 10
84.699115
 20
49.412914
 30
0.0
  0
SEQEND
  5
2CE
330
2CD
100
AcDbEntity
  8
001
370
    50
  0
LINE
  5
2DC
330
268
100
AcDbEntity
  8
001
 62
    40
370
    50
100
AcDbLine
 10
84.85464
 20
48.857997
 30
0.0
 11
84.862399
 21
48.882771
 31
0.0
  0
LINE
  5
2DD
330
268
100
AcDbEntity
  8
001
 62
    40
370
    50
100
AcDbLine
 10
84.699115
 20
49.412914
 30
0.0
 11
84.678431
 21
49.420625
 31
0.0
  0
POLYLINE
  5
2DE
330
268
100
AcDbEntity
  8
001
 62
    40
370
    50
100
AcDb2dPolyline
 66
     1
 10
0.0
 20
0.0
 30
0.0
  0
VERTEX
  5
2E0
330
2DE
100
AcDbEntity
  8
001
 62
    40
370
    50
100
AcDbVertex
100
AcDb2dVertex
 10
84.100132
 20
46.667326
 30
0.0
  0
VERTEX
  5
2E1
330
2DE
100
AcDbEntity
  8
001
 62
    40
370
    50
100
AcDbVertex
100
AcDb2dVertex
 10
84.140577
 20
46.747252
 30
0.0
  0
VERTEX
  5
2E2
330
2DE
100
AcDbEntity
  8
001
 62
    40
370
    50
100
AcDbVertex
100
AcDb2dVertex
 10
84.19496
 20
46.866232
 30
0.0
  0
VERTEX
  5
2E3
330
2DE
100
AcDbEntity
  8
001
 62
    40
370
    50
100
AcDbVertex
100
AcDb2dVertex
 10
84.242703
 20
46.988123
 30
0.0
  0
VERTEX
  5
2E4
330
2DE
100
AcDbEntity
  8
001
 62
    40
370
    50
100
AcDbVertex
100
AcDb2dVertex
 10
84.272054
 20
47.072818
 30
0.0
  0
SEQEND
  5
2DF
330
2DE
100
AcDbEntity
  8
001
370
    50
  0
POLYLINE
  5
2E5
330
268
100
AcDbEntity
  8
001
 62
    40
370
    50
100
AcDb2dPolyline
 66
     1
 10
0.0
 20
0.0
 30
0.0
  0
VERTEX
  5
2E7
330
2E5
100
AcDbEntity
  8
001
 62
    40
370
    50
100
AcDbVertex
100
AcDb2dVertex
 10
84.699899
 20
49.412587
 30
0.0
  0
VERTEX
  5
2E8
330
2E5
100
AcDbEntity
  8
001
 62
    40
370
    50
100
AcDbVertex
100
AcDb2dVertex
 10
84.264346
 20
49.590383
 30
0.0
  0
VERTEX
  5
2E9
330
2E5
100
AcDbEntity
  8
001
 62
    40
370
    50
100
AcDbVertex
100
AcDb2dVertex
 10
83.828801
 20
49.768198
 30
0.0
  0
VERTEX
  5
2EA
330
2E5
100
AcDbEntity
  8
001
 62
    40
370
    50
100
AcDbVertex
100
AcDb2dVertex
 10
83.334986
 20
49.969849
 30
0.0
  0
VERTEX
  5
2EB
330
2E5
100
AcDbEntity
  8
001
 62
    40
370
    50
100
AcDbVertex
100
AcDb2dVertex
 10
82.841182
 20
50.171526
 30
0.0
  0
SEQEND
  5
2E6
330
2E5
100
AcDbEntity
  8
001
370
    50
  0
POLYLINE
  5
2EC
330
268
100
AcDbEntity
  8
001
 62
    40
370
    50
100
AcDb2dPolyline
 66
     1
 10
0.0
 20
0.0
 30
0.0
  0
VERTEX
  5
2EE
330
2EC
100
AcDbEntity
  8
001
 62
    40
370
    50
100
AcDbVertex
100
AcDb2dVertex
 10
84.27049
 20
47.068013
 30
0.0
  0
VERTEX
  5
2EF
330
2EC
100
AcDbEntity
  8
001
 62
    40
370
    50
100
AcDbVertex
100
AcDb2dVertex
 10
84.442584
 20
47.595458
 30
0.0
  0
VERTEX
  5
2F0
330
2EC
100
AcDbEntity
  8
001
 62
    40
370
    50
100
AcDbVertex
100
AcDb2dVertex
 10
84.6147
 20
48.122897
 30
0.0
  0
VERTEX
  5
2F1
330
2EC
100
AcDbEntity
  8
001
 62
    40
370
    50
100
AcDbVertex
100
AcDb2dVertex
 10
84.734581
 20
48.490187
 30
0.0
  0
VERTEX
  5
2F2
330
2EC
100
AcDbEntity
  8
001
 62
    40
370
    50
100
AcDbVertex
100
AcDb2dVertex
 10
84.854473
 20
48.857473
 30
0.0
  0
SEQEND
  5
2ED
330
2EC
100
AcDbEntity
  8
001
370
    50
  0
POLYLINE
  5
2F3
330
268
100
AcDbEntity
  8
001
 62
    40
370
    50
100
AcDb2dPolyline
 66
     1
 10
0.0
 20
0.0
 30
0.0
  0
VERTEX
  5
2F5
330
2F3
100
AcDbEntity
  8
001
 62
    40
370
    50
100
AcDbVertex
100
AcDb2dVertex
 10
82.846292
 20
50.169451
 30
0.0
  0
VERTEX
  5
2F6
330
2F3
100
AcDbEntity
  8
001
 62
    40
370
    50
100
AcDbVertex
100
AcDb2dVertex
 10
82.814286
 20
50.182198
 30
0.0
  0
VERTEX
  5
2F7
330
2F3
100
AcDbEntity
  8
001
 62
    40
370
    50
100
AcDbVertex
100
AcDb2dVertex
 10
82.767228
 20
50.200092
 30
0.0
  0
VERTEX
  5
2F8
330
2F3
100
AcDbEntity
  8
001
 62
    40
370
    50
100
AcDbVertex
100
AcDb2dVertex
 10
82.725078
 20
50.215134
 30
0.0
  0
VERTEX
  5
2F9
330
2F3
100
AcDbEntity
  8
001
 62
    40
370
    50
100
AcDbVertex
100
AcDb2dVertex
 10
82.696096
 20
50.225025
 30
0.0
  0
SEQEND
  5
2F4
330
2F3
100
AcDbEntity
  8
001
370
    50
  0
POLYLINE
  5
2FA
330
268
100
AcDbEntity
  8
001
 62
    40
370
    50
100
AcDb2dPolyline
 66
     1
 10
0.0
 20
0.0
 30
0.0
  0
VERTEX
  5
2FC
330
2FA
100
AcDbEntity
  8
001
 62
    40
370
    50
100
AcDbVertex
100
AcDb2dVertex
 10
81.887504
 20
43.265097
 30
0.0
  0
VERTEX
  5
2FD
330
2FA
100
AcDbEntity
  8
001
 62
    40
370
    50
100
AcDbVertex
100
AcDb2dVertex
 10
81.837877
 20
43.335782
 30
0.0
  0
VERTEX
  5
2FE
330
2FA
100
AcDbEntity
  8
001
 62
    40
370
    50
100
AcDbVertex
100
AcDb2dVertex
 10
81.761949
 20
43.436489
 30
0.0
  0
VERTEX
  5
2FF
330
2FA
100
AcDbEntity
  8
001
 62
    40
370
    50
100
AcDbVertex
100
AcDb2dVertex
 10
81.473662
 20
43.752726
 30
0.0
  0
VERTEX
  5
300
330
2FA
100
AcDbEntity
  8
001
 62
    40
370
    50
100
AcDbVertex
100
AcDb2dVertex
 10
81.256141
 20
43.950559
 30
0.0
  0
SEQEND
  5
2FB
330
2FA
100
AcDbEntity
  8
001
370
    50
  0
LINE
  5
301
330
268
100
AcDbEntity
  8
001
 62
    40
370
    50
100
AcDbLine
 10
82.68933
 20
46.645472
 30
0.0
 11
81.256141
 21
43.950559
 31
0.0
  0
LINE
  5
302
330
268
100
AcDbEntity
  8
001
 62
    40
370
    50
100
AcDbLine
 10
83.766798
 20
46.798846
 30
0.0
 11
83.371227
 21
46.055031
 31
0.0
  0
LINE
  5
303
330
268
100
AcDbEntity
  8
001
 62
    40
370
    50
100
AcDbLine
 10
81.984649
 20
43.447765
 30
0.0
 11
81.887504
 21
43.265097
 31
0.0
  0
LINE
  5
304
330
268
100
AcDbEntity
  8
001
 62
    40
370
    50
100
AcDbLine
 10
81.256141
 20
43.950559
 30
0.0
 11
79.575043
 21
44.510986
 31
0.0
  0
POLYLINE
  5
305
330
268
100
AcDbEntity
  8
001
 62
    40
370
    50
100
AcDb2dPolyline
 66
     1
 10
0.0
 20
0.0
 30
0.0
  0
VERTEX
  5
307
330
305
100
AcDbEntity
  8
001
 62
    40
370
    50
100
AcDbVertex
100
AcDb2dVertex
 10
79.575043
 20
44.510986
 30
0.0
  0
VERTEX
  5
308
330
305
100
AcDbEntity
  8
001
 62
    40
370
    50
100
AcDbVertex
100
AcDb2dVertex
 10
79.925114
 20
44.825822
 30
0.0
  0
VERTEX
  5
309
330
305
100
AcDbEntity
  8
001
 62
    40
370
    50
100
AcDbVertex
100
AcDb2dVertex
 10
80.325934
 20
45.321913
 30
0.0
  0
VERTEX
  5
30A
330
305
100
AcDbEntity
  8
001
 62
    40
370
    50
100
AcDbVertex
100
AcDb2dVertex
 10
80.517438
 20
45.716231
 30
0.0
  0
VERTEX
  5
30B
330
305
100
AcDbEntity
  8
001
 62
    40
370
    50
100
AcDbVertex
100
AcDb2dVertex
 10
80.613895
 20
46.121475
 30
0.0
  0
VERTEX
  5
30C
330
305
100
AcDbEntity
  8
001
 62
    40
370
    50
100
AcDbVertex
100
AcDb2dVertex
 10
80.639428
 20
46.33519
 30
0.0
  0
VERTEX
  5
30D
330
305
100
AcDbEntity
  8
001
 62
    40
370
    50
100
AcDbVertex
100
AcDb2dVertex
 10
80.650725
 20
46.546913
 30
0.0
  0
VERTEX
  5
30E
330
305
100
AcDbEntity
  8
001
 62
    40
370
    50
100
AcDbVertex
100
AcDb2dVertex
 10
80.6449
 20
46.751875
 30
0.0
  0
VERTEX
  5
30F
330
305
100
AcDbEntity
  8
001
 62
    40
370
    50
100
AcDbVertex
100
AcDb2dVertex
 10
80.613895
 20
46.972351
 30
0.0
  0
VERTEX
  5
310
330
305
100
AcDbEntity
  8
001
 62
    40
370
    50
100
AcDbVertex
100
AcDb2dVertex
 10
80.558765
 20
47.205571
 30
0.0
  0
VERTEX
  5
311
330
305
100
AcDbEntity
  8
001
 62
    40
370
    50
100
AcDbVertex
100
AcDb2dVertex
 10
80.509
 20
47.372329
 30
0.0
  0
SEQEND
  5
306
330
305
100
AcDbEntity
  8
001
370
    50
  0
POLYLINE
  5
312
330
268
100
AcDbEntity
  8
001
 62
    40
370
    50
100
AcDb2dPolyline
 66
     1
 10
0.0
 20
0.0
 30
0.0
  0
VERTEX
  5
314
330
312
100
AcDbEntity
  8
001
 62
    40
370
    50
100
AcDbVertex
100
AcDb2dVertex
 10
75.943909
 20
45.721497
 30
0.0
  0
VERTEX
  5
315
330
312
100
AcDbEntity
  8
001
 62
    40
370
    50
100
AcDbVertex
100
AcDb2dVertex
 10
76.055443
 20
45.602016
 30
0.0
  0
VERTEX
  5
316
330
312
100
AcDbEntity
  8
001
 62
    40
370
    50
100
AcDbVertex
100
AcDb2dVertex
 10
76.168145
 20
45.483637
 30
0.0
  0
VERTEX
  5
317
330
312
100
AcDbEntity
  8
001
 62
    40
370
    50
100
AcDbVertex
100
AcDb2dVertex
 10
76.287493
 20
45.36309
 30
0.0
  0
VERTEX
  5
318
330
312
100
AcDbEntity
  8
001
 62
    40
370
    50
100
AcDbVertex
100
AcDb2dVertex
 10
76.410099
 20
45.245862
 30
0.0
  0
VERTEX
  5
319
330
312
100
AcDbEntity
  8
001
 62
    40
370
    50
100
AcDbVertex
100
AcDb2dVertex
 10
76.535037
 20
45.134212
 30
0.0
  0
VERTEX
  5
31A
330
312
100
AcDbEntity
  8
001
 62
    40
370
    50
100
AcDbVertex
100
AcDb2dVertex
 10
76.664088
 20
45.027342
 30
0.0
  0
VERTEX
  5
31B
330
312
100
AcDbEntity
  8
001
 62
    40
370
    50
100
AcDbVertex
100
AcDb2dVertex
 10
76.799403
 20
44.924456
 30
0.0
  0
VERTEX
  5
31C
330
312
100
AcDbEntity
  8
001
 62
    40
370
    50
100
AcDbVertex
100
AcDb2dVertex
 10
76.939269
 20
44.827829
 30
0.0
  0
VERTEX
  5
31D
330
312
100
AcDbEntity
  8
001
 62
    40
370
    50
100
AcDbVertex
100
AcDb2dVertex
 10
77.083439
 20
44.738428
 30
0.0
  0
VERTEX
  5
31E
330
312
100
AcDbEntity
  8
001
 62
    40
370
    50
100
AcDbVertex
100
AcDb2dVertex
 10
77.23226
 20
44.65706
 30
0.0
  0
VERTEX
  5
31F
330
312
100
AcDbEntity
  8
001
 62
    40
370
    50
100
AcDbVertex
100
AcDb2dVertex
 10
77.367875
 20
44.592478
 30
0.0
  0
VERTEX
  5
320
330
312
100
AcDbEntity
  8
001
 62
    40
370
    50
100
AcDbVertex
100
AcDb2dVertex
 10
77.506705
 20
44.53511
 30
0.0
  0
VERTEX
  5
321
330
312
100
AcDbEntity
  8
001
 62
    40
370
    50
100
AcDbVertex
100
AcDb2dVertex
 10
77.647883
 20
44.485174
 30
0.0
  0
VERTEX
  5
322
330
312
100
AcDbEntity
  8
001
 62
    40
370
    50
100
AcDbVertex
100
AcDb2dVertex
 10
77.791473
 20
44.442669
 30
0.0
  0
VERTEX
  5
323
330
312
100
AcDbEntity
  8
001
 62
    40
370
    50
100
AcDbVertex
100
AcDb2dVertex
 10
77.935115
 20
44.408259
 30
0.0
  0
VERTEX
  5
324
330
312
100
AcDbEntity
  8
001
 62
    40
370
    50
100
AcDbVertex
100
AcDb2dVertex
 10
78.080388
 20
44.38164
 30
0.0
  0
VERTEX
  5
325
330
312
100
AcDbEntity
  8
001
 62
    40
370
    50
100
AcDbVertex
100
AcDb2dVertex
 10
78.21513
 20
44.364235
 30
0.0
  0
VERTEX
  5
326
330
312
100
AcDbEntity
  8
001
 62
    40
370
    50
100
AcDbVertex
100
AcDb2dVertex
 10
78.350564
 20
44.353388
 30
0.0
  0
VERTEX
  5
327
330
312
100
AcDbEntity
  8
001
 62
    40
370
    50
100
AcDbVertex
100
AcDb2dVertex
 10
78.484299
 20
44.348813
 30
0.0
  0
VERTEX
  5
328
330
312
100
AcDbEntity
  8
001
 62
    40
370
    50
100
AcDbVertex
100
AcDb2dVertex
 10
78.618104
 20
44.350093
 30
0.0
  0
VERTEX
  5
329
330
312
100
AcDbEntity
  8
001
 62
    40
370
    50
100
AcDbVertex
100
AcDb2dVertex
 10
78.748105
 20
44.356797
 30
0.0
  0
VERTEX
  5
32A
330
312
100
AcDbEntity
  8
001
 62
    40
370
    50
100
AcDbVertex
100
AcDb2dVertex
 10
78.877717
 20
44.368785
 30
0.0
  0
VERTEX
  5
32B
330
312
100
AcDbEntity
  8
001
 62
    40
370
    50
100
AcDbVertex
100
AcDb2dVertex
 10
79.000969
 20
44.385012
 30
0.0
  0
VERTEX
  5
32C
330
312
100
AcDbEntity
  8
001
 62
    40
370
    50
100
AcDbVertex
100
AcDb2dVertex
 10
79.123609
 20
44.405414
 30
0.0
  0
VERTEX
  5
32D
330
312
100
AcDbEntity
  8
001
 62
    40
370
    50
100
AcDbVertex
100
AcDb2dVertex
 10
79.240666
 20
44.428456
 30
0.0
  0
VERTEX
  5
32E
330
312
100
AcDbEntity
  8
001
 62
    40
370
    50
100
AcDbVertex
100
AcDb2dVertex
 10
79.357027
 20
44.454719
 30
0.0
  0
VERTEX
  5
32F
330
312
100
AcDbEntity
  8
001
 62
    40
370
    50
100
AcDbVertex
100
AcDb2dVertex
 10
79.466208
 20
44.482157
 30
0.0
  0
VERTEX
  5
330
330
312
100
AcDbEntity
  8
001
 62
    40
370
    50
100
AcDbVertex
100
AcDb2dVertex
 10
79.575043
 20
44.510986
 30
0.0
  0
SEQEND
  5
313
330
312
100
AcDbEntity
  8
001
370
    50
  0
POLYLINE
  5
331
330
268
100
AcDbEntity
  8
001
 62
    40
370
    50
100
AcDb2dPolyline
 66
     1
 10
0.0
 20
0.0
 30
0.0
  0
VERTEX
  5
333
330
331
100
AcDbEntity
  8
001
 62
    40
370
    50
100
AcDbVertex
100
AcDb2dVertex
 10
76.877865
 20
48.58284
 30
0.0
  0
VERTEX
  5
334
330
331
100
AcDbEntity
  8
001
 62
    40
370
    50
100
AcDbVertex
100
AcDb2dVertex
 10
76.527794
 20
48.268004
 30
0.0
  0
VERTEX
  5
335
330
331
100
AcDbEntity
  8
001
 62
    40
370
    50
100
AcDbVertex
100
AcDb2dVertex
 10
76.126974
 20
47.771913
 30
0.0
  0
VERTEX
  5
336
330
331
100
AcDbEntity
  8
001
 62
    40
370
    50
100
AcDbVertex
100
AcDb2dVertex
 10
75.93547
 20
47.377595
 30
0.0
  0
VERTEX
  5
337
330
331
100
AcDbEntity
  8
001
 62
    40
370
    50
100
AcDbVertex
100
AcDb2dVertex
 10
75.839013
 20
46.972351
 30
0.0
  0
VERTEX
  5
338
330
331
100
AcDbEntity
  8
001
 62
    40
370
    50
100
AcDbVertex
100
AcDb2dVertex
 10
75.81348
 20
46.758636
 30
0.0
  0
VERTEX
  5
339
330
331
100
AcDbEntity
  8
001
 62
    40
370
    50
100
AcDbVertex
100
AcDb2dVertex
 10
75.802183
 20
46.546913
 30
0.0
  0
VERTEX
  5
33A
330
331
100
AcDbEntity
  8
001
 62
    40
370
    50
100
AcDbVertex
100
AcDb2dVertex
 10
75.808009
 20
46.341951
 30
0.0
  0
VERTEX
  5
33B
330
331
100
AcDbEntity
  8
001
 62
    40
370
    50
100
AcDbVertex
100
AcDb2dVertex
 10
75.839013
 20
46.121475
 30
0.0
  0
VERTEX
  5
33C
330
331
100
AcDbEntity
  8
001
 62
    40
370
    50
100
AcDbVertex
100
AcDb2dVertex
 10
75.894143
 20
45.888255
 30
0.0
  0
VERTEX
  5
33D
330
331
100
AcDbEntity
  8
001
 62
    40
370
    50
100
AcDbVertex
100
AcDb2dVertex
 10
75.943909
 20
45.721497
 30
0.0
  0
SEQEND
  5
332
330
331
100
AcDbEntity
  8
001
370
    50
  0
LINE
  5
33E
330
268
100
AcDbEntity
  8
001
 62
    40
370
    50
100
AcDbLine
 10
80.784831
 20
41.191674
 30
0.0
 11
80.640393
 21
40.920078
 31
0.0
  0
POLYLINE
  5
33F
330
268
100
AcDbEntity
  8
001
 62
    40
370
    50
100
AcDb2dPolyline
 66
     1
 10
0.0
 20
0.0
 30
0.0
  0
VERTEX
  5
341
330
33F
100
AcDbEntity
  8
001
 62
    40
370
    50
100
AcDbVertex
100
AcDb2dVertex
 10
81.521785
 20
42.493158
 30
0.0
  0
VERTEX
  5
342
330
33F
100
AcDbEntity
  8
001
 62
    40
370
    50
100
AcDbVertex
100
AcDb2dVertex
 10
81.642912
 20
42.735916
 30
0.0
  0
VERTEX
  5
343
330
33F
100
AcDbEntity
  8
001
 62
    40
370
    50
100
AcDbVertex
100
AcDb2dVertex
 10
81.812011
 20
43.094467
 30
0.0
  0
VERTEX
  5
344
330
33F
100
AcDbEntity
  8
001
 62
    40
370
    50
100
AcDbVertex
100
AcDb2dVertex
 10
81.857136
 20
43.195643
 30
0.0
  0
VERTEX
  5
345
330
33F
100
AcDbEntity
  8
001
 62
    40
370
    50
100
AcDbVertex
100
AcDb2dVertex
 10
81.887504
 20
43.265097
 30
0.0
  0
SEQEND
  5
340
330
33F
100
AcDbEntity
  8
001
370
    50
  0
POLYLINE
  5
346
330
268
100
AcDbEntity
  8
001
 62
    40
370
    50
100
AcDb2dPolyline
 66
     1
 10
0.0
 20
0.0
 30
0.0
  0
VERTEX
  5
348
330
346
100
AcDbEntity
  8
001
 62
    40
370
    50
100
AcDbVertex
100
AcDb2dVertex
 10
80.784831
 20
41.191674
 30
0.0
  0
VERTEX
  5
349
330
346
100
AcDbEntity
  8
001
 62
    40
370
    50
100
AcDbVertex
100
AcDb2dVertex
 10
80.924943
 20
41.419261
 30
0.0
  0
VERTEX
  5
34A
330
346
100
AcDbEntity
  8
001
 62
    40
370
    50
100
AcDbVertex
100
AcDb2dVertex
 10
81.12321
 20
41.755756
 30
0.0
  0
VERTEX
  5
34B
330
346
100
AcDbEntity
  8
001
 62
    40
370
    50
100
AcDbVertex
100
AcDb2dVertex
 10
81.192973
 20
41.878989
 30
0.0
  0
VERTEX
  5
34C
330
346
100
AcDbEntity
  8
001
 62
    40
370
    50
100
AcDbVertex
100
AcDb2dVertex
 10
81.240166
 20
41.963613
 30
0.0
  0
SEQEND
  5
347
330
346
100
AcDbEntity
  8
001
370
    50
  0
LINE
  5
34D
330
268
100
AcDbEntity
  8
001
 62
    40
370
    50
100
AcDbLine
 10
81.04367
 20
40.920078
 30
0.0
 11
81.069376
 21
40.968413
 31
0.0
  0
LINE
  5
34E
330
268
100
AcDbEntity
  8
001
 62
    40
370
    50
100
AcDbLine
 10
83.809663
 20
46.12114
 30
0.0
 11
84.100132
 21
46.667326
 31
0.0
  0
POLYLINE
  5
34F
330
268
100
AcDbEntity
  8
001
 62
    40
370
    50
100
AcDb2dPolyline
 66
     1
 10
0.0
 20
0.0
 30
0.0
  0
VERTEX
  5
351
330
34F
100
AcDbEntity
  8
001
 62
    40
370
    50
100
AcDbVertex
100
AcDb2dVertex
 10
73.763578
 20
46.448354
 30
0.0
  0
VERTEX
  5
352
330
34F
100
AcDbEntity
  8
001
 62
    40
370
    50
100
AcDbVertex
100
AcDb2dVertex
 10
73.556875
 20
46.432579
 30
0.0
  0
VERTEX
  5
353
330
34F
100
AcDbEntity
  8
001
 62
    40
370
    50
100
AcDbVertex
100
AcDb2dVertex
 10
73.25663
 20
46.394947
 30
0.0
  0
VERTEX
  5
354
330
34F
100
AcDbEntity
  8
001
 62
    40
370
    50
100
AcDbVertex
100
AcDb2dVertex
 10
72.983673
 20
46.341306
 30
0.0
  0
VERTEX
  5
355
330
34F
100
AcDbEntity
  8
001
 62
    40
370
    50
100
AcDbVertex
100
AcDb2dVertex
 10
72.798855
 20
46.29498
 30
0.0
  0
SEQEND
  5
350
330
34F
100
AcDbEntity
  8
001
370
    50
  0
LINE
  5
356
330
268
100
AcDbEntity
  8
001
 62
    40
370
    50
100
AcDbLine
 10
75.943909
 20
45.721497
 30
0.0
 11
73.763578
 21
46.448354
 31
0.0
  0
POLYLINE
  5
357
330
268
100
AcDbEntity
  8
001
 62
    40
370
    50
100
AcDb2dPolyline
 66
     1
 10
0.0
 20
0.0
 30
0.0
  0
VERTEX
  5
359
330
357
100
AcDbEntity
  8
001
 62
    40
370
    50
100
AcDbVertex
100
AcDb2dVertex
 10
79.707363
 20
41.038299
 30
0.0
  0
VERTEX
  5
35A
330
357
100
AcDbEntity
  8
001
 62
    40
370
    50
100
AcDbVertex
100
AcDb2dVertex
 10
79.938817
 20
41.053979
 30
0.0
  0
VERTEX
  5
35B
330
357
100
AcDbEntity
  8
001
 62
    40
370
    50
100
AcDbVertex
100
AcDb2dVertex
 10
80.275403
 20
41.091707
 30
0.0
  0
VERTEX
  5
35C
330
357
100
AcDbEntity
  8
001
 62
    40
370
    50
100
AcDbVertex
100
AcDb2dVertex
 10
80.578931
 20
41.145256
 30
0.0
  0
VERTEX
  5
35D
330
357
100
AcDbEntity
  8
001
 62
    40
370
    50
100
AcDbVertex
100
AcDb2dVertex
 10
80.784831
 20
41.191674
 30
0.0
  0
SEQEND
  5
358
330
357
100
AcDbEntity
  8
001
370
    50
  0
POLYLINE
  5
35E
330
268
100
AcDbEntity
  8
001
 62
    40
370
    50
100
AcDb2dPolyline
 66
     1
 10
0.0
 20
0.0
 30
0.0
  0
VERTEX
  5
360
330
35E
100
AcDbEntity
  8
001
 62
    40
370
    50
100
AcDbVertex
100
AcDb2dVertex
 10
71.701821
 20
44.211055
 30
0.0
  0
VERTEX
  5
361
330
35E
100
AcDbEntity
  8
001
 62
    40
370
    50
100
AcDbVertex
100
AcDb2dVertex
 10
71.73608
 20
44.150403
 30
0.0
  0
VERTEX
  5
362
330
35E
100
AcDbEntity
  8
001
 62
    40
370
    50
100
AcDbVertex
100
AcDb2dVertex
 10
71.788744
 20
44.063366
 30
0.0
  0
VERTEX
  5
363
330
35E
100
AcDbEntity
  8
001
 62
    40
370
    50
100
AcDbVertex
100
AcDb2dVertex
 10
72.028629
 20
43.740495
 30
0.0
  0
VERTEX
  5
364
330
35E
100
AcDbEntity
  8
001
 62
    40
370
    50
100
AcDbVertex
100
AcDb2dVertex
 10
72.214801
 20
43.536095
 30
0.0
  0
SEQEND
  5
35F
330
35E
100
AcDbEntity
  8
001
370
    50
  0
POLYLINE
  5
365
330
268
100
AcDbEntity
  8
001
 62
    40
370
    50
100
AcDb2dPolyline
 66
     1
 10
0.0
 20
0.0
 30
0.0
  0
VERTEX
  5
367
330
365
100
AcDbEntity
  8
001
 62
    40
370
    50
100
AcDbVertex
100
AcDb2dVertex
 10
71.798093
 20
44.38551
 30
0.0
  0
VERTEX
  5
368
330
365
100
AcDbEntity
  8
001
 62
    40
370
    50
100
AcDbVertex
100
AcDb2dVertex
 10
71.772452
 20
44.342123
 30
0.0
  0
VERTEX
  5
369
330
365
100
AcDbEntity
  8
001
 62
    40
370
    50
100
AcDbVertex
100
AcDb2dVertex
 10
71.747533
 20
44.298338
 30
0.0
  0
VERTEX
  5
36A
330
365
100
AcDbEntity
  8
001
 62
    40
370
    50
100
AcDbVertex
100
AcDb2dVertex
 10
71.724332
 20
44.254887
 30
0.0
  0
VERTEX
  5
36B
330
365
100
AcDbEntity
  8
001
 62
    40
370
    50
100
AcDbVertex
100
AcDb2dVertex
 10
71.701821
 20
44.211055
 30
0.0
  0
SEQEND
  5
366
330
365
100
AcDbEntity
  8
001
370
    50
  0
POLYLINE
  5
36C
330
268
100
AcDbEntity
  8
001
 62
    40
370
    50
100
AcDb2dPolyline
 66
     1
 10
0.0
 20
0.0
 30
0.0
  0
VERTEX
  5
36E
330
36C
100
AcDbEntity
  8
001
 62
    40
370
    50
100
AcDbVertex
100
AcDb2dVertex
 10
71.798093
 20
44.38551
 30
0.0
  0
VERTEX
  5
36F
330
36C
100
AcDbEntity
  8
001
 62
    40
370
    50
100
AcDbVertex
100
AcDb2dVertex
 10
71.898987
 20
44.553977
 30
0.0
  0
VERTEX
  5
370
330
36C
100
AcDbEntity
  8
001
 62
    40
370
    50
100
AcDbVertex
100
AcDb2dVertex
 10
72.034561
 20
44.785639
 30
0.0
  0
VERTEX
  5
371
330
36C
100
AcDbEntity
  8
001
 62
    40
370
    50
100
AcDbVertex
100
AcDb2dVertex
 10
72.133622
 20
44.960481
 30
0.0
  0
VERTEX
  5
372
330
36C
100
AcDbEntity
  8
001
 62
    40
370
    50
100
AcDbVertex
100
AcDb2dVertex
 10
72.223396
 20
45.124598
 30
0.0
  0
VERTEX
  5
373
330
36C
100
AcDbEntity
  8
001
 62
    40
370
    50
100
AcDbVertex
100
AcDb2dVertex
 10
72.31482
 20
45.295943
 30
0.0
  0
VERTEX
  5
374
330
36C
100
AcDbEntity
  8
001
 62
    40
370
    50
100
AcDbVertex
100
AcDb2dVertex
 10
72.404749
 20
45.46762
 30
0.0
  0
VERTEX
  5
375
330
36C
100
AcDbEntity
  8
001
 62
    40
370
    50
100
AcDbVertex
100
AcDb2dVertex
 10
72.560053
 20
45.774696
 30
0.0
  0
VERTEX
  5
376
330
36C
100
AcDbEntity
  8
001
 62
    40
370
    50
100
AcDbVertex
100
AcDb2dVertex
 10
72.723362
 20
46.12435
 30
0.0
  0
VERTEX
  5
377
330
36C
100
AcDbEntity
  8
001
 62
    40
370
    50
100
AcDbVertex
100
AcDb2dVertex
 10
72.767964
 20
46.224533
 30
0.0
  0
VERTEX
  5
378
330
36C
100
AcDbEntity
  8
001
 62
    40
370
    50
100
AcDbVertex
100
AcDb2dVertex
 10
72.798855
 20
46.29498
 30
0.0
  0
SEQEND
  5
36D
330
36C
100
AcDbEntity
  8
001
370
    50
  0
LINE
  5
379
330
268
100
AcDbEntity
  8
001
 62
    40
370
    50
100
AcDbLine
 10
80.39294
 20
40.824828
 30
0.0
 11
79.707363
 21
41.038299
 31
0.0
  0
POLYLINE
  5
37A
330
268
100
AcDbEntity
  8
001
 62
    40
370
    50
100
AcDb2dPolyline
 66
     1
 10
0.0
 20
0.0
 30
0.0
  0
VERTEX
  5
37C
330
37A
100
AcDbEntity
  8
001
 62
    40
370
    50
100
AcDbVertex
100
AcDb2dVertex
 10
80.458976
 20
40.814761
 30
0.0
  0
VERTEX
  5
37D
330
37A
100
AcDbEntity
  8
001
 62
    40
370
    50
100
AcDbVertex
100
AcDb2dVertex
 10
80.478542
 20
40.815975
 30
0.0
  0
VERTEX
  5
37E
330
37A
100
AcDbEntity
  8
001
 62
    40
370
    50
100
AcDbVertex
100
AcDb2dVertex
 10
80.50594
 20
40.819873
 30
0.0
  0
VERTEX
  5
37F
330
37A
100
AcDbEntity
  8
001
 62
    40
370
    50
100
AcDbVertex
100
AcDb2dVertex
 10
80.559363
 20
40.838868
 30
0.0
  0
VERTEX
  5
380
330
37A
100
AcDbEntity
  8
001
 62
    40
370
    50
100
AcDbVertex
100
AcDb2dVertex
 10
80.600282
 20
40.868449
 30
0.0
  0
VERTEX
  5
381
330
37A
100
AcDbEntity
  8
001
 62
    40
370
    50
100
AcDbVertex
100
AcDb2dVertex
 10
80.612161
 20
40.88008
 30
0.0
  0
VERTEX
  5
382
330
37A
100
AcDbEntity
  8
001
 62
    40
370
    50
100
AcDbVertex
100
AcDb2dVertex
 10
80.623931
 20
40.894349
 30
0.0
  0
VERTEX
  5
383
330
37A
100
AcDbEntity
  8
001
 62
    40
370
    50
100
AcDbVertex
100
AcDb2dVertex
 10
80.633859
 20
40.909068
 30
0.0
  0
VERTEX
  5
384
330
37A
100
AcDbEntity
  8
001
 62
    40
370
    50
100
AcDbVertex
100
AcDb2dVertex
 10
80.640393
 20
40.920078
 30
0.0
  0
SEQEND
  5
37B
330
37A
100
AcDbEntity
  8
001
370
    50
  0
POLYLINE
  5
385
330
268
100
AcDbEntity
  8
001
 62
    40
370
    50
100
AcDb2dPolyline
 66
     1
 10
0.0
 20
0.0
 30
0.0
  0
VERTEX
  5
387
330
385
100
AcDbEntity
  8
001
 62
    40
370
    50
100
AcDbVertex
100
AcDb2dVertex
 10
80.869352
 20
40.814761
 30
0.0
  0
VERTEX
  5
388
330
385
100
AcDbEntity
  8
001
 62
    40
370
    50
100
AcDbVertex
100
AcDb2dVertex
 10
80.883863
 20
40.81553
 30
0.0
  0
VERTEX
  5
389
330
385
100
AcDbEntity
  8
001
 62
    40
370
    50
100
AcDbVertex
100
AcDb2dVertex
 10
80.903717
 20
40.817799
 30
0.0
  0
VERTEX
  5
38A
330
385
100
AcDbEntity
  8
001
 62
    40
370
    50
100
AcDbVertex
100
AcDb2dVertex
 10
80.921299
 20
40.821541
 30
0.0
  0
VERTEX
  5
38B
330
385
100
AcDbEntity
  8
001
 62
    40
370
    50
100
AcDbVertex
100
AcDb2dVertex
 10
80.937038
 20
40.826822
 30
0.0
  0
VERTEX
  5
38C
330
385
100
AcDbEntity
  8
001
 62
    40
370
    50
100
AcDbVertex
100
AcDb2dVertex
 10
80.952846
 20
40.833641
 30
0.0
  0
VERTEX
  5
38D
330
385
100
AcDbEntity
  8
001
 62
    40
370
    50
100
AcDbVertex
100
AcDb2dVertex
 10
80.968302
 20
40.841556
 30
0.0
  0
VERTEX
  5
38E
330
385
100
AcDbEntity
  8
001
 62
    40
370
    50
100
AcDbVertex
100
AcDb2dVertex
 10
81.007838
 20
40.870451
 30
0.0
  0
VERTEX
  5
38F
330
385
100
AcDbEntity
  8
001
 62
    40
370
    50
100
AcDbVertex
100
AcDb2dVertex
 10
81.040739
 20
40.914761
 30
0.0
  0
VERTEX
  5
390
330
385
100
AcDbEntity
  8
001
 62
    40
370
    50
100
AcDbVertex
100
AcDb2dVertex
 10
81.042488
 20
40.917903
 30
0.0
  0
VERTEX
  5
391
330
385
100
AcDbEntity
  8
001
 62
    40
370
    50
100
AcDbVertex
100
AcDb2dVertex
 10
81.04367
 20
40.920078
 30
0.0
  0
SEQEND
  5
386
330
385
100
AcDbEntity
  8
001
370
    50
  0
POLYLINE
  5
392
330
268
100
AcDbEntity
  8
001
 62
    40
370
    50
100
AcDb2dPolyline
 66
     1
 10
0.0
 20
0.0
 30
0.0
  0
VERTEX
  5
394
330
392
100
AcDbEntity
  8
001
 62
    40
370
    50
100
AcDbVertex
100
AcDb2dVertex
 10
80.39294
 20
40.824828
 30
0.0
  0
VERTEX
  5
395
330
392
100
AcDbEntity
  8
001
 62
    40
370
    50
100
AcDbVertex
100
AcDb2dVertex
 10
80.394729
 20
40.824285
 30
0.0
  0
VERTEX
  5
396
330
392
100
AcDbEntity
  8
001
 62
    40
370
    50
100
AcDbVertex
100
AcDb2dVertex
 10
80.397304
 20
40.823518
 30
0.0
  0
VERTEX
  5
397
330
392
100
AcDbEntity
  8
001
 62
    40
370
    50
100
AcDbVertex
100
AcDb2dVertex
 10
80.415616
 20
40.818777
 30
0.0
  0
VERTEX
  5
398
330
392
100
AcDbEntity
  8
001
 62
    40
370
    50
100
AcDbVertex
100
AcDb2dVertex
 10
80.4333
 20
40.816259
 30
0.0
  0
VERTEX
  5
399
330
392
100
AcDbEntity
  8
001
 62
    40
370
    50
100
AcDbVertex
100
AcDb2dVertex
 10
80.448063
 20
40.81518
 30
0.0
  0
VERTEX
  5
39A
330
392
100
AcDbEntity
  8
001
 62
    40
370
    50
100
AcDbVertex
100
AcDb2dVertex
 10
80.458976
 20
40.814761
 30
0.0
  0
SEQEND
  5
393
330
392
100
AcDbEntity
  8
001
370
    50
  0
LINE
  5
39B
330
268
100
AcDbEntity
  8
001
 62
    40
370
    50
100
AcDbLine
 10
80.458976
 20
40.814761
 30
0.0
 11
80.869352
 21
40.814761
 31
0.0
  0
LINE
  5
39C
330
268
100
AcDbEntity
  8
001
 62
    40
370
    50
100
AcDbLine
 10
73.763578
 20
46.448354
 30
0.0
 11
75.196768
 21
49.143267
 31
0.0
  0
LINE
  5
39D
330
268
100
AcDbEntity
  8
001
 62
    40
370
    50
100
AcDbLine
 10
75.780822
 20
51.902152
 30
0.0
 11
75.92526
 21
52.173748
 31
0.0
  0
POLYLINE
  5
39E
330
268
100
AcDbEntity
  8
001
 62
    40
370
    50
100
AcDb2dPolyline
 66
     1
 10
0.0
 20
0.0
 30
0.0
  0
VERTEX
  5
3A0
330
39E
100
AcDbEntity
  8
001
 62
    40
370
    50
100
AcDbVertex
100
AcDb2dVertex
 10
76.092479
 20
52.279065
 30
0.0
  0
VERTEX
  5
3A1
330
39E
100
AcDbEntity
  8
001
 62
    40
370
    50
100
AcDbVertex
100
AcDb2dVertex
 10
76.081322
 20
52.278565
 30
0.0
  0
VERTEX
  5
3A2
330
39E
100
AcDbEntity
  8
001
 62
    40
370
    50
100
AcDbVertex
100
AcDb2dVertex
 10
76.065878
 20
52.27702
 30
0.0
  0
VERTEX
  5
3A3
330
39E
100
AcDbEntity
  8
001
 62
    40
370
    50
100
AcDbVertex
100
AcDb2dVertex
 10
76.048881
 20
52.273677
 30
0.0
  0
VERTEX
  5
3A4
330
39E
100
AcDbEntity
  8
001
 62
    40
370
    50
100
AcDbVertex
100
AcDb2dVertex
 10
76.034055
 20
52.269058
 30
0.0
  0
VERTEX
  5
3A5
330
39E
100
AcDbEntity
  8
001
 62
    40
370
    50
100
AcDbVertex
100
AcDb2dVertex
 10
75.991273
 20
52.248241
 30
0.0
  0
VERTEX
  5
3A6
330
39E
100
AcDbEntity
  8
001
 62
    40
370
    50
100
AcDbVertex
100
AcDb2dVertex
 10
75.951671
 20
52.212369
 30
0.0
  0
VERTEX
  5
3A7
330
39E
100
AcDbEntity
  8
001
 62
    40
370
    50
100
AcDbVertex
100
AcDb2dVertex
 10
75.935448
 20
52.190292
 30
0.0
  0
VERTEX
  5
3A8
330
39E
100
AcDbEntity
  8
001
 62
    40
370
    50
100
AcDbVertex
100
AcDb2dVertex
 10
75.92526
 20
52.173748
 30
0.0
  0
SEQEND
  5
39F
330
39E
100
AcDbEntity
  8
001
370
    50
  0
LINE
  5
3A9
330
268
100
AcDbEntity
  8
001
 62
    40
370
    50
100
AcDbLine
 10
72.798855
 20
46.29498
 30
0.0
 11
74.678149
 21
49.828729
 31
0.0
  0
POLYLINE
  5
3AA
330
268
100
AcDbEntity
  8
001
 62
    40
370
    50
100
AcDb2dPolyline
 66
     1
 10
0.0
 20
0.0
 30
0.0
  0
VERTEX
  5
3AC
330
3AA
100
AcDbEntity
  8
001
 62
    40
370
    50
100
AcDbVertex
100
AcDb2dVertex
 10
76.105355
 20
52.278584
 30
0.0
  0
VERTEX
  5
3AD
330
3AA
100
AcDbEntity
  8
001
 62
    40
370
    50
100
AcDbVertex
100
AcDb2dVertex
 10
76.102497
 20
52.278771
 30
0.0
  0
VERTEX
  5
3AE
330
3AA
100
AcDbEntity
  8
001
 62
    40
370
    50
100
AcDbVertex
100
AcDb2dVertex
 10
76.098316
 20
52.278966
 30
0.0
  0
VERTEX
  5
3AF
330
3AA
100
AcDbEntity
  8
001
 62
    40
370
    50
100
AcDbVertex
100
AcDb2dVertex
 10
76.094851
 20
52.279047
 30
0.0
  0
VERTEX
  5
3B0
330
3AA
100
AcDbEntity
  8
001
 62
    40
370
    50
100
AcDbVertex
100
AcDb2dVertex
 10
76.092479
 20
52.279065
 30
0.0
  0
SEQEND
  5
3AB
330
3AA
100
AcDbEntity
  8
001
370
    50
  0
LINE
  5
3B1
330
268
100
AcDbEntity
  8
001
 62
    40
370
    50
100
AcDbLine
 10
76.103913
 20
52.279065
 30
0.0
 11
76.092479
 21
52.279065
 31
0.0
  0
POLYLINE
  5
3B2
330
268
100
AcDbEntity
  8
001
 62
    40
370
    50
100
AcDb2dPolyline
 66
     1
 10
0.0
 20
0.0
 30
0.0
  0
VERTEX
  5
3B4
330
3B2
100
AcDbEntity
  8
001
 62
    40
370
    50
100
AcDbVertex
100
AcDb2dVertex
 10
71.701821
 20
44.211055
 30
0.0
  0
VERTEX
  5
3B5
330
3B2
100
AcDbEntity
  8
001
 62
    40
370
    50
100
AcDbVertex
100
AcDb2dVertex
 10
71.684338
 20
44.135551
 30
0.0
  0
VERTEX
  5
3B6
330
3B2
100
AcDbEntity
  8
001
 62
    40
370
    50
100
AcDbVertex
100
AcDb2dVertex
 10
71.672671
 20
44.059326
 30
0.0
  0
VERTEX
  5
3B7
330
3B2
100
AcDbEntity
  8
001
 62
    40
370
    50
100
AcDbVertex
100
AcDb2dVertex
 10
71.67059
 20
44.01219
 30
0.0
  0
VERTEX
  5
3B8
330
3B2
100
AcDbEntity
  8
001
 62
    40
370
    50
100
AcDbVertex
100
AcDb2dVertex
 10
71.672351
 20
43.964931
 30
0.0
  0
VERTEX
  5
3B9
330
3B2
100
AcDbEntity
  8
001
 62
    40
370
    50
100
AcDbVertex
100
AcDb2dVertex
 10
71.677469
 20
43.919068
 30
0.0
  0
VERTEX
  5
3BA
330
3B2
100
AcDbEntity
  8
001
 62
    40
370
    50
100
AcDbVertex
100
AcDb2dVertex
 10
71.686328
 20
43.873839
 30
0.0
  0
VERTEX
  5
3BB
330
3B2
100
AcDbEntity
  8
001
 62
    40
370
    50
100
AcDbVertex
100
AcDb2dVertex
 10
71.70425
 20
43.816986
 30
0.0
  0
VERTEX
  5
3BC
330
3B2
100
AcDbEntity
  8
001
 62
    40
370
    50
100
AcDbVertex
100
AcDb2dVertex
 10
71.730647
 20
43.763221
 30
0.0
  0
VERTEX
  5
3BD
330
3B2
100
AcDbEntity
  8
001
 62
    40
370
    50
100
AcDbVertex
100
AcDb2dVertex
 10
71.754927
 20
43.728742
 30
0.0
  0
VERTEX
  5
3BE
330
3B2
100
AcDbEntity
  8
001
 62
    40
370
    50
100
AcDbVertex
100
AcDb2dVertex
 10
71.784997
 20
43.700061
 30
0.0
  0
VERTEX
  5
3BF
330
3B2
100
AcDbEntity
  8
001
 62
    40
370
    50
100
AcDbVertex
100
AcDb2dVertex
 10
71.808057
 20
43.685622
 30
0.0
  0
VERTEX
  5
3C0
330
3B2
100
AcDbEntity
  8
001
 62
    40
370
    50
100
AcDbVertex
100
AcDb2dVertex
 10
71.83258
 20
43.673201
 30
0.0
  0
SEQEND
  5
3B3
330
3B2
100
AcDbEntity
  8
001
370
    50
  0
LINE
  5
3C1
330
268
100
AcDbEntity
  8
001
 62
    40
370
    50
100
AcDbLine
 10
72.214801
 20
43.536095
 30
0.0
 11
71.83258
 21
43.673201
 31
0.0
  0
LINE
  5
3C2
330
268
100
AcDbEntity
  8
001
 62
    40
370
    50
100
AcDbLine
 10
71.670819
 20
43.717442
 30
0.0
 11
79.707363
 21
41.038299
 31
0.0
  0
ENDBLK
  5
26A
330
268
100
AcDbEntity
  8
0
100
AcDbBlockEnd
  0
BLOCK
  5
3C4
330
3C3
100
AcDbEntity
  8
0
100
AcDbBlockBegin
  2
*D3
 70
     1
 10
0.0
 20
0.0
 30
0.0
  3
*D3
  1

  0
LINE
  5
3C6
330
3C3
100
AcDbEntity
  8
001
370
     9
100
AcDbLine
 10
101.670819
 20
40.831417
 30
0.0
 11
101.670819
 21
11.999066
 31
0.0
  0
LINE
  5
3C7
330
3C3
100
AcDbEntity
  8
001
370
     9
100
AcDbLine
 10
71.670819
 20
35.337656
 30
0.0
 11
71.670819
 21
11.999066
 31
0.0
  0
LINE
  5
3C8
330
3C3
100
AcDbEntity
  8
001
370
     9
100
AcDbLine
 10
101.670819
 20
14.749066
 30
0.0
 11
71.670819
 21
14.749066
 31
0.0
  0
POLYLINE
  5
3C9
330
3C3
100
AcDbEntity
  8
001
370
     9
100
AcDb2dPolyline
 66
     1
 10
0.0
 20
0.0
 30
0.0
  0
VERTEX
  5
3CB
330
3C9
100
AcDbEntity
  8
001
370
     9
100
AcDbVertex
100
AcDb2dVertex
 10
100.170819
 20
15.150989
 30
0.0
  0
VERTEX
  5
3CC
330
3C9
100
AcDbEntity
  8
001
370
     9
100
AcDbVertex
100
AcDb2dVertex
 10
101.670819
 20
14.749066
 30
0.0
  0
VERTEX
  5
3CD
330
3C9
100
AcDbEntity
  8
001
370
     9
100
AcDbVertex
100
AcDb2dVertex
 10
100.170819
 20
14.347142
 30
0.0
  0
SEQEND
  5
3CA
330
3C9
100
AcDbEntity
  8
001
370
     9
  0
POLYLINE
  5
3CE
330
3C3
100
AcDbEntity
  8
001
370
     9
100
AcDb2dPolyline
 66
     1
 10
0.0
 20
0.0
 30
0.0
  0
VERTEX
  5
3D0
330
3CE
100
AcDbEntity
  8
001
370
     9
100
AcDbVertex
100
AcDb2dVertex
 10
73.170819
 20
14.347142
 30
0.0
  0
VERTEX
  5
3D1
330
3CE
100
AcDbEntity
  8
001
370
     9
100
AcDbVertex
100
AcDb2dVertex
 10
71.670819
 20
14.749066
 30
0.0
  0
VERTEX
  5
3D2
330
3CE
100
AcDbEntity
  8
001
370
     9
100
AcDbVertex
100
AcDb2dVertex
 10
73.170819
 20
15.150989
 30
0.0
  0
SEQEND
  5
3CF
330
3CE
100
AcDbEntity
  8
001
370
     9
  0
TEXT
  5
3D3
330
3C3
100
AcDbEntity
  8
001
370
    30
100
AcDbText
 10
86.419922
 20
15.749066
 30
0.0
 40
4.0
  1
３０
 41
0.833333
100
AcDbText
  0
POINT
  5
3D4
330
3C3
100
AcDbEntity
  8
001
370
     9
100
AcDbPoint
 10
101.670819
 20
40.831417
 30
0.0
  0
POINT
  5
3D5
330
3C3
100
AcDbEntity
  8
001
370
     9
100
AcDbPoint
 10
71.670819
 20
35.337656
 30
0.0
  0
POINT
  5
3D6
330
3C3
100
AcDbEntity
  8
001
370
     9
100
AcDbPoint
 10
71.670819
 20
14.749066
 30
0.0
  0
ENDBLK
  5
3C5
330
3C3
100
AcDbEntity
  8
0
100
AcDbBlockEnd
  0
BLOCK
  5
3D8
330
3D7
100
AcDbEntity
  8
0
100
AcDbBlockBegin
  2
*D4
 70
     1
 10
0.0
 20
0.0
 30
0.0
  3
*D4
  1

  0
LINE
  5
3DA
330
3D7
100
AcDbEntity
  8
001
370
     9
100
AcDbLine
 10
79.707363
 20
41.038299
 30
0.0
 11
98.274487
 21
34.848578
 31
0.0
  0
LINE
  5
3DB
330
3D7
100
AcDbEntity
  8
001
370
     9
100
AcDbLine
 10
71.670819
 20
35.337656
 30
0.0
 11
71.670819
 21
15.674405
 31
0.0
  0
ARC
  5
3DC
330
3D7
100
AcDbEntity
  8
001
370
     9
100
AcDbCircle
 10
71.670819
 20
43.717442
 30
0.0
 40
25.29303682285763
100
AcDbArc
 50
270.0
 51
341.563161
  0
POLYLINE
  5
3DD
330
3D7
100
AcDbEntity
  8
001
370
     9
100
AcDb2dPolyline
 66
     1
 10
0.0
 20
0.0
 30
0.0
  0
VERTEX
  5
3DF
330
3DD
100
AcDbEntity
  8
001
370
     9
100
AcDbVertex
100
AcDb2dVertex
 10
96.482522
 20
37.038987
 30
0.0
  0
VERTEX
  5
3E0
330
3DD
100
AcDbEntity
  8
001
370
     9
100
AcDbVertex
100
AcDb2dVertex
 10
95.665637
 20
35.71829
 30
0.0
  0
VERTEX
  5
3E1
330
3DD
100
AcDbEntity
  8
001
370
     9
100
AcDbVertex
100
AcDb2dVertex
 10
95.712732
 20
37.27049
 30
0.0
  0
SEQEND
  5
3DE
330
3DD
100
AcDbEntity
  8
001
370
     9
  0
POLYLINE
  5
3E2
330
3D7
100
AcDbEntity
  8
001
370
     9
100
AcDb2dPolyline
 66
     1
 10
0.0
 20
0.0
 30
0.0
  0
VERTEX
  5
3E4
330
3E2
100
AcDbEntity
  8
001
370
     9
100
AcDbVertex
100
AcDb2dVertex
 10
70.183395
 20
18.870625
 30
0.0
  0
VERTEX
  5
3E5
330
3E2
100
AcDbEntity
  8
001
370
     9
100
AcDbVertex
100
AcDb2dVertex
 10
71.670819
 20
18.424405
 30
0.0
  0
VERTEX
  5
3E6
330
3E2
100
AcDbEntity
  8
001
370
     9
100
AcDbVertex
100
AcDb2dVertex
 10
70.159562
 20
18.06713
 30
0.0
  0
SEQEND
  5
3E3
330
3E2
100
AcDbEntity
  8
001
370
     9
  0
TEXT
  5
3E7
330
3D7
100
AcDbEntity
  8
001
370
    30
100
AcDbText
 10
86.146647
 20
23.306611
 30
0.0
 40
4.0
  1
７０%%d
 50
49.218644
 41
0.978261
100
AcDbText
  0
POINT
  5
3E8
330
3D7
100
AcDbEntity
  8
001
370
     9
100
AcDbPoint
 10
79.707363
 20
41.038299
 30
0.0
  0
POINT
  5
3E9
330
3D7
100
AcDbEntity
  8
001
370
     9
100
AcDbPoint
 10
71.670819
 20
43.717442
 30
0.0
  0
POINT
  5
3EA
330
3D7
100
AcDbEntity
  8
001
370
     9
100
AcDbPoint
 10
71.670819
 20
43.717442
 30
0.0
  0
POINT
  5
3EB
330
3D7
100
AcDbEntity
  8
001
370
     9
100
AcDbPoint
 10
71.670819
 20
35.337656
 30
0.0
  0
ARC
  5
3EC
330
3D7
100
AcDbEntity
  8
001
370
     9
100
AcDbCircle
 10
71.670819
 20
43.717442
 30
0.0
 40
25.29303682285763
100
AcDbArc
 50
264.336803
 51
270.0
  0
ARC
  5
3ED
330
3D7
100
AcDbEntity
  8
001
370
     9
100
AcDbCircle
 10
71.670819
 20
43.717442
 30
0.0
 40
25.29303682285763
100
AcDbArc
 50
341.563161
 51
347.226358
  0
ENDBLK
  5
3D9
330
3D7
100
AcDbEntity
  8
0
100
AcDbBlockEnd
  0
BLOCK
  5
3EF
330
3EE
100
AcDbEntity
  8
0
100
AcDbBlockBegin
  2
*D5
 70
     1
 10
0.0
 20
0.0
 30
0.0
  3
*D5
  1

  0
LINE
  5
3F1
330
3EE
100
AcDbEntity
  8
001
370
     9
100
AcDbLine
 10
71.670819
 20
38.59832
 30
0.0
 11
71.670819
 21
21.955386
 31
0.0
  0
LINE
  5
3F2
330
3EE
100
AcDbEntity
  8
001
370
     9
100
AcDbLine
 10
80.377905
 20
40.814761
 30
0.0
 11
80.377905
 21
21.955386
 31
0.0
  0
LINE
  5
3F3
330
3EE
100
AcDbEntity
  8
001
370
     9
100
AcDbLine
 10
71.670819
 20
24.705386
 30
0.0
 11
80.377905
 21
24.705386
 31
0.0
  0
POLYLINE
  5
3F4
330
3EE
100
AcDbEntity
  8
001
370
     9
100
AcDb2dPolyline
 66
     1
 10
0.0
 20
0.0
 30
0.0
  0
VERTEX
  5
3F6
330
3F4
100
AcDbEntity
  8
001
370
     9
100
AcDbVertex
100
AcDb2dVertex
 10
70.170819
 20
25.10731
 30
0.0
  0
VERTEX
  5
3F7
330
3F4
100
AcDbEntity
  8
001
370
     9
100
AcDbVertex
100
AcDb2dVertex
 10
71.670819
 20
24.705386
 30
0.0
  0
VERTEX
  5
3F8
330
3F4
100
AcDbEntity
  8
001
370
     9
100
AcDbVertex
100
AcDb2dVertex
 10
70.170819
 20
24.303463
 30
0.0
  0
SEQEND
  5
3F5
330
3F4
100
AcDbEntity
  8
001
370
     9
  0
POLYLINE
  5
3F9
330
3EE
100
AcDbEntity
  8
001
370
     9
100
AcDb2dPolyline
 66
     1
 10
0.0
 20
0.0
 30
0.0
  0
VERTEX
  5
3FB
330
3F9
100
AcDbEntity
  8
001
370
     9
100
AcDbVertex
100
AcDb2dVertex
 10
81.877905
 20
24.303463
 30
0.0
  0
VERTEX
  5
3FC
330
3F9
100
AcDbEntity
  8
001
370
     9
100
AcDbVertex
100
AcDb2dVertex
 10
80.377905
 20
24.705386
 30
0.0
  0
VERTEX
  5
3FD
330
3F9
100
AcDbEntity
  8
001
370
     9
100
AcDbVertex
100
AcDb2dVertex
 10
81.877905
 20
25.10731
 30
0.0
  0
SEQEND
  5
3FA
330
3F9
100
AcDbEntity
  8
001
370
     9
  0
TEXT
  5
3FE
330
3EE
100
AcDbEntity
  8
001
370
    30
100
AcDbText
 10
48.170819
 20
25.705386
 30
0.0
 40
4.0
  1
（８．７）
 41
0.833333
100
AcDbText
  0
POINT
  5
3FF
330
3EE
100
AcDbEntity
  8
001
370
     9
100
AcDbPoint
 10
71.670819
 20
38.59832
 30
0.0
  0
POINT
  5
400
330
3EE
100
AcDbEntity
  8
001
370
     9
100
AcDbPoint
 10
80.377905
 20
40.814761
 30
0.0
  0
POINT
  5
401
330
3EE
100
AcDbEntity
  8
001
370
     9
100
AcDbPoint
 10
80.377905
 20
24.705386
 30
0.0
  0
LINE
  5
402
330
3EE
100
AcDbEntity
  8
001
370
     9
100
AcDbLine
 10
71.670819
 20
24.705386
 30
0.0
 11
45.170819
 21
24.705386
 31
0.0
  0
LINE
  5
403
330
3EE
100
AcDbEntity
  8
001
370
     9
100
AcDbLine
 10
80.377905
 20
24.705386
 30
0.0
 11
82.877905
 21
24.705386
 31
0.0
  0
ENDBLK
  5
3F0
330
3EE
100
AcDbEntity
  8
0
100
AcDbBlockEnd
  0
BLOCK
  5
405
330
404
100
AcDbEntity
  8
0
100
AcDbBlockBegin
  2
*D6
 70
     1
 10
0.0
 20
0.0
 30
0.0
  3
*D6
  1

  0
LINE
  5
407
330
404
100
AcDbEntity
  8
001
370
     9
100
AcDbLine
 10
71.670819
 20
35.337656
 30
0.0
 11
71.670819
 21
1.328048
 31
0.0
  0
LINE
  5
408
330
404
100
AcDbEntity
  8
001
370
     9
100
AcDbLine
 10
196.670819
 20
43.831417
 30
0.0
 11
196.670819
 21
1.328048
 31
0.0
  0
LINE
  5
409
330
404
100
AcDbEntity
  8
001
370
     9
100
AcDbLine
 10
71.670819
 20
4.078048
 30
0.0
 11
196.670819
 21
4.078048
 31
0.0
  0
POLYLINE
  5
40A
330
404
100
AcDbEntity
  8
001
370
     9
100
AcDb2dPolyline
 66
     1
 10
0.0
 20
0.0
 30
0.0
  0
VERTEX
  5
40C
330
40A
100
AcDbEntity
  8
001
370
     9
100
AcDbVertex
100
AcDb2dVertex
 10
73.170819
 20
3.676124
 30
0.0
  0
VERTEX
  5
40D
330
40A
100
AcDbEntity
  8
001
370
     9
100
AcDbVertex
100
AcDb2dVertex
 10
71.670819
 20
4.078048
 30
0.0
  0
VERTEX
  5
40E
330
40A
100
AcDbEntity
  8
001
370
     9
100
AcDbVertex
100
AcDb2dVertex
 10
73.170819
 20
4.479971
 30
0.0
  0
SEQEND
  5
40B
330
40A
100
AcDbEntity
  8
001
370
     9
  0
POLYLINE
  5
40F
330
404
100
AcDbEntity
  8
001
370
     9
100
AcDb2dPolyline
 66
     1
 10
0.0
 20
0.0
 30
0.0
  0
VERTEX
  5
411
330
40F
100
AcDbEntity
  8
001
370
     9
100
AcDbVertex
100
AcDb2dVertex
 10
195.170819
 20
4.479971
 30
0.0
  0
VERTEX
  5
412
330
40F
100
AcDbEntity
  8
001
370
     9
100
AcDbVertex
100
AcDb2dVertex
 10
196.670819
 20
4.078048
 30
0.0
  0
VERTEX
  5
413
330
40F
100
AcDbEntity
  8
001
370
     9
100
AcDbVertex
100
AcDb2dVertex
 10
195.170819
 20
3.676124
 30
0.0
  0
SEQEND
  5
410
330
40F
100
AcDbEntity
  8
001
370
     9
  0
TEXT
  5
414
330
404
100
AcDbEntity
  8
001
370
    30
100
AcDbText
 10
128.170819
 20
5.078048
 30
0.0
 40
4.0
  1
１２５
 41
0.833333
100
AcDbText
  0
POINT
  5
415
330
404
100
AcDbEntity
  8
001
370
     9
100
AcDbPoint
 10
71.670819
 20
35.337656
 30
0.0
  0
POINT
  5
416
330
404
100
AcDbEntity
  8
001
370
     9
100
AcDbPoint
 10
196.670819
 20
43.831417
 30
0.0
  0
POINT
  5
417
330
404
100
AcDbEntity
  8
001
370
     9
100
AcDbPoint
 10
196.670819
 20
4.078048
 30
0.0
  0
ENDBLK
  5
406
330
404
100
AcDbEntity
  8
0
100
AcDbBlockEnd
  0
BLOCK
  5
419
330
418
100
AcDbEntity
  8
0
100
AcDbBlockBegin
  2
*D7
 70
     1
 10
0.0
 20
0.0
 30
0.0
  3
*D7
  1

  0
LINE
  5
41B
330
418
100
AcDbEntity
  8
001
370
     9
100
AcDbLine
 10
196.670819
 20
43.831417
 30
0.0
 11
196.670819
 21
11.999066
 31
0.0
  0
LINE
  5
41C
330
418
100
AcDbEntity
  8
001
370
     9
100
AcDbLine
 10
101.670819
 20
40.131417
 30
0.0
 11
101.670819
 21
11.999066
 31
0.0
  0
LINE
  5
41D
330
418
100
AcDbEntity
  8
001
370
     9
100
AcDbLine
 10
196.670819
 20
14.749066
 30
0.0
 11
101.670819
 21
14.749066
 31
0.0
  0
POLYLINE
  5
41E
330
418
100
AcDbEntity
  8
001
370
     9
100
AcDb2dPolyline
 66
     1
 10
0.0
 20
0.0
 30
0.0
  0
VERTEX
  5
420
330
41E
100
AcDbEntity
  8
001
370
     9
100
AcDbVertex
100
AcDb2dVertex
 10
195.170819
 20
15.150989
 30
0.0
  0
VERTEX
  5
421
330
41E
100
AcDbEntity
  8
001
370
     9
100
AcDbVertex
100
AcDb2dVertex
 10
196.670819
 20
14.749066
 30
0.0
  0
VERTEX
  5
422
330
41E
100
AcDbEntity
  8
001
370
     9
100
AcDbVertex
100
AcDb2dVertex
 10
195.170819
 20
14.347142
 30
0.0
  0
SEQEND
  5
41F
330
41E
100
AcDbEntity
  8
001
370
     9
  0
POLYLINE
  5
423
330
418
100
AcDbEntity
  8
001
370
     9
100
AcDb2dPolyline
 66
     1
 10
0.0
 20
0.0
 30
0.0
  0
VERTEX
  5
425
330
423
100
AcDbEntity
  8
001
370
     9
100
AcDbVertex
100
AcDb2dVertex
 10
103.170819
 20
14.347142
 30
0.0
  0
VERTEX
  5
426
330
423
100
AcDbEntity
  8
001
370
     9
100
AcDbVertex
100
AcDb2dVertex
 10
101.670819
 20
14.749066
 30
0.0
  0
VERTEX
  5
427
330
423
100
AcDbEntity
  8
001
370
     9
100
AcDbVertex
100
AcDb2dVertex
 10
103.170819
 20
15.150989
 30
0.0
  0
SEQEND
  5
424
330
423
100
AcDbEntity
  8
001
370
     9
  0
TEXT
  5
428
330
418
100
AcDbEntity
  8
001
370
    30
100
AcDbText
 10
145.170819
 20
15.749066
 30
0.0
 40
4.0
  1
９５
 41
0.833333
100
AcDbText
  0
POINT
  5
429
330
418
100
AcDbEntity
  8
001
370
     9
100
AcDbPoint
 10
196.670819
 20
43.831417
 30
0.0
  0
POINT
  5
42A
330
418
100
AcDbEntity
  8
001
370
     9
100
AcDbPoint
 10
101.670819
 20
40.131417
 30
0.0
  0
POINT
  5
42B
330
418
100
AcDbEntity
  8
001
370
     9
100
AcDbPoint
 10
101.670819
 20
14.749066
 30
0.0
  0
ENDBLK
  5
41A
330
418
100
AcDbEntity
  8
0
100
AcDbBlockEnd
  0
BLOCK
  5
42D
330
42C
100
AcDbEntity
  8
0
100
AcDbBlockBegin
  2
*D8
 70
     1
 10
0.0
 20
0.0
 30
0.0
  3
*D8
  1

  0
LINE
  5
42F
330
42C
100
AcDbEntity
  8
001
370
     9
100
AcDbLine
 10
190.670819
 20
57.831417
 30
0.0
 11
222.076709
 21
57.831417
 31
0.0
  0
LINE
  5
430
330
42C
100
AcDbEntity
  8
001
370
     9
100
AcDbLine
 10
190.670819
 20
37.831417
 30
0.0
 11
222.076709
 21
37.831417
 31
0.0
  0
LINE
  5
431
330
42C
100
AcDbEntity
  8
001
370
     9
100
AcDbLine
 10
219.326709
 20
57.831417
 30
0.0
 11
219.326709
 21
37.831417
 31
0.0
  0
POLYLINE
  5
432
330
42C
100
AcDbEntity
  8
001
370
     9
100
AcDb2dPolyline
 66
     1
 10
0.0
 20
0.0
 30
0.0
  0
VERTEX
  5
434
330
432
100
AcDbEntity
  8
001
370
     9
100
AcDbVertex
100
AcDb2dVertex
 10
218.924786
 20
56.331417
 30
0.0
  0
VERTEX
  5
435
330
432
100
AcDbEntity
  8
001
370
     9
100
AcDbVertex
100
AcDb2dVertex
 10
219.326709
 20
57.831417
 30
0.0
  0
VERTEX
  5
436
330
432
100
AcDbEntity
  8
001
370
     9
100
AcDbVertex
100
AcDb2dVertex
 10
219.728633
 20
56.331417
 30
0.0
  0
SEQEND
  5
433
330
432
100
AcDbEntity
  8
001
370
     9
  0
POLYLINE
  5
437
330
42C
100
AcDbEntity
  8
001
370
     9
100
AcDb2dPolyline
 66
     1
 10
0.0
 20
0.0
 30
0.0
  0
VERTEX
  5
439
330
437
100
AcDbEntity
  8
001
370
     9
100
AcDbVertex
100
AcDb2dVertex
 10
219.728633
 20
39.331417
 30
0.0
  0
VERTEX
  5
43A
330
437
100
AcDbEntity
  8
001
370
     9
100
AcDbVertex
100
AcDb2dVertex
 10
219.326709
 20
37.831417
 30
0.0
  0
VERTEX
  5
43B
330
437
100
AcDbEntity
  8
001
370
     9
100
AcDbVertex
100
AcDb2dVertex
 10
218.924786
 20
39.331417
 30
0.0
  0
SEQEND
  5
438
330
437
100
AcDbEntity
  8
001
370
     9
  0
TEXT
  5
43C
330
42C
100
AcDbEntity
  8
001
370
    30
100
AcDbText
 10
218.326709
 20
22.331417
 30
0.0
 40
4.0
  1
%%c２０
 50
90.000003
 41
0.882353
100
AcDbText
  0
POINT
  5
43D
330
42C
100
AcDbEntity
  8
001
370
     9
100
AcDbPoint
 10
190.670819
 20
57.831417
 30
0.0
  0
POINT
  5
43E
330
42C
100
AcDbEntity
  8
001
370
     9
100
AcDbPoint
 10
190.670819
 20
37.831417
 30
0.0
  0
POINT
  5
43F
330
42C
100
AcDbEntity
  8
001
370
     9
100
AcDbPoint
 10
219.326709
 20
37.831417
 30
0.0
  0
LINE
  5
440
330
42C
100
AcDbEntity
  8
001
370
     9
100
AcDbLine
 10
219.326709
 20
37.831417
 30
0.0
 11
219.326709
 21
19.331417
 31
0.0
  0
ENDBLK
  5
42E
330
42C
100
AcDbEntity
  8
0
100
AcDbBlockEnd
  0
ENDSEC
  0
SECTION
  2
ENTITIES
  0
INSERT
  5
441
330
1F
100
AcDbEntity
  8
001
  6
ByBlock
 62
     0
370
    -2
100
AcDbBlockReference
  2
M-1-1
 10
0.0
 20
0.0
 30
0.0
  0
INSERT
  5
442
330
1F
100
AcDbEntity
  8
001
  6
ByBlock
 62
     0
370
    -2
100
AcDbBlockReference
  2
C32GUX-2
 10
0.0
 20
0.0
 30
0.0
  0
DIMENSION
  5
443
330
1F
100
AcDbEntity
  8
001
370
     9
100
AcDbDimension
  2
*D3
 10
71.670819
 20
14.749066
 30
0.0
 11
90.419922
 21
17.749066
 31
0.0
 70
   160
 71
     5
 42
-1.0
  3
Standard
100
AcDbAlignedDimension
 13
101.670819
 23
40.831417
 33
0.0
 14
71.670819
 24
35.337656
 34
0.0
 50
180.0
100
AcDbRotatedDimension
  0
DIMENSION
  5
444
330
1F
100
AcDbEntity
  8
001
370
     9
100
AcDbDimension
  2
*D4
 10
71.670819
 20
43.717442
 30
0.0
 11
88.551277
 21
29.156205
 31
0.0
 70
    34
 71
     5
 42
-1.0
  3
Standard
100
AcDb2LineAngularDimension
 13
79.707363
 23
41.038299
 33
0.0
 14
71.670819
 24
43.717442
 34
0.0
 15
71.670819
 25
35.337656
 35
0.0
 16
86.459579
 26
23.19842
 36
0.0
  0
DIMENSION
  5
445
330
1F
100
AcDbEntity
  8
001
370
     9
100
AcDbDimension
  2
*D5
 10
80.377905
 20
24.705386
 30
0.0
 11
58.170819
 21
27.705386
 31
0.0
 70
   160
 71
     5
 42
-1.0
  3
Standard
100
AcDbAlignedDimension
 13
71.670819
 23
38.59832
 33
0.0
 14
80.377905
 24
40.814761
 34
0.0
 50
360.0
100
AcDbRotatedDimension
  0
TEXT
  5
446
330
1F
100
AcDbEntity
  8
001
370
    30
100
AcDbText
 10
60.238411
 20
44.465459
 30
0.0
 40
4.0
  1
%%c８．９８
 50
90.000003
 41
0.862069
100
AcDbText
  0
POLYLINE
  5
447
330
1F
100
AcDbEntity
  8
001
370
     9
100
AcDb2dPolyline
 66
     1
 10
0.0
 20
0.0
 30
0.0
  0
VERTEX
  5
449
330
447
100
AcDbEntity
  8
001
370
     9
100
AcDbVertex
100
AcDb2dVertex
 10
61.640335
 20
45.217442
 30
0.0
  0
VERTEX
  5
44A
330
447
100
AcDbEntity
  8
001
370
     9
100
AcDbVertex
100
AcDb2dVertex
 10
61.238411
 20
43.717442
 30
0.0
  0
VERTEX
  5
44B
330
447
100
AcDbEntity
  8
001
370
     9
100
AcDbVertex
100
AcDb2dVertex
 10
60.836487
 20
45.217442
 30
0.0
  0
SEQEND
  5
448
330
447
100
AcDbEntity
  8
001
370
     9
  0
LINE
  5
44C
330
1F
100
AcDbEntity
  8
001
370
     9
100
AcDbLine
 10
61.238411
 20
52.700642
 30
0.0
 11
61.238411
 21
43.717442
 31
0.0
  0
POLYLINE
  5
44D
330
1F
100
AcDbEntity
  8
001
370
     9
100
AcDb2dPolyline
 66
     1
 10
0.0
 20
0.0
 30
0.0
  0
VERTEX
  5
44F
330
44D
100
AcDbEntity
  8
001
370
     9
100
AcDbVertex
100
AcDb2dVertex
 10
71.670819
 20
43.717442
 30
0.0
  0
VERTEX
  5
450
330
44D
100
AcDbEntity
  8
001
370
     9
100
AcDbVertex
100
AcDb2dVertex
 10
61.238411
 20
43.717442
 30
0.0
  0
VERTEX
  5
451
330
44D
100
AcDbEntity
  8
001
370
     9
100
AcDbVertex
100
AcDb2dVertex
 10
58.488411
 20
43.717442
 30
0.0
  0
SEQEND
  5
44E
330
44D
100
AcDbEntity
  8
001
370
     9
  0
DIMENSION
  5
452
330
1F
100
AcDbEntity
  8
001
370
     9
100
AcDbDimension
  2
*D6
 10
196.670819
 20
4.078048
 30
0.0
 11
134.170819
 21
7.078048
 31
0.0
 70
   160
 71
     5
 42
-1.0
  3
Standard
100
AcDbAlignedDimension
 13
71.670819
 23
35.337656
 33
0.0
 14
196.670819
 24
43.831417
 34
0.0
100
AcDbRotatedDimension
  0
DIMENSION
  5
453
330
1F
100
AcDbEntity
  8
001
370
     9
100
AcDbDimension
  2
*D7
 10
101.670819
 20
14.749066
 30
0.0
 11
149.170819
 21
17.749066
 31
0.0
 70
   160
 71
     5
 42
-1.0
  3
Standard
100
AcDbAlignedDimension
 13
196.670819
 23
43.831417
 33
0.0
 14
101.670819
 24
40.131417
 34
0.0
 50
180.0
100
AcDbRotatedDimension
  0
TEXT
  5
454
330
1F
100
AcDbEntity
  8
001
370
    30
100
AcDbText
 10
50.052951
 20
42.772286
 30
0.0
 40
4.0
  1
%%c１５．０７
 50
90.000003
 41
0.857143
100
AcDbText
  0
POLYLINE
  5
455
330
1F
100
AcDbEntity
  8
001
370
     9
100
AcDb2dPolyline
 66
     1
 10
0.0
 20
0.0
 30
0.0
  0
VERTEX
  5
457
330
455
100
AcDbEntity
  8
001
370
     9
100
AcDbVertex
100
AcDb2dVertex
 10
51.454875
 20
42.314761
 30
0.0
  0
VERTEX
  5
458
330
455
100
AcDbEntity
  8
001
370
     9
100
AcDbVertex
100
AcDb2dVertex
 10
51.052951
 20
40.814761
 30
0.0
  0
VERTEX
  5
459
330
455
100
AcDbEntity
  8
001
370
     9
100
AcDbVertex
100
AcDb2dVertex
 10
50.651027
 20
42.314761
 30
0.0
  0
SEQEND
  5
456
330
455
100
AcDbEntity
  8
001
370
     9
  0
LINE
  5
45A
330
1F
100
AcDbEntity
  8
001
370
     9
100
AcDbLine
 10
51.052951
 20
55.881502
 30
0.0
 11
51.052951
 21
40.814761
 31
0.0
  0
POLYLINE
  5
45B
330
1F
100
AcDbEntity
  8
001
370
     9
100
AcDb2dPolyline
 66
     1
 10
0.0
 20
0.0
 30
0.0
  0
VERTEX
  5
45D
330
45B
100
AcDbEntity
  8
001
370
     9
100
AcDbVertex
100
AcDb2dVertex
 10
80.458976
 20
40.814761
 30
0.0
  0
VERTEX
  5
45E
330
45B
100
AcDbEntity
  8
001
370
     9
100
AcDbVertex
100
AcDb2dVertex
 10
51.052951
 20
40.814761
 30
0.0
  0
VERTEX
  5
45F
330
45B
100
AcDbEntity
  8
001
370
     9
100
AcDbVertex
100
AcDb2dVertex
 10
48.302951
 20
40.814761
 30
0.0
  0
SEQEND
  5
45C
330
45B
100
AcDbEntity
  8
001
370
     9
  0
DIMENSION
  5
460
330
1F
100
AcDbEntity
  8
001
370
     9
100
AcDbDimension
  2
*D8
 10
219.326709
 20
37.831417
 30
0.0
 11
216.326709
 21
28.331417
 31
0.0
 70
   160
 71
     5
 42
-1.0
  3
Standard
100
AcDbAlignedDimension
 13
190.670819
 23
57.831417
 33
0.0
 14
190.670819
 24
37.831417
 34
0.0
 50
270.0
100
AcDbRotatedDimension
  0
TEXT
  5
461
330
1F
100
AcDbEntity
  8
001
370
    30
100
AcDbText
 10
61.933596
 20
73.610393
 30
0.0
 40
8.0
  1
面取りカッター面面　ＳＮＫ７０１４Ｃ
 41
0.833333
100
AcDbText
  0
LINE
  5
462
330
1F
100
AcDbEntity
  8
001
 62
   253
370
    50
100
AcDbLine
 10
190.670819
 20
57.831417
 30
0.0
 11
104.670819
 21
57.831417
 31
0.0
  0
LINE
  5
463
330
1F
100
AcDbEntity
  8
001
 62
   253
370
    50
100
AcDbLine
 10
190.670819
 20
37.831417
 30
0.0
 11
104.670819
 21
37.831417
 31
0.0
  0
LINE
  5
464
330
1F
100
AcDbEntity
  8
001
 62
   253
370
    50
100
AcDbLine
 10
104.670819
 20
57.831417
 30
0.0
 11
104.670819
 21
37.831417
 31
0.0
  0
ARC
  5
465
330
1F
100
AcDbEntity
  8
001
 62
   253
370
    50
100
AcDbCircle
 10
190.670819
 20
51.831417
 30
0.0
 40
6.0
100
AcDbArc
 50
0.0
 51
90.0
  0
ARC
  5
466
330
1F
100
AcDbEntity
  8
001
 62
   253
370
    50
100
AcDbCircle
 10
190.670819
 20
43.831417
 30
0.0
 40
6.0
100
AcDbArc
 50
270.0
 51
0.0
  0
LINE
  5
467
330
1F
100
AcDbEntity
  8
001
 62
   253
370
    50
100
AcDbLine
 10
196.670819
 20
51.831417
 30
0.0
 11
196.670819
 21
43.831417
 31
0.0
  0
LINE
  5
468
330
1F
100
AcDbEntity
  8
001
 62
   253
370
    50
100
AcDbLine
 10
104.670819
 20
57.831417
 30
0.0
 11
101.670819
 21
54.831417
 31
0.0
  0
LINE
  5
469
330
1F
100
AcDbEntity
  8
001
 62
   253
370
    50
100
AcDbLine
 10
101.670819
 20
40.831417
 30
0.0
 11
104.670819
 21
37.831417
 31
0.0
  0
LINE
  5
46A
330
1F
100
AcDbEntity
  8
001
 62
   253
370
    50
100
AcDbLine
 10
101.670819
 20
54.831417
 30
0.0
 11
101.670819
 21
40.831417
 31
0.0
  0
LINE
  5
46B
330
1F
100
AcDbEntity
  8
001
 62
   253
370
    50
100
AcDbLine
 10
81.503872
 20
54.831417
 30
0.0
 11
81.503872
 21
54.13831
 31
0.0
  0
LINE
  5
46C
330
1F
100
AcDbEntity
  8
001
 62
   253
370
    50
100
AcDbLine
 10
101.670819
 20
54.831417
 30
0.0
 11
81.503872
 21
54.831417
 31
0.0
  0
LINE
  5
46D
330
1F
100
AcDbEntity
  8
001
 62
   253
370
    50
100
AcDbLine
 10
81.503872
 20
40.831417
 30
0.0
 11
101.670819
 21
40.831417
 31
0.0
  0
LINE
  5
46E
330
1F
100
AcDbEntity
  8
001
 62
   253
370
    50
100
AcDbLine
 10
81.503872
 20
41.305259
 30
0.0
 11
81.503872
 21
40.831417
 31
0.0
  0
POLYLINE
  5
46F
330
1F
100
AcDbEntity
  8
001
 62
   253
370
    50
100
AcDb2dPolyline
 66
     1
 10
0.0
 20
0.0
 30
0.0
  0
VERTEX
  5
471
330
46F
100
AcDbEntity
  8
001
 62
   253
370
    50
100
AcDbVertex
100
AcDb2dVertex
 10
81.503872
 20
41.305259
 30
0.0
  0
VERTEX
  5
472
330
46F
100
AcDbEntity
  8
001
 62
   253
370
    50
100
AcDbVertex
100
AcDb2dVertex
 10
82.699451
 20
41.376023
 30
0.0
  0
VERTEX
  5
473
330
46F
100
AcDbEntity
  8
001
 62
   253
370
    50
100
AcDbVertex
100
AcDb2dVertex
 10
84.446236
 20
41.488727
 30
0.0
  0
VERTEX
  5
474
330
46F
100
AcDbEntity
  8
001
 62
   253
370
    50
100
AcDbVertex
100
AcDb2dVertex
 10
86.139883
 20
41.610712
 30
0.0
  0
VERTEX
  5
475
330
46F
100
AcDbEntity
  8
001
 62
   253
370
    50
100
AcDbVertex
100
AcDb2dVertex
 10
87.29824
 20
41.700466
 30
0.0
  0
SEQEND
  5
470
330
46F
100
AcDbEntity
  8
001
370
    50
  0
POLYLINE
  5
476
330
1F
100
AcDbEntity
  8
001
 62
   253
370
    50
100
AcDb2dPolyline
 66
     1
 10
0.0
 20
0.0
 30
0.0
  0
VERTEX
  5
478
330
476
100
AcDbEntity
  8
001
 62
   253
370
    50
100
AcDbVertex
100
AcDb2dVertex
 10
85.956624
 20
42.107328
 30
0.0
  0
VERTEX
  5
479
330
476
100
AcDbEntity
  8
001
 62
   253
370
    50
100
AcDbVertex
100
AcDb2dVertex
 10
86.239874
 20
42.020876
 30
0.0
  0
VERTEX
  5
47A
330
476
100
AcDbEntity
  8
001
 62
   253
370
    50
100
AcDbVertex
100
AcDb2dVertex
 10
86.65399
 20
41.894962
 30
0.0
  0
VERTEX
  5
47B
330
476
100
AcDbEntity
  8
001
 62
   253
370
    50
100
AcDbVertex
100
AcDb2dVertex
 10
87.03646
 20
41.779305
 30
0.0
  0
VERTEX
  5
47C
330
476
100
AcDbEntity
  8
001
 62
   253
370
    50
100
AcDbVertex
100
AcDb2dVertex
 10
87.29824
 20
41.700466
 30
0.0
  0
SEQEND
  5
477
330
476
100
AcDbEntity
  8
001
370
    50
  0
POLYLINE
  5
47D
330
1F
100
AcDbEntity
  8
001
 62
   253
370
    50
100
AcDb2dPolyline
 66
     1
 10
0.0
 20
0.0
 30
0.0
  0
VERTEX
  5
47F
330
47D
100
AcDbEntity
  8
001
 62
   253
370
    50
100
AcDbVertex
100
AcDb2dVertex
 10
85.956624
 20
42.107328
 30
0.0
  0
VERTEX
  5
480
330
47D
100
AcDbEntity
  8
001
 62
   253
370
    50
100
AcDbVertex
100
AcDb2dVertex
 10
86.671943
 20
42.994951
 30
0.0
  0
VERTEX
  5
481
330
47D
100
AcDbEntity
  8
001
 62
   253
370
    50
100
AcDbVertex
100
AcDb2dVertex
 10
87.471326
 20
44.331417
 30
0.0
  0
VERTEX
  5
482
330
47D
100
AcDbEntity
  8
001
 62
   253
370
    50
100
AcDbVertex
100
AcDb2dVertex
 10
87.89161
 20
45.484033
 30
0.0
  0
VERTEX
  5
483
330
47D
100
AcDbEntity
  8
001
 62
   253
370
    50
100
AcDbVertex
100
AcDb2dVertex
 10
88.090844
 20
46.61588
 30
0.0
  0
VERTEX
  5
484
330
47D
100
AcDbEntity
  8
001
 62
   253
370
    50
100
AcDbVertex
100
AcDb2dVertex
 10
88.147959
 20
47.218595
 30
0.0
  0
VERTEX
  5
485
330
47D
100
AcDbEntity
  8
001
 62
   253
370
    50
100
AcDbVertex
100
AcDb2dVertex
 10
88.17008
 20
47.831417
 30
0.0
  0
VERTEX
  5
486
330
47D
100
AcDbEntity
  8
001
 62
   253
370
    50
100
AcDbVertex
100
AcDb2dVertex
 10
88.147911
 20
48.443988
 30
0.0
  0
VERTEX
  5
487
330
47D
100
AcDbEntity
  8
001
 62
   253
370
    50
100
AcDbVertex
100
AcDb2dVertex
 10
88.090844
 20
49.046955
 30
0.0
  0
VERTEX
  5
488
330
47D
100
AcDbEntity
  8
001
 62
   253
370
    50
100
AcDbVertex
100
AcDb2dVertex
 10
87.891976
 20
50.182177
 30
0.0
  0
VERTEX
  5
489
330
47D
100
AcDbEntity
  8
001
 62
   253
370
    50
100
AcDbVertex
100
AcDb2dVertex
 10
87.471326
 20
51.331417
 30
0.0
  0
VERTEX
  5
48A
330
47D
100
AcDbEntity
  8
001
 62
   253
370
    50
100
AcDbVertex
100
AcDb2dVertex
 10
86.53182
 20
52.831032
 30
0.0
  0
VERTEX
  5
48B
330
47D
100
AcDbEntity
  8
001
 62
   253
370
    50
100
AcDbVertex
100
AcDb2dVertex
 10
85.670819
 20
53.807135
 30
0.0
  0
SEQEND
  5
47E
330
47D
100
AcDbEntity
  8
001
370
    50
  0
POLYLINE
  5
48C
330
1F
100
AcDbEntity
  8
001
 62
   253
370
    50
100
AcDb2dPolyline
 66
     1
 10
0.0
 20
0.0
 30
0.0
  0
VERTEX
  5
48E
330
48C
100
AcDbEntity
  8
001
 62
   253
370
    50
100
AcDbVertex
100
AcDb2dVertex
 10
85.670819
 20
53.807135
 30
0.0
  0
VERTEX
  5
48F
330
48C
100
AcDbEntity
  8
001
 62
   253
370
    50
100
AcDbVertex
100
AcDb2dVertex
 10
85.265788
 20
53.842766
 30
0.0
  0
VERTEX
  5
490
330
48C
100
AcDbEntity
  8
001
 62
   253
370
    50
100
AcDbVertex
100
AcDb2dVertex
 10
84.673713
 20
53.893595
 30
0.0
  0
VERTEX
  5
491
330
48C
100
AcDbEntity
  8
001
 62
   253
370
    50
100
AcDbVertex
100
AcDb2dVertex
 10
82.792007
 20
54.043786
 30
0.0
  0
VERTEX
  5
492
330
48C
100
AcDbEntity
  8
001
 62
   253
370
    50
100
AcDbVertex
100
AcDb2dVertex
 10
81.503872
 20
54.13831
 30
0.0
  0
SEQEND
  5
48D
330
48C
100
AcDbEntity
  8
001
370
    50
  0
LINE
  5
493
330
1F
100
AcDbEntity
  8
001
 62
   253
370
    50
100
AcDbLine
 10
85.956624
 20
42.107328
 30
0.0
 11
85.670819
 21
42.218906
 31
0.0
  0
LINE
  5
494
330
1F
100
AcDbEntity
  8
001
 62
   253
370
    50
100
AcDbLine
 10
85.670819
 20
48.16391
 30
0.0
 11
85.670819
 21
42.218906
 31
0.0
  0
POLYLINE
  5
495
330
1F
100
AcDbEntity
  8
001
 62
   253
370
    50
100
AcDb2dPolyline
 66
     1
 10
0.0
 20
0.0
 30
0.0
  0
VERTEX
  5
497
330
495
100
AcDbEntity
  8
001
 62
   253
370
    50
100
AcDbVertex
100
AcDb2dVertex
 10
85.670819
 20
48.16391
 30
0.0
  0
VERTEX
  5
498
330
495
100
AcDbEntity
  8
001
 62
   253
370
    50
100
AcDbVertex
100
AcDb2dVertex
 10
85.68672
 20
48.320836
 30
0.0
  0
VERTEX
  5
499
330
495
100
AcDbEntity
  8
001
 62
   253
370
    50
100
AcDbVertex
100
AcDb2dVertex
 10
85.696264
 20
48.550771
 30
0.0
  0
VERTEX
  5
49A
330
495
100
AcDbEntity
  8
001
 62
   253
370
    50
100
AcDbVertex
100
AcDb2dVertex
 10
85.68672
 20
48.780706
 30
0.0
  0
VERTEX
  5
49B
330
495
100
AcDbEntity
  8
001
 62
   253
370
    50
100
AcDbVertex
100
AcDb2dVertex
 10
85.670819
 20
48.937632
 30
0.0
  0
SEQEND
  5
496
330
495
100
AcDbEntity
  8
001
370
    50
  0
LINE
  5
49C
330
1F
100
AcDbEntity
  8
001
 62
   253
370
    50
100
AcDbLine
 10
85.670819
 20
53.807135
 30
0.0
 11
85.670819
 21
48.937632
 31
0.0
  0
POLYLINE
  5
49D
330
1F
100
AcDbEntity
  8
001
 62
   253
370
    50
100
AcDb2dPolyline
 66
     1
 10
0.0
 20
0.0
 30
0.0
  0
VERTEX
  5
49F
330
49D
100
AcDbEntity
  8
001
 62
   253
370
    50
100
AcDbVertex
100
AcDb2dVertex
 10
85.670819
 20
48.937632
 30
0.0
  0
VERTEX
  5
4A0
330
49D
100
AcDbEntity
  8
001
 62
   253
370
    50
100
AcDbVertex
100
AcDb2dVertex
 10
85.667717
 20
48.956908
 30
0.0
  0
VERTEX
  5
4A1
330
49D
100
AcDbEntity
  8
001
 62
   253
370
    50
100
AcDbVertex
100
AcDb2dVertex
 10
85.663035
 20
48.984892
 30
0.0
  0
VERTEX
  5
4A2
330
49D
100
AcDbEntity
  8
001
 62
   253
370
    50
100
AcDbVertex
100
AcDb2dVertex
 10
85.546462
 20
49.438137
 30
0.0
  0
VERTEX
  5
4A3
330
49D
100
AcDbEntity
  8
001
 62
   253
370
    50
100
AcDbVertex
100
AcDb2dVertex
 10
85.369197
 20
49.800771
 30
0.0
  0
VERTEX
  5
4A4
330
49D
100
AcDbEntity
  8
001
 62
   253
370
    50
100
AcDbVertex
100
AcDb2dVertex
 10
84.979806
 20
50.304276
 30
0.0
  0
VERTEX
  5
4A5
330
49D
100
AcDbEntity
  8
001
 62
   253
370
    50
100
AcDbVertex
100
AcDb2dVertex
 10
84.463743
 20
50.715835
 30
0.0
  0
VERTEX
  5
4A6
330
49D
100
AcDbEntity
  8
001
 62
   253
370
    50
100
AcDbVertex
100
AcDb2dVertex
 10
84.269399
 20
50.817394
 30
0.0
  0
VERTEX
  5
4A7
330
49D
100
AcDbEntity
  8
001
 62
   253
370
    50
100
AcDbVertex
100
AcDb2dVertex
 10
84.072941
 20
50.900003
 30
0.0
  0
VERTEX
  5
4A8
330
49D
100
AcDbEntity
  8
001
 62
   253
370
    50
100
AcDbVertex
100
AcDb2dVertex
 10
83.876497
 20
50.965332
 30
0.0
  0
VERTEX
  5
4A9
330
49D
100
AcDbEntity
  8
001
 62
   253
370
    50
100
AcDbVertex
100
AcDb2dVertex
 10
83.656432
 20
51.01279
 30
0.0
  0
VERTEX
  5
4AA
330
49D
100
AcDbEntity
  8
001
 62
   253
370
    50
100
AcDbVertex
100
AcDb2dVertex
 10
83.408196
 20
51.041297
 30
0.0
  0
VERTEX
  5
4AB
330
49D
100
AcDbEntity
  8
001
 62
   253
370
    50
100
AcDbVertex
100
AcDb2dVertex
 10
83.22687
 20
51.050771
 30
0.0
  0
SEQEND
  5
49E
330
49D
100
AcDbEntity
  8
001
370
    50
  0
POLYLINE
  5
4AC
330
1F
100
AcDbEntity
  8
001
 62
   253
370
    50
100
AcDb2dPolyline
 66
     1
 10
0.0
 20
0.0
 30
0.0
  0
VERTEX
  5
4AE
330
4AC
100
AcDbEntity
  8
001
 62
   253
370
    50
100
AcDbVertex
100
AcDb2dVertex
 10
83.442241
 20
51.041278
 30
0.0
  0
VERTEX
  5
4AF
330
4AC
100
AcDbEntity
  8
001
 62
   253
370
    50
100
AcDbVertex
100
AcDb2dVertex
 10
83.353109
 20
51.031104
 30
0.0
  0
VERTEX
  5
4B0
330
4AC
100
AcDbEntity
  8
001
 62
   253
370
    50
100
AcDbVertex
100
AcDb2dVertex
 10
83.22805
 20
51.01279
 30
0.0
  0
VERTEX
  5
4B1
330
4AC
100
AcDbEntity
  8
001
 62
   253
370
    50
100
AcDbVertex
100
AcDb2dVertex
 10
83.003877
 20
50.963126
 30
0.0
  0
VERTEX
  5
4B2
330
4AC
100
AcDbEntity
  8
001
 62
   253
370
    50
100
AcDbVertex
100
AcDb2dVertex
 10
82.81154
 20
50.900003
 30
0.0
  0
VERTEX
  5
4B3
330
4AC
100
AcDbEntity
  8
001
 62
   253
370
    50
100
AcDbVertex
100
AcDb2dVertex
 10
82.621881
 20
50.822568
 30
0.0
  0
VERTEX
  5
4B4
330
4AC
100
AcDbEntity
  8
001
 62
   253
370
    50
100
AcDbVertex
100
AcDb2dVertex
 10
82.420738
 20
50.715835
 30
0.0
  0
VERTEX
  5
4B5
330
4AC
100
AcDbEntity
  8
001
 62
   253
370
    50
100
AcDbVertex
100
AcDb2dVertex
 10
82.196118
 20
50.564276
 30
0.0
  0
VERTEX
  5
4B6
330
4AC
100
AcDbEntity
  8
001
 62
   253
370
    50
100
AcDbVertex
100
AcDb2dVertex
 10
82.041285
 20
50.443319
 30
0.0
  0
SEQEND
  5
4AD
330
4AC
100
AcDbEntity
  8
001
370
    50
  0
POLYLINE
  5
4B7
330
1F
100
AcDbEntity
  8
001
 62
   253
370
    50
100
AcDb2dPolyline
 66
     1
 10
0.0
 20
0.0
 30
0.0
  0
VERTEX
  5
4B9
330
4B7
100
AcDbEntity
  8
001
 62
   253
370
    50
100
AcDbVertex
100
AcDb2dVertex
 10
83.22687
 20
51.050771
 30
0.0
  0
VERTEX
  5
4BA
330
4B7
100
AcDbEntity
  8
001
 62
   253
370
    50
100
AcDbVertex
100
AcDb2dVertex
 10
83.045867
 20
51.041555
 30
0.0
  0
VERTEX
  5
4BB
330
4B7
100
AcDbEntity
  8
001
 62
   253
370
    50
100
AcDbVertex
100
AcDb2dVertex
 10
82.797309
 20
51.01279
 30
0.0
  0
VERTEX
  5
4BC
330
4B7
100
AcDbEntity
  8
001
 62
   253
370
    50
100
AcDbVertex
100
AcDb2dVertex
 10
82.575632
 20
50.964036
 30
0.0
  0
VERTEX
  5
4BD
330
4B7
100
AcDbEntity
  8
001
 62
   253
370
    50
100
AcDbVertex
100
AcDb2dVertex
 10
82.380799
 20
50.900003
 30
0.0
  0
VERTEX
  5
4BE
330
4B7
100
AcDbEntity
  8
001
 62
   253
370
    50
100
AcDbVertex
100
AcDb2dVertex
 10
82.190475
 20
50.822326
 30
0.0
  0
VERTEX
  5
4BF
330
4B7
100
AcDbEntity
  8
001
 62
   253
370
    50
100
AcDbVertex
100
AcDb2dVertex
 10
81.989997
 20
50.715835
 30
0.0
  0
VERTEX
  5
4C0
330
4B7
100
AcDbEntity
  8
001
 62
   253
370
    50
100
AcDbVertex
100
AcDb2dVertex
 10
81.765525
 20
50.56433
 30
0.0
  0
VERTEX
  5
4C1
330
4B7
100
AcDbEntity
  8
001
 62
   253
370
    50
100
AcDbVertex
100
AcDb2dVertex
 10
81.610543
 20
50.443319
 30
0.0
  0
SEQEND
  5
4B8
330
4B7
100
AcDbEntity
  8
001
370
    50
  0
POLYLINE
  5
4C2
330
1F
100
AcDbEntity
  8
001
 62
   253
370
    50
100
AcDb2dPolyline
 66
     1
 10
0.0
 20
0.0
 30
0.0
  0
VERTEX
  5
4C4
330
4C2
100
AcDbEntity
  8
001
 62
   253
370
    50
100
AcDbVertex
100
AcDb2dVertex
 10
83.342963
 20
46.053526
 30
0.0
  0
VERTEX
  5
4C5
330
4C2
100
AcDbEntity
  8
001
 62
   253
370
    50
100
AcDbVertex
100
AcDb2dVertex
 10
83.47448
 20
46.064832
 30
0.0
  0
VERTEX
  5
4C6
330
4C2
100
AcDbEntity
  8
001
 62
   253
370
    50
100
AcDbVertex
100
AcDb2dVertex
 10
83.656432
 20
46.088752
 30
0.0
  0
VERTEX
  5
4C7
330
4C2
100
AcDbEntity
  8
001
 62
   253
370
    50
100
AcDbVertex
100
AcDb2dVertex
 10
83.87776
 20
46.136701
 30
0.0
  0
VERTEX
  5
4C8
330
4C2
100
AcDbEntity
  8
001
 62
   253
370
    50
100
AcDbVertex
100
AcDb2dVertex
 10
84.072941
 20
46.20154
 30
0.0
  0
VERTEX
  5
4C9
330
4C2
100
AcDbEntity
  8
001
 62
   253
370
    50
100
AcDbVertex
100
AcDb2dVertex
 10
84.269019
 20
46.284001
 30
0.0
  0
VERTEX
  5
4CA
330
4C2
100
AcDbEntity
  8
001
 62
   253
370
    50
100
AcDbVertex
100
AcDb2dVertex
 10
84.463743
 20
46.385708
 30
0.0
  0
VERTEX
  5
4CB
330
4C2
100
AcDbEntity
  8
001
 62
   253
370
    50
100
AcDbVertex
100
AcDb2dVertex
 10
84.980183
 20
46.797413
 30
0.0
  0
VERTEX
  5
4CC
330
4C2
100
AcDbEntity
  8
001
 62
   253
370
    50
100
AcDbVertex
100
AcDb2dVertex
 10
85.369197
 20
47.300771
 30
0.0
  0
VERTEX
  5
4CD
330
4C2
100
AcDbEntity
  8
001
 62
   253
370
    50
100
AcDbVertex
100
AcDb2dVertex
 10
85.546418
 20
47.663388
 30
0.0
  0
VERTEX
  5
4CE
330
4C2
100
AcDbEntity
  8
001
 62
   253
370
    50
100
AcDbVertex
100
AcDb2dVertex
 10
85.663035
 20
48.116651
 30
0.0
  0
VERTEX
  5
4CF
330
4C2
100
AcDbEntity
  8
001
 62
   253
370
    50
100
AcDbVertex
100
AcDb2dVertex
 10
85.667717
 20
48.144634
 30
0.0
  0
VERTEX
  5
4D0
330
4C2
100
AcDbEntity
  8
001
 62
   253
370
    50
100
AcDbVertex
100
AcDb2dVertex
 10
85.670819
 20
48.16391
 30
0.0
  0
SEQEND
  5
4C3
330
4C2
100
AcDbEntity
  8
001
370
    50
  0
LINE
  5
4D1
330
1F
100
AcDbEntity
  8
001
 62
   253
370
    50
100
AcDbLine
 10
82.041285
 20
50.443319
 30
0.0
 11
81.610543
 21
50.443319
 31
0.0
  0
LINE
  5
4D2
330
1F
100
AcDbEntity
  8
001
 62
   253
370
    50
100
AcDbLine
 10
75.97641
 20
52.32157
 30
0.0
 11
76.145643
 21
52.639789
 31
0.0
  0
LINE
  5
4D3
330
1F
100
AcDbEntity
  8
001
 62
   253
370
    50
100
AcDbLine
 10
81.503872
 20
54.13831
 30
0.0
 11
76.145643
 21
52.639789
 31
0.0
  0
LINE
  5
4D4
330
1F
100
AcDbEntity
  8
001
 62
   253
370
    50
100
AcDbLine
 10
81.610543
 20
50.443319
 30
0.0
 11
75.97641
 21
52.32157
 31
0.0
  0
LINE
  5
4D5
330
1F
100
AcDbEntity
  8
001
 62
   253
370
    50
100
AcDbLine
 10
81.961322
 20
43.455541
 30
0.0
 11
83.342963
 21
46.053526
 31
0.0
  0
LINE
  5
4D6
330
1F
100
AcDbEntity
  8
001
 62
   253
370
    50
100
AcDbLine
 10
85.670819
 20
42.218906
 30
0.0
 11
81.961322
 21
43.455541
 31
0.0
  0
LINE
  5
4D7
330
1F
100
AcDbEntity
  8
001
 62
   253
370
    50
100
AcDbLine
 10
81.503872
 20
41.305259
 30
0.0
 11
80.969991
 21
41.455586
 31
0.0
  0
LINE
  5
4D8
330
1F
100
AcDbEntity
  8
001
 62
   253
370
    50
100
AcDbLine
 10
82.02271
 20
43.435076
 30
0.0
 11
80.969991
 21
41.455586
 31
0.0
  0
POLYLINE
  5
4D9
330
1F
100
AcDbEntity
  8
001
 62
   253
370
    50
100
AcDb2dPolyline
 66
     1
 10
0.0
 20
0.0
 30
0.0
  0
VERTEX
  5
4DB
330
4D9
100
AcDbEntity
  8
001
 62
   253
370
    50
100
AcDbVertex
100
AcDb2dVertex
 10
76.87212
 20
53.371032
 30
0.0
  0
VERTEX
  5
4DC
330
4D9
100
AcDbEntity
  8
001
 62
   253
370
    50
100
AcDbVertex
100
AcDb2dVertex
 10
76.850227
 20
53.362226
 30
0.0
  0
VERTEX
  5
4DD
330
4D9
100
AcDbEntity
  8
001
 62
   253
370
    50
100
AcDbVertex
100
AcDb2dVertex
 10
76.819631
 20
53.347744
 30
0.0
  0
VERTEX
  5
4DE
330
4D9
100
AcDbEntity
  8
001
 62
   253
370
    50
100
AcDbVertex
100
AcDb2dVertex
 10
76.701779
 20
53.269385
 30
0.0
  0
VERTEX
  5
4DF
330
4D9
100
AcDbEntity
  8
001
 62
   253
370
    50
100
AcDbVertex
100
AcDb2dVertex
 10
76.613579
 20
53.183264
 30
0.0
  0
VERTEX
  5
4E0
330
4D9
100
AcDbEntity
  8
001
 62
   253
370
    50
100
AcDbVertex
100
AcDb2dVertex
 10
76.481653
 20
53.043589
 30
0.0
  0
VERTEX
  5
4E1
330
4D9
100
AcDbEntity
  8
001
 62
   253
370
    50
100
AcDbVertex
100
AcDb2dVertex
 10
76.338324
 20
52.880835
 30
0.0
  0
VERTEX
  5
4E2
330
4D9
100
AcDbEntity
  8
001
 62
   253
370
    50
100
AcDbVertex
100
AcDb2dVertex
 10
76.22503
 20
52.74128
 30
0.0
  0
VERTEX
  5
4E3
330
4D9
100
AcDbEntity
  8
001
 62
   253
370
    50
100
AcDbVertex
100
AcDb2dVertex
 10
76.145643
 20
52.639789
 30
0.0
  0
SEQEND
  5
4DA
330
4D9
100
AcDbEntity
  8
001
370
    50
  0
LINE
  5
4E4
330
1F
100
AcDbEntity
  8
001
 62
   253
370
    50
100
AcDbLine
 10
81.503872
 20
54.831417
 30
0.0
 11
76.87212
 21
53.371032
 31
0.0
  0
LINE
  5
4E5
330
1F
100
AcDbEntity
  8
001
 62
   253
370
    50
100
AcDbLine
 10
81.064619
 20
40.969913
 30
0.0
 11
81.503872
 21
40.831417
 31
0.0
  0
POLYLINE
  5
4E6
330
1F
100
AcDbEntity
  8
001
 62
   253
370
    50
100
AcDb2dPolyline
 66
     1
 10
0.0
 20
0.0
 30
0.0
  0
VERTEX
  5
4E8
330
4E6
100
AcDbEntity
  8
001
 62
   253
370
    50
100
AcDbVertex
100
AcDb2dVertex
 10
80.969991
 20
41.455586
 30
0.0
  0
VERTEX
  5
4E9
330
4E6
100
AcDbEntity
  8
001
 62
   253
370
    50
100
AcDbVertex
100
AcDb2dVertex
 10
80.959613
 20
41.346676
 30
0.0
  0
VERTEX
  5
4EA
330
4E6
100
AcDbEntity
  8
001
 62
   253
370
    50
100
AcDbVertex
100
AcDb2dVertex
 10
80.953376
 20
41.192876
 30
0.0
  0
VERTEX
  5
4EB
330
4E6
100
AcDbEntity
  8
001
 62
   253
370
    50
100
AcDbVertex
100
AcDb2dVertex
 10
80.966354
 20
41.067612
 30
0.0
  0
VERTEX
  5
4EC
330
4E6
100
AcDbEntity
  8
001
 62
   253
370
    50
100
AcDbVertex
100
AcDb2dVertex
 10
81.04293
 20
40.979194
 30
0.0
  0
VERTEX
  5
4ED
330
4E6
100
AcDbEntity
  8
001
 62
   253
370
    50
100
AcDbVertex
100
AcDb2dVertex
 10
81.05558
 20
40.973402
 30
0.0
  0
VERTEX
  5
4EE
330
4E6
100
AcDbEntity
  8
001
 62
   253
370
    50
100
AcDbVertex
100
AcDb2dVertex
 10
81.064619
 20
40.969913
 30
0.0
  0
SEQEND
  5
4E7
330
4E6
100
AcDbEntity
  8
001
370
    50
  0
LINE
  5
4EF
330
1F
100
AcDbEntity
  8
001
  6
CENTER
 62
   253
370
     9
100
AcDbLine
 10
68.035962
 20
47.831417
 30
0.0
 11
205.786233
 21
47.831417
 31
0.0
  0
LINE
  5
4F0
330
1F
100
AcDbEntity
  8
001
 62
   253
370
     9
100
AcDbLine
 10
71.670819
 20
38.59832
 30
0.0
 11
71.670819
 21
44.027479
 31
0.0
  0
LINE
  5
4F1
330
1F
100
AcDbEntity
  8
001
370
    50
100
AcDbLine
 10
196.670819
 20
47.831417
 30
0.0
 11
200.449726
 21
50.013171
 31
0.0
  0
LINE
  5
4F2
330
1F
100
AcDbEntity
  8
001
370
    50
100
AcDbLine
 10
196.670819
 20
47.831417
 30
0.0
 11
200.449726
 21
45.649664
 31
0.0
  0
ENDSEC
  0
SECTION
  2
OBJECTS
  0
DICTIONARY
  5
C
330
0
100
AcDbDictionary
281
     1
  3
ACAD_GROUP
350
D
  3
ACAD_LAYOUT
350
1A
  3
ACAD_MLEADERSTYLE
350
4F6
  3
ACAD_MLINESTYLE
350
17
  3
ACAD_PLOTSETTINGS
350
19
  3
ACAD_PLOTSTYLENAME
350
E
  3
ACAD_SCALELIST
350
3B
  3
ACAD_TABLESTYLE
350
4F5
  3
ACAD_VISUALSTYLE
350
2A
  3
AcDbVariableDictionary
350
4F3
  0
DICTIONARY
  5
D
102
{ACAD_REACTORS
330
C
102
}
330
C
100
AcDbDictionary
281
     1
  0
DICTIONARY
  5
1A
102
{ACAD_REACTORS
330
C
102
}
330
C
100
AcDbDictionary
281
     1
  3
Layout1
350
1E
  3
Layout2
350
26
  3
Model
350
22
  0
DICTIONARY
  5
4F6
102
{ACAD_REACTORS
330
C
102
}
330
C
100
AcDbDictionary
281
     1
  0
DICTIONARY
  5
17
102
{ACAD_REACTORS
330
C
102
}
330
C
100
AcDbDictionary
281
     1
  3
Standard
350
18
  0
DICTIONARY
  5
19
102
{ACAD_REACTORS
330
C
102
}
330
C
100
AcDbDictionary
281
     1
  0
ACDBDICTIONARYWDFLT
  5
E
102
{ACAD_REACTORS
330
C
102
}
330
C
100
AcDbDictionary
281
     1
  3
Normal
350
F
100
AcDbDictionaryWithDefault
340
F
  0
DICTIONARY
  5
3B
102
{ACAD_REACTORS
330
C
102
}
330
C
100
AcDbDictionary
281
     1
  3
A0
350
3C
  3
A1
350
3D
  3
A2
350
3E
  3
A3
350
3F
  3
A4
350
40
  3
A5
350
41
  3
A6
350
42
  3
A7
350
43
  3
A8
350
44
  3
A9
350
45
  3
B0
350
46
  3
B1
350
47
  3
B2
350
48
  3
B3
350
49
  3
B4
350
4A
  3
B5
350
4B
  3
B6
350
4C
  3
B7
350
4D
  3
B8
350
4E
  3
B9
350
4F
  3
C0
350
50
  3
C1
350
51
  3
C2
350
52
  3
C3
350
53
  3
C4
350
54
  3
C5
350
55
  3
C6
350
56
  3
C7
350
57
  3
C8
350
58
  3
C9
350
59
  3
D0
350
5A
  3
D1
350
5B
  3
D2
350
5C
  0
DICTIONARY
  5
4F5
102
{ACAD_REACTORS
330
C
102
}
330
C
100
AcDbDictionary
281
     1
  0
DICTIONARY
  5
2A
102
{ACAD_REACTORS
330
C
102
}
330
C
100
AcDbDictionary
281
     1
  3
2dWireframe
350
2F
  3
3D Hidden
350
31
  3
3dWireframe
350
30
  3
Basic
350
32
  3
Brighten
350
36
  3
ColorChange
350
3A
  3
Conceptual
350
34
  3
Dim
350
35
  3
Facepattern
350
39
  3
Flat
350
2B
  3
FlatWithEdges
350
2C
  3
Gouraud
350
2D
  3
GouraudWithEdges
350
2E
  3
Linepattern
350
38
  3
Realistic
350
33
  3
Thicken
350
37
  0
DICTIONARY
  5
4F3
102
{ACAD_REACTORS
330
C
102
}
330
C
100
AcDbDictionary
281
     1
  3
CANNOSCALE
350
4F4
  3
PSOLHEIGHT
350
4F8
  3
PSOLWIDTH
350
4F7
  0
LAYOUT
  5
1E
102
{ACAD_REACTORS
330
1A
102
}
330
1A
100
AcDbPlotSettings
  1

  2
none_device
  4

  6

 40
0.0
 41
0.0
 42
0.0
 43
0.0
 44
0.0
 45
0.0
 46
0.0
 47
0.0
 48
0.0
 49
0.0
140
0.0
141
0.0
142
1.0
143
1.0
 70
   688
 72
     0
 73
     0
 74
     5
  7

 75
    16
147
1.0
148
0.0
149
0.0
100
AcDbLayout
  1
Layout1
 70
     1
 71
     1
 10
0.0
 20
0.0
 11
12.0
 21
9.0
 12
0.0
 22
0.0
 32
0.0
 14
1.000000E+20
 24
1.000000E+20
 34
0.0
 15
-1.000000E+20
 25
-1.000000E+20
 35
0.0
146
0.0
 13
0.0
 23
0.0
 33
0.0
 16
1.0
 26
0.0
 36
0.0
 17
0.0
 27
1.0
 37
0.0
 76
     0
330
1B
  0
LAYOUT
  5
26
102
{ACAD_REACTORS
330
1A
102
}
330
1A
100
AcDbPlotSettings
  1

  2
none_device
  4

  6

 40
0.0
 41
0.0
 42
0.0
 43
0.0
 44
0.0
 45
0.0
 46
0.0
 47
0.0
 48
0.0
 49
0.0
140
0.0
141
0.0
142
1.0
143
1.0
 70
   688
 72
     0
 73
     0
 74
     5
  7

 75
    16
147
1.0
148
0.0
149
0.0
100
AcDbLayout
  1
Layout2
 70
     1
 71
     2
 10
0.0
 20
0.0
 11
0.0
 21
0.0
 12
0.0
 22
0.0
 32
0.0
 14
0.0
 24
0.0
 34
0.0
 15
0.0
 25
0.0
 35
0.0
146
0.0
 13
0.0
 23
0.0
 33
0.0
 16
1.0
 26
0.0
 36
0.0
 17
0.0
 27
1.0
 37
0.0
 76
     0
330
23
  0
LAYOUT
  5
22
102
{ACAD_REACTORS
330
1A
102
}
330
1A
100
AcDbPlotSettings
  1

  2
none_device
  4

  6

 40
0.0
 41
0.0
 42
0.0
 43
0.0
 44
0.0
 45
0.0
 46
0.0
 47
0.0
 48
0.0
 49
0.0
140
0.0
141
0.0
142
1.0
143
1.0
 70
  1712
 72
     0
 73
     0
 74
     0
  7

 75
     0
147
1.0
148
0.0
149
0.0
100
AcDbLayout
  1
Model
 70
     1
 71
     0
 10
0.0
 20
0.0
 11
12.0
 21
9.0
 12
0.0
 22
0.0
 32
0.0
 14
45.170822
 24
1.328049
 34
0.0
 15
222.076706
 25
81.61039
 35
0.0
146
0.0
 13
0.0
 23
0.0
 33
0.0
 16
1.0
 26
0.0
 36
0.0
 17
0.0
 27
1.0
 37
0.0
 76
     0
330
1F
331
29
  0
MLINESTYLE
  5
18
102
{ACAD_REACTORS
330
17
102
}
330
17
100
AcDbMlineStyle
  2
Standard
 70
     0
  3

 62
   256
 51
90.0
 52
90.0
 71
     2
 49
0.5
 62
   256
  6
BYLAYER
 49
-0.5
 62
   256
  6
BYLAYER
  0
ACDBPLACEHOLDER
  5
F
102
{ACAD_REACTORS
330
E
102
}
330
E
  0
SCALE
  5
3C
102
{ACAD_REACTORS
330
3B
102
}
330
3B
100
AcDbScale
 70
     0
300
1:1
140
1.0
141
1.0
290
     1
  0
SCALE
  5
3D
102
{ACAD_REACTORS
330
3B
102
}
330
3B
100
AcDbScale
 70
     0
300
1:2
140
1.0
141
2.0
290
     0
  0
SCALE
  5
3E
102
{ACAD_REACTORS
330
3B
102
}
330
3B
100
AcDbScale
 70
     0
300
1:4
140
1.0
141
4.0
290
     0
  0
SCALE
  5
3F
102
{ACAD_REACTORS
330
3B
102
}
330
3B
100
AcDbScale
 70
     0
300
1:5
140
1.0
141
5.0
290
     0
  0
SCALE
  5
40
102
{ACAD_REACTORS
330
3B
102
}
330
3B
100
AcDbScale
 70
     0
300
1:8
140
1.0
141
8.0
290
     0
  0
SCALE
  5
41
102
{ACAD_REACTORS
330
3B
102
}
330
3B
100
AcDbScale
 70
     0
300
1:10
140
1.0
141
10.0
290
     0
  0
SCALE
  5
42
102
{ACAD_REACTORS
330
3B
102
}
330
3B
100
AcDbScale
 70
     0
300
1:16
140
1.0
141
16.0
290
     0
  0
SCALE
  5
43
102
{ACAD_REACTORS
330
3B
102
}
330
3B
100
AcDbScale
 70
     0
300
1:20
140
1.0
141
20.0
290
     0
  0
SCALE
  5
44
102
{ACAD_REACTORS
330
3B
102
}
330
3B
100
AcDbScale
 70
     0
300
1:30
140
1.0
141
30.0
290
     0
  0
SCALE
  5
45
102
{ACAD_REACTORS
330
3B
102
}
330
3B
100
AcDbScale
 70
     0
300
1:40
140
1.0
141
40.0
290
     0
  0
SCALE
  5
46
102
{ACAD_REACTORS
330
3B
102
}
330
3B
100
AcDbScale
 70
     0
300
1:50
140
1.0
141
50.0
290
     0
  0
SCALE
  5
47
102
{ACAD_REACTORS
330
3B
102
}
330
3B
100
AcDbScale
 70
     0
300
1:100
140
1.0
141
100.0
290
     0
  0
SCALE
  5
48
102
{ACAD_REACTORS
330
3B
102
}
330
3B
100
AcDbScale
 70
     0
300
2:1
140
2.0
141
1.0
290
     0
  0
SCALE
  5
49
102
{ACAD_REACTORS
330
3B
102
}
330
3B
100
AcDbScale
 70
     0
300
4:1
140
4.0
141
1.0
290
     0
  0
SCALE
  5
4A
102
{ACAD_REACTORS
330
3B
102
}
330
3B
100
AcDbScale
 70
     0
300
8:1
140
8.0
141
1.0
290
     0
  0
SCALE
  5
4B
102
{ACAD_REACTORS
330
3B
102
}
330
3B
100
AcDbScale
 70
     0
300
10:1
140
10.0
141
1.0
290
     0
  0
SCALE
  5
4C
102
{ACAD_REACTORS
330
3B
102
}
330
3B
100
AcDbScale
 70
     0
300
100:1
140
100.0
141
1.0
290
     0
  0
SCALE
  5
4D
102
{ACAD_REACTORS
330
3B
102
}
330
3B
100
AcDbScale
 70
     0
300
1/128" = 1'-0"
140
0.007812
141
12.0
290
     0
  0
SCALE
  5
4E
102
{ACAD_REACTORS
330
3B
102
}
330
3B
100
AcDbScale
 70
     0
300
1/64" = 1'-0"
140
0.015625
141
12.0
290
     0
  0
SCALE
  5
4F
102
{ACAD_REACTORS
330
3B
102
}
330
3B
100
AcDbScale
 70
     0
300
1/32" = 1'-0"
140
0.03125
141
12.0
290
     0
  0
SCALE
  5
50
102
{ACAD_REACTORS
330
3B
102
}
330
3B
100
AcDbScale
 70
     0
300
1/16" = 1'-0"
140
0.0625
141
12.0
290
     0
  0
SCALE
  5
51
102
{ACAD_REACTORS
330
3B
102
}
330
3B
100
AcDbScale
 70
     0
300
3/32" = 1'-0"
140
0.09375
141
12.0
290
     0
  0
SCALE
  5
52
102
{ACAD_REACTORS
330
3B
102
}
330
3B
100
AcDbScale
 70
     0
300
1/8" = 1'-0"
140
0.125
141
12.0
290
     0
  0
SCALE
  5
53
102
{ACAD_REACTORS
330
3B
102
}
330
3B
100
AcDbScale
 70
     0
300
3/16" = 1'-0"
140
0.1875
141
12.0
290
     0
  0
SCALE
  5
54
102
{ACAD_REACTORS
330
3B
102
}
330
3B
100
AcDbScale
 70
     0
300
1/4" = 1'-0"
140
0.25
141
12.0
290
     0
  0
SCALE
  5
55
102
{ACAD_REACTORS
330
3B
102
}
330
3B
100
AcDbScale
 70
     0
300
3/8" = 1'-0"
140
0.375
141
12.0
290
     0
  0
SCALE
  5
56
102
{ACAD_REACTORS
330
3B
102
}
330
3B
100
AcDbScale
 70
     0
300
1/2" = 1'-0"
140
0.5
141
12.0
290
     0
  0
SCALE
  5
57
102
{ACAD_REACTORS
330
3B
102
}
330
3B
100
AcDbScale
 70
     0
300
3/4" = 1'-0"
140
0.75
141
12.0
290
     0
  0
SCALE
  5
58
102
{ACAD_REACTORS
330
3B
102
}
330
3B
100
AcDbScale
 70
     0
300
1" = 1'-0"
140
1.0
141
12.0
290
     0
  0
SCALE
  5
59
102
{ACAD_REACTORS
330
3B
102
}
330
3B
100
AcDbScale
 70
     0
300
1-1/2" = 1'-0"
140
1.5
141
12.0
290
     0
  0
SCALE
  5
5A
102
{ACAD_REACTORS
330
3B
102
}
330
3B
100
AcDbScale
 70
     0
300
3" = 1'-0"
140
3.0
141
12.0
290
     0
  0
SCALE
  5
5B
102
{ACAD_REACTORS
330
3B
102
}
330
3B
100
AcDbScale
 70
     0
300
6" = 1'-0"
140
6.0
141
12.0
290
     0
  0
SCALE
  5
5C
102
{ACAD_REACTORS
330
3B
102
}
330
3B
100
AcDbScale
 70
     0
300
1'-0" = 1'-0"
140
12.0
141
12.0
290
     0
  0
VISUALSTYLE
  5
2F
102
{ACAD_REACTORS
330
2A
102
}
330
2A
100
AcDbVisualStyle
  2
2dWireframe
 70
     4
 71
     0
 72
     2
 73
     0
 90
        0
 40
-0.6
 41
-30.0
 62
     5
 63
     7
 74
     1
 91
        4
 64
     7
 65
   257
 75
     1
175
     1
 42
1.0
 92
        0
 66
   257
 43
1.0
 76
     1
 77
     6
 78
     2
 67
     7
 79
     5
170
     0
171
     0
290
     0
174
     0
 93
        1
 44
0.0
173
     0
291
     0
 45
0.0
1001
ACAD
1000
AcDbSavedByObjectVersion
1070
     0
  0
VISUALSTYLE
  5
31
102
{ACAD_REACTORS
330
2A
102
}
330
2A
100
AcDbVisualStyle
  2
3D Hidden
 70
     6
 71
     1
 72
     2
 73
     2
 90
        0
 40
-0.6
 41
-30.0
 62
     5
 63
     7
 74
     2
 91
        2
 64
     7
 65
   257
 75
     2
175
     1
 42
40.0
 92
        0
 66
   257
 43
1.0
 76
     1
 77
     6
 78
     2
 67
     7
 79
     3
170
     0
171
     0
290
     0
174
     0
 93
        1
 44
0.0
173
     0
291
     0
 45
0.0
1001
ACAD
1000
AcDbSavedByObjectVersion
1070
     0
  0
VISUALSTYLE
  5
30
102
{ACAD_REACTORS
330
2A
102
}
330
2A
100
AcDbVisualStyle
  2
3dWireframe
 70
     5
 71
     0
 72
     2
 73
     0
 90
        0
 40
-0.6
 41
-30.0
 62
     5
 63
     7
 74
     1
 91
        4
 64
     7
 65
   257
 75
     1
175
     1
 42
1.0
 92
        0
 66
   257
 43
1.0
 76
     1
 77
     6
 78
     2
 67
     7
 79
     5
170
     0
171
     0
290
     0
174
     0
 93
        1
 44
0.0
173
     0
291
     0
 45
0.0
1001
ACAD
1000
AcDbSavedByObjectVersion
1070
     0
  0
VISUALSTYLE
  5
32
102
{ACAD_REACTORS
330
2A
102
}
330
2A
100
AcDbVisualStyle
  2
Basic
 70
     7
 71
     1
 72
     0
 73
     1
 90
        0
 40
-0.6
 41
-30.0
 62
     5
 63
     7
 74
     0
 91
        4
 64
     7
 65
   257
 75
     1
175
     1
 42
1.0
 92
        8
 66
     7
 43
1.0
 76
     1
 77
     6
 78
     2
 67
     7
 79
     5
170
     0
171
     0
290
     0
174
     0
 93
        1
 44
0.0
173
     0
291
     1
 45
0.0
1001
ACAD
1000
AcDbSavedByObjectVersion
1070
     0
  0
VISUALSTYLE
  5
36
102
{ACAD_REACTORS
330
2A
102
}
330
2A
100
AcDbVisualStyle
  2
Brighten
 70
    12
 71
     2
 72
     2
 73
     0
 90
        0
 40
-0.6
 41
-30.0
 62
     5
 63
     7
 74
     1
 91
        4
 64
     7
 65
   257
 75
     1
175
     1
 42
1.0
 92
        8
 66
     7
 43
1.0
 76
     1
 77
     6
 78
     2
 67
     7
 79
     5
170
     0
171
     0
290
     0
174
     0
 93
        1
 44
50.0
173
     0
291
     1
 45
0.0
1001
ACAD
1000
AcDbSavedByObjectVersion
1070
     0
  0
VISUALSTYLE
  5
3A
102
{ACAD_REACTORS
330
2A
102
}
330
2A
100
AcDbVisualStyle
  2
ColorChange
 70
    16
 71
     2
 72
     2
 73
     3
 90
        0
 40
-0.6
 41
-30.0
 62
     5
 63
     8
 74
     1
 91
        4
 64
     7
 65
   257
 75
     1
175
     1
 42
1.0
 92
        8
 66
     8
 43
1.0
 76
     1
 77
     6
 78
     2
 67
     7
 79
     5
170
     0
171
     0
290
     0
174
     0
 93
        1
 44
0.0
173
     0
291
     1
 45
0.0
1001
ACAD
1000
AcDbSavedByObjectVersion
1070
     0
  0
VISUALSTYLE
  5
34
102
{ACAD_REACTORS
330
2A
102
}
330
2A
100
AcDbVisualStyle
  2
Conceptual
 70
     9
 71
     3
 72
     2
 73
     0
 90
        0
 40
-0.6
 41
-30.0
 62
     5
 63
     7
 74
     2
 91
        2
 64
     7
 65
   257
 75
     1
175
     1
 42
40.0
 92
        8
 66
     7
 43
1.0
 76
     1
 77
     6
 78
     2
 67
     7
 79
     3
170
     0
171
     0
290
     0
174
     0
 93
        1
 44
0.0
173
     0
291
     0
 45
0.0
1001
ACAD
1000
AcDbSavedByObjectVersion
1070
     0
  0
VISUALSTYLE
  5
35
102
{ACAD_REACTORS
330
2A
102
}
330
2A
100
AcDbVisualStyle
  2
Dim
 70
    11
 71
     2
 72
     2
 73
     0
 90
        0
 40
-0.6
 41
-30.0
 62
     5
 63
     7
 74
     1
 91
        4
 64
     7
 65
   257
 75
     1
175
     1
 42
1.0
 92
        8
 66
     7
 43
1.0
 76
     1
 77
     6
 78
     2
 67
     7
 79
     5
170
     0
171
     0
290
     0
174
     0
 93
        1
 44
-50.0
173
     0
291
     1
 45
0.0
1001
ACAD
1000
AcDbSavedByObjectVersion
1070
     0
  0
VISUALSTYLE
  5
39
102
{ACAD_REACTORS
330
2A
102
}
330
2A
100
AcDbVisualStyle
  2
Facepattern
 70
    15
 71
     2
 72
     2
 73
     0
 90
        0
 40
-0.6
 41
-30.0
 62
     5
 63
     7
 74
     1
 91
        4
 64
     7
 65
   257
 75
     1
175
     1
 42
1.0
 92
        8
 66
     7
 43
1.0
 76
     1
 77
     6
 78
     2
 67
     7
 79
     5
170
     0
171
     0
290
     0
174
     0
 93
        1
 44
0.0
173
     0
291
     1
 45
0.0
1001
ACAD
1000
AcDbSavedByObjectVersion
1070
     0
  0
VISUALSTYLE
  5
2B
102
{ACAD_REACTORS
330
2A
102
}
330
2A
100
AcDbVisualStyle
  2
Flat
 70
     0
 71
     2
 72
     1
 73
     1
 90
        2
 40
-0.6
 41
30.0
 62
     5
 63
     7
 74
     0
 91
        4
 64
     7
 65
   257
 75
     1
175
     1
 42
1.0
 92
        8
 66
     7
 43
1.0
 76
     1
 77
     6
 78
     2
 67
     7
 79
     5
170
     0
171
     0
290
     0
174
     0
 93
       13
 44
0.0
173
     0
291
     1
 45
0.0
1001
ACAD
1000
AcDbSavedByObjectVersion
1070
     0
  0
VISUALSTYLE
  5
2C
102
{ACAD_REACTORS
330
2A
102
}
330
2A
100
AcDbVisualStyle
  2
FlatWithEdges
 70
     1
 71
     2
 72
     1
 73
     1
 90
        2
 40
-0.6
 41
30.0
 62
     5
 63
     7
 74
     1
 91
        4
 64
     7
 65
   257
 75
     1
175
     1
 42
1.0
 92
        0
 66
   257
 43
1.0
 76
     1
 77
     6
 78
     2
 67
     7
 79
     5
170
     0
171
     0
290
     0
174
     0
 93
       13
 44
0.0
173
     0
291
     1
 45
0.0
1001
ACAD
1000
AcDbSavedByObjectVersion
1070
     0
  0
VISUALSTYLE
  5
2D
102
{ACAD_REACTORS
330
2A
102
}
330
2A
100
AcDbVisualStyle
  2
Gouraud
 70
     2
 71
     2
 72
     2
 73
     1
 90
        2
 40
-0.6
 41
30.0
 62
     5
 63
     7
 74
     0
 91
        4
 64
     7
 65
   257
 75
     1
175
     1
 42
1.0
 92
        0
 66
     7
 43
1.0
 76
     1
 77
     6
 78
     2
 67
     7
 79
     5
170
     0
171
     0
290
     0
174
     0
 93
       13
 44
0.0
173
     0
291
     1
 45
0.0
1001
ACAD
1000
AcDbSavedByObjectVersion
1070
     0
  0
VISUALSTYLE
  5
2E
102
{ACAD_REACTORS
330
2A
102
}
330
2A
100
AcDbVisualStyle
  2
GouraudWithEdges
 70
     3
 71
     2
 72
     2
 73
     1
 90
        2
 40
-0.6
 41
30.0
 62
     5
 63
     7
 74
     1
 91
        4
 64
     7
 65
   257
 75
     1
175
     1
 42
1.0
 92
        0
 66
   257
 43
1.0
 76
     1
 77
     6
 78
     2
 67
     7
 79
     5
170
     0
171
     0
290
     0
174
     0
 93
       13
 44
0.0
173
     0
291
     1
 45
0.0
1001
ACAD
1000
AcDbSavedByObjectVersion
1070
     0
  0
VISUALSTYLE
  5
38
102
{ACAD_REACTORS
330
2A
102
}
330
2A
100
AcDbVisualStyle
  2
Linepattern
 70
    14
 71
     2
 72
     2
 73
     0
 90
        0
 40
-0.6
 41
-30.0
 62
     5
 63
     7
 74
     1
 91
        4
 64
     7
 65
   257
 75
     7
175
     7
 42
1.0
 92
        8
 66
     7
 43
1.0
 76
     1
 77
     6
 78
     2
 67
     7
 79
     5
170
     0
171
     0
290
     0
174
     0
 93
        1
 44
0.0
173
     0
291
     1
 45
0.0
1001
ACAD
1000
AcDbSavedByObjectVersion
1070
     0
  0
VISUALSTYLE
  5
33
102
{ACAD_REACTORS
330
2A
102
}
330
2A
100
AcDbVisualStyle
  2
Realistic
 70
     8
 71
     2
 72
     2
 73
     0
 90
        0
 40
-0.6
 41
-30.0
 62
     5
 63
     7
 74
     1
 91
        0
 64
     7
 65
   257
 75
     1
175
     1
 42
1.0
 92
        8
 66
     8
 43
1.0
 76
     1
 77
     6
 78
     2
 67
     7
 79
     5
170
     0
171
     0
290
     0
174
     0
 93
       13
 44
0.0
173
     0
291
     0
 45
0.0
1001
ACAD
1000
AcDbSavedByObjectVersion
1070
     0
  0
VISUALSTYLE
  5
37
102
{ACAD_REACTORS
330
2A
102
}
330
2A
100
AcDbVisualStyle
  2
Thicken
 70
    13
 71
     2
 72
     2
 73
     0
 90
        0
 40
-0.6
 41
-30.0
 62
     5
 63
     7
 74
     1
 91
        4
 64
     7
 65
   257
 75
     1
175
     1
 42
1.0
 92
       12
 66
     7
 43
1.0
 76
     1
 77
     6
 78
     2
 67
     7
 79
     5
170
     0
171
     0
290
     0
174
     0
 93
        1
 44
0.0
173
     0
291
     1
 45
0.0
1001
ACAD
1000
AcDbSavedByObjectVersion
1070
     0
  0
DICTIONARYVAR
  5
4F4
102
{ACAD_REACTORS
330
4F3
102
}
330
4F3
100
DictionaryVariables
280
     0
  1
1:1
  0
DICTIONARYVAR
  5
4F8
102
{ACAD_REACTORS
330
4F3
102
}
330
4F3
100
DictionaryVariables
280
     0
  1
80.000000
  0
DICTIONARYVAR
  5
4F7
102
{ACAD_REACTORS
330
4F3
102
}
330
4F3
100
DictionaryVariables
280
     0
  1
5.000000
  0
ENDSEC
  0
EOF
