  0
SECTION
  2
HEADER
  9
$ACADVER
  1
AC1009
  9
$INSBASE
 10
0.0
 20
0.0
 30
0.0
  9
$EXTMIN
 10
13.48663399999999
 20
2.4004199999999991
 30
0.0
  9
$EXTMAX
 10
133.80213699999999
 20
85.199826000000044
 30
0.0
  9
$LIMMIN
 10
0.0
 20
0.0
  9
$LIMMAX
 10
12.0
 20
9.0
  9
$ORTHOMODE
 70
     0
  9
$REGENMODE
 70
     1
  9
$FILLMODE
 70
     1
  9
$QTEXTMODE
 70
     0
  9
$MIRRTEXT
 70
     1
  9
$DRAGMODE
 70
     2
  9
$LTSCALE
 40
2.0191469999999998
  9
$OSMODE
 70
    37
  9
$ATTMODE
 70
     1
  9
$TEXTSIZE
 40
0.2
  9
$TRACEWID
 40
1.0
  9
$TEXTSTYLE
  7
STANDARD
  9
$CLAYER
  8
0
  9
$CELTYPE
  6
BYLAYER
  9
$CECOLOR
 62
   256
  9
$DIMSCALE
 40
1.0
  9
$DIMASZ
 40
2.5
  9
$DIMEXO
 40
0.625
  9
$DIMDLI
 40
3.75
  9
$DIMRND
 40
0.0
  9
$DIMDLE
 40
0.0
  9
$DIMEXE
 40
1.25
  9
$DIMTP
 40
0.0
  9
$DIMTM
 40
0.0
  9
$DIMTXT
 40
2.5
  9
$DIMCEN
 40
0.09
  9
$DIMTSZ
 40
0.0
  9
$DIMTOL
 70
     0
  9
$DIMLIM
 70
     0
  9
$DIMTIH
 70
     0
  9
$DIMTOH
 70
     0
  9
$DIMSE1
 70
     0
  9
$DIMSE2
 70
     0
  9
$DIMTAD
 70
     0
  9
$DIMZIN
 70
     8
  9
$DIMBLK
  1

  9
$DIMASO
 70
     1
  9
$DIMSHO
 70
     0
  9
$DIMPOST
  1

  9
$DIMAPOST
  1

  9
$DIMALT
 70
     0
  9
$DIMALTD
 70
     3
  9
$DIMALTF
 40
0.03937
  9
$DIMLFAC
 40
1.0
  9
$DIMTOFL
 70
     1
  9
$DIMTVP
 40
0.0
  9
$DIMTIX
 70
     0
  9
$DIMSOXD
 70
     0
  9
$DIMSAH
 70
     0
  9
$DIMBLK1
  1

  9
$DIMBLK2
  1

  9
$DIMSTYLE
  2
ISO-25
  9
$DIMCLRD
 70
     0
  9
$DIMCLRE
 70
     0
  9
$DIMCLRT
 70
     0
  9
$DIMTFAC
 40
1.0
  9
$DIMGAP
 40
0.625
  9
$LUNITS
 70
     2
  9
$LUPREC
 70
     4
  9
$SKETCHINC
 40
1.0
  9
$FILLETRAD
 40
0.0
  9
$AUNITS
 70
     0
  9
$AUPREC
 70
     0
  9
$MENU
  1
.
  9
$ELEVATION
 40
0.0
  9
$PELEVATION
 40
0.0
  9
$THICKNESS
 40
0.0
  9
$LIMCHECK
 70
     0
  9
$BLIPMODE
 70
     0
  9
$CHAMFERA
 40
10.0
  9
$CHAMFERB
 40
10.0
  9
$SKPOLY
 70
     0
  9
$TDCREATE
 40
2454664.7175929509
  9
$TDUPDATE
 40
2454664.7299222341
  9
$TDINDWG
 40
0.0027499306
  9
$TDUSRTIMER
 40
0.0027499306
  9
$USRTIMER
 70
     1
  9
$ANGBASE
 50
0.0
  9
$ANGDIR
 70
     0
  9
$PDMODE
 70
     0
  9
$PDSIZE
 40
0.0
  9
$PLINEWID
 40
0.0
  9
$COORDS
 70
     1
  9
$SPLFRAME
 70
     0
  9
$SPLINETYPE
 70
     6
  9
$SPLINESEGS
 70
     8
  9
$ATTDIA
 70
     0
  9
$ATTREQ
 70
     1
  9
$HANDLING
 70
     1
  9
$HANDSEED
  5
189
  9
$SURFTAB1
 70
     6
  9
$SURFTAB2
 70
     6
  9
$SURFTYPE
 70
     6
  9
$SURFU
 70
     6
  9
$SURFV
 70
     6
  9
$UCSNAME
  2

  9
$UCSORG
 10
0.0
 20
0.0
 30
0.0
  9
$UCSXDIR
 10
1.0
 20
0.0
 30
0.0
  9
$UCSYDIR
 10
0.0
 20
1.0
 30
0.0
  9
$PUCSNAME
  2

  9
$PUCSORG
 10
0.0
 20
0.0
 30
0.0
  9
$PUCSXDIR
 10
1.0
 20
0.0
 30
0.0
  9
$PUCSYDIR
 10
0.0
 20
1.0
 30
0.0
  9
$USERI1
 70
     0
  9
$USERI2
 70
     0
  9
$USERI3
 70
     0
  9
$USERI4
 70
     0
  9
$USERI5
 70
     0
  9
$USERR1
 40
0.0
  9
$USERR2
 40
0.0
  9
$USERR3
 40
0.0
  9
$USERR4
 40
0.0
  9
$USERR5
 40
0.0
  9
$WORLDVIEW
 70
     1
  9
$SHADEDGE
 70
     3
  9
$SHADEDIF
 70
    70
  9
$TILEMODE
 70
     1
  9
$MAXACTVP
 70
    64
  9
$PLIMCHECK
 70
     0
  9
$PEXTMIN
 10
1.0000000000000000E+020
 20
1.0000000000000000E+020
 30
0.0
  9
$PEXTMAX
 10
-1.0000000000000000E+020
 20
-1.0000000000000000E+020
 30
0.0
  9
$PLIMMIN
 10
0.0
 20
0.0
  9
$PLIMMAX
 10
12.0
 20
9.0
  9
$UNITMODE
 70
     0
  9
$VISRETAIN
 70
     1
  9
$PLINEGEN
 70
     0
  9
$PSLTSCALE
 70
     1
  0
ENDSEC
  0
SECTION
  2
TABLES
  0
TABLE
  2
VPORT
 70
     3
  0
VPORT
  2
*ACTIVE
 70
     0
 10
0.0
 20
0.0
 11
1.0
 21
1.0
 12
62.567807526658981
 22
43.874614978618517
 13
0.0
 23
0.0
 14
1.0
 24
1.0
 15
0.0
 25
0.0
 16
0.0
 26
0.0
 36
1.0
 17
0.0
 27
0.0
 37
0.0
 40
172.97038869727561
 41
1.2818627450980391
 42
50.0
 43
0.0
 44
0.0
 50
0.0
 51
0.0
 71
     0
 72
   100
 73
     1
 74
     3
 75
     0
 76
     0
 77
     0
 78
     0
  0
ENDTAB
  0
TABLE
  2
LTYPE
 70
     5
  0
LTYPE
  2
CONTINUOUS
 70
     0
  3
Solid line
 72
    65
 73
     0
 40
0.0
  0
LTYPE
  2
DASHED
 70
     0
  3
DASHED
 72
    83
 73
     2
 40
0.75
 49
0.5
 49
-0.25
  0
LTYPE
  2
HIDDEN
 70
     0
  3
HIDDEN
 72
    83
 73
     2
 40
0.375
 49
0.25
 49
-0.125
  0
LTYPE
  2
CENTER
 70
     0
  3
CENTER
 72
    83
 73
     4
 40
2.0
 49
1.25
 49
-0.25
 49
0.25
 49
-0.25
  0
LTYPE
  2
PHANTOM
 70
     0
  3
PHANTOM
 72
    83
 73
     6
 40
2.5
 49
1.25
 49
-0.25
 49
0.25
 49
-0.25
 49
0.25
 49
-0.25
  0
ENDTAB
  0
TABLE
  2
LAYER
 70
     2
  0
LAYER
  2
0
 70
     0
 62
     7
  6
CONTINUOUS
  0
LAYER
  2
001
 70
     0
 62
     7
  6
CONTINUOUS
  0
ENDTAB
  0
TABLE
  2
STYLE
 70
     2
  0
STYLE
  2
STANDARD
 70
     0
 40
0.0
 41
1.0
 50
0.0
 71
     0
 42
0.2
  3
TXT
  4
BIGFONT
  0
STYLE
  2
TATEGAKI
 70
     4
 40
1.0
 41
1.0
 50
0.0
 71
     0
 42
0.2
  3
TXT
  4
BIGFONT
  0
ENDTAB
  0
TABLE
  2
VIEW
 70
     0
  0
ENDTAB
  0
TABLE
  2
UCS
 70
     0
  0
ENDTAB
  0
TABLE
  2
APPID
 70
     1
  0
APPID
  2
ACAD
 70
     0
  0
ENDTAB
  0
TABLE
  2
DIMSTYLE
 70
     2
  0
DIMSTYLE
  2
ISO-25
 70
     0
  3

  4

  5

  6

  7

 40
1.0
 41
2.5
 42
0.625
 43
3.75
 44
1.25
 45
0.0
 46
0.0
 47
0.0
 48
0.0
140
2.5
141
2.5
142
0.0
143
0.03937
144
1.0
145
0.0
146
1.0
147
0.625
 71
     0
 72
     0
 73
     0
 74
     0
 75
     0
 76
     0
 77
     1
 78
     8
170
     0
171
     3
172
     1
173
     0
174
     0
175
     0
176
     0
177
     0
178
     0
  0
DIMSTYLE
  2
STANDARD
 70
     0
  3

  4

  5

  6

  7

 40
1.0
 41
1.5
 42
0.0
 43
0.38
 44
0.5
 45
0.0
 46
0.0
 47
0.0
 48
0.0
140
4.0
141
0.09
142
0.0
143
25.399999999999999
144
1.0
145
0.0
146
0.8
147
1.0
 71
     0
 72
     0
 73
     0
 74
     0
 75
     0
 76
     0
 77
     1
 78
     8
170
     0
171
     2
172
     1
173
     0
174
     0
175
     0
176
     0
177
     0
178
     0
  0
ENDTAB
  0
ENDSEC
  0
SECTION
  2
BLOCKS
  0
BLOCK
  8
0
  2
$MODEL_SPACE
 70
     0
 10
0.0
 20
0.0
 30
0.0
  3
$MODEL_SPACE
  1

  0
ENDBLK
  5
21
  8
0
  0
BLOCK
 67
     1
  8
0
  2
$PAPER_SPACE
 70
     0
 10
0.0
 20
0.0
 30
0.0
  3
$PAPER_SPACE
  1

  0
ENDBLK
  5
1D
 67
     1
  8
0
  0
BLOCK
  8
0
  2
*D1
 70
     1
 10
0.0
 20
0.0
 30
0.0
  3
*D1
  1

  0
LINE
  5
67
  8
001
 10
71.180266000000003
 20
48.303583000000003
 30
0.0
 11
71.180266000000003
 21
12.420111
 31
0.0
  0
LINE
  5
68
  8
001
 10
42.180265999999989
 20
52.774939000000003
 30
0.0
 11
42.180265999999989
 21
12.420111
 31
0.0
  0
LINE
  5
69
  8
001
 10
71.180266000000003
 20
12.920111
 30
0.0
 11
42.180265999999989
 21
12.920111
 31
0.0
  0
POLYLINE
  5
6A
  8
001
 66
     1
 10
0.0
 20
0.0
 30
0.0
  0
VERTEX
  5
6C
  8
001
 10
69.680266000000003
 20
13.322034
 30
0.0
  0
VERTEX
  5
6D
  8
001
 10
71.180266000000003
 20
12.920111
 30
0.0
  0
VERTEX
  5
6E
  8
001
 10
69.680266000000003
 20
12.518186999999999
 30
0.0
  0
SEQEND
  5
6B
  8
001
  0
POLYLINE
  5
6F
  8
001
 66
     1
 10
0.0
 20
0.0
 30
0.0
  0
VERTEX
  5
71
  8
001
 10
43.680265999999989
 20
12.518186999999999
 30
0.0
  0
VERTEX
  5
72
  8
001
 10
42.180265999999989
 20
12.920111
 30
0.0
  0
VERTEX
  5
73
  8
001
 10
43.680265999999989
 20
13.322034
 30
0.0
  0
SEQEND
  5
70
  8
001
  0
TEXT
  5
74
  8
001
 10
52.680266000000003
 20
13.920111
 30
0.0
 40
4.0
  1
２９
 41
0.833333
  0
POINT
  5
75
  8
001
 10
71.180266000000003
 20
48.303583000000003
 30
0.0
  0
POINT
  5
76
  8
001
 10
42.180265999999989
 20
52.774939000000003
 30
0.0
  0
POINT
  5
77
  8
001
 10
42.180265999999989
 20
12.920111
 30
0.0
  0
ENDBLK
  5
66
  8
0
  0
BLOCK
  8
0
  2
*D2
 70
     1
 10
0.0
 20
0.0
 30
0.0
  3
*D2
  1

  0
LINE
  5
7B
  8
001
 10
116.180266
 20
48.80358300000001
 30
0.0
 11
116.180266
 21
12.420111
 31
0.0
  0
LINE
  5
7C
  8
001
 10
71.180266000000003
 20
48.303583000000003
 30
0.0
 11
71.180266000000003
 21
12.420111
 31
0.0
  0
LINE
  5
7D
  8
001
 10
116.180266
 20
12.920111
 30
0.0
 11
71.180266000000003
 21
12.920111
 31
0.0
  0
POLYLINE
  5
7E
  8
001
 66
     1
 10
0.0
 20
0.0
 30
0.0
  0
VERTEX
  5
80
  8
001
 10
114.680266
 20
13.322034
 30
0.0
  0
VERTEX
  5
81
  8
001
 10
116.180266
 20
12.920111
 30
0.0
  0
VERTEX
  5
82
  8
001
 10
114.680266
 20
12.518186999999999
 30
0.0
  0
SEQEND
  5
7F
  8
001
  0
POLYLINE
  5
83
  8
001
 66
     1
 10
0.0
 20
0.0
 30
0.0
  0
VERTEX
  5
85
  8
001
 10
72.680266000000003
 20
12.518186999999999
 30
0.0
  0
VERTEX
  5
86
  8
001
 10
71.180266000000003
 20
12.920111
 30
0.0
  0
VERTEX
  5
87
  8
001
 10
72.680266000000003
 20
13.322034
 30
0.0
  0
SEQEND
  5
84
  8
001
  0
TEXT
  5
88
  8
001
 10
89.680265999999989
 20
13.920111
 30
0.0
 40
4.0
  1
４５
 41
0.833333
  0
POINT
  5
89
  8
001
 10
116.180266
 20
48.80358300000001
 30
0.0
  0
POINT
  5
8A
  8
001
 10
71.180266000000003
 20
48.303583000000003
 30
0.0
  0
POINT
  5
8B
  8
001
 10
71.180266000000003
 20
12.920111
 30
0.0
  0
ENDBLK
  5
7A
  8
0
  0
BLOCK
  8
0
  2
*D3
 70
     1
 10
0.0
 20
0.0
 30
0.0
  3
*D3
  1

  0
LINE
  5
8F
  8
001
 10
42.180265999999989
 20
12.920111
 30
0.0
 11
42.180265999999989
 21
2.4004199999999991
 31
0.0
  0
LINE
  5
90
  8
001
 10
116.180266
 20
48.80358300000001
 30
0.0
 11
116.180266
 21
2.4004199999999991
 31
0.0
  0
LINE
  5
91
  8
001
 10
42.180265999999989
 20
2.90042
 30
0.0
 11
116.180266
 21
2.90042
 31
0.0
  0
POLYLINE
  5
92
  8
001
 66
     1
 10
0.0
 20
0.0
 30
0.0
  0
VERTEX
  5
94
  8
001
 10
43.680265999999989
 20
2.4984959999999989
 30
0.0
  0
VERTEX
  5
95
  8
001
 10
42.180265999999989
 20
2.90042
 30
0.0
  0
VERTEX
  5
96
  8
001
 10
43.680265999999989
 20
3.3023440000000002
 30
0.0
  0
SEQEND
  5
93
  8
001
  0
POLYLINE
  5
97
  8
001
 66
     1
 10
0.0
 20
0.0
 30
0.0
  0
VERTEX
  5
99
  8
001
 10
114.680266
 20
3.3023440000000002
 30
0.0
  0
VERTEX
  5
9A
  8
001
 10
116.180266
 20
2.90042
 30
0.0
  0
VERTEX
  5
9B
  8
001
 10
114.680266
 20
2.4984959999999989
 30
0.0
  0
SEQEND
  5
98
  8
001
  0
TEXT
  5
9C
  8
001
 10
75.180266000000003
 20
3.9004199999999991
 30
0.0
 40
4.0
  1
７４
 41
0.833333
  0
POINT
  5
9D
  8
001
 10
42.180265999999989
 20
12.920111
 30
0.0
  0
POINT
  5
9E
  8
001
 10
116.180266
 20
48.80358300000001
 30
0.0
  0
POINT
  5
9F
  8
001
 10
116.180266
 20
2.90042
 30
0.0
  0
ENDBLK
  5
8E
  8
0
  0
BLOCK
  8
0
  2
*D4
 70
     1
 10
0.0
 20
0.0
 30
0.0
  3
*D4
  1

  0
LINE
  5
A3
  8
001
 10
49.672277999999999
 20
37.903583000000012
 30
0.0
 11
59.416175000000003
 21
21.026658000000001
 31
0.0
  0
ARC
  5
A4
  8
001
 10
42.180265999999989
 20
50.880128000000013
 30
0.0
 40
33.971818632362833
 50
270.0
 51
300.0
  0
POLYLINE
  5
A5
  8
001
 66
     1
 10
0.0
 20
0.0
 30
0.0
  0
VERTEX
  5
A7
  8
001
 10
57.657668000000008
 20
21.090958000000001
 30
0.0
  0
VERTEX
  5
A8
  8
001
 10
59.166175000000003
 20
21.459669999999999
 30
0.0
  0
VERTEX
  5
A9
  8
001
 10
58.044125999999999
 20
20.386102000000001
 30
0.0
  0
SEQEND
  5
A6
  8
001
  0
POLYLINE
  5
AA
  8
001
 66
     1
 10
0.0
 20
0.0
 30
0.0
  0
VERTEX
  5
AC
  8
001
 10
43.688772999999998
 20
16.539597000000001
 30
0.0
  0
VERTEX
  5
AD
  8
001
 10
42.180265999999989
 20
16.90831
 30
0.0
  0
VERTEX
  5
AE
  8
001
 10
43.671028
 20
17.343249
 30
0.0
  0
SEQEND
  5
AB
  8
001
  0
TEXT
  5
AF
  8
001
 10
44.918446000000003
 20
17.478883
 30
0.0
 40
4.0
  1
３０%%d
 50
15.0
 41
0.9782610000000001
  0
POINT
  5
B0
  8
001
 10
49.672277999999999
 20
37.903583000000012
 30
0.0
  0
POINT
  5
B1
  8
001
 10
42.180265999999989
 20
50.880128000000013
 30
0.0
  0
POINT
  5
B2
  8
001
 10
42.180265999999989
 20
50.880128000000013
 30
0.0
  0
POINT
  5
B3
  8
001
 10
42.180265999999989
 20
17.40831
 30
0.0
  0
ENDBLK
  5
A2
  8
0
  0
BLOCK
  8
0
  2
*D5
 70
     1
 10
0.0
 20
0.0
 30
0.0
  3
*D5
  1

  0
LINE
  5
B7
  8
001
 10
42.663245999999987
 20
31.011574
 30
0.0
 11
42.663245999999987
 21
23.27732
 31
0.0
  0
LINE
  5
B8
  8
001
 10
42.663245999999987
 20
23.77732
 30
0.0
 11
42.180265999999989
 21
23.77732
 31
0.0
  0
POLYLINE
  5
B9
  8
001
 66
     1
 10
0.0
 20
0.0
 30
0.0
  0
VERTEX
  5
BB
  8
001
 10
44.163246000000001
 20
23.375395999999999
 30
0.0
  0
VERTEX
  5
BC
  8
001
 10
42.663245999999987
 20
23.77732
 30
0.0
  0
VERTEX
  5
BD
  8
001
 10
44.163246000000001
 20
24.179243
 30
0.0
  0
SEQEND
  5
BA
  8
001
  0
POLYLINE
  5
BE
  8
001
 66
     1
 10
0.0
 20
0.0
 30
0.0
  0
VERTEX
  5
C0
  8
001
 10
40.680265999999989
 20
24.179243
 30
0.0
  0
VERTEX
  5
C1
  8
001
 10
42.180265999999989
 20
23.77732
 30
0.0
  0
VERTEX
  5
C2
  8
001
 10
40.680265999999989
 20
23.375395999999999
 30
0.0
  0
SEQEND
  5
BF
  8
001
  0
TEXT
  5
C3
  8
001
 10
26.680266
 20
24.77732
 30
0.0
 40
4.0
  1
０．５
 41
0.833333
  0
POINT
  5
C4
  8
001
 10
42.663245999999987
 20
31.011574
 30
0.0
  0
POINT
  5
C5
  8
001
 10
42.180265999999989
 20
24.27732
 30
0.0
  0
POINT
  5
C6
  8
001
 10
42.180265999999989
 20
23.77732
 30
0.0
  0
LINE
  5
C7
  8
001
 10
42.663245999999987
 20
23.77732
 30
0.0
 11
45.163245999999987
 21
23.77732
 31
0.0
  0
LINE
  5
C8
  8
001
 10
42.180265999999989
 20
23.77732
 30
0.0
 11
23.680266
 21
23.77732
 31
0.0
  0
ENDBLK
  5
B6
  8
0
  0
BLOCK
  8
0
  2
*D6
 70
     1
 10
0.0
 20
0.0
 30
0.0
  3
*D6
  1

  0
LINE
  5
CC
  8
001
 10
115.180266
 20
47.803583000000003
 30
0.0
 11
133.80213699999999
 21
47.803583000000003
 31
0.0
  0
LINE
  5
CD
  8
001
 10
115.180266
 20
57.803582999999989
 30
0.0
 11
133.80213699999999
 21
57.803582999999989
 31
0.0
  0
LINE
  5
CE
  8
001
 10
133.30213699999999
 20
47.803583000000003
 30
0.0
 11
133.30213699999999
 21
57.803582999999989
 31
0.0
  0
POLYLINE
  5
CF
  8
001
 66
     1
 10
0.0
 20
0.0
 30
0.0
  0
VERTEX
  5
D1
  8
001
 10
132.90021300000001
 20
46.303583000000003
 30
0.0
  0
VERTEX
  5
D2
  8
001
 10
133.30213699999999
 20
47.803583000000003
 30
0.0
  0
VERTEX
  5
D3
  8
001
 10
133.70406
 20
46.303583000000003
 30
0.0
  0
SEQEND
  5
D0
  8
001
  0
POLYLINE
  5
D4
  8
001
 66
     1
 10
0.0
 20
0.0
 30
0.0
  0
VERTEX
  5
D6
  8
001
 10
133.70406
 20
59.303582999999989
 30
0.0
  0
VERTEX
  5
D7
  8
001
 10
133.30213699999999
 20
57.803582999999989
 30
0.0
  0
VERTEX
  5
D8
  8
001
 10
132.90021300000001
 20
59.303582999999989
 30
0.0
  0
SEQEND
  5
D5
  8
001
  0
TEXT
  5
D9
  8
001
 10
132.30213699999999
 20
31.139949000000001
 30
0.0
 40
4.0
  1
%%c１０
 50
90.000003000000007
 41
0.8823529999999999
  0
POINT
  5
DA
  8
001
 10
115.180266
 20
47.803583000000003
 30
0.0
  0
POINT
  5
DB
  8
001
 10
115.180266
 20
57.803582999999989
 30
0.0
  0
POINT
  5
DC
  8
001
 10
133.30213699999999
 20
57.803582999999989
 30
0.0
  0
LINE
  5
DD
  8
001
 10
133.30213699999999
 20
47.803583000000003
 30
0.0
 11
133.30213699999999
 21
28.139949000000001
 31
0.0
  0
LINE
  5
DE
  8
001
 10
133.30213699999999
 20
57.803582999999989
 30
0.0
 11
133.30213699999999
 21
60.303582999999989
 31
0.0
  0
ENDBLK
  5
CB
  8
0
  0
ENDSEC
  0
SECTION
  2
ENTITIES
  0
DIMENSION
  5
DF
  8
001
  2
*D1
 10
42.180265999999989
 20
12.920111
 30
0.0
 11
56.68026600000001
 21
15.920111
 31
0.0
 70
   128
 13
71.180266000000003
 23
48.303583000000003
 33
0.0
 14
42.180265999999989
 24
52.774939000000003
 34
0.0
 50
180.0
  0
DIMENSION
  5
E0
  8
001
  2
*D2
 10
71.180266000000003
 20
12.920111
 30
0.0
 11
93.680266000000003
 21
15.920111
 31
0.0
 70
   128
 13
116.180266
 23
48.80358300000001
 33
0.0
 14
71.180266000000003
 24
48.303583000000003
 34
0.0
 50
180.0
  0
DIMENSION
  5
E1
  8
001
  2
*D3
 10
116.180266
 20
2.90042
 30
0.0
 11
79.180266000000003
 21
5.9004199999999987
 31
0.0
 70
   128
 13
42.180265999999989
 23
12.920111
 33
0.0
 14
116.180266
 24
48.80358300000001
 34
0.0
  0
DIMENSION
  5
E2
  8
001
  2
*D4
 10
42.180265999999989
 20
50.880128000000013
 30
0.0
 11
50.196362999999998
 21
20.963649
 31
0.0
 70
     2
 13
49.672277999999999
 23
37.903583000000012
 33
0.0
 14
42.180265999999989
 24
50.880128000000013
 34
0.0
 15
42.180265999999989
 25
17.40831
 35
0.0
 16
50.972819999999992
 26
18.065870999999991
 36
0.0
  0
DIMENSION
  5
E3
  8
001
  2
*D5
 10
42.180265999999989
 20
23.77732
 30
0.0
 11
32.680266000000003
 21
26.77732
 31
0.0
 70
   128
 13
42.663245999999987
 23
31.011574
 33
0.0
 14
42.180265999999989
 24
24.27732
 34
0.0
 50
180.0
  0
TEXT
  5
E4
  8
001
 10
29.758832999999999
 20
38.162428000000013
 30
0.0
 40
4.0
  1
（%%c５．５２）
 50
90.000003000000007
 41
0.853659
  0
POLYLINE
  5
E5
  8
001
 66
     1
 10
0.0
 20
0.0
 30
0.0
  0
VERTEX
  5
E7
  8
001
 10
31.160757
 20
51.543582999999998
 30
0.0
  0
VERTEX
  5
E8
  8
001
 10
30.758832999999999
 20
50.043582999999991
 30
0.0
  0
VERTEX
  5
E9
  8
001
 10
30.356909999999999
 20
51.543582999999998
 30
0.0
  0
SEQEND
  5
E6
  8
001
  0
LINE
  5
EA
  8
001
 10
30.758832999999999
 20
55.563582999999987
 30
0.0
 11
30.758832999999999
 21
50.043582999999991
 31
0.0
  0
POLYLINE
  5
EB
  8
001
 66
     1
 10
0.0
 20
0.0
 30
0.0
  0
VERTEX
  5
ED
  8
001
 10
38.727730000000001
 20
50.043582999999991
 30
0.0
  0
VERTEX
  5
EE
  8
001
 10
30.758832999999999
 20
50.043582999999991
 30
0.0
  0
VERTEX
  5
EF
  8
001
 10
30.258832999999999
 20
50.043582999999991
 30
0.0
  0
SEQEND
  5
EC
  8
001
  0
DIMENSION
  5
F0
  8
001
  2
*D6
 10
133.30213699999999
 20
57.803582999999989
 30
0.0
 11
130.30213599999999
 21
37.139949000000001
 31
0.0
 70
   128
 13
115.180266
 23
47.803583000000003
 33
0.0
 14
115.180266
 24
57.803582999999989
 34
0.0
 50
90.0
  0
TEXT
  5
F1
  8
001
 10
20.119689000000001
 20
55.670408999999999
 30
0.0
 40
3.2000000000000002
  1
%%p０．１
 50
90.000003000000007
 41
0.8695649999999998
  0
TEXT
  5
F2
  8
001
 10
20.519689
 20
35.670408999999999
 30
0.0
 40
4.0
  1
%%c３０．２
 50
90.000003000000007
 41
0.8620690000000001
  0
POLYLINE
  5
F3
  8
001
 66
     1
 10
0.0
 20
0.0
 30
0.0
  0
VERTEX
  5
F5
  8
001
 10
21.921613000000001
 20
39.203583000000002
 30
0.0
  0
VERTEX
  5
F6
  8
001
 10
21.519689
 20
37.703583000000002
 30
0.0
  0
VERTEX
  5
F7
  8
001
 10
21.117764999999999
 20
39.203583000000002
 30
0.0
  0
SEQEND
  5
F4
  8
001
  0
LINE
  5
F8
  8
001
 10
21.519689
 20
67.903582999999998
 30
0.0
 11
21.519689
 21
37.703583000000002
 31
0.0
  0
POLYLINE
  5
F9
  8
001
 66
     1
 10
0.0
 20
0.0
 30
0.0
  0
VERTEX
  5
FB
  8
001
 10
38.727730000000001
 20
37.703583000000002
 30
0.0
  0
VERTEX
  5
FC
  8
001
 10
21.519689
 20
37.703583000000002
 30
0.0
  0
VERTEX
  5
FD
  8
001
 10
21.019689
 20
37.703583000000002
 30
0.0
  0
SEQEND
  5
FA
  8
001
  0
TEXT
  5
FE
  8
001
 10
12.653301000000001
 20
80.199826000000002
 30
0.0
 40
5.0
  1
メントルビー　ＢＭ３０２９Ｔ
 41
0.833333
  0
LINE
  5
FF
  8
001
 10
71.180266000000003
 20
48.303583000000003
 30
0.0
 11
71.180266000000003
 21
57.303582999999989
 31
0.0
  0
LINE
  5
100
  8
001
 10
68.837029000000001
 20
47.450713999999998
 30
0.0
 11
52.127707000000001
 21
37.803583000000003
 31
0.0
  0
LINE
  5
101
  8
001
 10
68.837029000000001
 20
58.156451000000011
 30
0.0
 11
52.127707000000001
 21
67.803582999999989
 31
0.0
  0
POLYLINE
  5
102
  8
001
 66
     1
 10
0.0
 20
0.0
 30
0.0
  0
VERTEX
  5
104
  8
001
 10
64.841988999999984
 20
45.497661000000001
 30
0.0
  0
VERTEX
  5
105
  8
001
 10
64.676676
 20
45.397691999999999
 30
0.0
  0
VERTEX
  5
106
  8
001
 10
64.511337999999995
 20
45.297763000000003
 30
0.0
  0
VERTEX
  5
107
  8
001
 10
62.267490000000002
 20
43.951362999999994
 30
0.0
  0
VERTEX
  5
108
  8
001
 10
60.017536
 20
42.615159999999989
 30
0.0
  0
VERTEX
  5
109
  8
001
 10
57.763893999999993
 20
41.284956999999999
 30
0.0
  0
VERTEX
  5
10A
  8
001
 10
55.507603000000003
 20
39.959268999999999
 30
0.0
  0
VERTEX
  5
10B
  8
001
 10
53.817951999999998
 20
38.969611999999998
 30
0.0
  0
VERTEX
  5
10C
  8
001
 10
52.127707000000001
 20
37.980965000000012
 30
0.0
  0
SEQEND
  5
103
  8
001
  0
LINE
  5
10D
  8
001
 10
60.744692999999998
 20
52.594386999999998
 30
0.0
 11
64.841988999999984
 21
45.497661000000001
 31
0.0
  0
POLYLINE
  5
10E
  8
001
 66
     1
 10
0.0
 20
0.0
 30
0.0
  0
VERTEX
  5
110
  8
001
 10
58.890524999999997
 20
54.256095999999999
 30
0.0
  0
VERTEX
  5
111
  8
001
 10
58.701366
 20
54.387755000000013
 30
0.0
  0
VERTEX
  5
112
  8
001
 10
58.508670000000002
 20
54.513857999999999
 30
0.0
  0
VERTEX
  5
113
  8
001
 10
58.277093999999991
 20
54.647718999999988
 30
0.0
  0
VERTEX
  5
114
  8
001
 10
58.038167999999999
 20
54.768419999999992
 30
0.0
  0
VERTEX
  5
115
  8
001
 10
57.796359999999993
 20
54.876311999999999
 30
0.0
  0
VERTEX
  5
116
  8
001
 10
57.549802999999997
 20
54.972611999999998
 30
0.0
  0
VERTEX
  5
117
  8
001
 10
57.302543000000007
 20
55.055781999999986
 30
0.0
  0
VERTEX
  5
118
  8
001
 10
57.051622000000002
 20
55.127294999999989
 30
0.0
  0
VERTEX
  5
119
  8
001
 10
56.749389000000001
 20
55.197246999999997
 30
0.0
  0
VERTEX
  5
11A
  8
001
 10
56.443832999999998
 20
55.25088499999999
 30
0.0
  0
VERTEX
  5
11B
  8
001
 10
56.138957999999988
 20
55.287968000000014
 30
0.0
  0
VERTEX
  5
11C
  8
001
 10
55.832568999999992
 20
55.309162999999998
 30
0.0
  0
VERTEX
  5
11D
  8
001
 10
55.529052999999998
 20
55.314542000000003
 30
0.0
  0
VERTEX
  5
11E
  8
001
 10
55.225664000000002
 20
55.304476000000001
 30
0.0
  0
VERTEX
  5
11F
  8
001
 10
54.954476999999997
 20
55.282349000000004
 30
0.0
  0
VERTEX
  5
120
  8
001
 10
54.684596999999997
 20
55.247841999999999
 30
0.0
  0
VERTEX
  5
121
  8
001
 10
54.416408999999987
 20
55.200921999999998
 30
0.0
  0
VERTEX
  5
122
  8
001
 10
54.150669999999998
 20
55.141621000000001
 30
0.0
  0
VERTEX
  5
123
  8
001
 10
53.887757999999998
 20
55.069865
 30
0.0
  0
VERTEX
  5
124
  8
001
 10
53.628631999999989
 20
54.985585999999991
 30
0.0
  0
VERTEX
  5
125
  8
001
 10
53.373530000000002
 20
54.888595000000002
 30
0.0
  0
VERTEX
  5
126
  8
001
 10
53.123231999999987
 20
54.77950899999999
 30
0.0
  0
VERTEX
  5
127
  8
001
 10
52.863399000000001
 20
54.650603000000011
 30
0.0
  0
VERTEX
  5
128
  8
001
 10
52.612051000000001
 20
54.506413000000002
 30
0.0
  0
VERTEX
  5
129
  8
001
 10
52.366971999999997
 20
54.343913000000001
 30
0.0
  0
VERTEX
  5
12A
  8
001
 10
52.127707000000001
 20
54.172333999999999
 30
0.0
  0
SEQEND
  5
10F
  8
001
  0
POLYLINE
  5
12B
  8
001
 66
     1
 10
0.0
 20
0.0
 30
0.0
  0
VERTEX
  5
12D
  8
001
 10
52.127707000000001
 20
54.172333999999999
 30
0.0
  0
VERTEX
  5
12E
  8
001
 10
52.003529
 20
53.999505999999997
 30
0.0
  0
VERTEX
  5
12F
  8
001
 10
51.883662000000001
 20
53.823790000000002
 30
0.0
  0
VERTEX
  5
130
  8
001
 10
51.770788000000003
 20
53.641613999999997
 30
0.0
  0
VERTEX
  5
131
  8
001
 10
51.665911999999999
 20
53.454630999999999
 30
0.0
  0
VERTEX
  5
132
  8
001
 10
51.566406000000001
 20
53.259581999999988
 30
0.0
  0
VERTEX
  5
133
  8
001
 10
51.474612999999991
 20
53.060780000000001
 30
0.0
  0
VERTEX
  5
134
  8
001
 10
51.390300000000003
 20
52.856752
 30
0.0
  0
VERTEX
  5
135
  8
001
 10
51.315620000000003
 20
52.649104999999999
 30
0.0
  0
VERTEX
  5
136
  8
001
 10
51.256219000000002
 20
52.456516999999998
 30
0.0
  0
VERTEX
  5
137
  8
001
 10
51.201523999999999
 20
52.262430000000002
 30
0.0
  0
SEQEND
  5
12C
  8
001
  0
LINE
  5
138
  8
001
 10
52.127707000000001
 20
67.803582999999989
 30
0.0
 11
50.263170000000002
 21
67.803582999999989
 31
0.0
  0
LINE
  5
139
  8
001
 10
42.180265999999989
 20
53.803583000000003
 30
0.0
 11
42.180265999999989
 21
52.774939000000003
 31
0.0
  0
LINE
  5
13A
  8
001
 10
50.263170000000002
 20
67.803582999999989
 30
0.0
 11
42.180265999999989
 21
53.803583000000003
 31
0.0
  0
LINE
  5
13B
  8
001
 10
74.180266000000003
 20
57.803582999999989
 30
0.0
 11
115.180266
 21
57.803582999999989
 31
0.0
  0
LINE
  5
13C
  8
001
 10
74.180266000000003
 20
47.803583000000003
 30
0.0
 11
115.180266
 21
47.803583000000003
 31
0.0
  0
ARC
  5
13D
  8
001
 10
57.280591000000001
 20
50.594386999999998
 30
0.0
 40
4.0
 50
30.0
 51
157.018551
  0
LINE
  5
13E
  8
001
 10
53.598066000000003
 20
52.15611899999999
 30
0.0
 11
42.934635
 21
52.629153000000002
 31
0.0
  0
LINE
  5
140
  8
001
 10
52.127707000000001
 20
67.803582999999989
 30
0.0
 11
52.127707000000001
 21
54.172333999999999
 31
0.0
  0
LINE
  5
141
  8
001
 10
50.263170000000002
 20
67.803582999999989
 30
0.0
 11
50.263170000000002
 21
52.304056000000003
 31
0.0
  0
LINE
  5
142
  8
001
 10
74.180266000000003
 20
47.803583000000003
 30
0.0
 11
74.180266000000003
 21
57.803582999999989
 31
0.0
  0
ARC
  5
143
  8
001
 10
115.180266
 20
56.803582999999989
 30
0.0
 40
1.0
 50
0.0
 51
90.0
  0
ARC
  5
144
  8
001
 10
115.180266
 20
48.80358300000001
 30
0.0
 40
1.0
 50
270.0
 51
0.0
  0
LINE
  5
145
  8
001
 10
116.180266
 20
52.803582999999989
 30
0.0
 11
119.644368
 21
54.803582999999989
 31
0.0
  0
LINE
  5
146
  8
001
 10
116.180266
 20
52.803582999999989
 30
0.0
 11
119.644368
 21
50.803583000000003
 31
0.0
  0
LINE
  5
147
  8
001
 10
71.180266000000003
 20
57.303582999999989
 30
0.0
 11
74.180266000000003
 21
57.303582999999989
 31
0.0
  0
LINE
  5
148
  8
001
 10
71.180266000000003
 20
48.303583000000003
 30
0.0
 11
74.180266000000003
 21
48.303583000000003
 31
0.0
  0
LINE
  5
149
  8
001
 10
68.837029000000001
 20
58.156451000000011
 30
0.0
 11
71.180266000000003
 21
57.303582999999989
 31
0.0
  0
LINE
  5
14A
  8
001
 10
68.837029000000001
 20
47.450713999999998
 30
0.0
 11
71.180266000000003
 21
48.303583000000003
 31
0.0
  0
LINE
  5
14B
  8
001
 10
116.180266
 20
48.80358300000001
 30
0.0
 11
116.180266
 21
56.803582999999989
 31
0.0
  0
LINE
  5
14C
  8
001
 10
42.663245999999987
 20
51.725698999999999
 30
0.0
 11
42.663245999999987
 21
31.011574
 31
0.0
  0
LINE
  5
14D
  8
001
 10
56.974131000000007
 20
50.550761999999999
 30
0.0
 11
43.063245999999992
 21
50.550761999999999
 31
0.0
  0
LINE
  5
14E
  8
001
 10
57.320540999999999
 20
49.95076199999999
 30
0.0
 11
50.365099000000001
 21
37.903583000000012
 31
0.0
  0
ARC
  5
14F
  8
001
 10
50.018687999999997
 20
38.103583
 30
0.0
 40
0.4
 50
210.0
 51
330.0
  0
ARC
  5
150
  8
001
 10
43.063245999999992
 20
50.150762
 30
0.0
 40
0.4
 50
90.0
 51
210.0
  0
LINE
  5
151
  8
001
 10
42.663245999999987
 20
50.043582999999991
 30
0.0
 11
42.663245999999987
 21
50.150762
 31
0.0
  0
LINE
  5
152
  8
001
 10
42.716836000000001
 20
49.95076199999999
 30
0.0
 11
42.663245999999987
 21
50.043582999999991
 31
0.0
  0
LINE
  5
153
  8
001
 10
49.672277999999999
 20
37.903583000000012
 30
0.0
 11
42.716836000000001
 21
49.95076199999999
 31
0.0
  0
ARC
  5
154
  8
001
 10
56.974131000000007
 20
50.150762
 30
0.0
 40
0.4
 50
330.0
 51
90.0
  0
ARC
  5
155
  8
001
 10
57.280591000000001
 20
50.594386999999998
 30
0.0
 40
3.0
 50
246.82303999999991
 51
180.833192
  0
CIRCLE
  5
156
  8
001
 10
50.018687999999997
 20
46.135035999999999
 30
0.0
 40
1.8999999999999999
  0
LINE
  5
157
  8
001
 10
52.127707000000001
 20
37.980965000000012
 30
0.0
 11
50.409775000000003
 21
37.980965000000012
 31
0.0
  0
LINE
  5
158
  8
001
 10
50.283264000000003
 20
37.803583000000003
 30
0.0
 11
52.127707000000001
 21
37.803583000000003
 31
0.0
  0
LINE
  5
159
  8
001
 10
42.180265999999989
 20
52.774939000000003
 30
0.0
 11
43.336126
 21
50.550761999999999
 31
0.0
  0
LINE
  5
15B
  8
001
 10
51.844871999999988
 20
40.466625000000001
 30
0.0
 11
52.901465000000002
 21
38.433464000000001
 31
0.0
  0
LINE
  5
15C
  8
001
 10
43.105491991851949
 20
50.994562162944213
 30
0.0
 11
42.934635
 21
52.629153000000002
 31
0.0
  0
LINE
  5
15D
  8
001
 10
38.727730000000001
 20
37.703583000000002
 30
0.0
 11
50.018687999999997
 21
37.703583000000002
 31
0.0
  0
LINE
  5
15E
  8
001
 10
38.727730000000001
 20
50.043582999999991
 30
0.0
 11
42.663245999999987
 21
50.043582999999991
 31
0.0
  0
LINE
  5
15F
  8
001
  6
CENTER
 10
39.963534000000003
 20
52.803582999999989
 30
0.0
 11
121.696997
 21
52.803582999999989
 31
0.0
  0
ENDSEC
  0
EOF
