  0
SECTION
  2
HEADER
  9
$ACADVER
  1
AC1014
  9
$ACADMAINTVER
 70
     9
  9
$DWGCODEPAGE
  3
ANSI_932
  9
$INSBASE
 10
0.0
 20
0.0
 30
0.0
  9
$EXTMIN
 10
-19.00068063478771
 20
10.133549
 30
0.0
  9
$EXTMAX
 10
217.572223
 20
78.59656033333334
 30
0.0
  9
$LIMMIN
 10
0.0
 20
0.0
  9
$LIMMAX
 10
12.0
 20
9.0
  9
$ORTHOMODE
 70
     0
  9
$REGENMODE
 70
     1
  9
$FILLMODE
 70
     1
  9
$QTEXTMODE
 70
     0
  9
$MIRRTEXT
 70
     1
  9
$DRAGMODE
 70
     2
  9
$LTSCALE
 40
2.355408
  9
$OSMODE
 70
   511
  9
$ATTMODE
 70
     1
  9
$TEXTSIZE
 40
0.2
  9
$TRACEWID
 40
1.0
  9
$TEXTSTYLE
  7
STANDARD
  9
$CLAYER
  8
0
  9
$CELTYPE
  6
BYLAYER
  9
$CECOLOR
 62
   256
  9
$CELTSCALE
 40
1.0
  9
$DELOBJ
 70
     1
  9
$DISPSILH
 70
     0
  9
$DIMSCALE
 40
1.0
  9
$DIMASZ
 40
2.5
  9
$DIMEXO
 40
0.625
  9
$DIMDLI
 40
3.75
  9
$DIMRND
 40
0.0
  9
$DIMDLE
 40
0.0
  9
$DIMEXE
 40
1.25
  9
$DIMTP
 40
0.0
  9
$DIMTM
 40
0.0
  9
$DIMTXT
 40
2.5
  9
$DIMCEN
 40
0.09
  9
$DIMTSZ
 40
0.0
  9
$DIMTOL
 70
     0
  9
$DIMLIM
 70
     0
  9
$DIMTIH
 70
     0
  9
$DIMTOH
 70
     0
  9
$DIMSE1
 70
     0
  9
$DIMSE2
 70
     0
  9
$DIMTAD
 70
     0
  9
$DIMZIN
 70
     8
  9
$DIMBLK
  1

  9
$DIMASO
 70
     1
  9
$DIMSHO
 70
     0
  9
$DIMPOST
  1

  9
$DIMAPOST
  1

  9
$DIMALT
 70
     0
  9
$DIMALTD
 70
     3
  9
$DIMALTF
 40
0.03937
  9
$DIMLFAC
 40
1.0
  9
$DIMTOFL
 70
     1
  9
$DIMTVP
 40
0.0
  9
$DIMTIX
 70
     0
  9
$DIMSOXD
 70
     0
  9
$DIMSAH
 70
     0
  9
$DIMBLK1
  1

  9
$DIMBLK2
  1

  9
$DIMSTYLE
  2
ISO-25
  9
$DIMCLRD
 70
     0
  9
$DIMCLRE
 70
     0
  9
$DIMCLRT
 70
     0
  9
$DIMTFAC
 40
1.0
  9
$DIMGAP
 40
0.625
  9
$DIMJUST
 70
     0
  9
$DIMSD1
 70
     0
  9
$DIMSD2
 70
     0
  9
$DIMTOLJ
 70
     0
  9
$DIMTZIN
 70
     8
  9
$DIMALTZ
 70
     0
  9
$DIMALTTZ
 70
     0
  9
$DIMFIT
 70
     5
  9
$DIMUPT
 70
     0
  9
$DIMUNIT
 70
     2
  9
$DIMDEC
 70
     2
  9
$DIMTDEC
 70
     2
  9
$DIMALTU
 70
     2
  9
$DIMALTTD
 70
     3
  9
$DIMTXSTY
  7
STANDARD
  9
$DIMAUNIT
 70
     0
  9
$LUNITS
 70
     2
  9
$LUPREC
 70
     4
  9
$SKETCHINC
 40
1.0
  9
$FILLETRAD
 40
0.0
  9
$AUNITS
 70
     0
  9
$AUPREC
 70
     0
  9
$MENU
  1
.
  9
$ELEVATION
 40
0.0
  9
$PELEVATION
 40
0.0
  9
$THICKNESS
 40
0.0
  9
$LIMCHECK
 70
     0
  9
$CHAMFERA
 40
10.0
  9
$CHAMFERB
 40
10.0
  9
$CHAMFERC
 40
20.0
  9
$CHAMFERD
 40
0.0
  9
$SKPOLY
 70
     0
  9
$TDCREATE
 40
2454734.423854526
  9
$TDUPDATE
 40
2457962.43164044
  9
$TDINDWG
 40
0.0015608102
  9
$TDUSRTIMER
 40
2457962.056374202
  9
$USRTIMER
 70
     1
  9
$ANGBASE
 50
0.0
  9
$ANGDIR
 70
     0
  9
$PDMODE
 70
     0
  9
$PDSIZE
 40
0.0
  9
$PLINEWID
 40
0.0
  9
$COORDS
 70
     1
  9
$SPLFRAME
 70
     0
  9
$SPLINETYPE
 70
     6
  9
$SPLINESEGS
 70
     8
  9
$ATTDIA
 70
     0
  9
$ATTREQ
 70
     1
  9
$HANDLING
 70
     1
  9
$HANDSEED
  5
235
  9
$SURFTAB1
 70
     6
  9
$SURFTAB2
 70
     6
  9
$SURFTYPE
 70
     6
  9
$SURFU
 70
     6
  9
$SURFV
 70
     6
  9
$UCSNAME
  2

  9
$UCSORG
 10
0.0
 20
0.0
 30
0.0
  9
$UCSXDIR
 10
1.0
 20
0.0
 30
0.0
  9
$UCSYDIR
 10
0.0
 20
1.0
 30
0.0
  9
$PUCSNAME
  2

  9
$PUCSORG
 10
0.0
 20
0.0
 30
0.0
  9
$PUCSXDIR
 10
1.0
 20
0.0
 30
0.0
  9
$PUCSYDIR
 10
0.0
 20
1.0
 30
0.0
  9
$USERI1
 70
     0
  9
$USERI2
 70
     0
  9
$USERI3
 70
     0
  9
$USERI4
 70
     0
  9
$USERI5
 70
     0
  9
$USERR1
 40
0.0
  9
$USERR2
 40
0.0
  9
$USERR3
 40
0.0
  9
$USERR4
 40
0.0
  9
$USERR5
 40
0.0
  9
$WORLDVIEW
 70
     1
  9
$SHADEDGE
 70
     3
  9
$SHADEDIF
 70
    70
  9
$TILEMODE
 70
     1
  9
$MAXACTVP
 70
    64
  9
$PINSBASE
 10
0.0
 20
0.0
 30
0.0
  9
$PLIMCHECK
 70
     0
  9
$PEXTMIN
 10
1.000000000000000E+20
 20
1.000000000000000E+20
 30
0.0
  9
$PEXTMAX
 10
-1.000000000000000E+20
 20
-1.000000000000000E+20
 30
0.0
  9
$PLIMMIN
 10
0.0
 20
0.0
  9
$PLIMMAX
 10
0.0
 20
0.0
  9
$UNITMODE
 70
     0
  9
$VISRETAIN
 70
     1
  9
$PLINEGEN
 70
     0
  9
$PSLTSCALE
 70
     1
  9
$TREEDEPTH
 70
  3020
  9
$PICKSTYLE
 70
     1
  9
$CMLSTYLE
  2
STANDARD
  9
$CMLJUST
 70
     0
  9
$CMLSCALE
 40
20.0
  9
$PROXYGRAPHICS
 70
     1
  9
$MEASUREMENT
 70
     1
  0
ENDSEC
  0
SECTION
  2
CLASSES
  0
CLASS
  1
ACDBDICTIONARYWDFLT
  2
AcDbDictionaryWithDefault
  3
ObjectDBX Classes
 90
        0
280
     0
281
     0
  0
CLASS
  1
VISUALSTYLE
  2
AcDbVisualStyle
  3
ObjectDBX Classes
 90
     4095
280
     0
281
     0
  0
CLASS
  1
SCALE
  2
AcDbScale
  3
ObjectDBX Classes
 90
     1153
280
     0
281
     0
  0
CLASS
  1
DICTIONARYVAR
  2
AcDbDictionaryVar
  3
ObjectDBX Classes
 90
        0
280
     0
281
     0
  0
CLASS
  1
ACDBPLACEHOLDER
  2
AcDbPlaceHolder
  3
ObjectDBX Classes
 90
        0
280
     0
281
     0
  0
CLASS
  1
LAYOUT
  2
AcDbLayout
  3
ObjectDBX Classes
 90
        0
280
     0
281
     0
  0
CLASS
  1
MATERIAL
  2
AcDbMaterial
  3
ObjectDBX Classes
 90
     1153
280
     0
281
     0
  0
CLASS
  1
TABLESTYLE
  2
AcDbTableStyle
  3
ObjectDBX Classes
 90
     4095
280
     0
281
     0
  0
CLASS
  1
RASTERVARIABLES
  2
AcDbRasterVariables
  3
ISM
 90
        0
280
     0
281
     0
  0
CLASS
  1
DIMASSOC
  2
AcDbDimAssoc
  3
"AcDbDimAssoc|Product Desc:     AcDim ARX App For Dimension|Company:          Autodesk, Inc.|WEB Address:      www.autodesk.com"
 90
        0
280
     0
281
     0
  0
CLASS
  1
XRECORD
  2
AcDbXrecord
  3
ObjectDBX Classes
 90
        0
280
     0
281
     0
  0
CLASS
  1
LWPOLYLINE
  2
AcDbPolyline
  3
ObjectDBX Classes
 90
        0
280
     0
281
     1
  0
CLASS
  1
HATCH
  2
AcDbHatch
  3
ObjectDBX Classes
 90
        0
280
     0
281
     1
  0
CLASS
  1
MLEADERSTYLE
  2
AcDbMLeaderStyle
  3
ACDB_MLEADERSTYLE_CLASS
 90
     4095
280
     0
281
     0
  0
CLASS
  1
SUN
  2
AcDbSun
  3
SCENEOE
 90
     1153
280
     0
281
     0
  0
ENDSEC
  0
SECTION
  2
TABLES
  0
TABLE
  2
VPORT
  5
8
330
0
100
AcDbSymbolTable
 70
     1
  0
VPORT
  5
29
330
8
100
AcDbSymbolTableRecord
100
AcDbViewportTableRecord
  2
*ACTIVE
 70
     0
 10
0.0
 20
0.0
 11
1.0
 21
1.0
 12
99.28577118260615
 22
44.448388
 13
0.0
 23
0.0
 14
1.0
 24
1.0
 15
0.0
 25
0.0
 16
0.0
 26
0.0
 36
1.0
 17
0.0
 27
0.0
 37
0.0
 40
176.2106666631044
 41
1.369408369408369
 42
50.0
 43
0.0
 44
0.0
 50
0.0
 51
0.0
 71
    16
 72
   100
 73
     1
 74
     3
 75
     0
 76
     0
 77
     0
 78
     0
  0
ENDTAB
  0
TABLE
  2
LTYPE
  5
5
330
0
100
AcDbSymbolTable
 70
     5
  0
LTYPE
  5
14
330
5
100
AcDbSymbolTableRecord
100
AcDbLinetypeTableRecord
  2
BYBLOCK
 70
     0
  3

 72
    65
 73
     0
 40
0.0
  0
LTYPE
  5
15
330
5
100
AcDbSymbolTableRecord
100
AcDbLinetypeTableRecord
  2
BYLAYER
 70
     0
  3

 72
    65
 73
     0
 40
0.0
  0
LTYPE
  5
16
330
5
100
AcDbSymbolTableRecord
100
AcDbLinetypeTableRecord
  2
CONTINUOUS
 70
     0
  3
Solid line
 72
    65
 73
     0
 40
0.0
  0
LTYPE
  5
5D
330
5
100
AcDbSymbolTableRecord
100
AcDbLinetypeTableRecord
  2
DASHED
 70
     0
  3
DASHED
 72
    83
 73
     2
 40
0.75
 49
0.5
 74
     0
 49
-0.25
 74
     0
  0
LTYPE
  5
5E
330
5
100
AcDbSymbolTableRecord
100
AcDbLinetypeTableRecord
  2
HIDDEN
 70
     0
  3
HIDDEN
 72
    83
 73
     2
 40
0.375
 49
0.25
 74
     0
 49
-0.125
 74
     0
  0
LTYPE
  5
5F
330
5
100
AcDbSymbolTableRecord
100
AcDbLinetypeTableRecord
  2
CENTER
 70
     0
  3
CENTER
 72
    83
 73
     4
 40
2.0
 49
1.25
 74
     0
 49
-0.25
 74
     0
 49
0.25
 74
     0
 49
-0.25
 74
     0
  0
LTYPE
  5
60
330
5
100
AcDbSymbolTableRecord
100
AcDbLinetypeTableRecord
  2
PHANTOM
 70
     0
  3
PHANTOM
 72
    83
 73
     6
 40
2.5
 49
1.25
 74
     0
 49
-0.25
 74
     0
 49
0.25
 74
     0
 49
-0.25
 74
     0
 49
0.25
 74
     0
 49
-0.25
 74
     0
  0
ENDTAB
  0
TABLE
  2
LAYER
  5
2
330
0
100
AcDbSymbolTable
 70
     3
  0
LAYER
  5
10
330
2
100
AcDbSymbolTableRecord
100
AcDbLayerTableRecord
  2
0
 70
     0
 62
     7
  6
CONTINUOUS
  0
LAYER
  5
61
330
2
100
AcDbSymbolTableRecord
100
AcDbLayerTableRecord
  2
001
 70
     0
 62
     7
  6
CONTINUOUS
  0
LAYER
  5
1BE
330
2
100
AcDbSymbolTableRecord
100
AcDbLayerTableRecord
  2
DEFPOINTS
 70
     0
 62
     7
  6
CONTINUOUS
  0
ENDTAB
  0
TABLE
  2
STYLE
  5
3
330
0
100
AcDbSymbolTable
 70
     2
  0
STYLE
  5
11
330
3
100
AcDbSymbolTableRecord
100
AcDbTextStyleTableRecord
  2
STANDARD
 70
     0
 40
0.0
 41
1.0
 50
0.0
 71
     0
 42
0.2
  3
TXT
  4
BIGFONT
  0
STYLE
  5
62
330
3
100
AcDbSymbolTableRecord
100
AcDbTextStyleTableRecord
  2
TATEGAKI
 70
     4
 40
1.0
 41
1.0
 50
0.0
 71
     0
 42
0.2
  3
TXT
  4
BIGFONT
  0
ENDTAB
  0
TABLE
  2
VIEW
  5
6
330
0
100
AcDbSymbolTable
 70
     0
  0
ENDTAB
  0
TABLE
  2
UCS
  5
7
330
0
100
AcDbSymbolTable
 70
     0
  0
ENDTAB
  0
TABLE
  2
APPID
  5
9
330
0
100
AcDbSymbolTable
 70
     1
  0
APPID
  5
12
330
9
100
AcDbSymbolTableRecord
100
AcDbRegAppTableRecord
  2
ACAD
 70
     0
  0
ENDTAB
  0
TABLE
  2
DIMSTYLE
  5
A
330
0
100
AcDbSymbolTable
 70
     2
  0
DIMSTYLE
105
27
102
{ACAD_REACTORS
330
1D1
102
}
330
A
100
AcDbSymbolTableRecord
100
AcDbDimStyleTableRecord
  2
ISO-25
 70
     0
  3

  4

  5

  6

  7

 40
1.0
 41
2.5
 42
0.625
 43
3.75
 44
1.25
 45
0.0
 46
0.0
 47
0.0
 48
0.0
140
2.5
141
2.5
142
0.0
143
0.03937
144
1.0
145
0.0
146
1.0
147
0.625
 71
     0
 72
     0
 73
     0
 74
     0
 75
     0
 76
     0
 77
     1
 78
     8
170
     0
171
     3
172
     1
173
     0
174
     0
175
     0
176
     0
177
     0
178
     0
270
     2
271
     2
272
     2
273
     2
274
     3
340
11
275
     0
280
     0
281
     0
282
     0
283
     0
284
     8
285
     0
286
     0
287
     3
288
     0
  0
DIMSTYLE
105
63
102
{ACAD_REACTORS
330
115
330
116
330
123
330
124
330
125
330
126
330
127
330
128
102
}
330
A
100
AcDbSymbolTableRecord
100
AcDbDimStyleTableRecord
  2
STANDARD
 70
     0
  3

  4

  5

  6

  7

 40
1.0
 41
1.5
 42
0.0
 43
0.38
 44
2.75
 45
0.0
 46
0.0
 47
0.0
 48
0.0
140
4.0
141
0.09
142
0.0
143
25.4
144
1.0
145
0.0
146
0.8
147
1.0
 71
     0
 72
     0
 73
     0
 74
     0
 75
     0
 76
     0
 77
     1
 78
     8
170
     0
171
     2
172
     1
173
     0
174
     0
175
     0
176
     0
177
     0
178
     0
179
     1
270
     2
271
     1
272
     4
273
     2
274
     2
340
11
275
     0
280
     0
281
     0
282
     0
283
     1
284
     0
285
     0
286
     0
287
     3
288
     0
  0
ENDTAB
  0
TABLE
  2
BLOCK_RECORD
  5
1
330
0
100
AcDbSymbolTable
 70
    12
  0
BLOCK_RECORD
  5
1F
330
1
100
AcDbSymbolTableRecord
100
AcDbBlockTableRecord
  2
*MODEL_SPACE
  0
BLOCK_RECORD
  5
1B
330
1
100
AcDbSymbolTableRecord
100
AcDbBlockTableRecord
  2
*PAPER_SPACE
  0
BLOCK_RECORD
  5
23
330
1
100
AcDbSymbolTableRecord
100
AcDbBlockTableRecord
  2
*PAPER_SPACE0
  0
BLOCK_RECORD
  5
64
330
1
100
AcDbSymbolTableRecord
100
AcDbBlockTableRecord
  2
*D1
  0
BLOCK_RECORD
  5
79
330
1
100
AcDbSymbolTableRecord
100
AcDbBlockTableRecord
  2
*D2
  0
BLOCK_RECORD
  5
8D
330
1
100
AcDbSymbolTableRecord
100
AcDbBlockTableRecord
  2
*D3
  0
BLOCK_RECORD
  5
A3
330
1
100
AcDbSymbolTableRecord
100
AcDbBlockTableRecord
  2
*D4
  0
BLOCK_RECORD
  5
B7
330
1
100
AcDbSymbolTableRecord
100
AcDbBlockTableRecord
  2
*D5
  0
BLOCK_RECORD
  5
CB
330
1
100
AcDbSymbolTableRecord
100
AcDbBlockTableRecord
  2
*D6
  0
BLOCK_RECORD
  5
DF
330
1
100
AcDbSymbolTableRecord
100
AcDbBlockTableRecord
  2
*D7
  0
BLOCK_RECORD
  5
F3
330
1
100
AcDbSymbolTableRecord
100
AcDbBlockTableRecord
  2
*D8
  0
BLOCK_RECORD
  5
1C2
330
1
100
AcDbSymbolTableRecord
100
AcDbBlockTableRecord
  2
*D9
  0
BLOCK_RECORD
  5
1D4
330
1
100
AcDbSymbolTableRecord
100
AcDbBlockTableRecord
  2
*D10
  0
BLOCK_RECORD
  5
1E2
330
1
100
AcDbSymbolTableRecord
100
AcDbBlockTableRecord
  2
_OPEN
  0
ENDTAB
  0
ENDSEC
  0
SECTION
  2
BLOCKS
  0
BLOCK
  5
20
330
1F
100
AcDbEntity
  8
0
100
AcDbBlockBegin
  2
*MODEL_SPACE
 70
     0
 10
0.0
 20
0.0
 30
0.0
  3
*MODEL_SPACE
  1

  0
ENDBLK
  5
21
330
1F
100
AcDbEntity
  8
0
100
AcDbBlockEnd
  0
BLOCK
  5
1C
330
1B
100
AcDbEntity
 67
     1
  8
0
100
AcDbBlockBegin
  2
*PAPER_SPACE
 70
     0
 10
0.0
 20
0.0
 30
0.0
  3
*PAPER_SPACE
  1

  0
ENDBLK
  5
1D
330
1B
100
AcDbEntity
 67
     1
  8
0
100
AcDbBlockEnd
  0
BLOCK
  5
24
330
23
100
AcDbEntity
  8
0
100
AcDbBlockBegin
  2
*PAPER_SPACE0
 70
     0
 10
0.0
 20
0.0
 30
0.0
  3
*PAPER_SPACE0
  1

  0
ENDBLK
  5
25
330
23
100
AcDbEntity
  8
0
100
AcDbBlockEnd
  0
BLOCK
  5
65
330
64
100
AcDbEntity
  8
0
100
AcDbBlockBegin
  2
*D1
 70
     1
 10
0.0
 20
0.0
 30
0.0
  3
*D1
  1

  0
LINE
  5
67
330
64
100
AcDbEntity
  8
001
100
AcDbLine
 10
51.212969
 20
44.200569
 30
0.0
 11
36.946234
 21
29.933834
 31
0.0
  0
LINE
  5
68
330
64
100
AcDbEntity
  8
001
100
AcDbLine
 10
44.835342
 20
52.48429
 30
0.0
 11
27.605529
 21
52.48429
 31
0.0
  0
ARC
  5
69
330
64
100
AcDbEntity
  8
001
100
AcDbCircle
 10
59.49669
 20
52.48429
 30
0.0
 40
29.14116096914315
100
AcDbArc
 50
180.0
 51
225.0
  0
LWPOLYLINE
  5
6A
330
64
100
AcDbEntity
  8
001
100
AcDbPolyline
 90
        3
 70
     0
 43
0.0
 10
29.99234
 20
50.974444
 10
30.355529
 20
52.48429
 10
30.795921
 20
50.99513
  0
LWPOLYLINE
  5
6F
330
64
100
AcDbEntity
  8
001
100
AcDbPolyline
 90
        3
 70
     0
 43
0.0
 10
38.149187
 20
33.242777
 10
38.890778
 20
31.878377
 10
37.566341
 20
32.689186
  0
TEXT
  5
74
330
64
100
AcDbEntity
  8
001
100
AcDbText
 10
31.201547
 20
47.258411
 30
0.0
 40
4.0
  1
４５%%d
 50
292.50001
 41
0.978261
100
AcDbText
  0
POINT
  5
75
330
64
100
AcDbEntity
  8
001
100
AcDbPoint
 10
51.212969
 20
44.200569
 30
0.0
  0
POINT
  5
76
330
64
100
AcDbEntity
  8
001
100
AcDbPoint
 10
59.49669
 20
52.48429
 30
0.0
  0
POINT
  5
77
330
64
100
AcDbEntity
  8
001
100
AcDbPoint
 10
59.49669
 20
52.48429
 30
0.0
  0
POINT
  5
78
330
64
100
AcDbEntity
  8
001
100
AcDbPoint
 10
44.835342
 20
52.48429
 30
0.0
  0
ENDBLK
  5
66
330
64
100
AcDbEntity
  8
0
100
AcDbBlockEnd
  0
BLOCK
  5
7A
330
79
100
AcDbEntity
  8
0
100
AcDbBlockBegin
  2
*D2
 70
     1
 10
0.0
 20
0.0
 30
0.0
  3
*D2
  1

  0
LINE
  5
7C
330
79
100
AcDbEntity
  8
001
100
AcDbLine
 10
47.106562
 20
54.08429
 30
0.0
 11
39.127067
 21
54.08429
 31
0.0
  0
LINE
  5
7D
330
79
100
AcDbEntity
  8
001
100
AcDbLine
 10
42.560955
 20
44.08429
 30
0.0
 11
39.127067
 21
44.08429
 31
0.0
  0
LINE
  5
7E
330
79
100
AcDbEntity
  8
001
100
AcDbLine
 10
41.877067
 20
54.08429
 30
0.0
 11
41.877067
 21
44.08429
 31
0.0
  0
LWPOLYLINE
  5
7F
330
79
100
AcDbEntity
  8
001
100
AcDbPolyline
 90
        3
 70
     0
 43
0.0
 10
41.475144
 20
52.58429
 10
41.877067
 20
54.08429
 10
42.278991
 20
52.58429
  0
LWPOLYLINE
  5
84
330
79
100
AcDbEntity
  8
001
100
AcDbPolyline
 90
        3
 70
     0
 43
0.0
 10
42.278991
 20
45.58429
 10
41.877067
 20
44.08429
 10
41.475144
 20
45.58429
  0
TEXT
  5
89
330
79
100
AcDbEntity
  8
001
100
AcDbText
 10
39.630991
 20
44.767444
 30
0.0
 40
4.0
  1
%%c１０
 50
90.000003
 41
0.882353
100
AcDbText
  0
POINT
  5
8A
330
79
100
AcDbEntity
  8
001
100
AcDbPoint
 10
47.106562
 20
54.08429
 30
0.0
  0
POINT
  5
8B
330
79
100
AcDbEntity
  8
001
100
AcDbPoint
 10
42.560955
 20
44.08429
 30
0.0
  0
POINT
  5
8C
330
79
100
AcDbEntity
  8
001
100
AcDbPoint
 10
41.877067
 20
44.08429
 30
0.0
  0
ENDBLK
  5
7B
330
79
100
AcDbEntity
  8
0
100
AcDbBlockEnd
  0
BLOCK
  5
8E
330
8D
100
AcDbEntity
  8
0
100
AcDbBlockBegin
  2
*D3
 70
     1
 10
0.0
 20
0.0
 30
0.0
  3
*D3
  1

  0
LINE
  5
90
330
8D
100
AcDbEntity
  8
001
100
AcDbLine
 10
53.506562
 20
46.494162
 30
0.0
 11
53.506562
 21
30.464998
 31
0.0
  0
LINE
  5
91
330
8D
100
AcDbEntity
  8
001
100
AcDbLine
 10
46.606562
 20
40.121804
 30
0.0
 11
46.606562
 21
30.464998
 31
0.0
  0
LINE
  5
92
330
8D
100
AcDbEntity
  8
001
100
AcDbLine
 10
53.506562
 20
33.214998
 30
0.0
 11
46.606562
 21
33.214998
 31
0.0
  0
LWPOLYLINE
  5
93
330
8D
100
AcDbEntity
  8
001
100
AcDbPolyline
 90
        3
 70
     0
 43
0.0
 10
55.006562
 20
32.813074
 10
53.506562
 20
33.214998
 10
55.006562
 20
33.616922
  0
LWPOLYLINE
  5
98
330
8D
100
AcDbEntity
  8
001
100
AcDbPolyline
 90
        3
 70
     0
 43
0.0
 10
45.106562
 20
33.616922
 10
46.606562
 20
33.214998
 10
45.106562
 20
32.813074
  0
TEXT
  5
9D
330
8D
100
AcDbEntity
  8
001
100
AcDbText
 10
57.006562
 20
34.214998
 30
0.0
 40
4.0
  1
６．９
 41
0.833333
100
AcDbText
  0
POINT
  5
9E
330
8D
100
AcDbEntity
  8
001
100
AcDbPoint
 10
53.506562
 20
46.494162
 30
0.0
  0
POINT
  5
9F
330
8D
100
AcDbEntity
  8
001
100
AcDbPoint
 10
46.606562
 20
40.121804
 30
0.0
  0
POINT
  5
A0
330
8D
100
AcDbEntity
  8
001
100
AcDbPoint
 10
46.606562
 20
33.214998
 30
0.0
  0
LINE
  5
A1
330
8D
100
AcDbEntity
  8
001
100
AcDbLine
 10
53.506562
 20
33.214998
 30
0.0
 11
72.006562
 21
33.214998
 31
0.0
  0
LINE
  5
A2
330
8D
100
AcDbEntity
  8
001
100
AcDbLine
 10
46.606562
 20
33.214998
 30
0.0
 11
44.106562
 21
33.214998
 31
0.0
  0
ENDBLK
  5
8F
330
8D
100
AcDbEntity
  8
0
100
AcDbBlockEnd
  0
BLOCK
  5
A4
330
A3
100
AcDbEntity
  8
0
100
AcDbBlockBegin
  2
*D4
 70
     1
 10
0.0
 20
0.0
 30
0.0
  3
*D4
  1

  0
LINE
  5
A6
330
A3
100
AcDbEntity
  8
001
100
AcDbLine
 10
110.606562
 20
47.98429
 30
0.0
 11
110.606562
 21
20.847632
 31
0.0
  0
LINE
  5
A7
330
A3
100
AcDbEntity
  8
001
100
AcDbLine
 10
46.606562
 20
40.121804
 30
0.0
 11
46.606562
 21
20.847632
 31
0.0
  0
LINE
  5
A8
330
A3
100
AcDbEntity
  8
001
100
AcDbLine
 10
110.606562
 20
23.597632
 30
0.0
 11
46.606562
 21
23.597632
 31
0.0
  0
LWPOLYLINE
  5
A9
330
A3
100
AcDbEntity
  8
001
100
AcDbPolyline
 90
        3
 70
     0
 43
0.0
 10
109.106562
 20
23.999556
 10
110.606562
 20
23.597632
 10
109.106562
 20
23.195708
  0
LWPOLYLINE
  5
AE
330
A3
100
AcDbEntity
  8
001
100
AcDbPolyline
 90
        3
 70
     0
 43
0.0
 10
48.106562
 20
23.195708
 10
46.606562
 20
23.597632
 10
48.106562
 20
23.999556
  0
TEXT
  5
B3
330
A3
100
AcDbEntity
  8
001
100
AcDbText
 10
74.606562
 20
24.597632
 30
0.0
 40
4.0
  1
６４
 41
0.833333
100
AcDbText
  0
POINT
  5
B4
330
A3
100
AcDbEntity
  8
001
100
AcDbPoint
 10
110.606562
 20
47.98429
 30
0.0
  0
POINT
  5
B5
330
A3
100
AcDbEntity
  8
001
100
AcDbPoint
 10
46.606562
 20
40.121804
 30
0.0
  0
POINT
  5
B6
330
A3
100
AcDbEntity
  8
001
100
AcDbPoint
 10
46.606562
 20
23.597632
 30
0.0
  0
ENDBLK
  5
A5
330
A3
100
AcDbEntity
  8
0
100
AcDbBlockEnd
  0
BLOCK
  5
B8
330
B7
100
AcDbEntity
  8
0
100
AcDbBlockBegin
  2
*D5
 70
     1
 10
0.0
 20
0.0
 30
0.0
  3
*D5
  1

  0
LINE
  5
BA
330
B7
100
AcDbEntity
  8
001
100
AcDbLine
 10
175.606562
 20
47.48429
 30
0.0
 11
175.606562
 21
20.847632
 31
0.0
  0
LINE
  5
BB
330
B7
100
AcDbEntity
  8
001
100
AcDbLine
 10
110.606562
 20
47.98429
 30
0.0
 11
110.606562
 21
20.847632
 31
0.0
  0
LINE
  5
BC
330
B7
100
AcDbEntity
  8
001
100
AcDbLine
 10
175.606562
 20
23.597632
 30
0.0
 11
110.606562
 21
23.597632
 31
0.0
  0
LWPOLYLINE
  5
BD
330
B7
100
AcDbEntity
  8
001
100
AcDbPolyline
 90
        3
 70
     0
 43
0.0
 10
174.106562
 20
23.999556
 10
175.606562
 20
23.597632
 10
174.106562
 20
23.195708
  0
LWPOLYLINE
  5
C2
330
B7
100
AcDbEntity
  8
001
100
AcDbPolyline
 90
        3
 70
     0
 43
0.0
 10
112.106562
 20
23.195708
 10
110.606562
 20
23.597632
 10
112.106562
 20
23.999556
  0
TEXT
  5
C7
330
B7
100
AcDbEntity
  8
001
100
AcDbText
 10
139.106562
 20
24.597632
 30
0.0
 40
4.0
  1
６５
 41
0.833333
100
AcDbText
  0
POINT
  5
C8
330
B7
100
AcDbEntity
  8
001
100
AcDbPoint
 10
175.606562
 20
47.48429
 30
0.0
  0
POINT
  5
C9
330
B7
100
AcDbEntity
  8
001
100
AcDbPoint
 10
110.606562
 20
47.98429
 30
0.0
  0
POINT
  5
CA
330
B7
100
AcDbEntity
  8
001
100
AcDbPoint
 10
110.606562
 20
23.597632
 30
0.0
  0
ENDBLK
  5
B9
330
B7
100
AcDbEntity
  8
0
100
AcDbBlockEnd
  0
BLOCK
  5
CC
330
CB
100
AcDbEntity
  8
0
100
AcDbBlockBegin
  2
*D6
 70
     1
 10
0.0
 20
0.0
 30
0.0
  3
*D6
  1

  0
LINE
  5
CE
330
CB
100
AcDbEntity
  8
001
100
AcDbLine
 10
46.606562
 20
40.121804
 30
0.0
 11
46.606562
 21
10.133549
 31
0.0
  0
LINE
  5
CF
330
CB
100
AcDbEntity
  8
001
100
AcDbLine
 10
175.606562
 20
47.48429
 30
0.0
 11
175.606562
 21
10.133549
 31
0.0
  0
LINE
  5
D0
330
CB
100
AcDbEntity
  8
001
100
AcDbLine
 10
46.606562
 20
12.883549
 30
0.0
 11
175.606562
 21
12.883549
 31
0.0
  0
LWPOLYLINE
  5
D1
330
CB
100
AcDbEntity
  8
001
100
AcDbPolyline
 90
        3
 70
     0
 43
0.0
 10
48.106562
 20
12.481625
 10
46.606562
 20
12.883549
 10
48.106562
 20
13.285473
  0
LWPOLYLINE
  5
D6
330
CB
100
AcDbEntity
  8
001
100
AcDbPolyline
 90
        3
 70
     0
 43
0.0
 10
174.106562
 20
13.285473
 10
175.606562
 20
12.883549
 10
174.106562
 20
12.481625
  0
TEXT
  5
DB
330
CB
100
AcDbEntity
  8
001
100
AcDbText
 10
105.106562
 20
13.883549
 30
0.0
 40
4.0
  1
１２９
 41
0.833333
100
AcDbText
  0
POINT
  5
DC
330
CB
100
AcDbEntity
  8
001
100
AcDbPoint
 10
46.606562
 20
40.121804
 30
0.0
  0
POINT
  5
DD
330
CB
100
AcDbEntity
  8
001
100
AcDbPoint
 10
175.606562
 20
47.48429
 30
0.0
  0
POINT
  5
DE
330
CB
100
AcDbEntity
  8
001
100
AcDbPoint
 10
175.606562
 20
12.883549
 30
0.0
  0
ENDBLK
  5
CD
330
CB
100
AcDbEntity
  8
0
100
AcDbBlockEnd
  0
BLOCK
  5
E0
330
DF
100
AcDbEntity
  8
0
100
AcDbBlockBegin
  2
*D7
 70
     1
 10
0.0
 20
0.0
 30
0.0
  3
*D7
  1

  0
LINE
  5
E2
330
DF
100
AcDbEntity
  8
001
100
AcDbLine
 10
174.606562
 20
58.48429
 30
0.0
 11
192.425907
 21
58.48429
 31
0.0
  0
LINE
  5
E3
330
DF
100
AcDbEntity
  8
001
100
AcDbLine
 10
174.606562
 20
46.48429
 30
0.0
 11
192.425907
 21
46.48429
 31
0.0
  0
LINE
  5
E4
330
DF
100
AcDbEntity
  8
001
100
AcDbLine
 10
189.675907
 20
58.48429
 30
0.0
 11
189.675907
 21
46.48429
 31
0.0
  0
LWPOLYLINE
  5
E5
330
DF
100
AcDbEntity
  8
001
100
AcDbPolyline
 90
        3
 70
     0
 43
0.0
 10
189.273983
 20
56.98429
 10
189.675907
 20
58.48429
 10
190.077831
 20
56.98429
  0
LWPOLYLINE
  5
EA
330
DF
100
AcDbEntity
  8
001
100
AcDbPolyline
 90
        3
 70
     0
 43
0.0
 10
190.077831
 20
47.98429
 10
189.675907
 20
46.48429
 10
189.273983
 20
47.98429
  0
TEXT
  5
EF
330
DF
100
AcDbEntity
  8
001
100
AcDbText
 10
188.675907
 20
46.48429
 30
0.0
 40
4.0
  1
%%c１２
 50
90.000003
 41
0.882353
100
AcDbText
  0
POINT
  5
F0
330
DF
100
AcDbEntity
  8
001
100
AcDbPoint
 10
174.606562
 20
58.48429
 30
0.0
  0
POINT
  5
F1
330
DF
100
AcDbEntity
  8
001
100
AcDbPoint
 10
174.606562
 20
46.48429
 30
0.0
  0
POINT
  5
F2
330
DF
100
AcDbEntity
  8
001
100
AcDbPoint
 10
189.675907
 20
46.48429
 30
0.0
  0
ENDBLK
  5
E1
330
DF
100
AcDbEntity
  8
0
100
AcDbBlockEnd
  0
BLOCK
  5
F4
330
F3
100
AcDbEntity
  8
0
100
AcDbBlockBegin
  2
*D8
 70
     1
 10
0.0
 20
0.0
 30
0.0
  3
*D8
  1

  0
LINE
  5
F6
330
F3
100
AcDbEntity
  8
001
100
AcDbLine
 10
215.072223
 20
52.48429
 30
0.0
 11
215.072223
 21
29.625983
 31
0.0
  0
LINE
  5
F7
330
F3
100
AcDbEntity
  8
001
100
AcDbLine
 10
204.072223
 20
49.167665
 30
0.0
 11
204.072223
 21
29.625983
 31
0.0
  0
LINE
  5
F8
330
F3
100
AcDbEntity
  8
001
100
AcDbLine
 10
215.072223
 20
32.375983
 30
0.0
 11
204.072223
 21
32.375983
 31
0.0
  0
LWPOLYLINE
  5
F9
330
F3
100
AcDbEntity
  8
001
100
AcDbPolyline
 90
        3
 70
     0
 43
0.0
 10
216.572223
 20
31.974059
 10
215.072223
 20
32.375983
 10
216.572223
 20
32.777906
  0
LWPOLYLINE
  5
FE
330
F3
100
AcDbEntity
  8
001
100
AcDbPolyline
 90
        3
 70
     0
 43
0.0
 10
202.572223
 20
32.777906
 10
204.072223
 20
32.375983
 10
202.572223
 20
31.974059
  0
TEXT
  5
103
330
F3
100
AcDbEntity
  8
001
100
AcDbText
 10
205.572223
 20
33.375983
 30
0.0
 40
4.0
  1
１１
 41
0.833333
100
AcDbText
  0
POINT
  5
104
330
F3
100
AcDbEntity
  8
001
100
AcDbPoint
 10
215.072223
 20
52.48429
 30
0.0
  0
POINT
  5
105
330
F3
100
AcDbEntity
  8
001
100
AcDbPoint
 10
204.072223
 20
49.167665
 30
0.0
  0
POINT
  5
106
330
F3
100
AcDbEntity
  8
001
100
AcDbPoint
 10
204.072223
 20
32.375983
 30
0.0
  0
LINE
  5
107
330
F3
100
AcDbEntity
  8
001
100
AcDbLine
 10
215.072223
 20
32.375983
 30
0.0
 11
217.572223
 21
32.375983
 31
0.0
  0
LINE
  5
108
330
F3
100
AcDbEntity
  8
001
100
AcDbLine
 10
204.072223
 20
32.375983
 30
0.0
 11
201.572223
 21
32.375983
 31
0.0
  0
ENDBLK
  5
F5
330
F3
100
AcDbEntity
  8
0
100
AcDbBlockEnd
  0
BLOCK
  5
1CE
330
1C2
100
AcDbEntity
  8
0
100
AcDbBlockBegin
  2
*D9
 70
     1
 10
0.0
 20
0.0
 30
0.0
  3
*D9
  1

  0
LINE
  5
1C3
330
1C2
100
AcDbEntity
  8
0
 62
     0
100
AcDbLine
 10
-8.297260999999999
 20
49.08429
 30
0.0
 11
-20.51048368819041
 21
49.08429
 31
0.0
  0
LINE
  5
1C4
330
1C2
100
AcDbEntity
  8
0
 62
     0
100
AcDbLine
 10
-8.297260999999999
 20
52.48429
 30
0.0
 11
-20.51048368819041
 21
52.48429
 31
0.0
  0
LINE
  5
1C5
330
1C2
100
AcDbEntity
  8
0
 62
     0
100
AcDbLine
 10
-19.26048368819041
 20
54.98429
 30
0.0
 11
-19.26048368819041
 21
57.48429
 31
0.0
  0
LINE
  5
1C6
330
1C2
100
AcDbEntity
  8
0
 62
     0
100
AcDbLine
 10
-19.26048368819041
 20
49.08429
 30
0.0
 11
-19.26048368819041
 21
52.48429
 31
0.0
  0
LINE
  5
1C7
330
1C2
100
AcDbEntity
  8
0
 62
     0
100
AcDbLine
 10
-19.26048368819041
 20
49.08429
 30
0.0
 11
-19.26048368819041
 21
44.08429
 31
0.0
  0
SOLID
  5
1C8
330
1C2
100
AcDbEntity
  8
0
 62
     0
100
AcDbTrace
 10
-18.84381702152374
 20
46.58429
 30
0.0
 11
-19.67715035485708
 21
46.58429
 31
0.0
 12
-19.26048368819041
 22
49.08429
 32
0.0
 13
-19.26048368819041
 23
49.08429
 33
0.0
  0
SOLID
  5
1C9
330
1C2
100
AcDbEntity
  8
0
 62
     0
100
AcDbTrace
 10
-19.67715035485708
 20
54.98429
 30
0.0
 11
-18.84381702152374
 21
54.98429
 31
0.0
 12
-19.26048368819041
 22
52.48429
 32
0.0
 13
-19.26048368819041
 23
52.48429
 33
0.0
  0
MTEXT
  5
1CA
330
1C2
100
AcDbEntity
  8
0
 62
     0
100
AcDbMText
 10
-19.26048368819041
 20
60.81762333333333
 30
0.0
 40
2.5
 41
0.0
 71
     5
 72
     1
  1
3,4
 11
0.0
 21
1.0
 31
0.0
  0
POINT
  5
1CB
330
1C2
100
AcDbEntity
  8
DEFPOINTS
 62
     0
100
AcDbPoint
 10
-7.672261
 20
49.08429
 30
0.0
  0
POINT
  5
1CC
330
1C2
100
AcDbEntity
  8
DEFPOINTS
 62
     0
100
AcDbPoint
 10
-7.672261
 20
52.48429
 30
0.0
  0
POINT
  5
1CD
330
1C2
100
AcDbEntity
  8
DEFPOINTS
 62
     0
100
AcDbPoint
 10
-19.26048368819041
 20
52.48429
 30
0.0
  0
ENDBLK
  5
1CF
330
1C2
100
AcDbEntity
  8
0
100
AcDbBlockEnd
  0
BLOCK
  5
1E0
330
1D4
100
AcDbEntity
  8
0
100
AcDbBlockBegin
  2
*D10
 70
     1
 10
0.0
 20
0.0
 30
0.0
  3
*D10
  1

  0
LINE
  5
1D5
330
1D4
100
AcDbEntity
  8
0
 62
     0
100
AcDbLine
 10
-8.297260999999999
 20
49.06429
 30
0.0
 11
-18.20901396812104
 21
49.06429
 31
0.0
  0
LINE
  5
1D6
330
1D4
100
AcDbEntity
  8
0
 62
     0
100
AcDbLine
 10
-8.297260999999999
 20
52.48429
 30
0.0
 11
-18.20901396812104
 21
52.48429
 31
0.0
  0
LINE
  5
1D7
330
1D4
100
AcDbEntity
  8
0
 62
     0
100
AcDbLine
 10
-16.95901396812104
 20
54.98429
 30
0.0
 11
-16.95901396812104
 21
57.48429
 31
0.0
  0
LINE
  5
1D8
330
1D4
100
AcDbEntity
  8
0
 62
     0
100
AcDbLine
 10
-16.95901396812104
 20
49.06429
 30
0.0
 11
-16.95901396812104
 21
52.48429
 31
0.0
  0
LINE
  5
1D9
330
1D4
100
AcDbEntity
  8
0
 62
     0
100
AcDbLine
 10
-16.95901396812104
 20
49.06429
 30
0.0
 11
-16.95901396812104
 21
44.06429
 31
0.0
  0
INSERT
  5
1DA
330
1D4
100
AcDbEntity
  8
0
 62
     0
100
AcDbBlockReference
  2
_OPEN
 10
-16.95901396812104
 20
49.06429
 30
0.0
 41
2.5
 42
2.5
 43
2.5
 50
90.0
  0
INSERT
  5
1DB
330
1D4
100
AcDbEntity
  8
0
 62
     0
100
AcDbBlockReference
  2
_OPEN
 10
-16.95901396812104
 20
52.48429
 30
0.0
 41
2.5
 42
2.5
 43
2.5
 50
270.0
  0
MTEXT
  5
1DC
330
1D4
100
AcDbEntity
  8
0
 62
     0
100
AcDbMText
 10
-16.95901396812104
 20
63.65095666666667
 30
0.0
 40
3.5
 41
0.0
 71
     5
 72
     1
  1
3,42
 11
0.0
 21
1.0
 31
0.0
  0
POINT
  5
1DD
330
1D4
100
AcDbEntity
  8
DEFPOINTS
 62
     0
100
AcDbPoint
 10
-7.672261
 20
49.06429
 30
0.0
  0
POINT
  5
1DE
330
1D4
100
AcDbEntity
  8
DEFPOINTS
 62
     0
100
AcDbPoint
 10
-7.672261
 20
52.48429
 30
0.0
  0
POINT
  5
1DF
330
1D4
100
AcDbEntity
  8
DEFPOINTS
 62
     0
100
AcDbPoint
 10
-16.95901396812104
 20
52.48429
 30
0.0
  0
ENDBLK
  5
1E1
330
1D4
100
AcDbEntity
  8
0
100
AcDbBlockEnd
  0
BLOCK
  5
1E3
330
1E2
100
AcDbEntity
  8
0
100
AcDbBlockBegin
  2
_OPEN
 70
     0
 10
0.0
 20
0.0
 30
0.0
  3
_OPEN
  1

  0
LINE
  5
1E5
330
1E2
100
AcDbEntity
  8
0
  6
BYBLOCK
 62
     0
100
AcDbLine
 10
-1.0
 20
0.166667
 30
0.0
 11
0.0
 21
0.0
 31
0.0
  0
LINE
  5
1E6
330
1E2
100
AcDbEntity
  8
0
  6
BYBLOCK
 62
     0
100
AcDbLine
 10
-1.0
 20
-0.166667
 30
0.0
 11
0.0
 21
0.0
 31
0.0
  0
LINE
  5
1E7
330
1E2
100
AcDbEntity
  8
0
  6
BYBLOCK
 62
     0
100
AcDbLine
 10
0.0
 20
0.0
 30
0.0
 11
-1.0
 21
0.0
 31
0.0
  0
ENDBLK
  5
1E4
330
1E2
100
AcDbEntity
  8
0
100
AcDbBlockEnd
  0
ENDSEC
  0
SECTION
  2
ENTITIES
  0
TEXT
  5
109
330
1F
100
AcDbEntity
  8
001
100
AcDbText
 10
69.567637
 20
54.131403
 30
0.0
 40
4.0
  1
%%c１２
 50
90.000003
 41
0.882353
100
AcDbText
  0
LWPOLYLINE
  5
10A
330
1F
100
AcDbEntity
  8
001
100
AcDbPolyline
 90
        3
 70
     0
 43
0.0
 10
70.969561
 20
47.994162
 10
70.567637
 20
46.494162
 10
70.165713
 20
47.994162
  0
LINE
  5
10F
330
1F
100
AcDbEntity
  8
001
100
AcDbLine
 10
70.567637
 20
58.474418
 30
0.0
 11
70.567637
 21
46.494162
 31
0.0
  0
LWPOLYLINE
  5
110
330
1F
100
AcDbEntity
  8
001
100
AcDbPolyline
 90
        3
 70
     0
 43
0.0
 10
53.506562
 20
46.494162
 10
70.567637
 20
46.494162
 10
73.317637
 20
46.494162
  0
DIMENSION
  5
115
330
1F
100
AcDbEntity
  8
001
100
AcDbDimension
  2
*D1
 10
59.49669
 20
52.48429
 30
0.0
 11
35.345408
 21
42.480501
 31
0.0
 70
    34
  3
STANDARD
100
AcDb2LineAngularDimension
 13
51.212969
 23
44.200569
 33
0.0
 14
59.49669
 24
52.48429
 34
0.0
 15
44.835342
 25
52.48429
 35
0.0
 16
32.573768
 26
41.33245
 36
0.0
  0
DIMENSION
  5
116
330
1F
100
AcDbEntity
  8
001
100
AcDbDimension
  2
*D2
 10
41.877067
 20
44.08429
 30
0.0
 11
37.63099
 21
50.767444
 31
0.0
 70
   160
  3
STANDARD
100
AcDbAlignedDimension
 13
47.106562
 23
54.08429
 33
0.0
 14
42.560955
 24
44.08429
 34
0.0
 50
270.0
100
AcDbRotatedDimension
  0
TEXT
  5
117
330
1F
100
AcDbEntity
  8
001
100
AcDbText
 10
21.68311
 20
42.362415
 30
0.0
 40
4.0
  1
%%c１６．８
 50
90.000003
 41
0.862069
100
AcDbText
  0
LWPOLYLINE
  5
118
330
1F
100
AcDbEntity
  8
001
100
AcDbPolyline
 90
        3
 70
     0
 43
0.0
 10
25.416138
 20
45.58429
 10
25.014214
 20
44.08429
 10
24.61229
 20
45.58429
  0
LINE
  5
11D
330
1F
100
AcDbEntity
  8
001
100
AcDbLine
 10
25.014214
 20
60.88429
 30
0.0
 11
25.014214
 21
44.08429
 31
0.0
  0
LWPOLYLINE
  5
11E
330
1F
100
AcDbEntity
  8
001
100
AcDbPolyline
 90
        3
 70
     0
 43
0.0
 10
42.560955
 20
44.08429
 10
25.014214
 20
44.08429
 10
22.264214
 20
44.08429
  0
DIMENSION
  5
123
330
1F
100
AcDbEntity
  8
001
100
AcDbDimension
  2
*D3
 10
46.606562
 20
33.214998
 30
0.0
 11
63.006562
 21
36.214998
 31
0.0
 70
   160
  3
STANDARD
100
AcDbAlignedDimension
 13
53.506562
 23
46.494162
 33
0.0
 14
46.606562
 24
40.121804
 34
0.0
 50
180.0
100
AcDbRotatedDimension
  0
DIMENSION
  5
124
330
1F
100
AcDbEntity
  8
001
100
AcDbDimension
  2
*D4
 10
46.606562
 20
23.597632
 30
0.0
 11
78.606562
 21
26.597632
 31
0.0
 70
   160
  3
STANDARD
100
AcDbAlignedDimension
 13
110.606562
 23
47.98429
 33
0.0
 14
46.606562
 24
40.121804
 34
0.0
 50
180.0
100
AcDbRotatedDimension
  0
DIMENSION
  5
125
330
1F
100
AcDbEntity
  8
001
100
AcDbDimension
  2
*D5
 10
110.606562
 20
23.597632
 30
0.0
 11
143.106562
 21
26.597632
 31
0.0
 70
   160
  3
STANDARD
100
AcDbAlignedDimension
 13
175.606562
 23
47.48429
 33
0.0
 14
110.606562
 24
47.98429
 34
0.0
 50
180.0
100
AcDbRotatedDimension
  0
DIMENSION
  5
126
330
1F
100
AcDbEntity
  8
001
100
AcDbDimension
  2
*D6
 10
175.606562
 20
12.883549
 30
0.0
 11
111.106562
 21
15.883549
 31
0.0
 70
   160
  3
STANDARD
100
AcDbAlignedDimension
 13
46.606562
 23
40.121804
 33
0.0
 14
175.606562
 24
47.48429
 34
0.0
100
AcDbRotatedDimension
  0
DIMENSION
  5
127
330
1F
100
AcDbEntity
  8
001
100
AcDbDimension
  2
*D7
 10
189.675907
 20
46.48429
 30
0.0
 11
186.675907
 21
52.48429
 31
0.0
 70
   160
  3
STANDARD
100
AcDbAlignedDimension
 13
174.606562
 23
58.48429
 33
0.0
 14
174.606562
 24
46.48429
 34
0.0
 50
270.0
100
AcDbRotatedDimension
  0
DIMENSION
  5
128
330
1F
100
AcDbEntity
  8
001
100
AcDbDimension
  2
*D8
 10
204.072223
 20
32.375983
 30
0.0
 11
209.572223
 21
35.375983
 31
0.0
 70
   160
  3
STANDARD
100
AcDbAlignedDimension
 13
215.072223
 23
52.48429
 33
0.0
 14
204.072223
 24
49.167665
 34
0.0
 50
180.0
100
AcDbRotatedDimension
  0
LINE
  5
129
330
1F
100
AcDbEntity
  8
001
  6
CENTER
100
AcDbLine
 10
209.072223
 20
58.753697
 30
0.0
 11
209.072223
 21
46.024625
 31
0.0
  0
LINE
  5
12A
330
1F
100
AcDbEntity
  8
001
100
AcDbLine
 10
204.072223
 20
49.167665
 30
0.0
 11
204.072223
 21
55.800915
 31
0.0
  0
ARC
  5
12B
330
1F
100
AcDbEntity
  8
001
100
AcDbCircle
 10
209.072223
 20
52.48429
 30
0.0
 40
6.0
100
AcDbArc
 50
213.55731
 51
146.44269
  0
LINE
  5
12C
330
1F
100
AcDbEntity
  8
001
  6
CENTER
100
AcDbLine
 10
215.604205
 20
52.48429
 30
0.0
 11
202.735103
 21
52.48429
 31
0.0
  0
LINE
  5
12D
330
1F
100
AcDbEntity
  8
001
100
AcDbLine
 10
170.606562
 20
49.167665
 30
0.0
 11
170.606562
 21
55.800915
 31
0.0
  0
LINE
  5
12E
330
1F
100
AcDbEntity
  8
001
100
AcDbLine
 10
115.606562
 20
49.167665
 30
0.0
 11
115.606562
 21
55.800915
 31
0.0
  0
LINE
  5
12F
330
1F
100
AcDbEntity
  8
001
100
AcDbLine
 10
112.106562
 20
58.48429
 30
0.0
 11
112.106562
 21
46.48429
 31
0.0
  0
ARC
  5
130
330
1F
100
AcDbEntity
  8
001
100
AcDbCircle
 10
174.606562
 20
57.48429
 30
0.0
 40
1.000000000000001
100
AcDbArc
 50
0.0
 51
90.0
  0
ARC
  5
131
330
1F
100
AcDbEntity
  8
001
100
AcDbCircle
 10
174.606562
 20
47.48429
 30
0.0
 40
1.000000000000001
100
AcDbArc
 50
270.0
 51
0.0
  0
LINE
  5
132
330
1F
100
AcDbEntity
  8
001
100
AcDbLine
 10
175.606562
 20
57.48429
 30
0.0
 11
175.606562
 21
47.48429
 31
0.0
  0
LINE
  5
133
330
1F
100
AcDbEntity
  8
001
100
AcDbLine
 10
110.604837
 20
56.982565
 30
0.0
 11
112.106562
 21
58.48429
 31
0.0
  0
LINE
  5
134
330
1F
100
AcDbEntity
  8
001
100
AcDbLine
 10
110.606562
 20
47.98429
 30
0.0
 11
112.106562
 21
46.48429
 31
0.0
  0
LINE
  5
135
330
1F
100
AcDbEntity
  8
001
100
AcDbLine
 10
110.606562
 20
56.98429
 30
0.0
 11
110.606562
 21
47.98429
 31
0.0
  0
LINE
  5
136
330
1F
100
AcDbEntity
  8
001
100
AcDbLine
 10
175.606562
 20
52.48429
 30
0.0
 11
177.338613
 21
53.48429
 31
0.0
  0
LINE
  5
137
330
1F
100
AcDbEntity
  8
001
100
AcDbLine
 10
175.606562
 20
52.48429
 30
0.0
 11
177.338613
 21
51.48429
 31
0.0
  0
LINE
  5
138
330
1F
100
AcDbEntity
  8
001
100
AcDbLine
 10
174.606562
 20
58.48429
 30
0.0
 11
112.106562
 21
58.48429
 31
0.0
  0
LINE
  5
139
330
1F
100
AcDbEntity
  8
001
100
AcDbLine
 10
115.606562
 20
55.800915
 30
0.0
 11
170.606562
 21
55.800915
 31
0.0
  0
LINE
  5
13A
330
1F
100
AcDbEntity
  8
001
100
AcDbLine
 10
115.606562
 20
49.167665
 30
0.0
 11
170.606562
 21
49.167665
 31
0.0
  0
LINE
  5
13B
330
1F
100
AcDbEntity
  8
001
100
AcDbLine
 10
112.106562
 20
46.48429
 30
0.0
 11
174.606562
 21
46.48429
 31
0.0
  0
LINE
  5
13C
330
1F
100
AcDbEntity
  8
001
  6
CENTER
100
AcDbLine
 10
44.835342
 20
52.48429
 30
0.0
 11
177.231018
 21
52.48429
 31
0.0
  0
LINE
  5
13D
330
1F
100
AcDbEntity
  8
001
100
AcDbLine
 10
170.606562
 20
55.800915
 30
0.0
 11
115.606562
 21
49.167665
 31
0.0
  0
LINE
  5
13E
330
1F
100
AcDbEntity
  8
001
100
AcDbLine
 10
115.606562
 20
55.800915
 30
0.0
 11
170.606562
 21
49.167665
 31
0.0
  0
ARC
  5
13F
330
1F
100
AcDbEntity
  8
001
100
AcDbCircle
 10
50.933958
 20
49.109973
 30
0.0
 40
0.175
100
AcDbArc
 50
14.513061
 51
165.206939
  0
ARC
  5
140
330
1F
100
AcDbEntity
  8
001
100
AcDbCircle
 10
50.458261
 20
49.235596
 30
0.0
 40
0.3170045884846417
100
AcDbArc
 50
254.5130610000001
 51
345.2069389999999
  0
ARC
  5
141
330
1F
100
AcDbEntity
  8
001
100
AcDbCircle
 10
50.326887
 20
48.761455
 30
0.0
 40
0.175
100
AcDbArc
 50
74.513061
 51
225.206939
  0
ARC
  5
142
330
1F
100
AcDbEntity
  8
001
100
AcDbCircle
 10
49.980246
 20
48.412301
 30
0.0
 40
0.3170045884846417
100
AcDbArc
 50
314.513061
 51
45.206939
  0
ARC
  5
143
330
1F
100
AcDbEntity
  8
001
100
AcDbCircle
 10
50.325176
 20
48.061458
 30
0.0
 40
0.175
100
AcDbArc
 50
134.513061
 51
285.206939
  0
ARC
  5
144
330
1F
100
AcDbEntity
  8
001
100
AcDbCircle
 10
50.454232
 20
47.586681
 30
0.0
 40
0.3170045884846417
100
AcDbArc
 50
14.513061
 51
105.206939
  0
ARC
  5
145
330
1F
100
AcDbEntity
  8
001
100
AcDbCircle
 10
50.930537
 20
47.709977
 30
0.0
 40
0.175
100
AcDbArc
 50
194.513061
 51
345.2069389999999
  0
ARC
  5
146
330
1F
100
AcDbEntity
  8
001
100
AcDbCircle
 10
51.406234
 20
47.584354
 30
0.0
 40
0.3170045884846417
100
AcDbArc
 50
74.513061
 51
165.206939
  0
ARC
  5
147
330
1F
100
AcDbEntity
  8
001
100
AcDbCircle
 10
51.537608
 20
48.058495
 30
0.0
 40
0.175
100
AcDbArc
 50
254.5130610000001
 51
45.206939
  0
ARC
  5
148
330
1F
100
AcDbEntity
  8
001
100
AcDbCircle
 10
51.884249
 20
48.407649
 30
0.0
 40
0.3170045884846417
100
AcDbArc
 50
134.513061
 51
225.206939
  0
ARC
  5
149
330
1F
100
AcDbEntity
  8
001
100
AcDbCircle
 10
51.539319
 20
48.758493
 30
0.0
 40
0.175
100
AcDbArc
 50
314.513061
 51
105.206939
  0
ARC
  5
14A
330
1F
100
AcDbEntity
  8
001
100
AcDbCircle
 10
51.410263
 20
49.23327
 30
0.0
 40
0.3170045884846417
100
AcDbArc
 50
194.513061
 51
285.206939
  0
CIRCLE
  5
14B
330
1F
100
AcDbEntity
  8
001
100
AcDbCircle
 10
50.932248
 20
48.409975
 30
0.0
 40
1.3
  0
CIRCLE
  5
14C
330
1F
100
AcDbEntity
  8
001
100
AcDbCircle
 10
50.932248
 20
48.409975
 30
0.0
 40
1.7
  0
LINE
  5
14D
330
1F
100
AcDbEntity
  8
001
100
AcDbLine
 10
51.212969
 20
44.200569
 30
0.0
 11
55.141654
 21
48.129254
 31
0.0
  0
ARC
  5
14E
330
1F
100
AcDbEntity
  8
001
100
AcDbCircle
 10
50.932248
 20
44.48129
 30
0.0
 40
0.397
100
AcDbArc
 50
225.0
 51
315.0
  0
LINE
  5
14F
330
1F
100
AcDbEntity
  8
001
100
AcDbLine
 10
46.722841
 20
48.129254
 30
0.0
 11
50.651526
 21
44.200569
 31
0.0
  0
ARC
  5
150
330
1F
100
AcDbEntity
  8
001
100
AcDbCircle
 10
47.003562
 20
48.409975
 30
0.0
 40
0.3970000000000022
100
AcDbArc
 50
135.0
 51
225.0
  0
ARC
  5
151
330
1F
100
AcDbEntity
  8
001
100
AcDbCircle
 10
50.932248
 20
52.338661
 30
0.0
 40
0.3970000000000027
100
AcDbArc
 50
45.0
 51
135.0
  0
LINE
  5
152
330
1F
100
AcDbEntity
  8
001
100
AcDbLine
 10
55.141654
 20
48.690697
 30
0.0
 11
51.212969
 21
52.619382
 31
0.0
  0
ARC
  5
153
330
1F
100
AcDbEntity
  8
001
100
AcDbCircle
 10
54.860933
 20
48.409975
 30
0.0
 40
0.3970000000000043
100
AcDbArc
 50
315.0
 51
45.0
  0
LINE
  5
154
330
1F
100
AcDbEntity
  8
001
100
AcDbLine
 10
50.651526
 20
52.619382
 30
0.0
 11
46.722841
 21
48.690697
 31
0.0
  0
LWPOLYLINE
  5
155
330
1F
100
AcDbEntity
  8
001
100
AcDbPolyline
 90
        5
 70
     0
 43
0.0
 10
55.155777
 20
48.171362
 10
55.281424
 20
48.10784
 10
55.471569
 20
48.031304
 10
55.604518
 20
47.996812
 10
55.697597
 20
47.98429
  0
LINE
  5
15C
330
1F
100
AcDbEntity
  8
001
100
AcDbLine
 10
55.697597
 20
47.98429
 30
0.0
 11
110.606562
 21
47.98429
 31
0.0
  0
LWPOLYLINE
  5
15D
330
1F
100
AcDbEntity
  8
001
100
AcDbPolyline
 90
        5
 70
     0
 43
0.0
 10
55.697597
 20
47.98429
 10
55.723126
 20
47.985229
 10
55.75959
 20
47.991261
 10
55.788627
 20
48.001995
 10
55.807381
 20
48.012154
  0
LINE
  5
164
330
1F
100
AcDbEntity
  8
001
100
AcDbLine
 10
57.606562
 20
48.012154
 30
0.0
 11
55.807381
 21
48.012154
 31
0.0
  0
ARC
  5
165
330
1F
100
AcDbEntity
  8
001
100
AcDbCircle
 10
57.106562
 20
52.48429
 30
0.0
 40
4.5
100
AcDbArc
 50
276.37937
 51
337.666145
  0
LWPOLYLINE
  5
166
330
1F
100
AcDbEntity
  8
001
100
AcDbPolyline
 90
       49
 70
     0
 43
0.0
 10
107.606562
 20
50.774277
 10
107.736062
 20
50.779448
 10
107.86514
 20
50.789236
 10
107.993616
 20
50.807303
 10
108.120861
 20
50.833262
 10
108.245634
 20
50.86578
 10
108.368374
 20
50.905082
 10
108.487677
 20
50.950974
 10
108.604271
 20
51.003433
 10
108.717897
 20
51.062047
 10
108.828285
 20
51.126536
 10
108.934758
 20
51.196365
 10
109.037519
 20
51.271549
 10
109.14168
 20
51.356376
 10
109.2414
 20
51.446393
 10
109.337086
 20
51.541572
 10
109.428247
 20
51.641089
 10
109.514998
 20
51.744712
 10
109.59722
 20
51.851966
 10
109.689038
 20
51.983578
 10
109.774777
 20
52.119242
 10
109.855171
 20
52.259215
 10
109.929958
 20
52.402259
 10
109.999309
 20
52.547793
 10
110.063554
 20
52.695653
 10
110.132312
 20
52.87051
 10
110.194901
 20
53.047674
 10
110.251395
 20
53.225557
 10
110.302584
 20
53.405036
 10
110.34799
 20
53.582515
 10
110.388881
 20
53.761087
 10
110.41954
 20
53.909774
 10
110.447426
 20
54.059004
 10
110.472126
 20
54.205259
 10
110.494421
 20
54.3519
 10
110.513824
 20
54.494261
 10
110.531157
 20
54.63689
 10
110.545917
 20
54.773902
 10
110.558924
 20
54.911091
 10
110.57067
 20
55.053963
 10
110.580657
 20
55.196969
 10
110.588534
 20
55.332306
 10
110.594924
 20
55.467721
 10
110.599584
 20
55.594239
 10
110.60304
 20
55.720797
 10
110.60519
 20
55.837217
 10
110.606318
 20
55.95365
 10
110.606475
 20
55.995523
 10
110.606562
 20
56.037397
  0
ARC
  5
199
330
1F
100
AcDbEntity
  8
001
100
AcDbCircle
 10
107.606562
 20
57.08429
 30
0.0
 40
3.0
100
AcDbArc
 50
270.0
 51
358.05682
  0
LINE
  5
19A
330
1F
100
AcDbEntity
  8
001
100
AcDbLine
 10
57.606562
 20
54.056426
 30
0.0
 11
57.606562
 21
48.012154
 31
0.0
  0
LINE
  5
19B
330
1F
100
AcDbEntity
  8
001
100
AcDbLine
 10
47.106562
 20
54.08429
 30
0.0
 11
107.606562
 21
54.08429
 31
0.0
  0
LINE
  5
19C
330
1F
100
AcDbEntity
  8
001
100
AcDbLine
 10
47.106562
 20
54.056426
 30
0.0
 11
57.606562
 21
54.056426
 31
0.0
  0
LINE
  5
19D
330
1F
100
AcDbEntity
  8
001
100
AcDbLine
 10
47.106562
 20
47.08429
 30
0.0
 11
49.439515
 21
44.751337
 31
0.0
  0
LINE
  5
19E
330
1F
100
AcDbEntity
  8
001
100
AcDbLine
 10
61.268996
 20
50.774277
 30
0.0
 11
107.606562
 21
50.774277
 31
0.0
  0
LINE
  5
19F
330
1F
100
AcDbEntity
  8
001
100
AcDbLine
 10
55.234971
 20
48.581774
 30
0.0
 11
55.807381
 21
48.012154
 31
0.0
  0
LINE
  5
1A0
330
1F
100
AcDbEntity
  8
001
100
AcDbLine
 10
55.155777
 20
48.171362
 30
0.0
 11
55.150207
 21
48.176905
 31
0.0
  0
LINE
  5
1A1
330
1F
100
AcDbEntity
  8
001
100
AcDbLine
 10
55.155777
 20
48.171362
 30
0.0
 11
55.144896
 21
48.171362
 31
0.0
  0
LINE
  5
1A2
330
1F
100
AcDbEntity
  8
001
100
AcDbLine
 10
47.106562
 20
54.08429
 30
0.0
 11
47.106562
 21
49.095906
 31
0.0
  0
LINE
  5
1A3
330
1F
100
AcDbEntity
  8
001
100
AcDbLine
 10
47.106562
 20
47.08429
 30
0.0
 11
47.106562
 21
47.767008
 31
0.0
  0
ARC
  5
1A4
330
1F
100
AcDbEntity
  8
001
100
AcDbCircle
 10
50.924082
 20
51.838659
 30
0.0
 40
1.25
100
AcDbArc
 50
352.233356
 51
188.428595
  0
LINE
  5
1A5
330
1F
100
AcDbEntity
  8
001
100
AcDbLine
 10
50.137006
 20
44.751337
 30
0.0
 11
49.439515
 21
44.751337
 31
0.0
  0
LINE
  5
1A6
330
1F
100
AcDbEntity
  8
001
100
AcDbLine
 10
42.560955
 20
44.08429
 30
0.0
 11
50.932248
 21
44.08429
 31
0.0
  0
LINE
  5
1A7
330
1F
100
AcDbEntity
  8
001
100
AcDbLine
 10
46.606562
 20
48.409975
 30
0.0
 11
46.606562
 21
40.121804
 31
0.0
  0
LINE
  5
1A8
330
1F
100
AcDbEntity
  8
001
  6
PHANTOM
100
AcDbLine
 10
53.506562
 20
48.409975
 30
0.0
 11
53.506562
 21
46.494162
 31
0.0
  0
LINE
  5
1A9
330
1F
100
AcDbEntity
  8
001
  6
PHANTOM
100
AcDbLine
 10
53.506562
 20
46.494162
 30
0.0
 11
51.266183
 21
46.494162
 31
0.0
  0
ARC
  5
1AA
330
1F
100
AcDbEntity
  8
001
100
AcDbCircle
 10
56.363518
 20
48.984892
 30
0.0
 40
5.221648707280234
100
AcDbArc
 50
20.0406
 51
76.228177
  0
TEXT
  5
1AB
330
1F
100
AcDbEntity
  8
001
100
AcDbText
 10
5.295464
 20
74.013227
 30
0.0
 40
5.0
  1
ウラトリメンＣ　ＵＭＨ１２－１２Ｓ－Ｍ１４
 41
0.833333
100
AcDbText
  0
CIRCLE
  5
1AC
330
1F
100
AcDbEntity
  8
001
100
AcDbCircle
 10
2.727739
 20
52.48429
 30
0.0
 40
8.4
  0
CIRCLE
  5
1AD
330
1F
100
AcDbEntity
  8
001
100
AcDbCircle
 10
2.727739
 20
49.06429
 30
0.0
 40
5.0
  0
LINE
  5
1AE
102
{ACAD_REACTORS
102
}
330
1F
100
AcDbEntity
  8
001
  6
CENTER
 62
   253
100
AcDbLine
 10
-7.672261
 20
52.48429
 30
0.0
 11
13.127739
 21
52.48429
 31
0.0
  0
LINE
  5
1AF
330
1F
100
AcDbEntity
  8
001
  6
CENTER
 62
   253
100
AcDbLine
 10
2.727739
 20
42.08429
 30
0.0
 11
2.727739
 21
62.88429
 31
0.0
  0
LINE
  5
1D0
330
1F
100
AcDbEntity
  8
001
  6
CENTER
 62
   253
100
AcDbLine
 10
-7.672261
 20
49.06429
 30
0.0
 11
13.127739
 21
49.06429
 31
0.0
  0
DIMENSION
  5
1D1
330
1F
100
AcDbEntity
  8
0
100
AcDbDimension
  2
*D10
 10
-16.95901396812104
 20
52.48429
 30
0.0
 11
-16.95901396812104
 21
63.65095666666667
 31
0.0
 70
    33
  3
ISO-25
100
AcDbAlignedDimension
 13
-7.672261
 23
49.06429
 33
0.0
 14
-7.672261
 24
52.48429
 34
0.0
1001
ACAD
1000
DSTYLE
1002
{
1070
     7
1000
OPEN
1070
     6
1000
OPEN
1070
     5
1000

1070
   140
1040
3.5
1070
   173
1070
     1
1070
   141
1040
0.09
1070
    77
1070
     0
1002
}
  0
ENDSEC
  0
SECTION
  2
OBJECTS
  0
DICTIONARY
  5
C
330
0
100
AcDbDictionary
  3
ACAD_GROUP
350
D
  3
ACAD_IMAGE_VARS
350
1BD
  3
ACAD_MLINESTYLE
350
17
  3
ACAD_SCALELIST
350
1ED
  3
ACDBVARIABLEDICTIONARY
350
1B1
  3
APPDATA
350
1BC
  3
DWGPROPS
350
234
  0
DICTIONARY
  5
D
102
{ACAD_REACTORS
330
C
102
}
330
C
100
AcDbDictionary
  0
RASTERVARIABLES
  5
1BD
102
{ACAD_REACTORS
330
C
102
}
330
C
100
AcDbRasterVariables
 90
        0
 70
     1
 71
     1
 72
     1
  0
DICTIONARY
  5
17
102
{ACAD_REACTORS
330
C
102
}
330
C
100
AcDbDictionary
  3
STANDARD
350
18
  0
DICTIONARY
  5
1ED
102
{ACAD_REACTORS
330
C
102
}
330
C
100
AcDbDictionary
  0
DICTIONARY
  5
1B1
102
{ACAD_REACTORS
330
C
102
}
330
C
100
AcDbDictionary
  0
DICTIONARY
  5
1BC
102
{ACAD_REACTORS
330
C
102
}
330
C
100
AcDbDictionary
  0
XRECORD
  5
234
102
{ACAD_REACTORS
330
C
102
}
330
C
100
AcDbXrecord
  1
DWGPROPS COOKIE
  2

  3

  4

  6

  7

  8
kaihatu03
  9

300
=
301
=
302
=
303
=
304
=
305
=
306
=
307
=
308
=
309
=
 40
0.0
 41
2454734.048854526
 42
2457962.05664044
  1

 90
        0
  0
MLINESTYLE
  5
18
102
{ACAD_REACTORS
330
17
102
}
330
17
100
AcDbMlineStyle
  2
Standard
 70
     0
  3

 62
   256
 51
90.0
 52
90.0
 71
     2
 49
0.5
 62
   256
  6
BYLAYER
 49
-0.5
 62
   256
  6
BYLAYER
  0
ENDSEC
  0
EOF
