  0
SECTION
  2
HEADER
  9
$ACADVER
  1
AC1015
  9
$ACADMAINTVER
 70
     6
  9
$DWGCODEPAGE
  3
ANSI_932
  9
$INSBASE
 10
0.0
 20
0.0
 30
0.0
  9
$EXTMIN
 10
-16.327271
 20
57.322388
 30
0.0
  9
$EXTMAX
 10
182.386978
 20
175.534882
 30
0.0
  9
$LIMMIN
 10
0.0
 20
0.0
  9
$LIMMAX
 10
12.0
 20
9.0
  9
$ORTHOMODE
 70
     0
  9
$REGENMODE
 70
     1
  9
$FILLMODE
 70
     1
  9
$QTEXTMODE
 70
     0
  9
$MIRRTEXT
 70
     1
  9
$LTSCALE
 40
2.312175
  9
$ATTMODE
 70
     1
  9
$TEXTSIZE
 40
3.2
  9
$TRACEWID
 40
1.0
  9
$TEXTSTYLE
  7
Standard
  9
$CLAYER
  8
0
  9
$CELTYPE
  6
ByLayer
  9
$CECOLOR
 62
   256
  9
$CELTSCALE
 40
1.0
  9
$DISPSILH
 70
     0
  9
$DIMSCALE
 40
1.0
  9
$DIMASZ
 40
2.5
  9
$DIMEXO
 40
0.625
  9
$DIMDLI
 40
3.75
  9
$DIMRND
 40
0.0
  9
$DIMDLE
 40
0.0
  9
$DIMEXE
 40
1.25
  9
$DIMTP
 40
0.0
  9
$DIMTM
 40
0.0
  9
$DIMTXT
 40
2.5
  9
$DIMCEN
 40
0.09
  9
$DIMTSZ
 40
0.0
  9
$DIMTOL
 70
     0
  9
$DIMLIM
 70
     0
  9
$DIMTIH
 70
     0
  9
$DIMTOH
 70
     0
  9
$DIMSE1
 70
     0
  9
$DIMSE2
 70
     0
  9
$DIMTAD
 70
     0
  9
$DIMZIN
 70
     8
  9
$DIMBLK
  1

  9
$DIMASO
 70
     1
  9
$DIMSHO
 70
     0
  9
$DIMPOST
  1

  9
$DIMAPOST
  1

  9
$DIMALT
 70
     0
  9
$DIMALTD
 70
     3
  9
$DIMALTF
 40
0.03937
  9
$DIMLFAC
 40
1.0
  9
$DIMTOFL
 70
     1
  9
$DIMTVP
 40
0.0
  9
$DIMTIX
 70
     0
  9
$DIMSOXD
 70
     0
  9
$DIMSAH
 70
     0
  9
$DIMBLK1
  1

  9
$DIMBLK2
  1

  9
$DIMSTYLE
  2
ISO-25
  9
$DIMCLRD
 70
     0
  9
$DIMCLRE
 70
     0
  9
$DIMCLRT
 70
     0
  9
$DIMTFAC
 40
1.0
  9
$DIMGAP
 40
0.625
  9
$DIMJUST
 70
     0
  9
$DIMSD1
 70
     0
  9
$DIMSD2
 70
     0
  9
$DIMTOLJ
 70
     0
  9
$DIMTZIN
 70
     8
  9
$DIMALTZ
 70
     0
  9
$DIMALTTZ
 70
     0
  9
$DIMUPT
 70
     0
  9
$DIMDEC
 70
     2
  9
$DIMTDEC
 70
     2
  9
$DIMALTU
 70
     2
  9
$DIMALTTD
 70
     3
  9
$DIMTXSTY
  7
Standard
  9
$DIMAUNIT
 70
     0
  9
$DIMADEC
 70
     0
  9
$DIMALTRND
 40
0.0
  9
$DIMAZIN
 70
     0
  9
$DIMDSEP
 70
    44
  9
$DIMATFIT
 70
     3
  9
$DIMFRAC
 70
     0
  9
$DIMLDRBLK
  1

  9
$DIMLUNIT
 70
     2
  9
$DIMLWD
 70
    -2
  9
$DIMLWE
 70
    -2
  9
$DIMTMOVE
 70
     0
  9
$LUNITS
 70
     2
  9
$LUPREC
 70
     4
  9
$SKETCHINC
 40
1.0
  9
$FILLETRAD
 40
0.0
  9
$AUNITS
 70
     0
  9
$AUPREC
 70
     0
  9
$MENU
  1
.
  9
$ELEVATION
 40
0.0
  9
$PELEVATION
 40
0.0
  9
$THICKNESS
 40
0.0
  9
$LIMCHECK
 70
     0
  9
$CHAMFERA
 40
10.0
  9
$CHAMFERB
 40
10.0
  9
$CHAMFERC
 40
20.0
  9
$CHAMFERD
 40
0.0
  9
$SKPOLY
 70
     0
  9
$TDCREATE
 40
2454728.392768009
  9
$TDUCREATE
 40
2454728.017768009
  9
$TDUPDATE
 40
2454728.392768021
  9
$TDUUPDATE
 40
2454728.017768021
  9
$TDINDWG
 40
0.0000000116
  9
$TDUSRTIMER
 40
0.0000000116
  9
$USRTIMER
 70
     1
  9
$ANGBASE
 50
0.0
  9
$ANGDIR
 70
     0
  9
$PDMODE
 70
     0
  9
$PDSIZE
 40
0.0
  9
$PLINEWID
 40
0.0
  9
$SPLFRAME
 70
     0
  9
$SPLINETYPE
 70
     6
  9
$SPLINESEGS
 70
     8
  9
$HANDSEED
  5
388
  9
$SURFTAB1
 70
     6
  9
$SURFTAB2
 70
     6
  9
$SURFTYPE
 70
     6
  9
$SURFU
 70
     6
  9
$SURFV
 70
     6
  9
$UCSBASE
  2

  9
$UCSNAME
  2

  9
$UCSORG
 10
0.0
 20
0.0
 30
0.0
  9
$UCSXDIR
 10
1.0
 20
0.0
 30
0.0
  9
$UCSYDIR
 10
0.0
 20
1.0
 30
0.0
  9
$UCSORTHOREF
  2

  9
$UCSORTHOVIEW
 70
     0
  9
$UCSORGTOP
 10
0.0
 20
0.0
 30
0.0
  9
$UCSORGBOTTOM
 10
0.0
 20
0.0
 30
0.0
  9
$UCSORGLEFT
 10
0.0
 20
0.0
 30
0.0
  9
$UCSORGRIGHT
 10
0.0
 20
0.0
 30
0.0
  9
$UCSORGFRONT
 10
0.0
 20
0.0
 30
0.0
  9
$UCSORGBACK
 10
0.0
 20
0.0
 30
0.0
  9
$PUCSBASE
  2

  9
$PUCSNAME
  2

  9
$PUCSORG
 10
0.0
 20
0.0
 30
0.0
  9
$PUCSXDIR
 10
1.0
 20
0.0
 30
0.0
  9
$PUCSYDIR
 10
0.0
 20
1.0
 30
0.0
  9
$PUCSORTHOREF
  2

  9
$PUCSORTHOVIEW
 70
     0
  9
$PUCSORGTOP
 10
0.0
 20
0.0
 30
0.0
  9
$PUCSORGBOTTOM
 10
0.0
 20
0.0
 30
0.0
  9
$PUCSORGLEFT
 10
0.0
 20
0.0
 30
0.0
  9
$PUCSORGRIGHT
 10
0.0
 20
0.0
 30
0.0
  9
$PUCSORGFRONT
 10
0.0
 20
0.0
 30
0.0
  9
$PUCSORGBACK
 10
0.0
 20
0.0
 30
0.0
  9
$USERI1
 70
     0
  9
$USERI2
 70
     0
  9
$USERI3
 70
     0
  9
$USERI4
 70
     0
  9
$USERI5
 70
     0
  9
$USERR1
 40
0.0
  9
$USERR2
 40
0.0
  9
$USERR3
 40
0.0
  9
$USERR4
 40
0.0
  9
$USERR5
 40
0.0
  9
$WORLDVIEW
 70
     1
  9
$SHADEDGE
 70
     3
  9
$SHADEDIF
 70
    70
  9
$TILEMODE
 70
     1
  9
$MAXACTVP
 70
    64
  9
$PINSBASE
 10
0.0
 20
0.0
 30
0.0
  9
$PLIMCHECK
 70
     0
  9
$PEXTMIN
 10
1.000000E+20
 20
1.000000E+20
 30
0.0
  9
$PEXTMAX
 10
-1.000000E+20
 20
-1.000000E+20
 30
0.0
  9
$PLIMMIN
 10
0.0
 20
0.0
  9
$PLIMMAX
 10
12.0
 20
9.0
  9
$UNITMODE
 70
     0
  9
$VISRETAIN
 70
     1
  9
$PLINEGEN
 70
     0
  9
$PSLTSCALE
 70
     1
  9
$TREEDEPTH
 70
  3020
  9
$CMLSTYLE
  2
Standard
  9
$CMLJUST
 70
     0
  9
$CMLSCALE
 40
20.0
  9
$PROXYGRAPHICS
 70
     1
  9
$MEASUREMENT
 70
     1
  9
$CELWEIGHT
370
    -1
  9
$ENDCAPS
280
     0
  9
$JOINSTYLE
280
     0
  9
$LWDISPLAY
290
     0
  9
$INSUNITS
 70
     4
  9
$HYPERLINKBASE
  1

  9
$STYLESHEET
  1

  9
$XEDIT
290
     1
  9
$CEPSNTYPE
380
     0
  9
$PSTYLEMODE
290
     1
  9
$FINGERPRINTGUID
  2
{D0DF0A98-EA4B-4D5D-8698-41176B9BC000}
  9
$VERSIONGUID
  2
{FAEB1C32-E019-11D5-929B-00C0DF256EC4}
  9
$EXTNAMES
290
     1
  9
$PSVPSCALE
 40
0.0
  9
$OLESTARTUP
290
     0
  0
ENDSEC
  0
SECTION
  2
CLASSES
  0
CLASS
  1
ACDBDICTIONARYWDFLT
  2
AcDbDictionaryWithDefault
  3
ObjectDBX Classes
 90
        0
280
     0
281
     0
  0
CLASS
  1
VISUALSTYLE
  2
AcDbVisualStyle
  3
ObjectDBX Classes
 90
     4095
280
     0
281
     0
  0
CLASS
  1
SCALE
  2
AcDbScale
  3
ObjectDBX Classes
 90
     1153
280
     0
281
     0
  0
CLASS
  1
DICTIONARYVAR
  2
AcDbDictionaryVar
  3
ObjectDBX Classes
 90
        0
280
     0
281
     0
  0
CLASS
  1
ACDBPLACEHOLDER
  2
AcDbPlaceHolder
  3
ObjectDBX Classes
 90
        0
280
     0
281
     0
  0
CLASS
  1
LAYOUT
  2
AcDbLayout
  3
ObjectDBX Classes
 90
        0
280
     0
281
     0
  0
ENDSEC
  0
SECTION
  2
TABLES
  0
TABLE
  2
VPORT
  5
8
330
0
100
AcDbSymbolTable
 70
     1
  0
VPORT
  5
29
330
8
100
AcDbSymbolTableRecord
100
AcDbViewportTableRecord
  2
*Active
 70
     0
 10
0.0
 20
0.0
 11
1.0
 21
1.0
 12
83.029854
 22
116.428635
 13
0.0
 23
0.0
 14
1.0
 24
1.0
 15
0.0
 25
0.0
 16
0.0
 26
0.0
 36
1.0
 17
0.0
 27
0.0
 37
0.0
 40
119.394619
 41
1.691288
 42
50.0
 43
0.0
 44
0.0
 50
0.0
 51
0.0
 71
     0
 72
   100
 73
     1
 74
     3
 75
     0
 76
     0
 77
     0
 78
     0
281
     0
 65
     1
110
0.0
120
0.0
130
0.0
111
1.0
121
0.0
131
0.0
112
0.0
122
1.0
132
0.0
 79
     0
146
0.0
  0
ENDTAB
  0
TABLE
  2
LTYPE
  5
5
330
0
100
AcDbSymbolTable
 70
     5
  0
LTYPE
  5
14
330
5
100
AcDbSymbolTableRecord
100
AcDbLinetypeTableRecord
  2
ByBlock
 70
     0
  3

 72
    65
 73
     0
 40
0.0
  0
LTYPE
  5
15
330
5
100
AcDbSymbolTableRecord
100
AcDbLinetypeTableRecord
  2
ByLayer
 70
     0
  3

 72
    65
 73
     0
 40
0.0
  0
LTYPE
  5
16
330
5
100
AcDbSymbolTableRecord
100
AcDbLinetypeTableRecord
  2
Continuous
 70
     0
  3
Solid line
 72
    65
 73
     0
 40
0.0
  0
LTYPE
  5
5D
330
5
100
AcDbSymbolTableRecord
100
AcDbLinetypeTableRecord
  2
DASHED
 70
     0
  3
DASHED
 72
    83
 73
     2
 40
0.75
 49
0.5
 74
     0
 49
-0.25
 74
     0
  0
LTYPE
  5
5E
330
5
100
AcDbSymbolTableRecord
100
AcDbLinetypeTableRecord
  2
HIDDEN
 70
     0
  3
HIDDEN
 72
    83
 73
     2
 40
0.375
 49
0.25
 74
     0
 49
-0.125
 74
     0
  0
LTYPE
  5
5F
330
5
100
AcDbSymbolTableRecord
100
AcDbLinetypeTableRecord
  2
CENTER
 70
     0
  3
CENTER
 72
    83
 73
     4
 40
2.0
 49
1.25
 74
     0
 49
-0.25
 74
     0
 49
0.25
 74
     0
 49
-0.25
 74
     0
  0
LTYPE
  5
60
330
5
100
AcDbSymbolTableRecord
100
AcDbLinetypeTableRecord
  2
PHANTOM
 70
     0
  3
PHANTOM
 72
    83
 73
     6
 40
2.5
 49
1.25
 74
     0
 49
-0.25
 74
     0
 49
0.25
 74
     0
 49
-0.25
 74
     0
 49
0.25
 74
     0
 49
-0.25
 74
     0
  0
ENDTAB
  0
TABLE
  2
LAYER
  5
2
330
0
100
AcDbSymbolTable
 70
     2
  0
LAYER
  5
10
330
2
100
AcDbSymbolTableRecord
100
AcDbLayerTableRecord
  2
0
 70
     0
 62
     7
  6
Continuous
370
    -3
390
F
  0
LAYER
  5
61
330
2
100
AcDbSymbolTableRecord
100
AcDbLayerTableRecord
  2
001
 70
     0
 62
     7
  6
Continuous
370
    -3
390
F
  0
ENDTAB
  0
TABLE
  2
STYLE
  5
3
330
0
100
AcDbSymbolTable
 70
     2
  0
STYLE
  5
11
330
3
100
AcDbSymbolTableRecord
100
AcDbTextStyleTableRecord
  2
Standard
 70
     0
 40
0.0
 41
1.0
 50
0.0
 71
     0
 42
0.2
  3
TXT
  4
BIGFONT
  0
STYLE
  5
62
330
3
100
AcDbSymbolTableRecord
100
AcDbTextStyleTableRecord
  2
TATEGAKI
 70
     4
 40
1.0
 41
1.0
 50
0.0
 71
     0
 42
0.2
  3
TXT
  4
BIGFONT
  0
ENDTAB
  0
TABLE
  2
VIEW
  5
6
330
0
100
AcDbSymbolTable
 70
     0
  0
ENDTAB
  0
TABLE
  2
UCS
  5
7
330
0
100
AcDbSymbolTable
 70
     0
  0
ENDTAB
  0
TABLE
  2
APPID
  5
9
330
0
100
AcDbSymbolTable
 70
     1
  0
APPID
  5
12
330
9
100
AcDbSymbolTableRecord
100
AcDbRegAppTableRecord
  2
ACAD
 70
     0
  0
ENDTAB
  0
TABLE
  2
DIMSTYLE
  5
A
330
0
100
AcDbSymbolTable
 70
     2
100
AcDbDimStyleTable
  0
DIMSTYLE
105
27
330
A
100
AcDbSymbolTableRecord
100
AcDbDimStyleTableRecord
  2
ISO-25
 70
     0
 41
2.5
 42
0.625
 43
3.75
 44
1.25
 73
     0
 74
     0
 77
     1
 78
     8
140
2.5
141
2.5
143
0.03937
147
0.625
171
     3
172
     1
271
     2
272
     2
274
     3
278
    44
283
     0
284
     8
340
11
  0
DIMSTYLE
105
63
102
{ACAD_REACTORS
330
DC
330
F5
330
F6
330
F7
330
F8
330
F9
102
}
330
A
100
AcDbSymbolTableRecord
100
AcDbDimStyleTableRecord
  2
Standard
 70
     0
 41
1.5
 42
0.0
 44
2.75
 73
     0
 74
     0
 77
     1
 78
     8
 79
     2
140
4.0
146
0.8
147
1.0
172
     1
179
     1
271
     1
340
11
  0
ENDTAB
  0
TABLE
  2
BLOCK_RECORD
  5
1
330
0
100
AcDbSymbolTable
 70
     7
  0
BLOCK_RECORD
  5
1F
330
1
100
AcDbSymbolTableRecord
100
AcDbBlockTableRecord
  2
*Model_Space
340
22
  0
BLOCK_RECORD
  5
1B
330
1
100
AcDbSymbolTableRecord
100
AcDbBlockTableRecord
  2
*Paper_Space
340
1E
  0
BLOCK_RECORD
  5
23
330
1
100
AcDbSymbolTableRecord
100
AcDbBlockTableRecord
  2
*Paper_Space0
340
26
  0
BLOCK_RECORD
  5
64
330
1
100
AcDbSymbolTableRecord
100
AcDbBlockTableRecord
  2
*D1
340
0
  0
BLOCK_RECORD
  5
78
330
1
100
AcDbSymbolTableRecord
100
AcDbBlockTableRecord
  2
*D2
340
0
  0
BLOCK_RECORD
  5
8C
330
1
100
AcDbSymbolTableRecord
100
AcDbBlockTableRecord
  2
*D3
340
0
  0
BLOCK_RECORD
  5
A0
330
1
100
AcDbSymbolTableRecord
100
AcDbBlockTableRecord
  2
*D4
340
0
  0
BLOCK_RECORD
  5
B4
330
1
100
AcDbSymbolTableRecord
100
AcDbBlockTableRecord
  2
*D5
340
0
  0
BLOCK_RECORD
  5
C8
330
1
100
AcDbSymbolTableRecord
100
AcDbBlockTableRecord
  2
*D6
340
0
  0
ENDTAB
  0
ENDSEC
  0
SECTION
  2
BLOCKS
  0
BLOCK
  5
20
330
1F
100
AcDbEntity
  8
0
100
AcDbBlockBegin
  2
*Model_Space
 70
     0
 10
0.0
 20
0.0
 30
0.0
  3
*Model_Space
  1

  0
ENDBLK
  5
21
330
1F
100
AcDbEntity
  8
0
100
AcDbBlockEnd
  0
BLOCK
  5
1C
330
1B
100
AcDbEntity
 67
     1
  8
0
100
AcDbBlockBegin
  2
*Paper_Space
 70
     0
 10
0.0
 20
0.0
 30
0.0
  3
*Paper_Space
  1

  0
ENDBLK
  5
1D
330
1B
100
AcDbEntity
 67
     1
  8
0
100
AcDbBlockEnd
  0
BLOCK
  5
24
330
23
100
AcDbEntity
  8
0
100
AcDbBlockBegin
  2
*Paper_Space0
 70
     0
 10
0.0
 20
0.0
 30
0.0
  3
*Paper_Space0
  1

  0
ENDBLK
  5
25
330
23
100
AcDbEntity
  8
0
100
AcDbBlockEnd
  0
BLOCK
  5
65
330
64
100
AcDbEntity
  8
0
100
AcDbBlockBegin
  2
*D1
 70
     1
 10
0.0
 20
0.0
 30
0.0
  3
*D1
  1

  0
LINE
  5
67
330
64
100
AcDbEntity
  8
001
370
     9
100
AcDbLine
 10
141.172729
 20
113.001831
 30
0.0
 11
182.386986
 21
113.001831
 31
0.0
  0
LINE
  5
68
330
64
100
AcDbEntity
  8
001
370
     9
100
AcDbLine
 10
141.172729
 20
145.001831
 30
0.0
 11
182.386986
 21
145.001831
 31
0.0
  0
LINE
  5
69
330
64
100
AcDbEntity
  8
001
370
     9
100
AcDbLine
 10
179.636986
 20
113.001831
 30
0.0
 11
179.636986
 21
145.001831
 31
0.0
  0
POLYLINE
  5
6A
330
64
100
AcDbEntity
  8
001
370
     9
100
AcDb2dPolyline
 66
     1
 10
0.0
 20
0.0
 30
0.0
  0
VERTEX
  5
6C
330
6A
100
AcDbEntity
  8
001
370
     9
100
AcDbVertex
100
AcDb2dVertex
 10
180.038909
 20
114.501831
 30
0.0
  0
VERTEX
  5
6D
330
6A
100
AcDbEntity
  8
001
370
     9
100
AcDbVertex
100
AcDb2dVertex
 10
179.636986
 20
113.001831
 30
0.0
  0
VERTEX
  5
6E
330
6A
100
AcDbEntity
  8
001
370
     9
100
AcDbVertex
100
AcDb2dVertex
 10
179.235062
 20
114.501831
 30
0.0
  0
SEQEND
  5
6B
330
6A
100
AcDbEntity
  8
001
370
     9
  0
POLYLINE
  5
6F
330
64
100
AcDbEntity
  8
001
370
     9
100
AcDb2dPolyline
 66
     1
 10
0.0
 20
0.0
 30
0.0
  0
VERTEX
  5
71
330
6F
100
AcDbEntity
  8
001
370
     9
100
AcDbVertex
100
AcDb2dVertex
 10
179.235062
 20
143.501831
 30
0.0
  0
VERTEX
  5
72
330
6F
100
AcDbEntity
  8
001
370
     9
100
AcDbVertex
100
AcDb2dVertex
 10
179.636986
 20
145.001831
 30
0.0
  0
VERTEX
  5
73
330
6F
100
AcDbEntity
  8
001
370
     9
100
AcDbVertex
100
AcDb2dVertex
 10
180.038909
 20
143.501831
 30
0.0
  0
SEQEND
  5
70
330
6F
100
AcDbEntity
  8
001
370
     9
  0
TEXT
  5
74
330
64
100
AcDbEntity
  8
001
370
    30
100
AcDbText
 10
178.636986
 20
123.001831
 30
0.0
 40
4.0
  1
%%c３２
 50
90.000003
 41
0.882353
100
AcDbText
  0
POINT
  5
75
330
64
100
AcDbEntity
  8
001
370
     9
100
AcDbPoint
 10
141.172729
 20
113.001831
 30
0.0
  0
POINT
  5
76
330
64
100
AcDbEntity
  8
001
370
     9
100
AcDbPoint
 10
141.172729
 20
145.001831
 30
0.0
  0
POINT
  5
77
330
64
100
AcDbEntity
  8
001
370
     9
100
AcDbPoint
 10
179.636986
 20
145.001831
 30
0.0
  0
ENDBLK
  5
66
330
64
100
AcDbEntity
  8
0
100
AcDbBlockEnd
  0
BLOCK
  5
79
330
78
100
AcDbEntity
  8
0
100
AcDbBlockBegin
  2
*D2
 70
     1
 10
0.0
 20
0.0
 30
0.0
  3
*D2
  1

  0
LINE
  5
7B
330
78
100
AcDbEntity
  8
001
370
     9
100
AcDbLine
 10
149.172729
 20
121.001831
 30
0.0
 11
149.172729
 21
57.322392
 31
0.0
  0
LINE
  5
7C
330
78
100
AcDbEntity
  8
001
370
     9
100
AcDbLine
 10
14.172729
 20
76.64686
 30
0.0
 11
14.172729
 21
57.322392
 31
0.0
  0
LINE
  5
7D
330
78
100
AcDbEntity
  8
001
370
     9
100
AcDbLine
 10
149.172729
 20
60.072392
 30
0.0
 11
14.172729
 21
60.072392
 31
0.0
  0
POLYLINE
  5
7E
330
78
100
AcDbEntity
  8
001
370
     9
100
AcDb2dPolyline
 66
     1
 10
0.0
 20
0.0
 30
0.0
  0
VERTEX
  5
80
330
7E
100
AcDbEntity
  8
001
370
     9
100
AcDbVertex
100
AcDb2dVertex
 10
147.672729
 20
60.474316
 30
0.0
  0
VERTEX
  5
81
330
7E
100
AcDbEntity
  8
001
370
     9
100
AcDbVertex
100
AcDb2dVertex
 10
149.172729
 20
60.072392
 30
0.0
  0
VERTEX
  5
82
330
7E
100
AcDbEntity
  8
001
370
     9
100
AcDbVertex
100
AcDb2dVertex
 10
147.672729
 20
59.670469
 30
0.0
  0
SEQEND
  5
7F
330
7E
100
AcDbEntity
  8
001
370
     9
  0
POLYLINE
  5
83
330
78
100
AcDbEntity
  8
001
370
     9
100
AcDb2dPolyline
 66
     1
 10
0.0
 20
0.0
 30
0.0
  0
VERTEX
  5
85
330
83
100
AcDbEntity
  8
001
370
     9
100
AcDbVertex
100
AcDb2dVertex
 10
15.672729
 20
59.670469
 30
0.0
  0
VERTEX
  5
86
330
83
100
AcDbEntity
  8
001
370
     9
100
AcDbVertex
100
AcDb2dVertex
 10
14.172729
 20
60.072392
 30
0.0
  0
VERTEX
  5
87
330
83
100
AcDbEntity
  8
001
370
     9
100
AcDbVertex
100
AcDb2dVertex
 10
15.672729
 20
60.474316
 30
0.0
  0
SEQEND
  5
84
330
83
100
AcDbEntity
  8
001
370
     9
  0
TEXT
  5
88
330
78
100
AcDbEntity
  8
001
370
    30
100
AcDbText
 10
74.359663
 20
61.072392
 30
0.0
 40
4.0
  1
１３５
 41
0.833333
100
AcDbText
  0
POINT
  5
89
330
78
100
AcDbEntity
  8
001
370
     9
100
AcDbPoint
 10
149.172729
 20
121.001831
 30
0.0
  0
POINT
  5
8A
330
78
100
AcDbEntity
  8
001
370
     9
100
AcDbPoint
 10
14.172729
 20
76.64686
 30
0.0
  0
POINT
  5
8B
330
78
100
AcDbEntity
  8
001
370
     9
100
AcDbPoint
 10
14.172729
 20
60.072392
 30
0.0
  0
ENDBLK
  5
7A
330
78
100
AcDbEntity
  8
0
100
AcDbBlockEnd
  0
BLOCK
  5
8D
330
8C
100
AcDbEntity
  8
0
100
AcDbBlockBegin
  2
*D3
 70
     1
 10
0.0
 20
0.0
 30
0.0
  3
*D3
  1

  0
LINE
  5
8F
330
8C
100
AcDbEntity
  8
001
370
     9
100
AcDbLine
 10
69.172729
 20
109.462085
 30
0.0
 11
69.172729
 21
67.849921
 31
0.0
  0
LINE
  5
90
330
8C
100
AcDbEntity
  8
001
370
     9
100
AcDbLine
 10
149.172729
 20
121.001831
 30
0.0
 11
149.172729
 21
67.849921
 31
0.0
  0
LINE
  5
91
330
8C
100
AcDbEntity
  8
001
370
     9
100
AcDbLine
 10
69.172729
 20
70.599921
 30
0.0
 11
149.172729
 21
70.599921
 31
0.0
  0
POLYLINE
  5
92
330
8C
100
AcDbEntity
  8
001
370
     9
100
AcDb2dPolyline
 66
     1
 10
0.0
 20
0.0
 30
0.0
  0
VERTEX
  5
94
330
92
100
AcDbEntity
  8
001
370
     9
100
AcDbVertex
100
AcDb2dVertex
 10
70.672729
 20
70.197997
 30
0.0
  0
VERTEX
  5
95
330
92
100
AcDbEntity
  8
001
370
     9
100
AcDbVertex
100
AcDb2dVertex
 10
69.172729
 20
70.599921
 30
0.0
  0
VERTEX
  5
96
330
92
100
AcDbEntity
  8
001
370
     9
100
AcDbVertex
100
AcDb2dVertex
 10
70.672729
 20
71.001845
 30
0.0
  0
SEQEND
  5
93
330
92
100
AcDbEntity
  8
001
370
     9
  0
POLYLINE
  5
97
330
8C
100
AcDbEntity
  8
001
370
     9
100
AcDb2dPolyline
 66
     1
 10
0.0
 20
0.0
 30
0.0
  0
VERTEX
  5
99
330
97
100
AcDbEntity
  8
001
370
     9
100
AcDbVertex
100
AcDb2dVertex
 10
147.672729
 20
71.001845
 30
0.0
  0
VERTEX
  5
9A
330
97
100
AcDbEntity
  8
001
370
     9
100
AcDbVertex
100
AcDb2dVertex
 10
149.172729
 20
70.599921
 30
0.0
  0
VERTEX
  5
9B
330
97
100
AcDbEntity
  8
001
370
     9
100
AcDbVertex
100
AcDb2dVertex
 10
147.672729
 20
70.197997
 30
0.0
  0
SEQEND
  5
98
330
97
100
AcDbEntity
  8
001
370
     9
  0
TEXT
  5
9C
330
8C
100
AcDbEntity
  8
001
370
    30
100
AcDbText
 10
105.769901
 20
71.599921
 30
0.0
 40
4.0
  1
８０
 41
0.833333
100
AcDbText
  0
POINT
  5
9D
330
8C
100
AcDbEntity
  8
001
370
     9
100
AcDbPoint
 10
69.172729
 20
109.462085
 30
0.0
  0
POINT
  5
9E
330
8C
100
AcDbEntity
  8
001
370
     9
100
AcDbPoint
 10
149.172729
 20
121.001831
 30
0.0
  0
POINT
  5
9F
330
8C
100
AcDbEntity
  8
001
370
     9
100
AcDbPoint
 10
149.172729
 20
70.599921
 30
0.0
  0
ENDBLK
  5
8E
330
8C
100
AcDbEntity
  8
0
100
AcDbBlockEnd
  0
BLOCK
  5
A1
330
A0
100
AcDbEntity
  8
0
100
AcDbBlockBegin
  2
*D4
 70
     1
 10
0.0
 20
0.0
 30
0.0
  3
*D4
  1

  0
LINE
  5
A3
330
A0
100
AcDbEntity
  8
001
370
     9
100
AcDbLine
 10
14.172729
 20
121.501831
 30
0.0
 11
14.172729
 21
67.849921
 31
0.0
  0
LINE
  5
A4
330
A0
100
AcDbEntity
  8
001
370
     9
100
AcDbLine
 10
69.172729
 20
109.462085
 30
0.0
 11
69.172729
 21
67.849921
 31
0.0
  0
LINE
  5
A5
330
A0
100
AcDbEntity
  8
001
370
     9
100
AcDbLine
 10
14.172729
 20
70.599921
 30
0.0
 11
69.172729
 21
70.599921
 31
0.0
  0
POLYLINE
  5
A6
330
A0
100
AcDbEntity
  8
001
370
     9
100
AcDb2dPolyline
 66
     1
 10
0.0
 20
0.0
 30
0.0
  0
VERTEX
  5
A8
330
A6
100
AcDbEntity
  8
001
370
     9
100
AcDbVertex
100
AcDb2dVertex
 10
15.672729
 20
70.197997
 30
0.0
  0
VERTEX
  5
A9
330
A6
100
AcDbEntity
  8
001
370
     9
100
AcDbVertex
100
AcDb2dVertex
 10
14.172729
 20
70.599921
 30
0.0
  0
VERTEX
  5
AA
330
A6
100
AcDbEntity
  8
001
370
     9
100
AcDbVertex
100
AcDb2dVertex
 10
15.672729
 20
71.001845
 30
0.0
  0
SEQEND
  5
A7
330
A6
100
AcDbEntity
  8
001
370
     9
  0
POLYLINE
  5
AB
330
A0
100
AcDbEntity
  8
001
370
     9
100
AcDb2dPolyline
 66
     1
 10
0.0
 20
0.0
 30
0.0
  0
VERTEX
  5
AD
330
AB
100
AcDbEntity
  8
001
370
     9
100
AcDbVertex
100
AcDb2dVertex
 10
67.672729
 20
71.001845
 30
0.0
  0
VERTEX
  5
AE
330
AB
100
AcDbEntity
  8
001
370
     9
100
AcDbVertex
100
AcDb2dVertex
 10
69.172729
 20
70.599921
 30
0.0
  0
VERTEX
  5
AF
330
AB
100
AcDbEntity
  8
001
370
     9
100
AcDbVertex
100
AcDb2dVertex
 10
67.672729
 20
70.197997
 30
0.0
  0
SEQEND
  5
AC
330
AB
100
AcDbEntity
  8
001
370
     9
  0
TEXT
  5
B0
330
A0
100
AcDbEntity
  8
001
370
    30
100
AcDbText
 10
37.672729
 20
71.599921
 30
0.0
 40
4.0
  1
５５
 41
0.833333
100
AcDbText
  0
POINT
  5
B1
330
A0
100
AcDbEntity
  8
001
370
     9
100
AcDbPoint
 10
14.172729
 20
121.501831
 30
0.0
  0
POINT
  5
B2
330
A0
100
AcDbEntity
  8
001
370
     9
100
AcDbPoint
 10
69.172729
 20
109.462085
 30
0.0
  0
POINT
  5
B3
330
A0
100
AcDbEntity
  8
001
370
     9
100
AcDbPoint
 10
69.172729
 20
70.599921
 30
0.0
  0
ENDBLK
  5
A2
330
A0
100
AcDbEntity
  8
0
100
AcDbBlockEnd
  0
BLOCK
  5
B5
330
B4
100
AcDbEntity
  8
0
100
AcDbBlockBegin
  2
*D5
 70
     1
 10
0.0
 20
0.0
 30
0.0
  3
*D5
  1

  0
LINE
  5
B7
330
B4
100
AcDbEntity
  8
001
370
     9
100
AcDbLine
 10
35.612729
 20
100.061831
 30
0.0
 11
35.612729
 21
77.146795
 31
0.0
  0
LINE
  5
B8
330
B4
100
AcDbEntity
  8
001
370
     9
100
AcDbLine
 10
14.172729
 20
79.896795
 30
0.0
 11
35.612729
 21
79.896795
 31
0.0
  0
POLYLINE
  5
B9
330
B4
100
AcDbEntity
  8
001
370
     9
100
AcDb2dPolyline
 66
     1
 10
0.0
 20
0.0
 30
0.0
  0
VERTEX
  5
BB
330
B9
100
AcDbEntity
  8
001
370
     9
100
AcDbVertex
100
AcDb2dVertex
 10
15.672729
 20
79.494872
 30
0.0
  0
VERTEX
  5
BC
330
B9
100
AcDbEntity
  8
001
370
     9
100
AcDbVertex
100
AcDb2dVertex
 10
14.172729
 20
79.896795
 30
0.0
  0
VERTEX
  5
BD
330
B9
100
AcDbEntity
  8
001
370
     9
100
AcDbVertex
100
AcDb2dVertex
 10
15.672729
 20
80.298719
 30
0.0
  0
SEQEND
  5
BA
330
B9
100
AcDbEntity
  8
001
370
     9
  0
POLYLINE
  5
BE
330
B4
100
AcDbEntity
  8
001
370
     9
100
AcDb2dPolyline
 66
     1
 10
0.0
 20
0.0
 30
0.0
  0
VERTEX
  5
C0
330
BE
100
AcDbEntity
  8
001
370
     9
100
AcDbVertex
100
AcDb2dVertex
 10
34.112729
 20
80.298719
 30
0.0
  0
VERTEX
  5
C1
330
BE
100
AcDbEntity
  8
001
370
     9
100
AcDbVertex
100
AcDb2dVertex
 10
35.612729
 20
79.896795
 30
0.0
  0
VERTEX
  5
C2
330
BE
100
AcDbEntity
  8
001
370
     9
100
AcDbVertex
100
AcDb2dVertex
 10
34.112729
 20
79.494872
 30
0.0
  0
SEQEND
  5
BF
330
BE
100
AcDbEntity
  8
001
370
     9
  0
TEXT
  5
C3
330
B4
100
AcDbEntity
  8
001
370
    30
100
AcDbText
 10
-13.327271
 20
80.896795
 30
0.0
 40
4.0
  1
（２１．４）
 41
0.833333
100
AcDbText
  0
POINT
  5
C4
330
B4
100
AcDbEntity
  8
001
370
     9
100
AcDbPoint
 10
14.172729
 20
76.64686
 30
0.0
  0
POINT
  5
C5
330
B4
100
AcDbEntity
  8
001
370
     9
100
AcDbPoint
 10
35.612729
 20
77.146795
 30
0.0
  0
POINT
  5
C6
330
B4
100
AcDbEntity
  8
001
370
     9
100
AcDbPoint
 10
35.612729
 20
79.896795
 30
0.0
  0
LINE
  5
C7
330
B4
100
AcDbEntity
  8
001
370
     9
100
AcDbLine
 10
14.172729
 20
79.896795
 30
0.0
 11
-16.327271
 21
79.896795
 31
0.0
  0
ENDBLK
  5
B6
330
B4
100
AcDbEntity
  8
0
100
AcDbBlockEnd
  0
BLOCK
  5
C9
330
C8
100
AcDbEntity
  8
0
100
AcDbBlockBegin
  2
*D6
 70
     1
 10
0.0
 20
0.0
 30
0.0
  3
*D6
  1

  0
LINE
  5
CB
330
C8
100
AcDbEntity
  8
001
370
     9
100
AcDbLine
 10
35.487613
 20
100.186947
 30
0.0
 11
42.242812
 21
93.431748
 31
0.0
  0
ARC
  5
CC
330
C8
100
AcDbEntity
  8
001
370
     9
100
AcDbCircle
 10
14.172729
 20
121.501831
 30
0.0
 40
36.9470911232895
100
AcDbArc
 50
270.0
 51
315.0
  0
POLYLINE
  5
CD
330
C8
100
AcDbEntity
  8
001
370
     9
100
AcDb2dPolyline
 66
     1
 10
0.0
 20
0.0
 30
0.0
  0
VERTEX
  5
CF
330
CD
100
AcDbEntity
  8
001
370
     9
100
AcDbVertex
100
AcDb2dVertex
 10
38.937922
 20
94.627293
 30
0.0
  0
VERTEX
  5
D0
330
CD
100
AcDbEntity
  8
001
370
     9
100
AcDbVertex
100
AcDb2dVertex
 10
40.298268
 20
95.376292
 30
0.0
  0
VERTEX
  5
D1
330
CD
100
AcDbEntity
  8
001
370
     9
100
AcDbVertex
100
AcDb2dVertex
 10
39.494673
 20
94.047466
 30
0.0
  0
SEQEND
  5
CE
330
CD
100
AcDbEntity
  8
001
370
     9
  0
POLYLINE
  5
D2
330
C8
100
AcDbEntity
  8
001
370
     9
100
AcDb2dPolyline
 66
     1
 10
0.0
 20
0.0
 30
0.0
  0
VERTEX
  5
D4
330
D2
100
AcDbEntity
  8
001
370
     9
100
AcDbVertex
100
AcDb2dVertex
 10
15.680579
 20
84.183345
 30
0.0
  0
VERTEX
  5
D5
330
D2
100
AcDbEntity
  8
001
370
     9
100
AcDbVertex
100
AcDb2dVertex
 10
14.172729
 20
84.554739
 30
0.0
  0
VERTEX
  5
D6
330
D2
100
AcDbEntity
  8
001
370
     9
100
AcDbVertex
100
AcDb2dVertex
 10
15.664262
 20
84.987027
 30
0.0
  0
SEQEND
  5
D3
330
D2
100
AcDbEntity
  8
001
370
     9
  0
TEXT
  5
D7
330
C8
100
AcDbEntity
  8
001
370
    30
100
AcDbText
 10
22.385808
 20
85.994948
 30
0.0
 40
4.0
  1
４５%%d
 50
22.500001
 41
0.978261
100
AcDbText
  0
POINT
  5
D8
330
C8
100
AcDbEntity
  8
001
370
     9
100
AcDbPoint
 10
35.487613
 20
100.186947
 30
0.0
  0
POINT
  5
D9
330
C8
100
AcDbEntity
  8
001
370
     9
100
AcDbPoint
 10
14.172729
 20
121.501831
 30
0.0
  0
POINT
  5
DA
330
C8
100
AcDbEntity
  8
001
370
     9
100
AcDbPoint
 10
14.172729
 20
121.501831
 30
0.0
  0
POINT
  5
DB
330
C8
100
AcDbEntity
  8
001
370
     9
100
AcDbPoint
 10
14.172729
 20
87.304739
 30
0.0
  0
ENDBLK
  5
CA
330
C8
100
AcDbEntity
  8
0
100
AcDbBlockEnd
  0
ENDSEC
  0
SECTION
  2
ENTITIES
  0
DIMENSION
  5
DC
330
1F
100
AcDbEntity
  8
001
370
     9
100
AcDbDimension
  2
*D1
 10
179.636986
 20
145.001831
 30
0.0
 11
176.636985
 21
129.00183
 31
0.0
 70
   160
 71
     5
 42
-1.0
  3
Standard
100
AcDbAlignedDimension
 13
141.172729
 23
113.001831
 33
0.0
 14
141.172729
 24
145.001831
 34
0.0
 50
90.0
100
AcDbRotatedDimension
  0
TEXT
  5
DD
330
1F
100
AcDbEntity
  8
001
370
    30
100
AcDbText
 10
0.788573
 20
123.001831
 30
0.0
 40
4.0
  1
%%c１５
 50
90.000003
 41
0.882353
100
AcDbText
  0
POLYLINE
  5
DE
330
1F
100
AcDbEntity
  8
001
370
     9
100
AcDb2dPolyline
 66
     1
 10
0.0
 20
0.0
 30
0.0
  0
VERTEX
  5
E0
330
DE
100
AcDbEntity
  8
001
370
     9
100
AcDbVertex
100
AcDb2dVertex
 10
2.190497
 20
123.001831
 30
0.0
  0
VERTEX
  5
E1
330
DE
100
AcDbEntity
  8
001
370
     9
100
AcDbVertex
100
AcDb2dVertex
 10
1.788573
 20
121.501831
 30
0.0
  0
VERTEX
  5
E2
330
DE
100
AcDbEntity
  8
001
370
     9
100
AcDbVertex
100
AcDb2dVertex
 10
1.386649
 20
123.001831
 30
0.0
  0
SEQEND
  5
DF
330
DE
100
AcDbEntity
  8
001
370
     9
  0
LINE
  5
E3
330
1F
100
AcDbEntity
  8
001
370
     9
100
AcDbLine
 10
1.788573
 20
121.501831
 30
0.0
 11
1.788573
 21
136.501831
 31
0.0
  0
POLYLINE
  5
E4
330
1F
100
AcDbEntity
  8
001
370
     9
100
AcDb2dPolyline
 66
     1
 10
0.0
 20
0.0
 30
0.0
  0
VERTEX
  5
E6
330
E4
100
AcDbEntity
  8
001
370
     9
100
AcDbVertex
100
AcDb2dVertex
 10
10.770655
 20
121.501831
 30
0.0
  0
VERTEX
  5
E7
330
E4
100
AcDbEntity
  8
001
370
     9
100
AcDbVertex
100
AcDb2dVertex
 10
1.788573
 20
121.501831
 30
0.0
  0
VERTEX
  5
E8
330
E4
100
AcDbEntity
  8
001
370
     9
100
AcDbVertex
100
AcDb2dVertex
 10
-0.961427
 20
121.501831
 30
0.0
  0
SEQEND
  5
E5
330
E4
100
AcDbEntity
  8
001
370
     9
  0
TEXT
  5
E9
330
1F
100
AcDbEntity
  8
001
370
    30
100
AcDbText
 10
-10.307111
 20
113.001831
 30
0.0
 40
4.0
  1
（%%c５７．８８）
 50
90.000003
 41
0.851064
100
AcDbText
  0
POLYLINE
  5
EA
330
1F
100
AcDbEntity
  8
001
370
     9
100
AcDb2dPolyline
 66
     1
 10
0.0
 20
0.0
 30
0.0
  0
VERTEX
  5
EC
330
EA
100
AcDbEntity
  8
001
370
     9
100
AcDbVertex
100
AcDb2dVertex
 10
-8.905187
 20
101.561831
 30
0.0
  0
VERTEX
  5
ED
330
EA
100
AcDbEntity
  8
001
370
     9
100
AcDbVertex
100
AcDb2dVertex
 10
-9.307111
 20
100.061831
 30
0.0
  0
VERTEX
  5
EE
330
EA
100
AcDbEntity
  8
001
370
     9
100
AcDbVertex
100
AcDb2dVertex
 10
-9.709035
 20
101.561831
 30
0.0
  0
SEQEND
  5
EB
330
EA
100
AcDbEntity
  8
001
370
     9
  0
LINE
  5
EF
330
1F
100
AcDbEntity
  8
001
370
     9
100
AcDbLine
 10
-9.307111
 20
100.061831
 30
0.0
 11
-9.307111
 21
157.941831
 31
0.0
  0
POLYLINE
  5
F0
330
1F
100
AcDbEntity
  8
001
370
     9
100
AcDb2dPolyline
 66
     1
 10
0.0
 20
0.0
 30
0.0
  0
VERTEX
  5
F2
330
F0
100
AcDbEntity
  8
001
370
     9
100
AcDbVertex
100
AcDb2dVertex
 10
10.770655
 20
100.061831
 30
0.0
  0
VERTEX
  5
F3
330
F0
100
AcDbEntity
  8
001
370
     9
100
AcDbVertex
100
AcDb2dVertex
 10
-9.307111
 20
100.061831
 30
0.0
  0
VERTEX
  5
F4
330
F0
100
AcDbEntity
  8
001
370
     9
100
AcDbVertex
100
AcDb2dVertex
 10
-12.057111
 20
100.061831
 30
0.0
  0
SEQEND
  5
F1
330
F0
100
AcDbEntity
  8
001
370
     9
  0
DIMENSION
  5
F5
330
1F
100
AcDbEntity
  8
001
370
     9
100
AcDbDimension
  2
*D2
 10
14.172729
 20
60.072392
 30
0.0
 11
80.359663
 21
63.072392
 31
0.0
 70
   160
 71
     5
 42
-1.0
  3
Standard
100
AcDbAlignedDimension
 13
149.172729
 23
121.001831
 33
0.0
 14
14.172729
 24
76.64686
 34
0.0
 50
180.0
100
AcDbRotatedDimension
  0
DIMENSION
  5
F6
330
1F
100
AcDbEntity
  8
001
370
     9
100
AcDbDimension
  2
*D3
 10
149.172729
 20
70.599921
 30
0.0
 11
109.769901
 21
73.599921
 31
0.0
 70
   160
 71
     5
 42
-1.0
  3
Standard
100
AcDbAlignedDimension
 13
69.172729
 23
109.462085
 33
0.0
 14
149.172729
 24
121.001831
 34
0.0
100
AcDbRotatedDimension
  0
DIMENSION
  5
F7
330
1F
100
AcDbEntity
  8
001
370
     9
100
AcDbDimension
  2
*D4
 10
69.172729
 20
70.599921
 30
0.0
 11
41.672729
 21
73.599921
 31
0.0
 70
   160
 71
     5
 42
-1.0
  3
Standard
100
AcDbAlignedDimension
 13
14.172729
 23
121.501831
 33
0.0
 14
69.172729
 24
109.462085
 34
0.0
100
AcDbRotatedDimension
  0
DIMENSION
  5
F8
330
1F
100
AcDbEntity
  8
001
370
     9
100
AcDbDimension
  2
*D5
 10
35.612729
 20
79.896795
 30
0.0
 11
-1.327271
 21
82.896795
 31
0.0
 70
   160
 71
     5
 42
-1.0
  3
Standard
100
AcDbAlignedDimension
 13
14.172729
 23
76.64686
 33
0.0
 14
35.612729
 24
77.146795
 34
0.0
100
AcDbRotatedDimension
  0
DIMENSION
  5
F9
330
1F
100
AcDbEntity
  8
001
370
     9
100
AcDbDimension
  2
*D6
 10
14.172729
 20
121.501831
 30
0.0
 11
27.163719
 21
90.138808
 31
0.0
 70
    34
 71
     5
 42
-1.0
  3
Standard
100
AcDb2LineAngularDimension
 13
35.487613
 23
100.186947
 33
0.0
 14
14.172729
 24
121.501831
 34
0.0
 15
14.172729
 25
87.304739
 35
0.0
 16
28.311769
 26
87.367169
 36
0.0
  0
TEXT
  5
FA
330
1F
100
AcDbEntity
  8
001
370
    30
100
AcDbText
 10
27.329728
 20
171.534881
 30
0.0
 40
4.0
  1
ＮＫ４５５７Ｘ（ＮＥＷ）
 41
0.833333
100
AcDbText
  0
POLYLINE
  5
FB
330
1F
100
AcDbEntity
  8
001
370
    50
100
AcDb2dPolyline
 66
     1
 10
0.0
 20
0.0
 30
0.0
  0
VERTEX
  5
FD
330
FB
100
AcDbEntity
  8
001
370
    50
100
AcDbVertex
100
AcDb2dVertex
 10
36.7
 20
144.145339
 30
0.0
  0
VERTEX
  5
FE
330
FB
100
AcDbEntity
  8
001
370
    50
100
AcDbVertex
100
AcDb2dVertex
 10
36.678395
 20
144.141424
 30
0.0
  0
VERTEX
  5
FF
330
FB
100
AcDbEntity
  8
001
370
    50
100
AcDbVertex
100
AcDb2dVertex
 10
36.648388
 20
144.135241
 30
0.0
  0
VERTEX
  5
100
330
FB
100
AcDbEntity
  8
001
370
    50
100
AcDbVertex
100
AcDb2dVertex
 10
36.612614
 20
144.126252
 30
0.0
  0
VERTEX
  5
101
330
FB
100
AcDbEntity
  8
001
370
    50
100
AcDbVertex
100
AcDb2dVertex
 10
36.581355
 20
144.116801
 30
0.0
  0
VERTEX
  5
102
330
FB
100
AcDbEntity
  8
001
370
    50
100
AcDbVertex
100
AcDb2dVertex
 10
36.523162
 20
144.095961
 30
0.0
  0
VERTEX
  5
103
330
FB
100
AcDbEntity
  8
001
370
    50
100
AcDbVertex
100
AcDb2dVertex
 10
36.459333
 20
144.064893
 30
0.0
  0
VERTEX
  5
104
330
FB
100
AcDbEntity
  8
001
370
    50
100
AcDbVertex
100
AcDb2dVertex
 10
36.436294
 20
144.051392
 30
0.0
  0
VERTEX
  5
105
330
FB
100
AcDbEntity
  8
001
370
    50
100
AcDbVertex
100
AcDb2dVertex
 10
36.42037
 20
144.041435
 30
0.0
  0
SEQEND
  5
FC
330
FB
100
AcDbEntity
  8
001
370
    50
  0
LINE
  5
106
330
1F
100
AcDbEntity
  8
001
370
    50
100
AcDbLine
 10
36.7
 20
144.145339
 30
0.0
 11
57.606285
 21
147.533219
 31
0.0
  0
POLYLINE
  5
107
330
1F
100
AcDbEntity
  8
001
370
    50
100
AcDb2dPolyline
 66
     1
 10
0.0
 20
0.0
 30
0.0
  0
VERTEX
  5
109
330
107
100
AcDbEntity
  8
001
370
    50
100
AcDbVertex
100
AcDb2dVertex
 10
57.961269
 20
147.470571
 30
0.0
  0
VERTEX
  5
10A
330
107
100
AcDbEntity
  8
001
370
    50
100
AcDbVertex
100
AcDb2dVertex
 10
57.956663
 20
147.475143
 30
0.0
  0
VERTEX
  5
10B
330
107
100
AcDbEntity
  8
001
370
    50
100
AcDbVertex
100
AcDb2dVertex
 10
57.949896
 20
147.481387
 30
0.0
  0
VERTEX
  5
10C
330
107
100
AcDbEntity
  8
001
370
    50
100
AcDbVertex
100
AcDb2dVertex
 10
57.931794
 20
147.495246
 30
0.0
  0
VERTEX
  5
10D
330
107
100
AcDbEntity
  8
001
370
    50
100
AcDbVertex
100
AcDb2dVertex
 10
57.914245
 20
147.505002
 30
0.0
  0
VERTEX
  5
10E
330
107
100
AcDbEntity
  8
001
370
    50
100
AcDbVertex
100
AcDb2dVertex
 10
57.837261
 20
147.53048
 30
0.0
  0
VERTEX
  5
10F
330
107
100
AcDbEntity
  8
001
370
    50
100
AcDbVertex
100
AcDb2dVertex
 10
57.755485
 20
147.542237
 30
0.0
  0
VERTEX
  5
110
330
107
100
AcDbEntity
  8
001
370
    50
100
AcDbVertex
100
AcDb2dVertex
 10
57.693459
 20
147.543071
 30
0.0
  0
VERTEX
  5
111
330
107
100
AcDbEntity
  8
001
370
    50
100
AcDbVertex
100
AcDb2dVertex
 10
57.623039
 20
147.535751
 30
0.0
  0
VERTEX
  5
112
330
107
100
AcDbEntity
  8
001
370
    50
100
AcDbVertex
100
AcDb2dVertex
 10
57.613141
 20
147.534282
 30
0.0
  0
VERTEX
  5
113
330
107
100
AcDbEntity
  8
001
370
    50
100
AcDbVertex
100
AcDb2dVertex
 10
57.606285
 20
147.533219
 30
0.0
  0
SEQEND
  5
108
330
107
100
AcDbEntity
  8
001
370
    50
  0
POLYLINE
  5
114
330
1F
100
AcDbEntity
  8
001
370
    50
100
AcDb2dPolyline
 66
     1
 10
0.0
 20
0.0
 30
0.0
  0
VERTEX
  5
116
330
114
100
AcDbEntity
  8
001
370
    50
100
AcDbVertex
100
AcDb2dVertex
 10
15.103006
 20
129.817142
 30
0.0
  0
VERTEX
  5
117
330
114
100
AcDbEntity
  8
001
370
    50
100
AcDbVertex
100
AcDb2dVertex
 10
15.107761
 20
129.80337
 30
0.0
  0
VERTEX
  5
118
330
114
100
AcDbEntity
  8
001
370
    50
100
AcDbVertex
100
AcDb2dVertex
 10
15.116547
 20
129.7853
 30
0.0
  0
VERTEX
  5
119
330
114
100
AcDbEntity
  8
001
370
    50
100
AcDbVertex
100
AcDb2dVertex
 10
15.128304
 20
129.769454
 30
0.0
  0
VERTEX
  5
11A
330
114
100
AcDbEntity
  8
001
370
    50
100
AcDbVertex
100
AcDb2dVertex
 10
15.141523
 20
129.757145
 30
0.0
  0
VERTEX
  5
11B
330
114
100
AcDbEntity
  8
001
370
    50
100
AcDbVertex
100
AcDb2dVertex
 10
15.158066
 20
129.74471
 30
0.0
  0
VERTEX
  5
11C
330
114
100
AcDbEntity
  8
001
370
    50
100
AcDbVertex
100
AcDb2dVertex
 10
15.177175
 20
129.733531
 30
0.0
  0
VERTEX
  5
11D
330
114
100
AcDbEntity
  8
001
370
    50
100
AcDbVertex
100
AcDb2dVertex
 10
15.230977
 20
129.713274
 30
0.0
  0
VERTEX
  5
11E
330
114
100
AcDbEntity
  8
001
370
    50
100
AcDbVertex
100
AcDb2dVertex
 10
15.272729
 20
129.703172
 30
0.0
  0
SEQEND
  5
115
330
114
100
AcDbEntity
  8
001
370
    50
  0
LINE
  5
11F
330
1F
100
AcDbEntity
  8
001
370
    50
100
AcDbLine
 10
15.22098
 20
130.003995
 30
0.0
 11
17.902285
 21
131.779455
 31
0.0
  0
LINE
  5
120
330
1F
100
AcDbEntity
  8
001
370
    50
100
AcDbLine
 10
17.902285
 20
131.779455
 30
0.0
 11
18.461697
 21
132.149876
 31
0.0
  0
LINE
  5
121
330
1F
100
AcDbEntity
  8
001
370
    50
100
AcDbLine
 10
28.374187
 20
138.713554
 30
0.0
 11
29.783423
 21
139.646697
 31
0.0
  0
LINE
  5
122
330
1F
100
AcDbEntity
  8
001
370
    50
100
AcDbLine
 10
29.783423
 20
139.646697
 30
0.0
 11
36.42037
 21
144.041435
 31
0.0
  0
POLYLINE
  5
123
330
1F
100
AcDbEntity
  8
001
370
    50
100
AcDb2dPolyline
 66
     1
 10
0.0
 20
0.0
 30
0.0
  0
VERTEX
  5
125
330
123
100
AcDbEntity
  8
001
370
    50
100
AcDbVertex
100
AcDb2dVertex
 10
35.772185
 20
148.188552
 30
0.0
  0
VERTEX
  5
126
330
123
100
AcDbEntity
  8
001
370
    50
100
AcDbVertex
100
AcDb2dVertex
 10
35.75058
 20
148.184636
 30
0.0
  0
VERTEX
  5
127
330
123
100
AcDbEntity
  8
001
370
    50
100
AcDbVertex
100
AcDb2dVertex
 10
35.720573
 20
148.178453
 30
0.0
  0
VERTEX
  5
128
330
123
100
AcDbEntity
  8
001
370
    50
100
AcDbVertex
100
AcDb2dVertex
 10
35.684799
 20
148.169465
 30
0.0
  0
VERTEX
  5
129
330
123
100
AcDbEntity
  8
001
370
    50
100
AcDbVertex
100
AcDb2dVertex
 10
35.65354
 20
148.160013
 30
0.0
  0
VERTEX
  5
12A
330
123
100
AcDbEntity
  8
001
370
    50
100
AcDbVertex
100
AcDb2dVertex
 10
35.595347
 20
148.139174
 30
0.0
  0
VERTEX
  5
12B
330
123
100
AcDbEntity
  8
001
370
    50
100
AcDbVertex
100
AcDb2dVertex
 10
35.531518
 20
148.108106
 30
0.0
  0
VERTEX
  5
12C
330
123
100
AcDbEntity
  8
001
370
    50
100
AcDbVertex
100
AcDb2dVertex
 10
35.508479
 20
148.094605
 30
0.0
  0
VERTEX
  5
12D
330
123
100
AcDbEntity
  8
001
370
    50
100
AcDbVertex
100
AcDb2dVertex
 10
35.492555
 20
148.084647
 30
0.0
  0
SEQEND
  5
124
330
123
100
AcDbEntity
  8
001
370
    50
  0
LINE
  5
12E
330
1F
100
AcDbEntity
  8
001
370
    50
100
AcDbLine
 10
35.772185
 20
148.188552
 30
0.0
 11
56.678469
 21
151.576431
 31
0.0
  0
LINE
  5
12F
330
1F
100
AcDbEntity
  8
001
370
    50
100
AcDbLine
 10
14.293164
 20
134.047208
 30
0.0
 11
35.492555
 21
148.084647
 31
0.0
  0
LINE
  5
130
330
1F
100
AcDbEntity
  8
001
370
    50
100
AcDbLine
 10
57.976591
 20
147.472914
 30
0.0
 11
57.060599
 21
151.464603
 31
0.0
  0
POLYLINE
  5
131
330
1F
100
AcDbEntity
  8
001
370
    50
100
AcDb2dPolyline
 66
     1
 10
0.0
 20
0.0
 30
0.0
  0
VERTEX
  5
133
330
131
100
AcDbEntity
  8
001
370
    50
100
AcDbVertex
100
AcDb2dVertex
 10
57.060599
 20
151.464603
 30
0.0
  0
VERTEX
  5
134
330
131
100
AcDbEntity
  8
001
370
    50
100
AcDbVertex
100
AcDb2dVertex
 10
57.055825
 20
151.478378
 30
0.0
  0
VERTEX
  5
135
330
131
100
AcDbEntity
  8
001
370
    50
100
AcDbVertex
100
AcDb2dVertex
 10
57.047057
 20
151.496445
 30
0.0
  0
VERTEX
  5
136
330
131
100
AcDbEntity
  8
001
370
    50
100
AcDbVertex
100
AcDb2dVertex
 10
57.035411
 20
151.512276
 30
0.0
  0
VERTEX
  5
137
330
131
100
AcDbEntity
  8
001
370
    50
100
AcDbVertex
100
AcDb2dVertex
 10
57.022081
 20
151.5246
 30
0.0
  0
VERTEX
  5
138
330
131
100
AcDbEntity
  8
001
370
    50
100
AcDbVertex
100
AcDb2dVertex
 10
57.005035
 20
151.537107
 30
0.0
  0
VERTEX
  5
139
330
131
100
AcDbEntity
  8
001
370
    50
100
AcDbVertex
100
AcDb2dVertex
 10
56.98643
 20
151.548214
 30
0.0
  0
VERTEX
  5
13A
330
131
100
AcDbEntity
  8
001
370
    50
100
AcDbVertex
100
AcDb2dVertex
 10
56.908019
 20
151.57552
 30
0.0
  0
VERTEX
  5
13B
330
131
100
AcDbEntity
  8
001
370
    50
100
AcDbVertex
100
AcDb2dVertex
 10
56.827669
 20
151.58545
 30
0.0
  0
VERTEX
  5
13C
330
131
100
AcDbEntity
  8
001
370
    50
100
AcDbVertex
100
AcDb2dVertex
 10
56.765872
 20
151.585992
 30
0.0
  0
VERTEX
  5
13D
330
131
100
AcDbEntity
  8
001
370
    50
100
AcDbVertex
100
AcDb2dVertex
 10
56.695224
 20
151.578964
 30
0.0
  0
VERTEX
  5
13E
330
131
100
AcDbEntity
  8
001
370
    50
100
AcDbVertex
100
AcDb2dVertex
 10
56.685324
 20
151.577497
 30
0.0
  0
VERTEX
  5
13F
330
131
100
AcDbEntity
  8
001
370
    50
100
AcDbVertex
100
AcDb2dVertex
 10
56.678469
 20
151.576431
 30
0.0
  0
SEQEND
  5
132
330
131
100
AcDbEntity
  8
001
370
    50
  0
POLYLINE
  5
140
330
1F
100
AcDbEntity
  8
001
370
    50
100
AcDb2dPolyline
 66
     1
 10
0.0
 20
0.0
 30
0.0
  0
VERTEX
  5
142
330
140
100
AcDbEntity
  8
001
370
    50
100
AcDbVertex
100
AcDb2dVertex
 10
15.22098
 20
130.003995
 30
0.0
  0
VERTEX
  5
143
330
140
100
AcDbEntity
  8
001
370
    50
100
AcDbVertex
100
AcDb2dVertex
 10
15.180672
 20
129.97298
 30
0.0
  0
VERTEX
  5
144
330
140
100
AcDbEntity
  8
001
370
    50
100
AcDbVertex
100
AcDb2dVertex
 10
15.133301
 20
129.924725
 30
0.0
  0
VERTEX
  5
145
330
140
100
AcDbEntity
  8
001
370
    50
100
AcDbVertex
100
AcDb2dVertex
 10
15.121019
 20
129.906376
 30
0.0
  0
VERTEX
  5
146
330
140
100
AcDbEntity
  8
001
370
    50
100
AcDbVertex
100
AcDb2dVertex
 10
15.111511
 20
129.88793
 30
0.0
  0
VERTEX
  5
147
330
140
100
AcDbEntity
  8
001
370
    50
100
AcDbVertex
100
AcDb2dVertex
 10
15.104972
 20
129.871079
 30
0.0
  0
VERTEX
  5
148
330
140
100
AcDbEntity
  8
001
370
    50
100
AcDbVertex
100
AcDb2dVertex
 10
15.10131
 20
129.851702
 30
0.0
  0
VERTEX
  5
149
330
140
100
AcDbEntity
  8
001
370
    50
100
AcDbVertex
100
AcDb2dVertex
 10
15.101282
 20
129.831611
 30
0.0
  0
VERTEX
  5
14A
330
140
100
AcDbEntity
  8
001
370
    50
100
AcDbVertex
100
AcDb2dVertex
 10
15.103006
 20
129.817142
 30
0.0
  0
SEQEND
  5
141
330
140
100
AcDbEntity
  8
001
370
    50
  0
POLYLINE
  5
14B
330
1F
100
AcDbEntity
  8
001
370
    50
100
AcDb2dPolyline
 66
     1
 10
0.0
 20
0.0
 30
0.0
  0
VERTEX
  5
14D
330
14B
100
AcDbEntity
  8
001
370
    50
100
AcDbVertex
100
AcDb2dVertex
 10
14.293164
 20
134.047208
 30
0.0
  0
VERTEX
  5
14E
330
14B
100
AcDbEntity
  8
001
370
    50
100
AcDbVertex
100
AcDb2dVertex
 10
14.252857
 20
134.016193
 30
0.0
  0
VERTEX
  5
14F
330
14B
100
AcDbEntity
  8
001
370
    50
100
AcDbVertex
100
AcDb2dVertex
 10
14.205486
 20
133.967938
 30
0.0
  0
VERTEX
  5
150
330
14B
100
AcDbEntity
  8
001
370
    50
100
AcDbVertex
100
AcDb2dVertex
 10
14.193204
 20
133.949589
 30
0.0
  0
VERTEX
  5
151
330
14B
100
AcDbEntity
  8
001
370
    50
100
AcDbVertex
100
AcDb2dVertex
 10
14.183696
 20
133.931142
 30
0.0
  0
VERTEX
  5
152
330
14B
100
AcDbEntity
  8
001
370
    50
100
AcDbVertex
100
AcDb2dVertex
 10
14.177157
 20
133.914292
 30
0.0
  0
VERTEX
  5
153
330
14B
100
AcDbEntity
  8
001
370
    50
100
AcDbVertex
100
AcDb2dVertex
 10
14.173495
 20
133.894914
 30
0.0
  0
VERTEX
  5
154
330
14B
100
AcDbEntity
  8
001
370
    50
100
AcDbVertex
100
AcDb2dVertex
 10
14.173467
 20
133.874824
 30
0.0
  0
VERTEX
  5
155
330
14B
100
AcDbEntity
  8
001
370
    50
100
AcDbVertex
100
AcDb2dVertex
 10
14.17519
 20
133.860355
 30
0.0
  0
SEQEND
  5
14C
330
14B
100
AcDbEntity
  8
001
370
    50
  0
LINE
  5
156
330
1F
100
AcDbEntity
  8
001
370
    50
100
AcDbLine
 10
14.17519
 20
133.860355
 30
0.0
 11
15.103006
 21
129.817142
 31
0.0
  0
POLYLINE
  5
157
330
1F
100
AcDbEntity
  8
001
370
    50
100
AcDb2dPolyline
 66
     1
 10
0.0
 20
0.0
 30
0.0
  0
VERTEX
  5
159
330
157
100
AcDbEntity
  8
001
370
    50
100
AcDbVertex
100
AcDb2dVertex
 10
35.743235
 20
122.530455
 30
0.0
  0
VERTEX
  5
15A
330
157
100
AcDbEntity
  8
001
370
    50
100
AcDbVertex
100
AcDb2dVertex
 10
35.712321
 20
122.556636
 30
0.0
  0
VERTEX
  5
15B
330
157
100
AcDbEntity
  8
001
370
    50
100
AcDbVertex
100
AcDb2dVertex
 10
35.667506
 20
122.588499
 30
0.0
  0
VERTEX
  5
15C
330
157
100
AcDbEntity
  8
001
370
    50
100
AcDbVertex
100
AcDb2dVertex
 10
35.63646
 20
122.605476
 30
0.0
  0
VERTEX
  5
15D
330
157
100
AcDbEntity
  8
001
370
    50
100
AcDbVertex
100
AcDb2dVertex
 10
35.605526
 20
122.617966
 30
0.0
  0
VERTEX
  5
15E
330
157
100
AcDbEntity
  8
001
370
    50
100
AcDbVertex
100
AcDb2dVertex
 10
35.572471
 20
122.628212
 30
0.0
  0
VERTEX
  5
15F
330
157
100
AcDbEntity
  8
001
370
    50
100
AcDbVertex
100
AcDb2dVertex
 10
35.539469
 20
122.636012
 30
0.0
  0
VERTEX
  5
160
330
157
100
AcDbEntity
  8
001
370
    50
100
AcDbVertex
100
AcDb2dVertex
 10
35.507947
 20
122.640663
 30
0.0
  0
VERTEX
  5
161
330
157
100
AcDbEntity
  8
001
370
    50
100
AcDbVertex
100
AcDb2dVertex
 10
35.471342
 20
122.642089
 30
0.0
  0
VERTEX
  5
162
330
157
100
AcDbEntity
  8
001
370
    50
100
AcDbVertex
100
AcDb2dVertex
 10
35.46677
 20
122.642055
 30
0.0
  0
VERTEX
  5
163
330
157
100
AcDbEntity
  8
001
370
    50
100
AcDbVertex
100
AcDb2dVertex
 10
35.463605
 20
122.642011
 30
0.0
  0
SEQEND
  5
158
330
157
100
AcDbEntity
  8
001
370
    50
  0
LINE
  5
164
330
1F
100
AcDbEntity
  8
001
370
    50
100
AcDbLine
 10
57.370373
 20
101.333421
 30
0.0
 11
35.743235
 21
122.530455
 31
0.0
  0
POLYLINE
  5
165
330
1F
100
AcDbEntity
  8
001
370
    50
100
AcDb2dPolyline
 66
     1
 10
0.0
 20
0.0
 30
0.0
  0
VERTEX
  5
167
330
165
100
AcDbEntity
  8
001
370
    50
100
AcDbVertex
100
AcDb2dVertex
 10
35.617895
 20
107.892974
 30
0.0
  0
VERTEX
  5
168
330
165
100
AcDbEntity
  8
001
370
    50
100
AcDbVertex
100
AcDb2dVertex
 10
35.887519
 20
107.907243
 30
0.0
  0
VERTEX
  5
169
330
165
100
AcDbEntity
  8
001
370
    50
100
AcDbVertex
100
AcDb2dVertex
 10
36.256585
 20
107.949945
 30
0.0
  0
VERTEX
  5
16A
330
165
100
AcDbEntity
  8
001
370
    50
100
AcDbVertex
100
AcDb2dVertex
 10
36.58382
 20
108.020878
 30
0.0
  0
VERTEX
  5
16B
330
165
100
AcDbEntity
  8
001
370
    50
100
AcDbVertex
100
AcDb2dVertex
 10
36.87587
 20
108.119127
 30
0.0
  0
VERTEX
  5
16C
330
165
100
AcDbEntity
  8
001
370
    50
100
AcDbVertex
100
AcDb2dVertex
 10
37.168211
 20
108.244118
 30
0.0
  0
VERTEX
  5
16D
330
165
100
AcDbEntity
  8
001
370
    50
100
AcDbVertex
100
AcDb2dVertex
 10
37.456931
 20
108.395379
 30
0.0
  0
VERTEX
  5
16E
330
165
100
AcDbEntity
  8
001
370
    50
100
AcDbVertex
100
AcDb2dVertex
 10
38.22193
 20
108.993638
 30
0.0
  0
VERTEX
  5
16F
330
165
100
AcDbEntity
  8
001
370
    50
100
AcDbVertex
100
AcDb2dVertex
 10
38.803199
 20
109.767974
 30
0.0
  0
VERTEX
  5
170
330
165
100
AcDbEntity
  8
001
370
    50
100
AcDbVertex
100
AcDb2dVertex
 10
39.07448
 20
110.361987
 30
0.0
  0
VERTEX
  5
171
330
165
100
AcDbEntity
  8
001
370
    50
100
AcDbVertex
100
AcDb2dVertex
 10
39.240089
 20
110.991794
 30
0.0
  0
VERTEX
  5
172
330
165
100
AcDbEntity
  8
001
370
    50
100
AcDbVertex
100
AcDb2dVertex
 10
39.282002
 20
111.316289
 30
0.0
  0
VERTEX
  5
173
330
165
100
AcDbEntity
  8
001
370
    50
100
AcDbVertex
100
AcDb2dVertex
 10
39.295967
 20
111.642974
 30
0.0
  0
VERTEX
  5
174
330
165
100
AcDbEntity
  8
001
370
    50
100
AcDbVertex
100
AcDb2dVertex
 10
39.282002
 20
111.96966
 30
0.0
  0
VERTEX
  5
175
330
165
100
AcDbEntity
  8
001
370
    50
100
AcDbVertex
100
AcDb2dVertex
 10
39.240089
 20
112.294155
 30
0.0
  0
VERTEX
  5
176
330
165
100
AcDbEntity
  8
001
370
    50
100
AcDbVertex
100
AcDb2dVertex
 10
39.07448
 20
112.923961
 30
0.0
  0
VERTEX
  5
177
330
165
100
AcDbEntity
  8
001
370
    50
100
AcDbVertex
100
AcDb2dVertex
 10
38.803199
 20
113.517974
 30
0.0
  0
VERTEX
  5
178
330
165
100
AcDbEntity
  8
001
370
    50
100
AcDbVertex
100
AcDb2dVertex
 10
38.22193
 20
114.292311
 30
0.0
  0
VERTEX
  5
179
330
165
100
AcDbEntity
  8
001
370
    50
100
AcDbVertex
100
AcDb2dVertex
 10
37.456931
 20
114.89057
 30
0.0
  0
VERTEX
  5
17A
330
165
100
AcDbEntity
  8
001
370
    50
100
AcDbVertex
100
AcDb2dVertex
 10
37.168211
 20
115.041831
 30
0.0
  0
VERTEX
  5
17B
330
165
100
AcDbEntity
  8
001
370
    50
100
AcDbVertex
100
AcDb2dVertex
 10
36.87587
 20
115.166822
 30
0.0
  0
VERTEX
  5
17C
330
165
100
AcDbEntity
  8
001
370
    50
100
AcDbVertex
100
AcDb2dVertex
 10
36.58382
 20
115.265071
 30
0.0
  0
VERTEX
  5
17D
330
165
100
AcDbEntity
  8
001
370
    50
100
AcDbVertex
100
AcDb2dVertex
 10
36.256585
 20
115.336003
 30
0.0
  0
VERTEX
  5
17E
330
165
100
AcDbEntity
  8
001
370
    50
100
AcDbVertex
100
AcDb2dVertex
 10
35.887519
 20
115.378705
 30
0.0
  0
VERTEX
  5
17F
330
165
100
AcDbEntity
  8
001
370
    50
100
AcDbVertex
100
AcDb2dVertex
 10
35.617895
 20
115.392974
 30
0.0
  0
SEQEND
  5
166
330
165
100
AcDbEntity
  8
001
370
    50
  0
LINE
  5
180
330
1F
100
AcDbEntity
  8
001
370
    50
100
AcDbLine
 10
38.39403
 20
120.84174
 30
0.0
 11
36.67105
 21
122.530455
 31
0.0
  0
POLYLINE
  5
181
330
1F
100
AcDbEntity
  8
001
370
    50
100
AcDb2dPolyline
 66
     1
 10
0.0
 20
0.0
 30
0.0
  0
VERTEX
  5
183
330
181
100
AcDbEntity
  8
001
370
    50
100
AcDbVertex
100
AcDb2dVertex
 10
35.617895
 20
115.392974
 30
0.0
  0
VERTEX
  5
184
330
181
100
AcDbEntity
  8
001
370
    50
100
AcDbVertex
100
AcDb2dVertex
 10
35.34827
 20
115.378705
 30
0.0
  0
VERTEX
  5
185
330
181
100
AcDbEntity
  8
001
370
    50
100
AcDbVertex
100
AcDb2dVertex
 10
34.979204
 20
115.336003
 30
0.0
  0
VERTEX
  5
186
330
181
100
AcDbEntity
  8
001
370
    50
100
AcDbVertex
100
AcDb2dVertex
 10
34.65197
 20
115.265071
 30
0.0
  0
VERTEX
  5
187
330
181
100
AcDbEntity
  8
001
370
    50
100
AcDbVertex
100
AcDb2dVertex
 10
34.35992
 20
115.166822
 30
0.0
  0
VERTEX
  5
188
330
181
100
AcDbEntity
  8
001
370
    50
100
AcDbVertex
100
AcDb2dVertex
 10
34.067578
 20
115.041831
 30
0.0
  0
VERTEX
  5
189
330
181
100
AcDbEntity
  8
001
370
    50
100
AcDbVertex
100
AcDb2dVertex
 10
33.778859
 20
114.89057
 30
0.0
  0
VERTEX
  5
18A
330
181
100
AcDbEntity
  8
001
370
    50
100
AcDbVertex
100
AcDb2dVertex
 10
33.01386
 20
114.292311
 30
0.0
  0
VERTEX
  5
18B
330
181
100
AcDbEntity
  8
001
370
    50
100
AcDbVertex
100
AcDb2dVertex
 10
32.432591
 20
113.517974
 30
0.0
  0
VERTEX
  5
18C
330
181
100
AcDbEntity
  8
001
370
    50
100
AcDbVertex
100
AcDb2dVertex
 10
32.161309
 20
112.923961
 30
0.0
  0
VERTEX
  5
18D
330
181
100
AcDbEntity
  8
001
370
    50
100
AcDbVertex
100
AcDb2dVertex
 10
31.995701
 20
112.294155
 30
0.0
  0
VERTEX
  5
18E
330
181
100
AcDbEntity
  8
001
370
    50
100
AcDbVertex
100
AcDb2dVertex
 10
31.953787
 20
111.96966
 30
0.0
  0
VERTEX
  5
18F
330
181
100
AcDbEntity
  8
001
370
    50
100
AcDbVertex
100
AcDb2dVertex
 10
31.939822
 20
111.642974
 30
0.0
  0
VERTEX
  5
190
330
181
100
AcDbEntity
  8
001
370
    50
100
AcDbVertex
100
AcDb2dVertex
 10
31.953787
 20
111.316289
 30
0.0
  0
VERTEX
  5
191
330
181
100
AcDbEntity
  8
001
370
    50
100
AcDbVertex
100
AcDb2dVertex
 10
31.995701
 20
110.991794
 30
0.0
  0
VERTEX
  5
192
330
181
100
AcDbEntity
  8
001
370
    50
100
AcDbVertex
100
AcDb2dVertex
 10
32.161309
 20
110.361987
 30
0.0
  0
VERTEX
  5
193
330
181
100
AcDbEntity
  8
001
370
    50
100
AcDbVertex
100
AcDb2dVertex
 10
32.432591
 20
109.767974
 30
0.0
  0
VERTEX
  5
194
330
181
100
AcDbEntity
  8
001
370
    50
100
AcDbVertex
100
AcDb2dVertex
 10
33.01386
 20
108.993638
 30
0.0
  0
VERTEX
  5
195
330
181
100
AcDbEntity
  8
001
370
    50
100
AcDbVertex
100
AcDb2dVertex
 10
33.778859
 20
108.395379
 30
0.0
  0
VERTEX
  5
196
330
181
100
AcDbEntity
  8
001
370
    50
100
AcDbVertex
100
AcDb2dVertex
 10
34.067578
 20
108.244118
 30
0.0
  0
VERTEX
  5
197
330
181
100
AcDbEntity
  8
001
370
    50
100
AcDbVertex
100
AcDb2dVertex
 10
34.35992
 20
108.119127
 30
0.0
  0
VERTEX
  5
198
330
181
100
AcDbEntity
  8
001
370
    50
100
AcDbVertex
100
AcDb2dVertex
 10
34.65197
 20
108.020878
 30
0.0
  0
VERTEX
  5
199
330
181
100
AcDbEntity
  8
001
370
    50
100
AcDbVertex
100
AcDb2dVertex
 10
34.979204
 20
107.949945
 30
0.0
  0
VERTEX
  5
19A
330
181
100
AcDbEntity
  8
001
370
    50
100
AcDbVertex
100
AcDb2dVertex
 10
35.34827
 20
107.907243
 30
0.0
  0
VERTEX
  5
19B
330
181
100
AcDbEntity
  8
001
370
    50
100
AcDbVertex
100
AcDb2dVertex
 10
35.617895
 20
107.892974
 30
0.0
  0
SEQEND
  5
182
330
181
100
AcDbEntity
  8
001
370
    50
  0
LINE
  5
19C
330
1F
100
AcDbEntity
  8
001
370
    50
100
AcDbLine
 10
36.39142
 20
122.642011
 30
0.0
 11
35.463605
 21
122.642011
 31
0.0
  0
POLYLINE
  5
19D
330
1F
100
AcDbEntity
  8
001
370
    50
100
AcDb2dPolyline
 66
     1
 10
0.0
 20
0.0
 30
0.0
  0
VERTEX
  5
19F
330
19D
100
AcDbEntity
  8
001
370
    50
100
AcDbVertex
100
AcDb2dVertex
 10
36.67105
 20
122.530455
 30
0.0
  0
VERTEX
  5
1A0
330
19D
100
AcDbEntity
  8
001
370
    50
100
AcDbVertex
100
AcDb2dVertex
 10
36.640136
 20
122.556636
 30
0.0
  0
VERTEX
  5
1A1
330
19D
100
AcDbEntity
  8
001
370
    50
100
AcDbVertex
100
AcDb2dVertex
 10
36.595321
 20
122.588499
 30
0.0
  0
VERTEX
  5
1A2
330
19D
100
AcDbEntity
  8
001
370
    50
100
AcDbVertex
100
AcDb2dVertex
 10
36.564275
 20
122.605476
 30
0.0
  0
VERTEX
  5
1A3
330
19D
100
AcDbEntity
  8
001
370
    50
100
AcDbVertex
100
AcDb2dVertex
 10
36.533341
 20
122.617966
 30
0.0
  0
VERTEX
  5
1A4
330
19D
100
AcDbEntity
  8
001
370
    50
100
AcDbVertex
100
AcDb2dVertex
 10
36.500286
 20
122.628212
 30
0.0
  0
VERTEX
  5
1A5
330
19D
100
AcDbEntity
  8
001
370
    50
100
AcDbVertex
100
AcDb2dVertex
 10
36.467284
 20
122.636012
 30
0.0
  0
VERTEX
  5
1A6
330
19D
100
AcDbEntity
  8
001
370
    50
100
AcDbVertex
100
AcDb2dVertex
 10
36.435762
 20
122.640663
 30
0.0
  0
VERTEX
  5
1A7
330
19D
100
AcDbEntity
  8
001
370
    50
100
AcDbVertex
100
AcDb2dVertex
 10
36.399157
 20
122.642089
 30
0.0
  0
VERTEX
  5
1A8
330
19D
100
AcDbEntity
  8
001
370
    50
100
AcDbVertex
100
AcDb2dVertex
 10
36.394585
 20
122.642055
 30
0.0
  0
VERTEX
  5
1A9
330
19D
100
AcDbEntity
  8
001
370
    50
100
AcDbVertex
100
AcDb2dVertex
 10
36.39142
 20
122.642011
 30
0.0
  0
SEQEND
  5
19E
330
19D
100
AcDbEntity
  8
001
370
    50
  0
POLYLINE
  5
1AA
330
1F
100
AcDbEntity
  8
001
370
    50
100
AcDb2dPolyline
 66
     1
 10
0.0
 20
0.0
 30
0.0
  0
VERTEX
  5
1AC
330
1AA
100
AcDbEntity
  8
001
370
    50
100
AcDbVertex
100
AcDb2dVertex
 10
15.22098
 20
135.46821
 30
0.0
  0
VERTEX
  5
1AD
330
1AA
100
AcDbEntity
  8
001
370
    50
100
AcDbVertex
100
AcDb2dVertex
 10
15.20225
 20
135.46138
 30
0.0
  0
VERTEX
  5
1AE
330
1AA
100
AcDbEntity
  8
001
370
    50
100
AcDbVertex
100
AcDb2dVertex
 10
15.177175
 20
135.450308
 30
0.0
  0
VERTEX
  5
1AF
330
1AA
100
AcDbEntity
  8
001
370
    50
100
AcDbVertex
100
AcDb2dVertex
 10
15.157802
 20
135.438999
 30
0.0
  0
VERTEX
  5
1B0
330
1AA
100
AcDbEntity
  8
001
370
    50
100
AcDbVertex
100
AcDb2dVertex
 10
15.141523
 20
135.426694
 30
0.0
  0
VERTEX
  5
1B1
330
1AA
100
AcDbEntity
  8
001
370
    50
100
AcDbVertex
100
AcDb2dVertex
 10
15.128362
 20
135.414414
 30
0.0
  0
VERTEX
  5
1B2
330
1AA
100
AcDbEntity
  8
001
370
    50
100
AcDbVertex
100
AcDb2dVertex
 10
15.116547
 20
135.398538
 30
0.0
  0
VERTEX
  5
1B3
330
1AA
100
AcDbEntity
  8
001
370
    50
100
AcDbVertex
100
AcDb2dVertex
 10
15.10775
 20
135.380464
 30
0.0
  0
VERTEX
  5
1B4
330
1AA
100
AcDbEntity
  8
001
370
    50
100
AcDbVertex
100
AcDb2dVertex
 10
15.103006
 20
135.366697
 30
0.0
  0
SEQEND
  5
1AB
330
1AA
100
AcDbEntity
  8
001
370
    50
  0
LINE
  5
1B5
330
1F
100
AcDbEntity
  8
001
370
    50
100
AcDbLine
 10
15.103006
 20
135.366697
 30
0.0
 11
14.891067
 21
134.443116
 31
0.0
  0
LINE
  5
1B6
330
1F
100
AcDbEntity
  8
001
370
    50
100
AcDbLine
 10
14.466264
 20
132.591919
 30
0.0
 11
14.17519
 21
131.323484
 31
0.0
  0
POLYLINE
  5
1B7
330
1F
100
AcDbEntity
  8
001
370
    50
100
AcDb2dPolyline
 66
     1
 10
0.0
 20
0.0
 30
0.0
  0
VERTEX
  5
1B9
330
1B7
100
AcDbEntity
  8
001
370
    50
100
AcDbVertex
100
AcDb2dVertex
 10
15.103006
 20
135.366697
 30
0.0
  0
VERTEX
  5
1BA
330
1B7
100
AcDbEntity
  8
001
370
    50
100
AcDbVertex
100
AcDb2dVertex
 10
15.101304
 20
135.352215
 30
0.0
  0
VERTEX
  5
1BB
330
1B7
100
AcDbEntity
  8
001
370
    50
100
AcDbVertex
100
AcDb2dVertex
 10
15.10131
 20
135.332137
 30
0.0
  0
VERTEX
  5
1BC
330
1B7
100
AcDbEntity
  8
001
370
    50
100
AcDbVertex
100
AcDb2dVertex
 10
15.104846
 20
135.312833
 30
0.0
  0
VERTEX
  5
1BD
330
1B7
100
AcDbEntity
  8
001
370
    50
100
AcDbVertex
100
AcDb2dVertex
 10
15.111511
 20
135.295909
 30
0.0
  0
VERTEX
  5
1BE
330
1B7
100
AcDbEntity
  8
001
370
    50
100
AcDbVertex
100
AcDb2dVertex
 10
15.121597
 20
135.277125
 30
0.0
  0
VERTEX
  5
1BF
330
1B7
100
AcDbEntity
  8
001
370
    50
100
AcDbVertex
100
AcDb2dVertex
 10
15.133301
 20
135.259114
 30
0.0
  0
VERTEX
  5
1C0
330
1B7
100
AcDbEntity
  8
001
370
    50
100
AcDbVertex
100
AcDb2dVertex
 10
15.186136
 20
135.203212
 30
0.0
  0
VERTEX
  5
1C1
330
1B7
100
AcDbEntity
  8
001
370
    50
100
AcDbVertex
100
AcDb2dVertex
 10
15.259943
 20
135.156385
 30
0.0
  0
VERTEX
  5
1C2
330
1B7
100
AcDbEntity
  8
001
370
    50
100
AcDbVertex
100
AcDb2dVertex
 10
15.267495
 20
135.152334
 30
0.0
  0
VERTEX
  5
1C3
330
1B7
100
AcDbEntity
  8
001
370
    50
100
AcDbVertex
100
AcDb2dVertex
 10
15.272729
 20
135.149573
 30
0.0
  0
SEQEND
  5
1B8
330
1B7
100
AcDbEntity
  8
001
370
    50
  0
POLYLINE
  5
1C4
330
1F
100
AcDbEntity
  8
001
370
    50
100
AcDb2dPolyline
 66
     1
 10
0.0
 20
0.0
 30
0.0
  0
VERTEX
  5
1C6
330
1C4
100
AcDbEntity
  8
001
370
    50
100
AcDbVertex
100
AcDb2dVertex
 10
14.17519
 20
131.323484
 30
0.0
  0
VERTEX
  5
1C7
330
1C4
100
AcDbEntity
  8
001
370
    50
100
AcDbVertex
100
AcDb2dVertex
 10
14.173484
 20
131.309005
 30
0.0
  0
VERTEX
  5
1C8
330
1C4
100
AcDbEntity
  8
001
370
    50
100
AcDbVertex
100
AcDb2dVertex
 10
14.173495
 20
131.288924
 30
0.0
  0
VERTEX
  5
1C9
330
1C4
100
AcDbEntity
  8
001
370
    50
100
AcDbVertex
100
AcDb2dVertex
 10
14.177061
 20
131.269603
 30
0.0
  0
VERTEX
  5
1CA
330
1C4
100
AcDbEntity
  8
001
370
    50
100
AcDbVertex
100
AcDb2dVertex
 10
14.183696
 20
131.252696
 30
0.0
  0
VERTEX
  5
1CB
330
1C4
100
AcDbEntity
  8
001
370
    50
100
AcDbVertex
100
AcDb2dVertex
 10
14.193645
 20
131.233993
 30
0.0
  0
VERTEX
  5
1CC
330
1C4
100
AcDbEntity
  8
001
370
    50
100
AcDbVertex
100
AcDb2dVertex
 10
14.205486
 20
131.215901
 30
0.0
  0
VERTEX
  5
1CD
330
1C4
100
AcDbEntity
  8
001
370
    50
100
AcDbVertex
100
AcDb2dVertex
 10
14.262375
 20
131.157623
 30
0.0
  0
VERTEX
  5
1CE
330
1C4
100
AcDbEntity
  8
001
370
    50
100
AcDbVertex
100
AcDb2dVertex
 10
14.332128
 20
131.113173
 30
0.0
  0
VERTEX
  5
1CF
330
1C4
100
AcDbEntity
  8
001
370
    50
100
AcDbVertex
100
AcDb2dVertex
 10
14.393362
 20
131.084149
 30
0.0
  0
VERTEX
  5
1D0
330
1C4
100
AcDbEntity
  8
001
370
    50
100
AcDbVertex
100
AcDb2dVertex
 10
14.45415
 20
131.061265
 30
0.0
  0
VERTEX
  5
1D1
330
1C4
100
AcDbEntity
  8
001
370
    50
100
AcDbVertex
100
AcDb2dVertex
 10
14.485459
 20
131.051682
 30
0.0
  0
VERTEX
  5
1D2
330
1C4
100
AcDbEntity
  8
001
370
    50
100
AcDbVertex
100
AcDb2dVertex
 10
14.521183
 20
131.042825
 30
0.0
  0
VERTEX
  5
1D3
330
1C4
100
AcDbEntity
  8
001
370
    50
100
AcDbVertex
100
AcDb2dVertex
 10
14.542268
 20
131.038346
 30
0.0
  0
VERTEX
  5
1D4
330
1C4
100
AcDbEntity
  8
001
370
    50
100
AcDbVertex
100
AcDb2dVertex
 10
14.55732
 20
131.03539
 30
0.0
  0
SEQEND
  5
1C5
330
1C4
100
AcDbEntity
  8
001
370
    50
  0
LINE
  5
1D5
330
1F
100
AcDbEntity
  8
001
370
    50
100
AcDbLine
 10
15.22098
 20
135.46821
 30
0.0
 11
15.272729
 21
135.484663
 31
0.0
  0
LINE
  5
1D6
330
1F
100
AcDbEntity
  8
001
370
    50
100
AcDbLine
 10
14.835058
 20
130.984797
 30
0.0
 11
14.55732
 21
131.03539
 31
0.0
  0
POLYLINE
  5
1D7
330
1F
100
AcDbEntity
  8
001
370
    50
100
AcDb2dPolyline
 66
     1
 10
0.0
 20
0.0
 30
0.0
  0
VERTEX
  5
1D9
330
1D7
100
AcDbEntity
  8
001
370
    50
100
AcDbVertex
100
AcDb2dVertex
 10
31.907853
 20
127.001831
 30
0.0
  0
VERTEX
  5
1DA
330
1D7
100
AcDbEntity
  8
001
370
    50
100
AcDbVertex
100
AcDb2dVertex
 10
32.429146
 20
126.989257
 30
0.0
  0
VERTEX
  5
1DB
330
1D7
100
AcDbEntity
  8
001
370
    50
100
AcDbVertex
100
AcDb2dVertex
 10
32.949725
 20
126.964869
 30
0.0
  0
VERTEX
  5
1DC
330
1D7
100
AcDbEntity
  8
001
370
    50
100
AcDbVertex
100
AcDb2dVertex
 10
33.473114
 20
126.919037
 30
0.0
  0
VERTEX
  5
1DD
330
1D7
100
AcDbEntity
  8
001
370
    50
100
AcDbVertex
100
AcDb2dVertex
 10
33.994708
 20
126.853277
 30
0.0
  0
VERTEX
  5
1DE
330
1D7
100
AcDbEntity
  8
001
370
    50
100
AcDbVertex
100
AcDb2dVertex
 10
34.647324
 20
126.746308
 30
0.0
  0
VERTEX
  5
1DF
330
1D7
100
AcDbEntity
  8
001
370
    50
100
AcDbVertex
100
AcDb2dVertex
 10
35.293741
 20
126.608866
 30
0.0
  0
VERTEX
  5
1E0
330
1D7
100
AcDbEntity
  8
001
370
    50
100
AcDbVertex
100
AcDb2dVertex
 10
35.944123
 20
126.436019
 30
0.0
  0
VERTEX
  5
1E1
330
1D7
100
AcDbEntity
  8
001
370
    50
100
AcDbVertex
100
AcDb2dVertex
 10
36.589829
 20
126.244564
 30
0.0
  0
SEQEND
  5
1D8
330
1D7
100
AcDbEntity
  8
001
370
    50
  0
POLYLINE
  5
1E2
330
1F
100
AcDbEntity
  8
001
370
    50
100
AcDb2dPolyline
 66
     1
 10
0.0
 20
0.0
 30
0.0
  0
VERTEX
  5
1E4
330
1E2
100
AcDbEntity
  8
001
370
    50
100
AcDbVertex
100
AcDb2dVertex
 10
15.272729
 20
127.001831
 30
0.0
  0
VERTEX
  5
1E5
330
1E2
100
AcDbEntity
  8
001
370
    50
100
AcDbVertex
100
AcDb2dVertex
 10
16.885746
 20
127.001831
 30
0.0
  0
VERTEX
  5
1E6
330
1E2
100
AcDbEntity
  8
001
370
    50
100
AcDbVertex
100
AcDb2dVertex
 10
18.498762
 20
127.001831
 30
0.0
  0
VERTEX
  5
1E7
330
1E2
100
AcDbEntity
  8
001
370
    50
100
AcDbVertex
100
AcDb2dVertex
 10
20.120772
 20
127.001831
 30
0.0
  0
VERTEX
  5
1E8
330
1E2
100
AcDbEntity
  8
001
370
    50
100
AcDbVertex
100
AcDb2dVertex
 10
21.742782
 20
127.001831
 30
0.0
  0
VERTEX
  5
1E9
330
1E2
100
AcDbEntity
  8
001
370
    50
100
AcDbVertex
100
AcDb2dVertex
 10
23.91139
 20
127.001831
 30
0.0
  0
VERTEX
  5
1EA
330
1E2
100
AcDbEntity
  8
001
370
    50
100
AcDbVertex
100
AcDb2dVertex
 10
26.079999
 20
127.001831
 30
0.0
  0
VERTEX
  5
1EB
330
1E2
100
AcDbEntity
  8
001
370
    50
100
AcDbVertex
100
AcDb2dVertex
 10
28.248608
 20
127.001831
 30
0.0
  0
VERTEX
  5
1EC
330
1E2
100
AcDbEntity
  8
001
370
    50
100
AcDbVertex
100
AcDb2dVertex
 10
30.07823
 20
127.001831
 30
0.0
  0
VERTEX
  5
1ED
330
1E2
100
AcDbEntity
  8
001
370
    50
100
AcDbVertex
100
AcDb2dVertex
 10
31.907853
 20
127.001831
 30
0.0
  0
SEQEND
  5
1E3
330
1E2
100
AcDbEntity
  8
001
370
    50
  0
POLYLINE
  5
1EE
330
1F
100
AcDbEntity
  8
001
370
    50
100
AcDb2dPolyline
 66
     1
 10
0.0
 20
0.0
 30
0.0
  0
VERTEX
  5
1F0
330
1EE
100
AcDbEntity
  8
001
370
    50
100
AcDbVertex
100
AcDb2dVertex
 10
36.589829
 20
144.036858
 30
0.0
  0
VERTEX
  5
1F1
330
1EE
100
AcDbEntity
  8
001
370
    50
100
AcDbVertex
100
AcDb2dVertex
 10
34.783587
 20
142.871089
 30
0.0
  0
VERTEX
  5
1F2
330
1EE
100
AcDbEntity
  8
001
370
    50
100
AcDbVertex
100
AcDb2dVertex
 10
32.977893
 20
141.704473
 30
0.0
  0
VERTEX
  5
1F3
330
1EE
100
AcDbEntity
  8
001
370
    50
100
AcDbVertex
100
AcDb2dVertex
 10
31.173296
 20
140.536163
 30
0.0
  0
VERTEX
  5
1F4
330
1EE
100
AcDbEntity
  8
001
370
    50
100
AcDbVertex
100
AcDb2dVertex
 10
30.484424
 20
140.089351
 30
0.0
  0
VERTEX
  5
1F5
330
1EE
100
AcDbEntity
  8
001
370
    50
100
AcDbVertex
100
AcDb2dVertex
 10
29.795673
 20
139.642354
 30
0.0
  0
SEQEND
  5
1EF
330
1EE
100
AcDbEntity
  8
001
370
    50
  0
LINE
  5
1F6
330
1F
100
AcDbEntity
  8
001
370
    50
100
AcDbLine
 10
29.795673
 20
139.642354
 30
0.0
 11
28.369781
 21
138.715187
 31
0.0
  0
LINE
  5
1F7
330
1F
100
AcDbEntity
  8
001
370
    50
100
AcDbLine
 10
28.369781
 20
138.715187
 30
0.0
 11
26.946349
 21
137.787106
 31
0.0
  0
POLYLINE
  5
1F8
330
1F
100
AcDbEntity
  8
001
370
    50
100
AcDb2dPolyline
 66
     1
 10
0.0
 20
0.0
 30
0.0
  0
VERTEX
  5
1FA
330
1F8
100
AcDbEntity
  8
001
370
    50
100
AcDbVertex
100
AcDb2dVertex
 10
26.946349
 20
137.787106
 30
0.0
  0
VERTEX
  5
1FB
330
1F8
100
AcDbEntity
  8
001
370
    50
100
AcDbVertex
100
AcDb2dVertex
 10
26.36422
 20
137.406592
 30
0.0
  0
VERTEX
  5
1FC
330
1F8
100
AcDbEntity
  8
001
370
    50
100
AcDbVertex
100
AcDb2dVertex
 10
25.782247
 20
137.025842
 30
0.0
  0
VERTEX
  5
1FD
330
1F8
100
AcDbEntity
  8
001
370
    50
100
AcDbVertex
100
AcDb2dVertex
 10
24.441725
 20
136.146275
 30
0.0
  0
VERTEX
  5
1FE
330
1F8
100
AcDbEntity
  8
001
370
    50
100
AcDbVertex
100
AcDb2dVertex
 10
23.103119
 20
135.26379
 30
0.0
  0
VERTEX
  5
1FF
330
1F8
100
AcDbEntity
  8
001
370
    50
100
AcDbVertex
100
AcDb2dVertex
 10
21.772605
 20
134.381531
 30
0.0
  0
VERTEX
  5
200
330
1F8
100
AcDbEntity
  8
001
370
    50
100
AcDbVertex
100
AcDb2dVertex
 10
20.445595
 20
133.494023
 30
0.0
  0
VERTEX
  5
201
330
1F8
100
AcDbEntity
  8
001
370
    50
100
AcDbVertex
100
AcDb2dVertex
 10
19.902016
 20
133.127793
 30
0.0
  0
VERTEX
  5
202
330
1F8
100
AcDbEntity
  8
001
370
    50
100
AcDbVertex
100
AcDb2dVertex
 10
19.358846
 20
132.760955
 30
0.0
  0
SEQEND
  5
1F9
330
1F8
100
AcDbEntity
  8
001
370
    50
  0
POLYLINE
  5
203
330
1F
100
AcDbEntity
  8
001
370
    50
100
AcDb2dPolyline
 66
     1
 10
0.0
 20
0.0
 30
0.0
  0
VERTEX
  5
205
330
203
100
AcDbEntity
  8
001
370
    50
100
AcDbVertex
100
AcDb2dVertex
 10
19.358846
 20
132.760955
 30
0.0
  0
VERTEX
  5
206
330
203
100
AcDbEntity
  8
001
370
    50
100
AcDbVertex
100
AcDb2dVertex
 10
19.023466
 20
132.534896
 30
0.0
  0
VERTEX
  5
207
330
203
100
AcDbEntity
  8
001
370
    50
100
AcDbVertex
100
AcDb2dVertex
 10
18.689257
 20
132.307127
 30
0.0
  0
VERTEX
  5
208
330
203
100
AcDbEntity
  8
001
370
    50
100
AcDbVertex
100
AcDb2dVertex
 10
18.575431
 20
132.228594
 30
0.0
  0
VERTEX
  5
209
330
203
100
AcDbEntity
  8
001
370
    50
100
AcDbVertex
100
AcDb2dVertex
 10
18.461742
 20
132.149861
 30
0.0
  0
SEQEND
  5
204
330
203
100
AcDbEntity
  8
001
370
    50
  0
LINE
  5
20A
330
1F
100
AcDbEntity
  8
001
370
    50
100
AcDbLine
 10
18.461742
 20
132.149861
 30
0.0
 11
17.915694
 21
131.774595
 31
0.0
  0
POLYLINE
  5
20B
330
1F
100
AcDbEntity
  8
001
370
    50
100
AcDb2dPolyline
 66
     1
 10
0.0
 20
0.0
 30
0.0
  0
VERTEX
  5
20D
330
20B
100
AcDbEntity
  8
001
370
    50
100
AcDbVertex
100
AcDb2dVertex
 10
17.915694
 20
131.774595
 30
0.0
  0
VERTEX
  5
20E
330
20B
100
AcDbEntity
  8
001
370
    50
100
AcDbVertex
100
AcDb2dVertex
 10
17.436614
 20
131.44405
 30
0.0
  0
VERTEX
  5
20F
330
20B
100
AcDbEntity
  8
001
370
    50
100
AcDbVertex
100
AcDb2dVertex
 10
16.95898
 20
131.111454
 30
0.0
  0
VERTEX
  5
210
330
20B
100
AcDbEntity
  8
001
370
    50
100
AcDbVertex
100
AcDb2dVertex
 10
16.113557
 20
130.510107
 30
0.0
  0
VERTEX
  5
211
330
20B
100
AcDbEntity
  8
001
370
    50
100
AcDbVertex
100
AcDb2dVertex
 10
15.272729
 20
129.902241
 30
0.0
  0
SEQEND
  5
20C
330
20B
100
AcDbEntity
  8
001
370
    50
  0
LINE
  5
212
330
1F
100
AcDbEntity
  8
001
370
    50
100
AcDbLine
 10
36.589829
 20
144.036858
 30
0.0
 11
36.589829
 21
126.244564
 31
0.0
  0
POLYLINE
  5
213
330
1F
100
AcDbEntity
  8
001
370
    50
100
AcDb2dPolyline
 66
     1
 10
0.0
 20
0.0
 30
0.0
  0
VERTEX
  5
215
330
213
100
AcDbEntity
  8
001
370
    50
100
AcDbVertex
100
AcDb2dVertex
 10
54.87896
 20
157.097972
 30
0.0
  0
VERTEX
  5
216
330
213
100
AcDbEntity
  8
001
370
    50
100
AcDbVertex
100
AcDb2dVertex
 10
54.407949
 20
157.135357
 30
0.0
  0
VERTEX
  5
217
330
213
100
AcDbEntity
  8
001
370
    50
100
AcDbVertex
100
AcDb2dVertex
 10
53.718712
 20
157.175854
 30
0.0
  0
VERTEX
  5
218
330
213
100
AcDbEntity
  8
001
370
    50
100
AcDbVertex
100
AcDb2dVertex
 10
53.018282
 20
157.197055
 30
0.0
  0
VERTEX
  5
219
330
213
100
AcDbEntity
  8
001
370
    50
100
AcDbVertex
100
AcDb2dVertex
 10
52.538747
 20
157.201831
 30
0.0
  0
SEQEND
  5
214
330
213
100
AcDbEntity
  8
001
370
    50
  0
LINE
  5
21A
330
1F
100
AcDbEntity
  8
001
370
    50
100
AcDbLine
 10
64.172729
 20
157.201831
 30
0.0
 11
52.538747
 21
157.201831
 31
0.0
  0
POLYLINE
  5
21B
330
1F
100
AcDbEntity
  8
001
370
    50
100
AcDb2dPolyline
 66
     1
 10
0.0
 20
0.0
 30
0.0
  0
VERTEX
  5
21D
330
21B
100
AcDbEntity
  8
001
370
    50
100
AcDbVertex
100
AcDb2dVertex
 10
56.217757
 20
102.501323
 30
0.0
  0
VERTEX
  5
21E
330
21B
100
AcDbEntity
  8
001
370
    50
100
AcDbVertex
100
AcDb2dVertex
 10
56.785031
 20
102.15487
 30
0.0
  0
VERTEX
  5
21F
330
21B
100
AcDbEntity
  8
001
370
    50
100
AcDbVertex
100
AcDb2dVertex
 10
57.628534
 20
101.673883
 30
0.0
  0
VERTEX
  5
220
330
21B
100
AcDbEntity
  8
001
370
    50
100
AcDbVertex
100
AcDb2dVertex
 10
58.029472
 20
101.463659
 30
0.0
  0
VERTEX
  5
221
330
21B
100
AcDbEntity
  8
001
370
    50
100
AcDbVertex
100
AcDb2dVertex
 10
58.306596
 20
101.32518
 30
0.0
  0
SEQEND
  5
21C
330
21B
100
AcDbEntity
  8
001
370
    50
  0
POLYLINE
  5
222
330
1F
100
AcDbEntity
  8
001
370
    50
100
AcDb2dPolyline
 66
     1
 10
0.0
 20
0.0
 30
0.0
  0
VERTEX
  5
224
330
222
100
AcDbEntity
  8
001
370
    50
100
AcDbVertex
100
AcDb2dVertex
 10
56.217757
 20
102.501323
 30
0.0
  0
VERTEX
  5
225
330
222
100
AcDbEntity
  8
001
370
    50
100
AcDbVertex
100
AcDb2dVertex
 10
57.15557
 20
102.569972
 30
0.0
  0
VERTEX
  5
226
330
222
100
AcDbEntity
  8
001
370
    50
100
AcDbVertex
100
AcDb2dVertex
 10
58.526037
 20
102.672747
 30
0.0
  0
VERTEX
  5
227
330
222
100
AcDbEntity
  8
001
370
    50
100
AcDbVertex
100
AcDb2dVertex
 10
59.887554
 20
102.778255
 30
0.0
  0
VERTEX
  5
228
330
222
100
AcDbEntity
  8
001
370
    50
100
AcDbVertex
100
AcDb2dVertex
 10
60.81899
 20
102.852111
 30
0.0
  0
SEQEND
  5
223
330
222
100
AcDbEntity
  8
001
370
    50
  0
POLYLINE
  5
229
330
1F
100
AcDbEntity
  8
001
370
    50
100
AcDb2dPolyline
 66
     1
 10
0.0
 20
0.0
 30
0.0
  0
VERTEX
  5
22B
330
229
100
AcDbEntity
  8
001
370
    50
100
AcDbVertex
100
AcDb2dVertex
 10
60.81899
 20
102.852111
 30
0.0
  0
VERTEX
  5
22C
330
229
100
AcDbEntity
  8
001
370
    50
100
AcDbVertex
100
AcDb2dVertex
 10
60.987337
 20
102.869743
 30
0.0
  0
VERTEX
  5
22D
330
229
100
AcDbEntity
  8
001
370
    50
100
AcDbVertex
100
AcDb2dVertex
 10
61.155048
 20
102.891883
 30
0.0
  0
VERTEX
  5
22E
330
229
100
AcDbEntity
  8
001
370
    50
100
AcDbVertex
100
AcDb2dVertex
 10
61.297738
 20
102.917347
 30
0.0
  0
VERTEX
  5
22F
330
229
100
AcDbEntity
  8
001
370
    50
100
AcDbVertex
100
AcDb2dVertex
 10
61.439188
 20
102.949267
 30
0.0
  0
VERTEX
  5
230
330
229
100
AcDbEntity
  8
001
370
    50
100
AcDbVertex
100
AcDb2dVertex
 10
61.566932
 20
102.984176
 30
0.0
  0
VERTEX
  5
231
330
229
100
AcDbEntity
  8
001
370
    50
100
AcDbVertex
100
AcDb2dVertex
 10
61.692618
 20
103.025754
 30
0.0
  0
VERTEX
  5
232
330
229
100
AcDbEntity
  8
001
370
    50
100
AcDbVertex
100
AcDb2dVertex
 10
61.796735
 20
103.067218
 30
0.0
  0
VERTEX
  5
233
330
229
100
AcDbEntity
  8
001
370
    50
100
AcDbVertex
100
AcDb2dVertex
 10
61.89792
 20
103.115421
 30
0.0
  0
VERTEX
  5
234
330
229
100
AcDbEntity
  8
001
370
    50
100
AcDbVertex
100
AcDb2dVertex
 10
61.982678
 20
103.1637
 30
0.0
  0
VERTEX
  5
235
330
229
100
AcDbEntity
  8
001
370
    50
100
AcDbVertex
100
AcDb2dVertex
 10
62.062886
 20
103.219196
 30
0.0
  0
VERTEX
  5
236
330
229
100
AcDbEntity
  8
001
370
    50
100
AcDbVertex
100
AcDb2dVertex
 10
62.127127
 20
103.274063
 30
0.0
  0
VERTEX
  5
237
330
229
100
AcDbEntity
  8
001
370
    50
100
AcDbVertex
100
AcDb2dVertex
 10
62.18443
 20
103.336034
 30
0.0
  0
VERTEX
  5
238
330
229
100
AcDbEntity
  8
001
370
    50
100
AcDbVertex
100
AcDb2dVertex
 10
62.226797
 20
103.396232
 30
0.0
  0
VERTEX
  5
239
330
229
100
AcDbEntity
  8
001
370
    50
100
AcDbVertex
100
AcDb2dVertex
 10
62.259937
 20
103.462071
 30
0.0
  0
VERTEX
  5
23A
330
229
100
AcDbEntity
  8
001
370
    50
100
AcDbVertex
100
AcDb2dVertex
 10
62.281279
 20
103.531326
 30
0.0
  0
VERTEX
  5
23B
330
229
100
AcDbEntity
  8
001
370
    50
100
AcDbVertex
100
AcDb2dVertex
 10
62.289336
 20
103.602894
 30
0.0
  0
VERTEX
  5
23C
330
229
100
AcDbEntity
  8
001
370
    50
100
AcDbVertex
100
AcDb2dVertex
 10
62.285245
 20
103.663285
 30
0.0
  0
VERTEX
  5
23D
330
229
100
AcDbEntity
  8
001
370
    50
100
AcDbVertex
100
AcDb2dVertex
 10
62.275598
 20
103.723483
 30
0.0
  0
SEQEND
  5
22A
330
229
100
AcDbEntity
  8
001
370
    50
  0
POLYLINE
  5
23E
330
1F
100
AcDbEntity
  8
001
370
    50
100
AcDb2dPolyline
 66
     1
 10
0.0
 20
0.0
 30
0.0
  0
VERTEX
  5
240
330
23E
100
AcDbEntity
  8
001
370
    50
100
AcDbVertex
100
AcDb2dVertex
 10
54.87896
 20
112.859695
 30
0.0
  0
VERTEX
  5
241
330
23E
100
AcDbEntity
  8
001
370
    50
100
AcDbVertex
100
AcDb2dVertex
 10
55.526364
 20
112.275815
 30
0.0
  0
VERTEX
  5
242
330
23E
100
AcDbEntity
  8
001
370
    50
100
AcDbVertex
100
AcDb2dVertex
 10
56.162074
 20
111.679673
 30
0.0
  0
VERTEX
  5
243
330
23E
100
AcDbEntity
  8
001
370
    50
100
AcDbVertex
100
AcDb2dVertex
 10
56.758232
 20
111.081295
 30
0.0
  0
VERTEX
  5
244
330
23E
100
AcDbEntity
  8
001
370
    50
100
AcDbVertex
100
AcDb2dVertex
 10
57.335571
 20
110.464441
 30
0.0
  0
VERTEX
  5
245
330
23E
100
AcDbEntity
  8
001
370
    50
100
AcDbVertex
100
AcDb2dVertex
 10
57.828791
 20
109.910996
 30
0.0
  0
VERTEX
  5
246
330
23E
100
AcDbEntity
  8
001
370
    50
100
AcDbVertex
100
AcDb2dVertex
 10
58.309635
 20
109.346879
 30
0.0
  0
VERTEX
  5
247
330
23E
100
AcDbEntity
  8
001
370
    50
100
AcDbVertex
100
AcDb2dVertex
 10
58.754602
 20
108.801559
 30
0.0
  0
VERTEX
  5
248
330
23E
100
AcDbEntity
  8
001
370
    50
100
AcDbVertex
100
AcDb2dVertex
 10
59.188727
 20
108.247539
 30
0.0
  0
VERTEX
  5
249
330
23E
100
AcDbEntity
  8
001
370
    50
100
AcDbVertex
100
AcDb2dVertex
 10
59.596993
 20
107.706763
 30
0.0
  0
VERTEX
  5
24A
330
23E
100
AcDbEntity
  8
001
370
    50
100
AcDbVertex
100
AcDb2dVertex
 10
59.996412
 20
107.159432
 30
0.0
  0
VERTEX
  5
24B
330
23E
100
AcDbEntity
  8
001
370
    50
100
AcDbVertex
100
AcDb2dVertex
 10
60.361319
 20
106.644086
 30
0.0
  0
VERTEX
  5
24C
330
23E
100
AcDbEntity
  8
001
370
    50
100
AcDbVertex
100
AcDb2dVertex
 10
60.720003
 20
106.12439
 30
0.0
  0
VERTEX
  5
24D
330
23E
100
AcDbEntity
  8
001
370
    50
100
AcDbVertex
100
AcDb2dVertex
 10
60.921635
 20
105.827088
 30
0.0
  0
VERTEX
  5
24E
330
23E
100
AcDbEntity
  8
001
370
    50
100
AcDbVertex
100
AcDb2dVertex
 10
61.12179
 20
105.528792
 30
0.0
  0
VERTEX
  5
24F
330
23E
100
AcDbEntity
  8
001
370
    50
100
AcDbVertex
100
AcDb2dVertex
 10
61.310584
 20
105.244976
 30
0.0
  0
VERTEX
  5
250
330
23E
100
AcDbEntity
  8
001
370
    50
100
AcDbVertex
100
AcDb2dVertex
 10
61.498504
 20
104.960579
 30
0.0
  0
VERTEX
  5
251
330
23E
100
AcDbEntity
  8
001
370
    50
100
AcDbVertex
100
AcDb2dVertex
 10
61.676754
 20
104.6896
 30
0.0
  0
VERTEX
  5
252
330
23E
100
AcDbEntity
  8
001
370
    50
100
AcDbVertex
100
AcDb2dVertex
 10
61.854866
 20
104.418529
 30
0.0
  0
VERTEX
  5
253
330
23E
100
AcDbEntity
  8
001
370
    50
100
AcDbVertex
100
AcDb2dVertex
 10
62.022622
 20
104.16363
 30
0.0
  0
VERTEX
  5
254
330
23E
100
AcDbEntity
  8
001
370
    50
100
AcDbVertex
100
AcDb2dVertex
 10
62.190512
 20
103.908819
 30
0.0
  0
SEQEND
  5
23F
330
23E
100
AcDbEntity
  8
001
370
    50
  0
POLYLINE
  5
255
330
1F
100
AcDbEntity
  8
001
370
    50
100
AcDb2dPolyline
 66
     1
 10
0.0
 20
0.0
 30
0.0
  0
VERTEX
  5
257
330
255
100
AcDbEntity
  8
001
370
    50
100
AcDbVertex
100
AcDb2dVertex
 10
45.645683
 20
121.143966
 30
0.0
  0
VERTEX
  5
258
330
255
100
AcDbEntity
  8
001
370
    50
100
AcDbVertex
100
AcDb2dVertex
 10
46.774472
 20
120.100894
 30
0.0
  0
VERTEX
  5
259
330
255
100
AcDbEntity
  8
001
370
    50
100
AcDbVertex
100
AcDb2dVertex
 10
48.431094
 20
118.583885
 30
0.0
  0
VERTEX
  5
25A
330
255
100
AcDbEntity
  8
001
370
    50
100
AcDbVertex
100
AcDb2dVertex
 10
50.3603
 20
116.839567
 30
0.0
  0
VERTEX
  5
25B
330
255
100
AcDbEntity
  8
001
370
    50
100
AcDbVertex
100
AcDb2dVertex
 10
52.193193
 20
115.209082
 30
0.0
  0
VERTEX
  5
25C
330
255
100
AcDbEntity
  8
001
370
    50
100
AcDbVertex
100
AcDb2dVertex
 10
53.784937
 20
113.810789
 30
0.0
  0
VERTEX
  5
25D
330
255
100
AcDbEntity
  8
001
370
    50
100
AcDbVertex
100
AcDb2dVertex
 10
54.87896
 20
112.859695
 30
0.0
  0
SEQEND
  5
256
330
255
100
AcDbEntity
  8
001
370
    50
  0
POLYLINE
  5
25E
330
1F
100
AcDbEntity
  8
001
370
    50
100
AcDb2dPolyline
 66
     1
 10
0.0
 20
0.0
 30
0.0
  0
VERTEX
  5
260
330
25E
100
AcDbEntity
  8
001
370
    50
100
AcDbVertex
100
AcDb2dVertex
 10
36.589829
 20
126.244564
 30
0.0
  0
VERTEX
  5
261
330
25E
100
AcDbEntity
  8
001
370
    50
100
AcDbVertex
100
AcDb2dVertex
 10
37.091922
 20
126.0964
 30
0.0
  0
VERTEX
  5
262
330
25E
100
AcDbEntity
  8
001
370
    50
100
AcDbVertex
100
AcDb2dVertex
 10
37.591645
 20
125.940767
 30
0.0
  0
VERTEX
  5
263
330
25E
100
AcDbEntity
  8
001
370
    50
100
AcDbVertex
100
AcDb2dVertex
 10
38.4074
 20
125.653892
 30
0.0
  0
VERTEX
  5
264
330
25E
100
AcDbEntity
  8
001
370
    50
100
AcDbVertex
100
AcDb2dVertex
 10
39.210125
 20
125.331545
 30
0.0
  0
VERTEX
  5
265
330
25E
100
AcDbEntity
  8
001
370
    50
100
AcDbVertex
100
AcDb2dVertex
 10
39.9987
 20
124.97842
 30
0.0
  0
VERTEX
  5
266
330
25E
100
AcDbEntity
  8
001
370
    50
100
AcDbVertex
100
AcDb2dVertex
 10
40.772679
 20
124.594651
 30
0.0
  0
VERTEX
  5
267
330
25E
100
AcDbEntity
  8
001
370
    50
100
AcDbVertex
100
AcDb2dVertex
 10
41.55089
 20
124.168373
 30
0.0
  0
VERTEX
  5
268
330
25E
100
AcDbEntity
  8
001
370
    50
100
AcDbVertex
100
AcDb2dVertex
 10
42.31099
 20
123.71051
 30
0.0
  0
VERTEX
  5
269
330
25E
100
AcDbEntity
  8
001
370
    50
100
AcDbVertex
100
AcDb2dVertex
 10
43.049612
 20
123.224069
 30
0.0
  0
VERTEX
  5
26A
330
25E
100
AcDbEntity
  8
001
370
    50
100
AcDbVertex
100
AcDb2dVertex
 10
43.768842
 20
122.709327
 30
0.0
  0
VERTEX
  5
26B
330
25E
100
AcDbEntity
  8
001
370
    50
100
AcDbVertex
100
AcDb2dVertex
 10
44.254483
 20
122.337356
 30
0.0
  0
VERTEX
  5
26C
330
25E
100
AcDbEntity
  8
001
370
    50
100
AcDbVertex
100
AcDb2dVertex
 10
44.728749
 20
121.951221
 30
0.0
  0
VERTEX
  5
26D
330
25E
100
AcDbEntity
  8
001
370
    50
100
AcDbVertex
100
AcDb2dVertex
 10
45.190544
 20
121.551496
 30
0.0
  0
VERTEX
  5
26E
330
25E
100
AcDbEntity
  8
001
370
    50
100
AcDbVertex
100
AcDb2dVertex
 10
45.645683
 20
121.143966
 30
0.0
  0
SEQEND
  5
25F
330
25E
100
AcDbEntity
  8
001
370
    50
  0
POLYLINE
  5
26F
330
1F
100
AcDbEntity
  8
001
370
    50
100
AcDb2dPolyline
 66
     1
 10
0.0
 20
0.0
 30
0.0
  0
VERTEX
  5
271
330
26F
100
AcDbEntity
  8
001
370
    50
100
AcDbVertex
100
AcDb2dVertex
 10
58.306596
 20
147.523343
 30
0.0
  0
VERTEX
  5
272
330
26F
100
AcDbEntity
  8
001
370
    50
100
AcDbVertex
100
AcDb2dVertex
 10
56.309042
 20
147.216642
 30
0.0
  0
VERTEX
  5
273
330
26F
100
AcDbEntity
  8
001
370
    50
100
AcDbVertex
100
AcDb2dVertex
 10
53.39026
 20
146.763769
 30
0.0
  0
VERTEX
  5
274
330
26F
100
AcDbEntity
  8
001
370
    50
100
AcDbVertex
100
AcDb2dVertex
 10
49.220981
 20
146.104877
 30
0.0
  0
VERTEX
  5
275
330
26F
100
AcDbEntity
  8
001
370
    50
100
AcDbVertex
100
AcDb2dVertex
 10
45.255251
 20
145.466414
 30
0.0
  0
VERTEX
  5
276
330
26F
100
AcDbEntity
  8
001
370
    50
100
AcDbVertex
100
AcDb2dVertex
 10
41.694117
 20
144.884705
 30
0.0
  0
VERTEX
  5
277
330
26F
100
AcDbEntity
  8
001
370
    50
100
AcDbVertex
100
AcDb2dVertex
 10
38.738628
 20
144.396078
 30
0.0
  0
VERTEX
  5
278
330
26F
100
AcDbEntity
  8
001
370
    50
100
AcDbVertex
100
AcDb2dVertex
 10
36.589829
 20
144.036858
 30
0.0
  0
SEQEND
  5
270
330
26F
100
AcDbEntity
  8
001
370
    50
  0
POLYLINE
  5
279
330
1F
100
AcDbEntity
  8
001
370
    50
100
AcDb2dPolyline
 66
     1
 10
0.0
 20
0.0
 30
0.0
  0
VERTEX
  5
27B
330
279
100
AcDbEntity
  8
001
370
    50
100
AcDbVertex
100
AcDb2dVertex
 10
58.306596
 20
147.523343
 30
0.0
  0
VERTEX
  5
27C
330
279
100
AcDbEntity
  8
001
370
    50
100
AcDbVertex
100
AcDb2dVertex
 10
58.195861
 20
147.729067
 30
0.0
  0
VERTEX
  5
27D
330
279
100
AcDbEntity
  8
001
370
    50
100
AcDbVertex
100
AcDb2dVertex
 10
58.029465
 20
148.0272
 30
0.0
  0
VERTEX
  5
27E
330
279
100
AcDbEntity
  8
001
370
    50
100
AcDbVertex
100
AcDb2dVertex
 10
57.85721
 20
148.320958
 30
0.0
  0
VERTEX
  5
27F
330
279
100
AcDbEntity
  8
001
370
    50
100
AcDbVertex
100
AcDb2dVertex
 10
57.736277
 20
148.520147
 30
0.0
  0
SEQEND
  5
27A
330
279
100
AcDbEntity
  8
001
370
    50
  0
POLYLINE
  5
280
330
1F
100
AcDbEntity
  8
001
370
    50
100
AcDb2dPolyline
 66
     1
 10
0.0
 20
0.0
 30
0.0
  0
VERTEX
  5
282
330
280
100
AcDbEntity
  8
001
370
    50
100
AcDbVertex
100
AcDb2dVertex
 10
60.81899
 20
151.218579
 30
0.0
  0
VERTEX
  5
283
330
280
100
AcDbEntity
  8
001
370
    50
100
AcDbVertex
100
AcDb2dVertex
 10
60.091276
 20
151.12226
 30
0.0
  0
VERTEX
  5
284
330
280
100
AcDbEntity
  8
001
370
    50
100
AcDbVertex
100
AcDb2dVertex
 10
59.027793
 20
150.98075
 30
0.0
  0
VERTEX
  5
285
330
280
100
AcDbEntity
  8
001
370
    50
100
AcDbVertex
100
AcDb2dVertex
 10
57.958613
 20
150.837434
 30
0.0
  0
VERTEX
  5
286
330
280
100
AcDbEntity
  8
001
370
    50
100
AcDbVertex
100
AcDb2dVertex
 10
57.227136
 20
150.738871
 30
0.0
  0
SEQEND
  5
281
330
280
100
AcDbEntity
  8
001
370
    50
  0
POLYLINE
  5
287
330
1F
100
AcDbEntity
  8
001
370
    50
100
AcDb2dPolyline
 66
     1
 10
0.0
 20
0.0
 30
0.0
  0
VERTEX
  5
289
330
287
100
AcDbEntity
  8
001
370
    50
100
AcDbVertex
100
AcDb2dVertex
 10
60.81899
 20
151.218579
 30
0.0
  0
VERTEX
  5
28A
330
287
100
AcDbEntity
  8
001
370
    50
100
AcDbVertex
100
AcDb2dVertex
 10
60.886064
 20
151.228534
 30
0.0
  0
VERTEX
  5
28B
330
287
100
AcDbEntity
  8
001
370
    50
100
AcDbVertex
100
AcDb2dVertex
 10
60.952983
 20
151.239426
 30
0.0
  0
VERTEX
  5
28C
330
287
100
AcDbEntity
  8
001
370
    50
100
AcDbVertex
100
AcDb2dVertex
 10
61.107706
 20
151.271618
 30
0.0
  0
VERTEX
  5
28D
330
287
100
AcDbEntity
  8
001
370
    50
100
AcDbVertex
100
AcDb2dVertex
 10
61.260226
 20
151.313365
 30
0.0
  0
VERTEX
  5
28E
330
287
100
AcDbEntity
  8
001
370
    50
100
AcDbVertex
100
AcDb2dVertex
 10
61.402431
 20
151.361541
 30
0.0
  0
VERTEX
  5
28F
330
287
100
AcDbEntity
  8
001
370
    50
100
AcDbVertex
100
AcDb2dVertex
 10
61.541139
 20
151.418831
 30
0.0
  0
VERTEX
  5
290
330
287
100
AcDbEntity
  8
001
370
    50
100
AcDbVertex
100
AcDb2dVertex
 10
61.658653
 20
151.477134
 30
0.0
  0
VERTEX
  5
291
330
287
100
AcDbEntity
  8
001
370
    50
100
AcDbVertex
100
AcDb2dVertex
 10
61.771833
 20
151.543521
 30
0.0
  0
VERTEX
  5
292
330
287
100
AcDbEntity
  8
001
370
    50
100
AcDbVertex
100
AcDb2dVertex
 10
61.871192
 20
151.612027
 30
0.0
  0
VERTEX
  5
293
330
287
100
AcDbEntity
  8
001
370
    50
100
AcDbVertex
100
AcDb2dVertex
 10
61.964653
 20
151.688288
 30
0.0
  0
VERTEX
  5
294
330
287
100
AcDbEntity
  8
001
370
    50
100
AcDbVertex
100
AcDb2dVertex
 10
62.042564
 20
151.764151
 30
0.0
  0
VERTEX
  5
295
330
287
100
AcDbEntity
  8
001
370
    50
100
AcDbVertex
100
AcDb2dVertex
 10
62.113188
 20
151.846928
 30
0.0
  0
VERTEX
  5
296
330
287
100
AcDbEntity
  8
001
370
    50
100
AcDbVertex
100
AcDb2dVertex
 10
62.169862
 20
151.928311
 30
0.0
  0
VERTEX
  5
297
330
287
100
AcDbEntity
  8
001
370
    50
100
AcDbVertex
100
AcDb2dVertex
 10
62.217216
 20
152.015227
 30
0.0
  0
VERTEX
  5
298
330
287
100
AcDbEntity
  8
001
370
    50
100
AcDbVertex
100
AcDb2dVertex
 10
62.221461
 20
152.024422
 30
0.0
  0
VERTEX
  5
299
330
287
100
AcDbEntity
  8
001
370
    50
100
AcDbVertex
100
AcDb2dVertex
 10
62.225645
 20
152.033645
 30
0.0
  0
SEQEND
  5
288
330
287
100
AcDbEntity
  8
001
370
    50
  0
POLYLINE
  5
29A
330
1F
100
AcDbEntity
  8
001
370
    50
100
AcDb2dPolyline
 66
     1
 10
0.0
 20
0.0
 30
0.0
  0
VERTEX
  5
29C
330
29A
100
AcDbEntity
  8
001
370
    50
100
AcDbVertex
100
AcDb2dVertex
 10
54.87896
 20
157.097972
 30
0.0
  0
VERTEX
  5
29D
330
29A
100
AcDbEntity
  8
001
370
    50
100
AcDbVertex
100
AcDb2dVertex
 10
55.519881
 20
157.025161
 30
0.0
  0
VERTEX
  5
29E
330
29A
100
AcDbEntity
  8
001
370
    50
100
AcDbVertex
100
AcDb2dVertex
 10
56.158219
 20
156.934758
 30
0.0
  0
VERTEX
  5
29F
330
29A
100
AcDbEntity
  8
001
370
    50
100
AcDbVertex
100
AcDb2dVertex
 10
56.742574
 20
156.82257
 30
0.0
  0
VERTEX
  5
2A0
330
29A
100
AcDbEntity
  8
001
370
    50
100
AcDbVertex
100
AcDb2dVertex
 10
57.320165
 20
156.678731
 30
0.0
  0
VERTEX
  5
2A1
330
29A
100
AcDbEntity
  8
001
370
    50
100
AcDbVertex
100
AcDb2dVertex
 10
57.864652
 20
156.509268
 30
0.0
  0
VERTEX
  5
2A2
330
29A
100
AcDbEntity
  8
001
370
    50
100
AcDbVertex
100
AcDb2dVertex
 10
58.396999
 20
156.305201
 30
0.0
  0
VERTEX
  5
2A3
330
29A
100
AcDbEntity
  8
001
370
    50
100
AcDbVertex
100
AcDb2dVertex
 10
58.886429
 20
156.076819
 30
0.0
  0
VERTEX
  5
2A4
330
29A
100
AcDbEntity
  8
001
370
    50
100
AcDbVertex
100
AcDb2dVertex
 10
59.357604
 20
155.812847
 30
0.0
  0
VERTEX
  5
2A5
330
29A
100
AcDbEntity
  8
001
370
    50
100
AcDbVertex
100
AcDb2dVertex
 10
59.780999
 20
155.531446
 30
0.0
  0
VERTEX
  5
2A6
330
29A
100
AcDbEntity
  8
001
370
    50
100
AcDbVertex
100
AcDb2dVertex
 10
60.182336
 20
155.219491
 30
0.0
  0
VERTEX
  5
2A7
330
29A
100
AcDbEntity
  8
001
370
    50
100
AcDbVertex
100
AcDb2dVertex
 10
60.562085
 20
154.876834
 30
0.0
  0
VERTEX
  5
2A8
330
29A
100
AcDbEntity
  8
001
370
    50
100
AcDbVertex
100
AcDb2dVertex
 10
60.91754
 20
154.508792
 30
0.0
  0
VERTEX
  5
2A9
330
29A
100
AcDbEntity
  8
001
370
    50
100
AcDbVertex
100
AcDb2dVertex
 10
61.267227
 20
154.095594
 30
0.0
  0
VERTEX
  5
2AA
330
29A
100
AcDbEntity
  8
001
370
    50
100
AcDbVertex
100
AcDb2dVertex
 10
61.58857
 20
153.660396
 30
0.0
  0
VERTEX
  5
2AB
330
29A
100
AcDbEntity
  8
001
370
    50
100
AcDbVertex
100
AcDb2dVertex
 10
61.897867
 20
153.181777
 30
0.0
  0
VERTEX
  5
2AC
330
29A
100
AcDbEntity
  8
001
370
    50
100
AcDbVertex
100
AcDb2dVertex
 10
62.190512
 20
152.692195
 30
0.0
  0
SEQEND
  5
29B
330
29A
100
AcDbEntity
  8
001
370
    50
  0
POLYLINE
  5
2AD
330
1F
100
AcDbEntity
  8
001
370
    50
100
AcDb2dPolyline
 66
     1
 10
0.0
 20
0.0
 30
0.0
  0
VERTEX
  5
2AF
330
2AD
100
AcDbEntity
  8
001
370
    50
100
AcDbVertex
100
AcDb2dVertex
 10
52.538747
 20
157.201831
 30
0.0
  0
VERTEX
  5
2B0
330
2AD
100
AcDbEntity
  8
001
370
    50
100
AcDbVertex
100
AcDb2dVertex
 10
51.153282
 20
157.161297
 30
0.0
  0
VERTEX
  5
2B1
330
2AD
100
AcDbEntity
  8
001
370
    50
100
AcDbVertex
100
AcDb2dVertex
 10
49.136673
 20
156.996981
 30
0.0
  0
VERTEX
  5
2B2
330
2AD
100
AcDbEntity
  8
001
370
    50
100
AcDbVertex
100
AcDb2dVertex
 10
47.057342
 20
156.676672
 30
0.0
  0
VERTEX
  5
2B3
330
2AD
100
AcDbEntity
  8
001
370
    50
100
AcDbVertex
100
AcDb2dVertex
 10
45.645683
 20
156.38541
 30
0.0
  0
SEQEND
  5
2AE
330
2AD
100
AcDbEntity
  8
001
370
    50
  0
POLYLINE
  5
2B4
330
1F
100
AcDbEntity
  8
001
370
    50
100
AcDb2dPolyline
 66
     1
 10
0.0
 20
0.0
 30
0.0
  0
VERTEX
  5
2B6
330
2B4
100
AcDbEntity
  8
001
370
    50
100
AcDbVertex
100
AcDb2dVertex
 10
36.589829
 20
154.685363
 30
0.0
  0
VERTEX
  5
2B7
330
2B4
100
AcDbEntity
  8
001
370
    50
100
AcDbVertex
100
AcDb2dVertex
 10
37.259108
 20
154.768122
 30
0.0
  0
VERTEX
  5
2B8
330
2B4
100
AcDbEntity
  8
001
370
    50
100
AcDbVertex
100
AcDb2dVertex
 10
37.927684
 20
154.856067
 30
0.0
  0
VERTEX
  5
2B9
330
2B4
100
AcDbEntity
  8
001
370
    50
100
AcDbVertex
100
AcDb2dVertex
 10
38.734259
 20
154.974751
 30
0.0
  0
VERTEX
  5
2BA
330
2B4
100
AcDbEntity
  8
001
370
    50
100
AcDbVertex
100
AcDb2dVertex
 10
39.538948
 20
155.10592
 30
0.0
  0
VERTEX
  5
2BB
330
2B4
100
AcDbEntity
  8
001
370
    50
100
AcDbVertex
100
AcDb2dVertex
 10
40.316237
 20
155.242652
 30
0.0
  0
VERTEX
  5
2BC
330
2B4
100
AcDbEntity
  8
001
370
    50
100
AcDbVertex
100
AcDb2dVertex
 10
41.091853
 20
155.388455
 30
0.0
  0
VERTEX
  5
2BD
330
2B4
100
AcDbEntity
  8
001
370
    50
100
AcDbVertex
100
AcDb2dVertex
 10
41.85568
 20
155.54094
 30
0.0
  0
VERTEX
  5
2BE
330
2B4
100
AcDbEntity
  8
001
370
    50
100
AcDbVertex
100
AcDb2dVertex
 10
42.617988
 20
155.700891
 30
0.0
  0
VERTEX
  5
2BF
330
2B4
100
AcDbEntity
  8
001
370
    50
100
AcDbVertex
100
AcDb2dVertex
 10
43.340125
 20
155.858431
 30
0.0
  0
VERTEX
  5
2C0
330
2B4
100
AcDbEntity
  8
001
370
    50
100
AcDbVertex
100
AcDb2dVertex
 10
44.061268
 20
156.020449
 30
0.0
  0
VERTEX
  5
2C1
330
2B4
100
AcDbEntity
  8
001
370
    50
100
AcDbVertex
100
AcDb2dVertex
 10
44.465384
 20
156.112828
 30
0.0
  0
VERTEX
  5
2C2
330
2B4
100
AcDbEntity
  8
001
370
    50
100
AcDbVertex
100
AcDb2dVertex
 10
44.869349
 20
156.205867
 30
0.0
  0
VERTEX
  5
2C3
330
2B4
100
AcDbEntity
  8
001
370
    50
100
AcDbVertex
100
AcDb2dVertex
 10
45.25753
 20
156.295578
 30
0.0
  0
VERTEX
  5
2C4
330
2B4
100
AcDbEntity
  8
001
370
    50
100
AcDbVertex
100
AcDb2dVertex
 10
45.645683
 20
156.38541
 30
0.0
  0
SEQEND
  5
2B5
330
2B4
100
AcDbEntity
  8
001
370
    50
  0
LINE
  5
2C5
330
1F
100
AcDbEntity
  8
001
370
    50
100
AcDbLine
 10
64.172729
 20
157.201831
 30
0.0
 11
64.172729
 21
100.801831
 31
0.0
  0
LINE
  5
2C6
330
1F
100
AcDbEntity
  8
001
370
    50
100
AcDbLine
 10
69.172729
 20
109.462085
 30
0.0
 11
64.172729
 21
100.801831
 31
0.0
  0
LINE
  5
2C7
330
1F
100
AcDbEntity
  8
001
370
    50
100
AcDbLine
 10
69.172729
 20
148.541577
 30
0.0
 11
64.172729
 21
157.201831
 31
0.0
  0
LINE
  5
2C8
330
1F
100
AcDbEntity
  8
001
370
    50
100
AcDbLine
 10
69.172729
 20
148.541577
 30
0.0
 11
69.172729
 21
109.462085
 31
0.0
  0
POLYLINE
  5
2C9
330
1F
100
AcDbEntity
  8
001
370
    50
100
AcDb2dPolyline
 66
     1
 10
0.0
 20
0.0
 30
0.0
  0
VERTEX
  5
2CB
330
2C9
100
AcDbEntity
  8
001
370
    50
100
AcDbVertex
100
AcDb2dVertex
 10
62.225645
 20
152.033645
 30
0.0
  0
VERTEX
  5
2CC
330
2C9
100
AcDbEntity
  8
001
370
    50
100
AcDbVertex
100
AcDb2dVertex
 10
62.254162
 20
152.11418
 30
0.0
  0
VERTEX
  5
2CD
330
2C9
100
AcDbEntity
  8
001
370
    50
100
AcDbVertex
100
AcDb2dVertex
 10
62.276918
 20
152.196405
 30
0.0
  0
VERTEX
  5
2CE
330
2C9
100
AcDbEntity
  8
001
370
    50
100
AcDbVertex
100
AcDb2dVertex
 10
62.289352
 20
152.286835
 30
0.0
  0
VERTEX
  5
2CF
330
2C9
100
AcDbEntity
  8
001
370
    50
100
AcDbVertex
100
AcDb2dVertex
 10
62.287799
 20
152.377801
 30
0.0
  0
VERTEX
  5
2D0
330
2C9
100
AcDbEntity
  8
001
370
    50
100
AcDbVertex
100
AcDb2dVertex
 10
62.251383
 20
152.537262
 30
0.0
  0
VERTEX
  5
2D1
330
2C9
100
AcDbEntity
  8
001
370
    50
100
AcDbVertex
100
AcDb2dVertex
 10
62.190512
 20
152.692195
 30
0.0
  0
SEQEND
  5
2CA
330
2C9
100
AcDbEntity
  8
001
370
    50
  0
LINE
  5
2D2
330
1F
100
AcDbEntity
  8
001
370
    50
100
AcDbLine
 10
71.172729
 20
145.001831
 30
0.0
 11
141.172729
 21
145.001831
 31
0.0
  0
LINE
  5
2D3
330
1F
100
AcDbEntity
  8
001
370
    50
100
AcDbLine
 10
71.172729
 20
113.001831
 30
0.0
 11
141.172729
 21
113.001831
 31
0.0
  0
ARC
  5
2D4
330
1F
100
AcDbEntity
  8
001
370
    50
100
AcDbCircle
 10
141.172729
 20
137.001831
 30
0.0
 40
8.0
100
AcDbArc
 50
0.0
 51
90.0
  0
ARC
  5
2D5
330
1F
100
AcDbEntity
  8
001
370
    50
100
AcDbCircle
 10
141.172729
 20
121.001831
 30
0.0
 40
8.0
100
AcDbArc
 50
270.0
 51
0.0
  0
LINE
  5
2D6
330
1F
100
AcDbEntity
  8
001
370
    50
100
AcDbLine
 10
149.172729
 20
137.001831
 30
0.0
 11
149.172729
 21
121.001831
 31
0.0
  0
POLYLINE
  5
2D7
330
1F
100
AcDbEntity
  8
001
370
    50
100
AcDb2dPolyline
 66
     1
 10
0.0
 20
0.0
 30
0.0
  0
VERTEX
  5
2D9
330
2D7
100
AcDbEntity
  8
001
370
    50
100
AcDbVertex
100
AcDb2dVertex
 10
62.275598
 20
103.723483
 30
0.0
  0
VERTEX
  5
2DA
330
2D7
100
AcDbEntity
  8
001
370
    50
100
AcDbVertex
100
AcDb2dVertex
 10
62.272318
 20
103.735514
 30
0.0
  0
VERTEX
  5
2DB
330
2D7
100
AcDbEntity
  8
001
370
    50
100
AcDbVertex
100
AcDb2dVertex
 10
62.268849
 20
103.747473
 30
0.0
  0
VERTEX
  5
2DC
330
2D7
100
AcDbEntity
  8
001
370
    50
100
AcDbVertex
100
AcDb2dVertex
 10
62.234581
 20
103.830008
 30
0.0
  0
VERTEX
  5
2DD
330
2D7
100
AcDbEntity
  8
001
370
    50
100
AcDbVertex
100
AcDb2dVertex
 10
62.190512
 20
103.908819
 30
0.0
  0
SEQEND
  5
2D8
330
2D7
100
AcDbEntity
  8
001
370
    50
  0
LINE
  5
2DE
330
1F
100
AcDbEntity
  8
001
370
    50
100
AcDbLine
 10
56.217757
 20
102.501323
 30
0.0
 11
51.928053
 21
106.705716
 31
0.0
  0
POLYLINE
  5
2DF
330
1F
100
AcDbEntity
  8
001
370
    50
100
AcDb2dPolyline
 66
     1
 10
0.0
 20
0.0
 30
0.0
  0
VERTEX
  5
2E1
330
2DF
100
AcDbEntity
  8
001
370
    50
100
AcDbVertex
100
AcDb2dVertex
 10
51.928053
 20
106.705716
 30
0.0
  0
VERTEX
  5
2E2
330
2DF
100
AcDbEntity
  8
001
370
    50
100
AcDbVertex
100
AcDb2dVertex
 10
51.804986
 20
107.047706
 30
0.0
  0
VERTEX
  5
2E3
330
2DF
100
AcDbEntity
  8
001
370
    50
100
AcDbVertex
100
AcDb2dVertex
 10
51.577382
 20
107.524553
 30
0.0
  0
VERTEX
  5
2E4
330
2DF
100
AcDbEntity
  8
001
370
    50
100
AcDbVertex
100
AcDb2dVertex
 10
51.202168
 20
108.068626
 30
0.0
  0
VERTEX
  5
2E5
330
2DF
100
AcDbEntity
  8
001
370
    50
100
AcDbVertex
100
AcDb2dVertex
 10
50.898652
 20
108.408209
 30
0.0
  0
SEQEND
  5
2E0
330
2DF
100
AcDbEntity
  8
001
370
    50
  0
LINE
  5
2E6
330
1F
100
AcDbEntity
  8
001
370
    50
100
AcDbLine
 10
50.898652
 20
108.408209
 30
0.0
 11
45.152148
 21
114.040431
 31
0.0
  0
POLYLINE
  5
2E7
330
1F
100
AcDbEntity
  8
001
370
    50
100
AcDb2dPolyline
 66
     1
 10
0.0
 20
0.0
 30
0.0
  0
VERTEX
  5
2E9
330
2E7
100
AcDbEntity
  8
001
370
    50
100
AcDbVertex
100
AcDb2dVertex
 10
45.152148
 20
114.040431
 30
0.0
  0
VERTEX
  5
2EA
330
2E7
100
AcDbEntity
  8
001
370
    50
100
AcDbVertex
100
AcDb2dVertex
 10
44.837473
 20
114.304125
 30
0.0
  0
VERTEX
  5
2EB
330
2E7
100
AcDbEntity
  8
001
370
    50
100
AcDbVertex
100
AcDb2dVertex
 10
44.39486
 20
114.620876
 30
0.0
  0
VERTEX
  5
2EC
330
2E7
100
AcDbEntity
  8
001
370
    50
100
AcDbVertex
100
AcDb2dVertex
 10
44.102087
 20
114.784647
 30
0.0
  0
VERTEX
  5
2ED
330
2E7
100
AcDbEntity
  8
001
370
    50
100
AcDbVertex
100
AcDb2dVertex
 10
43.775061
 20
114.915545
 30
0.0
  0
VERTEX
  5
2EE
330
2E7
100
AcDbEntity
  8
001
370
    50
100
AcDbVertex
100
AcDb2dVertex
 10
43.582426
 20
114.979664
 30
0.0
  0
VERTEX
  5
2EF
330
2E7
100
AcDbEntity
  8
001
370
    50
100
AcDbVertex
100
AcDb2dVertex
 10
43.443015
 20
115.02201
 30
0.0
  0
SEQEND
  5
2E8
330
2E7
100
AcDbEntity
  8
001
370
    50
  0
LINE
  5
2F0
330
1F
100
AcDbEntity
  8
001
370
    50
100
AcDbLine
 10
43.443015
 20
115.02201
 30
0.0
 11
38.516142
 21
119.850902
 31
0.0
  0
LINE
  5
2F1
330
1F
100
AcDbEntity
  8
001
370
    50
100
AcDbLine
 10
25.421071
 20
122.939364
 30
0.0
 11
21.374001
 21
122.857975
 31
0.0
  0
POLYLINE
  5
2F2
330
1F
100
AcDbEntity
  8
001
370
    50
100
AcDb2dPolyline
 66
     1
 10
0.0
 20
0.0
 30
0.0
  0
VERTEX
  5
2F4
330
2F2
100
AcDbEntity
  8
001
370
    50
100
AcDbVertex
100
AcDb2dVertex
 10
38.516142
 20
119.850902
 30
0.0
  0
VERTEX
  5
2F5
330
2F2
100
AcDbEntity
  8
001
370
    50
100
AcDbVertex
100
AcDb2dVertex
 10
38.516142
 20
119.85116
 30
0.0
  0
VERTEX
  5
2F6
330
2F2
100
AcDbEntity
  8
001
370
    50
100
AcDbVertex
100
AcDb2dVertex
 10
38.516142
 20
119.851538
 30
0.0
  0
VERTEX
  5
2F7
330
2F2
100
AcDbEntity
  8
001
370
    50
100
AcDbVertex
100
AcDb2dVertex
 10
38.50125
 20
120.229312
 30
0.0
  0
VERTEX
  5
2F8
330
2F2
100
AcDbEntity
  8
001
370
    50
100
AcDbVertex
100
AcDb2dVertex
 10
38.456538
 20
120.546131
 30
0.0
  0
VERTEX
  5
2F9
330
2F2
100
AcDbEntity
  8
001
370
    50
100
AcDbVertex
100
AcDb2dVertex
 10
38.279886
 20
121.19815
 30
0.0
  0
VERTEX
  5
2FA
330
2F2
100
AcDbEntity
  8
001
370
    50
100
AcDbVertex
100
AcDb2dVertex
 10
37.990522
 20
121.851538
 30
0.0
  0
VERTEX
  5
2FB
330
2F2
100
AcDbEntity
  8
001
370
    50
100
AcDbVertex
100
AcDb2dVertex
 10
37.370503
 20
122.685326
 30
0.0
  0
VERTEX
  5
2FC
330
2F2
100
AcDbEntity
  8
001
370
    50
100
AcDbVertex
100
AcDb2dVertex
 10
36.554503
 20
123.31564
 30
0.0
  0
VERTEX
  5
2FD
330
2F2
100
AcDbEntity
  8
001
370
    50
100
AcDbVertex
100
AcDb2dVertex
 10
36.246535
 20
123.47658
 30
0.0
  0
VERTEX
  5
2FE
330
2F2
100
AcDbEntity
  8
001
370
    50
100
AcDbVertex
100
AcDb2dVertex
 10
35.934704
 20
123.610309
 30
0.0
  0
VERTEX
  5
2FF
330
2F2
100
AcDbEntity
  8
001
370
    50
100
AcDbVertex
100
AcDb2dVertex
 10
35.623185
 20
123.715214
 30
0.0
  0
VERTEX
  5
300
330
2F2
100
AcDbEntity
  8
001
370
    50
100
AcDbVertex
100
AcDb2dVertex
 10
35.274134
 20
123.790769
 30
0.0
  0
VERTEX
  5
301
330
2F2
100
AcDbEntity
  8
001
370
    50
100
AcDbVertex
100
AcDb2dVertex
 10
34.880464
 20
123.836297
 30
0.0
  0
VERTEX
  5
302
330
2F2
100
AcDbEntity
  8
001
370
    50
100
AcDbVertex
100
AcDb2dVertex
 10
34.592864
 20
123.851538
 30
0.0
  0
SEQEND
  5
2F3
330
2F2
100
AcDbEntity
  8
001
370
    50
  0
LINE
  5
303
330
1F
100
AcDbEntity
  8
001
370
    50
100
AcDbLine
 10
25.791793
 20
122.928945
 30
0.0
 11
22.262832
 21
122.857975
 31
0.0
  0
POLYLINE
  5
304
330
1F
100
AcDbEntity
  8
001
370
    50
100
AcDb2dPolyline
 66
     1
 10
0.0
 20
0.0
 30
0.0
  0
VERTEX
  5
306
330
304
100
AcDbEntity
  8
001
370
    50
100
AcDbVertex
100
AcDb2dVertex
 10
25.498442
 20
122.940142
 30
0.0
  0
VERTEX
  5
307
330
304
100
AcDbEntity
  8
001
370
    50
100
AcDbVertex
100
AcDb2dVertex
 10
25.482725
 20
122.940105
 30
0.0
  0
VERTEX
  5
308
330
304
100
AcDbEntity
  8
001
370
    50
100
AcDbVertex
100
AcDb2dVertex
 10
25.459755
 20
122.939947
 30
0.0
  0
VERTEX
  5
309
330
304
100
AcDbEntity
  8
001
370
    50
100
AcDbVertex
100
AcDb2dVertex
 10
25.436786
 20
122.939644
 30
0.0
  0
VERTEX
  5
30A
330
304
100
AcDbEntity
  8
001
370
    50
100
AcDbVertex
100
AcDb2dVertex
 10
25.421071
 20
122.939364
 30
0.0
  0
SEQEND
  5
305
330
304
100
AcDbEntity
  8
001
370
    50
  0
LINE
  5
30B
330
1F
100
AcDbEntity
  8
001
370
    50
100
AcDbLine
 10
25.421071
 20
122.939364
 30
0.0
 11
25.575813
 21
122.939364
 31
0.0
  0
POLYLINE
  5
30C
330
1F
100
AcDbEntity
  8
001
370
    50
100
AcDb2dPolyline
 66
     1
 10
0.0
 20
0.0
 30
0.0
  0
VERTEX
  5
30E
330
30C
100
AcDbEntity
  8
001
370
    50
100
AcDbVertex
100
AcDb2dVertex
 10
31.907853
 20
150.489414
 30
0.0
  0
VERTEX
  5
30F
330
30C
100
AcDbEntity
  8
001
370
    50
100
AcDbVertex
100
AcDb2dVertex
 10
32.430031
 20
150.926977
 30
0.0
  0
VERTEX
  5
310
330
30C
100
AcDbEntity
  8
001
370
    50
100
AcDbVertex
100
AcDb2dVertex
 10
32.949725
 20
151.367452
 30
0.0
  0
VERTEX
  5
311
330
30C
100
AcDbEntity
  8
001
370
    50
100
AcDbVertex
100
AcDb2dVertex
 10
33.474351
 20
151.821256
 30
0.0
  0
VERTEX
  5
312
330
30C
100
AcDbEntity
  8
001
370
    50
100
AcDbVertex
100
AcDb2dVertex
 10
33.994708
 20
152.279987
 30
0.0
  0
VERTEX
  5
313
330
30C
100
AcDbEntity
  8
001
370
    50
100
AcDbVertex
100
AcDb2dVertex
 10
34.647525
 20
152.865985
 30
0.0
  0
VERTEX
  5
314
330
30C
100
AcDbEntity
  8
001
370
    50
100
AcDbVertex
100
AcDb2dVertex
 10
35.293741
 20
153.459205
 30
0.0
  0
VERTEX
  5
315
330
30C
100
AcDbEntity
  8
001
370
    50
100
AcDbVertex
100
AcDb2dVertex
 10
35.943799
 20
154.070128
 30
0.0
  0
VERTEX
  5
316
330
30C
100
AcDbEntity
  8
001
370
    50
100
AcDbVertex
100
AcDb2dVertex
 10
36.589829
 20
154.685363
 30
0.0
  0
SEQEND
  5
30D
330
30C
100
AcDbEntity
  8
001
370
    50
  0
POLYLINE
  5
317
330
1F
100
AcDbEntity
  8
001
370
    50
100
AcDb2dPolyline
 66
     1
 10
0.0
 20
0.0
 30
0.0
  0
VERTEX
  5
319
330
317
100
AcDbEntity
  8
001
370
    50
100
AcDbVertex
100
AcDb2dVertex
 10
15.272729
 20
136.620554
 30
0.0
  0
VERTEX
  5
31A
330
317
100
AcDbEntity
  8
001
370
    50
100
AcDbVertex
100
AcDb2dVertex
 10
17.156707
 20
138.208768
 30
0.0
  0
VERTEX
  5
31B
330
317
100
AcDbEntity
  8
001
370
    50
100
AcDbVertex
100
AcDb2dVertex
 10
19.042131
 20
139.795254
 30
0.0
  0
VERTEX
  5
31C
330
317
100
AcDbEntity
  8
001
370
    50
100
AcDbVertex
100
AcDb2dVertex
 10
20.930447
 20
141.378283
 30
0.0
  0
VERTEX
  5
31D
330
317
100
AcDbEntity
  8
001
370
    50
100
AcDbVertex
100
AcDb2dVertex
 10
22.824271
 20
142.958039
 30
0.0
  0
VERTEX
  5
31E
330
317
100
AcDbEntity
  8
001
370
    50
100
AcDbVertex
100
AcDb2dVertex
 10
24.721097
 20
144.534201
 30
0.0
  0
VERTEX
  5
31F
330
317
100
AcDbEntity
  8
001
370
    50
100
AcDbVertex
100
AcDb2dVertex
 10
26.619581
 20
146.108372
 30
0.0
  0
VERTEX
  5
320
330
317
100
AcDbEntity
  8
001
370
    50
100
AcDbVertex
100
AcDb2dVertex
 10
28.382188
 20
147.568906
 30
0.0
  0
VERTEX
  5
321
330
317
100
AcDbEntity
  8
001
370
    50
100
AcDbVertex
100
AcDb2dVertex
 10
30.144975
 20
149.029216
 30
0.0
  0
VERTEX
  5
322
330
317
100
AcDbEntity
  8
001
370
    50
100
AcDbVertex
100
AcDb2dVertex
 10
31.907853
 20
150.489414
 30
0.0
  0
SEQEND
  5
318
330
317
100
AcDbEntity
  8
001
370
    50
  0
LINE
  5
323
330
1F
100
AcDbEntity
  8
001
370
    50
100
AcDbLine
 10
15.272729
 20
134.695839
 30
0.0
 11
15.272729
 21
136.620554
 31
0.0
  0
LINE
  5
324
330
1F
100
AcDbEntity
  8
001
370
    50
100
AcDbLine
 10
71.172729
 20
113.001831
 30
0.0
 11
71.172729
 21
145.001831
 31
0.0
  0
LINE
  5
325
330
1F
100
AcDbEntity
  8
001
370
    50
100
AcDbLine
 10
71.172729
 20
144.501831
 30
0.0
 11
69.172729
 21
144.501831
 31
0.0
  0
LINE
  5
326
330
1F
100
AcDbEntity
  8
001
370
    50
100
AcDbLine
 10
69.172729
 20
113.501831
 30
0.0
 11
71.172729
 21
113.501831
 31
0.0
  0
LINE
  5
327
330
1F
100
AcDbEntity
  8
001
370
    50
100
AcDbLine
 10
149.172729
 20
129.001831
 30
0.0
 11
151.770806
 21
130.501831
 31
0.0
  0
LINE
  5
328
330
1F
100
AcDbEntity
  8
001
370
    50
100
AcDbLine
 10
149.172729
 20
129.001831
 30
0.0
 11
151.770806
 21
127.501831
 31
0.0
  0
LINE
  5
329
330
1F
100
AcDbEntity
  8
001
  6
CENTER
370
     9
100
AcDbLine
 10
12.185904
 20
129.001831
 30
0.0
 11
151.871707
 21
129.001831
 31
0.0
  0
ARC
  5
32A
330
1F
100
AcDbEntity
  8
001
370
    50
100
AcDbCircle
 10
35.617895
 20
113.222974
 30
0.0
 40
0.3950000000000001
100
AcDbArc
 50
13.633617
 51
166.366383
  0
ARC
  5
32B
330
1F
100
AcDbEntity
  8
001
370
    50
100
AcDbCircle
 10
34.557139
 20
113.480257
 30
0.0
 40
0.6965113125890092
100
AcDbArc
 50
253.633617
 51
346.366383
  0
ARC
  5
32C
330
1F
100
AcDbEntity
  8
001
370
    50
100
AcDbCircle
 10
34.249575
 20
112.432974
 30
0.0
 40
0.3950000000000001
100
AcDbArc
 50
73.633617
 51
226.366383
  0
ARC
  5
32D
330
1F
100
AcDbEntity
  8
001
370
    50
100
AcDbCircle
 10
33.496383
 20
111.642974
 30
0.0
 40
0.6965113125890092
100
AcDbArc
 50
313.633617
 51
46.366383
  0
ARC
  5
32E
330
1F
100
AcDbEntity
  8
001
370
    50
100
AcDbCircle
 10
34.249575
 20
110.852974
 30
0.0
 40
0.3950000000000001
100
AcDbArc
 50
133.633617
 51
286.366383
  0
ARC
  5
32F
330
1F
100
AcDbEntity
  8
001
370
    50
100
AcDbCircle
 10
34.557139
 20
109.805692
 30
0.0
 40
0.6965113125890092
100
AcDbArc
 50
13.633617
 51
106.366383
  0
ARC
  5
330
330
1F
100
AcDbEntity
  8
001
370
    50
100
AcDbCircle
 10
35.617895
 20
110.062974
 30
0.0
 40
0.3950000000000001
100
AcDbArc
 50
193.633617
 51
346.366383
  0
ARC
  5
331
330
1F
100
AcDbEntity
  8
001
370
    50
100
AcDbCircle
 10
36.67865
 20
109.805692
 30
0.0
 40
0.6965113125890092
100
AcDbArc
 50
73.633617
 51
166.366383
  0
ARC
  5
332
330
1F
100
AcDbEntity
  8
001
370
    50
100
AcDbCircle
 10
36.986215
 20
110.852974
 30
0.0
 40
0.3950000000000001
100
AcDbArc
 50
253.633617
 51
46.366383
  0
ARC
  5
333
330
1F
100
AcDbEntity
  8
001
370
    50
100
AcDbCircle
 10
37.739406
 20
111.642974
 30
0.0
 40
0.6965113125890092
100
AcDbArc
 50
133.633617
 51
226.366383
  0
ARC
  5
334
330
1F
100
AcDbEntity
  8
001
370
    50
100
AcDbCircle
 10
36.986215
 20
112.432974
 30
0.0
 40
0.3950000000000001
100
AcDbArc
 50
313.633617
 51
106.366383
  0
ARC
  5
335
330
1F
100
AcDbEntity
  8
001
370
    50
100
AcDbCircle
 10
36.67865
 20
113.480257
 30
0.0
 40
0.6965113125890092
100
AcDbArc
 50
193.633617
 51
286.366383
  0
CIRCLE
  5
336
330
1F
100
AcDbEntity
  8
001
370
    50
100
AcDbCircle
 10
35.617895
 20
111.642974
 30
0.0
 40
3.0
  0
LINE
  5
337
330
1F
100
AcDbEntity
  8
001
  6
PHANTOM
370
     9
100
AcDbLine
 10
35.487613
 20
100.186947
 30
0.0
 11
35.612729
 21
100.061831
 31
0.0
  0
LINE
  5
338
330
1F
100
AcDbEntity
  8
001
370
    50
100
AcDbLine
 10
14.289887
 20
121.384673
 30
0.0
 11
35.495572
 21
100.178988
 31
0.0
  0
LINE
  5
339
330
1F
100
AcDbEntity
  8
001
  6
PHANTOM
370
     9
100
AcDbLine
 10
14.289887
 20
121.384673
 30
0.0
 11
14.172729
 21
121.501831
 31
0.0
  0
LINE
  5
33A
330
1F
100
AcDbEntity
  8
001
370
     9
100
AcDbLine
 10
10.770655
 20
121.501831
 30
0.0
 11
14.172729
 21
121.501831
 31
0.0
  0
LINE
  5
33B
330
1F
100
AcDbEntity
  8
001
370
     9
100
AcDbLine
 10
10.770655
 20
100.061831
 30
0.0
 11
35.612729
 21
100.061831
 31
0.0
  0
ARC
  5
33C
330
1F
100
AcDbEntity
  8
001
370
    50
100
AcDbCircle
 10
35.778415
 20
100.461831
 30
0.0
 40
0.4
100
AcDbArc
 50
225.0
 51
270.0
  0
LINE
  5
33D
330
1F
100
AcDbEntity
  8
001
  6
PHANTOM
370
     9
100
AcDbLine
 10
35.778415
 20
100.061831
 30
0.0
 11
35.612729
 21
100.061831
 31
0.0
  0
ARC
  5
33E
330
1F
100
AcDbEntity
  8
001
370
    50
100
AcDbCircle
 10
14.572729
 20
121.667516
 30
0.0
 40
0.4
100
AcDbArc
 50
91.152092
 51
225.0
  0
LINE
  5
33F
330
1F
100
AcDbEntity
  8
001
370
    50
100
AcDbLine
 10
14.561737
 20
122.067365
 30
0.0
 11
35.463605
 21
122.642011
 31
0.0
  0
POLYLINE
  5
340
330
1F
100
AcDbEntity
  8
001
370
    50
100
AcDb2dPolyline
 66
     1
 10
0.0
 20
0.0
 30
0.0
  0
VERTEX
  5
342
330
340
100
AcDbEntity
  8
001
370
    50
100
AcDbVertex
100
AcDb2dVertex
 10
35.03728
 20
123.825792
 30
0.0
  0
VERTEX
  5
343
330
340
100
AcDbEntity
  8
001
370
    50
100
AcDbVertex
100
AcDb2dVertex
 10
34.939235
 20
123.812592
 30
0.0
  0
VERTEX
  5
344
330
340
100
AcDbEntity
  8
001
370
    50
100
AcDbVertex
100
AcDb2dVertex
 10
34.800426
 20
123.790769
 30
0.0
  0
VERTEX
  5
345
330
340
100
AcDbEntity
  8
001
370
    50
100
AcDbVertex
100
AcDb2dVertex
 10
34.44377
 20
123.710913
 30
0.0
  0
VERTEX
  5
346
330
340
100
AcDbEntity
  8
001
370
    50
100
AcDbVertex
100
AcDb2dVertex
 10
34.139856
 20
123.610309
 30
0.0
  0
VERTEX
  5
347
330
340
100
AcDbEntity
  8
001
370
    50
100
AcDbVertex
100
AcDb2dVertex
 10
33.836618
 20
123.485454
 30
0.0
  0
VERTEX
  5
348
330
340
100
AcDbEntity
  8
001
370
    50
100
AcDbVertex
100
AcDb2dVertex
 10
33.520057
 20
123.31564
 30
0.0
  0
VERTEX
  5
349
330
340
100
AcDbEntity
  8
001
370
    50
100
AcDbVertex
100
AcDb2dVertex
 10
32.967759
 20
122.907556
 30
0.0
  0
VERTEX
  5
34A
330
340
100
AcDbEntity
  8
001
370
    50
100
AcDbVertex
100
AcDb2dVertex
 10
32.597552
 20
122.563216
 30
0.0
  0
SEQEND
  5
341
330
340
100
AcDbEntity
  8
001
370
    50
  0
POLYLINE
  5
34B
330
1F
100
AcDbEntity
  8
001
370
    50
100
AcDb2dPolyline
 66
     1
 10
0.0
 20
0.0
 30
0.0
  0
VERTEX
  5
34D
330
34B
100
AcDbEntity
  8
001
370
    50
100
AcDbVertex
100
AcDb2dVertex
 10
34.592864
 20
123.851538
 30
0.0
  0
VERTEX
  5
34E
330
34B
100
AcDbEntity
  8
001
370
    50
100
AcDbVertex
100
AcDb2dVertex
 10
34.305621
 20
123.836727
 30
0.0
  0
VERTEX
  5
34F
330
34B
100
AcDbEntity
  8
001
370
    50
100
AcDbVertex
100
AcDb2dVertex
 10
33.911595
 20
123.790769
 30
0.0
  0
VERTEX
  5
350
330
34B
100
AcDbEntity
  8
001
370
    50
100
AcDbVertex
100
AcDb2dVertex
 10
33.560762
 20
123.713061
 30
0.0
  0
VERTEX
  5
351
330
34B
100
AcDbEntity
  8
001
370
    50
100
AcDbVertex
100
AcDb2dVertex
 10
33.251025
 20
123.610309
 30
0.0
  0
VERTEX
  5
352
330
34B
100
AcDbEntity
  8
001
370
    50
100
AcDbVertex
100
AcDb2dVertex
 10
32.945989
 20
123.48479
 30
0.0
  0
VERTEX
  5
353
330
34B
100
AcDbEntity
  8
001
370
    50
100
AcDbVertex
100
AcDb2dVertex
 10
32.631226
 20
123.31564
 30
0.0
  0
VERTEX
  5
354
330
34B
100
AcDbEntity
  8
001
370
    50
100
AcDbVertex
100
AcDb2dVertex
 10
32.065603
 20
122.894919
 30
0.0
  0
VERTEX
  5
355
330
34B
100
AcDbEntity
  8
001
370
    50
100
AcDbVertex
100
AcDb2dVertex
 10
31.686253
 20
122.538162
 30
0.0
  0
SEQEND
  5
34C
330
34B
100
AcDbEntity
  8
001
370
    50
  0
POLYLINE
  5
356
330
1F
100
AcDbEntity
  8
001
370
    50
100
AcDb2dPolyline
 66
     1
 10
0.0
 20
0.0
 30
0.0
  0
VERTEX
  5
358
330
356
100
AcDbEntity
  8
001
370
    50
100
AcDbVertex
100
AcDb2dVertex
 10
27.431031
 20
122.421175
 30
0.0
  0
VERTEX
  5
359
330
356
100
AcDbEntity
  8
001
370
    50
100
AcDbVertex
100
AcDb2dVertex
 10
27.183911
 20
122.546442
 30
0.0
  0
VERTEX
  5
35A
330
356
100
AcDbEntity
  8
001
370
    50
100
AcDbVertex
100
AcDb2dVertex
 10
26.840282
 20
122.698912
 30
0.0
  0
VERTEX
  5
35B
330
356
100
AcDbEntity
  8
001
370
    50
100
AcDbVertex
100
AcDb2dVertex
 10
26.515567
 20
122.811098
 30
0.0
  0
VERTEX
  5
35C
330
356
100
AcDbEntity
  8
001
370
    50
100
AcDbVertex
100
AcDb2dVertex
 10
26.179712
 20
122.879373
 30
0.0
  0
VERTEX
  5
35D
330
356
100
AcDbEntity
  8
001
370
    50
100
AcDbVertex
100
AcDb2dVertex
 10
25.788676
 20
122.923447
 30
0.0
  0
VERTEX
  5
35E
330
356
100
AcDbEntity
  8
001
370
    50
100
AcDbVertex
100
AcDb2dVertex
 10
25.498442
 20
122.940142
 30
0.0
  0
SEQEND
  5
357
330
356
100
AcDbEntity
  8
001
370
    50
  0
POLYLINE
  5
35F
330
1F
100
AcDbEntity
  8
001
370
    50
100
AcDb2dPolyline
 66
     1
 10
0.0
 20
0.0
 30
0.0
  0
VERTEX
  5
361
330
35F
100
AcDbEntity
  8
001
370
    50
100
AcDbVertex
100
AcDb2dVertex
 10
22.262832
 20
122.857975
 30
0.0
  0
VERTEX
  5
362
330
35F
100
AcDbEntity
  8
001
370
    50
100
AcDbVertex
100
AcDb2dVertex
 10
22.009223
 20
122.841393
 30
0.0
  0
VERTEX
  5
363
330
35F
100
AcDbEntity
  8
001
370
    50
100
AcDbVertex
100
AcDb2dVertex
 10
21.658933
 20
122.797984
 30
0.0
  0
VERTEX
  5
364
330
35F
100
AcDbEntity
  8
001
370
    50
100
AcDbVertex
100
AcDb2dVertex
 10
21.304744
 20
122.719013
 30
0.0
  0
VERTEX
  5
365
330
35F
100
AcDbEntity
  8
001
370
    50
100
AcDbVertex
100
AcDb2dVertex
 10
20.998363
 20
122.617524
 30
0.0
  0
VERTEX
  5
366
330
35F
100
AcDbEntity
  8
001
370
    50
100
AcDbVertex
100
AcDb2dVertex
 10
20.703634
 20
122.495901
 30
0.0
  0
VERTEX
  5
367
330
35F
100
AcDbEntity
  8
001
370
    50
100
AcDbVertex
100
AcDb2dVertex
 10
20.378564
 20
122.322855
 30
0.0
  0
VERTEX
  5
368
330
35F
100
AcDbEntity
  8
001
370
    50
100
AcDbVertex
100
AcDb2dVertex
 10
20.283555
 20
122.264718
 30
0.0
  0
VERTEX
  5
369
330
35F
100
AcDbEntity
  8
001
370
    50
100
AcDbVertex
100
AcDb2dVertex
 10
20.217739
 20
122.222863
 30
0.0
  0
SEQEND
  5
360
330
35F
100
AcDbEntity
  8
001
370
    50
  0
POLYLINE
  5
36A
330
1F
100
AcDbEntity
  8
001
370
    50
100
AcDb2dPolyline
 66
     1
 10
0.0
 20
0.0
 30
0.0
  0
VERTEX
  5
36C
330
36A
100
AcDbEntity
  8
001
370
    50
100
AcDbVertex
100
AcDb2dVertex
 10
21.374001
 20
122.857975
 30
0.0
  0
VERTEX
  5
36D
330
36A
100
AcDbEntity
  8
001
370
    50
100
AcDbVertex
100
AcDb2dVertex
 10
21.120354
 20
122.841379
 30
0.0
  0
VERTEX
  5
36E
330
36A
100
AcDbEntity
  8
001
370
    50
100
AcDbVertex
100
AcDb2dVertex
 10
20.770102
 20
122.797984
 30
0.0
  0
VERTEX
  5
36F
330
36A
100
AcDbEntity
  8
001
370
    50
100
AcDbVertex
100
AcDb2dVertex
 10
20.416137
 20
122.719097
 30
0.0
  0
VERTEX
  5
370
330
36A
100
AcDbEntity
  8
001
370
    50
100
AcDbVertex
100
AcDb2dVertex
 10
20.109532
 20
122.617524
 30
0.0
  0
VERTEX
  5
371
330
36A
100
AcDbEntity
  8
001
370
    50
100
AcDbVertex
100
AcDb2dVertex
 10
19.813935
 20
122.495574
 30
0.0
  0
VERTEX
  5
372
330
36A
100
AcDbEntity
  8
001
370
    50
100
AcDbVertex
100
AcDb2dVertex
 10
19.489733
 20
122.322855
 30
0.0
  0
VERTEX
  5
373
330
36A
100
AcDbEntity
  8
001
370
    50
100
AcDbVertex
100
AcDb2dVertex
 10
19.372126
 20
122.250225
 30
0.0
  0
VERTEX
  5
374
330
36A
100
AcDbEntity
  8
001
370
    50
100
AcDbVertex
100
AcDb2dVertex
 10
19.290534
 20
122.197372
 30
0.0
  0
SEQEND
  5
36B
330
36A
100
AcDbEntity
  8
001
370
    50
  0
LINE
  5
375
330
1F
100
AcDbEntity
  8
001
370
    50
100
AcDbLine
 10
15.272729
 20
129.902241
 30
0.0
 11
15.272729
 21
122.086912
 31
0.0
  0
LINE
  5
376
330
1F
100
AcDbEntity
  8
001
  6
PHANTOM
370
     9
100
AcDbLine
 10
14.172729
 20
121.501831
 30
0.0
 11
14.172729
 21
121.667516
 31
0.0
  0
ARC
  5
377
330
1F
100
AcDbEntity
  8
001
370
    50
100
AcDbCircle
 10
57.090385
 20
101.047752
 30
0.0
 40
0.4
100
AcDbArc
 50
271.574812
 51
45.57543
  0
LINE
  5
378
330
1F
100
AcDbEntity
  8
001
370
    50
100
AcDbLine
 10
58.314213
 20
101.163721
 30
0.0
 11
57.990467
 21
101.482539
 31
0.0
  0
POLYLINE
  5
379
330
1F
100
AcDbEntity
  8
001
370
    50
100
AcDb2dPolyline
 66
     1
 10
0.0
 20
0.0
 30
0.0
  0
VERTEX
  5
37B
330
379
100
AcDbEntity
  8
001
370
    50
100
AcDbVertex
100
AcDb2dVertex
 10
58.156173
 20
101.319356
 30
0.0
  0
VERTEX
  5
37C
330
379
100
AcDbEntity
  8
001
370
    50
100
AcDbVertex
100
AcDb2dVertex
 10
58.245745
 20
101.32282
 30
0.0
  0
VERTEX
  5
37D
330
379
100
AcDbEntity
  8
001
370
    50
100
AcDbVertex
100
AcDb2dVertex
 10
58.306596
 20
101.32518
 30
0.0
  0
SEQEND
  5
37A
330
379
100
AcDbEntity
  8
001
370
    50
  0
LINE
  5
37E
330
1F
100
AcDbEntity
  8
001
370
    50
100
AcDbLine
 10
58.111609
 20
100.650072
 30
0.0
 11
36.141837
 21
100.071671
 31
0.0
  0
ARC
  5
37F
330
1F
100
AcDbEntity
  8
001
370
    50
100
AcDbCircle
 10
58.103714
 20
100.949969
 30
0.0
 40
0.3
100
AcDbArc
 50
271.508087
 51
45.439397
  0
LINE
  5
380
330
1F
100
AcDbEntity
  8
001
370
    50
100
AcDbLine
 10
58.364588
 20
100.801831
 30
0.0
 11
64.172729
 21
100.801831
 31
0.0
  0
LINE
  5
381
330
1F
100
AcDbEntity
  8
001
370
    50
100
AcDbLine
 10
57.101378
 20
100.647903
 30
0.0
 11
35.778419
 21
100.06168
 31
0.0
  0
ENDSEC
  0
SECTION
  2
OBJECTS
  0
DICTIONARY
  5
C
330
0
100
AcDbDictionary
281
     1
  3
ACAD_GROUP
350
D
  3
ACAD_LAYOUT
350
1A
  3
ACAD_MLEADERSTYLE
350
385
  3
ACAD_MLINESTYLE
350
17
  3
ACAD_PLOTSETTINGS
350
19
  3
ACAD_PLOTSTYLENAME
350
E
  3
ACAD_SCALELIST
350
3B
  3
ACAD_TABLESTYLE
350
384
  3
ACAD_VISUALSTYLE
350
2A
  3
AcDbVariableDictionary
350
382
  0
DICTIONARY
  5
D
102
{ACAD_REACTORS
330
C
102
}
330
C
100
AcDbDictionary
281
     1
  0
DICTIONARY
  5
1A
102
{ACAD_REACTORS
330
C
102
}
330
C
100
AcDbDictionary
281
     1
  3
Layout1
350
1E
  3
Layout2
350
26
  3
Model
350
22
  0
DICTIONARY
  5
385
102
{ACAD_REACTORS
330
C
102
}
330
C
100
AcDbDictionary
281
     1
  0
DICTIONARY
  5
17
102
{ACAD_REACTORS
330
C
102
}
330
C
100
AcDbDictionary
281
     1
  3
Standard
350
18
  0
DICTIONARY
  5
19
102
{ACAD_REACTORS
330
C
102
}
330
C
100
AcDbDictionary
281
     1
  0
ACDBDICTIONARYWDFLT
  5
E
102
{ACAD_REACTORS
330
C
102
}
330
C
100
AcDbDictionary
281
     1
  3
Normal
350
F
100
AcDbDictionaryWithDefault
340
F
  0
DICTIONARY
  5
3B
102
{ACAD_REACTORS
330
C
102
}
330
C
100
AcDbDictionary
281
     1
  3
A0
350
3C
  3
A1
350
3D
  3
A2
350
3E
  3
A3
350
3F
  3
A4
350
40
  3
A5
350
41
  3
A6
350
42
  3
A7
350
43
  3
A8
350
44
  3
A9
350
45
  3
B0
350
46
  3
B1
350
47
  3
B2
350
48
  3
B3
350
49
  3
B4
350
4A
  3
B5
350
4B
  3
B6
350
4C
  3
B7
350
4D
  3
B8
350
4E
  3
B9
350
4F
  3
C0
350
50
  3
C1
350
51
  3
C2
350
52
  3
C3
350
53
  3
C4
350
54
  3
C5
350
55
  3
C6
350
56
  3
C7
350
57
  3
C8
350
58
  3
C9
350
59
  3
D0
350
5A
  3
D1
350
5B
  3
D2
350
5C
  0
DICTIONARY
  5
384
102
{ACAD_REACTORS
330
C
102
}
330
C
100
AcDbDictionary
281
     1
  0
DICTIONARY
  5
2A
102
{ACAD_REACTORS
330
C
102
}
330
C
100
AcDbDictionary
281
     1
  3
2dWireframe
350
2F
  3
3D Hidden
350
31
  3
3dWireframe
350
30
  3
Basic
350
32
  3
Brighten
350
36
  3
ColorChange
350
3A
  3
Conceptual
350
34
  3
Dim
350
35
  3
Facepattern
350
39
  3
Flat
350
2B
  3
FlatWithEdges
350
2C
  3
Gouraud
350
2D
  3
GouraudWithEdges
350
2E
  3
Linepattern
350
38
  3
Realistic
350
33
  3
Thicken
350
37
  0
DICTIONARY
  5
382
102
{ACAD_REACTORS
330
C
102
}
330
C
100
AcDbDictionary
281
     1
  3
CANNOSCALE
350
383
  3
PSOLHEIGHT
350
387
  3
PSOLWIDTH
350
386
  0
LAYOUT
  5
1E
102
{ACAD_REACTORS
330
1A
102
}
330
1A
100
AcDbPlotSettings
  1

  2
none_device
  4

  6

 40
0.0
 41
0.0
 42
0.0
 43
0.0
 44
0.0
 45
0.0
 46
0.0
 47
0.0
 48
0.0
 49
0.0
140
0.0
141
0.0
142
1.0
143
1.0
 70
   688
 72
     0
 73
     0
 74
     5
  7

 75
    16
147
1.0
148
0.0
149
0.0
100
AcDbLayout
  1
Layout1
 70
     1
 71
     1
 10
0.0
 20
0.0
 11
12.0
 21
9.0
 12
0.0
 22
0.0
 32
0.0
 14
1.000000E+20
 24
1.000000E+20
 34
0.0
 15
-1.000000E+20
 25
-1.000000E+20
 35
0.0
146
0.0
 13
0.0
 23
0.0
 33
0.0
 16
1.0
 26
0.0
 36
0.0
 17
0.0
 27
1.0
 37
0.0
 76
     0
330
1B
  0
LAYOUT
  5
26
102
{ACAD_REACTORS
330
1A
102
}
330
1A
100
AcDbPlotSettings
  1

  2
none_device
  4

  6

 40
0.0
 41
0.0
 42
0.0
 43
0.0
 44
0.0
 45
0.0
 46
0.0
 47
0.0
 48
0.0
 49
0.0
140
0.0
141
0.0
142
1.0
143
1.0
 70
   688
 72
     0
 73
     0
 74
     5
  7

 75
    16
147
1.0
148
0.0
149
0.0
100
AcDbLayout
  1
Layout2
 70
     1
 71
     2
 10
0.0
 20
0.0
 11
0.0
 21
0.0
 12
0.0
 22
0.0
 32
0.0
 14
0.0
 24
0.0
 34
0.0
 15
0.0
 25
0.0
 35
0.0
146
0.0
 13
0.0
 23
0.0
 33
0.0
 16
1.0
 26
0.0
 36
0.0
 17
0.0
 27
1.0
 37
0.0
 76
     0
330
23
  0
LAYOUT
  5
22
102
{ACAD_REACTORS
330
1A
102
}
330
1A
100
AcDbPlotSettings
  1

  2
none_device
  4

  6

 40
0.0
 41
0.0
 42
0.0
 43
0.0
 44
0.0
 45
0.0
 46
0.0
 47
0.0
 48
0.0
 49
0.0
140
0.0
141
0.0
142
1.0
143
1.0
 70
  1712
 72
     0
 73
     0
 74
     0
  7

 75
     0
147
1.0
148
0.0
149
0.0
100
AcDbLayout
  1
Model
 70
     1
 71
     0
 10
0.0
 20
0.0
 11
12.0
 21
9.0
 12
0.0
 22
0.0
 32
0.0
 14
-16.327271
 24
57.322388
 34
0.0
 15
182.386978
 25
175.534882
 35
0.0
146
0.0
 13
0.0
 23
0.0
 33
0.0
 16
1.0
 26
0.0
 36
0.0
 17
0.0
 27
1.0
 37
0.0
 76
     0
330
1F
331
29
  0
MLINESTYLE
  5
18
102
{ACAD_REACTORS
330
17
102
}
330
17
100
AcDbMlineStyle
  2
Standard
 70
     0
  3

 62
   256
 51
90.0
 52
90.0
 71
     2
 49
0.5
 62
   256
  6
BYLAYER
 49
-0.5
 62
   256
  6
BYLAYER
  0
ACDBPLACEHOLDER
  5
F
102
{ACAD_REACTORS
330
E
102
}
330
E
  0
SCALE
  5
3C
102
{ACAD_REACTORS
330
3B
102
}
330
3B
100
AcDbScale
 70
     0
300
1:1
140
1.0
141
1.0
290
     1
  0
SCALE
  5
3D
102
{ACAD_REACTORS
330
3B
102
}
330
3B
100
AcDbScale
 70
     0
300
1:2
140
1.0
141
2.0
290
     0
  0
SCALE
  5
3E
102
{ACAD_REACTORS
330
3B
102
}
330
3B
100
AcDbScale
 70
     0
300
1:4
140
1.0
141
4.0
290
     0
  0
SCALE
  5
3F
102
{ACAD_REACTORS
330
3B
102
}
330
3B
100
AcDbScale
 70
     0
300
1:5
140
1.0
141
5.0
290
     0
  0
SCALE
  5
40
102
{ACAD_REACTORS
330
3B
102
}
330
3B
100
AcDbScale
 70
     0
300
1:8
140
1.0
141
8.0
290
     0
  0
SCALE
  5
41
102
{ACAD_REACTORS
330
3B
102
}
330
3B
100
AcDbScale
 70
     0
300
1:10
140
1.0
141
10.0
290
     0
  0
SCALE
  5
42
102
{ACAD_REACTORS
330
3B
102
}
330
3B
100
AcDbScale
 70
     0
300
1:16
140
1.0
141
16.0
290
     0
  0
SCALE
  5
43
102
{ACAD_REACTORS
330
3B
102
}
330
3B
100
AcDbScale
 70
     0
300
1:20
140
1.0
141
20.0
290
     0
  0
SCALE
  5
44
102
{ACAD_REACTORS
330
3B
102
}
330
3B
100
AcDbScale
 70
     0
300
1:30
140
1.0
141
30.0
290
     0
  0
SCALE
  5
45
102
{ACAD_REACTORS
330
3B
102
}
330
3B
100
AcDbScale
 70
     0
300
1:40
140
1.0
141
40.0
290
     0
  0
SCALE
  5
46
102
{ACAD_REACTORS
330
3B
102
}
330
3B
100
AcDbScale
 70
     0
300
1:50
140
1.0
141
50.0
290
     0
  0
SCALE
  5
47
102
{ACAD_REACTORS
330
3B
102
}
330
3B
100
AcDbScale
 70
     0
300
1:100
140
1.0
141
100.0
290
     0
  0
SCALE
  5
48
102
{ACAD_REACTORS
330
3B
102
}
330
3B
100
AcDbScale
 70
     0
300
2:1
140
2.0
141
1.0
290
     0
  0
SCALE
  5
49
102
{ACAD_REACTORS
330
3B
102
}
330
3B
100
AcDbScale
 70
     0
300
4:1
140
4.0
141
1.0
290
     0
  0
SCALE
  5
4A
102
{ACAD_REACTORS
330
3B
102
}
330
3B
100
AcDbScale
 70
     0
300
8:1
140
8.0
141
1.0
290
     0
  0
SCALE
  5
4B
102
{ACAD_REACTORS
330
3B
102
}
330
3B
100
AcDbScale
 70
     0
300
10:1
140
10.0
141
1.0
290
     0
  0
SCALE
  5
4C
102
{ACAD_REACTORS
330
3B
102
}
330
3B
100
AcDbScale
 70
     0
300
100:1
140
100.0
141
1.0
290
     0
  0
SCALE
  5
4D
102
{ACAD_REACTORS
330
3B
102
}
330
3B
100
AcDbScale
 70
     0
300
1/128" = 1'-0"
140
0.007812
141
12.0
290
     0
  0
SCALE
  5
4E
102
{ACAD_REACTORS
330
3B
102
}
330
3B
100
AcDbScale
 70
     0
300
1/64" = 1'-0"
140
0.015625
141
12.0
290
     0
  0
SCALE
  5
4F
102
{ACAD_REACTORS
330
3B
102
}
330
3B
100
AcDbScale
 70
     0
300
1/32" = 1'-0"
140
0.03125
141
12.0
290
     0
  0
SCALE
  5
50
102
{ACAD_REACTORS
330
3B
102
}
330
3B
100
AcDbScale
 70
     0
300
1/16" = 1'-0"
140
0.0625
141
12.0
290
     0
  0
SCALE
  5
51
102
{ACAD_REACTORS
330
3B
102
}
330
3B
100
AcDbScale
 70
     0
300
3/32" = 1'-0"
140
0.09375
141
12.0
290
     0
  0
SCALE
  5
52
102
{ACAD_REACTORS
330
3B
102
}
330
3B
100
AcDbScale
 70
     0
300
1/8" = 1'-0"
140
0.125
141
12.0
290
     0
  0
SCALE
  5
53
102
{ACAD_REACTORS
330
3B
102
}
330
3B
100
AcDbScale
 70
     0
300
3/16" = 1'-0"
140
0.1875
141
12.0
290
     0
  0
SCALE
  5
54
102
{ACAD_REACTORS
330
3B
102
}
330
3B
100
AcDbScale
 70
     0
300
1/4" = 1'-0"
140
0.25
141
12.0
290
     0
  0
SCALE
  5
55
102
{ACAD_REACTORS
330
3B
102
}
330
3B
100
AcDbScale
 70
     0
300
3/8" = 1'-0"
140
0.375
141
12.0
290
     0
  0
SCALE
  5
56
102
{ACAD_REACTORS
330
3B
102
}
330
3B
100
AcDbScale
 70
     0
300
1/2" = 1'-0"
140
0.5
141
12.0
290
     0
  0
SCALE
  5
57
102
{ACAD_REACTORS
330
3B
102
}
330
3B
100
AcDbScale
 70
     0
300
3/4" = 1'-0"
140
0.75
141
12.0
290
     0
  0
SCALE
  5
58
102
{ACAD_REACTORS
330
3B
102
}
330
3B
100
AcDbScale
 70
     0
300
1" = 1'-0"
140
1.0
141
12.0
290
     0
  0
SCALE
  5
59
102
{ACAD_REACTORS
330
3B
102
}
330
3B
100
AcDbScale
 70
     0
300
1-1/2" = 1'-0"
140
1.5
141
12.0
290
     0
  0
SCALE
  5
5A
102
{ACAD_REACTORS
330
3B
102
}
330
3B
100
AcDbScale
 70
     0
300
3" = 1'-0"
140
3.0
141
12.0
290
     0
  0
SCALE
  5
5B
102
{ACAD_REACTORS
330
3B
102
}
330
3B
100
AcDbScale
 70
     0
300
6" = 1'-0"
140
6.0
141
12.0
290
     0
  0
SCALE
  5
5C
102
{ACAD_REACTORS
330
3B
102
}
330
3B
100
AcDbScale
 70
     0
300
1'-0" = 1'-0"
140
12.0
141
12.0
290
     0
  0
VISUALSTYLE
  5
2F
102
{ACAD_REACTORS
330
2A
102
}
330
2A
100
AcDbVisualStyle
  2
2dWireframe
 70
     4
 71
     0
 72
     2
 73
     0
 90
        0
 40
-0.6
 41
-30.0
 62
     5
 63
     7
 74
     1
 91
        4
 64
     7
 65
   257
 75
     1
175
     1
 42
1.0
 92
        0
 66
   257
 43
1.0
 76
     1
 77
     6
 78
     2
 67
     7
 79
     5
170
     0
171
     0
290
     0
174
     0
 93
        1
 44
0.0
173
     0
291
     0
 45
0.0
1001
ACAD
1000
AcDbSavedByObjectVersion
1070
     0
  0
VISUALSTYLE
  5
31
102
{ACAD_REACTORS
330
2A
102
}
330
2A
100
AcDbVisualStyle
  2
3D Hidden
 70
     6
 71
     1
 72
     2
 73
     2
 90
        0
 40
-0.6
 41
-30.0
 62
     5
 63
     7
 74
     2
 91
        2
 64
     7
 65
   257
 75
     2
175
     1
 42
40.0
 92
        0
 66
   257
 43
1.0
 76
     1
 77
     6
 78
     2
 67
     7
 79
     3
170
     0
171
     0
290
     0
174
     0
 93
        1
 44
0.0
173
     0
291
     0
 45
0.0
1001
ACAD
1000
AcDbSavedByObjectVersion
1070
     0
  0
VISUALSTYLE
  5
30
102
{ACAD_REACTORS
330
2A
102
}
330
2A
100
AcDbVisualStyle
  2
3dWireframe
 70
     5
 71
     0
 72
     2
 73
     0
 90
        0
 40
-0.6
 41
-30.0
 62
     5
 63
     7
 74
     1
 91
        4
 64
     7
 65
   257
 75
     1
175
     1
 42
1.0
 92
        0
 66
   257
 43
1.0
 76
     1
 77
     6
 78
     2
 67
     7
 79
     5
170
     0
171
     0
290
     0
174
     0
 93
        1
 44
0.0
173
     0
291
     0
 45
0.0
1001
ACAD
1000
AcDbSavedByObjectVersion
1070
     0
  0
VISUALSTYLE
  5
32
102
{ACAD_REACTORS
330
2A
102
}
330
2A
100
AcDbVisualStyle
  2
Basic
 70
     7
 71
     1
 72
     0
 73
     1
 90
        0
 40
-0.6
 41
-30.0
 62
     5
 63
     7
 74
     0
 91
        4
 64
     7
 65
   257
 75
     1
175
     1
 42
1.0
 92
        8
 66
     7
 43
1.0
 76
     1
 77
     6
 78
     2
 67
     7
 79
     5
170
     0
171
     0
290
     0
174
     0
 93
        1
 44
0.0
173
     0
291
     1
 45
0.0
1001
ACAD
1000
AcDbSavedByObjectVersion
1070
     0
  0
VISUALSTYLE
  5
36
102
{ACAD_REACTORS
330
2A
102
}
330
2A
100
AcDbVisualStyle
  2
Brighten
 70
    12
 71
     2
 72
     2
 73
     0
 90
        0
 40
-0.6
 41
-30.0
 62
     5
 63
     7
 74
     1
 91
        4
 64
     7
 65
   257
 75
     1
175
     1
 42
1.0
 92
        8
 66
     7
 43
1.0
 76
     1
 77
     6
 78
     2
 67
     7
 79
     5
170
     0
171
     0
290
     0
174
     0
 93
        1
 44
50.0
173
     0
291
     1
 45
0.0
1001
ACAD
1000
AcDbSavedByObjectVersion
1070
     0
  0
VISUALSTYLE
  5
3A
102
{ACAD_REACTORS
330
2A
102
}
330
2A
100
AcDbVisualStyle
  2
ColorChange
 70
    16
 71
     2
 72
     2
 73
     3
 90
        0
 40
-0.6
 41
-30.0
 62
     5
 63
     8
 74
     1
 91
        4
 64
     7
 65
   257
 75
     1
175
     1
 42
1.0
 92
        8
 66
     8
 43
1.0
 76
     1
 77
     6
 78
     2
 67
     7
 79
     5
170
     0
171
     0
290
     0
174
     0
 93
        1
 44
0.0
173
     0
291
     1
 45
0.0
1001
ACAD
1000
AcDbSavedByObjectVersion
1070
     0
  0
VISUALSTYLE
  5
34
102
{ACAD_REACTORS
330
2A
102
}
330
2A
100
AcDbVisualStyle
  2
Conceptual
 70
     9
 71
     3
 72
     2
 73
     0
 90
        0
 40
-0.6
 41
-30.0
 62
     5
 63
     7
 74
     2
 91
        2
 64
     7
 65
   257
 75
     1
175
     1
 42
40.0
 92
        8
 66
     7
 43
1.0
 76
     1
 77
     6
 78
     2
 67
     7
 79
     3
170
     0
171
     0
290
     0
174
     0
 93
        1
 44
0.0
173
     0
291
     0
 45
0.0
1001
ACAD
1000
AcDbSavedByObjectVersion
1070
     0
  0
VISUALSTYLE
  5
35
102
{ACAD_REACTORS
330
2A
102
}
330
2A
100
AcDbVisualStyle
  2
Dim
 70
    11
 71
     2
 72
     2
 73
     0
 90
        0
 40
-0.6
 41
-30.0
 62
     5
 63
     7
 74
     1
 91
        4
 64
     7
 65
   257
 75
     1
175
     1
 42
1.0
 92
        8
 66
     7
 43
1.0
 76
     1
 77
     6
 78
     2
 67
     7
 79
     5
170
     0
171
     0
290
     0
174
     0
 93
        1
 44
-50.0
173
     0
291
     1
 45
0.0
1001
ACAD
1000
AcDbSavedByObjectVersion
1070
     0
  0
VISUALSTYLE
  5
39
102
{ACAD_REACTORS
330
2A
102
}
330
2A
100
AcDbVisualStyle
  2
Facepattern
 70
    15
 71
     2
 72
     2
 73
     0
 90
        0
 40
-0.6
 41
-30.0
 62
     5
 63
     7
 74
     1
 91
        4
 64
     7
 65
   257
 75
     1
175
     1
 42
1.0
 92
        8
 66
     7
 43
1.0
 76
     1
 77
     6
 78
     2
 67
     7
 79
     5
170
     0
171
     0
290
     0
174
     0
 93
        1
 44
0.0
173
     0
291
     1
 45
0.0
1001
ACAD
1000
AcDbSavedByObjectVersion
1070
     0
  0
VISUALSTYLE
  5
2B
102
{ACAD_REACTORS
330
2A
102
}
330
2A
100
AcDbVisualStyle
  2
Flat
 70
     0
 71
     2
 72
     1
 73
     1
 90
        2
 40
-0.6
 41
30.0
 62
     5
 63
     7
 74
     0
 91
        4
 64
     7
 65
   257
 75
     1
175
     1
 42
1.0
 92
        8
 66
     7
 43
1.0
 76
     1
 77
     6
 78
     2
 67
     7
 79
     5
170
     0
171
     0
290
     0
174
     0
 93
       13
 44
0.0
173
     0
291
     1
 45
0.0
1001
ACAD
1000
AcDbSavedByObjectVersion
1070
     0
  0
VISUALSTYLE
  5
2C
102
{ACAD_REACTORS
330
2A
102
}
330
2A
100
AcDbVisualStyle
  2
FlatWithEdges
 70
     1
 71
     2
 72
     1
 73
     1
 90
        2
 40
-0.6
 41
30.0
 62
     5
 63
     7
 74
     1
 91
        4
 64
     7
 65
   257
 75
     1
175
     1
 42
1.0
 92
        0
 66
   257
 43
1.0
 76
     1
 77
     6
 78
     2
 67
     7
 79
     5
170
     0
171
     0
290
     0
174
     0
 93
       13
 44
0.0
173
     0
291
     1
 45
0.0
1001
ACAD
1000
AcDbSavedByObjectVersion
1070
     0
  0
VISUALSTYLE
  5
2D
102
{ACAD_REACTORS
330
2A
102
}
330
2A
100
AcDbVisualStyle
  2
Gouraud
 70
     2
 71
     2
 72
     2
 73
     1
 90
        2
 40
-0.6
 41
30.0
 62
     5
 63
     7
 74
     0
 91
        4
 64
     7
 65
   257
 75
     1
175
     1
 42
1.0
 92
        0
 66
     7
 43
1.0
 76
     1
 77
     6
 78
     2
 67
     7
 79
     5
170
     0
171
     0
290
     0
174
     0
 93
       13
 44
0.0
173
     0
291
     1
 45
0.0
1001
ACAD
1000
AcDbSavedByObjectVersion
1070
     0
  0
VISUALSTYLE
  5
2E
102
{ACAD_REACTORS
330
2A
102
}
330
2A
100
AcDbVisualStyle
  2
GouraudWithEdges
 70
     3
 71
     2
 72
     2
 73
     1
 90
        2
 40
-0.6
 41
30.0
 62
     5
 63
     7
 74
     1
 91
        4
 64
     7
 65
   257
 75
     1
175
     1
 42
1.0
 92
        0
 66
   257
 43
1.0
 76
     1
 77
     6
 78
     2
 67
     7
 79
     5
170
     0
171
     0
290
     0
174
     0
 93
       13
 44
0.0
173
     0
291
     1
 45
0.0
1001
ACAD
1000
AcDbSavedByObjectVersion
1070
     0
  0
VISUALSTYLE
  5
38
102
{ACAD_REACTORS
330
2A
102
}
330
2A
100
AcDbVisualStyle
  2
Linepattern
 70
    14
 71
     2
 72
     2
 73
     0
 90
        0
 40
-0.6
 41
-30.0
 62
     5
 63
     7
 74
     1
 91
        4
 64
     7
 65
   257
 75
     7
175
     7
 42
1.0
 92
        8
 66
     7
 43
1.0
 76
     1
 77
     6
 78
     2
 67
     7
 79
     5
170
     0
171
     0
290
     0
174
     0
 93
        1
 44
0.0
173
     0
291
     1
 45
0.0
1001
ACAD
1000
AcDbSavedByObjectVersion
1070
     0
  0
VISUALSTYLE
  5
33
102
{ACAD_REACTORS
330
2A
102
}
330
2A
100
AcDbVisualStyle
  2
Realistic
 70
     8
 71
     2
 72
     2
 73
     0
 90
        0
 40
-0.6
 41
-30.0
 62
     5
 63
     7
 74
     1
 91
        0
 64
     7
 65
   257
 75
     1
175
     1
 42
1.0
 92
        8
 66
     8
 43
1.0
 76
     1
 77
     6
 78
     2
 67
     7
 79
     5
170
     0
171
     0
290
     0
174
     0
 93
       13
 44
0.0
173
     0
291
     0
 45
0.0
1001
ACAD
1000
AcDbSavedByObjectVersion
1070
     0
  0
VISUALSTYLE
  5
37
102
{ACAD_REACTORS
330
2A
102
}
330
2A
100
AcDbVisualStyle
  2
Thicken
 70
    13
 71
     2
 72
     2
 73
     0
 90
        0
 40
-0.6
 41
-30.0
 62
     5
 63
     7
 74
     1
 91
        4
 64
     7
 65
   257
 75
     1
175
     1
 42
1.0
 92
       12
 66
     7
 43
1.0
 76
     1
 77
     6
 78
     2
 67
     7
 79
     5
170
     0
171
     0
290
     0
174
     0
 93
        1
 44
0.0
173
     0
291
     1
 45
0.0
1001
ACAD
1000
AcDbSavedByObjectVersion
1070
     0
  0
DICTIONARYVAR
  5
383
102
{ACAD_REACTORS
330
382
102
}
330
382
100
DictionaryVariables
280
     0
  1
1:1
  0
DICTIONARYVAR
  5
387
102
{ACAD_REACTORS
330
382
102
}
330
382
100
DictionaryVariables
280
     0
  1
80.000000
  0
DICTIONARYVAR
  5
386
102
{ACAD_REACTORS
330
382
102
}
330
382
100
DictionaryVariables
280
     0
  1
5.000000
  0
ENDSEC
  0
EOF
