  0
SECTION
  2
HEADER
  9
$ACADVER
  1
AC1015
  9
$ACADMAINTVER
 70
     6
  9
$DWGCODEPAGE
  3
ANSI_932
  9
$INSBASE
 10
0.0
 20
0.0
 30
0.0
  9
$EXTMIN
 10
-3.542358
 20
35.072006
 30
0.0
  9
$EXTMAX
 10
193.091705
 20
151.709564
 30
0.0
  9
$LIMMIN
 10
0.0
 20
0.0
  9
$LIMMAX
 10
12.0
 20
9.0
  9
$ORTHOMODE
 70
     0
  9
$REGENMODE
 70
     1
  9
$FILLMODE
 70
     1
  9
$QTEXTMODE
 70
     0
  9
$MIRRTEXT
 70
     1
  9
$LTSCALE
 40
2.286247
  9
$ATTMODE
 70
     1
  9
$TEXTSIZE
 40
3.2
  9
$TRACEWID
 40
1.0
  9
$TEXTSTYLE
  7
Standard
  9
$CLAYER
  8
0
  9
$CELTYPE
  6
ByLayer
  9
$CECOLOR
 62
   256
  9
$CELTSCALE
 40
1.0
  9
$DISPSILH
 70
     0
  9
$DIMSCALE
 40
1.0
  9
$DIMASZ
 40
2.5
  9
$DIMEXO
 40
0.625
  9
$DIMDLI
 40
3.75
  9
$DIMRND
 40
0.0
  9
$DIMDLE
 40
0.0
  9
$DIMEXE
 40
1.25
  9
$DIMTP
 40
0.0
  9
$DIMTM
 40
0.0
  9
$DIMTXT
 40
2.5
  9
$DIMCEN
 40
0.09
  9
$DIMTSZ
 40
0.0
  9
$DIMTOL
 70
     0
  9
$DIMLIM
 70
     0
  9
$DIMTIH
 70
     0
  9
$DIMTOH
 70
     0
  9
$DIMSE1
 70
     0
  9
$DIMSE2
 70
     0
  9
$DIMTAD
 70
     0
  9
$DIMZIN
 70
     8
  9
$DIMBLK
  1

  9
$DIMASO
 70
     1
  9
$DIMSHO
 70
     0
  9
$DIMPOST
  1

  9
$DIMAPOST
  1

  9
$DIMALT
 70
     0
  9
$DIMALTD
 70
     3
  9
$DIMALTF
 40
0.03937
  9
$DIMLFAC
 40
1.0
  9
$DIMTOFL
 70
     1
  9
$DIMTVP
 40
0.0
  9
$DIMTIX
 70
     0
  9
$DIMSOXD
 70
     0
  9
$DIMSAH
 70
     0
  9
$DIMBLK1
  1

  9
$DIMBLK2
  1

  9
$DIMSTYLE
  2
ISO-25
  9
$DIMCLRD
 70
     0
  9
$DIMCLRE
 70
     0
  9
$DIMCLRT
 70
     0
  9
$DIMTFAC
 40
1.0
  9
$DIMGAP
 40
0.625
  9
$DIMJUST
 70
     0
  9
$DIMSD1
 70
     0
  9
$DIMSD2
 70
     0
  9
$DIMTOLJ
 70
     0
  9
$DIMTZIN
 70
     8
  9
$DIMALTZ
 70
     0
  9
$DIMALTTZ
 70
     0
  9
$DIMUPT
 70
     0
  9
$DIMDEC
 70
     2
  9
$DIMTDEC
 70
     2
  9
$DIMALTU
 70
     2
  9
$DIMALTTD
 70
     3
  9
$DIMTXSTY
  7
Standard
  9
$DIMAUNIT
 70
     0
  9
$DIMADEC
 70
     0
  9
$DIMALTRND
 40
0.0
  9
$DIMAZIN
 70
     0
  9
$DIMDSEP
 70
    44
  9
$DIMATFIT
 70
     3
  9
$DIMFRAC
 70
     0
  9
$DIMLDRBLK
  1

  9
$DIMLUNIT
 70
     2
  9
$DIMLWD
 70
    -2
  9
$DIMLWE
 70
    -2
  9
$DIMTMOVE
 70
     0
  9
$LUNITS
 70
     2
  9
$LUPREC
 70
     4
  9
$SKETCHINC
 40
1.0
  9
$FILLETRAD
 40
0.0
  9
$AUNITS
 70
     0
  9
$AUPREC
 70
     0
  9
$MENU
  1
.
  9
$ELEVATION
 40
0.0
  9
$PELEVATION
 40
0.0
  9
$THICKNESS
 40
0.0
  9
$LIMCHECK
 70
     0
  9
$CHAMFERA
 40
10.0
  9
$CHAMFERB
 40
10.0
  9
$CHAMFERC
 40
20.0
  9
$CHAMFERD
 40
0.0
  9
$SKPOLY
 70
     0
  9
$TDCREATE
 40
2454728.39234537
  9
$TDUCREATE
 40
2454728.01734537
  9
$TDUPDATE
 40
2454728.392345382
  9
$TDUUPDATE
 40
2454728.017345382
  9
$TDINDWG
 40
0.0000000116
  9
$TDUSRTIMER
 40
0.0000000116
  9
$USRTIMER
 70
     1
  9
$ANGBASE
 50
0.0
  9
$ANGDIR
 70
     0
  9
$PDMODE
 70
     0
  9
$PDSIZE
 40
0.0
  9
$PLINEWID
 40
0.0
  9
$SPLFRAME
 70
     0
  9
$SPLINETYPE
 70
     6
  9
$SPLINESEGS
 70
     8
  9
$HANDSEED
  5
324
  9
$SURFTAB1
 70
     6
  9
$SURFTAB2
 70
     6
  9
$SURFTYPE
 70
     6
  9
$SURFU
 70
     6
  9
$SURFV
 70
     6
  9
$UCSBASE
  2

  9
$UCSNAME
  2

  9
$UCSORG
 10
0.0
 20
0.0
 30
0.0
  9
$UCSXDIR
 10
1.0
 20
0.0
 30
0.0
  9
$UCSYDIR
 10
0.0
 20
1.0
 30
0.0
  9
$UCSORTHOREF
  2

  9
$UCSORTHOVIEW
 70
     0
  9
$UCSORGTOP
 10
0.0
 20
0.0
 30
0.0
  9
$UCSORGBOTTOM
 10
0.0
 20
0.0
 30
0.0
  9
$UCSORGLEFT
 10
0.0
 20
0.0
 30
0.0
  9
$UCSORGRIGHT
 10
0.0
 20
0.0
 30
0.0
  9
$UCSORGFRONT
 10
0.0
 20
0.0
 30
0.0
  9
$UCSORGBACK
 10
0.0
 20
0.0
 30
0.0
  9
$PUCSBASE
  2

  9
$PUCSNAME
  2

  9
$PUCSORG
 10
0.0
 20
0.0
 30
0.0
  9
$PUCSXDIR
 10
1.0
 20
0.0
 30
0.0
  9
$PUCSYDIR
 10
0.0
 20
1.0
 30
0.0
  9
$PUCSORTHOREF
  2

  9
$PUCSORTHOVIEW
 70
     0
  9
$PUCSORGTOP
 10
0.0
 20
0.0
 30
0.0
  9
$PUCSORGBOTTOM
 10
0.0
 20
0.0
 30
0.0
  9
$PUCSORGLEFT
 10
0.0
 20
0.0
 30
0.0
  9
$PUCSORGRIGHT
 10
0.0
 20
0.0
 30
0.0
  9
$PUCSORGFRONT
 10
0.0
 20
0.0
 30
0.0
  9
$PUCSORGBACK
 10
0.0
 20
0.0
 30
0.0
  9
$USERI1
 70
     0
  9
$USERI2
 70
     0
  9
$USERI3
 70
     0
  9
$USERI4
 70
     0
  9
$USERI5
 70
     0
  9
$USERR1
 40
0.0
  9
$USERR2
 40
0.0
  9
$USERR3
 40
0.0
  9
$USERR4
 40
0.0
  9
$USERR5
 40
0.0
  9
$WORLDVIEW
 70
     1
  9
$SHADEDGE
 70
     3
  9
$SHADEDIF
 70
    70
  9
$TILEMODE
 70
     1
  9
$MAXACTVP
 70
    64
  9
$PINSBASE
 10
0.0
 20
0.0
 30
0.0
  9
$PLIMCHECK
 70
     0
  9
$PEXTMIN
 10
1.000000E+20
 20
1.000000E+20
 30
0.0
  9
$PEXTMAX
 10
-1.000000E+20
 20
-1.000000E+20
 30
0.0
  9
$PLIMMIN
 10
0.0
 20
0.0
  9
$PLIMMAX
 10
12.0
 20
9.0
  9
$UNITMODE
 70
     0
  9
$VISRETAIN
 70
     1
  9
$PLINEGEN
 70
     0
  9
$PSLTSCALE
 70
     1
  9
$TREEDEPTH
 70
  3020
  9
$CMLSTYLE
  2
Standard
  9
$CMLJUST
 70
     0
  9
$CMLSCALE
 40
20.0
  9
$PROXYGRAPHICS
 70
     1
  9
$MEASUREMENT
 70
     1
  9
$CELWEIGHT
370
    -1
  9
$ENDCAPS
280
     0
  9
$JOINSTYLE
280
     0
  9
$LWDISPLAY
290
     0
  9
$INSUNITS
 70
     4
  9
$HYPERLINKBASE
  1

  9
$STYLESHEET
  1

  9
$XEDIT
290
     1
  9
$CEPSNTYPE
380
     0
  9
$PSTYLEMODE
290
     1
  9
$FINGERPRINTGUID
  2
{E54DB463-4917-44FB-A44B-2335A9FADA77}
  9
$VERSIONGUID
  2
{FAEB1C32-E019-11D5-929B-00C0DF256EC4}
  9
$EXTNAMES
290
     1
  9
$PSVPSCALE
 40
0.0
  9
$OLESTARTUP
290
     0
  0
ENDSEC
  0
SECTION
  2
CLASSES
  0
CLASS
  1
ACDBDICTIONARYWDFLT
  2
AcDbDictionaryWithDefault
  3
ObjectDBX Classes
 90
        0
280
     0
281
     0
  0
CLASS
  1
VISUALSTYLE
  2
AcDbVisualStyle
  3
ObjectDBX Classes
 90
     4095
280
     0
281
     0
  0
CLASS
  1
SCALE
  2
AcDbScale
  3
ObjectDBX Classes
 90
     1153
280
     0
281
     0
  0
CLASS
  1
DICTIONARYVAR
  2
AcDbDictionaryVar
  3
ObjectDBX Classes
 90
        0
280
     0
281
     0
  0
CLASS
  1
ACDBPLACEHOLDER
  2
AcDbPlaceHolder
  3
ObjectDBX Classes
 90
        0
280
     0
281
     0
  0
CLASS
  1
LAYOUT
  2
AcDbLayout
  3
ObjectDBX Classes
 90
        0
280
     0
281
     0
  0
ENDSEC
  0
SECTION
  2
TABLES
  0
TABLE
  2
VPORT
  5
8
330
0
100
AcDbSymbolTable
 70
     1
  0
VPORT
  5
29
330
8
100
AcDbSymbolTableRecord
100
AcDbViewportTableRecord
  2
*Active
 70
     0
 10
0.0
 20
0.0
 11
1.0
 21
1.0
 12
94.774673
 22
93.390785
 13
0.0
 23
0.0
 14
1.0
 24
1.0
 15
0.0
 25
0.0
 16
0.0
 26
0.0
 36
1.0
 17
0.0
 27
0.0
 37
0.0
 40
117.803934
 41
1.691288
 42
50.0
 43
0.0
 44
0.0
 50
0.0
 51
0.0
 71
     0
 72
   100
 73
     1
 74
     3
 75
     0
 76
     0
 77
     0
 78
     0
281
     0
 65
     1
110
0.0
120
0.0
130
0.0
111
1.0
121
0.0
131
0.0
112
0.0
122
1.0
132
0.0
 79
     0
146
0.0
  0
ENDTAB
  0
TABLE
  2
LTYPE
  5
5
330
0
100
AcDbSymbolTable
 70
     5
  0
LTYPE
  5
14
330
5
100
AcDbSymbolTableRecord
100
AcDbLinetypeTableRecord
  2
ByBlock
 70
     0
  3

 72
    65
 73
     0
 40
0.0
  0
LTYPE
  5
15
330
5
100
AcDbSymbolTableRecord
100
AcDbLinetypeTableRecord
  2
ByLayer
 70
     0
  3

 72
    65
 73
     0
 40
0.0
  0
LTYPE
  5
16
330
5
100
AcDbSymbolTableRecord
100
AcDbLinetypeTableRecord
  2
Continuous
 70
     0
  3
Solid line
 72
    65
 73
     0
 40
0.0
  0
LTYPE
  5
5D
330
5
100
AcDbSymbolTableRecord
100
AcDbLinetypeTableRecord
  2
DASHED
 70
     0
  3
DASHED
 72
    83
 73
     2
 40
0.75
 49
0.5
 74
     0
 49
-0.25
 74
     0
  0
LTYPE
  5
5E
330
5
100
AcDbSymbolTableRecord
100
AcDbLinetypeTableRecord
  2
HIDDEN
 70
     0
  3
HIDDEN
 72
    83
 73
     2
 40
0.375
 49
0.25
 74
     0
 49
-0.125
 74
     0
  0
LTYPE
  5
5F
330
5
100
AcDbSymbolTableRecord
100
AcDbLinetypeTableRecord
  2
CENTER
 70
     0
  3
CENTER
 72
    83
 73
     4
 40
2.0
 49
1.25
 74
     0
 49
-0.25
 74
     0
 49
0.25
 74
     0
 49
-0.25
 74
     0
  0
LTYPE
  5
60
330
5
100
AcDbSymbolTableRecord
100
AcDbLinetypeTableRecord
  2
PHANTOM
 70
     0
  3
PHANTOM
 72
    83
 73
     6
 40
2.5
 49
1.25
 74
     0
 49
-0.25
 74
     0
 49
0.25
 74
     0
 49
-0.25
 74
     0
 49
0.25
 74
     0
 49
-0.25
 74
     0
  0
ENDTAB
  0
TABLE
  2
LAYER
  5
2
330
0
100
AcDbSymbolTable
 70
     2
  0
LAYER
  5
10
330
2
100
AcDbSymbolTableRecord
100
AcDbLayerTableRecord
  2
0
 70
     0
 62
     7
  6
Continuous
370
    -3
390
F
  0
LAYER
  5
61
330
2
100
AcDbSymbolTableRecord
100
AcDbLayerTableRecord
  2
001
 70
     0
 62
     7
  6
Continuous
370
    -3
390
F
  0
ENDTAB
  0
TABLE
  2
STYLE
  5
3
330
0
100
AcDbSymbolTable
 70
     2
  0
STYLE
  5
11
330
3
100
AcDbSymbolTableRecord
100
AcDbTextStyleTableRecord
  2
Standard
 70
     0
 40
0.0
 41
1.0
 50
0.0
 71
     0
 42
0.2
  3
TXT
  4
BIGFONT
  0
STYLE
  5
62
330
3
100
AcDbSymbolTableRecord
100
AcDbTextStyleTableRecord
  2
TATEGAKI
 70
     4
 40
1.0
 41
1.0
 50
0.0
 71
     0
 42
0.2
  3
TXT
  4
BIGFONT
  0
ENDTAB
  0
TABLE
  2
VIEW
  5
6
330
0
100
AcDbSymbolTable
 70
     0
  0
ENDTAB
  0
TABLE
  2
UCS
  5
7
330
0
100
AcDbSymbolTable
 70
     0
  0
ENDTAB
  0
TABLE
  2
APPID
  5
9
330
0
100
AcDbSymbolTable
 70
     1
  0
APPID
  5
12
330
9
100
AcDbSymbolTableRecord
100
AcDbRegAppTableRecord
  2
ACAD
 70
     0
  0
ENDTAB
  0
TABLE
  2
DIMSTYLE
  5
A
330
0
100
AcDbSymbolTable
 70
     2
100
AcDbDimStyleTable
  0
DIMSTYLE
105
27
330
A
100
AcDbSymbolTableRecord
100
AcDbDimStyleTableRecord
  2
ISO-25
 70
     0
 41
2.5
 42
0.625
 43
3.75
 44
1.25
 73
     0
 74
     0
 77
     1
 78
     8
140
2.5
141
2.5
143
0.03937
147
0.625
171
     3
172
     1
271
     2
272
     2
274
     3
278
    44
283
     0
284
     8
340
11
  0
DIMSTYLE
105
63
102
{ACAD_REACTORS
330
E8
330
E9
330
EA
330
EB
330
EC
330
ED
102
}
330
A
100
AcDbSymbolTableRecord
100
AcDbDimStyleTableRecord
  2
Standard
 70
     0
 41
1.5
 42
0.0
 44
2.75
 73
     0
 74
     0
 77
     1
 78
     8
 79
     2
140
4.0
146
0.8
147
1.0
172
     1
179
     1
271
     1
340
11
  0
ENDTAB
  0
TABLE
  2
BLOCK_RECORD
  5
1
330
0
100
AcDbSymbolTable
 70
     7
  0
BLOCK_RECORD
  5
1F
330
1
100
AcDbSymbolTableRecord
100
AcDbBlockTableRecord
  2
*Model_Space
340
22
  0
BLOCK_RECORD
  5
1B
330
1
100
AcDbSymbolTableRecord
100
AcDbBlockTableRecord
  2
*Paper_Space
340
1E
  0
BLOCK_RECORD
  5
23
330
1
100
AcDbSymbolTableRecord
100
AcDbBlockTableRecord
  2
*Paper_Space0
340
26
  0
BLOCK_RECORD
  5
64
330
1
100
AcDbSymbolTableRecord
100
AcDbBlockTableRecord
  2
*D1
340
0
  0
BLOCK_RECORD
  5
78
330
1
100
AcDbSymbolTableRecord
100
AcDbBlockTableRecord
  2
*D2
340
0
  0
BLOCK_RECORD
  5
8C
330
1
100
AcDbSymbolTableRecord
100
AcDbBlockTableRecord
  2
*D3
340
0
  0
BLOCK_RECORD
  5
A0
330
1
100
AcDbSymbolTableRecord
100
AcDbBlockTableRecord
  2
*D4
340
0
  0
BLOCK_RECORD
  5
B4
330
1
100
AcDbSymbolTableRecord
100
AcDbBlockTableRecord
  2
*D5
340
0
  0
BLOCK_RECORD
  5
C8
330
1
100
AcDbSymbolTableRecord
100
AcDbBlockTableRecord
  2
*D6
340
0
  0
ENDTAB
  0
ENDSEC
  0
SECTION
  2
BLOCKS
  0
BLOCK
  5
20
330
1F
100
AcDbEntity
  8
0
100
AcDbBlockBegin
  2
*Model_Space
 70
     0
 10
0.0
 20
0.0
 30
0.0
  3
*Model_Space
  1

  0
ENDBLK
  5
21
330
1F
100
AcDbEntity
  8
0
100
AcDbBlockEnd
  0
BLOCK
  5
1C
330
1B
100
AcDbEntity
 67
     1
  8
0
100
AcDbBlockBegin
  2
*Paper_Space
 70
     0
 10
0.0
 20
0.0
 30
0.0
  3
*Paper_Space
  1

  0
ENDBLK
  5
1D
330
1B
100
AcDbEntity
 67
     1
  8
0
100
AcDbBlockEnd
  0
BLOCK
  5
24
330
23
100
AcDbEntity
  8
0
100
AcDbBlockBegin
  2
*Paper_Space0
 70
     0
 10
0.0
 20
0.0
 30
0.0
  3
*Paper_Space0
  1

  0
ENDBLK
  5
25
330
23
100
AcDbEntity
  8
0
100
AcDbBlockEnd
  0
BLOCK
  5
65
330
64
100
AcDbEntity
  8
0
100
AcDbBlockBegin
  2
*D1
 70
     1
 10
0.0
 20
0.0
 30
0.0
  3
*D1
  1

  0
LINE
  5
67
330
64
100
AcDbEntity
  8
001
370
     9
100
AcDbLine
 10
156.179806
 20
123.309325
 30
0.0
 11
193.091713
 21
123.309325
 31
0.0
  0
LINE
  5
68
330
64
100
AcDbEntity
  8
001
370
     9
100
AcDbLine
 10
156.179806
 20
91.309325
 30
0.0
 11
193.091713
 21
91.309325
 31
0.0
  0
LINE
  5
69
330
64
100
AcDbEntity
  8
001
370
     9
100
AcDbLine
 10
190.341713
 20
123.309325
 30
0.0
 11
190.341713
 21
91.309325
 31
0.0
  0
POLYLINE
  5
6A
330
64
100
AcDbEntity
  8
001
370
     9
100
AcDb2dPolyline
 66
     1
 10
0.0
 20
0.0
 30
0.0
  0
VERTEX
  5
6C
330
6A
100
AcDbEntity
  8
001
370
     9
100
AcDbVertex
100
AcDb2dVertex
 10
189.939789
 20
121.809325
 30
0.0
  0
VERTEX
  5
6D
330
6A
100
AcDbEntity
  8
001
370
     9
100
AcDbVertex
100
AcDb2dVertex
 10
190.341713
 20
123.309325
 30
0.0
  0
VERTEX
  5
6E
330
6A
100
AcDbEntity
  8
001
370
     9
100
AcDbVertex
100
AcDb2dVertex
 10
190.743637
 20
121.809325
 30
0.0
  0
SEQEND
  5
6B
330
6A
100
AcDbEntity
  8
001
370
     9
  0
POLYLINE
  5
6F
330
64
100
AcDbEntity
  8
001
370
     9
100
AcDb2dPolyline
 66
     1
 10
0.0
 20
0.0
 30
0.0
  0
VERTEX
  5
71
330
6F
100
AcDbEntity
  8
001
370
     9
100
AcDbVertex
100
AcDb2dVertex
 10
190.743637
 20
92.809325
 30
0.0
  0
VERTEX
  5
72
330
6F
100
AcDbEntity
  8
001
370
     9
100
AcDbVertex
100
AcDb2dVertex
 10
190.341713
 20
91.309325
 30
0.0
  0
VERTEX
  5
73
330
6F
100
AcDbEntity
  8
001
370
     9
100
AcDbVertex
100
AcDb2dVertex
 10
189.939789
 20
92.809325
 30
0.0
  0
SEQEND
  5
70
330
6F
100
AcDbEntity
  8
001
370
     9
  0
TEXT
  5
74
330
64
100
AcDbEntity
  8
001
370
    30
100
AcDbText
 10
189.341713
 20
101.309325
 30
0.0
 40
4.0
  1
%%c３２
 50
90.000003
 41
0.882353
100
AcDbText
  0
POINT
  5
75
330
64
100
AcDbEntity
  8
001
370
     9
100
AcDbPoint
 10
156.179806
 20
123.309325
 30
0.0
  0
POINT
  5
76
330
64
100
AcDbEntity
  8
001
370
     9
100
AcDbPoint
 10
156.179806
 20
91.309325
 30
0.0
  0
POINT
  5
77
330
64
100
AcDbEntity
  8
001
370
     9
100
AcDbPoint
 10
190.341713
 20
91.309325
 30
0.0
  0
ENDBLK
  5
66
330
64
100
AcDbEntity
  8
0
100
AcDbBlockEnd
  0
BLOCK
  5
79
330
78
100
AcDbEntity
  8
0
100
AcDbBlockBegin
  2
*D2
 70
     1
 10
0.0
 20
0.0
 30
0.0
  3
*D2
  1

  0
LINE
  5
7B
330
78
100
AcDbEntity
  8
001
370
     9
100
AcDbLine
 10
84.179806
 20
86.205477
 30
0.0
 11
84.179806
 21
46.101727
 31
0.0
  0
LINE
  5
7C
330
78
100
AcDbEntity
  8
001
370
     9
100
AcDbLine
 10
164.179806
 20
99.309325
 30
0.0
 11
164.179806
 21
46.101727
 31
0.0
  0
LINE
  5
7D
330
78
100
AcDbEntity
  8
001
370
     9
100
AcDbLine
 10
84.179806
 20
48.851727
 30
0.0
 11
164.179806
 21
48.851727
 31
0.0
  0
POLYLINE
  5
7E
330
78
100
AcDbEntity
  8
001
370
     9
100
AcDb2dPolyline
 66
     1
 10
0.0
 20
0.0
 30
0.0
  0
VERTEX
  5
80
330
7E
100
AcDbEntity
  8
001
370
     9
100
AcDbVertex
100
AcDb2dVertex
 10
85.679806
 20
48.449804
 30
0.0
  0
VERTEX
  5
81
330
7E
100
AcDbEntity
  8
001
370
     9
100
AcDbVertex
100
AcDb2dVertex
 10
84.179806
 20
48.851727
 30
0.0
  0
VERTEX
  5
82
330
7E
100
AcDbEntity
  8
001
370
     9
100
AcDbVertex
100
AcDb2dVertex
 10
85.679806
 20
49.253651
 30
0.0
  0
SEQEND
  5
7F
330
7E
100
AcDbEntity
  8
001
370
     9
  0
POLYLINE
  5
83
330
78
100
AcDbEntity
  8
001
370
     9
100
AcDb2dPolyline
 66
     1
 10
0.0
 20
0.0
 30
0.0
  0
VERTEX
  5
85
330
83
100
AcDbEntity
  8
001
370
     9
100
AcDbVertex
100
AcDb2dVertex
 10
162.679806
 20
49.253651
 30
0.0
  0
VERTEX
  5
86
330
83
100
AcDbEntity
  8
001
370
     9
100
AcDbVertex
100
AcDb2dVertex
 10
164.179806
 20
48.851727
 30
0.0
  0
VERTEX
  5
87
330
83
100
AcDbEntity
  8
001
370
     9
100
AcDbVertex
100
AcDb2dVertex
 10
162.679806
 20
48.449804
 30
0.0
  0
SEQEND
  5
84
330
83
100
AcDbEntity
  8
001
370
     9
  0
TEXT
  5
88
330
78
100
AcDbEntity
  8
001
370
    30
100
AcDbText
 10
120.179806
 20
49.851727
 30
0.0
 40
4.0
  1
８０
 41
0.833333
100
AcDbText
  0
POINT
  5
89
330
78
100
AcDbEntity
  8
001
370
     9
100
AcDbPoint
 10
84.179806
 20
86.205477
 30
0.0
  0
POINT
  5
8A
330
78
100
AcDbEntity
  8
001
370
     9
100
AcDbPoint
 10
164.179806
 20
99.309325
 30
0.0
  0
POINT
  5
8B
330
78
100
AcDbEntity
  8
001
370
     9
100
AcDbPoint
 10
164.179806
 20
48.851727
 30
0.0
  0
ENDBLK
  5
7A
330
78
100
AcDbEntity
  8
0
100
AcDbBlockEnd
  0
BLOCK
  5
8D
330
8C
100
AcDbEntity
  8
0
100
AcDbBlockBegin
  2
*D3
 70
     1
 10
0.0
 20
0.0
 30
0.0
  3
*D3
  1

  0
LINE
  5
8F
330
8C
100
AcDbEntity
  8
001
370
     9
100
AcDbLine
 10
84.179806
 20
86.205477
 30
0.0
 11
84.179806
 21
46.101727
 31
0.0
  0
LINE
  5
90
330
8C
100
AcDbEntity
  8
001
370
     9
100
AcDbLine
 10
29.179806
 20
95.309325
 30
0.0
 11
29.179806
 21
46.101727
 31
0.0
  0
LINE
  5
91
330
8C
100
AcDbEntity
  8
001
370
     9
100
AcDbLine
 10
84.179806
 20
48.851727
 30
0.0
 11
29.179806
 21
48.851727
 31
0.0
  0
POLYLINE
  5
92
330
8C
100
AcDbEntity
  8
001
370
     9
100
AcDb2dPolyline
 66
     1
 10
0.0
 20
0.0
 30
0.0
  0
VERTEX
  5
94
330
92
100
AcDbEntity
  8
001
370
     9
100
AcDbVertex
100
AcDb2dVertex
 10
82.679806
 20
49.253651
 30
0.0
  0
VERTEX
  5
95
330
92
100
AcDbEntity
  8
001
370
     9
100
AcDbVertex
100
AcDb2dVertex
 10
84.179806
 20
48.851727
 30
0.0
  0
VERTEX
  5
96
330
92
100
AcDbEntity
  8
001
370
     9
100
AcDbVertex
100
AcDb2dVertex
 10
82.679806
 20
48.449804
 30
0.0
  0
SEQEND
  5
93
330
92
100
AcDbEntity
  8
001
370
     9
  0
POLYLINE
  5
97
330
8C
100
AcDbEntity
  8
001
370
     9
100
AcDb2dPolyline
 66
     1
 10
0.0
 20
0.0
 30
0.0
  0
VERTEX
  5
99
330
97
100
AcDbEntity
  8
001
370
     9
100
AcDbVertex
100
AcDb2dVertex
 10
30.679806
 20
48.449804
 30
0.0
  0
VERTEX
  5
9A
330
97
100
AcDbEntity
  8
001
370
     9
100
AcDbVertex
100
AcDb2dVertex
 10
29.179806
 20
48.851727
 30
0.0
  0
VERTEX
  5
9B
330
97
100
AcDbEntity
  8
001
370
     9
100
AcDbVertex
100
AcDb2dVertex
 10
30.679806
 20
49.253651
 30
0.0
  0
SEQEND
  5
98
330
97
100
AcDbEntity
  8
001
370
     9
  0
TEXT
  5
9C
330
8C
100
AcDbEntity
  8
001
370
    30
100
AcDbText
 10
52.679806
 20
49.851727
 30
0.0
 40
4.0
  1
５５
 41
0.833333
100
AcDbText
  0
POINT
  5
9D
330
8C
100
AcDbEntity
  8
001
370
     9
100
AcDbPoint
 10
84.179806
 20
86.205477
 30
0.0
  0
POINT
  5
9E
330
8C
100
AcDbEntity
  8
001
370
     9
100
AcDbPoint
 10
29.179806
 20
95.309325
 30
0.0
  0
POINT
  5
9F
330
8C
100
AcDbEntity
  8
001
370
     9
100
AcDbPoint
 10
29.179806
 20
48.851727
 30
0.0
  0
ENDBLK
  5
8E
330
8C
100
AcDbEntity
  8
0
100
AcDbBlockEnd
  0
BLOCK
  5
A1
330
A0
100
AcDbEntity
  8
0
100
AcDbBlockBegin
  2
*D4
 70
     1
 10
0.0
 20
0.0
 30
0.0
  3
*D4
  1

  0
LINE
  5
A3
330
A0
100
AcDbEntity
  8
001
370
     9
100
AcDbLine
 10
164.179806
 20
99.309325
 30
0.0
 11
164.179806
 21
35.072002
 31
0.0
  0
LINE
  5
A4
330
A0
100
AcDbEntity
  8
001
370
     9
100
AcDbLine
 10
29.179806
 20
48.851727
 30
0.0
 11
29.179806
 21
35.072002
 31
0.0
  0
LINE
  5
A5
330
A0
100
AcDbEntity
  8
001
370
     9
100
AcDbLine
 10
164.179806
 20
37.822002
 30
0.0
 11
29.179806
 21
37.822002
 31
0.0
  0
POLYLINE
  5
A6
330
A0
100
AcDbEntity
  8
001
370
     9
100
AcDb2dPolyline
 66
     1
 10
0.0
 20
0.0
 30
0.0
  0
VERTEX
  5
A8
330
A6
100
AcDbEntity
  8
001
370
     9
100
AcDbVertex
100
AcDb2dVertex
 10
162.679806
 20
38.223926
 30
0.0
  0
VERTEX
  5
A9
330
A6
100
AcDbEntity
  8
001
370
     9
100
AcDbVertex
100
AcDb2dVertex
 10
164.179806
 20
37.822002
 30
0.0
  0
VERTEX
  5
AA
330
A6
100
AcDbEntity
  8
001
370
     9
100
AcDbVertex
100
AcDb2dVertex
 10
162.679806
 20
37.420078
 30
0.0
  0
SEQEND
  5
A7
330
A6
100
AcDbEntity
  8
001
370
     9
  0
POLYLINE
  5
AB
330
A0
100
AcDbEntity
  8
001
370
     9
100
AcDb2dPolyline
 66
     1
 10
0.0
 20
0.0
 30
0.0
  0
VERTEX
  5
AD
330
AB
100
AcDbEntity
  8
001
370
     9
100
AcDbVertex
100
AcDb2dVertex
 10
30.679806
 20
37.420078
 30
0.0
  0
VERTEX
  5
AE
330
AB
100
AcDbEntity
  8
001
370
     9
100
AcDbVertex
100
AcDb2dVertex
 10
29.179806
 20
37.822002
 30
0.0
  0
VERTEX
  5
AF
330
AB
100
AcDbEntity
  8
001
370
     9
100
AcDbVertex
100
AcDb2dVertex
 10
30.679806
 20
38.223926
 30
0.0
  0
SEQEND
  5
AC
330
AB
100
AcDbEntity
  8
001
370
     9
  0
TEXT
  5
B0
330
A0
100
AcDbEntity
  8
001
370
    30
100
AcDbText
 10
90.679806
 20
38.822002
 30
0.0
 40
4.0
  1
１３５
 41
0.833333
100
AcDbText
  0
POINT
  5
B1
330
A0
100
AcDbEntity
  8
001
370
     9
100
AcDbPoint
 10
164.179806
 20
99.309325
 30
0.0
  0
POINT
  5
B2
330
A0
100
AcDbEntity
  8
001
370
     9
100
AcDbPoint
 10
29.179806
 20
48.851727
 30
0.0
  0
POINT
  5
B3
330
A0
100
AcDbEntity
  8
001
370
     9
100
AcDbPoint
 10
29.179806
 20
37.822002
 30
0.0
  0
ENDBLK
  5
A2
330
A0
100
AcDbEntity
  8
0
100
AcDbBlockEnd
  0
BLOCK
  5
B5
330
B4
100
AcDbEntity
  8
0
100
AcDbBlockBegin
  2
*D5
 70
     1
 10
0.0
 20
0.0
 30
0.0
  3
*D5
  1

  0
LINE
  5
B7
330
B4
100
AcDbEntity
  8
001
370
     9
100
AcDbLine
 10
55.353537
 20
80.197915
 30
0.0
 11
68.589003
 21
72.556415
 31
0.0
  0
ARC
  5
B8
330
B4
100
AcDbEntity
  8
001
370
     9
100
AcDbCircle
 10
29.179806
 20
95.309325
 30
0.0
 40
42.75582042106409
100
AcDbArc
 50
270.0
 51
330.0
  0
POLYLINE
  5
B9
330
B4
100
AcDbEntity
  8
001
370
     9
100
AcDb2dPolyline
 66
     1
 10
0.0
 20
0.0
 30
0.0
  0
VERTEX
  5
BB
330
B9
100
AcDbEntity
  8
001
370
     9
100
AcDbVertex
100
AcDb2dVertex
 10
65.090265
 20
72.852768
 30
0.0
  0
VERTEX
  5
BC
330
B9
100
AcDbEntity
  8
001
370
     9
100
AcDbVertex
100
AcDb2dVertex
 10
66.207433
 20
73.931415
 30
0.0
  0
VERTEX
  5
BD
330
B9
100
AcDbEntity
  8
001
370
     9
100
AcDbVertex
100
AcDb2dVertex
 10
65.77926
 20
72.438695
 30
0.0
  0
SEQEND
  5
BA
330
B9
100
AcDbEntity
  8
001
370
     9
  0
POLYLINE
  5
BE
330
B4
100
AcDbEntity
  8
001
370
     9
100
AcDb2dPolyline
 66
     1
 10
0.0
 20
0.0
 30
0.0
  0
VERTEX
  5
C0
330
BE
100
AcDbEntity
  8
001
370
     9
100
AcDbVertex
100
AcDb2dVertex
 10
30.686626
 20
52.177953
 30
0.0
  0
VERTEX
  5
C1
330
BE
100
AcDbEntity
  8
001
370
     9
100
AcDbVertex
100
AcDb2dVertex
 10
29.179806
 20
52.553504
 30
0.0
  0
VERTEX
  5
C2
330
BE
100
AcDbEntity
  8
001
370
     9
100
AcDbVertex
100
AcDb2dVertex
 10
30.672526
 20
52.981677
 30
0.0
  0
SEQEND
  5
BF
330
BE
100
AcDbEntity
  8
001
370
     9
  0
TEXT
  5
C3
330
B4
100
AcDbEntity
  8
001
370
    30
100
AcDbText
 10
44.861564
 20
56.147724
 30
0.0
 40
4.0
  1
６０%%d
 50
30.000001
 41
0.978261
100
AcDbText
  0
POINT
  5
C4
330
B4
100
AcDbEntity
  8
001
370
     9
100
AcDbPoint
 10
55.353537
 20
80.197915
 30
0.0
  0
POINT
  5
C5
330
B4
100
AcDbEntity
  8
001
370
     9
100
AcDbPoint
 10
29.179806
 20
95.309325
 30
0.0
  0
POINT
  5
C6
330
B4
100
AcDbEntity
  8
001
370
     9
100
AcDbPoint
 10
29.179806
 20
95.309325
 30
0.0
  0
POINT
  5
C7
330
B4
100
AcDbEntity
  8
001
370
     9
100
AcDbPoint
 10
29.179806
 20
55.303504
 30
0.0
  0
ENDBLK
  5
B6
330
B4
100
AcDbEntity
  8
0
100
AcDbBlockEnd
  0
BLOCK
  5
C9
330
C8
100
AcDbEntity
  8
0
100
AcDbBlockBegin
  2
*D6
 70
     1
 10
0.0
 20
0.0
 30
0.0
  3
*D6
  1

  0
LINE
  5
CB
330
C8
100
AcDbEntity
  8
001
370
     9
100
AcDbLine
 10
55.446357
 20
80.144325
 30
0.0
 11
55.446357
 21
64.369056
 31
0.0
  0
LINE
  5
CC
330
C8
100
AcDbEntity
  8
001
370
     9
100
AcDbLine
 10
29.179806
 20
67.119056
 30
0.0
 11
55.446357
 21
67.119056
 31
0.0
  0
POLYLINE
  5
CD
330
C8
100
AcDbEntity
  8
001
370
     9
100
AcDb2dPolyline
 66
     1
 10
0.0
 20
0.0
 30
0.0
  0
VERTEX
  5
CF
330
CD
100
AcDbEntity
  8
001
370
     9
100
AcDbVertex
100
AcDb2dVertex
 10
30.679806
 20
66.717132
 30
0.0
  0
VERTEX
  5
D0
330
CD
100
AcDbEntity
  8
001
370
     9
100
AcDbVertex
100
AcDb2dVertex
 10
29.179806
 20
67.119056
 30
0.0
  0
VERTEX
  5
D1
330
CD
100
AcDbEntity
  8
001
370
     9
100
AcDbVertex
100
AcDb2dVertex
 10
30.679806
 20
67.520979
 30
0.0
  0
SEQEND
  5
CE
330
CD
100
AcDbEntity
  8
001
370
     9
  0
POLYLINE
  5
D2
330
C8
100
AcDbEntity
  8
001
370
     9
100
AcDb2dPolyline
 66
     1
 10
0.0
 20
0.0
 30
0.0
  0
VERTEX
  5
D4
330
D2
100
AcDbEntity
  8
001
370
     9
100
AcDbVertex
100
AcDb2dVertex
 10
53.946357
 20
67.520979
 30
0.0
  0
VERTEX
  5
D5
330
D2
100
AcDbEntity
  8
001
370
     9
100
AcDbVertex
100
AcDb2dVertex
 10
55.446357
 20
67.119056
 30
0.0
  0
VERTEX
  5
D6
330
D2
100
AcDbEntity
  8
001
370
     9
100
AcDbVertex
100
AcDb2dVertex
 10
53.946357
 20
66.717132
 30
0.0
  0
SEQEND
  5
D3
330
D2
100
AcDbEntity
  8
001
370
     9
  0
TEXT
  5
D7
330
C8
100
AcDbEntity
  8
001
370
    30
100
AcDbText
 10
1.679806
 20
68.119056
 30
0.0
 40
4.0
  1
（２６．３）
 41
0.833333
100
AcDbText
  0
POINT
  5
D8
330
C8
100
AcDbEntity
  8
001
370
     9
100
AcDbPoint
 10
29.179806
 20
48.851727
 30
0.0
  0
POINT
  5
D9
330
C8
100
AcDbEntity
  8
001
370
     9
100
AcDbPoint
 10
55.446357
 20
64.369056
 30
0.0
  0
POINT
  5
DA
330
C8
100
AcDbEntity
  8
001
370
     9
100
AcDbPoint
 10
55.446357
 20
67.119056
 30
0.0
  0
LINE
  5
DB
330
C8
100
AcDbEntity
  8
001
370
     9
100
AcDbLine
 10
29.179806
 20
67.119056
 30
0.0
 11
-1.320194
 21
67.119056
 31
0.0
  0
ENDBLK
  5
CA
330
C8
100
AcDbEntity
  8
0
100
AcDbBlockEnd
  0
ENDSEC
  0
SECTION
  2
ENTITIES
  0
TEXT
  5
DC
330
1F
100
AcDbEntity
  8
001
370
    30
100
AcDbText
 10
10.797994
 20
101.309325
 30
0.0
 40
4.0
  1
%%c２４
 50
90.000003
 41
0.882353
100
AcDbText
  0
POLYLINE
  5
DD
330
1F
100
AcDbEntity
  8
001
370
     9
100
AcDb2dPolyline
 66
     1
 10
0.0
 20
0.0
 30
0.0
  0
VERTEX
  5
DF
330
DD
100
AcDbEntity
  8
001
370
     9
100
AcDbVertex
100
AcDb2dVertex
 10
12.199918
 20
96.809325
 30
0.0
  0
VERTEX
  5
E0
330
DD
100
AcDbEntity
  8
001
370
     9
100
AcDbVertex
100
AcDb2dVertex
 10
11.797994
 20
95.309325
 30
0.0
  0
VERTEX
  5
E1
330
DD
100
AcDbEntity
  8
001
370
     9
100
AcDbVertex
100
AcDb2dVertex
 10
11.396071
 20
96.809325
 30
0.0
  0
SEQEND
  5
DE
330
DD
100
AcDbEntity
  8
001
370
     9
  0
LINE
  5
E2
330
1F
100
AcDbEntity
  8
001
370
     9
100
AcDbLine
 10
11.797994
 20
95.309325
 30
0.0
 11
11.797994
 21
119.309325
 31
0.0
  0
POLYLINE
  5
E3
330
1F
100
AcDbEntity
  8
001
370
     9
100
AcDb2dPolyline
 66
     1
 10
0.0
 20
0.0
 30
0.0
  0
VERTEX
  5
E5
330
E3
100
AcDbEntity
  8
001
370
     9
100
AcDbVertex
100
AcDb2dVertex
 10
21.507721
 20
95.309325
 30
0.0
  0
VERTEX
  5
E6
330
E3
100
AcDbEntity
  8
001
370
     9
100
AcDbVertex
100
AcDb2dVertex
 10
11.797994
 20
95.309325
 30
0.0
  0
VERTEX
  5
E7
330
E3
100
AcDbEntity
  8
001
370
     9
100
AcDbVertex
100
AcDb2dVertex
 10
9.047994
 20
95.309325
 30
0.0
  0
SEQEND
  5
E4
330
E3
100
AcDbEntity
  8
001
370
     9
  0
DIMENSION
  5
E8
330
1F
100
AcDbEntity
  8
001
370
     9
100
AcDbDimension
  2
*D1
 10
190.341713
 20
91.309325
 30
0.0
 11
187.341712
 21
107.309325
 31
0.0
 70
   160
 71
     5
 42
-1.0
  3
Standard
100
AcDbAlignedDimension
 13
156.179806
 23
123.309325
 33
0.0
 14
156.179806
 24
91.309325
 34
0.0
 50
270.0
100
AcDbRotatedDimension
  0
DIMENSION
  5
E9
330
1F
100
AcDbEntity
  8
001
370
     9
100
AcDbDimension
  2
*D2
 10
164.179806
 20
48.851727
 30
0.0
 11
124.179806
 21
51.851727
 31
0.0
 70
   160
 71
     5
 42
-1.0
  3
Standard
100
AcDbAlignedDimension
 13
84.179806
 23
86.205477
 33
0.0
 14
164.179806
 24
99.309325
 34
0.0
 50
360.0
100
AcDbRotatedDimension
  0
DIMENSION
  5
EA
330
1F
100
AcDbEntity
  8
001
370
     9
100
AcDbDimension
  2
*D3
 10
29.179806
 20
48.851727
 30
0.0
 11
56.679806
 21
51.851727
 31
0.0
 70
   160
 71
     5
 42
-1.0
  3
Standard
100
AcDbAlignedDimension
 13
84.179806
 23
86.205477
 33
0.0
 14
29.179806
 24
95.309325
 34
0.0
 50
180.0
100
AcDbRotatedDimension
  0
DIMENSION
  5
EB
330
1F
100
AcDbEntity
  8
001
370
     9
100
AcDbDimension
  2
*D4
 10
29.179806
 20
37.822002
 30
0.0
 11
96.679806
 21
40.822002
 31
0.0
 70
   160
 71
     5
 42
-1.0
  3
Standard
100
AcDbAlignedDimension
 13
164.179806
 23
99.309325
 33
0.0
 14
29.179806
 24
48.851727
 34
0.0
 50
180.0
100
AcDbRotatedDimension
  0
DIMENSION
  5
EC
330
1F
100
AcDbEntity
  8
001
370
     9
100
AcDbDimension
  2
*D5
 10
29.179806
 20
95.309325
 30
0.0
 11
49.057717
 21
60.879774
 31
0.0
 70
    34
 71
     5
 42
-1.0
  3
Standard
100
AcDb2LineAngularDimension
 13
55.353537
 23
80.197915
 33
0.0
 14
29.179806
 24
95.309325
 34
0.0
 15
29.179806
 25
55.303504
 35
0.0
 16
50.557717
 26
58.281698
 36
0.0
  0
DIMENSION
  5
ED
330
1F
100
AcDbEntity
  8
001
370
     9
100
AcDbDimension
  2
*D6
 10
55.446357
 20
67.119056
 30
0.0
 11
13.679806
 21
70.119056
 31
0.0
 70
   160
 71
     5
 42
-1.0
  3
Standard
100
AcDbAlignedDimension
 13
29.179806
 23
48.851727
 33
0.0
 14
55.446357
 24
64.369056
 34
0.0
100
AcDbRotatedDimension
  0
TEXT
  5
EE
330
1F
100
AcDbEntity
  8
001
370
    30
100
AcDbText
 10
0.457643
 20
91.309325
 30
0.0
 40
4.0
  1
（%%c５４．３３）
 50
90.000003
 41
0.851064
100
AcDbText
  0
POLYLINE
  5
EF
330
1F
100
AcDbEntity
  8
001
370
     9
100
AcDb2dPolyline
 66
     1
 10
0.0
 20
0.0
 30
0.0
  0
VERTEX
  5
F1
330
EF
100
AcDbEntity
  8
001
370
     9
100
AcDbVertex
100
AcDb2dVertex
 10
1.859567
 20
81.644325
 30
0.0
  0
VERTEX
  5
F2
330
EF
100
AcDbEntity
  8
001
370
     9
100
AcDbVertex
100
AcDb2dVertex
 10
1.457643
 20
80.144325
 30
0.0
  0
VERTEX
  5
F3
330
EF
100
AcDbEntity
  8
001
370
     9
100
AcDbVertex
100
AcDb2dVertex
 10
1.055719
 20
81.644325
 30
0.0
  0
SEQEND
  5
F0
330
EF
100
AcDbEntity
  8
001
370
     9
  0
LINE
  5
F4
330
1F
100
AcDbEntity
  8
001
370
     9
100
AcDbLine
 10
1.457643
 20
80.144325
 30
0.0
 11
1.457643
 21
134.474325
 31
0.0
  0
POLYLINE
  5
F5
330
1F
100
AcDbEntity
  8
001
370
     9
100
AcDb2dPolyline
 66
     1
 10
0.0
 20
0.0
 30
0.0
  0
VERTEX
  5
F7
330
F5
100
AcDbEntity
  8
001
370
     9
100
AcDbVertex
100
AcDb2dVertex
 10
21.507721
 20
80.144325
 30
0.0
  0
VERTEX
  5
F8
330
F5
100
AcDbEntity
  8
001
370
     9
100
AcDbVertex
100
AcDb2dVertex
 10
1.457643
 20
80.144325
 30
0.0
  0
VERTEX
  5
F9
330
F5
100
AcDbEntity
  8
001
370
     9
100
AcDbVertex
100
AcDb2dVertex
 10
-1.292357
 20
80.144325
 30
0.0
  0
SEQEND
  5
F6
330
F5
100
AcDbEntity
  8
001
370
     9
  0
TEXT
  5
FA
330
1F
100
AcDbEntity
  8
001
370
    30
100
AcDbText
 10
38.10008
 20
147.709557
 30
0.0
 40
4.0
  1
ＮＫ６０５４Ｘ（ＮＥＷ）
 41
0.833333
100
AcDbText
  0
POLYLINE
  5
FB
330
1F
100
AcDbEntity
  8
001
370
    50
100
AcDb2dPolyline
 66
     1
 10
0.0
 20
0.0
 30
0.0
  0
VERTEX
  5
FD
330
FB
100
AcDbEntity
  8
001
370
    50
100
AcDbVertex
100
AcDb2dVertex
 10
56.264581
 20
121.779826
 30
0.0
  0
VERTEX
  5
FE
330
FB
100
AcDbEntity
  8
001
370
    50
100
AcDbVertex
100
AcDb2dVertex
 10
56.235719
 20
121.7799
 30
0.0
  0
VERTEX
  5
FF
330
FB
100
AcDbEntity
  8
001
370
    50
100
AcDbVertex
100
AcDb2dVertex
 10
56.195853
 20
121.778668
 30
0.0
  0
VERTEX
  5
100
330
FB
100
AcDbEntity
  8
001
370
    50
100
AcDbVertex
100
AcDb2dVertex
 10
56.159418
 20
121.775667
 30
0.0
  0
VERTEX
  5
101
330
FB
100
AcDbEntity
  8
001
370
    50
100
AcDbVertex
100
AcDb2dVertex
 10
56.12672
 20
121.771305
 30
0.0
  0
VERTEX
  5
102
330
FB
100
AcDbEntity
  8
001
370
    50
100
AcDbVertex
100
AcDb2dVertex
 10
56.09401
 20
121.765824
 30
0.0
  0
VERTEX
  5
103
330
FB
100
AcDbEntity
  8
001
370
    50
100
AcDbVertex
100
AcDb2dVertex
 10
56.058483
 20
121.757983
 30
0.0
  0
VERTEX
  5
104
330
FB
100
AcDbEntity
  8
001
370
    50
100
AcDbVertex
100
AcDb2dVertex
 10
56.002989
 20
121.741867
 30
0.0
  0
VERTEX
  5
105
330
FB
100
AcDbEntity
  8
001
370
    50
100
AcDbVertex
100
AcDb2dVertex
 10
55.963048
 20
121.728045
 30
0.0
  0
SEQEND
  5
FC
330
FB
100
AcDbEntity
  8
001
370
    50
  0
POLYLINE
  5
106
330
1F
100
AcDbEntity
  8
001
370
    50
100
AcDb2dPolyline
 66
     1
 10
0.0
 20
0.0
 30
0.0
  0
VERTEX
  5
108
330
106
100
AcDbEntity
  8
001
370
    50
100
AcDbVertex
100
AcDb2dVertex
 10
55.649043
 20
125.867494
 30
0.0
  0
VERTEX
  5
109
330
106
100
AcDbEntity
  8
001
370
    50
100
AcDbVertex
100
AcDb2dVertex
 10
55.620181
 20
125.867569
 30
0.0
  0
VERTEX
  5
10A
330
106
100
AcDbEntity
  8
001
370
    50
100
AcDbVertex
100
AcDb2dVertex
 10
55.580315
 20
125.866337
 30
0.0
  0
VERTEX
  5
10B
330
106
100
AcDbEntity
  8
001
370
    50
100
AcDbVertex
100
AcDb2dVertex
 10
55.543879
 20
125.863336
 30
0.0
  0
VERTEX
  5
10C
330
106
100
AcDbEntity
  8
001
370
    50
100
AcDbVertex
100
AcDb2dVertex
 10
55.511181
 20
125.858973
 30
0.0
  0
VERTEX
  5
10D
330
106
100
AcDbEntity
  8
001
370
    50
100
AcDbVertex
100
AcDb2dVertex
 10
55.478472
 20
125.853493
 30
0.0
  0
VERTEX
  5
10E
330
106
100
AcDbEntity
  8
001
370
    50
100
AcDbVertex
100
AcDb2dVertex
 10
55.442945
 20
125.845651
 30
0.0
  0
VERTEX
  5
10F
330
106
100
AcDbEntity
  8
001
370
    50
100
AcDbVertex
100
AcDb2dVertex
 10
55.38745
 20
125.829536
 30
0.0
  0
VERTEX
  5
110
330
106
100
AcDbEntity
  8
001
370
    50
100
AcDbVertex
100
AcDb2dVertex
 10
55.347509
 20
125.815713
 30
0.0
  0
SEQEND
  5
107
330
106
100
AcDbEntity
  8
001
370
    50
  0
LINE
  5
111
330
1F
100
AcDbEntity
  8
001
370
    50
100
AcDbLine
 10
56.264581
 20
121.779826
 30
0.0
 11
56.921547
 21
121.759972
 31
0.0
  0
POLYLINE
  5
112
330
1F
100
AcDbEntity
  8
001
370
    50
100
AcDb2dPolyline
 66
     1
 10
0.0
 20
0.0
 30
0.0
  0
VERTEX
  5
114
330
112
100
AcDbEntity
  8
001
370
    50
100
AcDbVertex
100
AcDb2dVertex
 10
29.796446
 20
111.281358
 30
0.0
  0
VERTEX
  5
115
330
112
100
AcDbEntity
  8
001
370
    50
100
AcDbVertex
100
AcDb2dVertex
 10
29.800164
 20
111.267108
 30
0.0
  0
VERTEX
  5
116
330
112
100
AcDbEntity
  8
001
370
    50
100
AcDbVertex
100
AcDb2dVertex
 10
29.807583
 20
111.248209
 30
0.0
  0
VERTEX
  5
117
330
112
100
AcDbEntity
  8
001
370
    50
100
AcDbVertex
100
AcDb2dVertex
 10
29.818109
 20
111.231337
 30
0.0
  0
VERTEX
  5
118
330
112
100
AcDbEntity
  8
001
370
    50
100
AcDbVertex
100
AcDb2dVertex
 10
29.8304
 20
111.217877
 30
0.0
  0
VERTEX
  5
119
330
112
100
AcDbEntity
  8
001
370
    50
100
AcDbVertex
100
AcDb2dVertex
 10
29.846029
 20
111.204024
 30
0.0
  0
VERTEX
  5
11A
330
112
100
AcDbEntity
  8
001
370
    50
100
AcDbVertex
100
AcDb2dVertex
 10
29.864204
 20
111.191283
 30
0.0
  0
VERTEX
  5
11B
330
112
100
AcDbEntity
  8
001
370
    50
100
AcDbVertex
100
AcDb2dVertex
 10
29.928652
 20
111.162496
 30
0.0
  0
VERTEX
  5
11C
330
112
100
AcDbEntity
  8
001
370
    50
100
AcDbVertex
100
AcDb2dVertex
 10
29.979806
 20
111.147979
 30
0.0
  0
SEQEND
  5
113
330
112
100
AcDbEntity
  8
001
370
    50
  0
LINE
  5
11D
330
1F
100
AcDbEntity
  8
001
370
    50
100
AcDbLine
 10
29.998783
 20
111.49377
 30
0.0
 11
55.963048
 21
121.728045
 31
0.0
  0
LINE
  5
11E
330
1F
100
AcDbEntity
  8
001
370
    50
100
AcDbLine
 10
55.649043
 20
125.867494
 30
0.0
 11
75.985554
 21
125.252906
 31
0.0
  0
LINE
  5
11F
330
1F
100
AcDbEntity
  8
001
370
    50
100
AcDbLine
 10
29.383245
 20
115.581438
 30
0.0
 11
55.347509
 21
125.815713
 31
0.0
  0
LINE
  5
120
330
1F
100
AcDbEntity
  8
001
370
    50
100
AcDbLine
 10
76.465113
 20
123.830486
 30
0.0
 11
76.272764
 21
125.107837
 31
0.0
  0
POLYLINE
  5
121
330
1F
100
AcDbEntity
  8
001
370
    50
100
AcDb2dPolyline
 66
     1
 10
0.0
 20
0.0
 30
0.0
  0
VERTEX
  5
123
330
121
100
AcDbEntity
  8
001
370
    50
100
AcDbVertex
100
AcDb2dVertex
 10
76.272764
 20
125.107837
 30
0.0
  0
VERTEX
  5
124
330
121
100
AcDbEntity
  8
001
370
    50
100
AcDbVertex
100
AcDb2dVertex
 10
76.269022
 20
125.12209
 30
0.0
  0
VERTEX
  5
125
330
121
100
AcDbEntity
  8
001
370
    50
100
AcDbVertex
100
AcDb2dVertex
 10
76.261627
 20
125.140986
 30
0.0
  0
VERTEX
  5
126
330
121
100
AcDbEntity
  8
001
370
    50
100
AcDbVertex
100
AcDb2dVertex
 10
76.251237
 20
125.157839
 30
0.0
  0
VERTEX
  5
127
330
121
100
AcDbEntity
  8
001
370
    50
100
AcDbVertex
100
AcDb2dVertex
 10
76.23881
 20
125.171318
 30
0.0
  0
VERTEX
  5
128
330
121
100
AcDbEntity
  8
001
370
    50
100
AcDbVertex
100
AcDb2dVertex
 10
76.22256
 20
125.185255
 30
0.0
  0
VERTEX
  5
129
330
121
100
AcDbEntity
  8
001
370
    50
100
AcDbVertex
100
AcDb2dVertex
 10
76.205006
 20
125.197912
 30
0.0
  0
VERTEX
  5
12A
330
121
100
AcDbEntity
  8
001
370
    50
100
AcDbVertex
100
AcDb2dVertex
 10
76.134408
 20
125.231491
 30
0.0
  0
VERTEX
  5
12B
330
121
100
AcDbEntity
  8
001
370
    50
100
AcDbVertex
100
AcDb2dVertex
 10
76.049419
 20
125.247892
 30
0.0
  0
VERTEX
  5
12C
330
121
100
AcDbEntity
  8
001
370
    50
100
AcDbVertex
100
AcDb2dVertex
 10
76.012037
 20
125.251323
 30
0.0
  0
VERTEX
  5
12D
330
121
100
AcDbEntity
  8
001
370
    50
100
AcDbVertex
100
AcDb2dVertex
 10
75.985554
 20
125.252906
 30
0.0
  0
SEQEND
  5
122
330
121
100
AcDbEntity
  8
001
370
    50
  0
POLYLINE
  5
12E
330
1F
100
AcDbEntity
  8
001
370
    50
100
AcDb2dPolyline
 66
     1
 10
0.0
 20
0.0
 30
0.0
  0
VERTEX
  5
130
330
12E
100
AcDbEntity
  8
001
370
    50
100
AcDbVertex
100
AcDb2dVertex
 10
29.998783
 20
111.49377
 30
0.0
  0
VERTEX
  5
131
330
12E
100
AcDbEntity
  8
001
370
    50
100
AcDbVertex
100
AcDb2dVertex
 10
29.98635
 20
111.488632
 30
0.0
  0
VERTEX
  5
132
330
12E
100
AcDbEntity
  8
001
370
    50
100
AcDbVertex
100
AcDb2dVertex
 10
29.968641
 20
111.480975
 30
0.0
  0
VERTEX
  5
133
330
12E
100
AcDbEntity
  8
001
370
    50
100
AcDbVertex
100
AcDb2dVertex
 10
29.891798
 20
111.439844
 30
0.0
  0
VERTEX
  5
134
330
12E
100
AcDbEntity
  8
001
370
    50
100
AcDbVertex
100
AcDb2dVertex
 10
29.834673
 20
111.387393
 30
0.0
  0
VERTEX
  5
135
330
12E
100
AcDbEntity
  8
001
370
    50
100
AcDbVertex
100
AcDb2dVertex
 10
29.82164
 20
111.370142
 30
0.0
  0
VERTEX
  5
136
330
12E
100
AcDbEntity
  8
001
370
    50
100
AcDbVertex
100
AcDb2dVertex
 10
29.8102
 20
111.352023
 30
0.0
  0
VERTEX
  5
137
330
12E
100
AcDbEntity
  8
001
370
    50
100
AcDbVertex
100
AcDb2dVertex
 10
29.80229
 20
111.335479
 30
0.0
  0
VERTEX
  5
138
330
12E
100
AcDbEntity
  8
001
370
    50
100
AcDbVertex
100
AcDb2dVertex
 10
29.797327
 20
111.316317
 30
0.0
  0
VERTEX
  5
139
330
12E
100
AcDbEntity
  8
001
370
    50
100
AcDbVertex
100
AcDb2dVertex
 10
29.795826
 20
111.296082
 30
0.0
  0
VERTEX
  5
13A
330
12E
100
AcDbEntity
  8
001
370
    50
100
AcDbVertex
100
AcDb2dVertex
 10
29.796446
 20
111.281358
 30
0.0
  0
SEQEND
  5
12F
330
12E
100
AcDbEntity
  8
001
370
    50
  0
POLYLINE
  5
13B
330
1F
100
AcDbEntity
  8
001
370
    50
100
AcDb2dPolyline
 66
     1
 10
0.0
 20
0.0
 30
0.0
  0
VERTEX
  5
13D
330
13B
100
AcDbEntity
  8
001
370
    50
100
AcDbVertex
100
AcDb2dVertex
 10
29.383245
 20
115.581438
 30
0.0
  0
VERTEX
  5
13E
330
13B
100
AcDbEntity
  8
001
370
    50
100
AcDbVertex
100
AcDb2dVertex
 10
29.370811
 20
115.576301
 30
0.0
  0
VERTEX
  5
13F
330
13B
100
AcDbEntity
  8
001
370
    50
100
AcDbVertex
100
AcDb2dVertex
 10
29.353103
 20
115.568644
 30
0.0
  0
VERTEX
  5
140
330
13B
100
AcDbEntity
  8
001
370
    50
100
AcDbVertex
100
AcDb2dVertex
 10
29.276259
 20
115.527513
 30
0.0
  0
VERTEX
  5
141
330
13B
100
AcDbEntity
  8
001
370
    50
100
AcDbVertex
100
AcDb2dVertex
 10
29.219134
 20
115.475061
 30
0.0
  0
VERTEX
  5
142
330
13B
100
AcDbEntity
  8
001
370
    50
100
AcDbVertex
100
AcDb2dVertex
 10
29.206102
 20
115.457811
 30
0.0
  0
VERTEX
  5
143
330
13B
100
AcDbEntity
  8
001
370
    50
100
AcDbVertex
100
AcDb2dVertex
 10
29.194661
 20
115.439692
 30
0.0
  0
VERTEX
  5
144
330
13B
100
AcDbEntity
  8
001
370
    50
100
AcDbVertex
100
AcDb2dVertex
 10
29.186751
 20
115.423148
 30
0.0
  0
VERTEX
  5
145
330
13B
100
AcDbEntity
  8
001
370
    50
100
AcDbVertex
100
AcDb2dVertex
 10
29.181788
 20
115.403986
 30
0.0
  0
VERTEX
  5
146
330
13B
100
AcDbEntity
  8
001
370
    50
100
AcDbVertex
100
AcDb2dVertex
 10
29.180287
 20
115.38375
 30
0.0
  0
VERTEX
  5
147
330
13B
100
AcDbEntity
  8
001
370
    50
100
AcDbVertex
100
AcDb2dVertex
 10
29.180907
 20
115.369027
 30
0.0
  0
SEQEND
  5
13C
330
13B
100
AcDbEntity
  8
001
370
    50
  0
LINE
  5
148
330
1F
100
AcDbEntity
  8
001
370
    50
100
AcDbLine
 10
29.180907
 20
115.369027
 30
0.0
 11
29.796446
 21
111.281358
 31
0.0
  0
POLYLINE
  5
149
330
1F
100
AcDbEntity
  8
001
370
    50
100
AcDb2dPolyline
 66
     1
 10
0.0
 20
0.0
 30
0.0
  0
VERTEX
  5
14B
330
149
100
AcDbEntity
  8
001
370
    50
100
AcDbVertex
100
AcDb2dVertex
 10
50.106163
 20
102.026301
 30
0.0
  0
VERTEX
  5
14C
330
149
100
AcDbEntity
  8
001
370
    50
100
AcDbVertex
100
AcDb2dVertex
 10
50.082091
 20
102.038239
 30
0.0
  0
VERTEX
  5
14D
330
149
100
AcDbEntity
  8
001
370
    50
100
AcDbVertex
100
AcDb2dVertex
 10
50.048619
 20
102.052839
 30
0.0
  0
VERTEX
  5
14E
330
149
100
AcDbEntity
  8
001
370
    50
100
AcDbVertex
100
AcDb2dVertex
 10
50.015743
 20
102.064066
 30
0.0
  0
VERTEX
  5
14F
330
149
100
AcDbEntity
  8
001
370
    50
100
AcDbVertex
100
AcDb2dVertex
 10
49.981836
 20
102.070885
 30
0.0
  0
VERTEX
  5
150
330
149
100
AcDbEntity
  8
001
370
    50
100
AcDbVertex
100
AcDb2dVertex
 10
49.942308
 20
102.075292
 30
0.0
  0
VERTEX
  5
151
330
149
100
AcDbEntity
  8
001
370
    50
100
AcDbVertex
100
AcDb2dVertex
 10
49.91296
 20
102.076962
 30
0.0
  0
SEQEND
  5
14A
330
149
100
AcDbEntity
  8
001
370
    50
  0
LINE
  5
152
330
1F
100
AcDbEntity
  8
001
370
    50
100
AcDbLine
 10
77.116048
 20
86.834346
 30
0.0
 11
50.106163
 21
102.026301
 31
0.0
  0
POLYLINE
  5
153
330
1F
100
AcDbEntity
  8
001
370
    50
100
AcDb2dPolyline
 66
     1
 10
0.0
 20
0.0
 30
0.0
  0
VERTEX
  5
155
330
153
100
AcDbEntity
  8
001
370
    50
100
AcDbVertex
100
AcDb2dVertex
 10
52.726836
 20
87.713686
 30
0.0
  0
VERTEX
  5
156
330
153
100
AcDbEntity
  8
001
370
    50
100
AcDbVertex
100
AcDb2dVertex
 10
52.999408
 20
87.727952
 30
0.0
  0
VERTEX
  5
157
330
153
100
AcDbEntity
  8
001
370
    50
100
AcDbVertex
100
AcDb2dVertex
 10
53.372549
 20
87.770657
 30
0.0
  0
VERTEX
  5
158
330
153
100
AcDbEntity
  8
001
370
    50
100
AcDbVertex
100
AcDb2dVertex
 10
53.70329
 20
87.841571
 30
0.0
  0
VERTEX
  5
159
330
153
100
AcDbEntity
  8
001
370
    50
100
AcDbVertex
100
AcDb2dVertex
 10
53.998642
 20
87.939839
 30
0.0
  0
VERTEX
  5
15A
330
153
100
AcDbEntity
  8
001
370
    50
100
AcDbVertex
100
AcDb2dVertex
 10
54.294094
 20
88.064771
 30
0.0
  0
VERTEX
  5
15B
330
153
100
AcDbEntity
  8
001
370
    50
100
AcDbVertex
100
AcDb2dVertex
 10
54.586093
 20
88.216091
 30
0.0
  0
VERTEX
  5
15C
330
153
100
AcDbEntity
  8
001
370
    50
100
AcDbVertex
100
AcDb2dVertex
 10
55.358608
 20
88.81346
 30
0.0
  0
VERTEX
  5
15D
330
153
100
AcDbEntity
  8
001
370
    50
100
AcDbVertex
100
AcDb2dVertex
 10
55.947163
 20
89.588686
 30
0.0
  0
VERTEX
  5
15E
330
153
100
AcDbEntity
  8
001
370
    50
100
AcDbVertex
100
AcDb2dVertex
 10
56.221266
 20
90.182337
 30
0.0
  0
VERTEX
  5
15F
330
153
100
AcDbEntity
  8
001
370
    50
100
AcDbVertex
100
AcDb2dVertex
 10
56.388857
 20
90.812506
 30
0.0
  0
VERTEX
  5
160
330
153
100
AcDbEntity
  8
001
370
    50
100
AcDbVertex
100
AcDb2dVertex
 10
56.43123
 20
91.136977
 30
0.0
  0
VERTEX
  5
161
330
153
100
AcDbEntity
  8
001
370
    50
100
AcDbVertex
100
AcDb2dVertex
 10
56.445349
 20
91.463686
 30
0.0
  0
VERTEX
  5
162
330
153
100
AcDbEntity
  8
001
370
    50
100
AcDbVertex
100
AcDb2dVertex
 10
56.43123
 20
91.790396
 30
0.0
  0
VERTEX
  5
163
330
153
100
AcDbEntity
  8
001
370
    50
100
AcDbVertex
100
AcDb2dVertex
 10
56.388857
 20
92.114867
 30
0.0
  0
VERTEX
  5
164
330
153
100
AcDbEntity
  8
001
370
    50
100
AcDbVertex
100
AcDb2dVertex
 10
56.221266
 20
92.745036
 30
0.0
  0
VERTEX
  5
165
330
153
100
AcDbEntity
  8
001
370
    50
100
AcDbVertex
100
AcDb2dVertex
 10
55.947163
 20
93.338686
 30
0.0
  0
VERTEX
  5
166
330
153
100
AcDbEntity
  8
001
370
    50
100
AcDbVertex
100
AcDb2dVertex
 10
55.358608
 20
94.113913
 30
0.0
  0
VERTEX
  5
167
330
153
100
AcDbEntity
  8
001
370
    50
100
AcDbVertex
100
AcDb2dVertex
 10
54.586093
 20
94.711282
 30
0.0
  0
VERTEX
  5
168
330
153
100
AcDbEntity
  8
001
370
    50
100
AcDbVertex
100
AcDb2dVertex
 10
54.294094
 20
94.862602
 30
0.0
  0
VERTEX
  5
169
330
153
100
AcDbEntity
  8
001
370
    50
100
AcDbVertex
100
AcDb2dVertex
 10
53.998642
 20
94.987534
 30
0.0
  0
VERTEX
  5
16A
330
153
100
AcDbEntity
  8
001
370
    50
100
AcDbVertex
100
AcDb2dVertex
 10
53.70329
 20
95.085802
 30
0.0
  0
VERTEX
  5
16B
330
153
100
AcDbEntity
  8
001
370
    50
100
AcDbVertex
100
AcDb2dVertex
 10
53.372549
 20
95.156716
 30
0.0
  0
VERTEX
  5
16C
330
153
100
AcDbEntity
  8
001
370
    50
100
AcDbVertex
100
AcDb2dVertex
 10
52.999408
 20
95.199421
 30
0.0
  0
VERTEX
  5
16D
330
153
100
AcDbEntity
  8
001
370
    50
100
AcDbVertex
100
AcDb2dVertex
 10
52.726836
 20
95.213686
 30
0.0
  0
SEQEND
  5
154
330
153
100
AcDbEntity
  8
001
370
    50
  0
LINE
  5
16E
330
1F
100
AcDbEntity
  8
001
370
    50
100
AcDbLine
 10
76.09629
 20
87.422465
 30
0.0
 11
76.070427
 21
87.422465
 31
0.0
  0
LINE
  5
16F
330
1F
100
AcDbEntity
  8
001
370
    50
100
AcDbLine
 10
50.721701
 20
102.026301
 30
0.0
 11
50.106163
 21
102.026301
 31
0.0
  0
LINE
  5
170
330
1F
100
AcDbEntity
  8
001
370
    50
100
AcDbLine
 10
69.478272
 20
91.476498
 30
0.0
 11
60.223118
 21
96.682143
 31
0.0
  0
POLYLINE
  5
171
330
1F
100
AcDbEntity
  8
001
370
    50
100
AcDb2dPolyline
 66
     1
 10
0.0
 20
0.0
 30
0.0
  0
VERTEX
  5
173
330
171
100
AcDbEntity
  8
001
370
    50
100
AcDbVertex
100
AcDb2dVertex
 10
52.726836
 20
95.213686
 30
0.0
  0
VERTEX
  5
174
330
171
100
AcDbEntity
  8
001
370
    50
100
AcDbVertex
100
AcDb2dVertex
 10
52.454264
 20
95.199421
 30
0.0
  0
VERTEX
  5
175
330
171
100
AcDbEntity
  8
001
370
    50
100
AcDbVertex
100
AcDb2dVertex
 10
52.081123
 20
95.156716
 30
0.0
  0
VERTEX
  5
176
330
171
100
AcDbEntity
  8
001
370
    50
100
AcDbVertex
100
AcDb2dVertex
 10
51.750382
 20
95.085802
 30
0.0
  0
VERTEX
  5
177
330
171
100
AcDbEntity
  8
001
370
    50
100
AcDbVertex
100
AcDb2dVertex
 10
51.455029
 20
94.987534
 30
0.0
  0
VERTEX
  5
178
330
171
100
AcDbEntity
  8
001
370
    50
100
AcDbVertex
100
AcDb2dVertex
 10
51.159577
 20
94.862602
 30
0.0
  0
VERTEX
  5
179
330
171
100
AcDbEntity
  8
001
370
    50
100
AcDbVertex
100
AcDb2dVertex
 10
50.867579
 20
94.711282
 30
0.0
  0
VERTEX
  5
17A
330
171
100
AcDbEntity
  8
001
370
    50
100
AcDbVertex
100
AcDb2dVertex
 10
50.095064
 20
94.113913
 30
0.0
  0
VERTEX
  5
17B
330
171
100
AcDbEntity
  8
001
370
    50
100
AcDbVertex
100
AcDb2dVertex
 10
49.506509
 20
93.338686
 30
0.0
  0
VERTEX
  5
17C
330
171
100
AcDbEntity
  8
001
370
    50
100
AcDbVertex
100
AcDb2dVertex
 10
49.232406
 20
92.745036
 30
0.0
  0
VERTEX
  5
17D
330
171
100
AcDbEntity
  8
001
370
    50
100
AcDbVertex
100
AcDb2dVertex
 10
49.064815
 20
92.114867
 30
0.0
  0
VERTEX
  5
17E
330
171
100
AcDbEntity
  8
001
370
    50
100
AcDbVertex
100
AcDb2dVertex
 10
49.022441
 20
91.790396
 30
0.0
  0
VERTEX
  5
17F
330
171
100
AcDbEntity
  8
001
370
    50
100
AcDbVertex
100
AcDb2dVertex
 10
49.008322
 20
91.463686
 30
0.0
  0
VERTEX
  5
180
330
171
100
AcDbEntity
  8
001
370
    50
100
AcDbVertex
100
AcDb2dVertex
 10
49.022441
 20
91.136977
 30
0.0
  0
VERTEX
  5
181
330
171
100
AcDbEntity
  8
001
370
    50
100
AcDbVertex
100
AcDb2dVertex
 10
49.064815
 20
90.812506
 30
0.0
  0
VERTEX
  5
182
330
171
100
AcDbEntity
  8
001
370
    50
100
AcDbVertex
100
AcDb2dVertex
 10
49.232406
 20
90.182337
 30
0.0
  0
VERTEX
  5
183
330
171
100
AcDbEntity
  8
001
370
    50
100
AcDbVertex
100
AcDb2dVertex
 10
49.506509
 20
89.588686
 30
0.0
  0
VERTEX
  5
184
330
171
100
AcDbEntity
  8
001
370
    50
100
AcDbVertex
100
AcDb2dVertex
 10
50.095064
 20
88.81346
 30
0.0
  0
VERTEX
  5
185
330
171
100
AcDbEntity
  8
001
370
    50
100
AcDbVertex
100
AcDb2dVertex
 10
50.867579
 20
88.216091
 30
0.0
  0
VERTEX
  5
186
330
171
100
AcDbEntity
  8
001
370
    50
100
AcDbVertex
100
AcDb2dVertex
 10
51.159577
 20
88.064771
 30
0.0
  0
VERTEX
  5
187
330
171
100
AcDbEntity
  8
001
370
    50
100
AcDbVertex
100
AcDb2dVertex
 10
51.455029
 20
87.939839
 30
0.0
  0
VERTEX
  5
188
330
171
100
AcDbEntity
  8
001
370
    50
100
AcDbVertex
100
AcDb2dVertex
 10
51.750382
 20
87.841571
 30
0.0
  0
VERTEX
  5
189
330
171
100
AcDbEntity
  8
001
370
    50
100
AcDbVertex
100
AcDb2dVertex
 10
52.081123
 20
87.770657
 30
0.0
  0
VERTEX
  5
18A
330
171
100
AcDbEntity
  8
001
370
    50
100
AcDbVertex
100
AcDb2dVertex
 10
52.454264
 20
87.727952
 30
0.0
  0
VERTEX
  5
18B
330
171
100
AcDbEntity
  8
001
370
    50
100
AcDbVertex
100
AcDb2dVertex
 10
52.726836
 20
87.713686
 30
0.0
  0
SEQEND
  5
172
330
171
100
AcDbEntity
  8
001
370
    50
  0
LINE
  5
18C
330
1F
100
AcDbEntity
  8
001
370
    50
100
AcDbLine
 10
50.528498
 20
102.076962
 30
0.0
 11
49.91296
 21
102.076962
 31
0.0
  0
POLYLINE
  5
18D
330
1F
100
AcDbEntity
  8
001
370
    50
100
AcDb2dPolyline
 66
     1
 10
0.0
 20
0.0
 30
0.0
  0
VERTEX
  5
18F
330
18D
100
AcDbEntity
  8
001
370
    50
100
AcDbVertex
100
AcDb2dVertex
 10
50.721701
 20
102.026301
 30
0.0
  0
VERTEX
  5
190
330
18D
100
AcDbEntity
  8
001
370
    50
100
AcDbVertex
100
AcDb2dVertex
 10
50.69763
 20
102.038239
 30
0.0
  0
VERTEX
  5
191
330
18D
100
AcDbEntity
  8
001
370
    50
100
AcDbVertex
100
AcDb2dVertex
 10
50.664157
 20
102.052839
 30
0.0
  0
VERTEX
  5
192
330
18D
100
AcDbEntity
  8
001
370
    50
100
AcDbVertex
100
AcDb2dVertex
 10
50.631282
 20
102.064066
 30
0.0
  0
VERTEX
  5
193
330
18D
100
AcDbEntity
  8
001
370
    50
100
AcDbVertex
100
AcDb2dVertex
 10
50.597374
 20
102.070885
 30
0.0
  0
VERTEX
  5
194
330
18D
100
AcDbEntity
  8
001
370
    50
100
AcDbVertex
100
AcDb2dVertex
 10
50.557846
 20
102.075292
 30
0.0
  0
VERTEX
  5
195
330
18D
100
AcDbEntity
  8
001
370
    50
100
AcDbVertex
100
AcDb2dVertex
 10
50.528498
 20
102.076962
 30
0.0
  0
SEQEND
  5
18E
330
18D
100
AcDbEntity
  8
001
370
    50
  0
LINE
  5
196
330
1F
100
AcDbEntity
  8
001
370
    50
100
AcDbLine
 10
29.979806
 20
110.333936
 30
0.0
 11
29.468117
 21
110.464978
 31
0.0
  0
LINE
  5
197
330
1F
100
AcDbEntity
  8
001
370
    50
100
AcDbLine
 10
29.532094
 20
113.036864
 30
0.0
 11
29.180907
 21
110.704701
 31
0.0
  0
POLYLINE
  5
198
330
1F
100
AcDbEntity
  8
001
370
    50
100
AcDb2dPolyline
 66
     1
 10
0.0
 20
0.0
 30
0.0
  0
VERTEX
  5
19A
330
198
100
AcDbEntity
  8
001
370
    50
100
AcDbVertex
100
AcDb2dVertex
 10
29.180907
 20
110.704701
 30
0.0
  0
VERTEX
  5
19B
330
198
100
AcDbEntity
  8
001
370
    50
100
AcDbVertex
100
AcDb2dVertex
 10
29.180286
 20
110.689979
 30
0.0
  0
VERTEX
  5
19C
330
198
100
AcDbEntity
  8
001
370
    50
100
AcDbVertex
100
AcDb2dVertex
 10
29.181788
 20
110.669742
 30
0.0
  0
VERTEX
  5
19D
330
198
100
AcDbEntity
  8
001
370
    50
100
AcDbVertex
100
AcDb2dVertex
 10
29.186759
 20
110.650573
 30
0.0
  0
VERTEX
  5
19E
330
198
100
AcDbEntity
  8
001
370
    50
100
AcDbVertex
100
AcDb2dVertex
 10
29.194661
 20
110.634036
 30
0.0
  0
VERTEX
  5
19F
330
198
100
AcDbEntity
  8
001
370
    50
100
AcDbVertex
100
AcDb2dVertex
 10
29.206065
 20
110.61595
 30
0.0
  0
VERTEX
  5
1A0
330
198
100
AcDbEntity
  8
001
370
    50
100
AcDbVertex
100
AcDb2dVertex
 10
29.219134
 20
110.598667
 30
0.0
  0
VERTEX
  5
1A1
330
198
100
AcDbEntity
  8
001
370
    50
100
AcDbVertex
100
AcDb2dVertex
 10
29.27732
 20
110.545259
 30
0.0
  0
VERTEX
  5
1A2
330
198
100
AcDbEntity
  8
001
370
    50
100
AcDbVertex
100
AcDb2dVertex
 10
29.353103
 20
110.505084
 30
0.0
  0
VERTEX
  5
1A3
330
198
100
AcDbEntity
  8
001
370
    50
100
AcDbVertex
100
AcDb2dVertex
 10
29.419419
 20
110.48008
 30
0.0
  0
VERTEX
  5
1A4
330
198
100
AcDbEntity
  8
001
370
    50
100
AcDbVertex
100
AcDb2dVertex
 10
29.468117
 20
110.464978
 30
0.0
  0
SEQEND
  5
199
330
198
100
AcDbEntity
  8
001
370
    50
  0
POLYLINE
  5
1A5
330
1F
100
AcDbEntity
  8
001
370
    50
100
AcDb2dPolyline
 66
     1
 10
0.0
 20
0.0
 30
0.0
  0
VERTEX
  5
1A7
330
1A5
100
AcDbEntity
  8
001
370
    50
100
AcDbVertex
100
AcDb2dVertex
 10
58.067103
 20
102.629833
 30
0.0
  0
VERTEX
  5
1A8
330
1A5
100
AcDbEntity
  8
001
370
    50
100
AcDbVertex
100
AcDb2dVertex
 10
59.042748
 20
102.079487
 30
0.0
  0
VERTEX
  5
1A9
330
1A5
100
AcDbEntity
  8
001
370
    50
100
AcDbVertex
100
AcDb2dVertex
 10
60.436594
 20
101.294011
 30
0.0
  0
VERTEX
  5
1AA
330
1A5
100
AcDbEntity
  8
001
370
    50
100
AcDbVertex
100
AcDb2dVertex
 10
63.774807
 20
99.41609
 30
0.0
  0
VERTEX
  5
1AB
330
1A5
100
AcDbEntity
  8
001
370
    50
100
AcDbVertex
100
AcDb2dVertex
 10
66.694593
 20
97.78169
 30
0.0
  0
VERTEX
  5
1AC
330
1A5
100
AcDbEntity
  8
001
370
    50
100
AcDbVertex
100
AcDb2dVertex
 10
69.458418
 20
96.246857
 30
0.0
  0
VERTEX
  5
1AD
330
1A5
100
AcDbEntity
  8
001
370
    50
100
AcDbVertex
100
AcDb2dVertex
 10
72.328751
 20
94.667641
 30
0.0
  0
VERTEX
  5
1AE
330
1A5
100
AcDbEntity
  8
001
370
    50
100
AcDbVertex
100
AcDb2dVertex
 10
75.56806
 20
92.900088
 30
0.0
  0
VERTEX
  5
1AF
330
1A5
100
AcDbEntity
  8
001
370
    50
100
AcDbVertex
100
AcDb2dVertex
 10
77.77399
 20
91.702211
 30
0.0
  0
VERTEX
  5
1B0
330
1A5
100
AcDbEntity
  8
001
370
    50
100
AcDbVertex
100
AcDb2dVertex
 10
79.788057
 20
90.611528
 30
0.0
  0
VERTEX
  5
1B1
330
1A5
100
AcDbEntity
  8
001
370
    50
100
AcDbVertex
100
AcDb2dVertex
 10
81.179806
 20
89.860789
 30
0.0
  0
SEQEND
  5
1A6
330
1A5
100
AcDbEntity
  8
001
370
    50
  0
POLYLINE
  5
1B2
330
1F
100
AcDbEntity
  8
001
370
    50
100
AcDb2dPolyline
 66
     1
 10
0.0
 20
0.0
 30
0.0
  0
VERTEX
  5
1B4
330
1B2
100
AcDbEntity
  8
001
370
    50
100
AcDbVertex
100
AcDb2dVertex
 10
56.120997
 20
103.599862
 30
0.0
  0
VERTEX
  5
1B5
330
1B2
100
AcDbEntity
  8
001
370
    50
100
AcDbVertex
100
AcDb2dVertex
 10
56.615743
 20
103.374932
 30
0.0
  0
VERTEX
  5
1B6
330
1B2
100
AcDbEntity
  8
001
370
    50
100
AcDbVertex
100
AcDb2dVertex
 10
57.105775
 20
103.140544
 30
0.0
  0
VERTEX
  5
1B7
330
1B2
100
AcDbEntity
  8
001
370
    50
100
AcDbVertex
100
AcDb2dVertex
 10
57.588804
 20
102.889934
 30
0.0
  0
VERTEX
  5
1B8
330
1B2
100
AcDbEntity
  8
001
370
    50
100
AcDbVertex
100
AcDb2dVertex
 10
58.067103
 20
102.629833
 30
0.0
  0
SEQEND
  5
1B3
330
1B2
100
AcDbEntity
  8
001
370
    50
  0
LINE
  5
1B9
330
1F
100
AcDbEntity
  8
001
370
    50
100
AcDbLine
 10
56.120997
 20
121.672492
 30
0.0
 11
56.120997
 21
103.599862
 31
0.0
  0
POLYLINE
  5
1BA
330
1F
100
AcDbEntity
  8
001
370
    50
100
AcDb2dPolyline
 66
     1
 10
0.0
 20
0.0
 30
0.0
  0
VERTEX
  5
1BC
330
1BA
100
AcDbEntity
  8
001
370
    50
100
AcDbVertex
100
AcDb2dVertex
 10
81.179806
 20
124.310985
 30
0.0
  0
VERTEX
  5
1BD
330
1BA
100
AcDbEntity
  8
001
370
    50
100
AcDbVertex
100
AcDb2dVertex
 10
80.203833
 20
124.212111
 30
0.0
  0
VERTEX
  5
1BE
330
1BA
100
AcDbEntity
  8
001
370
    50
100
AcDbVertex
100
AcDb2dVertex
 10
78.777462
 20
124.067086
 30
0.0
  0
VERTEX
  5
1BF
330
1BA
100
AcDbEntity
  8
001
370
    50
100
AcDbVertex
100
AcDb2dVertex
 10
73.157115
 20
123.488062
 30
0.0
  0
VERTEX
  5
1C0
330
1BA
100
AcDbEntity
  8
001
370
    50
100
AcDbVertex
100
AcDb2dVertex
 10
67.809728
 20
122.927286
 30
0.0
  0
VERTEX
  5
1C1
330
1BA
100
AcDbEntity
  8
001
370
    50
100
AcDbVertex
100
AcDb2dVertex
 10
63.006868
 20
122.416564
 30
0.0
  0
VERTEX
  5
1C2
330
1BA
100
AcDbEntity
  8
001
370
    50
100
AcDbVertex
100
AcDb2dVertex
 10
59.020102
 20
121.987698
 30
0.0
  0
VERTEX
  5
1C3
330
1BA
100
AcDbEntity
  8
001
370
    50
100
AcDbVertex
100
AcDb2dVertex
 10
56.120997
 20
121.672492
 30
0.0
  0
SEQEND
  5
1BB
330
1BA
100
AcDbEntity
  8
001
370
    50
  0
LINE
  5
1C4
330
1F
100
AcDbEntity
  8
001
370
    50
100
AcDbLine
 10
81.179806
 20
124.310985
 30
0.0
 11
81.179806
 21
89.860789
 31
0.0
  0
POLYLINE
  5
1C5
330
1F
100
AcDbEntity
  8
001
370
    50
100
AcDb2dPolyline
 66
     1
 10
0.0
 20
0.0
 30
0.0
  0
VERTEX
  5
1C7
330
1C5
100
AcDbEntity
  8
001
370
    50
100
AcDbVertex
100
AcDb2dVertex
 10
48.493215
 20
105.309325
 30
0.0
  0
VERTEX
  5
1C8
330
1C5
100
AcDbEntity
  8
001
370
    50
100
AcDbVertex
100
AcDb2dVertex
 10
48.984631
 20
105.299978
 30
0.0
  0
VERTEX
  5
1C9
330
1C5
100
AcDbEntity
  8
001
370
    50
100
AcDbVertex
100
AcDb2dVertex
 10
49.475659
 20
105.282012
 30
0.0
  0
VERTEX
  5
1CA
330
1C5
100
AcDbEntity
  8
001
370
    50
100
AcDbVertex
100
AcDb2dVertex
 10
49.968501
 20
105.248403
 30
0.0
  0
VERTEX
  5
1CB
330
1C5
100
AcDbEntity
  8
001
370
    50
100
AcDbVertex
100
AcDb2dVertex
 10
50.460227
 20
105.199679
 30
0.0
  0
VERTEX
  5
1CC
330
1C5
100
AcDbEntity
  8
001
370
    50
100
AcDbVertex
100
AcDb2dVertex
 10
51.174552
 20
105.10493
 30
0.0
  0
VERTEX
  5
1CD
330
1C5
100
AcDbEntity
  8
001
370
    50
100
AcDbVertex
100
AcDb2dVertex
 10
51.884441
 20
104.98188
 30
0.0
  0
VERTEX
  5
1CE
330
1C5
100
AcDbEntity
  8
001
370
    50
100
AcDbVertex
100
AcDb2dVertex
 10
52.593793
 20
104.828724
 30
0.0
  0
VERTEX
  5
1CF
330
1C5
100
AcDbEntity
  8
001
370
    50
100
AcDbVertex
100
AcDb2dVertex
 10
53.296712
 20
104.647599
 30
0.0
  0
VERTEX
  5
1D0
330
1C5
100
AcDbEntity
  8
001
370
    50
100
AcDbVertex
100
AcDb2dVertex
 10
54.01472
 20
104.432159
 30
0.0
  0
VERTEX
  5
1D1
330
1C5
100
AcDbEntity
  8
001
370
    50
100
AcDbVertex
100
AcDb2dVertex
 10
54.72197
 20
104.184776
 30
0.0
  0
VERTEX
  5
1D2
330
1C5
100
AcDbEntity
  8
001
370
    50
100
AcDbVertex
100
AcDb2dVertex
 10
55.425085
 20
103.90154
 30
0.0
  0
VERTEX
  5
1D3
330
1C5
100
AcDbEntity
  8
001
370
    50
100
AcDbVertex
100
AcDb2dVertex
 10
56.120997
 20
103.599862
 30
0.0
  0
SEQEND
  5
1C6
330
1C5
100
AcDbEntity
  8
001
370
    50
  0
POLYLINE
  5
1D4
330
1F
100
AcDbEntity
  8
001
370
    50
100
AcDb2dPolyline
 66
     1
 10
0.0
 20
0.0
 30
0.0
  0
VERTEX
  5
1D6
330
1D4
100
AcDbEntity
  8
001
370
    50
100
AcDbVertex
100
AcDb2dVertex
 10
29.979806
 20
105.309325
 30
0.0
  0
VERTEX
  5
1D7
330
1D4
100
AcDbEntity
  8
001
370
    50
100
AcDbVertex
100
AcDb2dVertex
 10
32.29265
 20
105.309325
 30
0.0
  0
VERTEX
  5
1D8
330
1D4
100
AcDbEntity
  8
001
370
    50
100
AcDbVertex
100
AcDb2dVertex
 10
34.605494
 20
105.309325
 30
0.0
  0
VERTEX
  5
1D9
330
1D4
100
AcDbEntity
  8
001
370
    50
100
AcDbVertex
100
AcDb2dVertex
 10
36.918338
 20
105.309325
 30
0.0
  0
VERTEX
  5
1DA
330
1D4
100
AcDbEntity
  8
001
370
    50
100
AcDbVertex
100
AcDb2dVertex
 10
39.231181
 20
105.309325
 30
0.0
  0
VERTEX
  5
1DB
330
1D4
100
AcDbEntity
  8
001
370
    50
100
AcDbVertex
100
AcDb2dVertex
 10
41.54669
 20
105.309325
 30
0.0
  0
VERTEX
  5
1DC
330
1D4
100
AcDbEntity
  8
001
370
    50
100
AcDbVertex
100
AcDb2dVertex
 10
43.862198
 20
105.309325
 30
0.0
  0
VERTEX
  5
1DD
330
1D4
100
AcDbEntity
  8
001
370
    50
100
AcDbVertex
100
AcDb2dVertex
 10
46.177707
 20
105.309325
 30
0.0
  0
VERTEX
  5
1DE
330
1D4
100
AcDbEntity
  8
001
370
    50
100
AcDbVertex
100
AcDb2dVertex
 10
48.493215
 20
105.309325
 30
0.0
  0
SEQEND
  5
1D5
330
1D4
100
AcDbEntity
  8
001
370
    50
  0
POLYLINE
  5
1DF
330
1F
100
AcDbEntity
  8
001
370
    50
100
AcDb2dPolyline
 66
     1
 10
0.0
 20
0.0
 30
0.0
  0
VERTEX
  5
1E1
330
1DF
100
AcDbEntity
  8
001
370
    50
100
AcDbVertex
100
AcDb2dVertex
 10
56.120997
 20
121.672492
 30
0.0
  0
VERTEX
  5
1E2
330
1DF
100
AcDbEntity
  8
001
370
    50
100
AcDbVertex
100
AcDb2dVertex
 10
53.497602
 20
120.652205
 30
0.0
  0
VERTEX
  5
1E3
330
1DF
100
AcDbEntity
  8
001
370
    50
100
AcDbVertex
100
AcDb2dVertex
 10
50.874413
 20
119.631388
 30
0.0
  0
VERTEX
  5
1E4
330
1DF
100
AcDbEntity
  8
001
370
    50
100
AcDbVertex
100
AcDb2dVertex
 10
48.251636
 20
118.609513
 30
0.0
  0
VERTEX
  5
1E5
330
1DF
100
AcDbEntity
  8
001
370
    50
100
AcDbVertex
100
AcDb2dVertex
 10
45.629476
 20
117.58605
 30
0.0
  0
VERTEX
  5
1E6
330
1DF
100
AcDbEntity
  8
001
370
    50
100
AcDbVertex
100
AcDb2dVertex
 10
43.008139
 20
116.560469
 30
0.0
  0
VERTEX
  5
1E7
330
1DF
100
AcDbEntity
  8
001
370
    50
100
AcDbVertex
100
AcDb2dVertex
 10
40.829244
 20
115.705496
 30
0.0
  0
VERTEX
  5
1E8
330
1DF
100
AcDbEntity
  8
001
370
    50
100
AcDbVertex
100
AcDb2dVertex
 10
38.651597
 20
114.847358
 30
0.0
  0
VERTEX
  5
1E9
330
1DF
100
AcDbEntity
  8
001
370
    50
100
AcDbVertex
100
AcDb2dVertex
 10
36.475738
 20
113.98472
 30
0.0
  0
VERTEX
  5
1EA
330
1DF
100
AcDbEntity
  8
001
370
    50
100
AcDbVertex
100
AcDb2dVertex
 10
34.309145
 20
113.119664
 30
0.0
  0
VERTEX
  5
1EB
330
1DF
100
AcDbEntity
  8
001
370
    50
100
AcDbVertex
100
AcDb2dVertex
 10
32.144091
 20
112.250744
 30
0.0
  0
VERTEX
  5
1EC
330
1DF
100
AcDbEntity
  8
001
370
    50
100
AcDbVertex
100
AcDb2dVertex
 10
29.979806
 20
111.379893
 30
0.0
  0
SEQEND
  5
1E0
330
1DF
100
AcDbEntity
  8
001
370
    50
  0
LINE
  5
1ED
330
1F
100
AcDbEntity
  8
001
370
    50
100
AcDbLine
 10
81.179806
 20
133.609325
 30
0.0
 11
81.179806
 21
133.075569
 31
0.0
  0
LINE
  5
1EE
330
1F
100
AcDbEntity
  8
001
370
    50
100
AcDbLine
 10
81.179806
 20
81.009325
 30
0.0
 11
84.179806
 21
86.205477
 31
0.0
  0
LINE
  5
1EF
330
1F
100
AcDbEntity
  8
001
370
    50
100
AcDbLine
 10
84.179806
 20
128.413172
 30
0.0
 11
81.179806
 21
133.609325
 31
0.0
  0
LINE
  5
1F0
330
1F
100
AcDbEntity
  8
001
370
    50
100
AcDbLine
 10
81.179806
 20
81.431062
 30
0.0
 11
81.179806
 21
81.009325
 31
0.0
  0
LINE
  5
1F1
330
1F
100
AcDbEntity
  8
001
370
    50
100
AcDbLine
 10
82.652079
 20
84.06677
 30
0.0
 11
81.179806
 21
81.431062
 31
0.0
  0
POLYLINE
  5
1F2
330
1F
100
AcDbEntity
  8
001
370
    50
100
AcDb2dPolyline
 66
     1
 10
0.0
 20
0.0
 30
0.0
  0
VERTEX
  5
1F4
330
1F2
100
AcDbEntity
  8
001
370
    50
100
AcDbVertex
100
AcDb2dVertex
 10
81.931278
 20
84.140523
 30
0.0
  0
VERTEX
  5
1F5
330
1F2
100
AcDbEntity
  8
001
370
    50
100
AcDbVertex
100
AcDb2dVertex
 10
82.13162
 20
84.105853
 30
0.0
  0
VERTEX
  5
1F6
330
1F2
100
AcDbEntity
  8
001
370
    50
100
AcDbVertex
100
AcDb2dVertex
 10
82.332831
 20
84.08024
 30
0.0
  0
VERTEX
  5
1F7
330
1F2
100
AcDbEntity
  8
001
370
    50
100
AcDbVertex
100
AcDb2dVertex
 10
82.492186
 20
84.070701
 30
0.0
  0
VERTEX
  5
1F8
330
1F2
100
AcDbEntity
  8
001
370
    50
100
AcDbVertex
100
AcDb2dVertex
 10
82.652079
 20
84.06677
 30
0.0
  0
SEQEND
  5
1F3
330
1F2
100
AcDbEntity
  8
001
370
    50
  0
LINE
  5
1F9
330
1F
100
AcDbEntity
  8
001
370
    50
100
AcDbLine
 10
83.413186
 20
87.026651
 30
0.0
 11
81.931278
 21
84.140523
 31
0.0
  0
POLYLINE
  5
1FA
330
1F
100
AcDbEntity
  8
001
370
    50
100
AcDb2dPolyline
 66
     1
 10
0.0
 20
0.0
 30
0.0
  0
VERTEX
  5
1FC
330
1FA
100
AcDbEntity
  8
001
370
    50
100
AcDbVertex
100
AcDb2dVertex
 10
83.413186
 20
87.026651
 30
0.0
  0
VERTEX
  5
1FD
330
1FA
100
AcDbEntity
  8
001
370
    50
100
AcDbVertex
100
AcDb2dVertex
 10
83.456945
 20
87.114846
 30
0.0
  0
VERTEX
  5
1FE
330
1FA
100
AcDbEntity
  8
001
370
    50
100
AcDbVertex
100
AcDb2dVertex
 10
83.500085
 20
87.203342
 30
0.0
  0
VERTEX
  5
1FF
330
1FA
100
AcDbEntity
  8
001
370
    50
100
AcDbVertex
100
AcDb2dVertex
 10
83.569017
 20
87.351155
 30
0.0
  0
VERTEX
  5
200
330
1FA
100
AcDbEntity
  8
001
370
    50
100
AcDbVertex
100
AcDb2dVertex
 10
83.634679
 20
87.500459
 30
0.0
  0
VERTEX
  5
201
330
1FA
100
AcDbEntity
  8
001
370
    50
100
AcDbVertex
100
AcDb2dVertex
 10
83.693913
 20
87.643298
 30
0.0
  0
VERTEX
  5
202
330
1FA
100
AcDbEntity
  8
001
370
    50
100
AcDbVertex
100
AcDb2dVertex
 10
83.749725
 20
87.78751
 30
0.0
  0
VERTEX
  5
203
330
1FA
100
AcDbEntity
  8
001
370
    50
100
AcDbVertex
100
AcDb2dVertex
 10
83.797657
 20
87.921966
 30
0.0
  0
VERTEX
  5
204
330
1FA
100
AcDbEntity
  8
001
370
    50
100
AcDbVertex
100
AcDb2dVertex
 10
83.841543
 20
88.057765
 30
0.0
  0
VERTEX
  5
205
330
1FA
100
AcDbEntity
  8
001
370
    50
100
AcDbVertex
100
AcDb2dVertex
 10
83.876573
 20
88.179712
 30
0.0
  0
VERTEX
  5
206
330
1FA
100
AcDbEntity
  8
001
370
    50
100
AcDbVertex
100
AcDb2dVertex
 10
83.90692
 20
88.303008
 30
0.0
  0
VERTEX
  5
207
330
1FA
100
AcDbEntity
  8
001
370
    50
100
AcDbVertex
100
AcDb2dVertex
 10
83.928275
 20
88.410084
 30
0.0
  0
VERTEX
  5
208
330
1FA
100
AcDbEntity
  8
001
370
    50
100
AcDbVertex
100
AcDb2dVertex
 10
83.9435
 20
88.517912
 30
0.0
  0
VERTEX
  5
209
330
1FA
100
AcDbEntity
  8
001
370
    50
100
AcDbVertex
100
AcDb2dVertex
 10
83.949998
 20
88.606103
 30
0.0
  0
VERTEX
  5
20A
330
1FA
100
AcDbEntity
  8
001
370
    50
100
AcDbVertex
100
AcDb2dVertex
 10
83.949963
 20
88.695251
 30
0.0
  0
VERTEX
  5
20B
330
1FA
100
AcDbEntity
  8
001
370
    50
100
AcDbVertex
100
AcDb2dVertex
 10
83.943573
 20
88.764816
 30
0.0
  0
VERTEX
  5
20C
330
1FA
100
AcDbEntity
  8
001
370
    50
100
AcDbVertex
100
AcDb2dVertex
 10
83.925368
 20
88.830872
 30
0.0
  0
VERTEX
  5
20D
330
1FA
100
AcDbEntity
  8
001
370
    50
100
AcDbVertex
100
AcDb2dVertex
 10
83.90083
 20
88.876402
 30
0.0
  0
VERTEX
  5
20E
330
1FA
100
AcDbEntity
  8
001
370
    50
100
AcDbVertex
100
AcDb2dVertex
 10
83.870874
 20
88.919634
 30
0.0
  0
SEQEND
  5
1FB
330
1FA
100
AcDbEntity
  8
001
370
    50
  0
POLYLINE
  5
20F
330
1F
100
AcDbEntity
  8
001
370
    50
100
AcDb2dPolyline
 66
     1
 10
0.0
 20
0.0
 30
0.0
  0
VERTEX
  5
211
330
20F
100
AcDbEntity
  8
001
370
    50
100
AcDbVertex
100
AcDb2dVertex
 10
81.179806
 20
89.860789
 30
0.0
  0
VERTEX
  5
212
330
20F
100
AcDbEntity
  8
001
370
    50
100
AcDbVertex
100
AcDb2dVertex
 10
81.541988
 20
89.726345
 30
0.0
  0
VERTEX
  5
213
330
20F
100
AcDbEntity
  8
001
370
    50
100
AcDbVertex
100
AcDb2dVertex
 10
81.904689
 20
89.593331
 30
0.0
  0
VERTEX
  5
214
330
20F
100
AcDbEntity
  8
001
370
    50
100
AcDbVertex
100
AcDb2dVertex
 10
82.246514
 20
89.470651
 30
0.0
  0
VERTEX
  5
215
330
20F
100
AcDbEntity
  8
001
370
    50
100
AcDbVertex
100
AcDb2dVertex
 10
82.589205
 20
89.350381
 30
0.0
  0
VERTEX
  5
216
330
20F
100
AcDbEntity
  8
001
370
    50
100
AcDbVertex
100
AcDb2dVertex
 10
82.907907
 20
89.241145
 30
0.0
  0
VERTEX
  5
217
330
20F
100
AcDbEntity
  8
001
370
    50
100
AcDbVertex
100
AcDb2dVertex
 10
83.22778
 20
89.135453
 30
0.0
  0
VERTEX
  5
218
330
20F
100
AcDbEntity
  8
001
370
    50
100
AcDbVertex
100
AcDb2dVertex
 10
83.519571
 20
89.043292
 30
0.0
  0
VERTEX
  5
219
330
20F
100
AcDbEntity
  8
001
370
    50
100
AcDbVertex
100
AcDb2dVertex
 10
83.812039
 20
88.953241
 30
0.0
  0
SEQEND
  5
210
330
20F
100
AcDbEntity
  8
001
370
    50
  0
LINE
  5
21A
330
1F
100
AcDbEntity
  8
001
370
    50
100
AcDbLine
 10
82.652079
 20
123.159406
 30
0.0
 11
81.179806
 21
124.310985
 31
0.0
  0
POLYLINE
  5
21B
330
1F
100
AcDbEntity
  8
001
370
    50
100
AcDb2dPolyline
 66
     1
 10
0.0
 20
0.0
 30
0.0
  0
VERTEX
  5
21D
330
21B
100
AcDbEntity
  8
001
370
    50
100
AcDbVertex
100
AcDb2dVertex
 10
81.931278
 20
127.023638
 30
0.0
  0
VERTEX
  5
21E
330
21B
100
AcDbEntity
  8
001
370
    50
100
AcDbVertex
100
AcDb2dVertex
 10
82.140074
 20
126.068815
 30
0.0
  0
VERTEX
  5
21F
330
21B
100
AcDbEntity
  8
001
370
    50
100
AcDbVertex
100
AcDb2dVertex
 10
82.332831
 20
125.110997
 30
0.0
  0
VERTEX
  5
220
330
21B
100
AcDbEntity
  8
001
370
    50
100
AcDbVertex
100
AcDb2dVertex
 10
82.500666
 20
124.136734
 30
0.0
  0
VERTEX
  5
221
330
21B
100
AcDbEntity
  8
001
370
    50
100
AcDbVertex
100
AcDb2dVertex
 10
82.652079
 20
123.159406
 30
0.0
  0
SEQEND
  5
21C
330
21B
100
AcDbEntity
  8
001
370
    50
  0
LINE
  5
222
330
1F
100
AcDbEntity
  8
001
370
    50
100
AcDbLine
 10
83.413186
 20
125.747939
 30
0.0
 11
81.931278
 21
127.023638
 31
0.0
  0
POLYLINE
  5
223
330
1F
100
AcDbEntity
  8
001
370
    50
100
AcDb2dPolyline
 66
     1
 10
0.0
 20
0.0
 30
0.0
  0
VERTEX
  5
225
330
223
100
AcDbEntity
  8
001
370
    50
100
AcDbVertex
100
AcDb2dVertex
 10
83.413186
 20
125.747939
 30
0.0
  0
VERTEX
  5
226
330
223
100
AcDbEntity
  8
001
370
    50
100
AcDbVertex
100
AcDb2dVertex
 10
83.472284
 20
125.699742
 30
0.0
  0
VERTEX
  5
227
330
223
100
AcDbEntity
  8
001
370
    50
100
AcDbVertex
100
AcDb2dVertex
 10
83.533377
 20
125.65461
 30
0.0
  0
VERTEX
  5
228
330
223
100
AcDbEntity
  8
001
370
    50
100
AcDbVertex
100
AcDb2dVertex
 10
83.596149
 20
125.61659
 30
0.0
  0
VERTEX
  5
229
330
223
100
AcDbEntity
  8
001
370
    50
100
AcDbVertex
100
AcDb2dVertex
 10
83.663742
 20
125.586168
 30
0.0
  0
VERTEX
  5
22A
330
223
100
AcDbEntity
  8
001
370
    50
100
AcDbVertex
100
AcDb2dVertex
 10
83.718265
 20
125.570429
 30
0.0
  0
VERTEX
  5
22B
330
223
100
AcDbEntity
  8
001
370
    50
100
AcDbVertex
100
AcDb2dVertex
 10
83.773612
 20
125.567513
 30
0.0
  0
VERTEX
  5
22C
330
223
100
AcDbEntity
  8
001
370
    50
100
AcDbVertex
100
AcDb2dVertex
 10
83.798752
 20
125.572048
 30
0.0
  0
VERTEX
  5
22D
330
223
100
AcDbEntity
  8
001
370
    50
100
AcDbVertex
100
AcDb2dVertex
 10
83.823708
 20
125.578729
 30
0.0
  0
SEQEND
  5
224
330
223
100
AcDbEntity
  8
001
370
    50
  0
POLYLINE
  5
22E
330
1F
100
AcDbEntity
  8
001
370
    50
100
AcDb2dPolyline
 66
     1
 10
0.0
 20
0.0
 30
0.0
  0
VERTEX
  5
230
330
22E
100
AcDbEntity
  8
001
370
    50
100
AcDbVertex
100
AcDb2dVertex
 10
81.179806
 20
133.075569
 30
0.0
  0
VERTEX
  5
231
330
22E
100
AcDbEntity
  8
001
370
    50
100
AcDbVertex
100
AcDb2dVertex
 10
81.545706
 20
132.288284
 30
0.0
  0
VERTEX
  5
232
330
22E
100
AcDbEntity
  8
001
370
    50
100
AcDbVertex
100
AcDb2dVertex
 10
81.904689
 20
131.4979
 30
0.0
  0
VERTEX
  5
233
330
22E
100
AcDbEntity
  8
001
370
    50
100
AcDbVertex
100
AcDb2dVertex
 10
82.25315
 20
130.697522
 30
0.0
  0
VERTEX
  5
234
330
22E
100
AcDbEntity
  8
001
370
    50
100
AcDbVertex
100
AcDb2dVertex
 10
82.589205
 20
129.891766
 30
0.0
  0
VERTEX
  5
235
330
22E
100
AcDbEntity
  8
001
370
    50
100
AcDbVertex
100
AcDb2dVertex
 10
82.916065
 20
129.074599
 30
0.0
  0
VERTEX
  5
236
330
22E
100
AcDbEntity
  8
001
370
    50
100
AcDbVertex
100
AcDb2dVertex
 10
83.22778
 20
128.251657
 30
0.0
  0
VERTEX
  5
237
330
22E
100
AcDbEntity
  8
001
370
    50
100
AcDbVertex
100
AcDb2dVertex
 10
83.52481
 20
127.415808
 30
0.0
  0
VERTEX
  5
238
330
22E
100
AcDbEntity
  8
001
370
    50
100
AcDbVertex
100
AcDb2dVertex
 10
83.812039
 20
126.576407
 30
0.0
  0
SEQEND
  5
22F
330
22E
100
AcDbEntity
  8
001
370
    50
  0
LINE
  5
239
330
1F
100
AcDbEntity
  8
001
370
    50
100
AcDbLine
 10
84.179806
 20
128.413172
 30
0.0
 11
84.179806
 21
86.205477
 31
0.0
  0
LINE
  5
23A
330
1F
100
AcDbEntity
  8
001
370
    50
100
AcDbLine
 10
81.931278
 20
127.023638
 30
0.0
 11
76.317484
 21
124.810862
 31
0.0
  0
LINE
  5
23B
330
1F
100
AcDbEntity
  8
001
370
    50
100
AcDbLine
 10
86.179806
 20
123.309325
 30
0.0
 11
156.179806
 21
123.309325
 31
0.0
  0
LINE
  5
23C
330
1F
100
AcDbEntity
  8
001
370
    50
100
AcDbLine
 10
86.179806
 20
91.309325
 30
0.0
 11
156.179806
 21
91.309325
 31
0.0
  0
ARC
  5
23D
330
1F
100
AcDbEntity
  8
001
370
    50
100
AcDbCircle
 10
156.179806
 20
115.309325
 30
0.0
 40
8.0
100
AcDbArc
 50
0.0
 51
90.0
  0
ARC
  5
23E
330
1F
100
AcDbEntity
  8
001
370
    50
100
AcDbCircle
 10
156.179806
 20
99.309325
 30
0.0
 40
8.0
100
AcDbArc
 50
270.0
 51
0.0
  0
LINE
  5
23F
330
1F
100
AcDbEntity
  8
001
370
    50
100
AcDbLine
 10
164.179806
 20
115.309325
 30
0.0
 11
164.179806
 21
99.309325
 31
0.0
  0
POLYLINE
  5
240
330
1F
100
AcDbEntity
  8
001
370
    50
100
AcDb2dPolyline
 66
     1
 10
0.0
 20
0.0
 30
0.0
  0
VERTEX
  5
242
330
240
100
AcDbEntity
  8
001
370
    50
100
AcDbVertex
100
AcDb2dVertex
 10
83.823708
 20
125.578729
 30
0.0
  0
VERTEX
  5
243
330
240
100
AcDbEntity
  8
001
370
    50
100
AcDbVertex
100
AcDb2dVertex
 10
83.842081
 20
125.588535
 30
0.0
  0
VERTEX
  5
244
330
240
100
AcDbEntity
  8
001
370
    50
100
AcDbVertex
100
AcDb2dVertex
 10
83.859451
 20
125.599666
 30
0.0
  0
VERTEX
  5
245
330
240
100
AcDbEntity
  8
001
370
    50
100
AcDbVertex
100
AcDb2dVertex
 10
83.893847
 20
125.635857
 30
0.0
  0
VERTEX
  5
246
330
240
100
AcDbEntity
  8
001
370
    50
100
AcDbVertex
100
AcDb2dVertex
 10
83.918229
 20
125.680758
 30
0.0
  0
VERTEX
  5
247
330
240
100
AcDbEntity
  8
001
370
    50
100
AcDbVertex
100
AcDb2dVertex
 10
83.938082
 20
125.744397
 30
0.0
  0
VERTEX
  5
248
330
240
100
AcDbEntity
  8
001
370
    50
100
AcDbVertex
100
AcDb2dVertex
 10
83.947756
 20
125.809953
 30
0.0
  0
VERTEX
  5
249
330
240
100
AcDbEntity
  8
001
370
    50
100
AcDbVertex
100
AcDb2dVertex
 10
83.951084
 20
125.896054
 30
0.0
  0
VERTEX
  5
24A
330
240
100
AcDbEntity
  8
001
370
    50
100
AcDbVertex
100
AcDb2dVertex
 10
83.946983
 20
125.982249
 30
0.0
  0
VERTEX
  5
24B
330
240
100
AcDbEntity
  8
001
370
    50
100
AcDbVertex
100
AcDb2dVertex
 10
83.929425
 20
126.121456
 30
0.0
  0
VERTEX
  5
24C
330
240
100
AcDbEntity
  8
001
370
    50
100
AcDbVertex
100
AcDb2dVertex
 10
83.901493
 20
126.258921
 30
0.0
  0
VERTEX
  5
24D
330
240
100
AcDbEntity
  8
001
370
    50
100
AcDbVertex
100
AcDb2dVertex
 10
83.859354
 20
126.418356
 30
0.0
  0
VERTEX
  5
24E
330
240
100
AcDbEntity
  8
001
370
    50
100
AcDbVertex
100
AcDb2dVertex
 10
83.812039
 20
126.576407
 30
0.0
  0
SEQEND
  5
241
330
240
100
AcDbEntity
  8
001
370
    50
  0
LINE
  5
24F
330
1F
100
AcDbEntity
  8
001
370
    50
100
AcDbLine
 10
83.84438
 20
88.939315
 30
0.0
 11
83.812039
 21
88.953241
 31
0.0
  0
POLYLINE
  5
250
330
1F
100
AcDbEntity
  8
001
370
    50
100
AcDb2dPolyline
 66
     1
 10
0.0
 20
0.0
 30
0.0
  0
VERTEX
  5
252
330
250
100
AcDbEntity
  8
001
370
    50
100
AcDbVertex
100
AcDb2dVertex
 10
73.267459
 20
133.609325
 30
0.0
  0
VERTEX
  5
253
330
250
100
AcDbEntity
  8
001
370
    50
100
AcDbVertex
100
AcDb2dVertex
 10
71.888435
 20
133.5922
 30
0.0
  0
VERTEX
  5
254
330
250
100
AcDbEntity
  8
001
370
    50
100
AcDbVertex
100
AcDb2dVertex
 10
69.874649
 20
133.524598
 30
0.0
  0
VERTEX
  5
255
330
250
100
AcDbEntity
  8
001
370
    50
100
AcDbVertex
100
AcDb2dVertex
 10
66.932753
 20
133.318151
 30
0.0
  0
VERTEX
  5
256
330
250
100
AcDbEntity
  8
001
370
    50
100
AcDbVertex
100
AcDb2dVertex
 10
64.140644
 20
133.016633
 30
0.0
  0
VERTEX
  5
257
330
250
100
AcDbEntity
  8
001
370
    50
100
AcDbVertex
100
AcDb2dVertex
 10
61.638729
 20
132.672089
 30
0.0
  0
VERTEX
  5
258
330
250
100
AcDbEntity
  8
001
370
    50
100
AcDbVertex
100
AcDb2dVertex
 10
59.567413
 20
132.336566
 30
0.0
  0
VERTEX
  5
259
330
250
100
AcDbEntity
  8
001
370
    50
100
AcDbVertex
100
AcDb2dVertex
 10
58.067103
 20
132.062109
 30
0.0
  0
SEQEND
  5
251
330
250
100
AcDbEntity
  8
001
370
    50
  0
LINE
  5
25A
330
1F
100
AcDbEntity
  8
001
370
    50
100
AcDbLine
 10
81.931278
 20
84.140523
 30
0.0
 11
69.906873
 21
90.903759
 31
0.0
  0
POLYLINE
  5
25B
330
1F
100
AcDbEntity
  8
001
370
    50
100
AcDb2dPolyline
 66
     1
 10
0.0
 20
0.0
 30
0.0
  0
VERTEX
  5
25D
330
25B
100
AcDbEntity
  8
001
370
    50
100
AcDbVertex
100
AcDb2dVertex
 10
69.906873
 20
90.903759
 30
0.0
  0
VERTEX
  5
25E
330
25B
100
AcDbEntity
  8
001
370
    50
100
AcDbVertex
100
AcDb2dVertex
 10
69.412266
 20
91.529935
 30
0.0
  0
VERTEX
  5
25F
330
25B
100
AcDbEntity
  8
001
370
    50
100
AcDbVertex
100
AcDb2dVertex
 10
68.522523
 20
92.254405
 30
0.0
  0
VERTEX
  5
260
330
25B
100
AcDbEntity
  8
001
370
    50
100
AcDbVertex
100
AcDb2dVertex
 10
68.492189
 20
92.271877
 30
0.0
  0
VERTEX
  5
261
330
25B
100
AcDbEntity
  8
001
370
    50
100
AcDbVertex
100
AcDb2dVertex
 10
68.471347
 20
92.283693
 30
0.0
  0
SEQEND
  5
25C
330
25B
100
AcDbEntity
  8
001
370
    50
  0
LINE
  5
262
330
1F
100
AcDbEntity
  8
001
370
    50
100
AcDbLine
 10
68.471347
 20
92.283693
 30
0.0
 11
61.433233
 21
96.242344
 31
0.0
  0
POLYLINE
  5
263
330
1F
100
AcDbEntity
  8
001
370
    50
100
AcDb2dPolyline
 66
     1
 10
0.0
 20
0.0
 30
0.0
  0
VERTEX
  5
265
330
263
100
AcDbEntity
  8
001
370
    50
100
AcDbVertex
100
AcDb2dVertex
 10
61.433233
 20
96.242344
 30
0.0
  0
VERTEX
  5
266
330
263
100
AcDbEntity
  8
001
370
    50
100
AcDbVertex
100
AcDb2dVertex
 10
61.19249
 20
96.361738
 30
0.0
  0
VERTEX
  5
267
330
263
100
AcDbEntity
  8
001
370
    50
100
AcDbVertex
100
AcDb2dVertex
 10
60.857795
 20
96.507725
 30
0.0
  0
VERTEX
  5
268
330
263
100
AcDbEntity
  8
001
370
    50
100
AcDbVertex
100
AcDb2dVertex
 10
60.529199
 20
96.619925
 30
0.0
  0
VERTEX
  5
269
330
263
100
AcDbEntity
  8
001
370
    50
100
AcDbVertex
100
AcDb2dVertex
 10
60.189962
 20
96.688185
 30
0.0
  0
VERTEX
  5
26A
330
263
100
AcDbEntity
  8
001
370
    50
100
AcDbVertex
100
AcDb2dVertex
 10
59.802297
 20
96.731881
 30
0.0
  0
VERTEX
  5
26B
330
263
100
AcDbEntity
  8
001
370
    50
100
AcDbVertex
100
AcDb2dVertex
 10
59.514699
 20
96.748931
 30
0.0
  0
SEQEND
  5
264
330
263
100
AcDbEntity
  8
001
370
    50
  0
LINE
  5
26C
330
1F
100
AcDbEntity
  8
001
370
    50
100
AcDbLine
 10
59.514699
 20
96.748931
 30
0.0
 11
53.480438
 21
100.142956
 31
0.0
  0
LINE
  5
26D
330
1F
100
AcDbEntity
  8
001
370
    50
100
AcDbLine
 10
39.897727
 20
99.737583
 30
0.0
 11
35.960954
 21
98.610413
 31
0.0
  0
POLYLINE
  5
26E
330
1F
100
AcDbEntity
  8
001
370
    50
100
AcDb2dPolyline
 66
     1
 10
0.0
 20
0.0
 30
0.0
  0
VERTEX
  5
270
330
26E
100
AcDbEntity
  8
001
370
    50
100
AcDbVertex
100
AcDb2dVertex
 10
53.480438
 20
100.142956
 30
0.0
  0
VERTEX
  5
271
330
26E
100
AcDbEntity
  8
001
370
    50
100
AcDbVertex
100
AcDb2dVertex
 10
53.335107
 20
100.561607
 30
0.0
  0
VERTEX
  5
272
330
26E
100
AcDbEntity
  8
001
370
    50
100
AcDbVertex
100
AcDb2dVertex
 10
53.07906
 20
101.12719
 30
0.0
  0
VERTEX
  5
273
330
26E
100
AcDbEntity
  8
001
370
    50
100
AcDbVertex
100
AcDb2dVertex
 10
52.43886
 20
102.001665
 30
0.0
  0
VERTEX
  5
274
330
26E
100
AcDbEntity
  8
001
370
    50
100
AcDbVertex
100
AcDb2dVertex
 10
51.627252
 20
102.591291
 30
0.0
  0
VERTEX
  5
275
330
26E
100
AcDbEntity
  8
001
370
    50
100
AcDbVertex
100
AcDb2dVertex
 10
51.316434
 20
102.750221
 30
0.0
  0
VERTEX
  5
276
330
26E
100
AcDbEntity
  8
001
370
    50
100
AcDbVertex
100
AcDb2dVertex
 10
51.000638
 20
102.88596
 30
0.0
  0
VERTEX
  5
277
330
26E
100
AcDbEntity
  8
001
370
    50
100
AcDbVertex
100
AcDb2dVertex
 10
50.685425
 20
102.991431
 30
0.0
  0
VERTEX
  5
278
330
26E
100
AcDbEntity
  8
001
370
    50
100
AcDbVertex
100
AcDb2dVertex
 10
50.332805
 20
103.066421
 30
0.0
  0
VERTEX
  5
279
330
26E
100
AcDbEntity
  8
001
370
    50
100
AcDbVertex
100
AcDb2dVertex
 10
49.934822
 20
103.111843
 30
0.0
  0
VERTEX
  5
27A
330
26E
100
AcDbEntity
  8
001
370
    50
100
AcDbVertex
100
AcDb2dVertex
 10
49.644045
 20
103.12719
 30
0.0
  0
SEQEND
  5
26F
330
26E
100
AcDbEntity
  8
001
370
    50
  0
POLYLINE
  5
27B
330
1F
100
AcDbEntity
  8
001
370
    50
100
AcDb2dPolyline
 66
     1
 10
0.0
 20
0.0
 30
0.0
  0
VERTEX
  5
27D
330
27B
100
AcDbEntity
  8
001
370
    50
100
AcDbVertex
100
AcDb2dVertex
 10
81.179806
 20
133.075569
 30
0.0
  0
VERTEX
  5
27E
330
27B
100
AcDbEntity
  8
001
370
    50
100
AcDbVertex
100
AcDb2dVertex
 10
79.625208
 20
133.268602
 30
0.0
  0
VERTEX
  5
27F
330
27B
100
AcDbEntity
  8
001
370
    50
100
AcDbVertex
100
AcDb2dVertex
 10
77.346108
 20
133.475546
 30
0.0
  0
VERTEX
  5
280
330
27B
100
AcDbEntity
  8
001
370
    50
100
AcDbVertex
100
AcDb2dVertex
 10
74.925861
 20
133.586114
 30
0.0
  0
VERTEX
  5
281
330
27B
100
AcDbEntity
  8
001
370
    50
100
AcDbVertex
100
AcDb2dVertex
 10
73.267459
 20
133.609325
 30
0.0
  0
SEQEND
  5
27C
330
27B
100
AcDbEntity
  8
001
370
    50
  0
LINE
  5
282
330
1F
100
AcDbEntity
  8
001
370
    50
100
AcDbLine
 10
81.179806
 20
133.609325
 30
0.0
 11
73.267459
 21
133.609325
 31
0.0
  0
POLYLINE
  5
283
330
1F
100
AcDbEntity
  8
001
370
    50
100
AcDb2dPolyline
 66
     1
 10
0.0
 20
0.0
 30
0.0
  0
VERTEX
  5
285
330
283
100
AcDbEntity
  8
001
370
    50
100
AcDbVertex
100
AcDb2dVertex
 10
56.120997
 20
131.712835
 30
0.0
  0
VERTEX
  5
286
330
283
100
AcDbEntity
  8
001
370
    50
100
AcDbVertex
100
AcDb2dVertex
 10
56.61363
 20
131.796171
 30
0.0
  0
VERTEX
  5
287
330
283
100
AcDbEntity
  8
001
370
    50
100
AcDbVertex
100
AcDb2dVertex
 10
57.105775
 20
131.882233
 30
0.0
  0
VERTEX
  5
288
330
283
100
AcDbEntity
  8
001
370
    50
100
AcDbVertex
100
AcDb2dVertex
 10
57.586673
 20
131.970866
 30
0.0
  0
VERTEX
  5
289
330
283
100
AcDbEntity
  8
001
370
    50
100
AcDbVertex
100
AcDb2dVertex
 10
58.067103
 20
132.062109
 30
0.0
  0
SEQEND
  5
284
330
283
100
AcDbEntity
  8
001
370
    50
  0
LINE
  5
28A
330
1F
100
AcDbEntity
  8
001
370
    50
100
AcDbLine
 10
40.487403
 20
99.737583
 30
0.0
 11
36.55063
 21
98.610413
 31
0.0
  0
POLYLINE
  5
28B
330
1F
100
AcDbEntity
  8
001
370
    50
100
AcDb2dPolyline
 66
     1
 10
0.0
 20
0.0
 30
0.0
  0
VERTEX
  5
28D
330
28B
100
AcDbEntity
  8
001
370
    50
100
AcDbVertex
100
AcDb2dVertex
 10
41.275872
 20
99.878597
 30
0.0
  0
VERTEX
  5
28E
330
28B
100
AcDbEntity
  8
001
370
    50
100
AcDbVertex
100
AcDb2dVertex
 10
41.115213
 20
99.86274
 30
0.0
  0
VERTEX
  5
28F
330
28B
100
AcDbEntity
  8
001
370
    50
100
AcDbVertex
100
AcDb2dVertex
 10
40.881949
 20
99.828894
 30
0.0
  0
VERTEX
  5
290
330
28B
100
AcDbEntity
  8
001
370
    50
100
AcDbVertex
100
AcDb2dVertex
 10
40.646741
 20
99.779134
 30
0.0
  0
VERTEX
  5
291
330
28B
100
AcDbEntity
  8
001
370
    50
100
AcDbVertex
100
AcDb2dVertex
 10
40.487403
 20
99.737583
 30
0.0
  0
SEQEND
  5
28C
330
28B
100
AcDbEntity
  8
001
370
    50
  0
POLYLINE
  5
292
330
1F
100
AcDbEntity
  8
001
370
    50
100
AcDb2dPolyline
 66
     1
 10
0.0
 20
0.0
 30
0.0
  0
VERTEX
  5
294
330
292
100
AcDbEntity
  8
001
370
    50
100
AcDbVertex
100
AcDb2dVertex
 10
40.981034
 20
99.889663
 30
0.0
  0
VERTEX
  5
295
330
292
100
AcDbEntity
  8
001
370
    50
100
AcDbVertex
100
AcDb2dVertex
 10
40.699711
 20
99.878171
 30
0.0
  0
VERTEX
  5
296
330
292
100
AcDbEntity
  8
001
370
    50
100
AcDbVertex
100
AcDb2dVertex
 10
40.292273
 20
99.828894
 30
0.0
  0
VERTEX
  5
297
330
292
100
AcDbEntity
  8
001
370
    50
100
AcDbVertex
100
AcDb2dVertex
 10
40.057089
 20
99.77914
 30
0.0
  0
VERTEX
  5
298
330
292
100
AcDbEntity
  8
001
370
    50
100
AcDbVertex
100
AcDb2dVertex
 10
39.897727
 20
99.737583
 30
0.0
  0
SEQEND
  5
293
330
292
100
AcDbEntity
  8
001
370
    50
  0
POLYLINE
  5
299
330
1F
100
AcDbEntity
  8
001
370
    50
100
AcDb2dPolyline
 66
     1
 10
0.0
 20
0.0
 30
0.0
  0
VERTEX
  5
29B
330
299
100
AcDbEntity
  8
001
370
    50
100
AcDbVertex
100
AcDb2dVertex
 10
48.493215
 20
127.330325
 30
0.0
  0
VERTEX
  5
29C
330
299
100
AcDbEntity
  8
001
370
    50
100
AcDbVertex
100
AcDb2dVertex
 10
48.985164
 20
127.572386
 30
0.0
  0
VERTEX
  5
29D
330
299
100
AcDbEntity
  8
001
370
    50
100
AcDbVertex
100
AcDb2dVertex
 10
49.475659
 20
127.817338
 30
0.0
  0
VERTEX
  5
29E
330
299
100
AcDbEntity
  8
001
370
    50
100
AcDbVertex
100
AcDb2dVertex
 10
49.969249
 20
128.070419
 30
0.0
  0
VERTEX
  5
29F
330
299
100
AcDbEntity
  8
001
370
    50
100
AcDbVertex
100
AcDb2dVertex
 10
50.460227
 20
128.328568
 30
0.0
  0
VERTEX
  5
2A0
330
299
100
AcDbEntity
  8
001
370
    50
100
AcDbVertex
100
AcDb2dVertex
 10
51.174846
 20
128.714334
 30
0.0
  0
VERTEX
  5
2A1
330
299
100
AcDbEntity
  8
001
370
    50
100
AcDbVertex
100
AcDb2dVertex
 10
51.884441
 20
129.109242
 30
0.0
  0
VERTEX
  5
2A2
330
299
100
AcDbEntity
  8
001
370
    50
100
AcDbVertex
100
AcDb2dVertex
 10
52.59309
 20
129.515716
 30
0.0
  0
VERTEX
  5
2A3
330
299
100
AcDbEntity
  8
001
370
    50
100
AcDbVertex
100
AcDb2dVertex
 10
53.296712
 20
129.930861
 30
0.0
  0
VERTEX
  5
2A4
330
299
100
AcDbEntity
  8
001
370
    50
100
AcDbVertex
100
AcDb2dVertex
 10
54.0122
 20
130.364551
 30
0.0
  0
VERTEX
  5
2A5
330
299
100
AcDbEntity
  8
001
370
    50
100
AcDbVertex
100
AcDb2dVertex
 10
54.72197
 20
130.807478
 30
0.0
  0
VERTEX
  5
2A6
330
299
100
AcDbEntity
  8
001
370
    50
100
AcDbVertex
100
AcDb2dVertex
 10
55.423082
 20
131.257652
 30
0.0
  0
VERTEX
  5
2A7
330
299
100
AcDbEntity
  8
001
370
    50
100
AcDbVertex
100
AcDb2dVertex
 10
56.120997
 20
131.712835
 30
0.0
  0
SEQEND
  5
29A
330
299
100
AcDbEntity
  8
001
370
    50
  0
POLYLINE
  5
2A8
330
1F
100
AcDbEntity
  8
001
370
    50
100
AcDb2dPolyline
 66
     1
 10
0.0
 20
0.0
 30
0.0
  0
VERTEX
  5
2AA
330
2A8
100
AcDbEntity
  8
001
370
    50
100
AcDbVertex
100
AcDb2dVertex
 10
29.979806
 20
118.336631
 30
0.0
  0
VERTEX
  5
2AB
330
2A8
100
AcDbEntity
  8
001
370
    50
100
AcDbVertex
100
AcDb2dVertex
 10
32.296727
 20
119.466796
 30
0.0
  0
VERTEX
  5
2AC
330
2A8
100
AcDbEntity
  8
001
370
    50
100
AcDbVertex
100
AcDb2dVertex
 10
34.613935
 20
120.596369
 30
0.0
  0
VERTEX
  5
2AD
330
2A8
100
AcDbEntity
  8
001
370
    50
100
AcDbVertex
100
AcDb2dVertex
 10
36.931718
 20
121.724759
 30
0.0
  0
VERTEX
  5
2AE
330
2A8
100
AcDbEntity
  8
001
370
    50
100
AcDbVertex
100
AcDb2dVertex
 10
39.242988
 20
122.847988
 30
0.0
  0
VERTEX
  5
2AF
330
2A8
100
AcDbEntity
  8
001
370
    50
100
AcDbVertex
100
AcDb2dVertex
 10
41.554945
 20
123.969807
 30
0.0
  0
VERTEX
  5
2B0
330
2A8
100
AcDbEntity
  8
001
370
    50
100
AcDbVertex
100
AcDb2dVertex
 10
43.867416
 20
125.090568
 30
0.0
  0
VERTEX
  5
2B1
330
2A8
100
AcDbEntity
  8
001
370
    50
100
AcDbVertex
100
AcDb2dVertex
 10
46.18023
 20
126.210623
 30
0.0
  0
VERTEX
  5
2B2
330
2A8
100
AcDbEntity
  8
001
370
    50
100
AcDbVertex
100
AcDb2dVertex
 10
48.493215
 20
127.330325
 30
0.0
  0
SEQEND
  5
2A9
330
2A8
100
AcDbEntity
  8
001
370
    50
  0
LINE
  5
2B3
330
1F
100
AcDbEntity
  8
001
370
    50
100
AcDbLine
 10
29.979806
 20
115.816584
 30
0.0
 11
29.979806
 21
118.336631
 31
0.0
  0
ARC
  5
2B4
330
1F
100
AcDbEntity
  8
001
370
    50
100
AcDbCircle
 10
52.726836
 20
93.043686
 30
0.0
 40
0.3950000000000001
100
AcDbArc
 50
13.633617
 51
166.366383
  0
ARC
  5
2B5
330
1F
100
AcDbEntity
  8
001
370
    50
100
AcDbCircle
 10
51.66608
 20
93.300969
 30
0.0
 40
0.6965113125890092
100
AcDbArc
 50
253.633617
 51
346.366383
  0
ARC
  5
2B6
330
1F
100
AcDbEntity
  8
001
370
    50
100
AcDbCircle
 10
51.358516
 20
92.253686
 30
0.0
 40
0.3950000000000001
100
AcDbArc
 50
73.633617
 51
226.366383
  0
ARC
  5
2B7
330
1F
100
AcDbEntity
  8
001
370
    50
100
AcDbCircle
 10
50.605325
 20
91.463686
 30
0.0
 40
0.6965113125890092
100
AcDbArc
 50
313.633617
 51
46.366383
  0
ARC
  5
2B8
330
1F
100
AcDbEntity
  8
001
370
    50
100
AcDbCircle
 10
51.358516
 20
90.673686
 30
0.0
 40
0.3950000000000001
100
AcDbArc
 50
133.633617
 51
286.366383
  0
ARC
  5
2B9
330
1F
100
AcDbEntity
  8
001
370
    50
100
AcDbCircle
 10
51.66608
 20
89.626404
 30
0.0
 40
0.6965113125890092
100
AcDbArc
 50
13.633617
 51
106.366383
  0
ARC
  5
2BA
330
1F
100
AcDbEntity
  8
001
370
    50
100
AcDbCircle
 10
52.726836
 20
89.883686
 30
0.0
 40
0.3950000000000001
100
AcDbArc
 50
193.633617
 51
346.366383
  0
ARC
  5
2BB
330
1F
100
AcDbEntity
  8
001
370
    50
100
AcDbCircle
 10
53.787591
 20
89.626404
 30
0.0
 40
0.6965113125890092
100
AcDbArc
 50
73.633617
 51
166.366383
  0
ARC
  5
2BC
330
1F
100
AcDbEntity
  8
001
370
    50
100
AcDbCircle
 10
54.095156
 20
90.673686
 30
0.0
 40
0.3950000000000001
100
AcDbArc
 50
253.633617
 51
46.366383
  0
ARC
  5
2BD
330
1F
100
AcDbEntity
  8
001
370
    50
100
AcDbCircle
 10
54.848347
 20
91.463686
 30
0.0
 40
0.6965113125890092
100
AcDbArc
 50
133.633617
 51
226.366383
  0
ARC
  5
2BE
330
1F
100
AcDbEntity
  8
001
370
    50
100
AcDbCircle
 10
54.095156
 20
92.253686
 30
0.0
 40
0.3950000000000001
100
AcDbArc
 50
313.633617
 51
106.366383
  0
ARC
  5
2BF
330
1F
100
AcDbEntity
  8
001
370
    50
100
AcDbCircle
 10
53.787591
 20
93.300969
 30
0.0
 40
0.6965113125890092
100
AcDbArc
 50
193.633617
 51
286.366383
  0
CIRCLE
  5
2C0
330
1F
100
AcDbEntity
  8
001
370
    50
100
AcDbCircle
 10
52.726836
 20
91.463686
 30
0.0
 40
3.0
  0
LINE
  5
2C1
330
1F
100
AcDbEntity
  8
001
370
    50
100
AcDbLine
 10
86.179806
 20
91.309325
 30
0.0
 11
86.179806
 21
123.309325
 31
0.0
  0
LINE
  5
2C2
330
1F
100
AcDbEntity
  8
001
370
    50
100
AcDbLine
 10
86.179806
 20
122.809325
 30
0.0
 11
84.179806
 21
122.809325
 31
0.0
  0
LINE
  5
2C3
330
1F
100
AcDbEntity
  8
001
370
    50
100
AcDbLine
 10
84.179806
 20
91.809325
 30
0.0
 11
86.179806
 21
91.809325
 31
0.0
  0
LINE
  5
2C4
330
1F
100
AcDbEntity
  8
001
370
    50
100
AcDbLine
 10
164.179806
 20
107.309325
 30
0.0
 11
166.777883
 21
108.809325
 31
0.0
  0
LINE
  5
2C5
330
1F
100
AcDbEntity
  8
001
370
    50
100
AcDbLine
 10
164.179806
 20
107.309325
 30
0.0
 11
166.777883
 21
105.809325
 31
0.0
  0
LINE
  5
2C6
330
1F
100
AcDbEntity
  8
001
  6
CENTER
370
     9
100
AcDbLine
 10
26.680982
 20
107.309325
 30
0.0
 11
166.807626
 21
107.309325
 31
0.0
  0
LINE
  5
2C7
330
1F
100
AcDbEntity
  8
001
370
    50
100
AcDbLine
 10
29.979806
 20
107.309325
 30
0.0
 11
27.38173
 21
108.809325
 31
0.0
  0
LINE
  5
2C8
330
1F
100
AcDbEntity
  8
001
370
    50
100
AcDbLine
 10
29.979806
 20
107.309325
 30
0.0
 11
27.38173
 21
105.809325
 31
0.0
  0
LINE
  5
2C9
330
1F
100
AcDbEntity
  8
001
  6
PHANTOM
370
     9
100
AcDbLine
 10
29.379806
 20
95.193855
 30
0.0
 11
29.179806
 21
95.309325
 31
0.0
  0
LINE
  5
2CA
330
1F
100
AcDbEntity
  8
001
370
    50
100
AcDbLine
 10
56.234259
 20
80.144325
 30
0.0
 11
55.553537
 21
80.144325
 31
0.0
  0
LINE
  5
2CB
330
1F
100
AcDbEntity
  8
001
  6
PHANTOM
370
     9
100
AcDbLine
 10
55.446357
 20
80.144325
 30
0.0
 11
55.353537
 21
80.197915
 31
0.0
  0
LINE
  5
2CC
330
1F
100
AcDbEntity
  8
001
370
    50
100
AcDbLine
 10
29.379806
 20
95.193855
 30
0.0
 11
55.353537
 21
80.197915
 31
0.0
  0
ARC
  5
2CD
330
1F
100
AcDbEntity
  8
001
370
    50
100
AcDbCircle
 10
55.553537
 20
80.544325
 30
0.0
 40
0.4
100
AcDbArc
 50
240.0
 51
289.808658
  0
LINE
  5
2CE
330
1F
100
AcDbEntity
  8
001
  6
CENTER
370
     9
100
AcDbLine
 10
55.446357
 20
80.144325
 30
0.0
 11
55.553537
 21
80.144325
 31
0.0
  0
LINE
  5
2CF
330
1F
100
AcDbEntity
  8
001
370
     9
100
AcDbLine
 10
21.507721
 20
80.144325
 30
0.0
 11
55.446357
 21
80.144325
 31
0.0
  0
LINE
  5
2D0
330
1F
100
AcDbEntity
  8
001
370
     9
100
AcDbLine
 10
21.507721
 20
95.309325
 30
0.0
 11
29.179806
 21
95.309325
 31
0.0
  0
LINE
  5
2D1
330
1F
100
AcDbEntity
  8
001
370
    50
100
AcDbLine
 10
77.051555
 20
86.284458
 30
0.0
 11
55.689089
 21
80.167993
 31
0.0
  0
ARC
  5
2D2
330
1F
100
AcDbEntity
  8
001
370
    50
100
AcDbCircle
 10
76.968977
 20
86.572869
 30
0.0
 40
0.3
100
AcDbArc
 50
285.977386
 51
60.644028
  0
LINE
  5
2D3
330
1F
100
AcDbEntity
  8
001
370
    50
100
AcDbLine
 10
56.344362
 20
80.159777
 30
0.0
 11
77.422123
 21
86.194725
 31
0.0
  0
ARC
  5
2D4
330
1F
100
AcDbEntity
  8
001
370
    50
100
AcDbCircle
 10
77.339545
 20
86.483136
 30
0.0
 40
0.3
100
AcDbArc
 50
285.977386
 51
14.863964
  0
ARC
  5
2D5
330
1F
100
AcDbEntity
  8
001
370
    50
100
AcDbCircle
 10
56.234259
 20
80.544325
 30
0.0
 40
0.4
100
AcDbArc
 50
270.0
 51
285.977386
  0
POLYLINE
  5
2D6
330
1F
100
AcDbEntity
  8
001
370
    50
100
AcDb2dPolyline
 66
     1
 10
0.0
 20
0.0
 30
0.0
  0
VERTEX
  5
2D8
330
2D6
100
AcDbEntity
  8
001
370
    50
100
AcDbVertex
100
AcDb2dVertex
 10
59.547741
 20
81.076963
 30
0.0
  0
VERTEX
  5
2D9
330
2D6
100
AcDbEntity
  8
001
370
    50
100
AcDbVertex
100
AcDb2dVertex
 10
62.758153
 20
81.111926
 30
0.0
  0
VERTEX
  5
2DA
330
2D6
100
AcDbEntity
  8
001
370
    50
100
AcDbVertex
100
AcDb2dVertex
 10
66.585865
 20
81.161328
 30
0.0
  0
VERTEX
  5
2DB
330
2D6
100
AcDbEntity
  8
001
370
    50
100
AcDbVertex
100
AcDb2dVertex
 10
70.876449
 20
81.22644
 30
0.0
  0
VERTEX
  5
2DC
330
2D6
100
AcDbEntity
  8
001
370
    50
100
AcDbVertex
100
AcDb2dVertex
 10
75.475478
 20
81.308533
 30
0.0
  0
VERTEX
  5
2DD
330
2D6
100
AcDbEntity
  8
001
370
    50
100
AcDbVertex
100
AcDb2dVertex
 10
80.228523
 20
81.408881
 30
0.0
  0
VERTEX
  5
2DE
330
2D6
100
AcDbEntity
  8
001
370
    50
100
AcDbVertex
100
AcDb2dVertex
 10
80.793349
 20
81.421984
 30
0.0
  0
VERTEX
  5
2DF
330
2D6
100
AcDbEntity
  8
001
370
    50
100
AcDbVertex
100
AcDb2dVertex
 10
81.179806
 20
81.431062
 30
0.0
  0
SEQEND
  5
2D7
330
2D6
100
AcDbEntity
  8
001
370
    50
  0
LINE
  5
2E0
330
1F
100
AcDbEntity
  8
001
370
    50
100
AcDbLine
 10
59.311508
 20
81.009325
 30
0.0
 11
81.179806
 21
81.009325
 31
0.0
  0
ARC
  5
2E1
330
1F
100
AcDbEntity
  8
001
370
    50
100
AcDbCircle
 10
29.579806
 20
95.540265
 30
0.0
 40
0.4
100
AcDbArc
 50
106.832066
 51
240.0
  0
LINE
  5
2E2
330
1F
100
AcDbEntity
  8
001
370
    50
100
AcDbLine
 10
29.979806
 20
111.379893
 30
0.0
 11
29.979806
 21
96.064179
 31
0.0
  0
POLYLINE
  5
2E3
330
1F
100
AcDbEntity
  8
001
370
    50
100
AcDb2dPolyline
 66
     1
 10
0.0
 20
0.0
 30
0.0
  0
VERTEX
  5
2E5
330
2E3
100
AcDbEntity
  8
001
370
    50
100
AcDbVertex
100
AcDb2dVertex
 10
42.093827
 20
99.729016
 30
0.0
  0
VERTEX
  5
2E6
330
2E3
100
AcDbEntity
  8
001
370
    50
100
AcDbVertex
100
AcDb2dVertex
 10
41.922646
 20
99.774751
 30
0.0
  0
VERTEX
  5
2E7
330
2E3
100
AcDbEntity
  8
001
370
    50
100
AcDbVertex
100
AcDb2dVertex
 10
41.669794
 20
99.828894
 30
0.0
  0
VERTEX
  5
2E8
330
2E3
100
AcDbEntity
  8
001
370
    50
100
AcDbVertex
100
AcDb2dVertex
 10
41.262363
 20
99.878169
 30
0.0
  0
VERTEX
  5
2E9
330
2E3
100
AcDbEntity
  8
001
370
    50
100
AcDbVertex
100
AcDb2dVertex
 10
40.981034
 20
99.889663
 30
0.0
  0
SEQEND
  5
2E4
330
2E3
100
AcDbEntity
  8
001
370
    50
  0
LINE
  5
2EA
330
1F
100
AcDbEntity
  8
001
370
    50
100
AcDbLine
 10
49.804629
 20
102.061754
 30
0.0
 11
29.464238
 21
95.923206
 31
0.0
  0
LINE
  5
2EB
330
1F
100
AcDbEntity
  8
001
  6
PHANTOM
370
     9
100
AcDbLine
 10
29.179806
 20
95.309325
 30
0.0
 11
29.179806
 21
95.540265
 31
0.0
  0
POLYLINE
  5
2EC
330
1F
100
AcDbEntity
  8
001
370
    50
100
AcDb2dPolyline
 66
     1
 10
0.0
 20
0.0
 30
0.0
  0
VERTEX
  5
2EE
330
2EC
100
AcDbEntity
  8
001
370
    50
100
AcDbVertex
100
AcDb2dVertex
 10
35.960954
 20
98.610413
 30
0.0
  0
VERTEX
  5
2EF
330
2EC
100
AcDbEntity
  8
001
370
    50
100
AcDbVertex
100
AcDb2dVertex
 10
35.846927
 20
98.574764
 30
0.0
  0
VERTEX
  5
2F0
330
2EC
100
AcDbEntity
  8
001
370
    50
100
AcDbVertex
100
AcDb2dVertex
 10
35.687667
 20
98.521263
 30
0.0
  0
VERTEX
  5
2F1
330
2EC
100
AcDbEntity
  8
001
370
    50
100
AcDbVertex
100
AcDb2dVertex
 10
35.352612
 20
98.388504
 30
0.0
  0
VERTEX
  5
2F2
330
2EC
100
AcDbEntity
  8
001
370
    50
100
AcDbVertex
100
AcDb2dVertex
 10
35.061054
 20
98.226595
 30
0.0
  0
VERTEX
  5
2F3
330
2EC
100
AcDbEntity
  8
001
370
    50
100
AcDbVertex
100
AcDb2dVertex
 10
34.421188
 20
97.730219
 30
0.0
  0
VERTEX
  5
2F4
330
2EC
100
AcDbEntity
  8
001
370
    50
100
AcDbVertex
100
AcDb2dVertex
 10
33.962863
 20
97.280851
 30
0.0
  0
SEQEND
  5
2ED
330
2EC
100
AcDbEntity
  8
001
370
    50
  0
POLYLINE
  5
2F5
330
1F
100
AcDbEntity
  8
001
370
    50
100
AcDb2dPolyline
 66
     1
 10
0.0
 20
0.0
 30
0.0
  0
VERTEX
  5
2F7
330
2F5
100
AcDbEntity
  8
001
370
    50
100
AcDbVertex
100
AcDb2dVertex
 10
36.55063
 20
98.610413
 30
0.0
  0
VERTEX
  5
2F8
330
2F5
100
AcDbEntity
  8
001
370
    50
100
AcDbVertex
100
AcDb2dVertex
 10
36.436501
 20
98.57473
 30
0.0
  0
VERTEX
  5
2F9
330
2F5
100
AcDbEntity
  8
001
370
    50
100
AcDbVertex
100
AcDb2dVertex
 10
36.277343
 20
98.521263
 30
0.0
  0
VERTEX
  5
2FA
330
2F5
100
AcDbEntity
  8
001
370
    50
100
AcDbVertex
100
AcDb2dVertex
 10
35.944196
 20
98.389143
 30
0.0
  0
VERTEX
  5
2FB
330
2F5
100
AcDbEntity
  8
001
370
    50
100
AcDbVertex
100
AcDb2dVertex
 10
35.650729
 20
98.226595
 30
0.0
  0
VERTEX
  5
2FC
330
2F5
100
AcDbEntity
  8
001
370
    50
100
AcDbVertex
100
AcDb2dVertex
 10
35.139729
 20
97.852743
 30
0.0
  0
VERTEX
  5
2FD
330
2F5
100
AcDbEntity
  8
001
370
    50
100
AcDbVertex
100
AcDb2dVertex
 10
34.76316
 20
97.522373
 30
0.0
  0
SEQEND
  5
2F6
330
2F5
100
AcDbEntity
  8
001
370
    50
  0
POLYLINE
  5
2FE
330
1F
100
AcDbEntity
  8
001
370
    50
100
AcDb2dPolyline
 66
     1
 10
0.0
 20
0.0
 30
0.0
  0
VERTEX
  5
300
330
2FE
100
AcDbEntity
  8
001
370
    50
100
AcDbVertex
100
AcDb2dVertex
 10
49.644045
 20
103.12719
 30
0.0
  0
VERTEX
  5
301
330
2FE
100
AcDbEntity
  8
001
370
    50
100
AcDbVertex
100
AcDb2dVertex
 10
49.35322
 20
103.111815
 30
0.0
  0
VERTEX
  5
302
330
2FE
100
AcDbEntity
  8
001
370
    50
100
AcDbVertex
100
AcDb2dVertex
 10
48.955284
 20
103.066421
 30
0.0
  0
VERTEX
  5
303
330
2FE
100
AcDbEntity
  8
001
370
    50
100
AcDbVertex
100
AcDb2dVertex
 10
48.602897
 20
102.991575
 30
0.0
  0
VERTEX
  5
304
330
2FE
100
AcDbEntity
  8
001
370
    50
100
AcDbVertex
100
AcDb2dVertex
 10
48.287451
 20
102.88596
 30
0.0
  0
VERTEX
  5
305
330
2FE
100
AcDbEntity
  8
001
370
    50
100
AcDbVertex
100
AcDb2dVertex
 10
47.970767
 20
102.749673
 30
0.0
  0
VERTEX
  5
306
330
2FE
100
AcDbEntity
  8
001
370
    50
100
AcDbVertex
100
AcDb2dVertex
 10
47.660837
 20
102.591291
 30
0.0
  0
VERTEX
  5
307
330
2FE
100
AcDbEntity
  8
001
370
    50
100
AcDbVertex
100
AcDb2dVertex
 10
46.866286
 20
102.012186
 30
0.0
  0
VERTEX
  5
308
330
2FE
100
AcDbEntity
  8
001
370
    50
100
AcDbVertex
100
AcDb2dVertex
 10
46.209029
 20
101.12719
 30
0.0
  0
VERTEX
  5
309
330
2FE
100
AcDbEntity
  8
001
370
    50
100
AcDbVertex
100
AcDb2dVertex
 10
46.151696
 20
101.022567
 30
0.0
  0
VERTEX
  5
30A
330
2FE
100
AcDbEntity
  8
001
370
    50
100
AcDbVertex
100
AcDb2dVertex
 10
46.112044
 20
100.947295
 30
0.0
  0
SEQEND
  5
2FF
330
2FE
100
AcDbEntity
  8
001
370
    50
  0
POLYLINE
  5
30B
330
1F
100
AcDbEntity
  8
001
370
    50
100
AcDb2dPolyline
 66
     1
 10
0.0
 20
0.0
 30
0.0
  0
VERTEX
  5
30D
330
30B
100
AcDbEntity
  8
001
370
    50
100
AcDbVertex
100
AcDb2dVertex
 10
49.938882
 20
103.116124
 30
0.0
  0
VERTEX
  5
30E
330
30B
100
AcDbEntity
  8
001
370
    50
100
AcDbVertex
100
AcDb2dVertex
 10
49.774448
 20
103.098886
 30
0.0
  0
VERTEX
  5
30F
330
30B
100
AcDbEntity
  8
001
370
    50
100
AcDbVertex
100
AcDb2dVertex
 10
49.54496
 20
103.066421
 30
0.0
  0
VERTEX
  5
310
330
30B
100
AcDbEntity
  8
001
370
    50
100
AcDbVertex
100
AcDb2dVertex
 10
49.187713
 20
102.987754
 30
0.0
  0
VERTEX
  5
311
330
30B
100
AcDbEntity
  8
001
370
    50
100
AcDbVertex
100
AcDb2dVertex
 10
48.877127
 20
102.88596
 30
0.0
  0
VERTEX
  5
312
330
30B
100
AcDbEntity
  8
001
370
    50
100
AcDbVertex
100
AcDb2dVertex
 10
48.566944
 20
102.759851
 30
0.0
  0
VERTEX
  5
313
330
30B
100
AcDbEntity
  8
001
370
    50
100
AcDbVertex
100
AcDb2dVertex
 10
48.250513
 20
102.591291
 30
0.0
  0
VERTEX
  5
314
330
30B
100
AcDbEntity
  8
001
370
    50
100
AcDbVertex
100
AcDb2dVertex
 10
47.366478
 20
101.841995
 30
0.0
  0
VERTEX
  5
315
330
30B
100
AcDbEntity
  8
001
370
    50
100
AcDbVertex
100
AcDb2dVertex
 10
46.817931
 20
101.160395
 30
0.0
  0
SEQEND
  5
30C
330
30B
100
AcDbEntity
  8
001
370
    50
  0
LINE
  5
316
330
1F
100
AcDbEntity
  8
001
370
    50
100
AcDbLine
 10
53.337769
 20
100.55487
 30
0.0
 11
50.721701
 21
102.026301
 31
0.0
  0
POLYLINE
  5
317
330
1F
100
AcDbEntity
  8
001
370
    50
100
AcDb2dPolyline
 66
     1
 10
0.0
 20
0.0
 30
0.0
  0
VERTEX
  5
319
330
317
100
AcDbEntity
  8
001
370
    50
100
AcDbVertex
100
AcDb2dVertex
 10
49.91296
 20
102.076962
 30
0.0
  0
VERTEX
  5
31A
330
317
100
AcDbEntity
  8
001
370
    50
100
AcDbVertex
100
AcDb2dVertex
 10
49.884827
 20
102.075813
 30
0.0
  0
VERTEX
  5
31B
330
317
100
AcDbEntity
  8
001
370
    50
100
AcDbVertex
100
AcDb2dVertex
 10
49.844083
 20
102.070885
 30
0.0
  0
VERTEX
  5
31C
330
317
100
AcDbEntity
  8
001
370
    50
100
AcDbVertex
100
AcDb2dVertex
 10
49.820565
 20
102.06591
 30
0.0
  0
VERTEX
  5
31D
330
317
100
AcDbEntity
  8
001
370
    50
100
AcDbVertex
100
AcDb2dVertex
 10
49.804629
 20
102.061754
 30
0.0
  0
SEQEND
  5
318
330
317
100
AcDbEntity
  8
001
370
    50
  0
ENDSEC
  0
SECTION
  2
OBJECTS
  0
DICTIONARY
  5
C
330
0
100
AcDbDictionary
281
     1
  3
ACAD_GROUP
350
D
  3
ACAD_LAYOUT
350
1A
  3
ACAD_MLEADERSTYLE
350
321
  3
ACAD_MLINESTYLE
350
17
  3
ACAD_PLOTSETTINGS
350
19
  3
ACAD_PLOTSTYLENAME
350
E
  3
ACAD_SCALELIST
350
3B
  3
ACAD_TABLESTYLE
350
320
  3
ACAD_VISUALSTYLE
350
2A
  3
AcDbVariableDictionary
350
31E
  0
DICTIONARY
  5
D
102
{ACAD_REACTORS
330
C
102
}
330
C
100
AcDbDictionary
281
     1
  0
DICTIONARY
  5
1A
102
{ACAD_REACTORS
330
C
102
}
330
C
100
AcDbDictionary
281
     1
  3
Layout1
350
1E
  3
Layout2
350
26
  3
Model
350
22
  0
DICTIONARY
  5
321
102
{ACAD_REACTORS
330
C
102
}
330
C
100
AcDbDictionary
281
     1
  0
DICTIONARY
  5
17
102
{ACAD_REACTORS
330
C
102
}
330
C
100
AcDbDictionary
281
     1
  3
Standard
350
18
  0
DICTIONARY
  5
19
102
{ACAD_REACTORS
330
C
102
}
330
C
100
AcDbDictionary
281
     1
  0
ACDBDICTIONARYWDFLT
  5
E
102
{ACAD_REACTORS
330
C
102
}
330
C
100
AcDbDictionary
281
     1
  3
Normal
350
F
100
AcDbDictionaryWithDefault
340
F
  0
DICTIONARY
  5
3B
102
{ACAD_REACTORS
330
C
102
}
330
C
100
AcDbDictionary
281
     1
  3
A0
350
3C
  3
A1
350
3D
  3
A2
350
3E
  3
A3
350
3F
  3
A4
350
40
  3
A5
350
41
  3
A6
350
42
  3
A7
350
43
  3
A8
350
44
  3
A9
350
45
  3
B0
350
46
  3
B1
350
47
  3
B2
350
48
  3
B3
350
49
  3
B4
350
4A
  3
B5
350
4B
  3
B6
350
4C
  3
B7
350
4D
  3
B8
350
4E
  3
B9
350
4F
  3
C0
350
50
  3
C1
350
51
  3
C2
350
52
  3
C3
350
53
  3
C4
350
54
  3
C5
350
55
  3
C6
350
56
  3
C7
350
57
  3
C8
350
58
  3
C9
350
59
  3
D0
350
5A
  3
D1
350
5B
  3
D2
350
5C
  0
DICTIONARY
  5
320
102
{ACAD_REACTORS
330
C
102
}
330
C
100
AcDbDictionary
281
     1
  0
DICTIONARY
  5
2A
102
{ACAD_REACTORS
330
C
102
}
330
C
100
AcDbDictionary
281
     1
  3
2dWireframe
350
2F
  3
3D Hidden
350
31
  3
3dWireframe
350
30
  3
Basic
350
32
  3
Brighten
350
36
  3
ColorChange
350
3A
  3
Conceptual
350
34
  3
Dim
350
35
  3
Facepattern
350
39
  3
Flat
350
2B
  3
FlatWithEdges
350
2C
  3
Gouraud
350
2D
  3
GouraudWithEdges
350
2E
  3
Linepattern
350
38
  3
Realistic
350
33
  3
Thicken
350
37
  0
DICTIONARY
  5
31E
102
{ACAD_REACTORS
330
C
102
}
330
C
100
AcDbDictionary
281
     1
  3
CANNOSCALE
350
31F
  3
PSOLHEIGHT
350
323
  3
PSOLWIDTH
350
322
  0
LAYOUT
  5
1E
102
{ACAD_REACTORS
330
1A
102
}
330
1A
100
AcDbPlotSettings
  1

  2
none_device
  4

  6

 40
0.0
 41
0.0
 42
0.0
 43
0.0
 44
0.0
 45
0.0
 46
0.0
 47
0.0
 48
0.0
 49
0.0
140
0.0
141
0.0
142
1.0
143
1.0
 70
   688
 72
     0
 73
     0
 74
     5
  7

 75
    16
147
1.0
148
0.0
149
0.0
100
AcDbLayout
  1
Layout1
 70
     1
 71
     1
 10
0.0
 20
0.0
 11
12.0
 21
9.0
 12
0.0
 22
0.0
 32
0.0
 14
1.000000E+20
 24
1.000000E+20
 34
0.0
 15
-1.000000E+20
 25
-1.000000E+20
 35
0.0
146
0.0
 13
0.0
 23
0.0
 33
0.0
 16
1.0
 26
0.0
 36
0.0
 17
0.0
 27
1.0
 37
0.0
 76
     0
330
1B
  0
LAYOUT
  5
26
102
{ACAD_REACTORS
330
1A
102
}
330
1A
100
AcDbPlotSettings
  1

  2
none_device
  4

  6

 40
0.0
 41
0.0
 42
0.0
 43
0.0
 44
0.0
 45
0.0
 46
0.0
 47
0.0
 48
0.0
 49
0.0
140
0.0
141
0.0
142
1.0
143
1.0
 70
   688
 72
     0
 73
     0
 74
     5
  7

 75
    16
147
1.0
148
0.0
149
0.0
100
AcDbLayout
  1
Layout2
 70
     1
 71
     2
 10
0.0
 20
0.0
 11
0.0
 21
0.0
 12
0.0
 22
0.0
 32
0.0
 14
0.0
 24
0.0
 34
0.0
 15
0.0
 25
0.0
 35
0.0
146
0.0
 13
0.0
 23
0.0
 33
0.0
 16
1.0
 26
0.0
 36
0.0
 17
0.0
 27
1.0
 37
0.0
 76
     0
330
23
  0
LAYOUT
  5
22
102
{ACAD_REACTORS
330
1A
102
}
330
1A
100
AcDbPlotSettings
  1

  2
none_device
  4

  6

 40
0.0
 41
0.0
 42
0.0
 43
0.0
 44
0.0
 45
0.0
 46
0.0
 47
0.0
 48
0.0
 49
0.0
140
0.0
141
0.0
142
1.0
143
1.0
 70
  1712
 72
     0
 73
     0
 74
     0
  7

 75
     0
147
1.0
148
0.0
149
0.0
100
AcDbLayout
  1
Model
 70
     1
 71
     0
 10
0.0
 20
0.0
 11
12.0
 21
9.0
 12
0.0
 22
0.0
 32
0.0
 14
-3.542358
 24
35.072006
 34
0.0
 15
193.091705
 25
151.709564
 35
0.0
146
0.0
 13
0.0
 23
0.0
 33
0.0
 16
1.0
 26
0.0
 36
0.0
 17
0.0
 27
1.0
 37
0.0
 76
     0
330
1F
331
29
  0
MLINESTYLE
  5
18
102
{ACAD_REACTORS
330
17
102
}
330
17
100
AcDbMlineStyle
  2
Standard
 70
     0
  3

 62
   256
 51
90.0
 52
90.0
 71
     2
 49
0.5
 62
   256
  6
BYLAYER
 49
-0.5
 62
   256
  6
BYLAYER
  0
ACDBPLACEHOLDER
  5
F
102
{ACAD_REACTORS
330
E
102
}
330
E
  0
SCALE
  5
3C
102
{ACAD_REACTORS
330
3B
102
}
330
3B
100
AcDbScale
 70
     0
300
1:1
140
1.0
141
1.0
290
     1
  0
SCALE
  5
3D
102
{ACAD_REACTORS
330
3B
102
}
330
3B
100
AcDbScale
 70
     0
300
1:2
140
1.0
141
2.0
290
     0
  0
SCALE
  5
3E
102
{ACAD_REACTORS
330
3B
102
}
330
3B
100
AcDbScale
 70
     0
300
1:4
140
1.0
141
4.0
290
     0
  0
SCALE
  5
3F
102
{ACAD_REACTORS
330
3B
102
}
330
3B
100
AcDbScale
 70
     0
300
1:5
140
1.0
141
5.0
290
     0
  0
SCALE
  5
40
102
{ACAD_REACTORS
330
3B
102
}
330
3B
100
AcDbScale
 70
     0
300
1:8
140
1.0
141
8.0
290
     0
  0
SCALE
  5
41
102
{ACAD_REACTORS
330
3B
102
}
330
3B
100
AcDbScale
 70
     0
300
1:10
140
1.0
141
10.0
290
     0
  0
SCALE
  5
42
102
{ACAD_REACTORS
330
3B
102
}
330
3B
100
AcDbScale
 70
     0
300
1:16
140
1.0
141
16.0
290
     0
  0
SCALE
  5
43
102
{ACAD_REACTORS
330
3B
102
}
330
3B
100
AcDbScale
 70
     0
300
1:20
140
1.0
141
20.0
290
     0
  0
SCALE
  5
44
102
{ACAD_REACTORS
330
3B
102
}
330
3B
100
AcDbScale
 70
     0
300
1:30
140
1.0
141
30.0
290
     0
  0
SCALE
  5
45
102
{ACAD_REACTORS
330
3B
102
}
330
3B
100
AcDbScale
 70
     0
300
1:40
140
1.0
141
40.0
290
     0
  0
SCALE
  5
46
102
{ACAD_REACTORS
330
3B
102
}
330
3B
100
AcDbScale
 70
     0
300
1:50
140
1.0
141
50.0
290
     0
  0
SCALE
  5
47
102
{ACAD_REACTORS
330
3B
102
}
330
3B
100
AcDbScale
 70
     0
300
1:100
140
1.0
141
100.0
290
     0
  0
SCALE
  5
48
102
{ACAD_REACTORS
330
3B
102
}
330
3B
100
AcDbScale
 70
     0
300
2:1
140
2.0
141
1.0
290
     0
  0
SCALE
  5
49
102
{ACAD_REACTORS
330
3B
102
}
330
3B
100
AcDbScale
 70
     0
300
4:1
140
4.0
141
1.0
290
     0
  0
SCALE
  5
4A
102
{ACAD_REACTORS
330
3B
102
}
330
3B
100
AcDbScale
 70
     0
300
8:1
140
8.0
141
1.0
290
     0
  0
SCALE
  5
4B
102
{ACAD_REACTORS
330
3B
102
}
330
3B
100
AcDbScale
 70
     0
300
10:1
140
10.0
141
1.0
290
     0
  0
SCALE
  5
4C
102
{ACAD_REACTORS
330
3B
102
}
330
3B
100
AcDbScale
 70
     0
300
100:1
140
100.0
141
1.0
290
     0
  0
SCALE
  5
4D
102
{ACAD_REACTORS
330
3B
102
}
330
3B
100
AcDbScale
 70
     0
300
1/128" = 1'-0"
140
0.007812
141
12.0
290
     0
  0
SCALE
  5
4E
102
{ACAD_REACTORS
330
3B
102
}
330
3B
100
AcDbScale
 70
     0
300
1/64" = 1'-0"
140
0.015625
141
12.0
290
     0
  0
SCALE
  5
4F
102
{ACAD_REACTORS
330
3B
102
}
330
3B
100
AcDbScale
 70
     0
300
1/32" = 1'-0"
140
0.03125
141
12.0
290
     0
  0
SCALE
  5
50
102
{ACAD_REACTORS
330
3B
102
}
330
3B
100
AcDbScale
 70
     0
300
1/16" = 1'-0"
140
0.0625
141
12.0
290
     0
  0
SCALE
  5
51
102
{ACAD_REACTORS
330
3B
102
}
330
3B
100
AcDbScale
 70
     0
300
3/32" = 1'-0"
140
0.09375
141
12.0
290
     0
  0
SCALE
  5
52
102
{ACAD_REACTORS
330
3B
102
}
330
3B
100
AcDbScale
 70
     0
300
1/8" = 1'-0"
140
0.125
141
12.0
290
     0
  0
SCALE
  5
53
102
{ACAD_REACTORS
330
3B
102
}
330
3B
100
AcDbScale
 70
     0
300
3/16" = 1'-0"
140
0.1875
141
12.0
290
     0
  0
SCALE
  5
54
102
{ACAD_REACTORS
330
3B
102
}
330
3B
100
AcDbScale
 70
     0
300
1/4" = 1'-0"
140
0.25
141
12.0
290
     0
  0
SCALE
  5
55
102
{ACAD_REACTORS
330
3B
102
}
330
3B
100
AcDbScale
 70
     0
300
3/8" = 1'-0"
140
0.375
141
12.0
290
     0
  0
SCALE
  5
56
102
{ACAD_REACTORS
330
3B
102
}
330
3B
100
AcDbScale
 70
     0
300
1/2" = 1'-0"
140
0.5
141
12.0
290
     0
  0
SCALE
  5
57
102
{ACAD_REACTORS
330
3B
102
}
330
3B
100
AcDbScale
 70
     0
300
3/4" = 1'-0"
140
0.75
141
12.0
290
     0
  0
SCALE
  5
58
102
{ACAD_REACTORS
330
3B
102
}
330
3B
100
AcDbScale
 70
     0
300
1" = 1'-0"
140
1.0
141
12.0
290
     0
  0
SCALE
  5
59
102
{ACAD_REACTORS
330
3B
102
}
330
3B
100
AcDbScale
 70
     0
300
1-1/2" = 1'-0"
140
1.5
141
12.0
290
     0
  0
SCALE
  5
5A
102
{ACAD_REACTORS
330
3B
102
}
330
3B
100
AcDbScale
 70
     0
300
3" = 1'-0"
140
3.0
141
12.0
290
     0
  0
SCALE
  5
5B
102
{ACAD_REACTORS
330
3B
102
}
330
3B
100
AcDbScale
 70
     0
300
6" = 1'-0"
140
6.0
141
12.0
290
     0
  0
SCALE
  5
5C
102
{ACAD_REACTORS
330
3B
102
}
330
3B
100
AcDbScale
 70
     0
300
1'-0" = 1'-0"
140
12.0
141
12.0
290
     0
  0
VISUALSTYLE
  5
2F
102
{ACAD_REACTORS
330
2A
102
}
330
2A
100
AcDbVisualStyle
  2
2dWireframe
 70
     4
 71
     0
 72
     2
 73
     0
 90
        0
 40
-0.6
 41
-30.0
 62
     5
 63
     7
 74
     1
 91
        4
 64
     7
 65
   257
 75
     1
175
     1
 42
1.0
 92
        0
 66
   257
 43
1.0
 76
     1
 77
     6
 78
     2
 67
     7
 79
     5
170
     0
171
     0
290
     0
174
     0
 93
        1
 44
0.0
173
     0
291
     0
 45
0.0
1001
ACAD
1000
AcDbSavedByObjectVersion
1070
     0
  0
VISUALSTYLE
  5
31
102
{ACAD_REACTORS
330
2A
102
}
330
2A
100
AcDbVisualStyle
  2
3D Hidden
 70
     6
 71
     1
 72
     2
 73
     2
 90
        0
 40
-0.6
 41
-30.0
 62
     5
 63
     7
 74
     2
 91
        2
 64
     7
 65
   257
 75
     2
175
     1
 42
40.0
 92
        0
 66
   257
 43
1.0
 76
     1
 77
     6
 78
     2
 67
     7
 79
     3
170
     0
171
     0
290
     0
174
     0
 93
        1
 44
0.0
173
     0
291
     0
 45
0.0
1001
ACAD
1000
AcDbSavedByObjectVersion
1070
     0
  0
VISUALSTYLE
  5
30
102
{ACAD_REACTORS
330
2A
102
}
330
2A
100
AcDbVisualStyle
  2
3dWireframe
 70
     5
 71
     0
 72
     2
 73
     0
 90
        0
 40
-0.6
 41
-30.0
 62
     5
 63
     7
 74
     1
 91
        4
 64
     7
 65
   257
 75
     1
175
     1
 42
1.0
 92
        0
 66
   257
 43
1.0
 76
     1
 77
     6
 78
     2
 67
     7
 79
     5
170
     0
171
     0
290
     0
174
     0
 93
        1
 44
0.0
173
     0
291
     0
 45
0.0
1001
ACAD
1000
AcDbSavedByObjectVersion
1070
     0
  0
VISUALSTYLE
  5
32
102
{ACAD_REACTORS
330
2A
102
}
330
2A
100
AcDbVisualStyle
  2
Basic
 70
     7
 71
     1
 72
     0
 73
     1
 90
        0
 40
-0.6
 41
-30.0
 62
     5
 63
     7
 74
     0
 91
        4
 64
     7
 65
   257
 75
     1
175
     1
 42
1.0
 92
        8
 66
     7
 43
1.0
 76
     1
 77
     6
 78
     2
 67
     7
 79
     5
170
     0
171
     0
290
     0
174
     0
 93
        1
 44
0.0
173
     0
291
     1
 45
0.0
1001
ACAD
1000
AcDbSavedByObjectVersion
1070
     0
  0
VISUALSTYLE
  5
36
102
{ACAD_REACTORS
330
2A
102
}
330
2A
100
AcDbVisualStyle
  2
Brighten
 70
    12
 71
     2
 72
     2
 73
     0
 90
        0
 40
-0.6
 41
-30.0
 62
     5
 63
     7
 74
     1
 91
        4
 64
     7
 65
   257
 75
     1
175
     1
 42
1.0
 92
        8
 66
     7
 43
1.0
 76
     1
 77
     6
 78
     2
 67
     7
 79
     5
170
     0
171
     0
290
     0
174
     0
 93
        1
 44
50.0
173
     0
291
     1
 45
0.0
1001
ACAD
1000
AcDbSavedByObjectVersion
1070
     0
  0
VISUALSTYLE
  5
3A
102
{ACAD_REACTORS
330
2A
102
}
330
2A
100
AcDbVisualStyle
  2
ColorChange
 70
    16
 71
     2
 72
     2
 73
     3
 90
        0
 40
-0.6
 41
-30.0
 62
     5
 63
     8
 74
     1
 91
        4
 64
     7
 65
   257
 75
     1
175
     1
 42
1.0
 92
        8
 66
     8
 43
1.0
 76
     1
 77
     6
 78
     2
 67
     7
 79
     5
170
     0
171
     0
290
     0
174
     0
 93
        1
 44
0.0
173
     0
291
     1
 45
0.0
1001
ACAD
1000
AcDbSavedByObjectVersion
1070
     0
  0
VISUALSTYLE
  5
34
102
{ACAD_REACTORS
330
2A
102
}
330
2A
100
AcDbVisualStyle
  2
Conceptual
 70
     9
 71
     3
 72
     2
 73
     0
 90
        0
 40
-0.6
 41
-30.0
 62
     5
 63
     7
 74
     2
 91
        2
 64
     7
 65
   257
 75
     1
175
     1
 42
40.0
 92
        8
 66
     7
 43
1.0
 76
     1
 77
     6
 78
     2
 67
     7
 79
     3
170
     0
171
     0
290
     0
174
     0
 93
        1
 44
0.0
173
     0
291
     0
 45
0.0
1001
ACAD
1000
AcDbSavedByObjectVersion
1070
     0
  0
VISUALSTYLE
  5
35
102
{ACAD_REACTORS
330
2A
102
}
330
2A
100
AcDbVisualStyle
  2
Dim
 70
    11
 71
     2
 72
     2
 73
     0
 90
        0
 40
-0.6
 41
-30.0
 62
     5
 63
     7
 74
     1
 91
        4
 64
     7
 65
   257
 75
     1
175
     1
 42
1.0
 92
        8
 66
     7
 43
1.0
 76
     1
 77
     6
 78
     2
 67
     7
 79
     5
170
     0
171
     0
290
     0
174
     0
 93
        1
 44
-50.0
173
     0
291
     1
 45
0.0
1001
ACAD
1000
AcDbSavedByObjectVersion
1070
     0
  0
VISUALSTYLE
  5
39
102
{ACAD_REACTORS
330
2A
102
}
330
2A
100
AcDbVisualStyle
  2
Facepattern
 70
    15
 71
     2
 72
     2
 73
     0
 90
        0
 40
-0.6
 41
-30.0
 62
     5
 63
     7
 74
     1
 91
        4
 64
     7
 65
   257
 75
     1
175
     1
 42
1.0
 92
        8
 66
     7
 43
1.0
 76
     1
 77
     6
 78
     2
 67
     7
 79
     5
170
     0
171
     0
290
     0
174
     0
 93
        1
 44
0.0
173
     0
291
     1
 45
0.0
1001
ACAD
1000
AcDbSavedByObjectVersion
1070
     0
  0
VISUALSTYLE
  5
2B
102
{ACAD_REACTORS
330
2A
102
}
330
2A
100
AcDbVisualStyle
  2
Flat
 70
     0
 71
     2
 72
     1
 73
     1
 90
        2
 40
-0.6
 41
30.0
 62
     5
 63
     7
 74
     0
 91
        4
 64
     7
 65
   257
 75
     1
175
     1
 42
1.0
 92
        8
 66
     7
 43
1.0
 76
     1
 77
     6
 78
     2
 67
     7
 79
     5
170
     0
171
     0
290
     0
174
     0
 93
       13
 44
0.0
173
     0
291
     1
 45
0.0
1001
ACAD
1000
AcDbSavedByObjectVersion
1070
     0
  0
VISUALSTYLE
  5
2C
102
{ACAD_REACTORS
330
2A
102
}
330
2A
100
AcDbVisualStyle
  2
FlatWithEdges
 70
     1
 71
     2
 72
     1
 73
     1
 90
        2
 40
-0.6
 41
30.0
 62
     5
 63
     7
 74
     1
 91
        4
 64
     7
 65
   257
 75
     1
175
     1
 42
1.0
 92
        0
 66
   257
 43
1.0
 76
     1
 77
     6
 78
     2
 67
     7
 79
     5
170
     0
171
     0
290
     0
174
     0
 93
       13
 44
0.0
173
     0
291
     1
 45
0.0
1001
ACAD
1000
AcDbSavedByObjectVersion
1070
     0
  0
VISUALSTYLE
  5
2D
102
{ACAD_REACTORS
330
2A
102
}
330
2A
100
AcDbVisualStyle
  2
Gouraud
 70
     2
 71
     2
 72
     2
 73
     1
 90
        2
 40
-0.6
 41
30.0
 62
     5
 63
     7
 74
     0
 91
        4
 64
     7
 65
   257
 75
     1
175
     1
 42
1.0
 92
        0
 66
     7
 43
1.0
 76
     1
 77
     6
 78
     2
 67
     7
 79
     5
170
     0
171
     0
290
     0
174
     0
 93
       13
 44
0.0
173
     0
291
     1
 45
0.0
1001
ACAD
1000
AcDbSavedByObjectVersion
1070
     0
  0
VISUALSTYLE
  5
2E
102
{ACAD_REACTORS
330
2A
102
}
330
2A
100
AcDbVisualStyle
  2
GouraudWithEdges
 70
     3
 71
     2
 72
     2
 73
     1
 90
        2
 40
-0.6
 41
30.0
 62
     5
 63
     7
 74
     1
 91
        4
 64
     7
 65
   257
 75
     1
175
     1
 42
1.0
 92
        0
 66
   257
 43
1.0
 76
     1
 77
     6
 78
     2
 67
     7
 79
     5
170
     0
171
     0
290
     0
174
     0
 93
       13
 44
0.0
173
     0
291
     1
 45
0.0
1001
ACAD
1000
AcDbSavedByObjectVersion
1070
     0
  0
VISUALSTYLE
  5
38
102
{ACAD_REACTORS
330
2A
102
}
330
2A
100
AcDbVisualStyle
  2
Linepattern
 70
    14
 71
     2
 72
     2
 73
     0
 90
        0
 40
-0.6
 41
-30.0
 62
     5
 63
     7
 74
     1
 91
        4
 64
     7
 65
   257
 75
     7
175
     7
 42
1.0
 92
        8
 66
     7
 43
1.0
 76
     1
 77
     6
 78
     2
 67
     7
 79
     5
170
     0
171
     0
290
     0
174
     0
 93
        1
 44
0.0
173
     0
291
     1
 45
0.0
1001
ACAD
1000
AcDbSavedByObjectVersion
1070
     0
  0
VISUALSTYLE
  5
33
102
{ACAD_REACTORS
330
2A
102
}
330
2A
100
AcDbVisualStyle
  2
Realistic
 70
     8
 71
     2
 72
     2
 73
     0
 90
        0
 40
-0.6
 41
-30.0
 62
     5
 63
     7
 74
     1
 91
        0
 64
     7
 65
   257
 75
     1
175
     1
 42
1.0
 92
        8
 66
     8
 43
1.0
 76
     1
 77
     6
 78
     2
 67
     7
 79
     5
170
     0
171
     0
290
     0
174
     0
 93
       13
 44
0.0
173
     0
291
     0
 45
0.0
1001
ACAD
1000
AcDbSavedByObjectVersion
1070
     0
  0
VISUALSTYLE
  5
37
102
{ACAD_REACTORS
330
2A
102
}
330
2A
100
AcDbVisualStyle
  2
Thicken
 70
    13
 71
     2
 72
     2
 73
     0
 90
        0
 40
-0.6
 41
-30.0
 62
     5
 63
     7
 74
     1
 91
        4
 64
     7
 65
   257
 75
     1
175
     1
 42
1.0
 92
       12
 66
     7
 43
1.0
 76
     1
 77
     6
 78
     2
 67
     7
 79
     5
170
     0
171
     0
290
     0
174
     0
 93
        1
 44
0.0
173
     0
291
     1
 45
0.0
1001
ACAD
1000
AcDbSavedByObjectVersion
1070
     0
  0
DICTIONARYVAR
  5
31F
102
{ACAD_REACTORS
330
31E
102
}
330
31E
100
DictionaryVariables
280
     0
  1
1:1
  0
DICTIONARYVAR
  5
323
102
{ACAD_REACTORS
330
31E
102
}
330
31E
100
DictionaryVariables
280
     0
  1
80.000000
  0
DICTIONARYVAR
  5
322
102
{ACAD_REACTORS
330
31E
102
}
330
31E
100
DictionaryVariables
280
     0
  1
5.000000
  0
ENDSEC
  0
EOF
