  0
SECTION
  2
HEADER
  9
$ACADVER
  1
AC1009
  9
$INSBASE
 10
0.0
 20
0.0
 30
0.0
  9
$EXTMIN
 10
45.978669932625159
 20
37.924527000000012
 30
0.0
  9
$EXTMAX
 10
197.563333
 20
152.3979756666667
 30
0.0
  9
$LIMMIN
 10
0.0
 20
0.0
  9
$LIMMAX
 10
12.0
 20
9.0
  9
$ORTHOMODE
 70
     0
  9
$REGENMODE
 70
     1
  9
$FILLMODE
 70
     1
  9
$QTEXTMODE
 70
     0
  9
$MIRRTEXT
 70
     1
  9
$DRAGMODE
 70
     2
  9
$LTSCALE
 40
1.901538999999999
  9
$OSMODE
 70
  2999
  9
$ATTMODE
 70
     1
  9
$TEXTSIZE
 40
0.2
  9
$TRACEWID
 40
1.0
  9
$TEXTSTYLE
  7
STANDARD
  9
$CLAYER
  8
0
  9
$CELTYPE
  6
BYLAYER
  9
$CECOLOR
 62
   256
  9
$DIMSCALE
 40
1.0
  9
$DIMASZ
 40
2.5
  9
$DIMEXO
 40
0.625
  9
$DIMDLI
 40
3.75
  9
$DIMRND
 40
0.0
  9
$DIMDLE
 40
0.0
  9
$DIMEXE
 40
1.25
  9
$DIMTP
 40
0.0
  9
$DIMTM
 40
0.0
  9
$DIMTXT
 40
2.5
  9
$DIMCEN
 40
0.09
  9
$DIMTSZ
 40
0.0
  9
$DIMTOL
 70
     0
  9
$DIMLIM
 70
     0
  9
$DIMTIH
 70
     0
  9
$DIMTOH
 70
     0
  9
$DIMSE1
 70
     0
  9
$DIMSE2
 70
     0
  9
$DIMTAD
 70
     0
  9
$DIMZIN
 70
     8
  9
$DIMBLK
  1

  9
$DIMASO
 70
     1
  9
$DIMSHO
 70
     0
  9
$DIMPOST
  1

  9
$DIMAPOST
  1

  9
$DIMALT
 70
     0
  9
$DIMALTD
 70
     3
  9
$DIMALTF
 40
0.03937
  9
$DIMLFAC
 40
1.0
  9
$DIMTOFL
 70
     1
  9
$DIMTVP
 40
0.0
  9
$DIMTIX
 70
     0
  9
$DIMSOXD
 70
     0
  9
$DIMSAH
 70
     0
  9
$DIMBLK1
  1

  9
$DIMBLK2
  1

  9
$DIMSTYLE
  2
ISO-25
  9
$DIMCLRD
 70
     0
  9
$DIMCLRE
 70
     0
  9
$DIMCLRT
 70
     0
  9
$DIMTFAC
 40
1.0
  9
$DIMGAP
 40
0.625
  9
$LUNITS
 70
     2
  9
$LUPREC
 70
     4
  9
$SKETCHINC
 40
1.0
  9
$FILLETRAD
 40
0.0
  9
$AUNITS
 70
     0
  9
$AUPREC
 70
     0
  9
$MENU
  1
.
  9
$ELEVATION
 40
0.0
  9
$PELEVATION
 40
0.0
  9
$THICKNESS
 40
0.0
  9
$LIMCHECK
 70
     0
  9
$BLIPMODE
 70
     0
  9
$CHAMFERA
 40
10.0
  9
$CHAMFERB
 40
10.0
  9
$SKPOLY
 70
     0
  9
$TDCREATE
 40
2456244.5730736349
  9
$TDUPDATE
 40
2456244.584437211
  9
$TDINDWG
 40
0.0003325926
  9
$TDUSRTIMER
 40
0.0003322222
  9
$USRTIMER
 70
     1
  9
$ANGBASE
 50
0.0
  9
$ANGDIR
 70
     0
  9
$PDMODE
 70
     0
  9
$PDSIZE
 40
0.0
  9
$PLINEWID
 40
0.0
  9
$COORDS
 70
     2
  9
$SPLFRAME
 70
     0
  9
$SPLINETYPE
 70
     6
  9
$SPLINESEGS
 70
     8
  9
$ATTDIA
 70
     0
  9
$ATTREQ
 70
     1
  9
$HANDLING
 70
     1
  9
$HANDSEED
  5
247
  9
$SURFTAB1
 70
     6
  9
$SURFTAB2
 70
     6
  9
$SURFTYPE
 70
     6
  9
$SURFU
 70
     6
  9
$SURFV
 70
     6
  9
$UCSNAME
  2

  9
$UCSORG
 10
0.0
 20
0.0
 30
0.0
  9
$UCSXDIR
 10
1.0
 20
0.0
 30
0.0
  9
$UCSYDIR
 10
0.0
 20
1.0
 30
0.0
  9
$PUCSNAME
  2

  9
$PUCSORG
 10
0.0
 20
0.0
 30
0.0
  9
$PUCSXDIR
 10
1.0
 20
0.0
 30
0.0
  9
$PUCSYDIR
 10
0.0
 20
1.0
 30
0.0
  9
$USERI1
 70
     0
  9
$USERI2
 70
     0
  9
$USERI3
 70
     0
  9
$USERI4
 70
     0
  9
$USERI5
 70
     0
  9
$USERR1
 40
0.0
  9
$USERR2
 40
0.0
  9
$USERR3
 40
0.0
  9
$USERR4
 40
0.0
  9
$USERR5
 40
0.0
  9
$WORLDVIEW
 70
     1
  9
$SHADEDGE
 70
     3
  9
$SHADEDIF
 70
    70
  9
$TILEMODE
 70
     1
  9
$MAXACTVP
 70
    64
  9
$PLIMCHECK
 70
     0
  9
$PEXTMIN
 10
1.0000000000000000E+020
 20
1.0000000000000000E+020
 30
0.0
  9
$PEXTMAX
 10
-1.0000000000000000E+020
 20
-1.0000000000000000E+020
 30
0.0
  9
$PLIMMIN
 10
0.0
 20
0.0
  9
$PLIMMAX
 10
12.0
 20
9.0
  9
$UNITMODE
 70
     0
  9
$VISRETAIN
 70
     1
  9
$PLINEGEN
 70
     0
  9
$PSLTSCALE
 70
     1
  0
ENDSEC
  0
SECTION
  2
TABLES
  0
TABLE
  2
VPORT
 70
     2
  0
VPORT
  2
*ACTIVE
 70
     0
 10
0.0
 20
0.0
 11
1.0
 21
1.0
 12
121.771004
 22
99.719492708155002
 13
0.0
 23
0.0
 14
1.0
 24
1.0
 15
0.0
 25
0.0
 16
0.0
 26
0.0
 36
1.0
 17
0.0
 27
0.0
 37
0.0
 40
124.73799341631
 41
1.572199730094467
 42
50.0
 43
0.0
 44
0.0
 50
0.0
 51
0.0
 71
     0
 72
   100
 73
     1
 74
     3
 75
     0
 76
     0
 77
     0
 78
     0
  0
ENDTAB
  0
TABLE
  2
LTYPE
 70
     5
  0
LTYPE
  2
CONTINUOUS
 70
     0
  3
Solid line
 72
    65
 73
     0
 40
0.0
  0
LTYPE
  2
DASHED
 70
     0
  3
DASHED
 72
    83
 73
     2
 40
0.75
 49
0.5
 49
-0.25
  0
LTYPE
  2
HIDDEN
 70
     0
  3
HIDDEN
 72
    83
 73
     2
 40
0.375
 49
0.25
 49
-0.125
  0
LTYPE
  2
CENTER
 70
     0
  3
CENTER
 72
    83
 73
     4
 40
2.0
 49
1.25
 49
-0.25
 49
0.25
 49
-0.25
  0
LTYPE
  2
PHANTOM
 70
     0
  3
PHANTOM
 72
    83
 73
     6
 40
2.5
 49
1.25
 49
-0.25
 49
0.25
 49
-0.25
 49
0.25
 49
-0.25
  0
ENDTAB
  0
TABLE
  2
LAYER
 70
     3
  0
LAYER
  2
0
 70
     0
 62
     7
  6
CONTINUOUS
  0
LAYER
  2
001
 70
     0
 62
     7
  6
CONTINUOUS
  0
LAYER
  2
DEFPOINTS
 70
     0
 62
     7
  6
CONTINUOUS
  0
ENDTAB
  0
TABLE
  2
STYLE
 70
     2
  0
STYLE
  2
STANDARD
 70
     0
 40
0.0
 41
1.0
 50
0.0
 71
     0
 42
0.2
  3
TXT
  4
BIGFONT
  0
STYLE
  2
TATEGAKI
 70
     4
 40
1.0
 41
1.0
 50
0.0
 71
     0
 42
0.2
  3
TXT
  4
BIGFONT
  0
ENDTAB
  0
TABLE
  2
VIEW
 70
     0
  0
ENDTAB
  0
TABLE
  2
UCS
 70
     0
  0
ENDTAB
  0
TABLE
  2
APPID
 70
     1
  0
APPID
  2
ACAD
 70
     0
  0
ENDTAB
  0
TABLE
  2
DIMSTYLE
 70
     2
  0
DIMSTYLE
  2
ISO-25
 70
     0
  3

  4

  5

  6

  7

 40
1.0
 41
2.5
 42
0.625
 43
3.75
 44
1.25
 45
0.0
 46
0.0
 47
0.0
 48
0.0
140
2.5
141
2.5
142
0.0
143
0.03937
144
1.0
145
0.0
146
1.0
147
0.625
 71
     0
 72
     0
 73
     0
 74
     0
 75
     0
 76
     0
 77
     1
 78
     8
170
     0
171
     3
172
     1
173
     0
174
     0
175
     0
176
     0
177
     0
178
     0
  0
DIMSTYLE
  2
STANDARD
 70
     0
  3

  4

  5

  6

  7

 40
1.0
 41
1.5
 42
0.0
 43
0.38
 44
2.75
 45
0.0
 46
0.0
 47
0.0
 48
0.0
140
4.0
141
0.09
142
0.0
143
25.399999999999999
144
1.0
145
0.0
146
0.8
147
1.0
 71
     0
 72
     0
 73
     0
 74
     0
 75
     0
 76
     0
 77
     1
 78
     8
170
     0
171
     2
172
     1
173
     0
174
     0
175
     0
176
     0
177
     0
178
     0
  0
ENDTAB
  0
ENDSEC
  0
SECTION
  2
BLOCKS
  0
BLOCK
  8
0
  2
$MODEL_SPACE
 70
     0
 10
0.0
 20
0.0
 30
0.0
  3
$MODEL_SPACE
  1

  0
ENDBLK
  5
21
  8
0
  0
BLOCK
 67
     1
  8
0
  2
$PAPER_SPACE
 70
     0
 10
0.0
 20
0.0
 30
0.0
  3
$PAPER_SPACE
  1

  0
ENDBLK
  5
1D
 67
     1
  8
0
  0
BLOCK
  8
0
  2
*D1
 70
     1
 10
0.0
 20
0.0
 30
0.0
  3
*D1
  1

  0
LINE
  5
67
  8
001
 10
98.374564000000007
 20
108.699583
 30
0.0
 11
98.374564000000007
 21
88.660996999999995
 31
0.0
  0
LINE
  5
68
  8
001
 10
68.374564000000007
 20
118.725303
 30
0.0
 11
68.374564000000007
 21
88.660996999999995
 31
0.0
  0
LINE
  5
69
  8
001
 10
98.374564000000007
 20
90.035996999999995
 30
0.0
 11
68.374564000000007
 21
90.035996999999995
 31
0.0
  0
POLYLINE
  5
6A
  8
001
 66
     1
 10
0.0
 20
0.0
 30
0.0
  0
VERTEX
  5
6C
  8
001
 10
97.624564000000007
 20
90.236958000000001
 30
0.0
  0
VERTEX
  5
6D
  8
001
 10
98.374564000000007
 20
90.035996999999995
 30
0.0
  0
VERTEX
  5
6E
  8
001
 10
97.624564000000007
 20
89.835034999999991
 30
0.0
  0
SEQEND
  5
6B
  8
001
  0
POLYLINE
  5
6F
  8
001
 66
     1
 10
0.0
 20
0.0
 30
0.0
  0
VERTEX
  5
71
  8
001
 10
69.124564000000007
 20
89.835034999999991
 30
0.0
  0
VERTEX
  5
72
  8
001
 10
68.374564000000007
 20
90.035996999999995
 30
0.0
  0
VERTEX
  5
73
  8
001
 10
69.124564000000007
 20
90.236958000000001
 30
0.0
  0
SEQEND
  5
70
  8
001
  0
TEXT
  5
74
  8
001
 10
81.374564000000007
 20
90.535996999999995
 30
0.0
 40
2.0
  1
３０
 41
0.833333
  0
POINT
  5
75
  8
001
 10
98.374564000000007
 20
108.699583
 30
0.0
  0
POINT
  5
76
  8
001
 10
68.374564000000007
 20
118.725303
 30
0.0
  0
POINT
  5
77
  8
001
 10
68.374564000000007
 20
90.035996999999995
 30
0.0
  0
ENDBLK
  5
66
  8
0
  0
BLOCK
  8
0
  2
*D2
 70
     1
 10
0.0
 20
0.0
 30
0.0
  3
*D2
  1

  0
LINE
  5
7B
  8
001
 10
178.37456399999999
 20
111.89958300000001
 30
0.0
 11
178.37456399999999
 21
88.660996999999995
 31
0.0
  0
LINE
  5
7C
  8
001
 10
98.374564000000007
 20
108.699583
 30
0.0
 11
98.374564000000007
 21
88.660996999999995
 31
0.0
  0
LINE
  5
7D
  8
001
 10
178.37456399999999
 20
90.035996999999995
 30
0.0
 11
98.374564000000007
 21
90.035996999999995
 31
0.0
  0
POLYLINE
  5
7E
  8
001
 66
     1
 10
0.0
 20
0.0
 30
0.0
  0
VERTEX
  5
80
  8
001
 10
177.62456399999999
 20
90.236958000000001
 30
0.0
  0
VERTEX
  5
81
  8
001
 10
178.37456399999999
 20
90.035996999999995
 30
0.0
  0
VERTEX
  5
82
  8
001
 10
177.62456399999999
 20
89.835034999999991
 30
0.0
  0
SEQEND
  5
7F
  8
001
  0
POLYLINE
  5
83
  8
001
 66
     1
 10
0.0
 20
0.0
 30
0.0
  0
VERTEX
  5
85
  8
001
 10
99.124564000000007
 20
89.835034999999991
 30
0.0
  0
VERTEX
  5
86
  8
001
 10
98.374564000000007
 20
90.035996999999995
 30
0.0
  0
VERTEX
  5
87
  8
001
 10
99.124564000000007
 20
90.236958000000001
 30
0.0
  0
SEQEND
  5
84
  8
001
  0
TEXT
  5
88
  8
001
 10
137.37456399999999
 20
90.535996999999995
 30
0.0
 40
2.0
  1
ｌ
 41
0.833333
  0
POINT
  5
89
  8
001
 10
178.37456399999999
 20
111.89958300000001
 30
0.0
  0
POINT
  5
8A
  8
001
 10
98.374564000000007
 20
108.699583
 30
0.0
  0
POINT
  5
8B
  8
001
 10
98.374564000000007
 20
90.035996999999995
 30
0.0
  0
ENDBLK
  5
7A
  8
0
  0
BLOCK
  8
0
  2
*D3
 70
     1
 10
0.0
 20
0.0
 30
0.0
  3
*D3
  1

  0
LINE
  5
8F
  8
001
 10
175.37456399999999
 20
108.89958300000001
 30
0.0
 11
197.563333
 21
108.89958300000001
 31
0.0
  0
LINE
  5
90
  8
001
 10
175.37456399999999
 20
128.89958300000001
 30
0.0
 11
197.563333
 21
128.89958300000001
 31
0.0
  0
LINE
  5
91
  8
001
 10
196.188333
 20
108.89958300000001
 30
0.0
 11
196.188333
 21
128.89958300000001
 31
0.0
  0
POLYLINE
  5
92
  8
001
 66
     1
 10
0.0
 20
0.0
 30
0.0
  0
VERTEX
  5
94
  8
001
 10
196.389295
 20
109.64958300000001
 30
0.0
  0
VERTEX
  5
95
  8
001
 10
196.188333
 20
108.89958300000001
 30
0.0
  0
VERTEX
  5
96
  8
001
 10
195.987371
 20
109.64958300000001
 30
0.0
  0
SEQEND
  5
93
  8
001
  0
POLYLINE
  5
97
  8
001
 66
     1
 10
0.0
 20
0.0
 30
0.0
  0
VERTEX
  5
99
  8
001
 10
195.987371
 20
128.14958300000001
 30
0.0
  0
VERTEX
  5
9A
  8
001
 10
196.188333
 20
128.89958300000001
 30
0.0
  0
VERTEX
  5
9B
  8
001
 10
196.389295
 20
128.14958300000001
 30
0.0
  0
SEQEND
  5
98
  8
001
  0
TEXT
  5
9C
  8
001
 10
195.688333
 20
115.89958300000001
 30
0.0
 40
2.0
  1
%%c２０
 50
90.000003000000007
 41
0.8823529999999999
  0
POINT
  5
9D
  8
001
 10
175.37456399999999
 20
108.89958300000001
 30
0.0
  0
POINT
  5
9E
  8
001
 10
175.37456399999999
 20
128.89958300000001
 30
0.0
  0
POINT
  5
9F
  8
001
 10
196.188333
 20
128.89958300000001
 30
0.0
  0
ENDBLK
  5
8E
  8
0
  0
BLOCK
  8
0
  2
*D4
 70
     1
 10
0.0
 20
0.0
 30
0.0
  3
*D4
  1

  0
LINE
  5
A3
  8
001
 10
178.37456399999999
 20
111.89958300000001
 30
0.0
 11
178.37456399999999
 21
79.910343000000012
 31
0.0
  0
LINE
  5
A4
  8
001
 10
68.374564000000007
 20
118.725303
 30
0.0
 11
68.374564000000007
 21
79.910343000000012
 31
0.0
  0
LINE
  5
A5
  8
001
 10
178.37456399999999
 20
81.285343000000012
 30
0.0
 11
68.374564000000007
 21
81.285343000000012
 31
0.0
  0
POLYLINE
  5
A6
  8
001
 66
     1
 10
0.0
 20
0.0
 30
0.0
  0
VERTEX
  5
A8
  8
001
 10
177.62456399999999
 20
81.486305000000016
 30
0.0
  0
VERTEX
  5
A9
  8
001
 10
178.37456399999999
 20
81.285343000000012
 30
0.0
  0
VERTEX
  5
AA
  8
001
 10
177.62456399999999
 20
81.084380999999993
 30
0.0
  0
SEQEND
  5
A7
  8
001
  0
POLYLINE
  5
AB
  8
001
 66
     1
 10
0.0
 20
0.0
 30
0.0
  0
VERTEX
  5
AD
  8
001
 10
69.124564000000007
 20
81.084380999999993
 30
0.0
  0
VERTEX
  5
AE
  8
001
 10
68.374564000000007
 20
81.285343000000012
 30
0.0
  0
VERTEX
  5
AF
  8
001
 10
69.124564000000007
 20
81.486305000000016
 30
0.0
  0
SEQEND
  5
AC
  8
001
  0
TEXT
  5
B0
  8
001
 10
121.488563
 20
81.785342999999997
 30
0.0
 40
2.0
  1
Ｌ
 41
0.833333
  0
POINT
  5
B1
  8
001
 10
178.37456399999999
 20
111.89958300000001
 30
0.0
  0
POINT
  5
B2
  8
001
 10
68.374564000000007
 20
118.725303
 30
0.0
  0
POINT
  5
B3
  8
001
 10
68.374564000000007
 20
81.285343000000012
 30
0.0
  0
ENDBLK
  5
A2
  8
0
  0
BLOCK
  8
0
  2
*D5
 70
     1
 10
0.0
 20
0.0
 30
0.0
  3
*D5
  1

  0
LINE
  5
B7
  8
001
 10
78.922217000000003
 20
107.89958300000001
 30
0.0
 11
78.922217000000003
 21
98.052832999999993
 31
0.0
  0
LINE
  5
B8
  8
001
 10
78.922217000000003
 20
100.80283300000001
 30
0.0
 11
68.374564000000007
 21
100.80283300000001
 31
0.0
  0
POLYLINE
  5
B9
  8
001
 66
     1
 10
0.0
 20
0.0
 30
0.0
  0
VERTEX
  5
BB
  8
001
 10
80.422217000000003
 20
100.400909
 30
0.0
  0
VERTEX
  5
BC
  8
001
 10
78.922217000000003
 20
100.80283300000001
 30
0.0
  0
VERTEX
  5
BD
  8
001
 10
80.422217000000003
 20
101.204757
 30
0.0
  0
SEQEND
  5
BA
  8
001
  0
POLYLINE
  5
BE
  8
001
 66
     1
 10
0.0
 20
0.0
 30
0.0
  0
VERTEX
  5
C0
  8
001
 10
66.874564000000007
 20
101.204757
 30
0.0
  0
VERTEX
  5
C1
  8
001
 10
68.374564000000007
 20
100.80283300000001
 30
0.0
  0
VERTEX
  5
C2
  8
001
 10
66.874564000000007
 20
100.400909
 30
0.0
  0
SEQEND
  5
BF
  8
001
  0
TEXT
  5
C3
  8
001
 10
55.624563999999999
 20
101.80283300000001
 30
0.0
 40
2.5
  1
１０．５
 41
0.833333
  0
POINT
  5
C4
  8
001
 10
78.922217000000003
 20
107.89958300000001
 30
0.0
  0
POINT
  5
C5
  8
001
 10
68.374564000000007
 20
103.55283300000001
 30
0.0
  0
POINT
  5
C6
  8
001
 10
68.374564000000007
 20
100.80283300000001
 30
0.0
  0
LINE
  5
C7
  8
001
 10
78.922217000000003
 20
100.80283300000001
 30
0.0
 11
81.422217000000003
 21
100.80283300000001
 31
0.0
  0
LINE
  5
C8
  8
001
 10
68.374564000000007
 20
100.80283300000001
 30
0.0
 11
52.624563999999999
 21
100.80283300000001
 31
0.0
  0
ENDBLK
  5
B6
  8
0
  0
BLOCK
  8
0
  2
*D6
 70
     1
 10
0.0
 20
0.0
 30
0.0
  3
*D6
  1

  0
LINE
  5
CC
  8
001
 10
78.767836000000003
 20
108.05414399999999
 30
0.0
 11
88.50795699999999
 21
98.302621000000002
 31
0.0
  0
ARC
  5
CD
  8
001
 10
68.374564000000007
 20
118.45958299999999
 30
0.0
 40
25.739587953227421
 50
270.0
 51
314.96648299999998
  0
POLYLINE
  5
CE
  8
001
 66
     1
 10
0.0
 20
0.0
 30
0.0
  0
VERTEX
  5
D0
  8
001
 10
85.197206999999977
 20
99.512155000000007
 30
0.0
  0
VERTEX
  5
D1
  8
001
 10
86.564550999999994
 20
100.248302
 30
0.0
  0
VERTEX
  5
D2
  8
001
 10
85.748469999999998
 20
98.92710799999999
 30
0.0
  0
SEQEND
  5
CF
  8
001
  0
POLYLINE
  5
D3
  8
001
 66
     1
 10
0.0
 20
0.0
 30
0.0
  0
VERTEX
  5
D5
  8
001
 10
69.885637000000003
 20
92.361943000000011
 30
0.0
  0
VERTEX
  5
D6
  8
001
 10
68.374564000000007
 20
92.719994999999983
 30
0.0
  0
VERTEX
  5
D7
  8
001
 10
69.862217999999999
 20
93.165448999999995
 30
0.0
  0
SEQEND
  5
D4
  8
001
  0
TEXT
  5
D8
  8
001
 10
71.083904000000004
 20
93.584510999999992
 30
0.0
 40
2.5
  1
４５%%d
 50
14.835248999999999
 41
0.9782610000000001
  0
POINT
  5
D9
  8
001
 10
78.767836000000003
 20
108.05414399999999
 30
0.0
  0
POINT
  5
DA
  8
001
 10
68.374564000000007
 20
118.45958299999999
 30
0.0
  0
POINT
  5
DB
  8
001
 10
68.374564000000007
 20
118.45958299999999
 30
0.0
  0
POINT
  5
DC
  8
001
 10
68.374564000000007
 20
95.469994999999997
 30
0.0
  0
ENDBLK
  5
CB
  8
0
  0
BLOCK
  8
0
  2
*D7
 70
     1
 10
0.0
 20
0.0
 30
0.0
  3
*D7
  1

  0
LINE
  5
229
  8
0
 62
     0
 10
79.209519123572235
 20
107.6119437983362
 30
0.0
 11
98.166700332374134
 21
88.632569432138894
 31
0.0
  0
ARC
  5
22A
  8
0
 62
     0
 10
67.9350789003675
 20
118.89958300000001
 30
0.0
 40
41.529002381136152
 50
318.41614512162772
 51
325.26127822818222
  0
ARC
  5
22B
  8
0
 62
     0
 10
67.9350789003675
 20
118.89958300000001
 30
0.0
 40
41.529002381136152
 50
349.70520333324328
 51
356.55033643979777
  0
SOLID
  5
22C
  8
0
 62
     0
 10
99.301351114947124
 20
91.050338147021549
 30
0.0
 11
98.694960471755294
 21
91.621945383062084
 31
0.0
 12
97.283334085229654
 22
89.516969835466412
 32
0.0
 13
97.283334085229654
 23
89.516969835466412
 33
0.0
  0
SOLID
  5
22D
  8
0
 62
     0
 10
108.97235478562131
 20
116.41325716367879
 30
0.0
 11
109.80531054312451
 21
116.38817429130179
 31
0.0
 12
109.4640812815036
 22
118.89958300000001
 32
0.0
 13
109.4640812815036
 23
118.89958300000001
 33
0.0
  0
INSERT
  5
22E
  8
0
  2
*U8
 10
0.0
 20
0.0
 30
0.0
  0
POINT
  5
22F
  8
DEFPOINTS
 62
     0
 10
103.89214896731031
 20
98.121056801701485
 30
0.0
  0
POINT
  5
230
  8
DEFPOINTS
 62
     0
 10
68.55513599999999
 20
118.2788
 30
0.0
  0
POINT
  5
231
  8
DEFPOINTS
 62
     0
 10
67.302137000000002
 20
118.89958300000001
 30
0.0
  0
POINT
  5
232
  8
DEFPOINTS
 62
     0
 10
181.084439
 20
118.89958300000001
 30
0.0
  0
POINT
  5
233
  8
DEFPOINTS
 62
     0
 10
78.767836000000003
 20
108.05414399999999
 30
0.0
  0
ENDBLK
  5
228
  8
0
  0
BLOCK
  8
0
  2
*U8
 70
     1
 10
0.0
 20
0.0
 30
0.0
  3
*U8
  1

  0
TEXT
  5
244
  8
0
 62
     0
 10
104.13302699348471
 20
95.05288801998249
 30
0.0
 40
2.5
  1
45,034°
 50
67.483240780712705
  0
ENDBLK
  5
246
  8
0
  0
ENDSEC
  0
SECTION
  2
ENTITIES
  0
DIMENSION
  5
DD
  8
001
  2
*D1
 10
68.374564000000007
 20
90.035996999999995
 30
0.0
 11
83.374564000000007
 21
91.535996999999995
 31
0.0
 70
   128
 13
98.374564000000007
 23
108.699583
 33
0.0
 14
68.374564000000007
 24
118.725303
 34
0.0
 50
180.0
  0
DIMENSION
  5
DE
  8
001
  2
*D2
 10
98.374564000000007
 20
90.035996999999995
 30
0.0
 11
138.37456399999999
 21
91.535996999999995
 31
0.0
 70
   128
 13
178.37456399999999
 23
111.89958300000001
 33
0.0
 14
98.374564000000007
 24
108.699583
 34
0.0
 50
180.0
  0
DIMENSION
  5
DF
  8
001
  2
*D3
 10
196.188333
 20
128.89958300000001
 30
0.0
 11
194.688333
 21
118.89958300000001
 31
0.0
 70
   128
 13
175.37456399999999
 23
108.89958300000001
 33
0.0
 14
175.37456399999999
 24
128.89958300000001
 34
0.0
 50
90.0
  0
DIMENSION
  5
E0
  8
001
  2
*D4
 10
68.374564000000007
 20
81.285343000000012
 30
0.0
 11
122.488563
 21
82.785343000000026
 31
0.0
 70
   128
 13
178.37456399999999
 23
111.89958300000001
 33
0.0
 14
68.374564000000007
 24
118.725303
 34
0.0
 50
180.0
  0
TEXT
  5
E1
  8
001
 10
56.950750999999997
 20
120.36505099999999
 30
0.0
 40
2.5
  1
%%c０．９
 50
90.000003000000007
 41
0.8695649999999998
  0
POLYLINE
  5
E2
  8
001
 66
     1
 10
0.0
 20
0.0
 30
0.0
  0
VERTEX
  5
E4
  8
001
 10
57.548828
 20
116.95958299999999
 30
0.0
  0
VERTEX
  5
E5
  8
001
 10
57.950750999999997
 20
118.45958299999999
 30
0.0
  0
VERTEX
  5
E6
  8
001
 10
58.352674999999998
 20
116.95958299999999
 30
0.0
  0
SEQEND
  5
E3
  8
001
  0
LINE
  5
E7
  8
001
 10
57.950750999999997
 20
133.36505099999999
 30
0.0
 11
57.950750999999997
 21
115.95958299999999
 31
0.0
  0
POLYLINE
  5
E8
  8
001
 66
     1
 10
0.0
 20
0.0
 30
0.0
  0
VERTEX
  5
EA
  8
001
 10
68.374564000000007
 20
118.45958299999999
 30
0.0
  0
VERTEX
  5
EB
  8
001
 10
57.950750999999997
 20
118.45958299999999
 30
0.0
  0
VERTEX
  5
EC
  8
001
 10
55.200750999999997
 20
118.45958299999999
 30
0.0
  0
SEQEND
  5
E9
  8
001
  0
TEXT
  5
ED
  8
001
 10
48.478670000000001
 20
114.359893
 30
0.0
 40
2.5
  1
%%c２２
 50
90.000003000000007
 41
0.8823529999999999
  0
POLYLINE
  5
EE
  8
001
 66
     1
 10
0.0
 20
0.0
 30
0.0
  0
VERTEX
  5
F0
  8
001
 10
49.880594000000002
 20
109.39958300000001
 30
0.0
  0
VERTEX
  5
F1
  8
001
 10
49.478670000000001
 20
107.89958300000001
 30
0.0
  0
VERTEX
  5
F2
  8
001
 10
49.076746999999997
 20
109.39958300000001
 30
0.0
  0
SEQEND
  5
EF
  8
001
  0
LINE
  5
F3
  8
001
 10
49.478670000000001
 20
129.89958300000001
 30
0.0
 11
49.478670000000001
 21
107.89958300000001
 31
0.0
  0
POLYLINE
  5
F4
  8
001
 66
     1
 10
0.0
 20
0.0
 30
0.0
  0
VERTEX
  5
F6
  8
001
 10
63.806120999999997
 20
107.89958300000001
 30
0.0
  0
VERTEX
  5
F7
  8
001
 10
49.478670000000001
 20
107.89958300000001
 30
0.0
  0
VERTEX
  5
F8
  8
001
 10
46.728670000000001
 20
107.89958300000001
 30
0.0
  0
SEQEND
  5
F5
  8
001
  0
DIMENSION
  5
F9
  8
001
  2
*D5
 10
68.374564000000007
 20
100.80283300000001
 30
0.0
 11
60.624563999999999
 21
103.05283300000001
 31
0.0
 70
   128
 13
78.922217000000003
 23
107.89958300000001
 33
0.0
 14
68.374564000000007
 24
103.55283300000001
 34
0.0
 50
180.0
  0
DIMENSION
  5
FA
  8
001
  2
*D6
 10
68.374564000000007
 20
118.45958299999999
 30
0.0
 11
74.388851000000003
 21
95.752995999999996
 31
0.0
 70
     2
 13
78.767836000000003
 23
108.05414399999999
 33
0.0
 14
68.374564000000007
 24
118.45958299999999
 34
0.0
 15
68.374564000000007
 25
95.469994999999997
 35
0.0
 16
78.217721999999995
 26
94.676423999999997
 36
0.0
  0
TEXT
  5
FB
  8
001
 10
60.835608999999998
 20
147.73130900000001
 30
0.0
 40
5.0
  1
エコメン　ＥＭＬ２０４５Ｔ
 41
0.833333
  0
LINE
  5
FC
  8
001
 10
98.374564000000007
 20
108.699583
 30
0.0
 11
98.374564000000007
 21
129.099583
 31
0.0
  0
LINE
  5
FD
  8
001
 10
100.37456400000001
 20
128.89958300000001
 30
0.0
 11
175.37456399999999
 21
128.89958300000001
 31
0.0
  0
LINE
  5
FE
  8
001
 10
100.37456400000001
 20
108.89958300000001
 30
0.0
 11
175.37456399999999
 21
108.89958300000001
 31
0.0
  0
ARC
  5
FF
  8
001
 10
175.37456399999999
 20
125.89958300000001
 30
0.0
 40
3.0
 50
0.0
 51
90.0
  0
ARC
  5
100
  8
001
 10
175.37456399999999
 20
111.89958300000001
 30
0.0
 40
3.0
 50
270.0
 51
0.0
  0
LINE
  5
101
  8
001
 10
178.37456399999999
 20
125.89958300000001
 30
0.0
 11
178.37456399999999
 21
111.89958300000001
 31
0.0
  0
LINE
  5
102
  8
001
 10
178.37456399999999
 20
118.89958300000001
 30
0.0
 11
180.97264100000001
 21
120.39958300000001
 31
0.0
  0
LINE
  5
103
  8
001
 10
178.37456399999999
 20
118.89958300000001
 30
0.0
 11
180.97264100000001
 21
117.39958300000001
 31
0.0
  0
LINE
  5
104
  8
001
 10
100.37456400000001
 20
108.89958300000001
 30
0.0
 11
100.37456400000001
 21
128.89958300000001
 31
0.0
  0
LINE
  5
105
  8
001
 10
100.37456400000001
 20
128.39958300000001
 30
0.0
 11
98.374564000000007
 21
128.39958300000001
 31
0.0
  0
LINE
  5
106
  8
001
 10
98.374564000000007
 20
109.39958300000001
 30
0.0
 11
100.37456400000001
 21
109.39958300000001
 31
0.0
  0
LINE
  5
107
  8
001
  6
CENTER
 10
67.302137000000002
 20
118.89958300000001
 30
0.0
 11
181.084439
 21
118.89958300000001
 31
0.0
  0
LINE
  5
108
  8
001
  6
PHANTOM
 10
78.874564000000007
 20
107.89958300000001
 30
0.0
 11
79.112881999999999
 21
107.89958300000001
 31
0.0
  0
LINE
  5
109
  8
001
 10
78.874564000000007
 20
107.89958300000001
 30
0.0
 11
63.806120999999997
 21
107.89958300000001
 31
0.0
  0
POLYLINE
  5
10B
  8
001
 66
     1
 10
0.0
 20
0.0
 30
0.0
  0
VERTEX
  5
10D
  8
001
 10
83.074093000000005
 20
122.62518900000001
 30
0.0
  0
VERTEX
  5
10E
  8
001
 10
83.077539999999999
 20
122.64062199999999
 30
0.0
  0
VERTEX
  5
10F
  8
001
 10
83.081924999999998
 20
122.66330600000001
 30
0.0
  0
VERTEX
  5
110
  8
001
 10
83.084148999999996
 20
122.677212
 30
0.0
  0
VERTEX
  5
111
  8
001
 10
83.085503000000003
 20
122.686753
 30
0.0
  0
SEQEND
  5
10C
  8
001
  0
POLYLINE
  5
112
  8
001
 66
     1
 10
0.0
 20
0.0
 30
0.0
  0
VERTEX
  5
114
  8
001
 10
82.752096999999992
 20
120.446917
 30
0.0
  0
VERTEX
  5
115
  8
001
 10
82.793231000000006
 20
120.72331699999999
 30
0.0
  0
VERTEX
  5
116
  8
001
 10
82.834365999999989
 20
120.999717
 30
0.0
  0
VERTEX
  5
117
  8
001
 10
82.958556999999999
 20
121.83408
 30
0.0
  0
VERTEX
  5
118
  8
001
 10
83.082759999999993
 20
122.668442
 30
0.0
  0
SEQEND
  5
113
  8
001
  0
LINE
  5
119
  8
001
 10
83.082759999999993
 20
122.668442
 30
0.0
 11
83.085633999999999
 21
122.687742
 31
0.0
  0
LINE
  5
11A
  8
001
 10
83.074093000000005
 20
122.62518900000001
 30
0.0
 11
82.723316999999994
 21
120.298238
 31
0.0
  0
POLYLINE
  5
11B
  8
001
 66
     1
 10
0.0
 20
0.0
 30
0.0
  0
VERTEX
  5
11D
  8
001
 10
83.085503000000003
 20
122.686753
 30
0.0
  0
VERTEX
  5
11E
  8
001
 10
83.088635999999994
 20
122.720483
 30
0.0
  0
VERTEX
  5
11F
  8
001
 10
83.090843000000007
 20
122.767495
 30
0.0
  0
VERTEX
  5
120
  8
001
 10
83.088963000000007
 20
122.82243800000001
 30
0.0
  0
VERTEX
  5
121
  8
001
 10
83.081924999999998
 20
122.871684
 30
0.0
  0
VERTEX
  5
122
  8
001
 10
83.055343999999991
 20
122.970635
 30
0.0
  0
VERTEX
  5
123
  8
001
 10
83.012195000000006
 20
123.06749499999999
 30
0.0
  0
VERTEX
  5
124
  8
001
 10
82.918933999999993
 20
123.192087
 30
0.0
  0
VERTEX
  5
125
  8
001
 10
82.797322999999992
 20
123.287111
 30
0.0
  0
VERTEX
  5
126
  8
001
 10
82.751848999999993
 20
123.311257
 30
0.0
  0
VERTEX
  5
127
  8
001
 10
82.704581999999974
 20
123.331311
 30
0.0
  0
VERTEX
  5
128
  8
001
 10
82.655952999999997
 20
123.347094
 30
0.0
  0
VERTEX
  5
129
  8
001
 10
82.605741000000009
 20
123.35838
 30
0.0
  0
VERTEX
  5
12A
  8
001
 10
82.554299999999998
 20
123.36501
 30
0.0
  0
VERTEX
  5
12B
  8
001
 10
82.503803000000005
 20
123.36749500000001
 30
0.0
  0
VERTEX
  5
12C
  8
001
 10
82.455140999999983
 20
123.365959
 30
0.0
  0
VERTEX
  5
12D
  8
001
 10
82.401864000000003
 20
123.35838
 30
0.0
  0
VERTEX
  5
12E
  8
001
 10
82.365230000000011
 20
123.35025899999999
 30
0.0
  0
VERTEX
  5
12F
  8
001
 10
82.339236
 20
123.34343699999999
 30
0.0
  0
SEQEND
  5
11C
  8
001
  0
LINE
  5
130
  8
001
 10
82.723316999999994
 20
120.298238
 30
0.0
 11
82.751885999999985
 21
120.445426
 31
0.0
  0
LINE
  5
131
  8
001
 10
68.815370000000001
 20
119.30671599999999
 30
0.0
 11
82.339236
 21
123.34343699999999
 31
0.0
  0
LINE
  5
132
  8
001
 10
79.653212999999994
 20
108.304113
 30
0.0
 11
83.074093000000005
 21
122.62518900000001
 31
0.0
  0
POLYLINE
  5
133
  8
001
 66
     1
 10
0.0
 20
0.0
 30
0.0
  0
VERTEX
  5
135
  8
001
 10
79.71158299999999
 20
108.56071300000001
 30
0.0
  0
VERTEX
  5
136
  8
001
 10
79.715347999999992
 20
108.572078
 30
0.0
  0
VERTEX
  5
137
  8
001
 10
79.720484999999996
 20
108.58880000000001
 30
0.0
  0
VERTEX
  5
138
  8
001
 10
79.725111999999996
 20
108.605682
 30
0.0
  0
VERTEX
  5
139
  8
001
 10
79.728025000000002
 20
108.617301
 30
0.0
  0
SEQEND
  5
134
  8
001
  0
POLYLINE
  5
13A
  8
001
 66
     1
 10
0.0
 20
0.0
 30
0.0
  0
VERTEX
  5
13C
  8
001
 10
76.874381
 20
119.75080199999999
 30
0.0
  0
VERTEX
  5
13D
  8
001
 10
76.659210000000002
 20
119.739386
 30
0.0
  0
VERTEX
  5
13E
  8
001
 10
76.364688000000001
 20
119.705225
 30
0.0
  0
VERTEX
  5
13F
  8
001
 10
76.103529000000009
 20
119.648476
 30
0.0
  0
VERTEX
  5
140
  8
001
 10
75.870481999999996
 20
119.56988
 30
0.0
  0
VERTEX
  5
141
  8
001
 10
75.637167000000005
 20
119.469876
 30
0.0
  0
VERTEX
  5
142
  8
001
 10
75.406779
 20
119.348878
 30
0.0
  0
VERTEX
  5
143
  8
001
 10
74.796129000000008
 20
118.87011099999999
 30
0.0
  0
VERTEX
  5
144
  8
001
 10
74.332420999999997
 20
118.25080199999999
 30
0.0
  0
VERTEX
  5
145
  8
001
 10
74.115902000000006
 20
117.775527
 30
0.0
  0
VERTEX
  5
146
  8
001
 10
73.983769999999993
 20
117.27174599999999
 30
0.0
  0
VERTEX
  5
147
  8
001
 10
73.950322999999997
 20
117.012146
 30
0.0
  0
VERTEX
  5
148
  8
001
 10
73.939177999999998
 20
116.75080199999999
 30
0.0
  0
VERTEX
  5
149
  8
001
 10
73.950322999999997
 20
116.489458
 30
0.0
  0
VERTEX
  5
14A
  8
001
 10
73.983769999999993
 20
116.229857
 30
0.0
  0
VERTEX
  5
14B
  8
001
 10
74.115902000000006
 20
115.726077
 30
0.0
  0
VERTEX
  5
14C
  8
001
 10
74.332420999999997
 20
115.25080199999999
 30
0.0
  0
VERTEX
  5
14D
  8
001
 10
74.796129000000008
 20
114.63149300000001
 30
0.0
  0
VERTEX
  5
14E
  8
001
 10
75.406779
 20
114.152726
 30
0.0
  0
VERTEX
  5
14F
  8
001
 10
75.637167000000005
 20
114.031728
 30
0.0
  0
VERTEX
  5
150
  8
001
 10
75.870481999999996
 20
113.931724
 30
0.0
  0
VERTEX
  5
151
  8
001
 10
76.103529000000009
 20
113.853128
 30
0.0
  0
VERTEX
  5
152
  8
001
 10
76.364688000000001
 20
113.796379
 30
0.0
  0
VERTEX
  5
153
  8
001
 10
76.659210000000002
 20
113.762218
 30
0.0
  0
VERTEX
  5
154
  8
001
 10
76.874381
 20
113.75080199999999
 30
0.0
  0
SEQEND
  5
13B
  8
001
  0
LINE
  5
155
  8
001
 10
82.354906999999983
 20
118.755937
 30
0.0
 11
82.723316999999994
 21
120.298238
 31
0.0
  0
LINE
  5
156
  8
001
 10
79.728025000000002
 20
108.617301
 30
0.0
 11
79.792443999999975
 21
108.817443
 31
0.0
  0
POLYLINE
  5
157
  8
001
 66
     1
 10
0.0
 20
0.0
 30
0.0
  0
VERTEX
  5
159
  8
001
 10
76.874381
 20
113.75080199999999
 30
0.0
  0
VERTEX
  5
15A
  8
001
 10
77.089551
 20
113.762218
 30
0.0
  0
VERTEX
  5
15B
  8
001
 10
77.384073000000001
 20
113.796379
 30
0.0
  0
VERTEX
  5
15C
  8
001
 10
77.645231999999993
 20
113.853128
 30
0.0
  0
VERTEX
  5
15D
  8
001
 10
77.878279000000006
 20
113.931724
 30
0.0
  0
VERTEX
  5
15E
  8
001
 10
78.111593999999997
 20
114.031728
 30
0.0
  0
VERTEX
  5
15F
  8
001
 10
78.341982000000002
 20
114.152726
 30
0.0
  0
VERTEX
  5
160
  8
001
 10
78.952631999999994
 20
114.63149300000001
 30
0.0
  0
VERTEX
  5
161
  8
001
 10
79.416341000000003
 20
115.25080199999999
 30
0.0
  0
VERTEX
  5
162
  8
001
 10
79.632858999999996
 20
115.726077
 30
0.0
  0
VERTEX
  5
163
  8
001
 10
79.764991000000009
 20
116.229857
 30
0.0
  0
VERTEX
  5
164
  8
001
 10
79.798439000000002
 20
116.489458
 30
0.0
  0
VERTEX
  5
165
  8
001
 10
79.809582999999989
 20
116.75080199999999
 30
0.0
  0
VERTEX
  5
166
  8
001
 10
79.798439000000002
 20
117.012146
 30
0.0
  0
VERTEX
  5
167
  8
001
 10
79.764991000000009
 20
117.27174599999999
 30
0.0
  0
VERTEX
  5
168
  8
001
 10
79.632858999999996
 20
117.775527
 30
0.0
  0
VERTEX
  5
169
  8
001
 10
79.416341000000003
 20
118.25080199999999
 30
0.0
  0
VERTEX
  5
16A
  8
001
 10
78.952631999999994
 20
118.87011099999999
 30
0.0
  0
VERTEX
  5
16B
  8
001
 10
78.341982000000002
 20
119.348878
 30
0.0
  0
VERTEX
  5
16C
  8
001
 10
78.111593999999997
 20
119.469876
 30
0.0
  0
VERTEX
  5
16D
  8
001
 10
77.878279000000006
 20
119.56988
 30
0.0
  0
VERTEX
  5
16E
  8
001
 10
77.645231999999993
 20
119.648476
 30
0.0
  0
VERTEX
  5
16F
  8
001
 10
77.384073000000001
 20
119.705225
 30
0.0
  0
VERTEX
  5
170
  8
001
 10
77.089551
 20
119.739386
 30
0.0
  0
VERTEX
  5
171
  8
001
 10
76.874381
 20
119.75080199999999
 30
0.0
  0
SEQEND
  5
158
  8
001
  0
LINE
  5
172
  8
001
 10
79.710960999999998
 20
108.558914
 30
0.0
 11
79.772908000000001
 21
108.75053800000001
 31
0.0
  0
LINE
  5
173
  8
001
 10
79.772908000000001
 20
108.75053800000001
 30
0.0
 11
79.78626899999999
 21
108.79186900000001
 31
0.0
  0
LINE
  5
174
  8
001
 10
79.374564000000007
 20
129.39958300000001
 30
0.0
 11
79.374564000000007
 21
129.164444
 31
0.0
  0
LINE
  5
175
  8
001
 10
98.074563999999995
 20
129.39958300000001
 30
0.0
 11
79.374564000000007
 21
129.39958300000001
 31
0.0
  0
LINE
  5
176
  8
001
 10
98.074563999999995
 20
108.39958300000001
 30
0.0
 11
79.880882999999997
 21
108.39958300000001
 31
0.0
  0
POLYLINE
  5
177
  8
001
 66
     1
 10
0.0
 20
0.0
 30
0.0
  0
VERTEX
  5
179
  8
001
 10
79.695226000000005
 20
108.518348
 30
0.0
  0
VERTEX
  5
17A
  8
001
 10
79.712519999999984
 20
108.51779500000001
 30
0.0
  0
VERTEX
  5
17B
  8
001
 10
79.737796000000003
 20
108.516988
 30
0.0
  0
VERTEX
  5
17C
  8
001
 10
79.763075000000001
 20
108.516184
 30
0.0
  0
VERTEX
  5
17D
  8
001
 10
79.780371000000002
 20
108.515635
 30
0.0
  0
SEQEND
  5
178
  8
001
  0
POLYLINE
  5
17E
  8
001
 66
     1
 10
0.0
 20
0.0
 30
0.0
  0
VERTEX
  5
180
  8
001
 10
79.752985999999993
 20
108.652259
 30
0.0
  0
VERTEX
  5
181
  8
001
 10
79.756456999999997
 20
108.629274
 30
0.0
  0
VERTEX
  5
182
  8
001
 10
79.761525000000006
 20
108.595787
 30
0.0
  0
VERTEX
  5
183
  8
001
 10
79.785043999999999
 20
108.47063900000001
 30
0.0
  0
VERTEX
  5
184
  8
001
 10
79.864777000000004
 20
108.40149599999999
 30
0.0
  0
VERTEX
  5
185
  8
001
 10
79.874243000000007
 20
108.40010700000001
 30
0.0
  0
VERTEX
  5
186
  8
001
 10
79.880882999999997
 20
108.39958300000001
 30
0.0
  0
SEQEND
  5
17F
  8
001
  0
POLYLINE
  5
187
  8
001
 66
     1
 10
0.0
 20
0.0
 30
0.0
  0
VERTEX
  5
189
  8
001
 10
79.752985999999993
 20
108.652259
 30
0.0
  0
VERTEX
  5
18A
  8
001
 10
81.861567000000008
 20
108.763154
 30
0.0
  0
VERTEX
  5
18B
  8
001
 10
84.941079999999999
 20
108.960436
 30
0.0
  0
VERTEX
  5
18C
  8
001
 10
87.910763999999986
 20
109.198667
 30
0.0
  0
VERTEX
  5
18D
  8
001
 10
89.940726999999995
 20
109.385493
 30
0.0
  0
SEQEND
  5
188
  8
001
  0
POLYLINE
  5
18E
  8
001
 66
     1
 10
0.0
 20
0.0
 30
0.0
  0
VERTEX
  5
190
  8
001
 10
89.940726999999995
 20
109.385493
 30
0.0
  0
VERTEX
  5
191
  8
001
 10
90.159766000000005
 20
109.553725
 30
0.0
  0
VERTEX
  5
192
  8
001
 10
90.466798999999995
 20
109.806316
 30
0.0
  0
VERTEX
  5
193
  8
001
 10
92.069713000000007
 20
111.656521
 30
0.0
  0
VERTEX
  5
194
  8
001
 10
92.969327000000007
 20
113.64958300000001
 30
0.0
  0
VERTEX
  5
195
  8
001
 10
93.461201000000003
 20
115.326539
 30
0.0
  0
VERTEX
  5
196
  8
001
 10
93.781444999999991
 20
117.076277
 30
0.0
  0
VERTEX
  5
197
  8
001
 10
93.860878
 20
117.988317
 30
0.0
  0
VERTEX
  5
198
  8
001
 10
93.885315000000006
 20
118.89958300000001
 30
0.0
  0
VERTEX
  5
199
  8
001
 10
93.860878
 20
119.810849
 30
0.0
  0
VERTEX
  5
19A
  8
001
 10
93.781444999999991
 20
120.722889
 30
0.0
  0
VERTEX
  5
19B
  8
001
 10
93.461201000000003
 20
122.472627
 30
0.0
  0
VERTEX
  5
19C
  8
001
 10
92.969327000000007
 20
124.14958300000001
 30
0.0
  0
VERTEX
  5
19D
  8
001
 10
92.069713000000007
 20
126.142644
 30
0.0
  0
VERTEX
  5
19E
  8
001
 10
90.466798999999995
 20
127.99285
 30
0.0
  0
VERTEX
  5
19F
  8
001
 10
90.159766000000005
 20
128.245441
 30
0.0
  0
VERTEX
  5
1A0
  8
001
 10
89.940726999999995
 20
128.41367199999999
 30
0.0
  0
SEQEND
  5
18F
  8
001
  0
POLYLINE
  5
1A1
  8
001
 66
     1
 10
0.0
 20
0.0
 30
0.0
  0
VERTEX
  5
1A3
  8
001
 10
89.940726999999995
 20
128.41367199999999
 30
0.0
  0
VERTEX
  5
1A4
  8
001
 10
87.83629599999999
 20
128.60684499999999
 30
0.0
  0
VERTEX
  5
1A5
  8
001
 10
84.757595999999992
 20
128.85185100000001
 30
0.0
  0
VERTEX
  5
1A6
  8
001
 10
81.562387000000015
 20
129.052786
 30
0.0
  0
VERTEX
  5
1A7
  8
001
 10
79.374564000000007
 20
129.164444
 30
0.0
  0
SEQEND
  5
1A2
  8
001
  0
LINE
  5
1A8
  8
001
 10
89.940726999999995
 20
128.41367199999999
 30
0.0
 11
89.940726999999995
 21
109.385493
 31
0.0
  0
LINE
  5
1A9
  8
001
 10
82.152715000000001
 20
118.698418
 30
0.0
 11
79.776379000000006
 21
108.75019
 31
0.0
  0
LINE
  5
1AA
  8
001
 10
79.776379000000006
 20
108.75019
 30
0.0
 11
79.752985999999993
 21
108.652259
 31
0.0
  0
POLYLINE
  5
1AB
  8
001
 66
     1
 10
0.0
 20
0.0
 30
0.0
  0
VERTEX
  5
1AD
  8
001
 10
82.152715000000001
 20
118.698418
 30
0.0
  0
VERTEX
  5
1AE
  8
001
 10
82.286467999999985
 20
118.736227
 30
0.0
  0
VERTEX
  5
1AF
  8
001
 10
82.471170999999998
 20
118.796392
 30
0.0
  0
VERTEX
  5
1B0
  8
001
 10
82.721954999999994
 20
118.899888
 30
0.0
  0
VERTEX
  5
1B1
  8
001
 10
82.934872999999996
 20
119.017394
 30
0.0
  0
VERTEX
  5
1B2
  8
001
 10
83.527900000000002
 20
119.492639
 30
0.0
  0
VERTEX
  5
1B3
  8
001
 10
84.009231999999983
 20
120.11547
 30
0.0
  0
VERTEX
  5
1B4
  8
001
 10
84.228234
 20
120.59124199999999
 30
0.0
  0
VERTEX
  5
1B5
  8
001
 10
84.357881999999989
 20
121.094526
 30
0.0
  0
VERTEX
  5
1B6
  8
001
 10
84.391082999999995
 20
121.35407600000001
 30
0.0
  0
VERTEX
  5
1B7
  8
001
 10
84.402474999999995
 20
121.61547
 30
0.0
  0
VERTEX
  5
1B8
  8
001
 10
84.391401999999999
 20
121.876829
 30
0.0
  0
VERTEX
  5
1B9
  8
001
 10
84.357881999999989
 20
122.136415
 30
0.0
  0
VERTEX
  5
1BA
  8
001
 10
84.225701999999998
 20
122.640185
 30
0.0
  0
VERTEX
  5
1BB
  8
001
 10
84.009231999999983
 20
123.11547
 30
0.0
  0
VERTEX
  5
1BC
  8
001
 10
83.545543000000009
 20
123.73478299999999
 30
0.0
  0
VERTEX
  5
1BD
  8
001
 10
82.934872999999996
 20
124.21354599999999
 30
0.0
  0
VERTEX
  5
1BE
  8
001
 10
82.704484999999977
 20
124.33454399999999
 30
0.0
  0
VERTEX
  5
1BF
  8
001
 10
82.471170999999998
 20
124.43454800000001
 30
0.0
  0
VERTEX
  5
1C0
  8
001
 10
82.238123999999985
 20
124.513144
 30
0.0
  0
VERTEX
  5
1C1
  8
001
 10
81.976965000000007
 20
124.56989299999999
 30
0.0
  0
VERTEX
  5
1C2
  8
001
 10
81.682443000000006
 20
124.604054
 30
0.0
  0
VERTEX
  5
1C3
  8
001
 10
81.467271999999994
 20
124.61547
 30
0.0
  0
SEQEND
  5
1AC
  8
001
  0
LINE
  5
1C4
  8
001
 10
70.374564000000007
 20
120.367591
 30
0.0
 11
70.374564000000007
 21
119.77211800000001
 31
0.0
  0
LINE
  5
1C5
  8
001
 10
79.374564000000007
 20
129.164444
 30
0.0
 11
70.374564000000007
 21
120.367591
 31
0.0
  0
POLYLINE
  5
1C6
  8
001
 66
     1
 10
0.0
 20
0.0
 30
0.0
  0
VERTEX
  5
1C8
  8
001
 10
81.467271999999994
 20
124.61547
 30
0.0
  0
VERTEX
  5
1C9
  8
001
 10
81.252082999999999
 20
124.603962
 30
0.0
  0
VERTEX
  5
1CA
  8
001
 10
80.957580000000007
 20
124.56989299999999
 30
0.0
  0
VERTEX
  5
1CB
  8
001
 10
80.696515000000005
 20
124.513605
 30
0.0
  0
VERTEX
  5
1CC
  8
001
 10
80.463374000000002
 20
124.43454800000001
 30
0.0
  0
VERTEX
  5
1CD
  8
001
 10
80.229701000000006
 20
124.332787
 30
0.0
  0
VERTEX
  5
1CE
  8
001
 10
79.999670999999992
 20
124.21354599999999
 30
0.0
  0
VERTEX
  5
1CF
  8
001
 10
79.395937000000004
 20
123.768756
 30
0.0
  0
VERTEX
  5
1D0
  8
001
 10
78.925312000000005
 20
123.11547
 30
0.0
  0
VERTEX
  5
1D1
  8
001
 10
78.708569999999995
 20
122.60591100000001
 30
0.0
  0
VERTEX
  5
1D2
  8
001
 10
78.593360000000004
 20
122.225335
 30
0.0
  0
SEQEND
  5
1C7
  8
001
  0
POLYLINE
  5
1D3
  8
001
 66
     1
 10
0.0
 20
0.0
 30
0.0
  0
VERTEX
  5
1D5
  8
001
 10
81.856829000000005
 20
124.588931
 30
0.0
  0
VERTEX
  5
1D6
  8
001
 10
81.807321999999985
 20
124.58150000000001
 30
0.0
  0
VERTEX
  5
1D7
  8
001
 10
81.736693999999986
 20
124.56989299999999
 30
0.0
  0
VERTEX
  5
1D8
  8
001
 10
81.469944999999996
 20
124.511278
 30
0.0
  0
VERTEX
  5
1D9
  8
001
 10
81.242487999999994
 20
124.43454800000001
 30
0.0
  0
VERTEX
  5
1DA
  8
001
 10
81.010343000000006
 20
124.333369
 30
0.0
  0
VERTEX
  5
1DB
  8
001
 10
80.778784999999999
 20
124.21354599999999
 30
0.0
  0
VERTEX
  5
1DC
  8
001
 10
80.177177
 20
123.770532
 30
0.0
  0
VERTEX
  5
1DD
  8
001
 10
79.704426999999995
 20
123.11547
 30
0.0
  0
VERTEX
  5
1DE
  8
001
 10
79.534648000000004
 20
122.747062
 30
0.0
  0
VERTEX
  5
1DF
  8
001
 10
79.434662000000003
 20
122.476455
 30
0.0
  0
SEQEND
  5
1D4
  8
001
  0
LINE
  5
1E0
  8
001
 10
70.374564000000007
 20
120.39958300000001
 30
0.0
 11
70.374564000000007
 21
120.367591
 31
0.0
  0
LINE
  5
1E1
  8
001
 10
79.374564000000007
 20
129.39958300000001
 30
0.0
 11
70.374564000000007
 21
120.39958300000001
 31
0.0
  0
ARC
  5
1E2
  8
001
 10
76.874381
 20
118.090802
 30
0.0
 40
0.335
 50
12.404463
 51
167.59553700000001
  0
ARC
  5
1E3
  8
001
 10
75.988198999999994
 20
118.285714
 30
0.0
 40
0.5723638195136747
 50
252.40446299999999
 51
347.59553699999998
  0
ARC
  5
1E4
  8
001
 10
75.713906999999992
 20
117.42080199999999
 30
0.0
 40
0.335
 50
72.404463000000007
 51
227.59553700000001
  0
ARC
  5
1E5
  8
001
 10
75.102017000000004
 20
116.75080199999999
 30
0.0
 40
0.5723638195136747
 50
312.40446300000002
 51
47.595537
  0
ARC
  5
1E6
  8
001
 10
75.713906999999992
 20
116.08080200000001
 30
0.0
 40
0.335
 50
132.40446299999999
 51
287.59553699999998
  0
ARC
  5
1E7
  8
001
 10
75.988198999999994
 20
115.21589
 30
0.0
 40
0.5723638195136747
 50
12.404463
 51
107.59553699999999
  0
ARC
  5
1E8
  8
001
 10
76.874381
 20
115.410802
 30
0.0
 40
0.335
 50
192.40446299999999
 51
347.59553699999998
  0
ARC
  5
1E9
  8
001
 10
77.760563000000005
 20
115.21589
 30
0.0
 40
0.5723638195136747
 50
72.404463000000007
 51
167.59553700000001
  0
ARC
  5
1EA
  8
001
 10
78.034854999999993
 20
116.08080200000001
 30
0.0
 40
0.335
 50
252.40446299999999
 51
47.595537
  0
ARC
  5
1EB
  8
001
 10
78.646743999999998
 20
116.75080199999999
 30
0.0
 40
0.5723638195136747
 50
132.40446299999999
 51
227.59553700000001
  0
ARC
  5
1EC
  8
001
 10
78.034854999999993
 20
117.42080199999999
 30
0.0
 40
0.335
 50
312.40446300000002
 51
107.59553699999999
  0
ARC
  5
1ED
  8
001
 10
77.760563000000005
 20
118.285714
 30
0.0
 40
0.5723638195136747
 50
192.40446299999999
 51
287.59553699999998
  0
CIRCLE
  5
1EE
  8
001
 10
76.874381
 20
116.75080199999999
 30
0.0
 40
2.3500000000000001
  0
LINE
  5
1EF
  8
001
 10
98.074563999999995
 20
108.39958300000001
 30
0.0
 11
98.374564000000007
 21
108.699583
 31
0.0
  0
LINE
  5
1F0
  8
001
 10
98.074563999999995
 20
129.39958300000001
 30
0.0
 11
98.374564000000007
 21
129.099583
 31
0.0
  0
LINE
  5
1F1
  8
001
 10
98.074563999999995
 20
129.39958300000001
 30
0.0
 11
98.074563999999995
 21
108.39958300000001
 31
0.0
  0
ARC
  5
1F2
  8
001
 10
79.140671999999995
 20
108.42654400000001
 30
0.0
 40
0.5269611765209863
 50
224.96648300000001
 51
346.56548500000008
  0
LINE
  5
1F3
  8
001
  6
PHANTOM
 10
78.767836000000003
 20
108.05414399999999
 30
0.0
 11
78.922217000000003
 21
107.89958300000001
 31
0.0
  0
LINE
  5
1F4
  8
001
 10
68.555136000000005
 20
118.2788
 30
0.0
 11
78.767836000000003
 21
108.05414399999999
 31
0.0
  0
LINE
  5
1F5
  8
001
  6
PHANTOM
 10
68.552627000000001
 20
118.281312
 30
0.0
 11
68.374564000000007
 21
118.45958299999999
 31
0.0
  0
ARC
  5
1F6
  8
001
 10
68.991956999999985
 20
118.71511099999999
 30
0.0
 40
0.6173978335314079
 50
106.61976900000001
 51
224.96648300000001
  0
TEXT
  5
1F7
  8
001
 10
76.482208999999997
 20
55.924526999999998
 30
0.0
 40
4.0
  1
ＮＯ．
 41
0.833333
  0
TEXT
  5
1F8
  8
001
 10
108.482209
 20
55.924526999999998
 30
0.0
 40
4.0
  1
型番
 41
0.833333
  0
TEXT
  5
1F9
  8
001
 10
140.48220900000001
 20
55.924526999999998
 30
0.0
 40
4.0
  1
ｌ
 41
0.833333
  0
TEXT
  5
1FA
  8
001
 10
160.48220900000001
 20
55.924526999999998
 30
0.0
 40
4.0
  1
Ｌ
 41
0.833333
  0
TEXT
  5
1FB
  8
001
 10
80.482208999999997
 20
47.924527000000012
 30
0.0
 40
4.0
  1
１
 41
0.833333
  0
TEXT
  5
1FC
  8
001
 10
80.482208999999997
 20
39.924527000000012
 30
0.0
 40
4.0
  1
２
 41
0.833333
  0
LINE
  5
1FD
  8
001
 10
172.48220900000001
 20
61.924526999999998
 30
0.0
 11
172.48220900000001
 21
37.924527000000012
 31
0.0
  0
LINE
  5
1FE
  8
001
 10
152.48220900000001
 20
61.924526999999998
 30
0.0
 11
152.48220900000001
 21
37.924527000000012
 31
0.0
  0
LINE
  5
1FF
  8
001
 10
132.48220900000001
 20
61.924526999999998
 30
0.0
 11
132.48220900000001
 21
37.924527000000012
 31
0.0
  0
LINE
  5
200
  8
001
 10
92.482208999999983
 20
61.924526999999998
 30
0.0
 11
92.482208999999983
 21
37.924527000000012
 31
0.0
  0
LINE
  5
201
  8
001
 10
72.482208999999983
 20
61.924526999999998
 30
0.0
 11
72.482208999999983
 21
37.924527000000012
 31
0.0
  0
LINE
  5
202
  8
001
 10
172.48220900000001
 20
61.924526999999998
 30
0.0
 11
72.482208999999983
 21
61.924526999999998
 31
0.0
  0
LINE
  5
203
  8
001
 10
172.48220900000001
 20
53.924526999999998
 30
0.0
 11
72.482208999999983
 21
53.924526999999998
 31
0.0
  0
LINE
  5
204
  8
001
 10
172.48220900000001
 20
45.924526999999998
 30
0.0
 11
72.482208999999983
 21
45.924526999999998
 31
0.0
  0
LINE
  5
205
  8
001
 10
172.48220900000001
 20
37.924527000000012
 30
0.0
 11
72.482208999999983
 21
37.924527000000012
 31
0.0
  0
TEXT
  5
206
  8
001
 10
138.48220900000001
 20
47.924527000000012
 30
0.0
 40
4.0
  1
８０
 41
0.833333
  0
TEXT
  5
207
  8
001
 10
136.48220900000001
 20
39.924527000000012
 30
0.0
 40
4.0
  1
１４０
 41
0.833333
  0
TEXT
  5
208
  8
001
 10
96.482208999999997
 20
47.924527000000012
 30
0.0
 40
4.0
  1
ＥＭＬ２０４５Ｔ
 41
0.833333
  0
TEXT
  5
209
  8
001
 10
94.482208999999997
 20
39.924527000000012
 30
0.0
 40
4.0
  1
ＥＭＬ２０４５ＴＬ
 41
0.833333
  0
TEXT
  5
20A
  8
001
 10
156.48220900000001
 20
47.924527000000012
 30
0.0
 40
4.0
  1
１１０
 41
0.833333
  0
TEXT
  5
20B
  8
001
 10
156.48220900000001
 20
39.924527000000012
 30
0.0
 40
4.0
  1
１７０
 41
0.833333
  0
ENDSEC
  0
EOF
