  0
SECTION
  2
HEADER
  9
$ACADVER
  1
AC1014
  9
$ACADMAINTVER
 70
     9
  9
$DWGCODEPAGE
  3
ANSI_932
  9
$INSBASE
 10
0.0
 20
0.0
 30
0.0
  9
$EXTMIN
 10
5.26415794414946
 20
1.738174000000001
 30
0.0
  9
$EXTMAX
 10
70.984686
 20
42.635184
 30
0.0
  9
$LIMMIN
 10
0.0
 20
0.0
  9
$LIMMAX
 10
12.0
 20
9.0
  9
$ORTHOMODE
 70
     0
  9
$REGENMODE
 70
     1
  9
$FILLMODE
 70
     1
  9
$QTEXTMODE
 70
     0
  9
$MIRRTEXT
 70
     1
  9
$DRAGMODE
 70
     2
  9
$LTSCALE
 40
0.776185
  9
$OSMODE
 70
   511
  9
$ATTMODE
 70
     1
  9
$TEXTSIZE
 40
0.2
  9
$TRACEWID
 40
1.0
  9
$TEXTSTYLE
  7
STANDARD
  9
$CLAYER
  8
0
  9
$CELTYPE
  6
BYLAYER
  9
$CECOLOR
 62
   256
  9
$CELTSCALE
 40
1.0
  9
$DELOBJ
 70
     1
  9
$DISPSILH
 70
     0
  9
$DIMSCALE
 40
1.0
  9
$DIMASZ
 40
2.5
  9
$DIMEXO
 40
0.625
  9
$DIMDLI
 40
3.75
  9
$DIMRND
 40
0.0
  9
$DIMDLE
 40
0.0
  9
$DIMEXE
 40
1.25
  9
$DIMTP
 40
0.0
  9
$DIMTM
 40
0.0
  9
$DIMTXT
 40
2.5
  9
$DIMCEN
 40
0.09
  9
$DIMTSZ
 40
0.0
  9
$DIMTOL
 70
     0
  9
$DIMLIM
 70
     0
  9
$DIMTIH
 70
     0
  9
$DIMTOH
 70
     0
  9
$DIMSE1
 70
     0
  9
$DIMSE2
 70
     0
  9
$DIMTAD
 70
     0
  9
$DIMZIN
 70
     8
  9
$DIMBLK
  1

  9
$DIMASO
 70
     1
  9
$DIMSHO
 70
     0
  9
$DIMPOST
  1

  9
$DIMAPOST
  1

  9
$DIMALT
 70
     0
  9
$DIMALTD
 70
     3
  9
$DIMALTF
 40
0.03937
  9
$DIMLFAC
 40
1.0
  9
$DIMTOFL
 70
     1
  9
$DIMTVP
 40
0.0
  9
$DIMTIX
 70
     0
  9
$DIMSOXD
 70
     0
  9
$DIMSAH
 70
     0
  9
$DIMBLK1
  1

  9
$DIMBLK2
  1

  9
$DIMSTYLE
  2
ISO-25
  9
$DIMCLRD
 70
     0
  9
$DIMCLRE
 70
     0
  9
$DIMCLRT
 70
     0
  9
$DIMTFAC
 40
1.0
  9
$DIMGAP
 40
0.625
  9
$DIMJUST
 70
     0
  9
$DIMSD1
 70
     0
  9
$DIMSD2
 70
     0
  9
$DIMTOLJ
 70
     0
  9
$DIMTZIN
 70
     8
  9
$DIMALTZ
 70
     0
  9
$DIMALTTZ
 70
     0
  9
$DIMFIT
 70
     3
  9
$DIMUPT
 70
     0
  9
$DIMUNIT
 70
     2
  9
$DIMDEC
 70
     2
  9
$DIMTDEC
 70
     2
  9
$DIMALTU
 70
     2
  9
$DIMALTTD
 70
     3
  9
$DIMTXSTY
  7
STANDARD
  9
$DIMAUNIT
 70
     0
  9
$LUNITS
 70
     2
  9
$LUPREC
 70
     4
  9
$SKETCHINC
 40
1.0
  9
$FILLETRAD
 40
0.0
  9
$AUNITS
 70
     0
  9
$AUPREC
 70
     0
  9
$MENU
  1
.
  9
$ELEVATION
 40
0.0
  9
$PELEVATION
 40
0.0
  9
$THICKNESS
 40
0.0
  9
$LIMCHECK
 70
     0
  9
$CHAMFERA
 40
10.0
  9
$CHAMFERB
 40
10.0
  9
$CHAMFERC
 40
20.0
  9
$CHAMFERD
 40
0.0
  9
$SKPOLY
 70
     0
  9
$TDCREATE
 40
2456673.698228623
  9
$TDUPDATE
 40
2457991.631613148
  9
$TDINDWG
 40
0.0009865162
  9
$TDUSRTIMER
 40
2457991.256381262
  9
$USRTIMER
 70
     1
  9
$ANGBASE
 50
0.0
  9
$ANGDIR
 70
     0
  9
$PDMODE
 70
     0
  9
$PDSIZE
 40
0.0
  9
$PLINEWID
 40
0.0
  9
$COORDS
 70
     1
  9
$SPLFRAME
 70
     0
  9
$SPLINETYPE
 70
     6
  9
$SPLINESEGS
 70
     8
  9
$ATTDIA
 70
     0
  9
$ATTREQ
 70
     1
  9
$HANDLING
 70
     1
  9
$HANDSEED
  5
145
  9
$SURFTAB1
 70
     6
  9
$SURFTAB2
 70
     6
  9
$SURFTYPE
 70
     6
  9
$SURFU
 70
     6
  9
$SURFV
 70
     6
  9
$UCSNAME
  2

  9
$UCSORG
 10
0.0
 20
0.0
 30
0.0
  9
$UCSXDIR
 10
1.0
 20
0.0
 30
0.0
  9
$UCSYDIR
 10
0.0
 20
1.0
 30
0.0
  9
$PUCSNAME
  2

  9
$PUCSORG
 10
0.0
 20
0.0
 30
0.0
  9
$PUCSXDIR
 10
1.0
 20
0.0
 30
0.0
  9
$PUCSYDIR
 10
0.0
 20
1.0
 30
0.0
  9
$USERI1
 70
     0
  9
$USERI2
 70
     0
  9
$USERI3
 70
     0
  9
$USERI4
 70
     0
  9
$USERI5
 70
     0
  9
$USERR1
 40
0.0
  9
$USERR2
 40
0.0
  9
$USERR3
 40
0.0
  9
$USERR4
 40
0.0
  9
$USERR5
 40
0.0
  9
$WORLDVIEW
 70
     1
  9
$SHADEDGE
 70
     3
  9
$SHADEDIF
 70
    70
  9
$TILEMODE
 70
     1
  9
$MAXACTVP
 70
    64
  9
$PINSBASE
 10
0.0
 20
0.0
 30
0.0
  9
$PLIMCHECK
 70
     0
  9
$PEXTMIN
 10
1.000000000000000E+20
 20
1.000000000000000E+20
 30
0.0
  9
$PEXTMAX
 10
-1.000000000000000E+20
 20
-1.000000000000000E+20
 30
0.0
  9
$PLIMMIN
 10
0.0
 20
0.0
  9
$PLIMMAX
 10
0.0
 20
0.0
  9
$UNITMODE
 70
     0
  9
$VISRETAIN
 70
     1
  9
$PLINEGEN
 70
     0
  9
$PSLTSCALE
 70
     1
  9
$TREEDEPTH
 70
  3020
  9
$PICKSTYLE
 70
     1
  9
$CMLSTYLE
  2
STANDARD
  9
$CMLJUST
 70
     0
  9
$CMLSCALE
 40
20.0
  9
$PROXYGRAPHICS
 70
     1
  9
$MEASUREMENT
 70
     1
  0
ENDSEC
  0
SECTION
  2
CLASSES
  0
CLASS
  1
ACDBDICTIONARYWDFLT
  2
AcDbDictionaryWithDefault
  3
ObjectDBX Classes
 90
        0
280
     0
281
     0
  0
CLASS
  1
VISUALSTYLE
  2
AcDbVisualStyle
  3
ObjectDBX Classes
 90
     4095
280
     0
281
     0
  0
CLASS
  1
SCALE
  2
AcDbScale
  3
ObjectDBX Classes
 90
     1153
280
     0
281
     0
  0
CLASS
  1
DICTIONARYVAR
  2
AcDbDictionaryVar
  3
ObjectDBX Classes
 90
        0
280
     0
281
     0
  0
CLASS
  1
ACDBPLACEHOLDER
  2
AcDbPlaceHolder
  3
ObjectDBX Classes
 90
        0
280
     0
281
     0
  0
CLASS
  1
LAYOUT
  2
AcDbLayout
  3
ObjectDBX Classes
 90
        0
280
     0
281
     0
  0
CLASS
  1
MATERIAL
  2
AcDbMaterial
  3
ObjectDBX Classes
 90
     1153
280
     0
281
     0
  0
CLASS
  1
TABLESTYLE
  2
AcDbTableStyle
  3
ObjectDBX Classes
 90
     4095
280
     0
281
     0
  0
CLASS
  1
MLEADERSTYLE
  2
AcDbMLeaderStyle
  3
ACDB_MLEADERSTYLE_CLASS
 90
     4095
280
     0
281
     0
  0
CLASS
  1
SUN
  2
AcDbSun
  3
SCENEOE
 90
     1153
280
     0
281
     0
  0
CLASS
  1
RASTERVARIABLES
  2
AcDbRasterVariables
  3
ISM
 90
        0
280
     0
281
     0
  0
CLASS
  1
XRECORD
  2
AcDbXrecord
  3
ObjectDBX Classes
 90
        0
280
     0
281
     0
  0
CLASS
  1
LWPOLYLINE
  2
AcDbPolyline
  3
ObjectDBX Classes
 90
        0
280
     0
281
     1
  0
CLASS
  1
HATCH
  2
AcDbHatch
  3
ObjectDBX Classes
 90
        0
280
     0
281
     1
  0
ENDSEC
  0
SECTION
  2
TABLES
  0
TABLE
  2
VPORT
  5
8
330
0
100
AcDbSymbolTable
 70
     1
  0
VPORT
  5
29
330
8
100
AcDbSymbolTableRecord
100
AcDbViewportTableRecord
  2
*ACTIVE
 70
     0
 10
0.0
 20
0.0
 11
1.0
 21
1.0
 12
38.17848274252763
 22
27.91334151003803
 13
0.0
 23
0.0
 14
1.0
 24
1.0
 15
0.0
 25
0.0
 16
0.0
 26
0.0
 36
1.0
 17
0.0
 27
0.0
 37
0.0
 40
65.1718421875
 41
1.997706422018349
 42
50.0
 43
0.0
 44
0.0
 50
0.0
 51
0.0
 71
    16
 72
   100
 73
     1
 74
     3
 75
     0
 76
     0
 77
     0
 78
     0
  0
ENDTAB
  0
TABLE
  2
LTYPE
  5
5
330
0
100
AcDbSymbolTable
 70
     5
  0
LTYPE
  5
14
330
5
100
AcDbSymbolTableRecord
100
AcDbLinetypeTableRecord
  2
BYBLOCK
 70
     0
  3

 72
    65
 73
     0
 40
0.0
  0
LTYPE
  5
15
330
5
100
AcDbSymbolTableRecord
100
AcDbLinetypeTableRecord
  2
BYLAYER
 70
     0
  3

 72
    65
 73
     0
 40
0.0
  0
LTYPE
  5
16
330
5
100
AcDbSymbolTableRecord
100
AcDbLinetypeTableRecord
  2
CONTINUOUS
 70
     0
  3
Solid line
 72
    65
 73
     0
 40
0.0
  0
LTYPE
  5
5D
330
5
100
AcDbSymbolTableRecord
100
AcDbLinetypeTableRecord
  2
DASHED
 70
     0
  3
DASHED
 72
    83
 73
     2
 40
0.75
 49
0.5
 74
     0
 49
-0.25
 74
     0
  0
LTYPE
  5
5E
330
5
100
AcDbSymbolTableRecord
100
AcDbLinetypeTableRecord
  2
HIDDEN
 70
     0
  3
HIDDEN
 72
    83
 73
     2
 40
0.375
 49
0.25
 74
     0
 49
-0.125
 74
     0
  0
LTYPE
  5
5F
330
5
100
AcDbSymbolTableRecord
100
AcDbLinetypeTableRecord
  2
CENTER
 70
     0
  3
CENTER
 72
    83
 73
     4
 40
2.0
 49
1.25
 74
     0
 49
-0.25
 74
     0
 49
0.25
 74
     0
 49
-0.25
 74
     0
  0
LTYPE
  5
60
330
5
100
AcDbSymbolTableRecord
100
AcDbLinetypeTableRecord
  2
PHANTOM
 70
     0
  3
PHANTOM
 72
    83
 73
     6
 40
2.5
 49
1.25
 74
     0
 49
-0.25
 74
     0
 49
0.25
 74
     0
 49
-0.25
 74
     0
 49
0.25
 74
     0
 49
-0.25
 74
     0
  0
ENDTAB
  0
TABLE
  2
LAYER
  5
2
330
0
100
AcDbSymbolTable
 70
     2
  0
LAYER
  5
10
330
2
100
AcDbSymbolTableRecord
100
AcDbLayerTableRecord
  2
0
 70
     0
 62
     7
  6
CONTINUOUS
  0
LAYER
  5
61
330
2
100
AcDbSymbolTableRecord
100
AcDbLayerTableRecord
  2
001
 70
     0
 62
     7
  6
CONTINUOUS
  0
ENDTAB
  0
TABLE
  2
STYLE
  5
3
330
0
100
AcDbSymbolTable
 70
     2
  0
STYLE
  5
11
330
3
100
AcDbSymbolTableRecord
100
AcDbTextStyleTableRecord
  2
STANDARD
 70
     0
 40
0.0
 41
1.0
 50
0.0
 71
     0
 42
0.2
  3
TXT
  4
BIGFONT
  0
STYLE
  5
62
330
3
100
AcDbSymbolTableRecord
100
AcDbTextStyleTableRecord
  2
TATEGAKI
 70
     4
 40
1.0
 41
1.0
 50
0.0
 71
     0
 42
0.2
  3
TXT
  4
BIGFONT
  0
ENDTAB
  0
TABLE
  2
VIEW
  5
6
330
0
100
AcDbSymbolTable
 70
     0
  0
ENDTAB
  0
TABLE
  2
UCS
  5
7
330
0
100
AcDbSymbolTable
 70
     0
  0
ENDTAB
  0
TABLE
  2
APPID
  5
9
330
0
100
AcDbSymbolTable
 70
     1
  0
APPID
  5
12
330
9
100
AcDbSymbolTableRecord
100
AcDbRegAppTableRecord
  2
ACAD
 70
     0
  0
ENDTAB
  0
TABLE
  2
DIMSTYLE
  5
A
330
0
100
AcDbSymbolTable
 70
     2
  0
DIMSTYLE
105
27
330
A
100
AcDbSymbolTableRecord
100
AcDbDimStyleTableRecord
  2
ISO-25
 70
     0
  3

  4

  5

  6

  7

 40
1.0
 41
2.5
 42
0.625
 43
3.75
 44
1.25
 45
0.0
 46
0.0
 47
0.0
 48
0.0
140
2.5
141
2.5
142
0.0
143
0.03937
144
1.0
145
0.0
146
1.0
147
0.625
 71
     0
 72
     0
 73
     0
 74
     0
 75
     0
 76
     0
 77
     1
 78
     8
170
     0
171
     3
172
     1
173
     0
174
     0
175
     0
176
     0
177
     0
178
     0
270
     2
271
     2
272
     2
273
     2
274
     3
340
11
275
     0
280
     0
281
     0
282
     0
283
     0
284
     8
285
     0
286
     0
287
     3
288
     0
  0
DIMSTYLE
105
63
102
{ACAD_REACTORS
330
E1
330
E2
330
E3
330
E4
330
E5
330
E6
102
}
330
A
100
AcDbSymbolTableRecord
100
AcDbDimStyleTableRecord
  2
STANDARD
 70
     0
  3

  4

  5

  6

  7

 40
1.0
 41
1.5
 42
0.0
 43
0.38
 44
2.75
 45
0.0
 46
0.0
 47
0.0
 48
0.0
140
4.0
141
0.09
142
0.0
143
25.4
144
1.0
145
0.0
146
0.8
147
1.0
 71
     0
 72
     0
 73
     0
 74
     0
 75
     0
 76
     0
 77
     1
 78
     8
170
     0
171
     2
172
     1
173
     0
174
     0
175
     0
176
     0
177
     0
178
     0
179
     1
270
     2
271
     1
272
     4
273
     2
274
     2
340
11
275
     0
280
     0
281
     0
282
     0
283
     1
284
     0
285
     0
286
     0
287
     3
288
     0
  0
ENDTAB
  0
TABLE
  2
BLOCK_RECORD
  5
1
330
0
100
AcDbSymbolTable
 70
     7
  0
BLOCK_RECORD
  5
1F
330
1
100
AcDbSymbolTableRecord
100
AcDbBlockTableRecord
  2
*MODEL_SPACE
  0
BLOCK_RECORD
  5
1B
330
1
100
AcDbSymbolTableRecord
100
AcDbBlockTableRecord
  2
*PAPER_SPACE
  0
BLOCK_RECORD
  5
23
330
1
100
AcDbSymbolTableRecord
100
AcDbBlockTableRecord
  2
*PAPER_SPACE0
  0
BLOCK_RECORD
  5
64
330
1
100
AcDbSymbolTableRecord
100
AcDbBlockTableRecord
  2
*D1
  0
BLOCK_RECORD
  5
7A
330
1
100
AcDbSymbolTableRecord
100
AcDbBlockTableRecord
  2
*D2
  0
BLOCK_RECORD
  5
8E
330
1
100
AcDbSymbolTableRecord
100
AcDbBlockTableRecord
  2
*D3
  0
BLOCK_RECORD
  5
A2
330
1
100
AcDbSymbolTableRecord
100
AcDbBlockTableRecord
  2
*D4
  0
BLOCK_RECORD
  5
B7
330
1
100
AcDbSymbolTableRecord
100
AcDbBlockTableRecord
  2
*D5
  0
BLOCK_RECORD
  5
CC
330
1
100
AcDbSymbolTableRecord
100
AcDbBlockTableRecord
  2
*D6
  0
ENDTAB
  0
ENDSEC
  0
SECTION
  2
BLOCKS
  0
BLOCK
  5
20
330
1F
100
AcDbEntity
  8
0
100
AcDbBlockBegin
  2
*MODEL_SPACE
 70
     0
 10
0.0
 20
0.0
 30
0.0
  3
*MODEL_SPACE
  1

  0
ENDBLK
  5
21
330
1F
100
AcDbEntity
  8
0
100
AcDbBlockEnd
  0
BLOCK
  5
1C
330
1B
100
AcDbEntity
 67
     1
  8
0
100
AcDbBlockBegin
  2
*PAPER_SPACE
 70
     0
 10
0.0
 20
0.0
 30
0.0
  3
*PAPER_SPACE
  1

  0
ENDBLK
  5
1D
330
1B
100
AcDbEntity
 67
     1
  8
0
100
AcDbBlockEnd
  0
BLOCK
  5
24
330
23
100
AcDbEntity
  8
0
100
AcDbBlockBegin
  2
*PAPER_SPACE0
 70
     0
 10
0.0
 20
0.0
 30
0.0
  3
*PAPER_SPACE0
  1

  0
ENDBLK
  5
25
330
23
100
AcDbEntity
  8
0
100
AcDbBlockEnd
  0
BLOCK
  5
65
330
64
100
AcDbEntity
  8
0
100
AcDbBlockBegin
  2
*D1
 70
     1
 10
0.0
 20
0.0
 30
0.0
  3
*D1
  1

  0
LINE
  5
67
330
64
100
AcDbEntity
  8
001
100
AcDbLine
 10
10.359451
 20
15.77832
 30
0.0
 11
5.714158
 21
15.77832
 31
0.0
  0
LINE
  5
68
330
64
100
AcDbEntity
  8
001
100
AcDbLine
 10
10.235187
 20
14.77832
 30
0.0
 11
5.714158
 21
14.77832
 31
0.0
  0
LINE
  5
69
330
64
100
AcDbEntity
  8
001
100
AcDbLine
 10
6.264158
 20
15.77832
 30
0.0
 11
6.264158
 21
14.77832
 31
0.0
  0
POLYLINE
  5
6A
330
64
100
AcDbEntity
  8
001
100
AcDb2dPolyline
 66
     1
 10
0.0
 20
0.0
 30
0.0
  0
VERTEX
  5
6C
330
6A
100
AcDbEntity
  8
001
100
AcDbVertex
100
AcDb2dVertex
 10
6.344542
 20
16.07832
 30
0.0
  0
VERTEX
  5
6D
330
6A
100
AcDbEntity
  8
001
100
AcDbVertex
100
AcDb2dVertex
 10
6.264158
 20
15.77832
 30
0.0
  0
VERTEX
  5
6E
330
6A
100
AcDbEntity
  8
001
100
AcDbVertex
100
AcDb2dVertex
 10
6.183773
 20
16.07832
 30
0.0
  0
SEQEND
  5
6B
330
6A
100
AcDbEntity
  8
001
  0
POLYLINE
  5
6F
330
64
100
AcDbEntity
  8
001
100
AcDb2dPolyline
 66
     1
 10
0.0
 20
0.0
 30
0.0
  0
VERTEX
  5
71
330
6F
100
AcDbEntity
  8
001
100
AcDbVertex
100
AcDb2dVertex
 10
6.183773
 20
14.47832
 30
0.0
  0
VERTEX
  5
72
330
6F
100
AcDbEntity
  8
001
100
AcDbVertex
100
AcDb2dVertex
 10
6.264158
 20
14.77832
 30
0.0
  0
VERTEX
  5
73
330
6F
100
AcDbEntity
  8
001
100
AcDbVertex
100
AcDb2dVertex
 10
6.344542
 20
14.47832
 30
0.0
  0
SEQEND
  5
70
330
6F
100
AcDbEntity
  8
001
  0
TEXT
  5
74
330
64
100
AcDbEntity
  8
001
100
AcDbText
 10
6.064158
 20
12.190604
 30
0.0
 40
0.8
  1
%%c１
 50
90.000003
 41
0.909091
100
AcDbText
  0
POINT
  5
75
330
64
100
AcDbEntity
  8
001
100
AcDbPoint
 10
10.359451
 20
15.77832
 30
0.0
  0
POINT
  5
76
330
64
100
AcDbEntity
  8
001
100
AcDbPoint
 10
10.235187
 20
14.77832
 30
0.0
  0
POINT
  5
77
330
64
100
AcDbEntity
  8
001
100
AcDbPoint
 10
6.264158
 20
14.77832
 30
0.0
  0
LINE
  5
78
330
64
100
AcDbEntity
  8
001
100
AcDbLine
 10
6.264158
 20
15.77832
 30
0.0
 11
6.264158
 21
16.27832
 31
0.0
  0
LINE
  5
79
330
64
100
AcDbEntity
  8
001
100
AcDbLine
 10
6.264158
 20
14.77832
 30
0.0
 11
6.264158
 21
11.590604
 31
0.0
  0
ENDBLK
  5
66
330
64
100
AcDbEntity
  8
0
100
AcDbBlockEnd
  0
BLOCK
  5
7B
330
7A
100
AcDbEntity
  8
0
100
AcDbBlockBegin
  2
*D2
 70
     1
 10
0.0
 20
0.0
 30
0.0
  3
*D2
  1

  0
LINE
  5
7D
330
7A
100
AcDbEntity
  8
001
100
AcDbLine
 10
18.735187
 20
14.77832
 30
0.0
 11
18.735187
 21
6.938238
 31
0.0
  0
LINE
  5
7E
330
7A
100
AcDbEntity
  8
001
100
AcDbLine
 10
9.735187
 20
10.799068
 30
0.0
 11
9.735187
 21
6.938238
 31
0.0
  0
LINE
  5
7F
330
7A
100
AcDbEntity
  8
001
100
AcDbLine
 10
18.735187
 20
7.488238
 30
0.0
 11
9.735187
 21
7.488238
 31
0.0
  0
POLYLINE
  5
80
330
7A
100
AcDbEntity
  8
001
100
AcDb2dPolyline
 66
     1
 10
0.0
 20
0.0
 30
0.0
  0
VERTEX
  5
82
330
80
100
AcDbEntity
  8
001
100
AcDbVertex
100
AcDb2dVertex
 10
18.435187
 20
7.568623
 30
0.0
  0
VERTEX
  5
83
330
80
100
AcDbEntity
  8
001
100
AcDbVertex
100
AcDb2dVertex
 10
18.735187
 20
7.488238
 30
0.0
  0
VERTEX
  5
84
330
80
100
AcDbEntity
  8
001
100
AcDbVertex
100
AcDb2dVertex
 10
18.435187
 20
7.407853
 30
0.0
  0
SEQEND
  5
81
330
80
100
AcDbEntity
  8
001
  0
POLYLINE
  5
85
330
7A
100
AcDbEntity
  8
001
100
AcDb2dPolyline
 66
     1
 10
0.0
 20
0.0
 30
0.0
  0
VERTEX
  5
87
330
85
100
AcDbEntity
  8
001
100
AcDbVertex
100
AcDb2dVertex
 10
10.035187
 20
7.407853
 30
0.0
  0
VERTEX
  5
88
330
85
100
AcDbEntity
  8
001
100
AcDbVertex
100
AcDb2dVertex
 10
9.735187
 20
7.488238
 30
0.0
  0
VERTEX
  5
89
330
85
100
AcDbEntity
  8
001
100
AcDbVertex
100
AcDb2dVertex
 10
10.035187
 20
7.568623
 30
0.0
  0
SEQEND
  5
86
330
85
100
AcDbEntity
  8
001
  0
TEXT
  5
8A
330
7A
100
AcDbEntity
  8
001
100
AcDbText
 10
13.835187
 20
7.688238
 30
0.0
 40
0.8
  1
９
 41
0.833333
100
AcDbText
  0
POINT
  5
8B
330
7A
100
AcDbEntity
  8
001
100
AcDbPoint
 10
18.735187
 20
14.77832
 30
0.0
  0
POINT
  5
8C
330
7A
100
AcDbEntity
  8
001
100
AcDbPoint
 10
9.735187
 20
10.799068
 30
0.0
  0
POINT
  5
8D
330
7A
100
AcDbEntity
  8
001
100
AcDbPoint
 10
9.735187
 20
7.488238
 30
0.0
  0
ENDBLK
  5
7C
330
7A
100
AcDbEntity
  8
0
100
AcDbBlockEnd
  0
BLOCK
  5
8F
330
8E
100
AcDbEntity
  8
0
100
AcDbBlockBegin
  2
*D3
 70
     1
 10
0.0
 20
0.0
 30
0.0
  3
*D3
  1

  0
LINE
  5
91
330
8E
100
AcDbEntity
  8
001
100
AcDbLine
 10
64.735187
 20
14.27832
 30
0.0
 11
64.735187
 21
1.738174
 31
0.0
  0
LINE
  5
92
330
8E
100
AcDbEntity
  8
001
100
AcDbLine
 10
9.735187
 20
10.799068
 30
0.0
 11
9.735187
 21
1.738174
 31
0.0
  0
LINE
  5
93
330
8E
100
AcDbEntity
  8
001
100
AcDbLine
 10
64.735187
 20
2.288174
 30
0.0
 11
9.735187
 21
2.288174
 31
0.0
  0
POLYLINE
  5
94
330
8E
100
AcDbEntity
  8
001
100
AcDb2dPolyline
 66
     1
 10
0.0
 20
0.0
 30
0.0
  0
VERTEX
  5
96
330
94
100
AcDbEntity
  8
001
100
AcDbVertex
100
AcDb2dVertex
 10
64.435187
 20
2.368559
 30
0.0
  0
VERTEX
  5
97
330
94
100
AcDbEntity
  8
001
100
AcDbVertex
100
AcDb2dVertex
 10
64.735187
 20
2.288174
 30
0.0
  0
VERTEX
  5
98
330
94
100
AcDbEntity
  8
001
100
AcDbVertex
100
AcDb2dVertex
 10
64.435187
 20
2.20779
 30
0.0
  0
SEQEND
  5
95
330
94
100
AcDbEntity
  8
001
  0
POLYLINE
  5
99
330
8E
100
AcDbEntity
  8
001
100
AcDb2dPolyline
 66
     1
 10
0.0
 20
0.0
 30
0.0
  0
VERTEX
  5
9B
330
99
100
AcDbEntity
  8
001
100
AcDbVertex
100
AcDb2dVertex
 10
10.035187
 20
2.20779
 30
0.0
  0
VERTEX
  5
9C
330
99
100
AcDbEntity
  8
001
100
AcDbVertex
100
AcDb2dVertex
 10
9.735187
 20
2.288174
 30
0.0
  0
VERTEX
  5
9D
330
99
100
AcDbEntity
  8
001
100
AcDbVertex
100
AcDb2dVertex
 10
10.035187
 20
2.368559
 30
0.0
  0
SEQEND
  5
9A
330
99
100
AcDbEntity
  8
001
  0
TEXT
  5
9E
330
8E
100
AcDbEntity
  8
001
100
AcDbText
 10
36.080132
 20
2.488174
 30
0.0
 40
0.8
  1
５５
 41
0.833333
100
AcDbText
  0
POINT
  5
9F
330
8E
100
AcDbEntity
  8
001
100
AcDbPoint
 10
64.735187
 20
14.27832
 30
0.0
  0
POINT
  5
A0
330
8E
100
AcDbEntity
  8
001
100
AcDbPoint
 10
9.735187
 20
10.799068
 30
0.0
  0
POINT
  5
A1
330
8E
100
AcDbEntity
  8
001
100
AcDbPoint
 10
9.735187
 20
2.288174
 30
0.0
  0
ENDBLK
  5
90
330
8E
100
AcDbEntity
  8
0
100
AcDbBlockEnd
  0
BLOCK
  5
A3
330
A2
100
AcDbEntity
  8
0
100
AcDbBlockBegin
  2
*D4
 70
     1
 10
0.0
 20
0.0
 30
0.0
  3
*D4
  1

  0
LINE
  5
A5
330
A2
100
AcDbEntity
  8
001
100
AcDbLine
 10
10.147319
 20
15.690452
 30
0.0
 11
19.468638
 21
25.011771
 31
0.0
  0
LINE
  5
A6
330
A2
100
AcDbEntity
  8
001
100
AcDbLine
 10
10.235187
 20
14.77832
 30
0.0
 11
19.468638
 21
5.544869
 31
0.0
  0
ARC
  5
A7
330
A2
100
AcDbEntity
  8
001
100
AcDbCircle
 10
9.735187
 20
15.27832
 30
0.0
 40
13.21517849169056
100
AcDbArc
 50
315.0
 51
45.0
  0
POLYLINE
  5
A8
330
A2
100
AcDbEntity
  8
001
100
AcDb2dPolyline
 66
     1
 10
0.0
 20
0.0
 30
0.0
  0
VERTEX
  5
AA
330
A8
100
AcDbEntity
  8
001
100
AcDbVertex
100
AcDb2dVertex
 10
19.231957
 20
24.352145
 30
0.0
  0
VERTEX
  5
AB
330
A8
100
AcDbEntity
  8
001
100
AcDbVertex
100
AcDb2dVertex
 10
19.079729
 20
24.622863
 30
0.0
  0
VERTEX
  5
AC
330
A8
100
AcDbEntity
  8
001
100
AcDbVertex
100
AcDb2dVertex
 10
19.346922
 20
24.464528
 30
0.0
  0
SEQEND
  5
A9
330
A8
100
AcDbEntity
  8
001
  0
POLYLINE
  5
AD
330
A2
100
AcDbEntity
  8
001
100
AcDb2dPolyline
 66
     1
 10
0.0
 20
0.0
 30
0.0
  0
VERTEX
  5
AF
330
AD
100
AcDbEntity
  8
001
100
AcDbVertex
100
AcDb2dVertex
 10
19.346922
 20
6.092112
 30
0.0
  0
VERTEX
  5
B0
330
AD
100
AcDbEntity
  8
001
100
AcDbVertex
100
AcDb2dVertex
 10
19.079729
 20
5.933778
 30
0.0
  0
VERTEX
  5
B1
330
AD
100
AcDbEntity
  8
001
100
AcDbVertex
100
AcDb2dVertex
 10
19.231957
 20
6.204496
 30
0.0
  0
SEQEND
  5
AE
330
AD
100
AcDbEntity
  8
001
  0
TEXT
  5
B2
330
A2
100
AcDbEntity
  8
001
100
AcDbText
 10
22.025053
 20
20.788875
 30
0.0
 40
0.8
  1
９０%%d
 50
289.039071
 41
0.978261
100
AcDbText
  0
POINT
  5
B3
330
A2
100
AcDbEntity
  8
001
100
AcDbPoint
 10
10.147319
 20
15.690452
 30
0.0
  0
POINT
  5
B4
330
A2
100
AcDbEntity
  8
001
100
AcDbPoint
 10
9.735187
 20
15.27832
 30
0.0
  0
POINT
  5
B5
330
A2
100
AcDbEntity
  8
001
100
AcDbPoint
 10
9.735187
 20
15.27832
 30
0.0
  0
POINT
  5
B6
330
A2
100
AcDbEntity
  8
001
100
AcDbPoint
 10
10.235187
 20
14.77832
 30
0.0
  0
ENDBLK
  5
A4
330
A2
100
AcDbEntity
  8
0
100
AcDbBlockEnd
  0
BLOCK
  5
B8
330
B7
100
AcDbEntity
  8
0
100
AcDbBlockBegin
  2
*D5
 70
     1
 10
0.0
 20
0.0
 30
0.0
  3
*D5
  1

  0
LINE
  5
BA
330
B7
100
AcDbEntity
  8
001
100
AcDbLine
 10
24.333263
 20
17.27832
 30
0.0
 11
30.364879
 21
18.894487
 31
0.0
  0
LINE
  5
BB
330
B7
100
AcDbEntity
  8
001
100
AcDbLine
 10
24.333263
 20
13.27832
 30
0.0
 11
30.364879
 21
11.662154
 31
0.0
  0
ARC
  5
BC
330
B7
100
AcDbEntity
  8
001
100
AcDbCircle
 10
16.869161
 20
15.27832
 30
0.0
 40
13.42179522845312
100
AcDbArc
 50
345.0
 51
15.0
  0
POLYLINE
  5
BD
330
B7
100
AcDbEntity
  8
001
100
AcDb2dPolyline
 66
     1
 10
0.0
 20
0.0
 30
0.0
  0
VERTEX
  5
BF
330
BD
100
AcDbEntity
  8
001
100
AcDbVertex
100
AcDb2dVertex
 10
29.830149
 20
18.441573
 30
0.0
  0
VERTEX
  5
C0
330
BD
100
AcDbEntity
  8
001
100
AcDbVertex
100
AcDb2dVertex
 10
29.83362
 20
18.752137
 30
0.0
  0
VERTEX
  5
C1
330
BD
100
AcDbEntity
  8
001
100
AcDbVertex
100
AcDb2dVertex
 10
29.985896
 20
18.481445
 30
0.0
  0
SEQEND
  5
BE
330
BD
100
AcDbEntity
  8
001
  0
POLYLINE
  5
C2
330
B7
100
AcDbEntity
  8
001
100
AcDb2dPolyline
 66
     1
 10
0.0
 20
0.0
 30
0.0
  0
VERTEX
  5
C4
330
C2
100
AcDbEntity
  8
001
100
AcDbVertex
100
AcDb2dVertex
 10
29.985896
 20
12.075195
 30
0.0
  0
VERTEX
  5
C5
330
C2
100
AcDbEntity
  8
001
100
AcDbVertex
100
AcDb2dVertex
 10
29.83362
 20
11.804504
 30
0.0
  0
VERTEX
  5
C6
330
C2
100
AcDbEntity
  8
001
100
AcDbVertex
100
AcDb2dVertex
 10
29.830149
 20
12.115068
 30
0.0
  0
SEQEND
  5
C3
330
C2
100
AcDbEntity
  8
001
  0
TEXT
  5
C7
330
B7
100
AcDbEntity
  8
001
100
AcDbText
 10
30.490956
 20
16.47832
 30
0.0
 40
0.8
  1
３０%%d
 50
270.0000009999999
 41
0.978261
100
AcDbText
  0
POINT
  5
C8
330
B7
100
AcDbEntity
  8
001
100
AcDbPoint
 10
24.333263
 20
17.27832
 30
0.0
  0
POINT
  5
C9
330
B7
100
AcDbEntity
  8
001
100
AcDbPoint
 10
16.869161
 20
15.27832
 30
0.0
  0
POINT
  5
CA
330
B7
100
AcDbEntity
  8
001
100
AcDbPoint
 10
16.869161
 20
15.27832
 30
0.0
  0
POINT
  5
CB
330
B7
100
AcDbEntity
  8
001
100
AcDbPoint
 10
24.333263
 20
13.27832
 30
0.0
  0
ENDBLK
  5
B9
330
B7
100
AcDbEntity
  8
0
100
AcDbBlockEnd
  0
BLOCK
  5
CD
330
CC
100
AcDbEntity
  8
0
100
AcDbBlockBegin
  2
*D6
 70
     1
 10
0.0
 20
0.0
 30
0.0
  3
*D6
  1

  0
LINE
  5
CF
330
CC
100
AcDbEntity
  8
001
100
AcDbLine
 10
64.435187
 20
17.27832
 30
0.0
 11
70.984686
 21
17.27832
 31
0.0
  0
LINE
  5
D0
330
CC
100
AcDbEntity
  8
001
100
AcDbLine
 10
64.435187
 20
13.27832
 30
0.0
 11
70.984686
 21
13.27832
 31
0.0
  0
LINE
  5
D1
330
CC
100
AcDbEntity
  8
001
100
AcDbLine
 10
70.434686
 20
17.27832
 30
0.0
 11
70.434686
 21
13.27832
 31
0.0
  0
POLYLINE
  5
D2
330
CC
100
AcDbEntity
  8
001
100
AcDb2dPolyline
 66
     1
 10
0.0
 20
0.0
 30
0.0
  0
VERTEX
  5
D4
330
D2
100
AcDbEntity
  8
001
100
AcDbVertex
100
AcDb2dVertex
 10
70.354301
 20
16.97832
 30
0.0
  0
VERTEX
  5
D5
330
D2
100
AcDbEntity
  8
001
100
AcDbVertex
100
AcDb2dVertex
 10
70.434686
 20
17.27832
 30
0.0
  0
VERTEX
  5
D6
330
D2
100
AcDbEntity
  8
001
100
AcDbVertex
100
AcDb2dVertex
 10
70.515071
 20
16.97832
 30
0.0
  0
SEQEND
  5
D3
330
D2
100
AcDbEntity
  8
001
  0
POLYLINE
  5
D7
330
CC
100
AcDbEntity
  8
001
100
AcDb2dPolyline
 66
     1
 10
0.0
 20
0.0
 30
0.0
  0
VERTEX
  5
D9
330
D7
100
AcDbEntity
  8
001
100
AcDbVertex
100
AcDb2dVertex
 10
70.515071
 20
13.57832
 30
0.0
  0
VERTEX
  5
DA
330
D7
100
AcDbEntity
  8
001
100
AcDbVertex
100
AcDb2dVertex
 10
70.434686
 20
13.27832
 30
0.0
  0
VERTEX
  5
DB
330
D7
100
AcDbEntity
  8
001
100
AcDbVertex
100
AcDb2dVertex
 10
70.354301
 20
13.57832
 30
0.0
  0
SEQEND
  5
D8
330
D7
100
AcDbEntity
  8
001
  0
TEXT
  5
DC
330
CC
100
AcDbEntity
  8
001
100
AcDbText
 10
70.234686
 20
10.97832
 30
0.0
 40
0.8
  1
%%c４
 50
90.000003
 41
0.909091
100
AcDbText
  0
POINT
  5
DD
330
CC
100
AcDbEntity
  8
001
100
AcDbPoint
 10
64.435187
 20
17.27832
 30
0.0
  0
POINT
  5
DE
330
CC
100
AcDbEntity
  8
001
100
AcDbPoint
 10
64.435187
 20
13.27832
 30
0.0
  0
POINT
  5
DF
330
CC
100
AcDbEntity
  8
001
100
AcDbPoint
 10
70.434686
 20
13.27832
 30
0.0
  0
LINE
  5
E0
330
CC
100
AcDbEntity
  8
001
100
AcDbLine
 10
70.434686
 20
13.27832
 30
0.0
 11
70.434686
 21
10.37832
 31
0.0
  0
ENDBLK
  5
CE
330
CC
100
AcDbEntity
  8
0
100
AcDbBlockEnd
  0
ENDSEC
  0
SECTION
  2
ENTITIES
  0
DIMENSION
  5
E1
330
1F
100
AcDbEntity
  8
001
100
AcDbDimension
  2
*D1
 10
6.264158
 20
14.77832
 30
0.0
 11
5.664158
 21
12.990604
 31
0.0
 70
   160
  3
STANDARD
100
AcDbAlignedDimension
 13
10.359451
 23
15.77832
 33
0.0
 14
10.235187
 24
14.77832
 34
0.0
 50
270.0
100
AcDbRotatedDimension
  0
DIMENSION
  5
E2
330
1F
100
AcDbEntity
  8
001
100
AcDbDimension
  2
*D2
 10
9.735187
 20
7.488238
 30
0.0
 11
14.235187
 21
8.088238
 31
0.0
 70
   160
  3
STANDARD
100
AcDbAlignedDimension
 13
18.735187
 23
14.77832
 33
0.0
 14
9.735187
 24
10.799068
 34
0.0
 50
180.0
100
AcDbRotatedDimension
  0
DIMENSION
  5
E3
330
1F
100
AcDbEntity
  8
001
100
AcDbDimension
  2
*D3
 10
9.735187
 20
2.288174
 30
0.0
 11
36.880132
 21
2.888174
 31
0.0
 70
   160
  3
STANDARD
100
AcDbAlignedDimension
 13
64.735187
 23
14.27832
 33
0.0
 14
9.735187
 24
10.799068
 34
0.0
 50
180.0
100
AcDbRotatedDimension
  0
DIMENSION
  5
E4
330
1F
100
AcDbEntity
  8
001
100
AcDbDimension
  2
*D4
 10
9.735187
 20
15.27832
 30
0.0
 11
22.794626
 21
19.785004
 31
0.0
 70
    34
  3
STANDARD
100
AcDb2LineAngularDimension
 13
10.147319
 23
15.690452
 33
0.0
 14
9.735187
 24
15.27832
 34
0.0
 15
10.235187
 25
14.77832
 35
0.0
 16
22.950365
 26
15.27832
 36
0.0
  0
DIMENSION
  5
E5
330
1F
100
AcDbEntity
  8
001
100
AcDbDimension
  2
*D5
 10
16.869161
 20
15.27832
 30
0.0
 11
30.890956
 21
15.27832
 31
0.0
 70
    34
  3
STANDARD
100
AcDb2LineAngularDimension
 13
24.333263
 23
17.27832
 33
0.0
 14
16.869161
 24
15.27832
 34
0.0
 15
24.333263
 25
13.27832
 35
0.0
 16
30.290956
 26
15.27832
 36
0.0
  0
DIMENSION
  5
E6
330
1F
100
AcDbEntity
  8
001
100
AcDbDimension
  2
*D6
 10
70.434686
 20
13.27832
 30
0.0
 11
69.834686
 21
11.77832
 31
0.0
 70
   160
  3
STANDARD
100
AcDbAlignedDimension
 13
64.435187
 23
17.27832
 33
0.0
 14
64.435187
 24
13.27832
 34
0.0
 50
270.0
100
AcDbRotatedDimension
  0
LINE
  5
E7
330
1F
100
AcDbEntity
  8
001
100
AcDbLine
 10
64.735187
 20
16.97832
 30
0.0
 11
64.735187
 21
13.57832
 31
0.0
  0
LINE
  5
E8
330
1F
100
AcDbEntity
  8
001
100
AcDbLine
 10
10.147319
 20
15.690452
 30
0.0
 11
9.735187
 21
15.27832
 31
0.0
  0
LINE
  5
E9
330
1F
100
AcDbEntity
  8
001
100
AcDbLine
 10
10.235187
 20
14.77832
 30
0.0
 11
9.735187
 21
15.27832
 31
0.0
  0
LINE
  5
EA
330
1F
100
AcDbEntity
  8
001
100
AcDbLine
 10
10.235187
 20
14.77832
 30
0.0
 11
18.735187
 21
14.77832
 31
0.0
  0
LINE
  5
EB
330
1F
100
AcDbEntity
  8
001
100
AcDbLine
 10
18.735187
 20
15.77832
 30
0.0
 11
18.735187
 21
14.77832
 31
0.0
  0
LINE
  5
EC
330
1F
100
AcDbEntity
  8
001
100
AcDbLine
 10
9.735187
 20
15.27832
 30
0.0
 11
9.735187
 21
10.799068
 31
0.0
  0
LINE
  5
ED
330
1F
100
AcDbEntity
  8
001
100
AcDbLine
 10
24.333263
 20
13.27832
 30
0.0
 11
18.735187
 21
14.77832
 31
0.0
  0
LINE
  5
EE
330
1F
100
AcDbEntity
  8
001
  6
CENTER
100
AcDbLine
 10
9.014597
 20
15.27832
 30
0.0
 11
29.082755
 21
15.27832
 31
0.0
  0
LINE
  5
EF
330
1F
100
AcDbEntity
  8
001
  6
CENTER
100
AcDbLine
 10
32.274089
 20
15.27832
 30
0.0
 11
65.691064
 21
15.27832
 31
0.0
  0
LINE
  5
F0
330
1F
100
AcDbEntity
  8
001
100
AcDbLine
 10
10.359451
 20
15.77832
 30
0.0
 11
18.735187
 21
15.77832
 31
0.0
  0
LINE
  5
F1
330
1F
100
AcDbEntity
  8
001
100
AcDbLine
 10
24.333263
 20
17.27832
 30
0.0
 11
18.735187
 21
15.77832
 31
0.0
  0
LINE
  5
F2
330
1F
100
AcDbEntity
  8
001
100
AcDbLine
 10
9.767841
 20
15.310975
 30
0.0
 11
10.614426
 21
14.77832
 31
0.0
  0
ARC
  5
F3
330
1F
100
AcDbEntity
  8
001
100
AcDbCircle
 10
10.359451
 20
15.47832
 30
0.0
 40
0.3
100
AcDbArc
 50
90.0
 51
135.0
  0
POLYLINE
  5
F4
330
1F
100
AcDbEntity
  8
001
100
AcDb2dPolyline
 66
     1
 10
0.0
 20
0.0
 30
0.0
  0
VERTEX
  5
F6
330
F4
100
AcDbEntity
  8
001
100
AcDbVertex
100
AcDb2dVertex
 10
10.359451
 20
15.77832
 30
0.0
  0
VERTEX
  5
F7
330
F4
100
AcDbEntity
  8
001
100
AcDbVertex
100
AcDb2dVertex
 10
10.694106
 20
15.710292
 30
0.0
  0
VERTEX
  5
F8
330
F4
100
AcDbEntity
  8
001
100
AcDbVertex
100
AcDb2dVertex
 10
11.074025
 20
15.571624
 30
0.0
  0
VERTEX
  5
F9
330
F4
100
AcDbEntity
  8
001
100
AcDbVertex
100
AcDb2dVertex
 10
11.416391
 20
15.365358
 30
0.0
  0
VERTEX
  5
FA
330
F4
100
AcDbEntity
  8
001
100
AcDbVertex
100
AcDb2dVertex
 10
11.540388
 20
15.140064
 30
0.0
  0
VERTEX
  5
FB
330
F4
100
AcDbEntity
  8
001
100
AcDbVertex
100
AcDb2dVertex
 10
11.417191
 20
15.026952
 30
0.0
  0
VERTEX
  5
FC
330
F4
100
AcDbEntity
  8
001
100
AcDbVertex
100
AcDb2dVertex
 10
11.213238
 20
14.938205
 30
0.0
  0
VERTEX
  5
FD
330
F4
100
AcDbEntity
  8
001
100
AcDbVertex
100
AcDb2dVertex
 10
10.899198
 20
14.842063
 30
0.0
  0
VERTEX
  5
FE
330
F4
100
AcDbEntity
  8
001
100
AcDbVertex
100
AcDb2dVertex
 10
10.614426
 20
14.77832
 30
0.0
  0
SEQEND
  5
F5
330
F4
100
AcDbEntity
  8
001
  0
LINE
  5
FF
330
1F
100
AcDbEntity
  8
001
100
AcDbLine
 10
64.735187
 20
16.97832
 30
0.0
 11
64.435187
 21
17.27832
 31
0.0
  0
LINE
  5
100
330
1F
100
AcDbEntity
  8
001
100
AcDbLine
 10
64.735187
 20
13.57832
 30
0.0
 11
64.435187
 21
13.27832
 31
0.0
  0
LINE
  5
101
330
1F
100
AcDbEntity
  8
001
100
AcDbLine
 10
64.435187
 20
13.27832
 30
0.0
 11
64.435187
 21
17.27832
 31
0.0
  0
TEXT
  5
102
330
1F
100
AcDbEntity
  8
001
100
AcDbText
 10
9.481793
 20
39.035184
 30
0.0
 40
4.0
  1
ぴんこ　ＰＫＰ０１４５
 41
0.833333
100
AcDbText
  0
TEXT
  5
103
330
1F
100
AcDbEntity
  8
001
100
AcDbText
 10
9.481793
 20
33.035184
 30
0.0
 40
4.0
  1
　　　　ＰＫＰ０１４５Ｃ
 41
0.833333
100
AcDbText
  0
TEXT
  5
104
330
1F
100
AcDbEntity
  8
001
100
AcDbText
 10
9.481793
 20
27.035184
 30
0.0
 40
4.0
  1
　　　　ＰＫＰ０１４５ＤＬＣ
 41
0.833333
100
AcDbText
  0
LINE
  5
105
330
1F
100
AcDbEntity
  8
001
100
AcDbLine
 10
24.333263
 20
17.27832
 30
0.0
 11
64.435187
 21
17.27832
 31
0.0
  0
LINE
  5
106
330
1F
100
AcDbEntity
  8
001
100
AcDbLine
 10
24.333263
 20
13.27832
 30
0.0
 11
64.435187
 21
13.27832
 31
0.0
  0
LINE
  5
107
330
1F
100
AcDbEntity
  8
001
100
AcDbLine
 10
24.333263
 20
17.27832
 30
0.0
 11
24.333263
 21
13.27832
 31
0.0
  0
ENDSEC
  0
SECTION
  2
OBJECTS
  0
DICTIONARY
  5
C
330
0
100
AcDbDictionary
  3
ACAD_GROUP
350
D
  3
ACAD_IMAGE_VARS
350
120
  3
ACAD_MLINESTYLE
350
17
  3
ACAD_SCALELIST
350
3B
  3
ACDBVARIABLEDICTIONARY
350
108
  3
APPDATA
350
11E
  3
DWGPROPS
350
144
  0
DICTIONARY
  5
D
102
{ACAD_REACTORS
330
C
102
}
330
C
100
AcDbDictionary
  0
RASTERVARIABLES
  5
120
102
{ACAD_REACTORS
330
C
102
}
330
C
100
AcDbRasterVariables
 90
        0
 70
     1
 71
     1
 72
     1
  0
DICTIONARY
  5
17
102
{ACAD_REACTORS
330
C
102
}
330
C
100
AcDbDictionary
  3
STANDARD
350
18
  0
DICTIONARY
  5
3B
102
{ACAD_REACTORS
330
C
102
}
330
C
100
AcDbDictionary
  0
DICTIONARY
  5
108
102
{ACAD_REACTORS
330
C
102
}
330
C
100
AcDbDictionary
  0
DICTIONARY
  5
11E
102
{ACAD_REACTORS
330
C
102
}
330
C
100
AcDbDictionary
  0
XRECORD
  5
144
102
{ACAD_REACTORS
330
C
102
}
330
C
100
AcDbXrecord
  1
DWGPROPS COOKIE
  2

  3

  4

  6

  7

  8
kaihatu03
  9

300
=
301
=
302
=
303
=
304
=
305
=
306
=
307
=
308
=
309
=
 40
0.0
 41
2456673.323228623
 42
2457991.256613148
  1

 90
        0
  0
MLINESTYLE
  5
18
102
{ACAD_REACTORS
330
17
102
}
330
17
100
AcDbMlineStyle
  2
Standard
 70
     0
  3

 62
   256
 51
90.0
 52
90.0
 71
     2
 49
0.5
 62
   256
  6
BYLAYER
 49
-0.5
 62
   256
  6
BYLAYER
  0
ENDSEC
  0
EOF
