  0
SECTION
  2
HEADER
  9
$ACADVER
  1
AC1015
  9
$ACADMAINTVER
 70
     6
  9
$DWGCODEPAGE
  3
ANSI_932
  9
$INSBASE
 10
0.0
 20
0.0
 30
0.0
  9
$EXTMIN
 10
-1.865311
 20
-12.478745
 30
0.0
  9
$EXTMAX
 10
238.134689
 20
90.143753
 30
0.0
  9
$LIMMIN
 10
0.0
 20
0.0
  9
$LIMMAX
 10
12.0
 20
9.0
  9
$ORTHOMODE
 70
     0
  9
$REGENMODE
 70
     1
  9
$FILLMODE
 70
     1
  9
$QTEXTMODE
 70
     0
  9
$MIRRTEXT
 70
     1
  9
$LTSCALE
 40
2.610199
  9
$ATTMODE
 70
     1
  9
$TEXTSIZE
 40
3.2
  9
$TRACEWID
 40
1.0
  9
$TEXTSTYLE
  7
Standard
  9
$CLAYER
  8
0
  9
$CELTYPE
  6
ByLayer
  9
$CECOLOR
 62
   256
  9
$CELTSCALE
 40
1.0
  9
$DISPSILH
 70
     0
  9
$DIMSCALE
 40
1.0
  9
$DIMASZ
 40
2.5
  9
$DIMEXO
 40
0.625
  9
$DIMDLI
 40
3.75
  9
$DIMRND
 40
0.0
  9
$DIMDLE
 40
0.0
  9
$DIMEXE
 40
1.25
  9
$DIMTP
 40
0.0
  9
$DIMTM
 40
0.0
  9
$DIMTXT
 40
2.5
  9
$DIMCEN
 40
0.09
  9
$DIMTSZ
 40
0.0
  9
$DIMTOL
 70
     0
  9
$DIMLIM
 70
     0
  9
$DIMTIH
 70
     0
  9
$DIMTOH
 70
     0
  9
$DIMSE1
 70
     0
  9
$DIMSE2
 70
     0
  9
$DIMTAD
 70
     0
  9
$DIMZIN
 70
     8
  9
$DIMBLK
  1

  9
$DIMASO
 70
     1
  9
$DIMSHO
 70
     0
  9
$DIMPOST
  1

  9
$DIMAPOST
  1

  9
$DIMALT
 70
     0
  9
$DIMALTD
 70
     3
  9
$DIMALTF
 40
0.03937
  9
$DIMLFAC
 40
1.0
  9
$DIMTOFL
 70
     1
  9
$DIMTVP
 40
0.0
  9
$DIMTIX
 70
     0
  9
$DIMSOXD
 70
     0
  9
$DIMSAH
 70
     0
  9
$DIMBLK1
  1

  9
$DIMBLK2
  1

  9
$DIMSTYLE
  2
ISO-25
  9
$DIMCLRD
 70
     0
  9
$DIMCLRE
 70
     0
  9
$DIMCLRT
 70
     0
  9
$DIMTFAC
 40
1.0
  9
$DIMGAP
 40
0.625
  9
$DIMJUST
 70
     0
  9
$DIMSD1
 70
     0
  9
$DIMSD2
 70
     0
  9
$DIMTOLJ
 70
     0
  9
$DIMTZIN
 70
     8
  9
$DIMALTZ
 70
     0
  9
$DIMALTTZ
 70
     0
  9
$DIMUPT
 70
     0
  9
$DIMDEC
 70
     2
  9
$DIMTDEC
 70
     2
  9
$DIMALTU
 70
     2
  9
$DIMALTTD
 70
     3
  9
$DIMTXSTY
  7
Standard
  9
$DIMAUNIT
 70
     0
  9
$DIMADEC
 70
     0
  9
$DIMALTRND
 40
0.0
  9
$DIMAZIN
 70
     0
  9
$DIMDSEP
 70
    44
  9
$DIMATFIT
 70
     3
  9
$DIMFRAC
 70
     0
  9
$DIMLDRBLK
  1

  9
$DIMLUNIT
 70
     2
  9
$DIMLWD
 70
    -2
  9
$DIMLWE
 70
    -2
  9
$DIMTMOVE
 70
     0
  9
$LUNITS
 70
     2
  9
$LUPREC
 70
     4
  9
$SKETCHINC
 40
1.0
  9
$FILLETRAD
 40
0.0
  9
$AUNITS
 70
     0
  9
$AUPREC
 70
     0
  9
$MENU
  1
.
  9
$ELEVATION
 40
0.0
  9
$PELEVATION
 40
0.0
  9
$THICKNESS
 40
0.0
  9
$LIMCHECK
 70
     0
  9
$CHAMFERA
 40
10.0
  9
$CHAMFERB
 40
10.0
  9
$CHAMFERC
 40
20.0
  9
$CHAMFERD
 40
0.0
  9
$SKPOLY
 70
     0
  9
$TDCREATE
 40
2454798.679641203
  9
$TDUCREATE
 40
2454798.304641203
  9
$TDUPDATE
 40
2454798.679641215
  9
$TDUUPDATE
 40
2454798.304641215
  9
$TDINDWG
 40
0.0000000116
  9
$TDUSRTIMER
 40
0.0000000116
  9
$USRTIMER
 70
     1
  9
$ANGBASE
 50
0.0
  9
$ANGDIR
 70
     0
  9
$PDMODE
 70
     0
  9
$PDSIZE
 40
0.0
  9
$PLINEWID
 40
0.0
  9
$SPLFRAME
 70
     0
  9
$SPLINETYPE
 70
     6
  9
$SPLINESEGS
 70
     8
  9
$HANDSEED
  5
370
  9
$SURFTAB1
 70
     6
  9
$SURFTAB2
 70
     6
  9
$SURFTYPE
 70
     6
  9
$SURFU
 70
     6
  9
$SURFV
 70
     6
  9
$UCSBASE
  2

  9
$UCSNAME
  2

  9
$UCSORG
 10
0.0
 20
0.0
 30
0.0
  9
$UCSXDIR
 10
1.0
 20
0.0
 30
0.0
  9
$UCSYDIR
 10
0.0
 20
1.0
 30
0.0
  9
$UCSORTHOREF
  2

  9
$UCSORTHOVIEW
 70
     0
  9
$UCSORGTOP
 10
0.0
 20
0.0
 30
0.0
  9
$UCSORGBOTTOM
 10
0.0
 20
0.0
 30
0.0
  9
$UCSORGLEFT
 10
0.0
 20
0.0
 30
0.0
  9
$UCSORGRIGHT
 10
0.0
 20
0.0
 30
0.0
  9
$UCSORGFRONT
 10
0.0
 20
0.0
 30
0.0
  9
$UCSORGBACK
 10
0.0
 20
0.0
 30
0.0
  9
$PUCSBASE
  2

  9
$PUCSNAME
  2

  9
$PUCSORG
 10
0.0
 20
0.0
 30
0.0
  9
$PUCSXDIR
 10
1.0
 20
0.0
 30
0.0
  9
$PUCSYDIR
 10
0.0
 20
1.0
 30
0.0
  9
$PUCSORTHOREF
  2

  9
$PUCSORTHOVIEW
 70
     0
  9
$PUCSORGTOP
 10
0.0
 20
0.0
 30
0.0
  9
$PUCSORGBOTTOM
 10
0.0
 20
0.0
 30
0.0
  9
$PUCSORGLEFT
 10
0.0
 20
0.0
 30
0.0
  9
$PUCSORGRIGHT
 10
0.0
 20
0.0
 30
0.0
  9
$PUCSORGFRONT
 10
0.0
 20
0.0
 30
0.0
  9
$PUCSORGBACK
 10
0.0
 20
0.0
 30
0.0
  9
$USERI1
 70
     0
  9
$USERI2
 70
     0
  9
$USERI3
 70
     0
  9
$USERI4
 70
     0
  9
$USERI5
 70
     0
  9
$USERR1
 40
0.0
  9
$USERR2
 40
0.0
  9
$USERR3
 40
0.0
  9
$USERR4
 40
0.0
  9
$USERR5
 40
0.0
  9
$WORLDVIEW
 70
     1
  9
$SHADEDGE
 70
     3
  9
$SHADEDIF
 70
    70
  9
$TILEMODE
 70
     1
  9
$MAXACTVP
 70
    64
  9
$PINSBASE
 10
0.0
 20
0.0
 30
0.0
  9
$PLIMCHECK
 70
     0
  9
$PEXTMIN
 10
1.000000E+20
 20
1.000000E+20
 30
0.0
  9
$PEXTMAX
 10
-1.000000E+20
 20
-1.000000E+20
 30
0.0
  9
$PLIMMIN
 10
0.0
 20
0.0
  9
$PLIMMAX
 10
12.0
 20
9.0
  9
$UNITMODE
 70
     0
  9
$VISRETAIN
 70
     1
  9
$PLINEGEN
 70
     0
  9
$PSLTSCALE
 70
     1
  9
$TREEDEPTH
 70
  3020
  9
$CMLSTYLE
  2
Standard
  9
$CMLJUST
 70
     0
  9
$CMLSCALE
 40
20.0
  9
$PROXYGRAPHICS
 70
     1
  9
$MEASUREMENT
 70
     1
  9
$CELWEIGHT
370
    -1
  9
$ENDCAPS
280
     0
  9
$JOINSTYLE
280
     0
  9
$LWDISPLAY
290
     0
  9
$INSUNITS
 70
     4
  9
$HYPERLINKBASE
  1

  9
$STYLESHEET
  1

  9
$XEDIT
290
     1
  9
$CEPSNTYPE
380
     0
  9
$PSTYLEMODE
290
     1
  9
$FINGERPRINTGUID
  2
{6334622F-E92C-424C-8E8E-91563A83D8FF}
  9
$VERSIONGUID
  2
{FAEB1C32-E019-11D5-929B-00C0DF256EC4}
  9
$EXTNAMES
290
     1
  9
$PSVPSCALE
 40
0.0
  9
$OLESTARTUP
290
     0
  0
ENDSEC
  0
SECTION
  2
CLASSES
  0
CLASS
  1
ACDBDICTIONARYWDFLT
  2
AcDbDictionaryWithDefault
  3
ObjectDBX Classes
 90
        0
280
     0
281
     0
  0
CLASS
  1
VISUALSTYLE
  2
AcDbVisualStyle
  3
ObjectDBX Classes
 90
     4095
280
     0
281
     0
  0
CLASS
  1
SCALE
  2
AcDbScale
  3
ObjectDBX Classes
 90
     1153
280
     0
281
     0
  0
CLASS
  1
DICTIONARYVAR
  2
AcDbDictionaryVar
  3
ObjectDBX Classes
 90
        0
280
     0
281
     0
  0
CLASS
  1
ACDBPLACEHOLDER
  2
AcDbPlaceHolder
  3
ObjectDBX Classes
 90
        0
280
     0
281
     0
  0
CLASS
  1
LAYOUT
  2
AcDbLayout
  3
ObjectDBX Classes
 90
        0
280
     0
281
     0
  0
ENDSEC
  0
SECTION
  2
TABLES
  0
TABLE
  2
VPORT
  5
8
330
0
100
AcDbSymbolTable
 70
     1
  0
VPORT
  5
29
330
8
100
AcDbSymbolTableRecord
100
AcDbViewportTableRecord
  2
*Active
 70
     0
 10
0.0
 20
0.0
 11
1.0
 21
1.0
 12
118.134689
 22
38.832504
 13
0.0
 23
0.0
 14
1.0
 24
1.0
 15
0.0
 25
0.0
 16
0.0
 26
0.0
 36
1.0
 17
0.0
 27
0.0
 37
0.0
 40
143.322722
 41
1.691288
 42
50.0
 43
0.0
 44
0.0
 50
0.0
 51
0.0
 71
     0
 72
   100
 73
     1
 74
     3
 75
     0
 76
     0
 77
     0
 78
     0
281
     0
 65
     1
110
0.0
120
0.0
130
0.0
111
1.0
121
0.0
131
0.0
112
0.0
122
1.0
132
0.0
 79
     0
146
0.0
  0
ENDTAB
  0
TABLE
  2
LTYPE
  5
5
330
0
100
AcDbSymbolTable
 70
     5
  0
LTYPE
  5
14
330
5
100
AcDbSymbolTableRecord
100
AcDbLinetypeTableRecord
  2
ByBlock
 70
     0
  3

 72
    65
 73
     0
 40
0.0
  0
LTYPE
  5
15
330
5
100
AcDbSymbolTableRecord
100
AcDbLinetypeTableRecord
  2
ByLayer
 70
     0
  3

 72
    65
 73
     0
 40
0.0
  0
LTYPE
  5
16
330
5
100
AcDbSymbolTableRecord
100
AcDbLinetypeTableRecord
  2
Continuous
 70
     0
  3
Solid line
 72
    65
 73
     0
 40
0.0
  0
LTYPE
  5
5D
330
5
100
AcDbSymbolTableRecord
100
AcDbLinetypeTableRecord
  2
DASHED
 70
     0
  3
DASHED
 72
    83
 73
     2
 40
0.75
 49
0.5
 74
     0
 49
-0.25
 74
     0
  0
LTYPE
  5
5E
330
5
100
AcDbSymbolTableRecord
100
AcDbLinetypeTableRecord
  2
HIDDEN
 70
     0
  3
HIDDEN
 72
    83
 73
     2
 40
0.375
 49
0.25
 74
     0
 49
-0.125
 74
     0
  0
LTYPE
  5
5F
330
5
100
AcDbSymbolTableRecord
100
AcDbLinetypeTableRecord
  2
CENTER
 70
     0
  3
CENTER
 72
    83
 73
     4
 40
2.0
 49
1.25
 74
     0
 49
-0.25
 74
     0
 49
0.25
 74
     0
 49
-0.25
 74
     0
  0
LTYPE
  5
60
330
5
100
AcDbSymbolTableRecord
100
AcDbLinetypeTableRecord
  2
PHANTOM
 70
     0
  3
PHANTOM
 72
    83
 73
     6
 40
2.5
 49
1.25
 74
     0
 49
-0.25
 74
     0
 49
0.25
 74
     0
 49
-0.25
 74
     0
 49
0.25
 74
     0
 49
-0.25
 74
     0
  0
ENDTAB
  0
TABLE
  2
LAYER
  5
2
330
0
100
AcDbSymbolTable
 70
     2
  0
LAYER
  5
10
330
2
100
AcDbSymbolTableRecord
100
AcDbLayerTableRecord
  2
0
 70
     0
 62
     7
  6
Continuous
370
    -3
390
F
  0
LAYER
  5
61
330
2
100
AcDbSymbolTableRecord
100
AcDbLayerTableRecord
  2
001
 70
     0
 62
     7
  6
Continuous
370
    -3
390
F
  0
ENDTAB
  0
TABLE
  2
STYLE
  5
3
330
0
100
AcDbSymbolTable
 70
     2
  0
STYLE
  5
11
330
3
100
AcDbSymbolTableRecord
100
AcDbTextStyleTableRecord
  2
Standard
 70
     0
 40
0.0
 41
1.0
 50
0.0
 71
     0
 42
0.2
  3
TXT
  4
BIGFONT
  0
STYLE
  5
62
330
3
100
AcDbSymbolTableRecord
100
AcDbTextStyleTableRecord
  2
TATEGAKI
 70
     4
 40
1.0
 41
1.0
 50
0.0
 71
     0
 42
0.2
  3
TXT
  4
BIGFONT
  0
ENDTAB
  0
TABLE
  2
VIEW
  5
6
330
0
100
AcDbSymbolTable
 70
     0
  0
ENDTAB
  0
TABLE
  2
UCS
  5
7
330
0
100
AcDbSymbolTable
 70
     0
  0
ENDTAB
  0
TABLE
  2
APPID
  5
9
330
0
100
AcDbSymbolTable
 70
     1
  0
APPID
  5
12
330
9
100
AcDbSymbolTableRecord
100
AcDbRegAppTableRecord
  2
ACAD
 70
     0
  0
ENDTAB
  0
TABLE
  2
DIMSTYLE
  5
A
330
0
100
AcDbSymbolTable
 70
     2
100
AcDbDimStyleTable
  0
DIMSTYLE
105
27
330
A
100
AcDbSymbolTableRecord
100
AcDbDimStyleTableRecord
  2
ISO-25
 70
     0
 41
2.5
 42
0.625
 43
3.75
 44
1.25
 73
     0
 74
     0
 77
     1
 78
     8
140
2.5
141
2.5
143
0.03937
147
0.625
171
     3
172
     1
271
     2
272
     2
274
     3
278
    44
283
     0
284
     8
340
11
  0
DIMSTYLE
105
63
102
{ACAD_REACTORS
330
F6
330
F7
330
F8
330
F9
330
FA
330
FB
102
}
330
A
100
AcDbSymbolTableRecord
100
AcDbDimStyleTableRecord
  2
Standard
 70
     0
 41
1.5
 42
0.0
 44
2.75
 73
     0
 74
     0
 77
     1
 78
     8
 79
     2
140
4.0
146
0.8
147
1.0
172
     1
179
     1
271
     1
340
11
  0
ENDTAB
  0
TABLE
  2
BLOCK_RECORD
  5
1
330
0
100
AcDbSymbolTable
 70
     7
  0
BLOCK_RECORD
  5
1F
330
1
100
AcDbSymbolTableRecord
100
AcDbBlockTableRecord
  2
*Model_Space
340
22
  0
BLOCK_RECORD
  5
1B
330
1
100
AcDbSymbolTableRecord
100
AcDbBlockTableRecord
  2
*Paper_Space
340
1E
  0
BLOCK_RECORD
  5
23
330
1
100
AcDbSymbolTableRecord
100
AcDbBlockTableRecord
  2
*Paper_Space0
340
26
  0
BLOCK_RECORD
  5
64
330
1
100
AcDbSymbolTableRecord
100
AcDbBlockTableRecord
  2
*D1
340
0
  0
BLOCK_RECORD
  5
7A
330
1
100
AcDbSymbolTableRecord
100
AcDbBlockTableRecord
  2
*D2
340
0
  0
BLOCK_RECORD
  5
8E
330
1
100
AcDbSymbolTableRecord
100
AcDbBlockTableRecord
  2
*D3
340
0
  0
BLOCK_RECORD
  5
A2
330
1
100
AcDbSymbolTableRecord
100
AcDbBlockTableRecord
  2
*D4
340
0
  0
BLOCK_RECORD
  5
B6
330
1
100
AcDbSymbolTableRecord
100
AcDbBlockTableRecord
  2
*D5
340
0
  0
BLOCK_RECORD
  5
CA
330
1
100
AcDbSymbolTableRecord
100
AcDbBlockTableRecord
  2
*D6
340
0
  0
ENDTAB
  0
ENDSEC
  0
SECTION
  2
BLOCKS
  0
BLOCK
  5
20
330
1F
100
AcDbEntity
  8
0
100
AcDbBlockBegin
  2
*Model_Space
 70
     0
 10
0.0
 20
0.0
 30
0.0
  3
*Model_Space
  1

  0
ENDBLK
  5
21
330
1F
100
AcDbEntity
  8
0
100
AcDbBlockEnd
  0
BLOCK
  5
1C
330
1B
100
AcDbEntity
 67
     1
  8
0
100
AcDbBlockBegin
  2
*Paper_Space
 70
     0
 10
0.0
 20
0.0
 30
0.0
  3
*Paper_Space
  1

  0
ENDBLK
  5
1D
330
1B
100
AcDbEntity
 67
     1
  8
0
100
AcDbBlockEnd
  0
BLOCK
  5
24
330
23
100
AcDbEntity
  8
0
100
AcDbBlockBegin
  2
*Paper_Space0
 70
     0
 10
0.0
 20
0.0
 30
0.0
  3
*Paper_Space0
  1

  0
ENDBLK
  5
25
330
23
100
AcDbEntity
  8
0
100
AcDbBlockEnd
  0
BLOCK
  5
65
330
64
100
AcDbEntity
  8
0
100
AcDbBlockBegin
  2
*D1
 70
     1
 10
0.0
 20
0.0
 30
0.0
  3
*D1
  1

  0
LINE
  5
67
330
64
100
AcDbEntity
  8
001
370
     9
100
AcDbLine
 10
81.779952
 20
25.896961
 30
0.0
 11
81.779952
 21
8.630003
 31
0.0
  0
LINE
  5
68
330
64
100
AcDbEntity
  8
001
370
     9
100
AcDbLine
 10
80.879952
 20
29.146961
 30
0.0
 11
80.879952
 21
8.630003
 31
0.0
  0
LINE
  5
69
330
64
100
AcDbEntity
  8
001
370
     9
100
AcDbLine
 10
81.779952
 20
11.380003
 30
0.0
 11
80.879952
 21
11.380003
 31
0.0
  0
POLYLINE
  5
6A
330
64
100
AcDbEntity
  8
001
370
     9
100
AcDb2dPolyline
 66
     1
 10
0.0
 20
0.0
 30
0.0
  0
VERTEX
  5
6C
330
6A
100
AcDbEntity
  8
001
370
     9
100
AcDbVertex
100
AcDb2dVertex
 10
83.279952
 20
10.978079
 30
0.0
  0
VERTEX
  5
6D
330
6A
100
AcDbEntity
  8
001
370
     9
100
AcDbVertex
100
AcDb2dVertex
 10
81.779952
 20
11.380003
 30
0.0
  0
VERTEX
  5
6E
330
6A
100
AcDbEntity
  8
001
370
     9
100
AcDbVertex
100
AcDb2dVertex
 10
83.279952
 20
11.781927
 30
0.0
  0
SEQEND
  5
6B
330
6A
100
AcDbEntity
  8
001
370
     9
  0
POLYLINE
  5
6F
330
64
100
AcDbEntity
  8
001
370
     9
100
AcDb2dPolyline
 66
     1
 10
0.0
 20
0.0
 30
0.0
  0
VERTEX
  5
71
330
6F
100
AcDbEntity
  8
001
370
     9
100
AcDbVertex
100
AcDb2dVertex
 10
79.379952
 20
11.781927
 30
0.0
  0
VERTEX
  5
72
330
6F
100
AcDbEntity
  8
001
370
     9
100
AcDbVertex
100
AcDb2dVertex
 10
80.879952
 20
11.380003
 30
0.0
  0
VERTEX
  5
73
330
6F
100
AcDbEntity
  8
001
370
     9
100
AcDbVertex
100
AcDb2dVertex
 10
79.379952
 20
10.978079
 30
0.0
  0
SEQEND
  5
70
330
6F
100
AcDbEntity
  8
001
370
     9
  0
TEXT
  5
74
330
64
100
AcDbEntity
  8
001
370
    30
100
AcDbText
 10
65.379952
 20
12.380003
 30
0.0
 40
4.0
  1
０．９
 41
0.833333
100
AcDbText
  0
POINT
  5
75
330
64
100
AcDbEntity
  8
001
370
     9
100
AcDbPoint
 10
81.779952
 20
25.896961
 30
0.0
  0
POINT
  5
76
330
64
100
AcDbEntity
  8
001
370
     9
100
AcDbPoint
 10
80.879952
 20
29.146961
 30
0.0
  0
POINT
  5
77
330
64
100
AcDbEntity
  8
001
370
     9
100
AcDbPoint
 10
80.879952
 20
11.380003
 30
0.0
  0
LINE
  5
78
330
64
100
AcDbEntity
  8
001
370
     9
100
AcDbLine
 10
81.779952
 20
11.380003
 30
0.0
 11
84.279952
 21
11.380003
 31
0.0
  0
LINE
  5
79
330
64
100
AcDbEntity
  8
001
370
     9
100
AcDbLine
 10
80.879952
 20
11.380003
 30
0.0
 11
62.379952
 21
11.380003
 31
0.0
  0
ENDBLK
  5
66
330
64
100
AcDbEntity
  8
0
100
AcDbBlockEnd
  0
BLOCK
  5
7B
330
7A
100
AcDbEntity
  8
0
100
AcDbBlockBegin
  2
*D2
 70
     1
 10
0.0
 20
0.0
 30
0.0
  3
*D2
  1

  0
LINE
  5
7D
330
7A
100
AcDbEntity
  8
001
370
     9
100
AcDbLine
 10
115.879952
 20
26.196961
 30
0.0
 11
115.879952
 21
-1.089135
 31
0.0
  0
LINE
  5
7E
330
7A
100
AcDbEntity
  8
001
370
     9
100
AcDbLine
 10
80.879952
 20
29.146961
 30
0.0
 11
80.879952
 21
-1.089135
 31
0.0
  0
LINE
  5
7F
330
7A
100
AcDbEntity
  8
001
370
     9
100
AcDbLine
 10
115.879952
 20
1.660865
 30
0.0
 11
80.879952
 21
1.660865
 31
0.0
  0
POLYLINE
  5
80
330
7A
100
AcDbEntity
  8
001
370
     9
100
AcDb2dPolyline
 66
     1
 10
0.0
 20
0.0
 30
0.0
  0
VERTEX
  5
82
330
80
100
AcDbEntity
  8
001
370
     9
100
AcDbVertex
100
AcDb2dVertex
 10
114.379952
 20
2.062789
 30
0.0
  0
VERTEX
  5
83
330
80
100
AcDbEntity
  8
001
370
     9
100
AcDbVertex
100
AcDb2dVertex
 10
115.879952
 20
1.660865
 30
0.0
  0
VERTEX
  5
84
330
80
100
AcDbEntity
  8
001
370
     9
100
AcDbVertex
100
AcDb2dVertex
 10
114.379952
 20
1.258941
 30
0.0
  0
SEQEND
  5
81
330
80
100
AcDbEntity
  8
001
370
     9
  0
POLYLINE
  5
85
330
7A
100
AcDbEntity
  8
001
370
     9
100
AcDb2dPolyline
 66
     1
 10
0.0
 20
0.0
 30
0.0
  0
VERTEX
  5
87
330
85
100
AcDbEntity
  8
001
370
     9
100
AcDbVertex
100
AcDb2dVertex
 10
82.379952
 20
1.258941
 30
0.0
  0
VERTEX
  5
88
330
85
100
AcDbEntity
  8
001
370
     9
100
AcDbVertex
100
AcDb2dVertex
 10
80.879952
 20
1.660865
 30
0.0
  0
VERTEX
  5
89
330
85
100
AcDbEntity
  8
001
370
     9
100
AcDbVertex
100
AcDb2dVertex
 10
82.379952
 20
2.062789
 30
0.0
  0
SEQEND
  5
86
330
85
100
AcDbEntity
  8
001
370
     9
  0
TEXT
  5
8A
330
7A
100
AcDbEntity
  8
001
370
    30
100
AcDbText
 10
94.379952
 20
2.660865
 30
0.0
 40
4.0
  1
３５
 41
0.833333
100
AcDbText
  0
POINT
  5
8B
330
7A
100
AcDbEntity
  8
001
370
     9
100
AcDbPoint
 10
115.879952
 20
26.196961
 30
0.0
  0
POINT
  5
8C
330
7A
100
AcDbEntity
  8
001
370
     9
100
AcDbPoint
 10
80.879952
 20
29.146961
 30
0.0
  0
POINT
  5
8D
330
7A
100
AcDbEntity
  8
001
370
     9
100
AcDbPoint
 10
80.879952
 20
1.660865
 30
0.0
  0
ENDBLK
  5
7C
330
7A
100
AcDbEntity
  8
0
100
AcDbBlockEnd
  0
BLOCK
  5
8F
330
8E
100
AcDbEntity
  8
0
100
AcDbBlockBegin
  2
*D3
 70
     1
 10
0.0
 20
0.0
 30
0.0
  3
*D3
  1

  0
LINE
  5
91
330
8E
100
AcDbEntity
  8
001
370
     9
100
AcDbLine
 10
195.879952
 20
28.246961
 30
0.0
 11
195.879952
 21
-1.089135
 31
0.0
  0
LINE
  5
92
330
8E
100
AcDbEntity
  8
001
370
     9
100
AcDbLine
 10
115.879952
 20
26.196961
 30
0.0
 11
115.879952
 21
-1.089135
 31
0.0
  0
LINE
  5
93
330
8E
100
AcDbEntity
  8
001
370
     9
100
AcDbLine
 10
195.879952
 20
1.660865
 30
0.0
 11
115.879952
 21
1.660865
 31
0.0
  0
POLYLINE
  5
94
330
8E
100
AcDbEntity
  8
001
370
     9
100
AcDb2dPolyline
 66
     1
 10
0.0
 20
0.0
 30
0.0
  0
VERTEX
  5
96
330
94
100
AcDbEntity
  8
001
370
     9
100
AcDbVertex
100
AcDb2dVertex
 10
194.379952
 20
2.062789
 30
0.0
  0
VERTEX
  5
97
330
94
100
AcDbEntity
  8
001
370
     9
100
AcDbVertex
100
AcDb2dVertex
 10
195.879952
 20
1.660865
 30
0.0
  0
VERTEX
  5
98
330
94
100
AcDbEntity
  8
001
370
     9
100
AcDbVertex
100
AcDb2dVertex
 10
194.379952
 20
1.258941
 30
0.0
  0
SEQEND
  5
95
330
94
100
AcDbEntity
  8
001
370
     9
  0
POLYLINE
  5
99
330
8E
100
AcDbEntity
  8
001
370
     9
100
AcDb2dPolyline
 66
     1
 10
0.0
 20
0.0
 30
0.0
  0
VERTEX
  5
9B
330
99
100
AcDbEntity
  8
001
370
     9
100
AcDbVertex
100
AcDb2dVertex
 10
117.379952
 20
1.258941
 30
0.0
  0
VERTEX
  5
9C
330
99
100
AcDbEntity
  8
001
370
     9
100
AcDbVertex
100
AcDb2dVertex
 10
115.879952
 20
1.660865
 30
0.0
  0
VERTEX
  5
9D
330
99
100
AcDbEntity
  8
001
370
     9
100
AcDbVertex
100
AcDb2dVertex
 10
117.379952
 20
2.062789
 30
0.0
  0
SEQEND
  5
9A
330
99
100
AcDbEntity
  8
001
370
     9
  0
TEXT
  5
9E
330
8E
100
AcDbEntity
  8
001
370
    30
100
AcDbText
 10
151.879952
 20
2.660865
 30
0.0
 40
4.0
  1
８０
 41
0.833333
100
AcDbText
  0
POINT
  5
9F
330
8E
100
AcDbEntity
  8
001
370
     9
100
AcDbPoint
 10
195.879952
 20
28.246961
 30
0.0
  0
POINT
  5
A0
330
8E
100
AcDbEntity
  8
001
370
     9
100
AcDbPoint
 10
115.879952
 20
26.196961
 30
0.0
  0
POINT
  5
A1
330
8E
100
AcDbEntity
  8
001
370
     9
100
AcDbPoint
 10
115.879952
 20
1.660865
 30
0.0
  0
ENDBLK
  5
90
330
8E
100
AcDbEntity
  8
0
100
AcDbBlockEnd
  0
BLOCK
  5
A3
330
A2
100
AcDbEntity
  8
0
100
AcDbBlockBegin
  2
*D4
 70
     1
 10
0.0
 20
0.0
 30
0.0
  3
*D4
  1

  0
LINE
  5
A5
330
A2
100
AcDbEntity
  8
001
370
     9
100
AcDbLine
 10
191.879952
 20
24.246961
 30
0.0
 11
217.081016
 21
24.246961
 31
0.0
  0
LINE
  5
A6
330
A2
100
AcDbEntity
  8
001
370
     9
100
AcDbLine
 10
191.879952
 20
44.246961
 30
0.0
 11
217.081016
 21
44.246961
 31
0.0
  0
LINE
  5
A7
330
A2
100
AcDbEntity
  8
001
370
     9
100
AcDbLine
 10
214.331016
 20
24.246961
 30
0.0
 11
214.331016
 21
44.246961
 31
0.0
  0
POLYLINE
  5
A8
330
A2
100
AcDbEntity
  8
001
370
     9
100
AcDb2dPolyline
 66
     1
 10
0.0
 20
0.0
 30
0.0
  0
VERTEX
  5
AA
330
A8
100
AcDbEntity
  8
001
370
     9
100
AcDbVertex
100
AcDb2dVertex
 10
214.73294
 20
25.746961
 30
0.0
  0
VERTEX
  5
AB
330
A8
100
AcDbEntity
  8
001
370
     9
100
AcDbVertex
100
AcDb2dVertex
 10
214.331016
 20
24.246961
 30
0.0
  0
VERTEX
  5
AC
330
A8
100
AcDbEntity
  8
001
370
     9
100
AcDbVertex
100
AcDb2dVertex
 10
213.929092
 20
25.746961
 30
0.0
  0
SEQEND
  5
A9
330
A8
100
AcDbEntity
  8
001
370
     9
  0
POLYLINE
  5
AD
330
A2
100
AcDbEntity
  8
001
370
     9
100
AcDb2dPolyline
 66
     1
 10
0.0
 20
0.0
 30
0.0
  0
VERTEX
  5
AF
330
AD
100
AcDbEntity
  8
001
370
     9
100
AcDbVertex
100
AcDb2dVertex
 10
213.929092
 20
42.746961
 30
0.0
  0
VERTEX
  5
B0
330
AD
100
AcDbEntity
  8
001
370
     9
100
AcDbVertex
100
AcDb2dVertex
 10
214.331016
 20
44.246961
 30
0.0
  0
VERTEX
  5
B1
330
AD
100
AcDbEntity
  8
001
370
     9
100
AcDbVertex
100
AcDb2dVertex
 10
214.73294
 20
42.746961
 30
0.0
  0
SEQEND
  5
AE
330
AD
100
AcDbEntity
  8
001
370
     9
  0
TEXT
  5
B2
330
A2
100
AcDbEntity
  8
001
370
    30
100
AcDbText
 10
213.331016
 20
28.246961
 30
0.0
 40
4.0
  1
%%c２０
 50
90.000003
 41
0.882353
100
AcDbText
  0
POINT
  5
B3
330
A2
100
AcDbEntity
  8
001
370
     9
100
AcDbPoint
 10
191.879952
 20
24.246961
 30
0.0
  0
POINT
  5
B4
330
A2
100
AcDbEntity
  8
001
370
     9
100
AcDbPoint
 10
191.879952
 20
44.246961
 30
0.0
  0
POINT
  5
B5
330
A2
100
AcDbEntity
  8
001
370
     9
100
AcDbPoint
 10
214.331016
 20
44.246961
 30
0.0
  0
ENDBLK
  5
A4
330
A2
100
AcDbEntity
  8
0
100
AcDbBlockEnd
  0
BLOCK
  5
B7
330
B6
100
AcDbEntity
  8
0
100
AcDbBlockBegin
  2
*D5
 70
     1
 10
0.0
 20
0.0
 30
0.0
  3
*D5
  1

  0
LINE
  5
B9
330
B6
100
AcDbEntity
  8
001
370
     9
100
AcDbLine
 10
80.879952
 20
29.146961
 30
0.0
 11
80.879952
 21
-12.478745
 31
0.0
  0
LINE
  5
BA
330
B6
100
AcDbEntity
  8
001
370
     9
100
AcDbLine
 10
195.879952
 20
28.246961
 30
0.0
 11
195.879952
 21
-12.478745
 31
0.0
  0
LINE
  5
BB
330
B6
100
AcDbEntity
  8
001
370
     9
100
AcDbLine
 10
80.879952
 20
-9.728745
 30
0.0
 11
195.879952
 21
-9.728745
 31
0.0
  0
POLYLINE
  5
BC
330
B6
100
AcDbEntity
  8
001
370
     9
100
AcDb2dPolyline
 66
     1
 10
0.0
 20
0.0
 30
0.0
  0
VERTEX
  5
BE
330
BC
100
AcDbEntity
  8
001
370
     9
100
AcDbVertex
100
AcDb2dVertex
 10
82.379952
 20
-10.130668
 30
0.0
  0
VERTEX
  5
BF
330
BC
100
AcDbEntity
  8
001
370
     9
100
AcDbVertex
100
AcDb2dVertex
 10
80.879952
 20
-9.728745
 30
0.0
  0
VERTEX
  5
C0
330
BC
100
AcDbEntity
  8
001
370
     9
100
AcDbVertex
100
AcDb2dVertex
 10
82.379952
 20
-9.326821
 30
0.0
  0
SEQEND
  5
BD
330
BC
100
AcDbEntity
  8
001
370
     9
  0
POLYLINE
  5
C1
330
B6
100
AcDbEntity
  8
001
370
     9
100
AcDb2dPolyline
 66
     1
 10
0.0
 20
0.0
 30
0.0
  0
VERTEX
  5
C3
330
C1
100
AcDbEntity
  8
001
370
     9
100
AcDbVertex
100
AcDb2dVertex
 10
194.379952
 20
-9.326821
 30
0.0
  0
VERTEX
  5
C4
330
C1
100
AcDbEntity
  8
001
370
     9
100
AcDbVertex
100
AcDb2dVertex
 10
195.879952
 20
-9.728745
 30
0.0
  0
VERTEX
  5
C5
330
C1
100
AcDbEntity
  8
001
370
     9
100
AcDbVertex
100
AcDb2dVertex
 10
194.379952
 20
-10.130668
 30
0.0
  0
SEQEND
  5
C2
330
C1
100
AcDbEntity
  8
001
370
     9
  0
TEXT
  5
C6
330
B6
100
AcDbEntity
  8
001
370
    30
100
AcDbText
 10
132.379952
 20
-8.728745
 30
0.0
 40
4.0
  1
１１５
 41
0.833333
100
AcDbText
  0
POINT
  5
C7
330
B6
100
AcDbEntity
  8
001
370
     9
100
AcDbPoint
 10
80.879952
 20
29.146961
 30
0.0
  0
POINT
  5
C8
330
B6
100
AcDbEntity
  8
001
370
     9
100
AcDbPoint
 10
195.879952
 20
28.246961
 30
0.0
  0
POINT
  5
C9
330
B6
100
AcDbEntity
  8
001
370
     9
100
AcDbPoint
 10
195.879952
 20
-9.728745
 30
0.0
  0
ENDBLK
  5
B8
330
B6
100
AcDbEntity
  8
0
100
AcDbBlockEnd
  0
BLOCK
  5
CB
330
CA
100
AcDbEntity
  8
0
100
AcDbBlockBegin
  2
*D6
 70
     1
 10
0.0
 20
0.0
 30
0.0
  3
*D6
  1

  0
LINE
  5
CD
330
CA
100
AcDbEntity
  8
001
370
     9
100
AcDbLine
 10
81.779952
 20
28.246961
 30
0.0
 11
103.324267
 21
6.702646
 31
0.0
  0
ARC
  5
CE
330
CA
100
AcDbEntity
  8
001
370
     9
100
AcDbCircle
 10
75.779952
 20
34.246961
 30
0.0
 40
36.20354366847011
100
AcDbArc
 50
315.0
 51
0.0
  0
POLYLINE
  5
CF
330
CA
100
AcDbEntity
  8
001
370
     9
100
AcDb2dPolyline
 66
     1
 10
0.0
 20
0.0
 30
0.0
  0
VERTEX
  5
D1
330
CF
100
AcDbEntity
  8
001
370
     9
100
AcDbVertex
100
AcDb2dVertex
 10
111.550586
 20
32.755609
 30
0.0
  0
VERTEX
  5
D2
330
CF
100
AcDbEntity
  8
001
370
     9
100
AcDbVertex
100
AcDb2dVertex
 10
111.983496
 20
34.246961
 30
0.0
  0
VERTEX
  5
D3
330
CF
100
AcDbEntity
  8
001
370
     9
100
AcDbVertex
100
AcDb2dVertex
 10
112.354261
 20
32.738957
 30
0.0
  0
SEQEND
  5
D0
330
CF
100
AcDbEntity
  8
001
370
     9
  0
POLYLINE
  5
D4
330
CA
100
AcDbEntity
  8
001
370
     9
100
AcDb2dPolyline
 66
     1
 10
0.0
 20
0.0
 30
0.0
  0
VERTEX
  5
D6
330
D4
100
AcDbEntity
  8
001
370
     9
100
AcDbVertex
100
AcDb2dVertex
 10
102.708214
 20
9.451339
 30
0.0
  0
VERTEX
  5
D7
330
D4
100
AcDbEntity
  8
001
370
     9
100
AcDbVertex
100
AcDb2dVertex
 10
101.379724
 20
8.64719
 30
0.0
  0
VERTEX
  5
D8
330
D4
100
AcDbEntity
  8
001
370
     9
100
AcDbVertex
100
AcDb2dVertex
 10
102.128156
 20
10.007849
 30
0.0
  0
SEQEND
  5
D5
330
D4
100
AcDbEntity
  8
001
370
     9
  0
TEXT
  5
D9
330
CA
100
AcDbEntity
  8
001
370
    30
100
AcDbText
 10
106.007685
 20
15.231871
 30
0.0
 40
4.0
  1
４５%%d
 50
67.5
 41
0.978261
100
AcDbText
  0
POINT
  5
DA
330
CA
100
AcDbEntity
  8
001
370
     9
100
AcDbPoint
 10
80.093652
 20
34.246961
 30
0.0
  0
POINT
  5
DB
330
CA
100
AcDbEntity
  8
001
370
     9
100
AcDbPoint
 10
75.779952
 20
34.246961
 30
0.0
  0
POINT
  5
DC
330
CA
100
AcDbEntity
  8
001
370
     9
100
AcDbPoint
 10
75.779952
 20
34.246961
 30
0.0
  0
POINT
  5
DD
330
CA
100
AcDbEntity
  8
001
370
     9
100
AcDbPoint
 10
81.779952
 20
28.246961
 30
0.0
  0
ENDBLK
  5
CC
330
CA
100
AcDbEntity
  8
0
100
AcDbBlockEnd
  0
ENDSEC
  0
SECTION
  2
ENTITIES
  0
TEXT
  5
DE
330
1F
100
AcDbEntity
  8
001
370
    30
100
AcDbText
 10
68.726294
 20
24.246961
 30
0.0
 40
4.0
  1
%%c１０．２
 50
90.000003
 41
0.862069
100
AcDbText
  0
POLYLINE
  5
DF
330
1F
100
AcDbEntity
  8
001
370
     9
100
AcDb2dPolyline
 66
     1
 10
0.0
 20
0.0
 30
0.0
  0
VERTEX
  5
E1
330
DF
100
AcDbEntity
  8
001
370
     9
100
AcDbVertex
100
AcDb2dVertex
 10
69.32437
 20
27.646961
 30
0.0
  0
VERTEX
  5
E2
330
DF
100
AcDbEntity
  8
001
370
     9
100
AcDbVertex
100
AcDb2dVertex
 10
69.726294
 20
29.146961
 30
0.0
  0
VERTEX
  5
E3
330
DF
100
AcDbEntity
  8
001
370
     9
100
AcDbVertex
100
AcDb2dVertex
 10
70.128218
 20
27.646961
 30
0.0
  0
SEQEND
  5
E0
330
DF
100
AcDbEntity
  8
001
370
     9
  0
LINE
  5
E4
330
1F
100
AcDbEntity
  8
001
370
     9
100
AcDbLine
 10
69.726294
 20
26.646961
 30
0.0
 11
69.726294
 21
41.846961
 31
0.0
  0
POLYLINE
  5
E5
330
1F
100
AcDbEntity
  8
001
370
     9
100
AcDb2dPolyline
 66
     1
 10
0.0
 20
0.0
 30
0.0
  0
VERTEX
  5
E7
330
E5
100
AcDbEntity
  8
001
370
     9
100
AcDbVertex
100
AcDb2dVertex
 10
80.879952
 20
29.146961
 30
0.0
  0
VERTEX
  5
E8
330
E5
100
AcDbEntity
  8
001
370
     9
100
AcDbVertex
100
AcDb2dVertex
 10
69.726294
 20
29.146961
 30
0.0
  0
VERTEX
  5
E9
330
E5
100
AcDbEntity
  8
001
370
     9
100
AcDbVertex
100
AcDb2dVertex
 10
66.976294
 20
29.146961
 30
0.0
  0
SEQEND
  5
E6
330
E5
100
AcDbEntity
  8
001
370
     9
  0
TEXT
  5
EA
330
1F
100
AcDbEntity
  8
001
370
    30
100
AcDbText
 10
60.633005
 20
24.246961
 30
0.0
 40
4.0
  1
%%c１７．５
 50
90.000003
 41
0.862069
100
AcDbText
  0
POLYLINE
  5
EB
330
1F
100
AcDbEntity
  8
001
370
     9
100
AcDb2dPolyline
 66
     1
 10
0.0
 20
0.0
 30
0.0
  0
VERTEX
  5
ED
330
EB
100
AcDbEntity
  8
001
370
     9
100
AcDbVertex
100
AcDb2dVertex
 10
61.231082
 20
23.996961
 30
0.0
  0
VERTEX
  5
EE
330
EB
100
AcDbEntity
  8
001
370
     9
100
AcDbVertex
100
AcDb2dVertex
 10
61.633005
 20
25.496961
 30
0.0
  0
VERTEX
  5
EF
330
EB
100
AcDbEntity
  8
001
370
     9
100
AcDbVertex
100
AcDb2dVertex
 10
62.034929
 20
23.996961
 30
0.0
  0
SEQEND
  5
EC
330
EB
100
AcDbEntity
  8
001
370
     9
  0
LINE
  5
F0
330
1F
100
AcDbEntity
  8
001
370
     9
100
AcDbLine
 10
61.633005
 20
22.996961
 30
0.0
 11
61.633005
 21
45.496961
 31
0.0
  0
POLYLINE
  5
F1
330
1F
100
AcDbEntity
  8
001
370
     9
100
AcDb2dPolyline
 66
     1
 10
0.0
 20
0.0
 30
0.0
  0
VERTEX
  5
F3
330
F1
100
AcDbEntity
  8
001
370
     9
100
AcDbVertex
100
AcDb2dVertex
 10
82.179952
 20
25.496961
 30
0.0
  0
VERTEX
  5
F4
330
F1
100
AcDbEntity
  8
001
370
     9
100
AcDbVertex
100
AcDb2dVertex
 10
61.633005
 20
25.496961
 30
0.0
  0
VERTEX
  5
F5
330
F1
100
AcDbEntity
  8
001
370
     9
100
AcDbVertex
100
AcDb2dVertex
 10
58.883005
 20
25.496961
 30
0.0
  0
SEQEND
  5
F2
330
F1
100
AcDbEntity
  8
001
370
     9
  0
DIMENSION
  5
F6
330
1F
100
AcDbEntity
  8
001
370
     9
100
AcDbDimension
  2
*D1
 10
80.879952
 20
11.380003
 30
0.0
 11
71.379952
 21
14.380003
 31
0.0
 70
   160
 71
     5
 42
-1.0
  3
Standard
100
AcDbAlignedDimension
 13
81.779952
 23
25.896961
 33
0.0
 14
80.879952
 24
29.146961
 34
0.0
 50
180.0
100
AcDbRotatedDimension
  0
DIMENSION
  5
F7
330
1F
100
AcDbEntity
  8
001
370
     9
100
AcDbDimension
  2
*D2
 10
80.879952
 20
1.660865
 30
0.0
 11
98.379952
 21
4.660865
 31
0.0
 70
   160
 71
     5
 42
-1.0
  3
Standard
100
AcDbAlignedDimension
 13
115.879952
 23
26.196961
 33
0.0
 14
80.879952
 24
29.146961
 34
0.0
 50
180.0
100
AcDbRotatedDimension
  0
DIMENSION
  5
F8
330
1F
100
AcDbEntity
  8
001
370
     9
100
AcDbDimension
  2
*D3
 10
115.879952
 20
1.660865
 30
0.0
 11
155.879952
 21
4.660865
 31
0.0
 70
   160
 71
     5
 42
-1.0
  3
Standard
100
AcDbAlignedDimension
 13
195.879952
 23
28.246961
 33
0.0
 14
115.879952
 24
26.196961
 34
0.0
 50
180.0
100
AcDbRotatedDimension
  0
DIMENSION
  5
F9
330
1F
100
AcDbEntity
  8
001
370
     9
100
AcDbDimension
  2
*D4
 10
214.331016
 20
44.246961
 30
0.0
 11
211.331016
 21
34.246961
 31
0.0
 70
   160
 71
     5
 42
-1.0
  3
Standard
100
AcDbAlignedDimension
 13
191.879952
 23
24.246961
 33
0.0
 14
191.879952
 24
44.246961
 34
0.0
 50
90.0
100
AcDbRotatedDimension
  0
DIMENSION
  5
FA
330
1F
100
AcDbEntity
  8
001
370
     9
100
AcDbDimension
  2
*D5
 10
195.879952
 20
-9.728745
 30
0.0
 11
138.379952
 21
-6.728745
 31
0.0
 70
   160
 71
     5
 42
-1.0
  3
Standard
100
AcDbAlignedDimension
 13
80.879952
 23
29.146961
 33
0.0
 14
195.879952
 24
28.246961
 34
0.0
100
AcDbRotatedDimension
  0
DIMENSION
  5
FB
330
1F
100
AcDbEntity
  8
001
370
     9
100
AcDbDimension
  2
*D6
 10
75.779952
 20
34.246961
 30
0.0
 11
106.456027
 21
21.540515
 31
0.0
 70
    34
 71
     5
 42
-1.0
  3
Standard
100
AcDb2LineAngularDimension
 13
80.093652
 23
34.246961
 33
0.0
 14
75.779952
 24
34.246961
 34
0.0
 15
81.779952
 25
28.246961
 35
0.0
 16
109.227665
 26
20.392465
 36
0.0
  0
TEXT
  5
FC
330
1F
100
AcDbEntity
  8
001
370
    30
100
AcDbText
 10
-1.865313
 20
80.14375
 30
0.0
 40
10.0
  1
バーディーカット　ＢＣ２０－１７．５ＸＳ－Ｍ１０
 41
0.833333
100
AcDbText
  0
LINE
  5
FD
330
1F
100
AcDbEntity
  8
001
370
    50
100
AcDbLine
 10
85.002959
 20
25.496961
 30
0.0
 11
86.013873
 21
26.495198
 31
0.0
  0
LINE
  5
FE
330
1F
100
AcDbEntity
  8
001
370
    50
100
AcDbLine
 10
85.002959
 20
25.496961
 30
0.0
 11
82.179952
 21
25.496961
 31
0.0
  0
LINE
  5
FF
330
1F
100
AcDbEntity
  8
001
370
    50
100
AcDbLine
 10
81.779952
 20
28.246961
 30
0.0
 11
81.779952
 21
25.896961
 31
0.0
  0
POLYLINE
  5
100
330
1F
100
AcDbEntity
  8
001
370
    50
100
AcDb2dPolyline
 66
     1
 10
0.0
 20
0.0
 30
0.0
  0
VERTEX
  5
102
330
100
100
AcDbEntity
  8
001
370
    50
100
AcDbVertex
100
AcDb2dVertex
 10
81.270921
 20
32.60543
 30
0.0
  0
VERTEX
  5
103
330
100
100
AcDbEntity
  8
001
370
    50
100
AcDbVertex
100
AcDb2dVertex
 10
81.238689
 20
32.603516
 30
0.0
  0
VERTEX
  5
104
330
100
100
AcDbEntity
  8
001
370
    50
100
AcDbVertex
100
AcDb2dVertex
 10
81.194647
 20
32.597801
 30
0.0
  0
VERTEX
  5
105
330
100
100
AcDbEntity
  8
001
370
    50
100
AcDbVertex
100
AcDb2dVertex
 10
81.155777
 20
32.588326
 30
0.0
  0
VERTEX
  5
106
330
100
100
AcDbEntity
  8
001
370
    50
100
AcDbVertex
100
AcDb2dVertex
 10
81.121304
 20
32.57521
 30
0.0
  0
VERTEX
  5
107
330
100
100
AcDbEntity
  8
001
370
    50
100
AcDbVertex
100
AcDb2dVertex
 10
81.087039
 20
32.558548
 30
0.0
  0
VERTEX
  5
108
330
100
100
AcDbEntity
  8
001
370
    50
100
AcDbVertex
100
AcDb2dVertex
 10
81.05371
 20
32.538523
 30
0.0
  0
VERTEX
  5
109
330
100
100
AcDbEntity
  8
001
370
    50
100
AcDbVertex
100
AcDb2dVertex
 10
81.022754
 20
32.515264
 30
0.0
  0
VERTEX
  5
10A
330
100
100
AcDbEntity
  8
001
370
    50
100
AcDbVertex
100
AcDb2dVertex
 10
80.994464
 20
32.489151
 30
0.0
  0
VERTEX
  5
10B
330
100
100
AcDbEntity
  8
001
370
    50
100
AcDbVertex
100
AcDb2dVertex
 10
80.968713
 20
32.460379
 30
0.0
  0
VERTEX
  5
10C
330
100
100
AcDbEntity
  8
001
370
    50
100
AcDbVertex
100
AcDb2dVertex
 10
80.945842
 20
32.428991
 30
0.0
  0
VERTEX
  5
10D
330
100
100
AcDbEntity
  8
001
370
    50
100
AcDbVertex
100
AcDb2dVertex
 10
80.926099
 20
32.39511
 30
0.0
  0
VERTEX
  5
10E
330
100
100
AcDbEntity
  8
001
370
    50
100
AcDbVertex
100
AcDb2dVertex
 10
80.909713
 20
32.360355
 30
0.0
  0
VERTEX
  5
10F
330
100
100
AcDbEntity
  8
001
370
    50
100
AcDbVertex
100
AcDb2dVertex
 10
80.896786
 20
32.325311
 30
0.0
  0
VERTEX
  5
110
330
100
100
AcDbEntity
  8
001
370
    50
100
AcDbVertex
100
AcDb2dVertex
 10
80.887465
 20
32.28588
 30
0.0
  0
VERTEX
  5
111
330
100
100
AcDbEntity
  8
001
370
    50
100
AcDbVertex
100
AcDb2dVertex
 10
80.881835
 20
32.241152
 30
0.0
  0
VERTEX
  5
112
330
100
100
AcDbEntity
  8
001
370
    50
100
AcDbVertex
100
AcDb2dVertex
 10
80.879952
 20
32.20843
 30
0.0
  0
SEQEND
  5
101
330
100
100
AcDbEntity
  8
001
370
    50
  0
LINE
  5
113
330
1F
100
AcDbEntity
  8
001
370
    50
100
AcDbLine
 10
83.563436
 20
32.60543
 30
0.0
 11
81.270921
 21
32.60543
 31
0.0
  0
LINE
  5
114
330
1F
100
AcDbEntity
  8
001
370
    50
100
AcDbLine
 10
84.488926
 20
33.519314
 30
0.0
 11
83.563436
 21
32.60543
 31
0.0
  0
LINE
  5
115
330
1F
100
AcDbEntity
  8
001
370
    50
100
AcDbLine
 10
87.406388
 20
33.519314
 30
0.0
 11
84.488926
 21
33.519314
 31
0.0
  0
POLYLINE
  5
116
330
1F
100
AcDbEntity
  8
001
370
    50
100
AcDb2dPolyline
 66
     1
 10
0.0
 20
0.0
 30
0.0
  0
VERTEX
  5
118
330
116
100
AcDbEntity
  8
001
370
    50
100
AcDbVertex
100
AcDb2dVertex
 10
87.797356
 20
33.122314
 30
0.0
  0
VERTEX
  5
119
330
116
100
AcDbEntity
  8
001
370
    50
100
AcDbVertex
100
AcDb2dVertex
 10
87.795868
 20
33.151414
 30
0.0
  0
VERTEX
  5
11A
330
116
100
AcDbEntity
  8
001
370
    50
100
AcDbVertex
100
AcDb2dVertex
 10
87.791417
 20
33.191252
 30
0.0
  0
VERTEX
  5
11B
330
116
100
AcDbEntity
  8
001
370
    50
100
AcDbVertex
100
AcDb2dVertex
 10
87.784037
 20
33.226524
 30
0.0
  0
VERTEX
  5
11C
330
116
100
AcDbEntity
  8
001
370
    50
100
AcDbVertex
100
AcDb2dVertex
 10
87.773778
 20
33.258096
 30
0.0
  0
VERTEX
  5
11D
330
116
100
AcDbEntity
  8
001
370
    50
100
AcDbVertex
100
AcDb2dVertex
 10
87.76073
 20
33.289684
 30
0.0
  0
VERTEX
  5
11E
330
116
100
AcDbEntity
  8
001
370
    50
100
AcDbVertex
100
AcDb2dVertex
 10
87.744976
 20
33.320814
 30
0.0
  0
VERTEX
  5
11F
330
116
100
AcDbEntity
  8
001
370
    50
100
AcDbVertex
100
AcDb2dVertex
 10
87.726669
 20
33.35011
 30
0.0
  0
VERTEX
  5
120
330
116
100
AcDbEntity
  8
001
370
    50
100
AcDbVertex
100
AcDb2dVertex
 10
87.705887
 20
33.3775
 30
0.0
  0
VERTEX
  5
121
330
116
100
AcDbEntity
  8
001
370
    50
100
AcDbVertex
100
AcDb2dVertex
 10
87.682831
 20
33.40299
 30
0.0
  0
VERTEX
  5
122
330
116
100
AcDbEntity
  8
001
370
    50
100
AcDbVertex
100
AcDb2dVertex
 10
87.657697
 20
33.426433
 30
0.0
  0
VERTEX
  5
123
330
116
100
AcDbEntity
  8
001
370
    50
100
AcDbVertex
100
AcDb2dVertex
 10
87.63076
 20
33.447511
 30
0.0
  0
VERTEX
  5
124
330
116
100
AcDbEntity
  8
001
370
    50
100
AcDbVertex
100
AcDb2dVertex
 10
87.601872
 20
33.466126
 30
0.0
  0
VERTEX
  5
125
330
116
100
AcDbEntity
  8
001
370
    50
100
AcDbVertex
100
AcDb2dVertex
 10
87.571243
 20
33.482107
 30
0.0
  0
VERTEX
  5
126
330
116
100
AcDbEntity
  8
001
370
    50
100
AcDbVertex
100
AcDb2dVertex
 10
87.540107
 20
33.495371
 30
0.0
  0
VERTEX
  5
127
330
116
100
AcDbEntity
  8
001
370
    50
100
AcDbVertex
100
AcDb2dVertex
 10
87.509042
 20
33.505783
 30
0.0
  0
VERTEX
  5
128
330
116
100
AcDbEntity
  8
001
370
    50
100
AcDbVertex
100
AcDb2dVertex
 10
87.474279
 20
33.513282
 30
0.0
  0
VERTEX
  5
129
330
116
100
AcDbEntity
  8
001
370
    50
100
AcDbVertex
100
AcDb2dVertex
 10
87.435051
 20
33.517801
 30
0.0
  0
VERTEX
  5
12A
330
116
100
AcDbEntity
  8
001
370
    50
100
AcDbVertex
100
AcDb2dVertex
 10
87.406387
 20
33.519314
 30
0.0
  0
SEQEND
  5
117
330
116
100
AcDbEntity
  8
001
370
    50
  0
LINE
  5
12B
330
1F
100
AcDbEntity
  8
001
370
    50
100
AcDbLine
 10
87.797356
 20
30.794433
 30
0.0
 11
87.797356
 21
33.122314
 31
0.0
  0
LINE
  5
12C
330
1F
100
AcDbEntity
  8
001
370
    50
100
AcDbLine
 10
88.697356
 20
29.854666
 30
0.0
 11
87.797356
 21
30.794433
 31
0.0
  0
LINE
  5
12D
330
1F
100
AcDbEntity
  8
001
370
    50
100
AcDbLine
 10
88.697356
 20
26.892198
 30
0.0
 11
88.697356
 21
29.854666
 31
0.0
  0
POLYLINE
  5
12E
330
1F
100
AcDbEntity
  8
001
370
    50
100
AcDb2dPolyline
 66
     1
 10
0.0
 20
0.0
 30
0.0
  0
VERTEX
  5
130
330
12E
100
AcDbEntity
  8
001
370
    50
100
AcDbVertex
100
AcDb2dVertex
 10
88.306388
 20
26.495198
 30
0.0
  0
VERTEX
  5
131
330
12E
100
AcDbEntity
  8
001
370
    50
100
AcDbVertex
100
AcDb2dVertex
 10
88.338619
 20
26.497111
 30
0.0
  0
VERTEX
  5
132
330
12E
100
AcDbEntity
  8
001
370
    50
100
AcDbVertex
100
AcDb2dVertex
 10
88.382662
 20
26.502826
 30
0.0
  0
VERTEX
  5
133
330
12E
100
AcDbEntity
  8
001
370
    50
100
AcDbVertex
100
AcDb2dVertex
 10
88.421531
 20
26.512301
 30
0.0
  0
VERTEX
  5
134
330
12E
100
AcDbEntity
  8
001
370
    50
100
AcDbVertex
100
AcDb2dVertex
 10
88.456005
 20
26.525417
 30
0.0
  0
VERTEX
  5
135
330
12E
100
AcDbEntity
  8
001
370
    50
100
AcDbVertex
100
AcDb2dVertex
 10
88.49027
 20
26.542079
 30
0.0
  0
VERTEX
  5
136
330
12E
100
AcDbEntity
  8
001
370
    50
100
AcDbVertex
100
AcDb2dVertex
 10
88.523598
 20
26.562104
 30
0.0
  0
VERTEX
  5
137
330
12E
100
AcDbEntity
  8
001
370
    50
100
AcDbVertex
100
AcDb2dVertex
 10
88.554555
 20
26.585363
 30
0.0
  0
VERTEX
  5
138
330
12E
100
AcDbEntity
  8
001
370
    50
100
AcDbVertex
100
AcDb2dVertex
 10
88.582844
 20
26.611476
 30
0.0
  0
VERTEX
  5
139
330
12E
100
AcDbEntity
  8
001
370
    50
100
AcDbVertex
100
AcDb2dVertex
 10
88.608595
 20
26.640248
 30
0.0
  0
VERTEX
  5
13A
330
12E
100
AcDbEntity
  8
001
370
    50
100
AcDbVertex
100
AcDb2dVertex
 10
88.631466
 20
26.671636
 30
0.0
  0
VERTEX
  5
13B
330
12E
100
AcDbEntity
  8
001
370
    50
100
AcDbVertex
100
AcDb2dVertex
 10
88.65121
 20
26.705517
 30
0.0
  0
VERTEX
  5
13C
330
12E
100
AcDbEntity
  8
001
370
    50
100
AcDbVertex
100
AcDb2dVertex
 10
88.667596
 20
26.740272
 30
0.0
  0
VERTEX
  5
13D
330
12E
100
AcDbEntity
  8
001
370
    50
100
AcDbVertex
100
AcDb2dVertex
 10
88.680522
 20
26.775316
 30
0.0
  0
VERTEX
  5
13E
330
12E
100
AcDbEntity
  8
001
370
    50
100
AcDbVertex
100
AcDb2dVertex
 10
88.689844
 20
26.814747
 30
0.0
  0
VERTEX
  5
13F
330
12E
100
AcDbEntity
  8
001
370
    50
100
AcDbVertex
100
AcDb2dVertex
 10
88.695473
 20
26.859475
 30
0.0
  0
VERTEX
  5
140
330
12E
100
AcDbEntity
  8
001
370
    50
100
AcDbVertex
100
AcDb2dVertex
 10
88.697356
 20
26.892198
 30
0.0
  0
SEQEND
  5
12F
330
12E
100
AcDbEntity
  8
001
370
    50
  0
LINE
  5
141
330
1F
100
AcDbEntity
  8
001
370
    50
100
AcDbLine
 10
86.013873
 20
26.495198
 30
0.0
 11
88.306388
 21
26.495198
 31
0.0
  0
POLYLINE
  5
142
330
1F
100
AcDbEntity
  8
001
370
    50
100
AcDb2dPolyline
 66
     1
 10
0.0
 20
0.0
 30
0.0
  0
VERTEX
  5
144
330
142
100
AcDbEntity
  8
001
370
    50
100
AcDbVertex
100
AcDb2dVertex
 10
84.788654
 20
31.800314
 30
0.0
  0
VERTEX
  5
145
330
142
100
AcDbEntity
  8
001
370
    50
100
AcDbVertex
100
AcDb2dVertex
 10
84.626206
 20
31.791743
 30
0.0
  0
VERTEX
  5
146
330
142
100
AcDbEntity
  8
001
370
    50
100
AcDbVertex
100
AcDb2dVertex
 10
84.403882
 20
31.766131
 30
0.0
  0
VERTEX
  5
147
330
142
100
AcDbEntity
  8
001
370
    50
100
AcDbVertex
100
AcDb2dVertex
 10
84.20686
 20
31.723624
 30
0.0
  0
VERTEX
  5
148
330
142
100
AcDbEntity
  8
001
370
    50
100
AcDbVertex
100
AcDb2dVertex
 10
84.0308
 20
31.664622
 30
0.0
  0
VERTEX
  5
149
330
142
100
AcDbEntity
  8
001
370
    50
100
AcDbVertex
100
AcDb2dVertex
 10
83.854335
 20
31.589458
 30
0.0
  0
VERTEX
  5
14A
330
142
100
AcDbEntity
  8
001
370
    50
100
AcDbVertex
100
AcDb2dVertex
 10
83.680746
 20
31.498871
 30
0.0
  0
VERTEX
  5
14B
330
142
100
AcDbEntity
  8
001
370
    50
100
AcDbVertex
100
AcDb2dVertex
 10
83.517022
 20
31.39333
 30
0.0
  0
VERTEX
  5
14C
330
142
100
AcDbEntity
  8
001
370
    50
100
AcDbVertex
100
AcDb2dVertex
 10
83.364354
 20
31.273914
 30
0.0
  0
VERTEX
  5
14D
330
142
100
AcDbEntity
  8
001
370
    50
100
AcDbVertex
100
AcDb2dVertex
 10
83.221908
 20
31.141208
 30
0.0
  0
VERTEX
  5
14E
330
142
100
AcDbEntity
  8
001
370
    50
100
AcDbVertex
100
AcDb2dVertex
 10
83.09124
 20
30.996586
 30
0.0
  0
VERTEX
  5
14F
330
142
100
AcDbEntity
  8
001
370
    50
100
AcDbVertex
100
AcDb2dVertex
 10
82.973455
 20
30.840757
 30
0.0
  0
VERTEX
  5
150
330
142
100
AcDbEntity
  8
001
370
    50
100
AcDbVertex
100
AcDb2dVertex
 10
82.8697
 20
30.675314
 30
0.0
  0
VERTEX
  5
151
330
142
100
AcDbEntity
  8
001
370
    50
100
AcDbVertex
100
AcDb2dVertex
 10
82.780417
 20
30.501113
 30
0.0
  0
VERTEX
  5
152
330
142
100
AcDbEntity
  8
001
370
    50
100
AcDbVertex
100
AcDb2dVertex
 10
82.706467
 20
30.319859
 30
0.0
  0
VERTEX
  5
153
330
142
100
AcDbEntity
  8
001
370
    50
100
AcDbVertex
100
AcDb2dVertex
 10
82.648324
 20
30.132593
 30
0.0
  0
VERTEX
  5
154
330
142
100
AcDbEntity
  8
001
370
    50
100
AcDbVertex
100
AcDb2dVertex
 10
82.6065
 20
29.941022
 30
0.0
  0
VERTEX
  5
155
330
142
100
AcDbEntity
  8
001
370
    50
100
AcDbVertex
100
AcDb2dVertex
 10
82.581272
 20
29.746391
 30
0.0
  0
VERTEX
  5
156
330
142
100
AcDbEntity
  8
001
370
    50
100
AcDbVertex
100
AcDb2dVertex
 10
82.572837
 20
29.550314
 30
0.0
  0
VERTEX
  5
157
330
142
100
AcDbEntity
  8
001
370
    50
100
AcDbVertex
100
AcDb2dVertex
 10
82.581272
 20
29.354236
 30
0.0
  0
VERTEX
  5
158
330
142
100
AcDbEntity
  8
001
370
    50
100
AcDbVertex
100
AcDb2dVertex
 10
82.6065
 20
29.159605
 30
0.0
  0
VERTEX
  5
159
330
142
100
AcDbEntity
  8
001
370
    50
100
AcDbVertex
100
AcDb2dVertex
 10
82.648324
 20
28.968034
 30
0.0
  0
VERTEX
  5
15A
330
142
100
AcDbEntity
  8
001
370
    50
100
AcDbVertex
100
AcDb2dVertex
 10
82.706467
 20
28.780768
 30
0.0
  0
VERTEX
  5
15B
330
142
100
AcDbEntity
  8
001
370
    50
100
AcDbVertex
100
AcDb2dVertex
 10
82.780417
 20
28.599514
 30
0.0
  0
VERTEX
  5
15C
330
142
100
AcDbEntity
  8
001
370
    50
100
AcDbVertex
100
AcDb2dVertex
 10
82.8697
 20
28.425314
 30
0.0
  0
VERTEX
  5
15D
330
142
100
AcDbEntity
  8
001
370
    50
100
AcDbVertex
100
AcDb2dVertex
 10
82.973455
 20
28.25987
 30
0.0
  0
VERTEX
  5
15E
330
142
100
AcDbEntity
  8
001
370
    50
100
AcDbVertex
100
AcDb2dVertex
 10
83.09124
 20
28.104041
 30
0.0
  0
VERTEX
  5
15F
330
142
100
AcDbEntity
  8
001
370
    50
100
AcDbVertex
100
AcDb2dVertex
 10
83.221908
 20
27.959419
 30
0.0
  0
VERTEX
  5
160
330
142
100
AcDbEntity
  8
001
370
    50
100
AcDbVertex
100
AcDb2dVertex
 10
83.364354
 20
27.826714
 30
0.0
  0
VERTEX
  5
161
330
142
100
AcDbEntity
  8
001
370
    50
100
AcDbVertex
100
AcDb2dVertex
 10
83.517022
 20
27.707297
 30
0.0
  0
VERTEX
  5
162
330
142
100
AcDbEntity
  8
001
370
    50
100
AcDbVertex
100
AcDb2dVertex
 10
83.680746
 20
27.601756
 30
0.0
  0
VERTEX
  5
163
330
142
100
AcDbEntity
  8
001
370
    50
100
AcDbVertex
100
AcDb2dVertex
 10
83.854335
 20
27.511169
 30
0.0
  0
VERTEX
  5
164
330
142
100
AcDbEntity
  8
001
370
    50
100
AcDbVertex
100
AcDb2dVertex
 10
84.0308
 20
27.436005
 30
0.0
  0
VERTEX
  5
165
330
142
100
AcDbEntity
  8
001
370
    50
100
AcDbVertex
100
AcDb2dVertex
 10
84.20686
 20
27.377003
 30
0.0
  0
VERTEX
  5
166
330
142
100
AcDbEntity
  8
001
370
    50
100
AcDbVertex
100
AcDb2dVertex
 10
84.403882
 20
27.334496
 30
0.0
  0
VERTEX
  5
167
330
142
100
AcDbEntity
  8
001
370
    50
100
AcDbVertex
100
AcDb2dVertex
 10
84.626206
 20
27.308884
 30
0.0
  0
VERTEX
  5
168
330
142
100
AcDbEntity
  8
001
370
    50
100
AcDbVertex
100
AcDb2dVertex
 10
84.788654
 20
27.300314
 30
0.0
  0
SEQEND
  5
143
330
142
100
AcDbEntity
  8
001
370
    50
  0
POLYLINE
  5
169
330
1F
100
AcDbEntity
  8
001
370
    50
100
AcDb2dPolyline
 66
     1
 10
0.0
 20
0.0
 30
0.0
  0
VERTEX
  5
16B
330
169
100
AcDbEntity
  8
001
370
    50
100
AcDbVertex
100
AcDb2dVertex
 10
84.788654
 20
27.300314
 30
0.0
  0
VERTEX
  5
16C
330
169
100
AcDbEntity
  8
001
370
    50
100
AcDbVertex
100
AcDb2dVertex
 10
84.951103
 20
27.308884
 30
0.0
  0
VERTEX
  5
16D
330
169
100
AcDbEntity
  8
001
370
    50
100
AcDbVertex
100
AcDb2dVertex
 10
85.173427
 20
27.334496
 30
0.0
  0
VERTEX
  5
16E
330
169
100
AcDbEntity
  8
001
370
    50
100
AcDbVertex
100
AcDb2dVertex
 10
85.370448
 20
27.377003
 30
0.0
  0
VERTEX
  5
16F
330
169
100
AcDbEntity
  8
001
370
    50
100
AcDbVertex
100
AcDb2dVertex
 10
85.546509
 20
27.436005
 30
0.0
  0
VERTEX
  5
170
330
169
100
AcDbEntity
  8
001
370
    50
100
AcDbVertex
100
AcDb2dVertex
 10
85.722974
 20
27.511169
 30
0.0
  0
VERTEX
  5
171
330
169
100
AcDbEntity
  8
001
370
    50
100
AcDbVertex
100
AcDb2dVertex
 10
85.896563
 20
27.601756
 30
0.0
  0
VERTEX
  5
172
330
169
100
AcDbEntity
  8
001
370
    50
100
AcDbVertex
100
AcDb2dVertex
 10
86.060286
 20
27.707297
 30
0.0
  0
VERTEX
  5
173
330
169
100
AcDbEntity
  8
001
370
    50
100
AcDbVertex
100
AcDb2dVertex
 10
86.212954
 20
27.826714
 30
0.0
  0
VERTEX
  5
174
330
169
100
AcDbEntity
  8
001
370
    50
100
AcDbVertex
100
AcDb2dVertex
 10
86.355401
 20
27.959419
 30
0.0
  0
VERTEX
  5
175
330
169
100
AcDbEntity
  8
001
370
    50
100
AcDbVertex
100
AcDb2dVertex
 10
86.486069
 20
28.104041
 30
0.0
  0
VERTEX
  5
176
330
169
100
AcDbEntity
  8
001
370
    50
100
AcDbVertex
100
AcDb2dVertex
 10
86.603854
 20
28.25987
 30
0.0
  0
VERTEX
  5
177
330
169
100
AcDbEntity
  8
001
370
    50
100
AcDbVertex
100
AcDb2dVertex
 10
86.707609
 20
28.425314
 30
0.0
  0
VERTEX
  5
178
330
169
100
AcDbEntity
  8
001
370
    50
100
AcDbVertex
100
AcDb2dVertex
 10
86.796892
 20
28.599514
 30
0.0
  0
VERTEX
  5
179
330
169
100
AcDbEntity
  8
001
370
    50
100
AcDbVertex
100
AcDb2dVertex
 10
86.870842
 20
28.780768
 30
0.0
  0
VERTEX
  5
17A
330
169
100
AcDbEntity
  8
001
370
    50
100
AcDbVertex
100
AcDb2dVertex
 10
86.928984
 20
28.968034
 30
0.0
  0
VERTEX
  5
17B
330
169
100
AcDbEntity
  8
001
370
    50
100
AcDbVertex
100
AcDb2dVertex
 10
86.970809
 20
29.159605
 30
0.0
  0
VERTEX
  5
17C
330
169
100
AcDbEntity
  8
001
370
    50
100
AcDbVertex
100
AcDb2dVertex
 10
86.996037
 20
29.354236
 30
0.0
  0
VERTEX
  5
17D
330
169
100
AcDbEntity
  8
001
370
    50
100
AcDbVertex
100
AcDb2dVertex
 10
87.004472
 20
29.550314
 30
0.0
  0
VERTEX
  5
17E
330
169
100
AcDbEntity
  8
001
370
    50
100
AcDbVertex
100
AcDb2dVertex
 10
86.996037
 20
29.746391
 30
0.0
  0
VERTEX
  5
17F
330
169
100
AcDbEntity
  8
001
370
    50
100
AcDbVertex
100
AcDb2dVertex
 10
86.970809
 20
29.941022
 30
0.0
  0
VERTEX
  5
180
330
169
100
AcDbEntity
  8
001
370
    50
100
AcDbVertex
100
AcDb2dVertex
 10
86.928984
 20
30.132593
 30
0.0
  0
VERTEX
  5
181
330
169
100
AcDbEntity
  8
001
370
    50
100
AcDbVertex
100
AcDb2dVertex
 10
86.870842
 20
30.319859
 30
0.0
  0
VERTEX
  5
182
330
169
100
AcDbEntity
  8
001
370
    50
100
AcDbVertex
100
AcDb2dVertex
 10
86.796892
 20
30.501113
 30
0.0
  0
VERTEX
  5
183
330
169
100
AcDbEntity
  8
001
370
    50
100
AcDbVertex
100
AcDb2dVertex
 10
86.707609
 20
30.675314
 30
0.0
  0
VERTEX
  5
184
330
169
100
AcDbEntity
  8
001
370
    50
100
AcDbVertex
100
AcDb2dVertex
 10
86.603854
 20
30.840757
 30
0.0
  0
VERTEX
  5
185
330
169
100
AcDbEntity
  8
001
370
    50
100
AcDbVertex
100
AcDb2dVertex
 10
86.486069
 20
30.996586
 30
0.0
  0
VERTEX
  5
186
330
169
100
AcDbEntity
  8
001
370
    50
100
AcDbVertex
100
AcDb2dVertex
 10
86.355401
 20
31.141208
 30
0.0
  0
VERTEX
  5
187
330
169
100
AcDbEntity
  8
001
370
    50
100
AcDbVertex
100
AcDb2dVertex
 10
86.212954
 20
31.273914
 30
0.0
  0
VERTEX
  5
188
330
169
100
AcDbEntity
  8
001
370
    50
100
AcDbVertex
100
AcDb2dVertex
 10
86.060286
 20
31.39333
 30
0.0
  0
VERTEX
  5
189
330
169
100
AcDbEntity
  8
001
370
    50
100
AcDbVertex
100
AcDb2dVertex
 10
85.896563
 20
31.498871
 30
0.0
  0
VERTEX
  5
18A
330
169
100
AcDbEntity
  8
001
370
    50
100
AcDbVertex
100
AcDb2dVertex
 10
85.722974
 20
31.589458
 30
0.0
  0
VERTEX
  5
18B
330
169
100
AcDbEntity
  8
001
370
    50
100
AcDbVertex
100
AcDb2dVertex
 10
85.546509
 20
31.664622
 30
0.0
  0
VERTEX
  5
18C
330
169
100
AcDbEntity
  8
001
370
    50
100
AcDbVertex
100
AcDb2dVertex
 10
85.370448
 20
31.723624
 30
0.0
  0
VERTEX
  5
18D
330
169
100
AcDbEntity
  8
001
370
    50
100
AcDbVertex
100
AcDb2dVertex
 10
85.173427
 20
31.766131
 30
0.0
  0
VERTEX
  5
18E
330
169
100
AcDbEntity
  8
001
370
    50
100
AcDbVertex
100
AcDb2dVertex
 10
84.951103
 20
31.791743
 30
0.0
  0
VERTEX
  5
18F
330
169
100
AcDbEntity
  8
001
370
    50
100
AcDbVertex
100
AcDb2dVertex
 10
84.788654
 20
31.800314
 30
0.0
  0
SEQEND
  5
16A
330
169
100
AcDbEntity
  8
001
370
    50
  0
LINE
  5
190
330
1F
100
AcDbEntity
  8
001
370
    50
100
AcDbLine
 10
117.829952
 20
44.246961
 30
0.0
 11
117.829952
 21
24.246961
 31
0.0
  0
LINE
  5
191
330
1F
100
AcDbEntity
  8
001
370
    50
100
AcDbLine
 10
191.879952
 20
44.246961
 30
0.0
 11
117.829952
 21
44.246961
 31
0.0
  0
LINE
  5
192
330
1F
100
AcDbEntity
  8
001
370
    50
100
AcDbLine
 10
117.829952
 20
24.246961
 30
0.0
 11
191.879952
 21
24.246961
 31
0.0
  0
ARC
  5
193
330
1F
100
AcDbEntity
  8
001
370
    50
100
AcDbCircle
 10
191.879952
 20
40.246961
 30
0.0
 40
4.000000000000004
100
AcDbArc
 50
0.0
 51
90.0
  0
ARC
  5
194
330
1F
100
AcDbEntity
  8
001
370
    50
100
AcDbCircle
 10
191.879952
 20
28.246961
 30
0.0
 40
4.000000000000004
100
AcDbArc
 50
270.0
 51
0.0
  0
LINE
  5
195
330
1F
100
AcDbEntity
  8
001
370
    50
100
AcDbLine
 10
195.879952
 20
40.246961
 30
0.0
 11
195.879952
 21
28.246961
 31
0.0
  0
LINE
  5
196
330
1F
100
AcDbEntity
  8
001
370
    50
100
AcDbLine
 10
115.879952
 20
42.296961
 30
0.0
 11
115.879952
 21
26.196961
 31
0.0
  0
LINE
  5
197
330
1F
100
AcDbEntity
  8
001
370
    50
100
AcDbLine
 10
117.829952
 20
44.246961
 30
0.0
 11
115.879952
 21
42.296961
 31
0.0
  0
LINE
  5
198
330
1F
100
AcDbEntity
  8
001
370
    50
100
AcDbLine
 10
115.879952
 20
26.196961
 30
0.0
 11
117.829952
 21
24.246961
 31
0.0
  0
LINE
  5
199
330
1F
100
AcDbEntity
  8
001
370
    50
100
AcDbLine
 10
98.476474
 20
34.786548
 30
0.0
 11
98.966474
 21
34.64629
 31
0.0
  0
LINE
  5
19A
330
1F
100
AcDbEntity
  8
001
370
    50
100
AcDbLine
 10
98.966474
 20
34.64629
 30
0.0
 11
99.456474
 21
34.50591
 31
0.0
  0
LINE
  5
19B
330
1F
100
AcDbEntity
  8
001
370
    50
100
AcDbLine
 10
101.906474
 20
33.803684
 30
0.0
 11
102.396474
 21
33.663473
 31
0.0
  0
LINE
  5
19C
330
1F
100
AcDbEntity
  8
001
370
    50
100
AcDbLine
 10
99.456474
 20
34.50591
 30
0.0
 11
99.946474
 21
34.365451
 31
0.0
  0
LINE
  5
19D
330
1F
100
AcDbEntity
  8
001
  6
DASHED
370
    50
100
AcDbLine
 10
113.743504
 20
26.196961
 30
0.0
 11
113.728856
 21
26.210539
 31
0.0
  0
POLYLINE
  5
19E
330
1F
100
AcDbEntity
  8
001
370
    50
100
AcDb2dPolyline
 66
     1
 10
0.0
 20
0.0
 30
0.0
  0
VERTEX
  5
1A0
330
19E
100
AcDbEntity
  8
001
370
    50
100
AcDbVertex
100
AcDb2dVertex
 10
113.729069
 20
26.21021
 30
0.0
  0
VERTEX
  5
1A1
330
19E
100
AcDbEntity
  8
001
370
    50
100
AcDbVertex
100
AcDb2dVertex
 10
113.709544
 20
26.230438
 30
0.0
  0
VERTEX
  5
1A2
330
19E
100
AcDbEntity
  8
001
370
    50
100
AcDbVertex
100
AcDb2dVertex
 10
113.689929
 20
26.250577
 30
0.0
  0
VERTEX
  5
1A3
330
19E
100
AcDbEntity
  8
001
370
    50
100
AcDbVertex
100
AcDb2dVertex
 10
113.657185
 20
26.283472
 30
0.0
  0
VERTEX
  5
1A4
330
19E
100
AcDbEntity
  8
001
370
    50
100
AcDbVertex
100
AcDb2dVertex
 10
113.624006
 20
26.315931
 30
0.0
  0
VERTEX
  5
1A5
330
19E
100
AcDbEntity
  8
001
370
    50
100
AcDbVertex
100
AcDb2dVertex
 10
113.576535
 20
26.361066
 30
0.0
  0
VERTEX
  5
1A6
330
19E
100
AcDbEntity
  8
001
370
    50
100
AcDbVertex
100
AcDb2dVertex
 10
113.528366
 20
26.405454
 30
0.0
  0
VERTEX
  5
1A7
330
19E
100
AcDbEntity
  8
001
370
    50
100
AcDbVertex
100
AcDb2dVertex
 10
113.464038
 20
26.462755
 30
0.0
  0
VERTEX
  5
1A8
330
19E
100
AcDbEntity
  8
001
370
    50
100
AcDbVertex
100
AcDb2dVertex
 10
113.398713
 20
26.518921
 30
0.0
  0
VERTEX
  5
1A9
330
19E
100
AcDbEntity
  8
001
370
    50
100
AcDbVertex
100
AcDb2dVertex
 10
113.31704
 20
26.586679
 30
0.0
  0
VERTEX
  5
1AA
330
19E
100
AcDbEntity
  8
001
370
    50
100
AcDbVertex
100
AcDb2dVertex
 10
113.234167
 20
26.652966
 30
0.0
  0
VERTEX
  5
1AB
330
19E
100
AcDbEntity
  8
001
370
    50
100
AcDbVertex
100
AcDb2dVertex
 10
113.135485
 20
26.72904
 30
0.0
  0
VERTEX
  5
1AC
330
19E
100
AcDbEntity
  8
001
370
    50
100
AcDbVertex
100
AcDb2dVertex
 10
113.035421
 20
26.803291
 30
0.0
  0
VERTEX
  5
1AD
330
19E
100
AcDbEntity
  8
001
370
    50
100
AcDbVertex
100
AcDb2dVertex
 10
112.920082
 20
26.88557
 30
0.0
  0
VERTEX
  5
1AE
330
19E
100
AcDbEntity
  8
001
370
    50
100
AcDbVertex
100
AcDb2dVertex
 10
112.80317
 20
26.965599
 30
0.0
  0
VERTEX
  5
1AF
330
19E
100
AcDbEntity
  8
001
370
    50
100
AcDbVertex
100
AcDb2dVertex
 10
112.685445
 20
27.042989
 30
0.0
  0
VERTEX
  5
1B0
330
19E
100
AcDbEntity
  8
001
370
    50
100
AcDbVertex
100
AcDb2dVertex
 10
112.566371
 20
27.118289
 30
0.0
  0
VERTEX
  5
1B1
330
19E
100
AcDbEntity
  8
001
370
    50
100
AcDbVertex
100
AcDb2dVertex
 10
112.435709
 20
27.197784
 30
0.0
  0
VERTEX
  5
1B2
330
19E
100
AcDbEntity
  8
001
370
    50
100
AcDbVertex
100
AcDb2dVertex
 10
112.30369
 20
27.275006
 30
0.0
  0
VERTEX
  5
1B3
330
19E
100
AcDbEntity
  8
001
370
    50
100
AcDbVertex
100
AcDb2dVertex
 10
112.161482
 20
27.354922
 30
0.0
  0
VERTEX
  5
1B4
330
19E
100
AcDbEntity
  8
001
370
    50
100
AcDbVertex
100
AcDb2dVertex
 10
112.017891
 20
27.432326
 30
0.0
  0
VERTEX
  5
1B5
330
19E
100
AcDbEntity
  8
001
370
    50
100
AcDbVertex
100
AcDb2dVertex
 10
111.865524
 20
27.51098
 30
0.0
  0
VERTEX
  5
1B6
330
19E
100
AcDbEntity
  8
001
370
    50
100
AcDbVertex
100
AcDb2dVertex
 10
111.711737
 20
27.586827
 30
0.0
  0
VERTEX
  5
1B7
330
19E
100
AcDbEntity
  8
001
370
    50
100
AcDbVertex
100
AcDb2dVertex
 10
111.481346
 20
27.694038
 30
0.0
  0
VERTEX
  5
1B8
330
19E
100
AcDbEntity
  8
001
370
    50
100
AcDbVertex
100
AcDb2dVertex
 10
111.248222
 20
27.795192
 30
0.0
  0
VERTEX
  5
1B9
330
19E
100
AcDbEntity
  8
001
370
    50
100
AcDbVertex
100
AcDb2dVertex
 10
111.001076
 20
27.894933
 30
0.0
  0
VERTEX
  5
1BA
330
19E
100
AcDbEntity
  8
001
370
    50
100
AcDbVertex
100
AcDb2dVertex
 10
110.751414
 20
27.988198
 30
0.0
  0
VERTEX
  5
1BB
330
19E
100
AcDbEntity
  8
001
370
    50
100
AcDbVertex
100
AcDb2dVertex
 10
110.491406
 20
28.077576
 30
0.0
  0
VERTEX
  5
1BC
330
19E
100
AcDbEntity
  8
001
370
    50
100
AcDbVertex
100
AcDb2dVertex
 10
110.229061
 20
28.159831
 30
0.0
  0
VERTEX
  5
1BD
330
19E
100
AcDbEntity
  8
001
370
    50
100
AcDbVertex
100
AcDb2dVertex
 10
109.992523
 20
28.227243
 30
0.0
  0
VERTEX
  5
1BE
330
19E
100
AcDbEntity
  8
001
370
    50
100
AcDbVertex
100
AcDb2dVertex
 10
109.754408
 20
28.288857
 30
0.0
  0
VERTEX
  5
1BF
330
19E
100
AcDbEntity
  8
001
370
    50
100
AcDbVertex
100
AcDb2dVertex
 10
109.510376
 20
28.345727
 30
0.0
  0
VERTEX
  5
1C0
330
19E
100
AcDbEntity
  8
001
370
    50
100
AcDbVertex
100
AcDb2dVertex
 10
109.265036
 20
28.396656
 30
0.0
  0
VERTEX
  5
1C1
330
19E
100
AcDbEntity
  8
001
370
    50
100
AcDbVertex
100
AcDb2dVertex
 10
109.015645
 20
28.442123
 30
0.0
  0
VERTEX
  5
1C2
330
19E
100
AcDbEntity
  8
001
370
    50
100
AcDbVertex
100
AcDb2dVertex
 10
108.765209
 20
28.481435
 30
0.0
  0
VERTEX
  5
1C3
330
19E
100
AcDbEntity
  8
001
370
    50
100
AcDbVertex
100
AcDb2dVertex
 10
108.512583
 20
28.514654
 30
0.0
  0
VERTEX
  5
1C4
330
19E
100
AcDbEntity
  8
001
370
    50
100
AcDbVertex
100
AcDb2dVertex
 10
108.25919
 20
28.541401
 30
0.0
  0
VERTEX
  5
1C5
330
19E
100
AcDbEntity
  8
001
370
    50
100
AcDbVertex
100
AcDb2dVertex
 10
107.970913
 20
28.563757
 30
0.0
  0
VERTEX
  5
1C6
330
19E
100
AcDbEntity
  8
001
370
    50
100
AcDbVertex
100
AcDb2dVertex
 10
107.682103
 20
28.577711
 30
0.0
  0
VERTEX
  5
1C7
330
19E
100
AcDbEntity
  8
001
370
    50
100
AcDbVertex
100
AcDb2dVertex
 10
107.391488
 20
28.583424
 30
0.0
  0
VERTEX
  5
1C8
330
19E
100
AcDbEntity
  8
001
370
    50
100
AcDbVertex
100
AcDb2dVertex
 10
107.100827
 20
28.580931
 30
0.0
  0
VERTEX
  5
1C9
330
19E
100
AcDbEntity
  8
001
370
    50
100
AcDbVertex
100
AcDb2dVertex
 10
106.810705
 20
28.570329
 30
0.0
  0
VERTEX
  5
1CA
330
19E
100
AcDbEntity
  8
001
370
    50
100
AcDbVertex
100
AcDb2dVertex
 10
106.521004
 20
28.551538
 30
0.0
  0
VERTEX
  5
1CB
330
19E
100
AcDbEntity
  8
001
370
    50
100
AcDbVertex
100
AcDb2dVertex
 10
106.23422
 20
28.524739
 30
0.0
  0
VERTEX
  5
1CC
330
19E
100
AcDbEntity
  8
001
370
    50
100
AcDbVertex
100
AcDb2dVertex
 10
105.948275
 20
28.490011
 30
0.0
  0
VERTEX
  5
1CD
330
19E
100
AcDbEntity
  8
001
370
    50
100
AcDbVertex
100
AcDb2dVertex
 10
105.733443
 20
28.45864
 30
0.0
  0
VERTEX
  5
1CE
330
19E
100
AcDbEntity
  8
001
370
    50
100
AcDbVertex
100
AcDb2dVertex
 10
105.519416
 20
28.422353
 30
0.0
  0
VERTEX
  5
1CF
330
19E
100
AcDbEntity
  8
001
370
    50
100
AcDbVertex
100
AcDb2dVertex
 10
105.308085
 20
28.381509
 30
0.0
  0
VERTEX
  5
1D0
330
19E
100
AcDbEntity
  8
001
370
    50
100
AcDbVertex
100
AcDb2dVertex
 10
105.097259
 20
28.337974
 30
0.0
  0
SEQEND
  5
19F
330
19E
100
AcDbEntity
  8
001
370
    50
  0
LINE
  5
1D1
330
1F
100
AcDbEntity
  8
001
370
    50
100
AcDbLine
 10
115.879952
 20
42.296961
 30
0.0
 11
82.179952
 21
42.296961
 31
0.0
  0
LINE
  5
1D2
330
1F
100
AcDbEntity
  8
001
370
    50
100
AcDbLine
 10
113.74349
 20
26.196961
 30
0.0
 11
115.879952
 21
26.196961
 31
0.0
  0
LINE
  5
1D3
330
1F
100
AcDbEntity
  8
001
370
    50
100
AcDbLine
 10
88.927259
 20
26.313811
 30
0.0
 11
88.437259
 21
26.291169
 31
0.0
  0
LINE
  5
1D4
330
1F
100
AcDbEntity
  8
001
370
    50
100
AcDbLine
 10
89.417259
 20
26.33887
 30
0.0
 11
88.927259
 21
26.313811
 31
0.0
  0
LINE
  5
1D5
330
1F
100
AcDbEntity
  8
001
370
    50
100
AcDbLine
 10
89.907259
 20
26.366338
 30
0.0
 11
89.417259
 21
26.33887
 31
0.0
  0
LINE
  5
1D6
330
1F
100
AcDbEntity
  8
001
370
    50
100
AcDbLine
 10
90.397259
 20
26.396207
 30
0.0
 11
89.907259
 21
26.366338
 31
0.0
  0
LINE
  5
1D7
330
1F
100
AcDbEntity
  8
001
370
    50
100
AcDbLine
 10
90.887259
 20
26.428466
 30
0.0
 11
90.397259
 21
26.396207
 31
0.0
  0
LINE
  5
1D8
330
1F
100
AcDbEntity
  8
001
370
    50
100
AcDbLine
 10
91.377259
 20
26.463108
 30
0.0
 11
90.887259
 21
26.428466
 31
0.0
  0
LINE
  5
1D9
330
1F
100
AcDbEntity
  8
001
370
    50
100
AcDbLine
 10
91.867259
 20
26.50012
 30
0.0
 11
91.377259
 21
26.463108
 31
0.0
  0
LINE
  5
1DA
330
1F
100
AcDbEntity
  8
001
370
    50
100
AcDbLine
 10
92.357259
 20
26.539492
 30
0.0
 11
91.867259
 21
26.50012
 31
0.0
  0
LINE
  5
1DB
330
1F
100
AcDbEntity
  8
001
370
    50
100
AcDbLine
 10
92.847259
 20
26.581212
 30
0.0
 11
92.357259
 21
26.539492
 31
0.0
  0
LINE
  5
1DC
330
1F
100
AcDbEntity
  8
001
370
    50
100
AcDbLine
 10
93.337259
 20
26.625267
 30
0.0
 11
92.847259
 21
26.581212
 31
0.0
  0
LINE
  5
1DD
330
1F
100
AcDbEntity
  8
001
370
    50
100
AcDbLine
 10
93.827259
 20
26.671644
 30
0.0
 11
93.337259
 21
26.625267
 31
0.0
  0
LINE
  5
1DE
330
1F
100
AcDbEntity
  8
001
370
    50
100
AcDbLine
 10
94.317259
 20
26.720328
 30
0.0
 11
93.827259
 21
26.671644
 31
0.0
  0
LINE
  5
1DF
330
1F
100
AcDbEntity
  8
001
370
    50
100
AcDbLine
 10
94.807259
 20
26.771305
 30
0.0
 11
94.317259
 21
26.720328
 31
0.0
  0
LINE
  5
1E0
330
1F
100
AcDbEntity
  8
001
370
    50
100
AcDbLine
 10
95.297259
 20
26.824559
 30
0.0
 11
94.807259
 21
26.771305
 31
0.0
  0
LINE
  5
1E1
330
1F
100
AcDbEntity
  8
001
370
    50
100
AcDbLine
 10
95.787259
 20
26.880074
 30
0.0
 11
95.297259
 21
26.824559
 31
0.0
  0
LINE
  5
1E2
330
1F
100
AcDbEntity
  8
001
370
    50
100
AcDbLine
 10
96.277259
 20
26.937833
 30
0.0
 11
95.787259
 21
26.880074
 31
0.0
  0
LINE
  5
1E3
330
1F
100
AcDbEntity
  8
001
370
    50
100
AcDbLine
 10
96.767259
 20
26.997818
 30
0.0
 11
96.277259
 21
26.937833
 31
0.0
  0
LINE
  5
1E4
330
1F
100
AcDbEntity
  8
001
370
    50
100
AcDbLine
 10
97.257259
 20
27.060012
 30
0.0
 11
96.767259
 21
26.997818
 31
0.0
  0
LINE
  5
1E5
330
1F
100
AcDbEntity
  8
001
370
    50
100
AcDbLine
 10
97.747259
 20
27.124395
 30
0.0
 11
97.257259
 21
27.060012
 31
0.0
  0
LINE
  5
1E6
330
1F
100
AcDbEntity
  8
001
370
    50
100
AcDbLine
 10
98.237259
 20
27.190947
 30
0.0
 11
97.747259
 21
27.124395
 31
0.0
  0
LINE
  5
1E7
330
1F
100
AcDbEntity
  8
001
370
    50
100
AcDbLine
 10
98.727259
 20
27.259649
 30
0.0
 11
98.237259
 21
27.190947
 31
0.0
  0
LINE
  5
1E8
330
1F
100
AcDbEntity
  8
001
370
    50
100
AcDbLine
 10
99.217259
 20
27.330479
 30
0.0
 11
98.727259
 21
27.259649
 31
0.0
  0
LINE
  5
1E9
330
1F
100
AcDbEntity
  8
001
370
    50
100
AcDbLine
 10
99.707259
 20
27.403416
 30
0.0
 11
99.217259
 21
27.330479
 31
0.0
  0
LINE
  5
1EA
330
1F
100
AcDbEntity
  8
001
370
    50
100
AcDbLine
 10
100.197259
 20
27.478437
 30
0.0
 11
99.707259
 21
27.403416
 31
0.0
  0
LINE
  5
1EB
330
1F
100
AcDbEntity
  8
001
370
    50
100
AcDbLine
 10
100.687259
 20
27.555521
 30
0.0
 11
100.197259
 21
27.478437
 31
0.0
  0
LINE
  5
1EC
330
1F
100
AcDbEntity
  8
001
370
    50
100
AcDbLine
 10
101.177259
 20
27.634642
 30
0.0
 11
100.687259
 21
27.555521
 31
0.0
  0
LINE
  5
1ED
330
1F
100
AcDbEntity
  8
001
370
    50
100
AcDbLine
 10
101.667259
 20
27.715778
 30
0.0
 11
101.177259
 21
27.634642
 31
0.0
  0
LINE
  5
1EE
330
1F
100
AcDbEntity
  8
001
370
    50
100
AcDbLine
 10
102.157259
 20
27.798903
 30
0.0
 11
101.667259
 21
27.715778
 31
0.0
  0
LINE
  5
1EF
330
1F
100
AcDbEntity
  8
001
370
    50
100
AcDbLine
 10
102.647259
 20
27.883992
 30
0.0
 11
102.157259
 21
27.798903
 31
0.0
  0
LINE
  5
1F0
330
1F
100
AcDbEntity
  8
001
370
    50
100
AcDbLine
 10
103.137259
 20
27.97102
 30
0.0
 11
102.647259
 21
27.883992
 31
0.0
  0
LINE
  5
1F1
330
1F
100
AcDbEntity
  8
001
370
    50
100
AcDbLine
 10
103.627259
 20
28.059959
 30
0.0
 11
103.137259
 21
27.97102
 31
0.0
  0
LINE
  5
1F2
330
1F
100
AcDbEntity
  8
001
370
    50
100
AcDbLine
 10
104.117259
 20
28.150783
 30
0.0
 11
103.627259
 21
28.059959
 31
0.0
  0
LINE
  5
1F3
330
1F
100
AcDbEntity
  8
001
370
    50
100
AcDbLine
 10
104.607259
 20
28.243464
 30
0.0
 11
104.117259
 21
28.150783
 31
0.0
  0
LINE
  5
1F4
330
1F
100
AcDbEntity
  8
001
370
    50
100
AcDbLine
 10
105.097259
 20
28.337974
 30
0.0
 11
104.607259
 21
28.243464
 31
0.0
  0
POLYLINE
  5
1F5
330
1F
100
AcDbEntity
  8
001
370
    50
100
AcDb2dPolyline
 66
     1
 10
0.0
 20
0.0
 30
0.0
  0
VERTEX
  5
1F7
330
1F5
100
AcDbEntity
  8
001
370
    50
100
AcDbVertex
100
AcDb2dVertex
 10
113.160455
 20
27.526726
 30
0.0
  0
VERTEX
  5
1F8
330
1F5
100
AcDbEntity
  8
001
370
    50
100
AcDbVertex
100
AcDb2dVertex
 10
113.215972
 20
27.362348
 30
0.0
  0
VERTEX
  5
1F9
330
1F5
100
AcDbEntity
  8
001
370
    50
100
AcDbVertex
100
AcDb2dVertex
 10
113.273549
 20
27.198706
 30
0.0
  0
VERTEX
  5
1FA
330
1F5
100
AcDbEntity
  8
001
370
    50
100
AcDbVertex
100
AcDb2dVertex
 10
113.327354
 20
27.05566
 30
0.0
  0
VERTEX
  5
1FB
330
1F5
100
AcDbEntity
  8
001
370
    50
100
AcDbVertex
100
AcDb2dVertex
 10
113.384177
 20
26.91377
 30
0.0
  0
VERTEX
  5
1FC
330
1F5
100
AcDbEntity
  8
001
370
    50
100
AcDbVertex
100
AcDb2dVertex
 10
113.435065
 20
26.793551
 30
0.0
  0
VERTEX
  5
1FD
330
1F5
100
AcDbEntity
  8
001
370
    50
100
AcDbVertex
100
AcDb2dVertex
 10
113.488516
 20
26.674457
 30
0.0
  0
VERTEX
  5
1FE
330
1F5
100
AcDbEntity
  8
001
370
    50
100
AcDbVertex
100
AcDb2dVertex
 10
113.528898
 20
26.589487
 30
0.0
  0
VERTEX
  5
1FF
330
1F5
100
AcDbEntity
  8
001
370
    50
100
AcDbVertex
100
AcDb2dVertex
 10
113.571032
 20
26.505375
 30
0.0
  0
VERTEX
  5
200
330
1F5
100
AcDbEntity
  8
001
370
    50
100
AcDbVertex
100
AcDb2dVertex
 10
113.606247
 20
26.438429
 30
0.0
  0
VERTEX
  5
201
330
1F5
100
AcDbEntity
  8
001
370
    50
100
AcDbVertex
100
AcDb2dVertex
 10
113.642509
 20
26.372041
 30
0.0
  0
VERTEX
  5
202
330
1F5
100
AcDbEntity
  8
001
370
    50
100
AcDbVertex
100
AcDb2dVertex
 10
113.669882
 20
26.32349
 30
0.0
  0
VERTEX
  5
203
330
1F5
100
AcDbEntity
  8
001
370
    50
100
AcDbVertex
100
AcDb2dVertex
 10
113.698227
 20
26.275498
 30
0.0
  0
VERTEX
  5
204
330
1F5
100
AcDbEntity
  8
001
370
    50
100
AcDbVertex
100
AcDb2dVertex
 10
113.716131
 20
26.246305
 30
0.0
  0
VERTEX
  5
205
330
1F5
100
AcDbEntity
  8
001
370
    50
100
AcDbVertex
100
AcDb2dVertex
 10
113.733467
 20
26.21679
 30
0.0
  0
VERTEX
  5
206
330
1F5
100
AcDbEntity
  8
001
370
    50
100
AcDbVertex
100
AcDb2dVertex
 10
113.738612
 20
26.207402
 30
0.0
  0
VERTEX
  5
207
330
1F5
100
AcDbEntity
  8
001
370
    50
100
AcDbVertex
100
AcDb2dVertex
 10
113.743674
 20
26.197967
 30
0.0
  0
SEQEND
  5
1F6
330
1F5
100
AcDbEntity
  8
001
370
    50
  0
POLYLINE
  5
208
330
1F
100
AcDbEntity
  8
001
370
    50
100
AcDb2dPolyline
 66
     1
 10
0.0
 20
0.0
 30
0.0
  0
VERTEX
  5
20A
330
208
100
AcDbEntity
  8
001
370
    50
100
AcDbVertex
100
AcDb2dVertex
 10
107.786474
 20
32.142221
 30
0.0
  0
VERTEX
  5
20B
330
208
100
AcDbEntity
  8
001
370
    50
100
AcDbVertex
100
AcDb2dVertex
 10
108.033177
 20
32.076995
 30
0.0
  0
VERTEX
  5
20C
330
208
100
AcDbEntity
  8
001
370
    50
100
AcDbVertex
100
AcDb2dVertex
 10
108.278168
 20
32.006073
 30
0.0
  0
VERTEX
  5
20D
330
208
100
AcDbEntity
  8
001
370
    50
100
AcDbVertex
100
AcDb2dVertex
 10
108.520188
 20
31.92498
 30
0.0
  0
VERTEX
  5
20E
330
208
100
AcDbEntity
  8
001
370
    50
100
AcDbVertex
100
AcDb2dVertex
 10
108.758943
 20
31.834427
 30
0.0
  0
VERTEX
  5
20F
330
208
100
AcDbEntity
  8
001
370
    50
100
AcDbVertex
100
AcDb2dVertex
 10
108.99374
 20
31.73634
 30
0.0
  0
VERTEX
  5
210
330
208
100
AcDbEntity
  8
001
370
    50
100
AcDbVertex
100
AcDb2dVertex
 10
109.225132
 20
31.63058
 30
0.0
  0
VERTEX
  5
211
330
208
100
AcDbEntity
  8
001
370
    50
100
AcDbVertex
100
AcDb2dVertex
 10
109.451032
 20
31.517947
 30
0.0
  0
VERTEX
  5
212
330
208
100
AcDbEntity
  8
001
370
    50
100
AcDbVertex
100
AcDb2dVertex
 10
109.673064
 20
31.397833
 30
0.0
  0
VERTEX
  5
213
330
208
100
AcDbEntity
  8
001
370
    50
100
AcDbVertex
100
AcDb2dVertex
 10
109.912385
 20
31.257559
 30
0.0
  0
VERTEX
  5
214
330
208
100
AcDbEntity
  8
001
370
    50
100
AcDbVertex
100
AcDb2dVertex
 10
110.146684
 20
31.109048
 30
0.0
  0
VERTEX
  5
215
330
208
100
AcDbEntity
  8
001
370
    50
100
AcDbVertex
100
AcDb2dVertex
 10
110.374085
 20
30.953987
 30
0.0
  0
VERTEX
  5
216
330
208
100
AcDbEntity
  8
001
370
    50
100
AcDbVertex
100
AcDb2dVertex
 10
110.59632
 20
30.79161
 30
0.0
  0
VERTEX
  5
217
330
208
100
AcDbEntity
  8
001
370
    50
100
AcDbVertex
100
AcDb2dVertex
 10
110.810012
 20
30.624861
 30
0.0
  0
VERTEX
  5
218
330
208
100
AcDbEntity
  8
001
370
    50
100
AcDbVertex
100
AcDb2dVertex
 10
111.018424
 20
30.451559
 30
0.0
  0
VERTEX
  5
219
330
208
100
AcDbEntity
  8
001
370
    50
100
AcDbVertex
100
AcDb2dVertex
 10
111.216646
 20
30.276217
 30
0.0
  0
VERTEX
  5
21A
330
208
100
AcDbEntity
  8
001
370
    50
100
AcDbVertex
100
AcDb2dVertex
 10
111.409444
 20
30.094934
 30
0.0
  0
VERTEX
  5
21B
330
208
100
AcDbEntity
  8
001
370
    50
100
AcDbVertex
100
AcDb2dVertex
 10
111.598071
 20
29.90632
 30
0.0
  0
VERTEX
  5
21C
330
208
100
AcDbEntity
  8
001
370
    50
100
AcDbVertex
100
AcDb2dVertex
 10
111.780828
 20
29.712009
 30
0.0
  0
VERTEX
  5
21D
330
208
100
AcDbEntity
  8
001
370
    50
100
AcDbVertex
100
AcDb2dVertex
 10
111.952042
 20
29.518644
 30
0.0
  0
VERTEX
  5
21E
330
208
100
AcDbEntity
  8
001
370
    50
100
AcDbVertex
100
AcDb2dVertex
 10
112.117377
 20
29.320238
 30
0.0
  0
VERTEX
  5
21F
330
208
100
AcDbEntity
  8
001
370
    50
100
AcDbVertex
100
AcDb2dVertex
 10
112.269404
 20
29.126264
 30
0.0
  0
VERTEX
  5
220
330
208
100
AcDbEntity
  8
001
370
    50
100
AcDbVertex
100
AcDb2dVertex
 10
112.415466
 20
28.927748
 30
0.0
  0
VERTEX
  5
221
330
208
100
AcDbEntity
  8
001
370
    50
100
AcDbVertex
100
AcDb2dVertex
 10
112.546664
 20
28.737315
 30
0.0
  0
VERTEX
  5
222
330
208
100
AcDbEntity
  8
001
370
    50
100
AcDbVertex
100
AcDb2dVertex
 10
112.671467
 20
28.542671
 30
0.0
  0
VERTEX
  5
223
330
208
100
AcDbEntity
  8
001
370
    50
100
AcDbVertex
100
AcDb2dVertex
 10
112.776558
 20
28.365827
 30
0.0
  0
VERTEX
  5
224
330
208
100
AcDbEntity
  8
001
370
    50
100
AcDbVertex
100
AcDb2dVertex
 10
112.875864
 20
28.185599
 30
0.0
  0
VERTEX
  5
225
330
208
100
AcDbEntity
  8
001
370
    50
100
AcDbVertex
100
AcDb2dVertex
 10
112.961572
 20
28.016843
 30
0.0
  0
VERTEX
  5
226
330
208
100
AcDbEntity
  8
001
370
    50
100
AcDbVertex
100
AcDb2dVertex
 10
113.039652
 20
27.844575
 30
0.0
  0
VERTEX
  5
227
330
208
100
AcDbEntity
  8
001
370
    50
100
AcDbVertex
100
AcDb2dVertex
 10
113.102134
 20
27.686509
 30
0.0
  0
VERTEX
  5
228
330
208
100
AcDbEntity
  8
001
370
    50
100
AcDbVertex
100
AcDb2dVertex
 10
113.160455
 20
27.526726
 30
0.0
  0
SEQEND
  5
209
330
208
100
AcDbEntity
  8
001
370
    50
  0
LINE
  5
229
330
1F
100
AcDbEntity
  8
001
370
    50
100
AcDbLine
 10
107.296474
 20
32.278146
 30
0.0
 11
107.786474
 21
32.142221
 31
0.0
  0
LINE
  5
22A
330
1F
100
AcDbEntity
  8
001
370
    50
100
AcDbLine
 10
106.806474
 20
32.414671
 30
0.0
 11
107.296474
 21
32.278146
 31
0.0
  0
LINE
  5
22B
330
1F
100
AcDbEntity
  8
001
370
    50
100
AcDbLine
 10
106.316474
 20
32.551755
 30
0.0
 11
106.806474
 21
32.414671
 31
0.0
  0
LINE
  5
22C
330
1F
100
AcDbEntity
  8
001
370
    50
100
AcDbLine
 10
105.826474
 20
32.689354
 30
0.0
 11
106.316474
 21
32.551755
 31
0.0
  0
LINE
  5
22D
330
1F
100
AcDbEntity
  8
001
370
    50
100
AcDbLine
 10
105.336474
 20
32.827428
 30
0.0
 11
105.826474
 21
32.689354
 31
0.0
  0
LINE
  5
22E
330
1F
100
AcDbEntity
  8
001
370
    50
100
AcDbLine
 10
104.846474
 20
32.965935
 30
0.0
 11
105.336474
 21
32.827428
 31
0.0
  0
LINE
  5
22F
330
1F
100
AcDbEntity
  8
001
370
    50
100
AcDbLine
 10
104.356474
 20
33.104831
 30
0.0
 11
104.846474
 21
32.965935
 31
0.0
  0
LINE
  5
230
330
1F
100
AcDbEntity
  8
001
370
    50
100
AcDbLine
 10
103.866474
 20
33.244076
 30
0.0
 11
104.356474
 21
33.104831
 31
0.0
  0
LINE
  5
231
330
1F
100
AcDbEntity
  8
001
370
    50
100
AcDbLine
 10
103.376474
 20
33.383626
 30
0.0
 11
103.866474
 21
33.244076
 31
0.0
  0
LINE
  5
232
330
1F
100
AcDbEntity
  8
001
370
    50
100
AcDbLine
 10
102.886474
 20
33.523439
 30
0.0
 11
103.376474
 21
33.383626
 31
0.0
  0
LINE
  5
233
330
1F
100
AcDbEntity
  8
001
370
    50
100
AcDbLine
 10
102.396474
 20
33.663473
 30
0.0
 11
102.886474
 21
33.523439
 31
0.0
  0
LINE
  5
234
330
1F
100
AcDbEntity
  8
001
370
    50
100
AcDbLine
 10
101.416474
 20
33.94403
 30
0.0
 11
101.906474
 21
33.803684
 31
0.0
  0
LINE
  5
235
330
1F
100
AcDbEntity
  8
001
370
    50
100
AcDbLine
 10
100.926474
 20
34.084469
 30
0.0
 11
101.416474
 21
33.94403
 31
0.0
  0
LINE
  5
236
330
1F
100
AcDbEntity
  8
001
370
    50
100
AcDbLine
 10
100.436474
 20
34.224957
 30
0.0
 11
100.926474
 21
34.084469
 31
0.0
  0
LINE
  5
237
330
1F
100
AcDbEntity
  8
001
370
    50
100
AcDbLine
 10
99.946474
 20
34.365451
 30
0.0
 11
100.436474
 21
34.224957
 31
0.0
  0
LINE
  5
238
330
1F
100
AcDbEntity
  8
001
370
    50
100
AcDbLine
 10
97.986474
 20
34.926641
 30
0.0
 11
98.476474
 21
34.786548
 31
0.0
  0
LINE
  5
239
330
1F
100
AcDbEntity
  8
001
370
    50
100
AcDbLine
 10
97.496474
 20
35.066528
 30
0.0
 11
97.986474
 21
34.926641
 31
0.0
  0
LINE
  5
23A
330
1F
100
AcDbEntity
  8
001
370
    50
100
AcDbLine
 10
97.006474
 20
35.206165
 30
0.0
 11
97.496474
 21
35.066528
 31
0.0
  0
LINE
  5
23B
330
1F
100
AcDbEntity
  8
001
370
    50
100
AcDbLine
 10
96.516474
 20
35.34551
 30
0.0
 11
97.006474
 21
35.206165
 31
0.0
  0
LINE
  5
23C
330
1F
100
AcDbEntity
  8
001
370
    50
100
AcDbLine
 10
96.026474
 20
35.48452
 30
0.0
 11
96.516474
 21
35.34551
 31
0.0
  0
LINE
  5
23D
330
1F
100
AcDbEntity
  8
001
370
    50
100
AcDbLine
 10
95.536474
 20
35.623153
 30
0.0
 11
96.026474
 21
35.48452
 31
0.0
  0
LINE
  5
23E
330
1F
100
AcDbEntity
  8
001
370
    50
100
AcDbLine
 10
95.046474
 20
35.761367
 30
0.0
 11
95.536474
 21
35.623153
 31
0.0
  0
LINE
  5
23F
330
1F
100
AcDbEntity
  8
001
370
    50
100
AcDbLine
 10
94.556474
 20
35.89912
 30
0.0
 11
95.046474
 21
35.761367
 31
0.0
  0
LINE
  5
240
330
1F
100
AcDbEntity
  8
001
370
    50
100
AcDbLine
 10
94.066474
 20
36.03637
 30
0.0
 11
94.556474
 21
35.89912
 31
0.0
  0
POLYLINE
  5
241
330
1F
100
AcDbEntity
  8
001
370
    50
100
AcDb2dPolyline
 66
     1
 10
0.0
 20
0.0
 30
0.0
  0
VERTEX
  5
243
330
241
100
AcDbEntity
  8
001
370
    50
100
AcDbVertex
100
AcDb2dVertex
 10
93.576474
 20
36.173074
 30
0.0
  0
VERTEX
  5
244
330
241
100
AcDbEntity
  8
001
370
    50
100
AcDbVertex
100
AcDb2dVertex
 10
93.78471
 20
36.119021
 30
0.0
  0
VERTEX
  5
245
330
241
100
AcDbEntity
  8
001
370
    50
100
AcDbVertex
100
AcDb2dVertex
 10
93.991473
 20
36.059944
 30
0.0
  0
VERTEX
  5
246
330
241
100
AcDbEntity
  8
001
370
    50
100
AcDbVertex
100
AcDb2dVertex
 10
94.028998
 20
36.048241
 30
0.0
  0
VERTEX
  5
247
330
241
100
AcDbEntity
  8
001
370
    50
100
AcDbVertex
100
AcDb2dVertex
 10
94.066474
 20
36.03637
 30
0.0
  0
SEQEND
  5
242
330
241
100
AcDbEntity
  8
001
370
    50
  0
LINE
  5
248
330
1F
100
AcDbEntity
  8
001
370
    50
100
AcDbLine
 10
93.086474
 20
36.309192
 30
0.0
 11
93.576474
 21
36.173074
 31
0.0
  0
LINE
  5
249
330
1F
100
AcDbEntity
  8
001
370
    50
100
AcDbLine
 10
92.596474
 20
36.444681
 30
0.0
 11
93.086474
 21
36.309192
 31
0.0
  0
LINE
  5
24A
330
1F
100
AcDbEntity
  8
001
370
    50
100
AcDbLine
 10
92.106474
 20
36.579501
 30
0.0
 11
92.596474
 21
36.444681
 31
0.0
  0
LINE
  5
24B
330
1F
100
AcDbEntity
  8
001
370
    50
100
AcDbLine
 10
91.616474
 20
36.713611
 30
0.0
 11
92.106474
 21
36.579501
 31
0.0
  0
LINE
  5
24C
330
1F
100
AcDbEntity
  8
001
370
    50
100
AcDbLine
 10
91.126474
 20
36.846969
 30
0.0
 11
91.616474
 21
36.713611
 31
0.0
  0
LINE
  5
24D
330
1F
100
AcDbEntity
  8
001
370
    50
100
AcDbLine
 10
90.636474
 20
36.979535
 30
0.0
 11
91.126474
 21
36.846969
 31
0.0
  0
LINE
  5
24E
330
1F
100
AcDbEntity
  8
001
370
    50
100
AcDbLine
 10
90.146474
 20
37.111269
 30
0.0
 11
90.636474
 21
36.979535
 31
0.0
  0
LINE
  5
24F
330
1F
100
AcDbEntity
  8
001
370
    50
100
AcDbLine
 10
89.656474
 20
37.242131
 30
0.0
 11
90.146474
 21
37.111269
 31
0.0
  0
LINE
  5
250
330
1F
100
AcDbEntity
  8
001
370
    50
100
AcDbLine
 10
89.166474
 20
37.37208
 30
0.0
 11
89.656474
 21
37.242131
 31
0.0
  0
LINE
  5
251
330
1F
100
AcDbEntity
  8
001
370
    50
100
AcDbLine
 10
88.676474
 20
37.501077
 30
0.0
 11
89.166474
 21
37.37208
 31
0.0
  0
LINE
  5
252
330
1F
100
AcDbEntity
  8
001
370
    50
100
AcDbLine
 10
88.186474
 20
37.629082
 30
0.0
 11
88.676474
 21
37.501077
 31
0.0
  0
LINE
  5
253
330
1F
100
AcDbEntity
  8
001
370
    50
100
AcDbLine
 10
87.696474
 20
37.756058
 30
0.0
 11
88.186474
 21
37.629082
 31
0.0
  0
LINE
  5
254
330
1F
100
AcDbEntity
  8
001
370
    50
100
AcDbLine
 10
87.206474
 20
37.881965
 30
0.0
 11
87.696474
 21
37.756058
 31
0.0
  0
LINE
  5
255
330
1F
100
AcDbEntity
  8
001
370
    50
100
AcDbLine
 10
86.716474
 20
38.006764
 30
0.0
 11
87.206474
 21
37.881965
 31
0.0
  0
LINE
  5
256
330
1F
100
AcDbEntity
  8
001
370
    50
100
AcDbLine
 10
86.226474
 20
38.130418
 30
0.0
 11
86.716474
 21
38.006764
 31
0.0
  0
LINE
  5
257
330
1F
100
AcDbEntity
  8
001
370
    50
100
AcDbLine
 10
85.736474
 20
38.25289
 30
0.0
 11
86.226474
 21
38.130418
 31
0.0
  0
LINE
  5
258
330
1F
100
AcDbEntity
  8
001
370
    50
100
AcDbLine
 10
85.246474
 20
38.374141
 30
0.0
 11
85.736474
 21
38.25289
 31
0.0
  0
LINE
  5
259
330
1F
100
AcDbEntity
  8
001
370
    50
100
AcDbLine
 10
84.756474
 20
38.494134
 30
0.0
 11
85.246474
 21
38.374141
 31
0.0
  0
LINE
  5
25A
330
1F
100
AcDbEntity
  8
001
370
    50
100
AcDbLine
 10
84.266474
 20
38.612834
 30
0.0
 11
84.756474
 21
38.494134
 31
0.0
  0
LINE
  5
25B
330
1F
100
AcDbEntity
  8
001
370
    50
100
AcDbLine
 10
83.776474
 20
38.730205
 30
0.0
 11
84.266474
 21
38.612834
 31
0.0
  0
LINE
  5
25C
330
1F
100
AcDbEntity
  8
001
370
    50
100
AcDbLine
 10
83.286474
 20
38.846209
 30
0.0
 11
83.776474
 21
38.730205
 31
0.0
  0
LINE
  5
25D
330
1F
100
AcDbEntity
  8
001
370
    50
100
AcDbLine
 10
82.796474
 20
38.960813
 30
0.0
 11
83.286474
 21
38.846209
 31
0.0
  0
LINE
  5
25E
330
1F
100
AcDbEntity
  8
001
370
    50
100
AcDbLine
 10
82.306474
 20
39.07398
 30
0.0
 11
82.796474
 21
38.960813
 31
0.0
  0
LINE
  5
25F
330
1F
100
AcDbEntity
  8
001
370
    50
100
AcDbLine
 10
82.179952
 20
39.106118
 30
0.0
 11
82.306474
 21
39.07398
 31
0.0
  0
LINE
  5
260
330
1F
100
AcDbEntity
  8
001
370
    50
100
AcDbLine
 10
88.437259
 20
26.291169
 30
0.0
 11
88.315683
 21
26.286441
 31
0.0
  0
POLYLINE
  5
261
330
1F
100
AcDbEntity
  8
001
370
    50
100
AcDb2dPolyline
 66
     1
 10
0.0
 20
0.0
 30
0.0
  0
VERTEX
  5
263
330
261
100
AcDbEntity
  8
001
370
    50
100
AcDbVertex
100
AcDb2dVertex
 10
89.388271
 20
31.96673
 30
0.0
  0
VERTEX
  5
264
330
261
100
AcDbEntity
  8
001
370
    50
100
AcDbVertex
100
AcDb2dVertex
 10
89.423968
 20
32.098178
 30
0.0
  0
VERTEX
  5
265
330
261
100
AcDbEntity
  8
001
370
    50
100
AcDbVertex
100
AcDb2dVertex
 10
89.452451
 20
32.230838
 30
0.0
  0
VERTEX
  5
266
330
261
100
AcDbEntity
  8
001
370
    50
100
AcDbVertex
100
AcDb2dVertex
 10
89.468936
 20
32.365887
 30
0.0
  0
VERTEX
  5
267
330
261
100
AcDbEntity
  8
001
370
    50
100
AcDbVertex
100
AcDb2dVertex
 10
89.478167
 20
32.502154
 30
0.0
  0
SEQEND
  5
262
330
261
100
AcDbEntity
  8
001
370
    50
  0
POLYLINE
  5
268
330
1F
100
AcDbEntity
  8
001
370
    50
100
AcDb2dPolyline
 66
     1
 10
0.0
 20
0.0
 30
0.0
  0
VERTEX
  5
26A
330
268
100
AcDbEntity
  8
001
370
    50
100
AcDbVertex
100
AcDb2dVertex
 10
89.478167
 20
32.502154
 30
0.0
  0
VERTEX
  5
26B
330
268
100
AcDbEntity
  8
001
370
    50
100
AcDbVertex
100
AcDb2dVertex
 10
89.476696
 20
32.591371
 30
0.0
  0
VERTEX
  5
26C
330
268
100
AcDbEntity
  8
001
370
    50
100
AcDbVertex
100
AcDb2dVertex
 10
89.472519
 20
32.680419
 30
0.0
  0
VERTEX
  5
26D
330
268
100
AcDbEntity
  8
001
370
    50
100
AcDbVertex
100
AcDb2dVertex
 10
89.454377
 20
32.829204
 30
0.0
  0
VERTEX
  5
26E
330
268
100
AcDbEntity
  8
001
370
    50
100
AcDbVertex
100
AcDb2dVertex
 10
89.422827
 20
32.976043
 30
0.0
  0
VERTEX
  5
26F
330
268
100
AcDbEntity
  8
001
370
    50
100
AcDbVertex
100
AcDb2dVertex
 10
89.378602
 20
33.121408
 30
0.0
  0
VERTEX
  5
270
330
268
100
AcDbEntity
  8
001
370
    50
100
AcDbVertex
100
AcDb2dVertex
 10
89.320982
 20
33.261661
 30
0.0
  0
VERTEX
  5
271
330
268
100
AcDbEntity
  8
001
370
    50
100
AcDbVertex
100
AcDb2dVertex
 10
89.290747
 20
33.32229
 30
0.0
  0
VERTEX
  5
272
330
268
100
AcDbEntity
  8
001
370
    50
100
AcDbVertex
100
AcDb2dVertex
 10
89.259015
 20
33.382197
 30
0.0
  0
SEQEND
  5
269
330
268
100
AcDbEntity
  8
001
370
    50
  0
LINE
  5
273
330
1F
100
AcDbEntity
  8
001
370
    50
100
AcDbLine
 10
89.259015
 20
33.382197
 30
0.0
 11
89.225588
 21
33.437229
 31
0.0
  0
POLYLINE
  5
274
330
1F
100
AcDbEntity
  8
001
370
    50
100
AcDb2dPolyline
 66
     1
 10
0.0
 20
0.0
 30
0.0
  0
VERTEX
  5
276
330
274
100
AcDbEntity
  8
001
370
    50
100
AcDbVertex
100
AcDb2dVertex
 10
88.788022
 20
33.890373
 30
0.0
  0
VERTEX
  5
277
330
274
100
AcDbEntity
  8
001
370
    50
100
AcDbVertex
100
AcDb2dVertex
 10
88.674333
 20
33.958969
 30
0.0
  0
VERTEX
  5
278
330
274
100
AcDbEntity
  8
001
370
    50
100
AcDbVertex
100
AcDb2dVertex
 10
88.557008
 20
34.020213
 30
0.0
  0
VERTEX
  5
279
330
274
100
AcDbEntity
  8
001
370
    50
100
AcDbVertex
100
AcDb2dVertex
 10
88.523169
 20
34.035124
 30
0.0
  0
VERTEX
  5
27A
330
274
100
AcDbEntity
  8
001
370
    50
100
AcDbVertex
100
AcDb2dVertex
 10
88.489046
 20
34.049462
 30
0.0
  0
SEQEND
  5
275
330
274
100
AcDbEntity
  8
001
370
    50
  0
POLYLINE
  5
27B
330
1F
100
AcDbEntity
  8
001
370
    50
100
AcDb2dPolyline
 66
     1
 10
0.0
 20
0.0
 30
0.0
  0
VERTEX
  5
27D
330
27B
100
AcDbEntity
  8
001
370
    50
100
AcDbVertex
100
AcDb2dVertex
 10
88.489046
 20
34.049462
 30
0.0
  0
VERTEX
  5
27E
330
27B
100
AcDbEntity
  8
001
370
    50
100
AcDbVertex
100
AcDb2dVertex
 10
88.38313
 20
34.085978
 30
0.0
  0
VERTEX
  5
27F
330
27B
100
AcDbEntity
  8
001
370
    50
100
AcDbVertex
100
AcDb2dVertex
 10
88.275921
 20
34.117971
 30
0.0
  0
VERTEX
  5
280
330
27B
100
AcDbEntity
  8
001
370
    50
100
AcDbVertex
100
AcDb2dVertex
 10
88.163765
 20
34.142358
 30
0.0
  0
VERTEX
  5
281
330
27B
100
AcDbEntity
  8
001
370
    50
100
AcDbVertex
100
AcDb2dVertex
 10
88.050069
 20
34.158515
 30
0.0
  0
VERTEX
  5
282
330
27B
100
AcDbEntity
  8
001
370
    50
100
AcDbVertex
100
AcDb2dVertex
 10
88.039978
 20
34.159595
 30
0.0
  0
VERTEX
  5
283
330
27B
100
AcDbEntity
  8
001
370
    50
100
AcDbVertex
100
AcDb2dVertex
 10
88.029885
 20
34.160648
 30
0.0
  0
SEQEND
  5
27C
330
27B
100
AcDbEntity
  8
001
370
    50
  0
LINE
  5
284
330
1F
100
AcDbEntity
  8
001
370
    50
100
AcDbLine
 10
88.029885
 20
34.160648
 30
0.0
 11
87.852382
 21
34.169313
 31
0.0
  0
POLYLINE
  5
285
330
1F
100
AcDbEntity
  8
001
370
    50
100
AcDb2dPolyline
 66
     1
 10
0.0
 20
0.0
 30
0.0
  0
VERTEX
  5
287
330
285
100
AcDbEntity
  8
001
370
    50
100
AcDbVertex
100
AcDb2dVertex
 10
87.526257
 20
34.140172
 30
0.0
  0
VERTEX
  5
288
330
285
100
AcDbEntity
  8
001
370
    50
100
AcDbVertex
100
AcDb2dVertex
 10
87.413673
 20
34.115393
 30
0.0
  0
VERTEX
  5
289
330
285
100
AcDbEntity
  8
001
370
    50
100
AcDbVertex
100
AcDb2dVertex
 10
87.302167
 20
34.086546
 30
0.0
  0
VERTEX
  5
28A
330
285
100
AcDbEntity
  8
001
370
    50
100
AcDbVertex
100
AcDb2dVertex
 10
87.191619
 20
34.049936
 30
0.0
  0
VERTEX
  5
28B
330
285
100
AcDbEntity
  8
001
370
    50
100
AcDbVertex
100
AcDb2dVertex
 10
87.083866
 20
34.005685
 30
0.0
  0
VERTEX
  5
28C
330
285
100
AcDbEntity
  8
001
370
    50
100
AcDbVertex
100
AcDb2dVertex
 10
87.025486
 20
33.978283
 30
0.0
  0
VERTEX
  5
28D
330
285
100
AcDbEntity
  8
001
370
    50
100
AcDbVertex
100
AcDb2dVertex
 10
86.967626
 20
33.94981
 30
0.0
  0
SEQEND
  5
286
330
285
100
AcDbEntity
  8
001
370
    50
  0
POLYLINE
  5
28E
330
1F
100
AcDbEntity
  8
001
370
    50
100
AcDb2dPolyline
 66
     1
 10
0.0
 20
0.0
 30
0.0
  0
VERTEX
  5
290
330
28E
100
AcDbEntity
  8
001
370
    50
100
AcDbVertex
100
AcDb2dVertex
 10
88.186474
 20
37.629082
 30
0.0
  0
VERTEX
  5
291
330
28E
100
AcDbEntity
  8
001
370
    50
100
AcDbVertex
100
AcDb2dVertex
 10
88.185785
 20
37.629259
 30
0.0
  0
VERTEX
  5
292
330
28E
100
AcDbEntity
  8
001
370
    50
100
AcDbVertex
100
AcDb2dVertex
 10
88.184777
 20
37.629508
 30
0.0
  0
VERTEX
  5
293
330
28E
100
AcDbEntity
  8
001
370
    50
100
AcDbVertex
100
AcDb2dVertex
 10
88.183764
 20
37.629746
 30
0.0
  0
VERTEX
  5
294
330
28E
100
AcDbEntity
  8
001
370
    50
100
AcDbVertex
100
AcDb2dVertex
 10
88.18307
 20
37.629903
 30
0.0
  0
SEQEND
  5
28F
330
28E
100
AcDbEntity
  8
001
370
    50
  0
POLYLINE
  5
295
330
1F
100
AcDbEntity
  8
001
370
    50
100
AcDb2dPolyline
 66
     1
 10
0.0
 20
0.0
 30
0.0
  0
VERTEX
  5
297
330
295
100
AcDbEntity
  8
001
370
    50
100
AcDbVertex
100
AcDb2dVertex
 10
86.411805
 20
33.760726
 30
0.0
  0
VERTEX
  5
298
330
295
100
AcDbEntity
  8
001
370
    50
100
AcDbVertex
100
AcDb2dVertex
 10
86.467869
 20
33.763099
 30
0.0
  0
VERTEX
  5
299
330
295
100
AcDbEntity
  8
001
370
    50
100
AcDbVertex
100
AcDb2dVertex
 10
86.549798
 20
33.766812
 30
0.0
  0
VERTEX
  5
29A
330
295
100
AcDbEntity
  8
001
370
    50
100
AcDbVertex
100
AcDb2dVertex
 10
86.631705
 20
33.770863
 30
0.0
  0
VERTEX
  5
29B
330
295
100
AcDbEntity
  8
001
370
    50
100
AcDbVertex
100
AcDb2dVertex
 10
86.687738
 20
33.773802
 30
0.0
  0
SEQEND
  5
296
330
295
100
AcDbEntity
  8
001
370
    50
  0
POLYLINE
  5
29C
330
1F
100
AcDbEntity
  8
001
370
    50
100
AcDb2dPolyline
 66
     1
 10
0.0
 20
0.0
 30
0.0
  0
VERTEX
  5
29E
330
29C
100
AcDbEntity
  8
001
370
    50
100
AcDbVertex
100
AcDb2dVertex
 10
86.967626
 20
33.94981
 30
0.0
  0
VERTEX
  5
29F
330
29C
100
AcDbEntity
  8
001
370
    50
100
AcDbVertex
100
AcDb2dVertex
 10
86.923665
 20
33.926221
 30
0.0
  0
VERTEX
  5
2A0
330
29C
100
AcDbEntity
  8
001
370
    50
100
AcDbVertex
100
AcDb2dVertex
 10
86.880199
 20
33.901814
 30
0.0
  0
VERTEX
  5
2A1
330
29C
100
AcDbEntity
  8
001
370
    50
100
AcDbVertex
100
AcDb2dVertex
 10
86.782638
 20
33.840006
 30
0.0
  0
VERTEX
  5
2A2
330
29C
100
AcDbEntity
  8
001
370
    50
100
AcDbVertex
100
AcDb2dVertex
 10
86.687738
 20
33.773802
 30
0.0
  0
SEQEND
  5
29D
330
29C
100
AcDbEntity
  8
001
370
    50
  0
POLYLINE
  5
2A3
330
1F
100
AcDbEntity
  8
001
370
    50
100
AcDb2dPolyline
 66
     1
 10
0.0
 20
0.0
 30
0.0
  0
VERTEX
  5
2A5
330
2A3
100
AcDbEntity
  8
001
370
    50
100
AcDbVertex
100
AcDb2dVertex
 10
85.908534
 20
33.734687
 30
0.0
  0
VERTEX
  5
2A6
330
2A3
100
AcDbEntity
  8
001
370
    50
100
AcDbVertex
100
AcDb2dVertex
 10
86.010852
 20
33.739054
 30
0.0
  0
VERTEX
  5
2A7
330
2A3
100
AcDbEntity
  8
001
370
    50
100
AcDbVertex
100
AcDb2dVertex
 10
86.160356
 20
33.746234
 30
0.0
  0
VERTEX
  5
2A8
330
2A3
100
AcDbEntity
  8
001
370
    50
100
AcDbVertex
100
AcDb2dVertex
 10
86.309672
 20
33.754515
 30
0.0
  0
VERTEX
  5
2A9
330
2A3
100
AcDbEntity
  8
001
370
    50
100
AcDbVertex
100
AcDb2dVertex
 10
86.411805
 20
33.760726
 30
0.0
  0
SEQEND
  5
2A4
330
2A3
100
AcDbEntity
  8
001
370
    50
  0
POLYLINE
  5
2AA
330
1F
100
AcDbEntity
  8
001
370
    50
100
AcDb2dPolyline
 66
     1
 10
0.0
 20
0.0
 30
0.0
  0
VERTEX
  5
2AC
330
2AA
100
AcDbEntity
  8
001
370
    50
100
AcDbVertex
100
AcDb2dVertex
 10
85.405616
 20
33.709181
 30
0.0
  0
VERTEX
  5
2AD
330
2AA
100
AcDbEntity
  8
001
370
    50
100
AcDbVertex
100
AcDb2dVertex
 10
85.507852
 20
33.713459
 30
0.0
  0
VERTEX
  5
2AE
330
2AA
100
AcDbEntity
  8
001
370
    50
100
AcDbVertex
100
AcDb2dVertex
 10
85.657236
 20
33.720491
 30
0.0
  0
VERTEX
  5
2AF
330
2AA
100
AcDbEntity
  8
001
370
    50
100
AcDbVertex
100
AcDb2dVertex
 10
85.806461
 20
33.728603
 30
0.0
  0
VERTEX
  5
2B0
330
2AA
100
AcDbEntity
  8
001
370
    50
100
AcDbVertex
100
AcDb2dVertex
 10
85.908534
 20
33.734687
 30
0.0
  0
SEQEND
  5
2AB
330
2AA
100
AcDbEntity
  8
001
370
    50
  0
POLYLINE
  5
2B1
330
1F
100
AcDbEntity
  8
001
370
    50
100
AcDb2dPolyline
 66
     1
 10
0.0
 20
0.0
 30
0.0
  0
VERTEX
  5
2B3
330
2B1
100
AcDbEntity
  8
001
370
    50
100
AcDbVertex
100
AcDb2dVertex
 10
84.903018
 20
33.68418
 30
0.0
  0
VERTEX
  5
2B4
330
2B1
100
AcDbEntity
  8
001
370
    50
100
AcDbVertex
100
AcDb2dVertex
 10
85.005178
 20
33.688372
 30
0.0
  0
VERTEX
  5
2B5
330
2B1
100
AcDbEntity
  8
001
370
    50
100
AcDbVertex
100
AcDb2dVertex
 10
85.154453
 20
33.695264
 30
0.0
  0
VERTEX
  5
2B6
330
2B1
100
AcDbEntity
  8
001
370
    50
100
AcDbVertex
100
AcDb2dVertex
 10
85.303598
 20
33.703216
 30
0.0
  0
VERTEX
  5
2B7
330
2B1
100
AcDbEntity
  8
001
370
    50
100
AcDbVertex
100
AcDb2dVertex
 10
85.405616
 20
33.709181
 30
0.0
  0
SEQEND
  5
2B2
330
2B1
100
AcDbEntity
  8
001
370
    50
  0
POLYLINE
  5
2B8
330
1F
100
AcDbEntity
  8
001
370
    50
100
AcDb2dPolyline
 66
     1
 10
0.0
 20
0.0
 30
0.0
  0
VERTEX
  5
2BA
330
2B8
100
AcDbEntity
  8
001
370
    50
100
AcDbVertex
100
AcDb2dVertex
 10
84.400706
 20
33.659658
 30
0.0
  0
VERTEX
  5
2BB
330
2B8
100
AcDbEntity
  8
001
370
    50
100
AcDbVertex
100
AcDb2dVertex
 10
84.502799
 20
33.663768
 30
0.0
  0
VERTEX
  5
2BC
330
2B8
100
AcDbEntity
  8
001
370
    50
100
AcDbVertex
100
AcDb2dVertex
 10
84.651976
 20
33.670526
 30
0.0
  0
VERTEX
  5
2BD
330
2B8
100
AcDbEntity
  8
001
370
    50
100
AcDbVertex
100
AcDb2dVertex
 10
84.801048
 20
33.678328
 30
0.0
  0
VERTEX
  5
2BE
330
2B8
100
AcDbEntity
  8
001
370
    50
100
AcDbVertex
100
AcDb2dVertex
 10
84.903018
 20
33.68418
 30
0.0
  0
SEQEND
  5
2B9
330
2B8
100
AcDbEntity
  8
001
370
    50
  0
POLYLINE
  5
2BF
330
1F
100
AcDbEntity
  8
001
370
    50
100
AcDb2dPolyline
 66
     1
 10
0.0
 20
0.0
 30
0.0
  0
VERTEX
  5
2C1
330
2BF
100
AcDbEntity
  8
001
370
    50
100
AcDbVertex
100
AcDb2dVertex
 10
84.136541
 20
33.645623
 30
0.0
  0
VERTEX
  5
2C2
330
2BF
100
AcDbEntity
  8
001
370
    50
100
AcDbVertex
100
AcDb2dVertex
 10
84.190227
 20
33.648237
 30
0.0
  0
VERTEX
  5
2C3
330
2BF
100
AcDbEntity
  8
001
370
    50
100
AcDbVertex
100
AcDb2dVertex
 10
84.26868
 20
33.652262
 30
0.0
  0
VERTEX
  5
2C4
330
2BF
100
AcDbEntity
  8
001
370
    50
100
AcDbVertex
100
AcDb2dVertex
 10
84.347075
 20
33.65657
 30
0.0
  0
VERTEX
  5
2C5
330
2BF
100
AcDbEntity
  8
001
370
    50
100
AcDbVertex
100
AcDb2dVertex
 10
84.400706
 20
33.659658
 30
0.0
  0
SEQEND
  5
2C0
330
2BF
100
AcDbEntity
  8
001
370
    50
  0
LINE
  5
2C6
330
1F
100
AcDbEntity
  8
001
370
    50
100
AcDbLine
 10
84.136541
 20
33.645623
 30
0.0
 11
83.89445
 21
33.621592
 31
0.0
  0
POLYLINE
  5
2C7
330
1F
100
AcDbEntity
  8
001
370
    50
100
AcDb2dPolyline
 66
     1
 10
0.0
 20
0.0
 30
0.0
  0
VERTEX
  5
2C9
330
2C7
100
AcDbEntity
  8
001
370
    50
100
AcDbVertex
100
AcDb2dVertex
 10
83.89445
 20
33.621592
 30
0.0
  0
VERTEX
  5
2CA
330
2C7
100
AcDbEntity
  8
001
370
    50
100
AcDbVertex
100
AcDb2dVertex
 10
83.79239
 20
33.60106
 30
0.0
  0
VERTEX
  5
2CB
330
2C7
100
AcDbEntity
  8
001
370
    50
100
AcDbVertex
100
AcDb2dVertex
 10
83.690939
 20
33.577899
 30
0.0
  0
VERTEX
  5
2CC
330
2C7
100
AcDbEntity
  8
001
370
    50
100
AcDbVertex
100
AcDb2dVertex
 10
83.589875
 20
33.549717
 30
0.0
  0
VERTEX
  5
2CD
330
2C7
100
AcDbEntity
  8
001
370
    50
100
AcDbVertex
100
AcDb2dVertex
 10
83.490369
 20
33.516419
 30
0.0
  0
VERTEX
  5
2CE
330
2C7
100
AcDbEntity
  8
001
370
    50
100
AcDbVertex
100
AcDb2dVertex
 10
83.4212
 20
33.49017
 30
0.0
  0
VERTEX
  5
2CF
330
2C7
100
AcDbEntity
  8
001
370
    50
100
AcDbVertex
100
AcDb2dVertex
 10
83.352498
 20
33.462704
 30
0.0
  0
SEQEND
  5
2C8
330
2C7
100
AcDbEntity
  8
001
370
    50
  0
POLYLINE
  5
2D0
330
1F
100
AcDbEntity
  8
001
370
    50
100
AcDb2dPolyline
 66
     1
 10
0.0
 20
0.0
 30
0.0
  0
VERTEX
  5
2D2
330
2D0
100
AcDbEntity
  8
001
370
    50
100
AcDbVertex
100
AcDb2dVertex
 10
83.352498
 20
33.462704
 30
0.0
  0
VERTEX
  5
2D3
330
2D0
100
AcDbEntity
  8
001
370
    50
100
AcDbVertex
100
AcDb2dVertex
 10
83.193299
 20
33.383959
 30
0.0
  0
VERTEX
  5
2D4
330
2D0
100
AcDbEntity
  8
001
370
    50
100
AcDbVertex
100
AcDb2dVertex
 10
83.039264
 20
33.296988
 30
0.0
  0
VERTEX
  5
2D5
330
2D0
100
AcDbEntity
  8
001
370
    50
100
AcDbVertex
100
AcDb2dVertex
 10
82.89039
 20
33.193672
 30
0.0
  0
VERTEX
  5
2D6
330
2D0
100
AcDbEntity
  8
001
370
    50
100
AcDbVertex
100
AcDb2dVertex
 10
82.746938
 20
33.081722
 30
0.0
  0
SEQEND
  5
2D1
330
2D0
100
AcDbEntity
  8
001
370
    50
  0
POLYLINE
  5
2D7
330
1F
100
AcDbEntity
  8
001
370
    50
100
AcDb2dPolyline
 66
     1
 10
0.0
 20
0.0
 30
0.0
  0
VERTEX
  5
2D9
330
2D7
100
AcDbEntity
  8
001
370
    50
100
AcDbVertex
100
AcDb2dVertex
 10
82.746938
 20
33.081722
 30
0.0
  0
VERTEX
  5
2DA
330
2D7
100
AcDbEntity
  8
001
370
    50
100
AcDbVertex
100
AcDb2dVertex
 10
82.725216
 20
33.062489
 30
0.0
  0
VERTEX
  5
2DB
330
2D7
100
AcDbEntity
  8
001
370
    50
100
AcDbVertex
100
AcDb2dVertex
 10
82.703675
 20
33.043065
 30
0.0
  0
VERTEX
  5
2DC
330
2D7
100
AcDbEntity
  8
001
370
    50
100
AcDbVertex
100
AcDb2dVertex
 10
82.644146
 20
32.986172
 30
0.0
  0
VERTEX
  5
2DD
330
2D7
100
AcDbEntity
  8
001
370
    50
100
AcDbVertex
100
AcDb2dVertex
 10
82.586065
 20
32.927732
 30
0.0
  0
SEQEND
  5
2D8
330
2D7
100
AcDbEntity
  8
001
370
    50
  0
LINE
  5
2DE
330
1F
100
AcDbEntity
  8
001
370
    50
100
AcDbLine
 10
81.86406
 20
38.073022
 30
0.0
 11
82.179952
 21
38.216434
 31
0.0
  0
LINE
  5
2DF
330
1F
100
AcDbEntity
  8
001
370
    50
100
AcDbLine
 10
82.179952
 20
40.042054
 30
0.0
 11
81.279952
 21
39.096961
 31
0.0
  0
POLYLINE
  5
2E0
330
1F
100
AcDbEntity
  8
001
370
    50
100
AcDb2dPolyline
 66
     1
 10
0.0
 20
0.0
 30
0.0
  0
VERTEX
  5
2E2
330
2E0
100
AcDbEntity
  8
001
370
    50
100
AcDbVertex
100
AcDb2dVertex
 10
81.279952
 20
37.767222
 30
0.0
  0
VERTEX
  5
2E3
330
2E0
100
AcDbEntity
  8
001
370
    50
100
AcDbVertex
100
AcDb2dVertex
 10
81.425677
 20
37.850593
 30
0.0
  0
VERTEX
  5
2E4
330
2E0
100
AcDbEntity
  8
001
370
    50
100
AcDbVertex
100
AcDb2dVertex
 10
81.573029
 20
37.930854
 30
0.0
  0
VERTEX
  5
2E5
330
2E0
100
AcDbEntity
  8
001
370
    50
100
AcDbVertex
100
AcDb2dVertex
 10
81.717787
 20
38.003386
 30
0.0
  0
VERTEX
  5
2E6
330
2E0
100
AcDbEntity
  8
001
370
    50
100
AcDbVertex
100
AcDb2dVertex
 10
81.86406
 20
38.073022
 30
0.0
  0
SEQEND
  5
2E1
330
2E0
100
AcDbEntity
  8
001
370
    50
  0
POLYLINE
  5
2E7
330
1F
100
AcDbEntity
  8
001
370
    50
100
AcDb2dPolyline
 66
     1
 10
0.0
 20
0.0
 30
0.0
  0
VERTEX
  5
2E9
330
2E7
100
AcDbEntity
  8
001
370
    50
100
AcDbVertex
100
AcDb2dVertex
 10
87.852382
 20
34.169313
 30
0.0
  0
VERTEX
  5
2EA
330
2E7
100
AcDbEntity
  8
001
370
    50
100
AcDbVertex
100
AcDb2dVertex
 10
87.822084
 20
34.168945
 30
0.0
  0
VERTEX
  5
2EB
330
2E7
100
AcDbEntity
  8
001
370
    50
100
AcDbVertex
100
AcDb2dVertex
 10
87.791787
 20
34.1683
 30
0.0
  0
VERTEX
  5
2EC
330
2E7
100
AcDbEntity
  8
001
370
    50
100
AcDbVertex
100
AcDb2dVertex
 10
87.670799
 20
34.160478
 30
0.0
  0
VERTEX
  5
2ED
330
2E7
100
AcDbEntity
  8
001
370
    50
100
AcDbVertex
100
AcDb2dVertex
 10
87.550624
 20
34.144374
 30
0.0
  0
VERTEX
  5
2EE
330
2E7
100
AcDbEntity
  8
001
370
    50
100
AcDbVertex
100
AcDb2dVertex
 10
87.538436
 20
34.142293
 30
0.0
  0
VERTEX
  5
2EF
330
2E7
100
AcDbEntity
  8
001
370
    50
100
AcDbVertex
100
AcDb2dVertex
 10
87.526257
 20
34.140172
 30
0.0
  0
SEQEND
  5
2E8
330
2E7
100
AcDbEntity
  8
001
370
    50
  0
LINE
  5
2F0
330
1F
100
AcDbEntity
  8
001
370
    50
100
AcDbLine
 10
89.313079
 20
31.770448
 30
0.0
 11
89.388271
 21
31.96673
 31
0.0
  0
POLYLINE
  5
2F1
330
1F
100
AcDbEntity
  8
001
370
    50
100
AcDb2dPolyline
 66
     1
 10
0.0
 20
0.0
 30
0.0
  0
VERTEX
  5
2F3
330
2F1
100
AcDbEntity
  8
001
370
    50
100
AcDbVertex
100
AcDb2dVertex
 10
88.850477
 20
31.139703
 30
0.0
  0
VERTEX
  5
2F4
330
2F1
100
AcDbEntity
  8
001
370
    50
100
AcDbVertex
100
AcDb2dVertex
 10
88.929035
 20
31.216374
 30
0.0
  0
VERTEX
  5
2F5
330
2F1
100
AcDbEntity
  8
001
370
    50
100
AcDbVertex
100
AcDb2dVertex
 10
89.004978
 20
31.295581
 30
0.0
  0
VERTEX
  5
2F6
330
2F1
100
AcDbEntity
  8
001
370
    50
100
AcDbVertex
100
AcDb2dVertex
 10
89.094447
 20
31.403046
 30
0.0
  0
VERTEX
  5
2F7
330
2F1
100
AcDbEntity
  8
001
370
    50
100
AcDbVertex
100
AcDb2dVertex
 10
89.174306
 20
31.517787
 30
0.0
  0
VERTEX
  5
2F8
330
2F1
100
AcDbEntity
  8
001
370
    50
100
AcDbVertex
100
AcDb2dVertex
 10
89.245414
 20
31.640202
 30
0.0
  0
VERTEX
  5
2F9
330
2F1
100
AcDbEntity
  8
001
370
    50
100
AcDbVertex
100
AcDb2dVertex
 10
89.310996
 20
31.765872
 30
0.0
  0
SEQEND
  5
2F2
330
2F1
100
AcDbEntity
  8
001
370
    50
  0
POLYLINE
  5
2FA
330
1F
100
AcDbEntity
  8
001
  6
DASHED
370
    50
100
AcDb2dPolyline
 66
     1
 10
0.0
 20
0.0
 30
0.0
  0
VERTEX
  5
2FC
330
2FA
100
AcDbEntity
  8
001
  6
DASHED
370
    50
100
AcDbVertex
100
AcDb2dVertex
 10
87.531215
 20
34.136813
 30
0.0
  0
VERTEX
  5
2FD
330
2FA
100
AcDbEntity
  8
001
  6
DASHED
370
    50
100
AcDbVertex
100
AcDb2dVertex
 10
87.52826
 20
34.137396
 30
0.0
  0
VERTEX
  5
2FE
330
2FA
100
AcDbEntity
  8
001
  6
DASHED
370
    50
100
AcDbVertex
100
AcDb2dVertex
 10
87.52394
 20
34.13824
 30
0.0
  0
VERTEX
  5
2FF
330
2FA
100
AcDbEntity
  8
001
  6
DASHED
370
    50
100
AcDbVertex
100
AcDb2dVertex
 10
87.519618
 20
34.139072
 30
0.0
  0
VERTEX
  5
300
330
2FA
100
AcDbEntity
  8
001
  6
DASHED
370
    50
100
AcDbVertex
100
AcDb2dVertex
 10
87.516659
 20
34.139636
 30
0.0
  0
SEQEND
  5
2FB
330
2FA
100
AcDbEntity
  8
001
  6
DASHED
370
    50
  0
ARC
  5
301
330
1F
100
AcDbEntity
  8
001
370
    50
100
AcDbCircle
 10
88.19035
 20
32.875414
 30
0.0
 40
1.177859517292484
100
AcDbArc
 50
28.488362
 51
59.507751
  0
LINE
  5
302
330
1F
100
AcDbEntity
  8
001
370
    50
100
AcDbLine
 10
82.179952
 20
38.216434
 30
0.0
 11
82.179952
 21
42.296961
 31
0.0
  0
POLYLINE
  5
303
330
1F
100
AcDbEntity
  8
001
370
    50
100
AcDb2dPolyline
 66
     1
 10
0.0
 20
0.0
 30
0.0
  0
VERTEX
  5
305
330
303
100
AcDbEntity
  8
001
370
    50
100
AcDbVertex
100
AcDb2dVertex
 10
86.687738
 20
33.773802
 30
0.0
  0
VERTEX
  5
306
330
303
100
AcDbEntity
  8
001
370
    50
100
AcDbVertex
100
AcDb2dVertex
 10
86.509844
 20
33.669153
 30
0.0
  0
VERTEX
  5
307
330
303
100
AcDbEntity
  8
001
370
    50
100
AcDbVertex
100
AcDb2dVertex
 10
86.27373
 20
33.519314
 30
0.0
  0
SEQEND
  5
304
330
303
100
AcDbEntity
  8
001
370
    50
  0
LINE
  5
308
330
1F
100
AcDbEntity
  8
001
370
    50
100
AcDbLine
 10
83.842836
 20
32.881326
 30
0.0
 11
83.641228
 21
32.881326
 31
0.0
  0
POLYLINE
  5
309
330
1F
100
AcDbEntity
  8
001
370
    50
100
AcDb2dPolyline
 66
     1
 10
0.0
 20
0.0
 30
0.0
  0
VERTEX
  5
30B
330
309
100
AcDbEntity
  8
001
370
    50
100
AcDbVertex
100
AcDb2dVertex
 10
83.641228
 20
32.881326
 30
0.0
  0
VERTEX
  5
30C
330
309
100
AcDbEntity
  8
001
370
    50
100
AcDbVertex
100
AcDb2dVertex
 10
83.521826
 20
32.874573
 30
0.0
  0
VERTEX
  5
30D
330
309
100
AcDbEntity
  8
001
370
    50
100
AcDbVertex
100
AcDb2dVertex
 10
83.358098
 20
32.853517
 30
0.0
  0
VERTEX
  5
30E
330
309
100
AcDbEntity
  8
001
370
    50
100
AcDbVertex
100
AcDb2dVertex
 10
83.212575
 20
32.817857
 30
0.0
  0
VERTEX
  5
30F
330
309
100
AcDbEntity
  8
001
370
    50
100
AcDbVertex
100
AcDb2dVertex
 10
83.085465
 20
32.771119
 30
0.0
  0
VERTEX
  5
310
330
309
100
AcDbEntity
  8
001
370
    50
100
AcDbVertex
100
AcDb2dVertex
 10
82.96211
 20
32.714541
 30
0.0
  0
VERTEX
  5
311
330
309
100
AcDbEntity
  8
001
370
    50
100
AcDbVertex
100
AcDb2dVertex
 10
82.83344
 20
32.637189
 30
0.0
  0
VERTEX
  5
312
330
309
100
AcDbEntity
  8
001
370
    50
100
AcDbVertex
100
AcDb2dVertex
 10
82.811397
 20
32.621654
 30
0.0
  0
VERTEX
  5
313
330
309
100
AcDbEntity
  8
001
370
    50
100
AcDbVertex
100
AcDb2dVertex
 10
82.789235
 20
32.60543
 30
0.0
  0
SEQEND
  5
30A
330
309
100
AcDbEntity
  8
001
370
    50
  0
POLYLINE
  5
314
330
1F
100
AcDbEntity
  8
001
370
    50
100
AcDb2dPolyline
 66
     1
 10
0.0
 20
0.0
 30
0.0
  0
VERTEX
  5
316
330
314
100
AcDbEntity
  8
001
370
    50
100
AcDbVertex
100
AcDb2dVertex
 10
82.276491
 20
32.60543
 30
0.0
  0
VERTEX
  5
317
330
314
100
AcDbEntity
  8
001
370
    50
100
AcDbVertex
100
AcDb2dVertex
 10
82.340329
 20
32.671426
 30
0.0
  0
VERTEX
  5
318
330
314
100
AcDbEntity
  8
001
370
    50
100
AcDbVertex
100
AcDb2dVertex
 10
82.430306
 20
32.764829
 30
0.0
  0
VERTEX
  5
319
330
314
100
AcDbEntity
  8
001
370
    50
100
AcDbVertex
100
AcDb2dVertex
 10
82.522871
 20
32.861474
 30
0.0
  0
VERTEX
  5
31A
330
314
100
AcDbEntity
  8
001
370
    50
100
AcDbVertex
100
AcDb2dVertex
 10
82.586065
 20
32.927732
 30
0.0
  0
SEQEND
  5
315
330
314
100
AcDbEntity
  8
001
370
    50
  0
LINE
  5
31B
330
1F
100
AcDbEntity
  8
001
370
    50
100
AcDbLine
 10
81.279952
 20
32.60543
 30
0.0
 11
81.279952
 21
39.096961
 31
0.0
  0
POLYLINE
  5
31C
330
1F
100
AcDbEntity
  8
001
370
    50
100
AcDb2dPolyline
 66
     1
 10
0.0
 20
0.0
 30
0.0
  0
VERTEX
  5
31E
330
31C
100
AcDbEntity
  8
001
370
    50
100
AcDbVertex
100
AcDb2dVertex
 10
87.807601
 20
30.783736
 30
0.0
  0
VERTEX
  5
31F
330
31C
100
AcDbEntity
  8
001
370
    50
100
AcDbVertex
100
AcDb2dVertex
 10
87.876317
 20
30.811043
 30
0.0
  0
VERTEX
  5
320
330
31C
100
AcDbEntity
  8
001
370
    50
100
AcDbVertex
100
AcDb2dVertex
 10
87.943921
 20
30.840449
 30
0.0
  0
VERTEX
  5
321
330
31C
100
AcDbEntity
  8
001
370
    50
100
AcDbVertex
100
AcDb2dVertex
 10
88.086167
 20
30.915939
 30
0.0
  0
VERTEX
  5
322
330
31C
100
AcDbEntity
  8
001
370
    50
100
AcDbVertex
100
AcDb2dVertex
 10
88.208548
 20
30.999814
 30
0.0
  0
VERTEX
  5
323
330
31C
100
AcDbEntity
  8
001
370
    50
100
AcDbVertex
100
AcDb2dVertex
 10
88.327673
 20
31.096436
 30
0.0
  0
VERTEX
  5
324
330
31C
100
AcDbEntity
  8
001
370
    50
100
AcDbVertex
100
AcDb2dVertex
 10
88.441051
 20
31.204419
 30
0.0
  0
VERTEX
  5
325
330
31C
100
AcDbEntity
  8
001
370
    50
100
AcDbVertex
100
AcDb2dVertex
 10
88.543415
 20
31.32191
 30
0.0
  0
VERTEX
  5
326
330
31C
100
AcDbEntity
  8
001
370
    50
100
AcDbVertex
100
AcDb2dVertex
 10
88.634022
 20
31.447742
 30
0.0
  0
VERTEX
  5
327
330
31C
100
AcDbEntity
  8
001
370
    50
100
AcDbVertex
100
AcDb2dVertex
 10
88.713621
 20
31.581587
 30
0.0
  0
VERTEX
  5
328
330
31C
100
AcDbEntity
  8
001
370
    50
100
AcDbVertex
100
AcDb2dVertex
 10
88.78131
 20
31.722029
 30
0.0
  0
VERTEX
  5
329
330
31C
100
AcDbEntity
  8
001
370
    50
100
AcDbVertex
100
AcDb2dVertex
 10
88.836344
 20
31.868153
 30
0.0
  0
VERTEX
  5
32A
330
31C
100
AcDbEntity
  8
001
370
    50
100
AcDbVertex
100
AcDb2dVertex
 10
88.878222
 20
32.018538
 30
0.0
  0
VERTEX
  5
32B
330
31C
100
AcDbEntity
  8
001
370
    50
100
AcDbVertex
100
AcDb2dVertex
 10
88.906746
 20
32.17222
 30
0.0
  0
VERTEX
  5
32C
330
31C
100
AcDbEntity
  8
001
370
    50
100
AcDbVertex
100
AcDb2dVertex
 10
88.921668
 20
32.32782
 30
0.0
  0
VERTEX
  5
32D
330
31C
100
AcDbEntity
  8
001
370
    50
100
AcDbVertex
100
AcDb2dVertex
 10
88.922842
 20
32.48417
 30
0.0
  0
VERTEX
  5
32E
330
31C
100
AcDbEntity
  8
001
370
    50
100
AcDbVertex
100
AcDb2dVertex
 10
88.910264
 20
32.640018
 30
0.0
  0
VERTEX
  5
32F
330
31C
100
AcDbEntity
  8
001
370
    50
100
AcDbVertex
100
AcDb2dVertex
 10
88.884034
 20
32.794054
 30
0.0
  0
VERTEX
  5
330
330
31C
100
AcDbEntity
  8
001
370
    50
100
AcDbVertex
100
AcDb2dVertex
 10
88.844374
 20
32.945182
 30
0.0
  0
VERTEX
  5
331
330
31C
100
AcDbEntity
  8
001
370
    50
100
AcDbVertex
100
AcDb2dVertex
 10
88.791645
 20
33.091992
 30
0.0
  0
VERTEX
  5
332
330
31C
100
AcDbEntity
  8
001
370
    50
100
AcDbVertex
100
AcDb2dVertex
 10
88.726097
 20
33.233587
 30
0.0
  0
VERTEX
  5
333
330
31C
100
AcDbEntity
  8
001
370
    50
100
AcDbVertex
100
AcDb2dVertex
 10
88.648352
 20
33.368544
 30
0.0
  0
VERTEX
  5
334
330
31C
100
AcDbEntity
  8
001
370
    50
100
AcDbVertex
100
AcDb2dVertex
 10
88.559203
 20
33.496041
 30
0.0
  0
VERTEX
  5
335
330
31C
100
AcDbEntity
  8
001
370
    50
100
AcDbVertex
100
AcDb2dVertex
 10
88.459666
 20
33.614709
 30
0.0
  0
VERTEX
  5
336
330
31C
100
AcDbEntity
  8
001
370
    50
100
AcDbVertex
100
AcDb2dVertex
 10
88.349011
 20
33.724179
 30
0.0
  0
VERTEX
  5
337
330
31C
100
AcDbEntity
  8
001
370
    50
100
AcDbVertex
100
AcDb2dVertex
 10
88.228066
 20
33.823338
 30
0.0
  0
VERTEX
  5
338
330
31C
100
AcDbEntity
  8
001
370
    50
100
AcDbVertex
100
AcDb2dVertex
 10
88.102219
 20
33.910732
 30
0.0
  0
VERTEX
  5
339
330
31C
100
AcDbEntity
  8
001
370
    50
100
AcDbVertex
100
AcDb2dVertex
 10
87.974044
 20
33.985175
 30
0.0
  0
VERTEX
  5
33A
330
31C
100
AcDbEntity
  8
001
370
    50
100
AcDbVertex
100
AcDb2dVertex
 10
87.826694
 20
34.049753
 30
0.0
  0
VERTEX
  5
33B
330
31C
100
AcDbEntity
  8
001
370
    50
100
AcDbVertex
100
AcDb2dVertex
 10
87.65691
 20
34.104737
 30
0.0
  0
VERTEX
  5
33C
330
31C
100
AcDbEntity
  8
001
370
    50
100
AcDbVertex
100
AcDb2dVertex
 10
87.531215
 20
34.136813
 30
0.0
  0
SEQEND
  5
31D
330
31C
100
AcDbEntity
  8
001
370
    50
  0
POLYLINE
  5
33D
330
1F
100
AcDbEntity
  8
001
370
    50
100
AcDb2dPolyline
 66
     1
 10
0.0
 20
0.0
 30
0.0
  0
VERTEX
  5
33F
330
33D
100
AcDbEntity
  8
001
370
    50
100
AcDbVertex
100
AcDb2dVertex
 10
87.826414
 20
30.764092
 30
0.0
  0
VERTEX
  5
340
330
33D
100
AcDbEntity
  8
001
370
    50
100
AcDbVertex
100
AcDb2dVertex
 10
88.046455
 20
30.816381
 30
0.0
  0
VERTEX
  5
341
330
33D
100
AcDbEntity
  8
001
370
    50
100
AcDbVertex
100
AcDb2dVertex
 10
88.293535
 20
30.891107
 30
0.0
  0
VERTEX
  5
342
330
33D
100
AcDbEntity
  8
001
370
    50
100
AcDbVertex
100
AcDb2dVertex
 10
88.628835
 20
31.02762
 30
0.0
  0
VERTEX
  5
343
330
33D
100
AcDbEntity
  8
001
370
    50
100
AcDbVertex
100
AcDb2dVertex
 10
88.850477
 20
31.139703
 30
0.0
  0
SEQEND
  5
33E
330
33D
100
AcDbEntity
  8
001
370
    50
  0
POLYLINE
  5
344
330
1F
100
AcDbEntity
  8
001
370
    50
100
AcDb2dPolyline
 66
     1
 10
0.0
 20
0.0
 30
0.0
  0
VERTEX
  5
346
330
344
100
AcDbEntity
  8
001
370
    50
100
AcDbVertex
100
AcDb2dVertex
 10
88.850477
 20
31.139703
 30
0.0
  0
VERTEX
  5
347
330
344
100
AcDbEntity
  8
001
370
    50
100
AcDbVertex
100
AcDb2dVertex
 10
88.803177
 20
30.751372
 30
0.0
  0
VERTEX
  5
348
330
344
100
AcDbEntity
  8
001
370
    50
100
AcDbVertex
100
AcDb2dVertex
 10
88.735467
 20
30.183642
 30
0.0
  0
VERTEX
  5
349
330
344
100
AcDbEntity
  8
001
370
    50
100
AcDbVertex
100
AcDb2dVertex
 10
88.716022
 20
30.01735
 30
0.0
  0
VERTEX
  5
34A
330
344
100
AcDbEntity
  8
001
370
    50
100
AcDbVertex
100
AcDb2dVertex
 10
88.697184
 20
29.854845
 30
0.0
  0
SEQEND
  5
345
330
344
100
AcDbEntity
  8
001
370
    50
  0
POLYLINE
  5
34B
330
1F
100
AcDbEntity
  8
001
370
    50
100
AcDb2dPolyline
 66
     1
 10
0.0
 20
0.0
 30
0.0
  0
VERTEX
  5
34D
330
34B
100
AcDbEntity
  8
001
370
    50
100
AcDbVertex
100
AcDb2dVertex
 10
88.336421
 20
26.496914
 30
0.0
  0
VERTEX
  5
34E
330
34B
100
AcDbEntity
  8
001
370
    50
100
AcDbVertex
100
AcDb2dVertex
 10
88.324857
 20
26.379898
 30
0.0
  0
VERTEX
  5
34F
330
34B
100
AcDbEntity
  8
001
370
    50
100
AcDbVertex
100
AcDb2dVertex
 10
88.315683
 20
26.286441
 30
0.0
  0
SEQEND
  5
34C
330
34B
100
AcDbEntity
  8
001
370
    50
  0
POLYLINE
  5
350
330
1F
100
AcDbEntity
  8
001
370
    50
100
AcDb2dPolyline
 66
     1
 10
0.0
 20
0.0
 30
0.0
  0
VERTEX
  5
352
330
350
100
AcDbEntity
  8
001
370
    50
100
AcDbVertex
100
AcDb2dVertex
 10
87.861909
 20
26.495198
 30
0.0
  0
VERTEX
  5
353
330
350
100
AcDbEntity
  8
001
370
    50
100
AcDbVertex
100
AcDb2dVertex
 10
87.920657
 20
26.460804
 30
0.0
  0
VERTEX
  5
354
330
350
100
AcDbEntity
  8
001
370
    50
100
AcDbVertex
100
AcDb2dVertex
 10
87.981984
 20
26.427454
 30
0.0
  0
VERTEX
  5
355
330
350
100
AcDbEntity
  8
001
370
    50
100
AcDbVertex
100
AcDb2dVertex
 10
88.177427
 20
26.337791
 30
0.0
  0
VERTEX
  5
356
330
350
100
AcDbEntity
  8
001
370
    50
100
AcDbVertex
100
AcDb2dVertex
 10
88.315683
 20
26.286441
 30
0.0
  0
SEQEND
  5
351
330
350
100
AcDbEntity
  8
001
370
    50
  0
LINE
  5
357
330
1F
100
AcDbEntity
  8
001
  6
CENTER
370
     9
100
AcDbLine
 10
80.093652
 20
34.246961
 30
0.0
 11
197.97473
 21
34.246961
 31
0.0
  0
LINE
  5
358
330
1F
100
AcDbEntity
  8
001
370
    50
100
AcDbLine
 10
195.879952
 20
34.246961
 30
0.0
 11
198.478029
 21
35.746961
 31
0.0
  0
LINE
  5
359
330
1F
100
AcDbEntity
  8
001
370
    50
100
AcDbLine
 10
195.879952
 20
34.246961
 30
0.0
 11
198.478029
 21
32.746961
 31
0.0
  0
ARC
  5
35A
330
1F
100
AcDbEntity
  8
001
370
    50
100
AcDbCircle
 10
84.79738
 20
30.64124
 30
0.0
 40
0.28
100
AcDbArc
 50
16.229969
 51
163.770031
  0
ARC
  5
35B
330
1F
100
AcDbEntity
  8
001
370
    50
100
AcDbCircle
 10
84.020119
 20
30.867497
 30
0.0
 40
0.5295228096485658
100
AcDbArc
 50
256.229969
 51
343.770031
  0
ARC
  5
35C
330
1F
100
AcDbEntity
  8
001
370
    50
100
AcDbCircle
 10
83.827432
 20
30.08124
 30
0.0
 40
0.28
100
AcDbArc
 50
76.229969
 51
223.770031
  0
ARC
  5
35D
330
1F
100
AcDbEntity
  8
001
370
    50
100
AcDbCircle
 10
83.242857
 20
29.52124
 30
0.0
 40
0.5295228096485658
100
AcDbArc
 50
316.229969
 51
43.770031
  0
ARC
  5
35E
330
1F
100
AcDbEntity
  8
001
370
    50
100
AcDbCircle
 10
83.827432
 20
28.96124
 30
0.0
 40
0.28
100
AcDbArc
 50
136.229969
 51
283.770031
  0
ARC
  5
35F
330
1F
100
AcDbEntity
  8
001
370
    50
100
AcDbCircle
 10
84.020119
 20
28.174984
 30
0.0
 40
0.5295228096485658
100
AcDbArc
 50
16.229969
 51
103.770031
  0
ARC
  5
360
330
1F
100
AcDbEntity
  8
001
370
    50
100
AcDbCircle
 10
84.79738
 20
28.40124
 30
0.0
 40
0.28
100
AcDbArc
 50
196.229969
 51
343.770031
  0
ARC
  5
361
330
1F
100
AcDbEntity
  8
001
370
    50
100
AcDbCircle
 10
85.574642
 20
28.174984
 30
0.0
 40
0.5295228096485658
100
AcDbArc
 50
76.229969
 51
163.770031
  0
ARC
  5
362
330
1F
100
AcDbEntity
  8
001
370
    50
100
AcDbCircle
 10
85.767329
 20
28.96124
 30
0.0
 40
0.28
100
AcDbArc
 50
256.229969
 51
43.770031
  0
ARC
  5
363
330
1F
100
AcDbEntity
  8
001
370
    50
100
AcDbCircle
 10
86.351903
 20
29.52124
 30
0.0
 40
0.5295228096485658
100
AcDbArc
 50
136.229969
 51
223.770031
  0
ARC
  5
364
330
1F
100
AcDbEntity
  8
001
370
    50
100
AcDbCircle
 10
85.767329
 20
30.08124
 30
0.0
 40
0.28
100
AcDbArc
 50
316.229969
 51
103.770031
  0
ARC
  5
365
330
1F
100
AcDbEntity
  8
001
370
    50
100
AcDbCircle
 10
85.574642
 20
30.867497
 30
0.0
 40
0.5295228096485658
100
AcDbArc
 50
196.229969
 51
283.770031
  0
CIRCLE
  5
366
330
1F
100
AcDbEntity
  8
001
370
    50
100
AcDbCircle
 10
84.79738
 20
29.52124
 30
0.0
 40
1.85
  0
ARC
  5
367
330
1F
100
AcDbEntity
  8
001
370
    50
100
AcDbCircle
 10
82.179952
 20
25.896961
 30
0.0
 40
0.4
100
AcDbArc
 50
180.0
 51
270.0
  0
LINE
  5
368
330
1F
100
AcDbEntity
  8
001
370
    50
100
AcDbLine
 10
80.879952
 20
29.146961
 30
0.0
 11
80.879952
 21
32.20843
 31
0.0
  0
LINE
  5
369
330
1F
100
AcDbEntity
  8
001
370
    50
100
AcDbLine
 10
81.779952
 20
28.246961
 30
0.0
 11
80.879952
 21
29.146961
 31
0.0
  0
ENDSEC
  0
SECTION
  2
OBJECTS
  0
DICTIONARY
  5
C
330
0
100
AcDbDictionary
281
     1
  3
ACAD_GROUP
350
D
  3
ACAD_LAYOUT
350
1A
  3
ACAD_MLEADERSTYLE
350
36D
  3
ACAD_MLINESTYLE
350
17
  3
ACAD_PLOTSETTINGS
350
19
  3
ACAD_PLOTSTYLENAME
350
E
  3
ACAD_SCALELIST
350
3B
  3
ACAD_TABLESTYLE
350
36C
  3
ACAD_VISUALSTYLE
350
2A
  3
AcDbVariableDictionary
350
36A
  0
DICTIONARY
  5
D
102
{ACAD_REACTORS
330
C
102
}
330
C
100
AcDbDictionary
281
     1
  0
DICTIONARY
  5
1A
102
{ACAD_REACTORS
330
C
102
}
330
C
100
AcDbDictionary
281
     1
  3
Layout1
350
1E
  3
Layout2
350
26
  3
Model
350
22
  0
DICTIONARY
  5
36D
102
{ACAD_REACTORS
330
C
102
}
330
C
100
AcDbDictionary
281
     1
  0
DICTIONARY
  5
17
102
{ACAD_REACTORS
330
C
102
}
330
C
100
AcDbDictionary
281
     1
  3
Standard
350
18
  0
DICTIONARY
  5
19
102
{ACAD_REACTORS
330
C
102
}
330
C
100
AcDbDictionary
281
     1
  0
ACDBDICTIONARYWDFLT
  5
E
102
{ACAD_REACTORS
330
C
102
}
330
C
100
AcDbDictionary
281
     1
  3
Normal
350
F
100
AcDbDictionaryWithDefault
340
F
  0
DICTIONARY
  5
3B
102
{ACAD_REACTORS
330
C
102
}
330
C
100
AcDbDictionary
281
     1
  3
A0
350
3C
  3
A1
350
3D
  3
A2
350
3E
  3
A3
350
3F
  3
A4
350
40
  3
A5
350
41
  3
A6
350
42
  3
A7
350
43
  3
A8
350
44
  3
A9
350
45
  3
B0
350
46
  3
B1
350
47
  3
B2
350
48
  3
B3
350
49
  3
B4
350
4A
  3
B5
350
4B
  3
B6
350
4C
  3
B7
350
4D
  3
B8
350
4E
  3
B9
350
4F
  3
C0
350
50
  3
C1
350
51
  3
C2
350
52
  3
C3
350
53
  3
C4
350
54
  3
C5
350
55
  3
C6
350
56
  3
C7
350
57
  3
C8
350
58
  3
C9
350
59
  3
D0
350
5A
  3
D1
350
5B
  3
D2
350
5C
  0
DICTIONARY
  5
36C
102
{ACAD_REACTORS
330
C
102
}
330
C
100
AcDbDictionary
281
     1
  0
DICTIONARY
  5
2A
102
{ACAD_REACTORS
330
C
102
}
330
C
100
AcDbDictionary
281
     1
  3
2dWireframe
350
2F
  3
3D Hidden
350
31
  3
3dWireframe
350
30
  3
Basic
350
32
  3
Brighten
350
36
  3
ColorChange
350
3A
  3
Conceptual
350
34
  3
Dim
350
35
  3
Facepattern
350
39
  3
Flat
350
2B
  3
FlatWithEdges
350
2C
  3
Gouraud
350
2D
  3
GouraudWithEdges
350
2E
  3
Linepattern
350
38
  3
Realistic
350
33
  3
Thicken
350
37
  0
DICTIONARY
  5
36A
102
{ACAD_REACTORS
330
C
102
}
330
C
100
AcDbDictionary
281
     1
  3
CANNOSCALE
350
36B
  3
PSOLHEIGHT
350
36F
  3
PSOLWIDTH
350
36E
  0
LAYOUT
  5
1E
102
{ACAD_REACTORS
330
1A
102
}
330
1A
100
AcDbPlotSettings
  1

  2
none_device
  4

  6

 40
0.0
 41
0.0
 42
0.0
 43
0.0
 44
0.0
 45
0.0
 46
0.0
 47
0.0
 48
0.0
 49
0.0
140
0.0
141
0.0
142
1.0
143
1.0
 70
   688
 72
     0
 73
     0
 74
     5
  7

 75
    16
147
1.0
148
0.0
149
0.0
100
AcDbLayout
  1
Layout1
 70
     1
 71
     1
 10
0.0
 20
0.0
 11
12.0
 21
9.0
 12
0.0
 22
0.0
 32
0.0
 14
1.000000E+20
 24
1.000000E+20
 34
0.0
 15
-1.000000E+20
 25
-1.000000E+20
 35
0.0
146
0.0
 13
0.0
 23
0.0
 33
0.0
 16
1.0
 26
0.0
 36
0.0
 17
0.0
 27
1.0
 37
0.0
 76
     0
330
1B
  0
LAYOUT
  5
26
102
{ACAD_REACTORS
330
1A
102
}
330
1A
100
AcDbPlotSettings
  1

  2
none_device
  4

  6

 40
0.0
 41
0.0
 42
0.0
 43
0.0
 44
0.0
 45
0.0
 46
0.0
 47
0.0
 48
0.0
 49
0.0
140
0.0
141
0.0
142
1.0
143
1.0
 70
   688
 72
     0
 73
     0
 74
     5
  7

 75
    16
147
1.0
148
0.0
149
0.0
100
AcDbLayout
  1
Layout2
 70
     1
 71
     2
 10
0.0
 20
0.0
 11
0.0
 21
0.0
 12
0.0
 22
0.0
 32
0.0
 14
0.0
 24
0.0
 34
0.0
 15
0.0
 25
0.0
 35
0.0
146
0.0
 13
0.0
 23
0.0
 33
0.0
 16
1.0
 26
0.0
 36
0.0
 17
0.0
 27
1.0
 37
0.0
 76
     0
330
23
  0
LAYOUT
  5
22
102
{ACAD_REACTORS
330
1A
102
}
330
1A
100
AcDbPlotSettings
  1

  2
none_device
  4

  6

 40
0.0
 41
0.0
 42
0.0
 43
0.0
 44
0.0
 45
0.0
 46
0.0
 47
0.0
 48
0.0
 49
0.0
140
0.0
141
0.0
142
1.0
143
1.0
 70
  1712
 72
     0
 73
     0
 74
     0
  7

 75
     0
147
1.0
148
0.0
149
0.0
100
AcDbLayout
  1
Model
 70
     1
 71
     0
 10
0.0
 20
0.0
 11
12.0
 21
9.0
 12
0.0
 22
0.0
 32
0.0
 14
-1.865311
 24
-12.478745
 34
0.0
 15
238.134689
 25
90.143753
 35
0.0
146
0.0
 13
0.0
 23
0.0
 33
0.0
 16
1.0
 26
0.0
 36
0.0
 17
0.0
 27
1.0
 37
0.0
 76
     0
330
1F
331
29
  0
MLINESTYLE
  5
18
102
{ACAD_REACTORS
330
17
102
}
330
17
100
AcDbMlineStyle
  2
Standard
 70
     0
  3

 62
   256
 51
90.0
 52
90.0
 71
     2
 49
0.5
 62
   256
  6
BYLAYER
 49
-0.5
 62
   256
  6
BYLAYER
  0
ACDBPLACEHOLDER
  5
F
102
{ACAD_REACTORS
330
E
102
}
330
E
  0
SCALE
  5
3C
102
{ACAD_REACTORS
330
3B
102
}
330
3B
100
AcDbScale
 70
     0
300
1:1
140
1.0
141
1.0
290
     1
  0
SCALE
  5
3D
102
{ACAD_REACTORS
330
3B
102
}
330
3B
100
AcDbScale
 70
     0
300
1:2
140
1.0
141
2.0
290
     0
  0
SCALE
  5
3E
102
{ACAD_REACTORS
330
3B
102
}
330
3B
100
AcDbScale
 70
     0
300
1:4
140
1.0
141
4.0
290
     0
  0
SCALE
  5
3F
102
{ACAD_REACTORS
330
3B
102
}
330
3B
100
AcDbScale
 70
     0
300
1:5
140
1.0
141
5.0
290
     0
  0
SCALE
  5
40
102
{ACAD_REACTORS
330
3B
102
}
330
3B
100
AcDbScale
 70
     0
300
1:8
140
1.0
141
8.0
290
     0
  0
SCALE
  5
41
102
{ACAD_REACTORS
330
3B
102
}
330
3B
100
AcDbScale
 70
     0
300
1:10
140
1.0
141
10.0
290
     0
  0
SCALE
  5
42
102
{ACAD_REACTORS
330
3B
102
}
330
3B
100
AcDbScale
 70
     0
300
1:16
140
1.0
141
16.0
290
     0
  0
SCALE
  5
43
102
{ACAD_REACTORS
330
3B
102
}
330
3B
100
AcDbScale
 70
     0
300
1:20
140
1.0
141
20.0
290
     0
  0
SCALE
  5
44
102
{ACAD_REACTORS
330
3B
102
}
330
3B
100
AcDbScale
 70
     0
300
1:30
140
1.0
141
30.0
290
     0
  0
SCALE
  5
45
102
{ACAD_REACTORS
330
3B
102
}
330
3B
100
AcDbScale
 70
     0
300
1:40
140
1.0
141
40.0
290
     0
  0
SCALE
  5
46
102
{ACAD_REACTORS
330
3B
102
}
330
3B
100
AcDbScale
 70
     0
300
1:50
140
1.0
141
50.0
290
     0
  0
SCALE
  5
47
102
{ACAD_REACTORS
330
3B
102
}
330
3B
100
AcDbScale
 70
     0
300
1:100
140
1.0
141
100.0
290
     0
  0
SCALE
  5
48
102
{ACAD_REACTORS
330
3B
102
}
330
3B
100
AcDbScale
 70
     0
300
2:1
140
2.0
141
1.0
290
     0
  0
SCALE
  5
49
102
{ACAD_REACTORS
330
3B
102
}
330
3B
100
AcDbScale
 70
     0
300
4:1
140
4.0
141
1.0
290
     0
  0
SCALE
  5
4A
102
{ACAD_REACTORS
330
3B
102
}
330
3B
100
AcDbScale
 70
     0
300
8:1
140
8.0
141
1.0
290
     0
  0
SCALE
  5
4B
102
{ACAD_REACTORS
330
3B
102
}
330
3B
100
AcDbScale
 70
     0
300
10:1
140
10.0
141
1.0
290
     0
  0
SCALE
  5
4C
102
{ACAD_REACTORS
330
3B
102
}
330
3B
100
AcDbScale
 70
     0
300
100:1
140
100.0
141
1.0
290
     0
  0
SCALE
  5
4D
102
{ACAD_REACTORS
330
3B
102
}
330
3B
100
AcDbScale
 70
     0
300
1/128" = 1'-0"
140
0.007812
141
12.0
290
     0
  0
SCALE
  5
4E
102
{ACAD_REACTORS
330
3B
102
}
330
3B
100
AcDbScale
 70
     0
300
1/64" = 1'-0"
140
0.015625
141
12.0
290
     0
  0
SCALE
  5
4F
102
{ACAD_REACTORS
330
3B
102
}
330
3B
100
AcDbScale
 70
     0
300
1/32" = 1'-0"
140
0.03125
141
12.0
290
     0
  0
SCALE
  5
50
102
{ACAD_REACTORS
330
3B
102
}
330
3B
100
AcDbScale
 70
     0
300
1/16" = 1'-0"
140
0.0625
141
12.0
290
     0
  0
SCALE
  5
51
102
{ACAD_REACTORS
330
3B
102
}
330
3B
100
AcDbScale
 70
     0
300
3/32" = 1'-0"
140
0.09375
141
12.0
290
     0
  0
SCALE
  5
52
102
{ACAD_REACTORS
330
3B
102
}
330
3B
100
AcDbScale
 70
     0
300
1/8" = 1'-0"
140
0.125
141
12.0
290
     0
  0
SCALE
  5
53
102
{ACAD_REACTORS
330
3B
102
}
330
3B
100
AcDbScale
 70
     0
300
3/16" = 1'-0"
140
0.1875
141
12.0
290
     0
  0
SCALE
  5
54
102
{ACAD_REACTORS
330
3B
102
}
330
3B
100
AcDbScale
 70
     0
300
1/4" = 1'-0"
140
0.25
141
12.0
290
     0
  0
SCALE
  5
55
102
{ACAD_REACTORS
330
3B
102
}
330
3B
100
AcDbScale
 70
     0
300
3/8" = 1'-0"
140
0.375
141
12.0
290
     0
  0
SCALE
  5
56
102
{ACAD_REACTORS
330
3B
102
}
330
3B
100
AcDbScale
 70
     0
300
1/2" = 1'-0"
140
0.5
141
12.0
290
     0
  0
SCALE
  5
57
102
{ACAD_REACTORS
330
3B
102
}
330
3B
100
AcDbScale
 70
     0
300
3/4" = 1'-0"
140
0.75
141
12.0
290
     0
  0
SCALE
  5
58
102
{ACAD_REACTORS
330
3B
102
}
330
3B
100
AcDbScale
 70
     0
300
1" = 1'-0"
140
1.0
141
12.0
290
     0
  0
SCALE
  5
59
102
{ACAD_REACTORS
330
3B
102
}
330
3B
100
AcDbScale
 70
     0
300
1-1/2" = 1'-0"
140
1.5
141
12.0
290
     0
  0
SCALE
  5
5A
102
{ACAD_REACTORS
330
3B
102
}
330
3B
100
AcDbScale
 70
     0
300
3" = 1'-0"
140
3.0
141
12.0
290
     0
  0
SCALE
  5
5B
102
{ACAD_REACTORS
330
3B
102
}
330
3B
100
AcDbScale
 70
     0
300
6" = 1'-0"
140
6.0
141
12.0
290
     0
  0
SCALE
  5
5C
102
{ACAD_REACTORS
330
3B
102
}
330
3B
100
AcDbScale
 70
     0
300
1'-0" = 1'-0"
140
12.0
141
12.0
290
     0
  0
VISUALSTYLE
  5
2F
102
{ACAD_REACTORS
330
2A
102
}
330
2A
100
AcDbVisualStyle
  2
2dWireframe
 70
     4
 71
     0
 72
     2
 73
     0
 90
        0
 40
-0.6
 41
-30.0
 62
     5
 63
     7
 74
     1
 91
        4
 64
     7
 65
   257
 75
     1
175
     1
 42
1.0
 92
        0
 66
   257
 43
1.0
 76
     1
 77
     6
 78
     2
 67
     7
 79
     5
170
     0
171
     0
290
     0
174
     0
 93
        1
 44
0.0
173
     0
291
     0
 45
0.0
1001
ACAD
1000
AcDbSavedByObjectVersion
1070
     0
  0
VISUALSTYLE
  5
31
102
{ACAD_REACTORS
330
2A
102
}
330
2A
100
AcDbVisualStyle
  2
3D Hidden
 70
     6
 71
     1
 72
     2
 73
     2
 90
        0
 40
-0.6
 41
-30.0
 62
     5
 63
     7
 74
     2
 91
        2
 64
     7
 65
   257
 75
     2
175
     1
 42
40.0
 92
        0
 66
   257
 43
1.0
 76
     1
 77
     6
 78
     2
 67
     7
 79
     3
170
     0
171
     0
290
     0
174
     0
 93
        1
 44
0.0
173
     0
291
     0
 45
0.0
1001
ACAD
1000
AcDbSavedByObjectVersion
1070
     0
  0
VISUALSTYLE
  5
30
102
{ACAD_REACTORS
330
2A
102
}
330
2A
100
AcDbVisualStyle
  2
3dWireframe
 70
     5
 71
     0
 72
     2
 73
     0
 90
        0
 40
-0.6
 41
-30.0
 62
     5
 63
     7
 74
     1
 91
        4
 64
     7
 65
   257
 75
     1
175
     1
 42
1.0
 92
        0
 66
   257
 43
1.0
 76
     1
 77
     6
 78
     2
 67
     7
 79
     5
170
     0
171
     0
290
     0
174
     0
 93
        1
 44
0.0
173
     0
291
     0
 45
0.0
1001
ACAD
1000
AcDbSavedByObjectVersion
1070
     0
  0
VISUALSTYLE
  5
32
102
{ACAD_REACTORS
330
2A
102
}
330
2A
100
AcDbVisualStyle
  2
Basic
 70
     7
 71
     1
 72
     0
 73
     1
 90
        0
 40
-0.6
 41
-30.0
 62
     5
 63
     7
 74
     0
 91
        4
 64
     7
 65
   257
 75
     1
175
     1
 42
1.0
 92
        8
 66
     7
 43
1.0
 76
     1
 77
     6
 78
     2
 67
     7
 79
     5
170
     0
171
     0
290
     0
174
     0
 93
        1
 44
0.0
173
     0
291
     1
 45
0.0
1001
ACAD
1000
AcDbSavedByObjectVersion
1070
     0
  0
VISUALSTYLE
  5
36
102
{ACAD_REACTORS
330
2A
102
}
330
2A
100
AcDbVisualStyle
  2
Brighten
 70
    12
 71
     2
 72
     2
 73
     0
 90
        0
 40
-0.6
 41
-30.0
 62
     5
 63
     7
 74
     1
 91
        4
 64
     7
 65
   257
 75
     1
175
     1
 42
1.0
 92
        8
 66
     7
 43
1.0
 76
     1
 77
     6
 78
     2
 67
     7
 79
     5
170
     0
171
     0
290
     0
174
     0
 93
        1
 44
50.0
173
     0
291
     1
 45
0.0
1001
ACAD
1000
AcDbSavedByObjectVersion
1070
     0
  0
VISUALSTYLE
  5
3A
102
{ACAD_REACTORS
330
2A
102
}
330
2A
100
AcDbVisualStyle
  2
ColorChange
 70
    16
 71
     2
 72
     2
 73
     3
 90
        0
 40
-0.6
 41
-30.0
 62
     5
 63
     8
 74
     1
 91
        4
 64
     7
 65
   257
 75
     1
175
     1
 42
1.0
 92
        8
 66
     8
 43
1.0
 76
     1
 77
     6
 78
     2
 67
     7
 79
     5
170
     0
171
     0
290
     0
174
     0
 93
        1
 44
0.0
173
     0
291
     1
 45
0.0
1001
ACAD
1000
AcDbSavedByObjectVersion
1070
     0
  0
VISUALSTYLE
  5
34
102
{ACAD_REACTORS
330
2A
102
}
330
2A
100
AcDbVisualStyle
  2
Conceptual
 70
     9
 71
     3
 72
     2
 73
     0
 90
        0
 40
-0.6
 41
-30.0
 62
     5
 63
     7
 74
     2
 91
        2
 64
     7
 65
   257
 75
     1
175
     1
 42
40.0
 92
        8
 66
     7
 43
1.0
 76
     1
 77
     6
 78
     2
 67
     7
 79
     3
170
     0
171
     0
290
     0
174
     0
 93
        1
 44
0.0
173
     0
291
     0
 45
0.0
1001
ACAD
1000
AcDbSavedByObjectVersion
1070
     0
  0
VISUALSTYLE
  5
35
102
{ACAD_REACTORS
330
2A
102
}
330
2A
100
AcDbVisualStyle
  2
Dim
 70
    11
 71
     2
 72
     2
 73
     0
 90
        0
 40
-0.6
 41
-30.0
 62
     5
 63
     7
 74
     1
 91
        4
 64
     7
 65
   257
 75
     1
175
     1
 42
1.0
 92
        8
 66
     7
 43
1.0
 76
     1
 77
     6
 78
     2
 67
     7
 79
     5
170
     0
171
     0
290
     0
174
     0
 93
        1
 44
-50.0
173
     0
291
     1
 45
0.0
1001
ACAD
1000
AcDbSavedByObjectVersion
1070
     0
  0
VISUALSTYLE
  5
39
102
{ACAD_REACTORS
330
2A
102
}
330
2A
100
AcDbVisualStyle
  2
Facepattern
 70
    15
 71
     2
 72
     2
 73
     0
 90
        0
 40
-0.6
 41
-30.0
 62
     5
 63
     7
 74
     1
 91
        4
 64
     7
 65
   257
 75
     1
175
     1
 42
1.0
 92
        8
 66
     7
 43
1.0
 76
     1
 77
     6
 78
     2
 67
     7
 79
     5
170
     0
171
     0
290
     0
174
     0
 93
        1
 44
0.0
173
     0
291
     1
 45
0.0
1001
ACAD
1000
AcDbSavedByObjectVersion
1070
     0
  0
VISUALSTYLE
  5
2B
102
{ACAD_REACTORS
330
2A
102
}
330
2A
100
AcDbVisualStyle
  2
Flat
 70
     0
 71
     2
 72
     1
 73
     1
 90
        2
 40
-0.6
 41
30.0
 62
     5
 63
     7
 74
     0
 91
        4
 64
     7
 65
   257
 75
     1
175
     1
 42
1.0
 92
        8
 66
     7
 43
1.0
 76
     1
 77
     6
 78
     2
 67
     7
 79
     5
170
     0
171
     0
290
     0
174
     0
 93
       13
 44
0.0
173
     0
291
     1
 45
0.0
1001
ACAD
1000
AcDbSavedByObjectVersion
1070
     0
  0
VISUALSTYLE
  5
2C
102
{ACAD_REACTORS
330
2A
102
}
330
2A
100
AcDbVisualStyle
  2
FlatWithEdges
 70
     1
 71
     2
 72
     1
 73
     1
 90
        2
 40
-0.6
 41
30.0
 62
     5
 63
     7
 74
     1
 91
        4
 64
     7
 65
   257
 75
     1
175
     1
 42
1.0
 92
        0
 66
   257
 43
1.0
 76
     1
 77
     6
 78
     2
 67
     7
 79
     5
170
     0
171
     0
290
     0
174
     0
 93
       13
 44
0.0
173
     0
291
     1
 45
0.0
1001
ACAD
1000
AcDbSavedByObjectVersion
1070
     0
  0
VISUALSTYLE
  5
2D
102
{ACAD_REACTORS
330
2A
102
}
330
2A
100
AcDbVisualStyle
  2
Gouraud
 70
     2
 71
     2
 72
     2
 73
     1
 90
        2
 40
-0.6
 41
30.0
 62
     5
 63
     7
 74
     0
 91
        4
 64
     7
 65
   257
 75
     1
175
     1
 42
1.0
 92
        0
 66
     7
 43
1.0
 76
     1
 77
     6
 78
     2
 67
     7
 79
     5
170
     0
171
     0
290
     0
174
     0
 93
       13
 44
0.0
173
     0
291
     1
 45
0.0
1001
ACAD
1000
AcDbSavedByObjectVersion
1070
     0
  0
VISUALSTYLE
  5
2E
102
{ACAD_REACTORS
330
2A
102
}
330
2A
100
AcDbVisualStyle
  2
GouraudWithEdges
 70
     3
 71
     2
 72
     2
 73
     1
 90
        2
 40
-0.6
 41
30.0
 62
     5
 63
     7
 74
     1
 91
        4
 64
     7
 65
   257
 75
     1
175
     1
 42
1.0
 92
        0
 66
   257
 43
1.0
 76
     1
 77
     6
 78
     2
 67
     7
 79
     5
170
     0
171
     0
290
     0
174
     0
 93
       13
 44
0.0
173
     0
291
     1
 45
0.0
1001
ACAD
1000
AcDbSavedByObjectVersion
1070
     0
  0
VISUALSTYLE
  5
38
102
{ACAD_REACTORS
330
2A
102
}
330
2A
100
AcDbVisualStyle
  2
Linepattern
 70
    14
 71
     2
 72
     2
 73
     0
 90
        0
 40
-0.6
 41
-30.0
 62
     5
 63
     7
 74
     1
 91
        4
 64
     7
 65
   257
 75
     7
175
     7
 42
1.0
 92
        8
 66
     7
 43
1.0
 76
     1
 77
     6
 78
     2
 67
     7
 79
     5
170
     0
171
     0
290
     0
174
     0
 93
        1
 44
0.0
173
     0
291
     1
 45
0.0
1001
ACAD
1000
AcDbSavedByObjectVersion
1070
     0
  0
VISUALSTYLE
  5
33
102
{ACAD_REACTORS
330
2A
102
}
330
2A
100
AcDbVisualStyle
  2
Realistic
 70
     8
 71
     2
 72
     2
 73
     0
 90
        0
 40
-0.6
 41
-30.0
 62
     5
 63
     7
 74
     1
 91
        0
 64
     7
 65
   257
 75
     1
175
     1
 42
1.0
 92
        8
 66
     8
 43
1.0
 76
     1
 77
     6
 78
     2
 67
     7
 79
     5
170
     0
171
     0
290
     0
174
     0
 93
       13
 44
0.0
173
     0
291
     0
 45
0.0
1001
ACAD
1000
AcDbSavedByObjectVersion
1070
     0
  0
VISUALSTYLE
  5
37
102
{ACAD_REACTORS
330
2A
102
}
330
2A
100
AcDbVisualStyle
  2
Thicken
 70
    13
 71
     2
 72
     2
 73
     0
 90
        0
 40
-0.6
 41
-30.0
 62
     5
 63
     7
 74
     1
 91
        4
 64
     7
 65
   257
 75
     1
175
     1
 42
1.0
 92
       12
 66
     7
 43
1.0
 76
     1
 77
     6
 78
     2
 67
     7
 79
     5
170
     0
171
     0
290
     0
174
     0
 93
        1
 44
0.0
173
     0
291
     1
 45
0.0
1001
ACAD
1000
AcDbSavedByObjectVersion
1070
     0
  0
DICTIONARYVAR
  5
36B
102
{ACAD_REACTORS
330
36A
102
}
330
36A
100
DictionaryVariables
280
     0
  1
1:1
  0
DICTIONARYVAR
  5
36F
102
{ACAD_REACTORS
330
36A
102
}
330
36A
100
DictionaryVariables
280
     0
  1
80.000000
  0
DICTIONARYVAR
  5
36E
102
{ACAD_REACTORS
330
36A
102
}
330
36A
100
DictionaryVariables
280
     0
  1
5.000000
  0
ENDSEC
  0
EOF
