  0
SECTION
  2
HEADER
  9
$ACADVER
  1
AC1015
  9
$ACADMAINTVER
 70
     6
  9
$DWGCODEPAGE
  3
ANSI_932
  9
$INSBASE
 10
0.0
 20
0.0
 30
0.0
  9
$EXTMIN
 10
23.134689
 20
7.067253
 30
0.0
  9
$EXTMAX
 10
213.134689
 20
90.143753
 30
0.0
  9
$LIMMIN
 10
0.0
 20
0.0
  9
$LIMMAX
 10
12.0
 20
9.0
  9
$ORTHOMODE
 70
     0
  9
$REGENMODE
 70
     1
  9
$FILLMODE
 70
     1
  9
$QTEXTMODE
 70
     0
  9
$MIRRTEXT
 70
     1
  9
$LTSCALE
 40
2.073685
  9
$ATTMODE
 70
     1
  9
$TEXTSIZE
 40
3.2
  9
$TRACEWID
 40
1.0
  9
$TEXTSTYLE
  7
Standard
  9
$CLAYER
  8
0
  9
$CELTYPE
  6
ByLayer
  9
$CECOLOR
 62
   256
  9
$CELTSCALE
 40
1.0
  9
$DISPSILH
 70
     0
  9
$DIMSCALE
 40
1.0
  9
$DIMASZ
 40
2.5
  9
$DIMEXO
 40
0.625
  9
$DIMDLI
 40
3.75
  9
$DIMRND
 40
0.0
  9
$DIMDLE
 40
0.0
  9
$DIMEXE
 40
1.25
  9
$DIMTP
 40
0.0
  9
$DIMTM
 40
0.0
  9
$DIMTXT
 40
2.5
  9
$DIMCEN
 40
0.09
  9
$DIMTSZ
 40
0.0
  9
$DIMTOL
 70
     0
  9
$DIMLIM
 70
     0
  9
$DIMTIH
 70
     0
  9
$DIMTOH
 70
     0
  9
$DIMSE1
 70
     0
  9
$DIMSE2
 70
     0
  9
$DIMTAD
 70
     0
  9
$DIMZIN
 70
     8
  9
$DIMBLK
  1

  9
$DIMASO
 70
     1
  9
$DIMSHO
 70
     0
  9
$DIMPOST
  1

  9
$DIMAPOST
  1

  9
$DIMALT
 70
     0
  9
$DIMALTD
 70
     3
  9
$DIMALTF
 40
0.03937
  9
$DIMLFAC
 40
1.0
  9
$DIMTOFL
 70
     1
  9
$DIMTVP
 40
0.0
  9
$DIMTIX
 70
     0
  9
$DIMSOXD
 70
     0
  9
$DIMSAH
 70
     0
  9
$DIMBLK1
  1

  9
$DIMBLK2
  1

  9
$DIMSTYLE
  2
ISO-25
  9
$DIMCLRD
 70
     0
  9
$DIMCLRE
 70
     0
  9
$DIMCLRT
 70
     0
  9
$DIMTFAC
 40
1.0
  9
$DIMGAP
 40
0.625
  9
$DIMJUST
 70
     0
  9
$DIMSD1
 70
     0
  9
$DIMSD2
 70
     0
  9
$DIMTOLJ
 70
     0
  9
$DIMTZIN
 70
     8
  9
$DIMALTZ
 70
     0
  9
$DIMALTTZ
 70
     0
  9
$DIMUPT
 70
     0
  9
$DIMDEC
 70
     2
  9
$DIMTDEC
 70
     2
  9
$DIMALTU
 70
     2
  9
$DIMALTTD
 70
     3
  9
$DIMTXSTY
  7
Standard
  9
$DIMAUNIT
 70
     0
  9
$DIMADEC
 70
     0
  9
$DIMALTRND
 40
0.0
  9
$DIMAZIN
 70
     0
  9
$DIMDSEP
 70
    44
  9
$DIMATFIT
 70
     3
  9
$DIMFRAC
 70
     0
  9
$DIMLDRBLK
  1

  9
$DIMLUNIT
 70
     2
  9
$DIMLWD
 70
    -2
  9
$DIMLWE
 70
    -2
  9
$DIMTMOVE
 70
     0
  9
$LUNITS
 70
     2
  9
$LUPREC
 70
     4
  9
$SKETCHINC
 40
1.0
  9
$FILLETRAD
 40
0.0
  9
$AUNITS
 70
     0
  9
$AUPREC
 70
     0
  9
$MENU
  1
.
  9
$ELEVATION
 40
0.0
  9
$PELEVATION
 40
0.0
  9
$THICKNESS
 40
0.0
  9
$LIMCHECK
 70
     0
  9
$CHAMFERA
 40
10.0
  9
$CHAMFERB
 40
10.0
  9
$CHAMFERC
 40
20.0
  9
$CHAMFERD
 40
0.0
  9
$SKPOLY
 70
     0
  9
$TDCREATE
 40
2454798.388416331
  9
$TDUCREATE
 40
2454798.013416331
  9
$TDUPDATE
 40
2454798.388416342
  9
$TDUUPDATE
 40
2454798.013416342
  9
$TDINDWG
 40
0.0000000116
  9
$TDUSRTIMER
 40
0.0000000116
  9
$USRTIMER
 70
     1
  9
$ANGBASE
 50
0.0
  9
$ANGDIR
 70
     0
  9
$PDMODE
 70
     0
  9
$PDSIZE
 40
0.0
  9
$PLINEWID
 40
0.0
  9
$SPLFRAME
 70
     0
  9
$SPLINETYPE
 70
     6
  9
$SPLINESEGS
 70
     8
  9
$HANDSEED
  5
33A
  9
$SURFTAB1
 70
     6
  9
$SURFTAB2
 70
     6
  9
$SURFTYPE
 70
     6
  9
$SURFU
 70
     6
  9
$SURFV
 70
     6
  9
$UCSBASE
  2

  9
$UCSNAME
  2

  9
$UCSORG
 10
0.0
 20
0.0
 30
0.0
  9
$UCSXDIR
 10
1.0
 20
0.0
 30
0.0
  9
$UCSYDIR
 10
0.0
 20
1.0
 30
0.0
  9
$UCSORTHOREF
  2

  9
$UCSORTHOVIEW
 70
     0
  9
$UCSORGTOP
 10
0.0
 20
0.0
 30
0.0
  9
$UCSORGBOTTOM
 10
0.0
 20
0.0
 30
0.0
  9
$UCSORGLEFT
 10
0.0
 20
0.0
 30
0.0
  9
$UCSORGRIGHT
 10
0.0
 20
0.0
 30
0.0
  9
$UCSORGFRONT
 10
0.0
 20
0.0
 30
0.0
  9
$UCSORGBACK
 10
0.0
 20
0.0
 30
0.0
  9
$PUCSBASE
  2

  9
$PUCSNAME
  2

  9
$PUCSORG
 10
0.0
 20
0.0
 30
0.0
  9
$PUCSXDIR
 10
1.0
 20
0.0
 30
0.0
  9
$PUCSYDIR
 10
0.0
 20
1.0
 30
0.0
  9
$PUCSORTHOREF
  2

  9
$PUCSORTHOVIEW
 70
     0
  9
$PUCSORGTOP
 10
0.0
 20
0.0
 30
0.0
  9
$PUCSORGBOTTOM
 10
0.0
 20
0.0
 30
0.0
  9
$PUCSORGLEFT
 10
0.0
 20
0.0
 30
0.0
  9
$PUCSORGRIGHT
 10
0.0
 20
0.0
 30
0.0
  9
$PUCSORGFRONT
 10
0.0
 20
0.0
 30
0.0
  9
$PUCSORGBACK
 10
0.0
 20
0.0
 30
0.0
  9
$USERI1
 70
     0
  9
$USERI2
 70
     0
  9
$USERI3
 70
     0
  9
$USERI4
 70
     0
  9
$USERI5
 70
     0
  9
$USERR1
 40
0.0
  9
$USERR2
 40
0.0
  9
$USERR3
 40
0.0
  9
$USERR4
 40
0.0
  9
$USERR5
 40
0.0
  9
$WORLDVIEW
 70
     1
  9
$SHADEDGE
 70
     3
  9
$SHADEDIF
 70
    70
  9
$TILEMODE
 70
     1
  9
$MAXACTVP
 70
    64
  9
$PINSBASE
 10
0.0
 20
0.0
 30
0.0
  9
$PLIMCHECK
 70
     0
  9
$PEXTMIN
 10
1.000000E+20
 20
1.000000E+20
 30
0.0
  9
$PEXTMAX
 10
-1.000000E+20
 20
-1.000000E+20
 30
0.0
  9
$PLIMMIN
 10
0.0
 20
0.0
  9
$PLIMMAX
 10
12.0
 20
9.0
  9
$UNITMODE
 70
     0
  9
$VISRETAIN
 70
     1
  9
$PLINEGEN
 70
     0
  9
$PSLTSCALE
 70
     1
  9
$TREEDEPTH
 70
  3020
  9
$CMLSTYLE
  2
Standard
  9
$CMLJUST
 70
     0
  9
$CMLSCALE
 40
20.0
  9
$PROXYGRAPHICS
 70
     1
  9
$MEASUREMENT
 70
     1
  9
$CELWEIGHT
370
    -1
  9
$ENDCAPS
280
     0
  9
$JOINSTYLE
280
     0
  9
$LWDISPLAY
290
     0
  9
$INSUNITS
 70
     4
  9
$HYPERLINKBASE
  1

  9
$STYLESHEET
  1

  9
$XEDIT
290
     1
  9
$CEPSNTYPE
380
     0
  9
$PSTYLEMODE
290
     1
  9
$FINGERPRINTGUID
  2
{03B09826-D506-4365-9FAB-59EF20E1131C}
  9
$VERSIONGUID
  2
{FAEB1C32-E019-11D5-929B-00C0DF256EC4}
  9
$EXTNAMES
290
     1
  9
$PSVPSCALE
 40
0.0
  9
$OLESTARTUP
290
     0
  0
ENDSEC
  0
SECTION
  2
CLASSES
  0
CLASS
  1
ACDBDICTIONARYWDFLT
  2
AcDbDictionaryWithDefault
  3
ObjectDBX Classes
 90
        0
280
     0
281
     0
  0
CLASS
  1
VISUALSTYLE
  2
AcDbVisualStyle
  3
ObjectDBX Classes
 90
     4095
280
     0
281
     0
  0
CLASS
  1
SCALE
  2
AcDbScale
  3
ObjectDBX Classes
 90
     1153
280
     0
281
     0
  0
CLASS
  1
DICTIONARYVAR
  2
AcDbDictionaryVar
  3
ObjectDBX Classes
 90
        0
280
     0
281
     0
  0
CLASS
  1
ACDBPLACEHOLDER
  2
AcDbPlaceHolder
  3
ObjectDBX Classes
 90
        0
280
     0
281
     0
  0
CLASS
  1
LAYOUT
  2
AcDbLayout
  3
ObjectDBX Classes
 90
        0
280
     0
281
     0
  0
ENDSEC
  0
SECTION
  2
TABLES
  0
TABLE
  2
VPORT
  5
8
330
0
100
AcDbSymbolTable
 70
     1
  0
VPORT
  5
29
330
8
100
AcDbSymbolTableRecord
100
AcDbViewportTableRecord
  2
*Active
 70
     0
 10
0.0
 20
0.0
 11
1.0
 21
1.0
 12
118.134689
 22
48.605503
 13
0.0
 23
0.0
 14
1.0
 24
1.0
 15
0.0
 25
0.0
 16
0.0
 26
0.0
 36
1.0
 17
0.0
 27
0.0
 37
0.0
 40
113.463822
 41
1.691288
 42
50.0
 43
0.0
 44
0.0
 50
0.0
 51
0.0
 71
     0
 72
   100
 73
     1
 74
     3
 75
     0
 76
     0
 77
     0
 78
     0
281
     0
 65
     1
110
0.0
120
0.0
130
0.0
111
1.0
121
0.0
131
0.0
112
0.0
122
1.0
132
0.0
 79
     0
146
0.0
  0
ENDTAB
  0
TABLE
  2
LTYPE
  5
5
330
0
100
AcDbSymbolTable
 70
     5
  0
LTYPE
  5
14
330
5
100
AcDbSymbolTableRecord
100
AcDbLinetypeTableRecord
  2
ByBlock
 70
     0
  3

 72
    65
 73
     0
 40
0.0
  0
LTYPE
  5
15
330
5
100
AcDbSymbolTableRecord
100
AcDbLinetypeTableRecord
  2
ByLayer
 70
     0
  3

 72
    65
 73
     0
 40
0.0
  0
LTYPE
  5
16
330
5
100
AcDbSymbolTableRecord
100
AcDbLinetypeTableRecord
  2
Continuous
 70
     0
  3
Solid line
 72
    65
 73
     0
 40
0.0
  0
LTYPE
  5
5D
330
5
100
AcDbSymbolTableRecord
100
AcDbLinetypeTableRecord
  2
DASHED
 70
     0
  3
DASHED
 72
    83
 73
     2
 40
0.75
 49
0.5
 74
     0
 49
-0.25
 74
     0
  0
LTYPE
  5
5E
330
5
100
AcDbSymbolTableRecord
100
AcDbLinetypeTableRecord
  2
HIDDEN
 70
     0
  3
HIDDEN
 72
    83
 73
     2
 40
0.375
 49
0.25
 74
     0
 49
-0.125
 74
     0
  0
LTYPE
  5
5F
330
5
100
AcDbSymbolTableRecord
100
AcDbLinetypeTableRecord
  2
CENTER
 70
     0
  3
CENTER
 72
    83
 73
     4
 40
2.0
 49
1.25
 74
     0
 49
-0.25
 74
     0
 49
0.25
 74
     0
 49
-0.25
 74
     0
  0
LTYPE
  5
60
330
5
100
AcDbSymbolTableRecord
100
AcDbLinetypeTableRecord
  2
PHANTOM
 70
     0
  3
PHANTOM
 72
    83
 73
     6
 40
2.5
 49
1.25
 74
     0
 49
-0.25
 74
     0
 49
0.25
 74
     0
 49
-0.25
 74
     0
 49
0.25
 74
     0
 49
-0.25
 74
     0
  0
ENDTAB
  0
TABLE
  2
LAYER
  5
2
330
0
100
AcDbSymbolTable
 70
     2
  0
LAYER
  5
10
330
2
100
AcDbSymbolTableRecord
100
AcDbLayerTableRecord
  2
0
 70
     0
 62
     7
  6
Continuous
370
    -3
390
F
  0
LAYER
  5
61
330
2
100
AcDbSymbolTableRecord
100
AcDbLayerTableRecord
  2
001
 70
     0
 62
     7
  6
Continuous
370
    -3
390
F
  0
ENDTAB
  0
TABLE
  2
STYLE
  5
3
330
0
100
AcDbSymbolTable
 70
     2
  0
STYLE
  5
11
330
3
100
AcDbSymbolTableRecord
100
AcDbTextStyleTableRecord
  2
Standard
 70
     0
 40
0.0
 41
1.0
 50
0.0
 71
     0
 42
0.2
  3
TXT
  4
BIGFONT
  0
STYLE
  5
62
330
3
100
AcDbSymbolTableRecord
100
AcDbTextStyleTableRecord
  2
TATEGAKI
 70
     4
 40
1.0
 41
1.0
 50
0.0
 71
     0
 42
0.2
  3
TXT
  4
BIGFONT
  0
ENDTAB
  0
TABLE
  2
VIEW
  5
6
330
0
100
AcDbSymbolTable
 70
     0
  0
ENDTAB
  0
TABLE
  2
UCS
  5
7
330
0
100
AcDbSymbolTable
 70
     0
  0
ENDTAB
  0
TABLE
  2
APPID
  5
9
330
0
100
AcDbSymbolTable
 70
     1
  0
APPID
  5
12
330
9
100
AcDbSymbolTableRecord
100
AcDbRegAppTableRecord
  2
ACAD
 70
     0
  0
ENDTAB
  0
TABLE
  2
DIMSTYLE
  5
A
330
0
100
AcDbSymbolTable
 70
     2
100
AcDbDimStyleTable
  0
DIMSTYLE
105
27
330
A
100
AcDbSymbolTableRecord
100
AcDbDimStyleTableRecord
  2
ISO-25
 70
     0
 41
2.5
 42
0.625
 43
3.75
 44
1.25
 73
     0
 74
     0
 77
     1
 78
     8
140
2.5
141
2.5
143
0.03937
147
0.625
171
     3
172
     1
271
     2
272
     2
274
     3
278
    44
283
     0
284
     8
340
11
  0
DIMSTYLE
105
63
102
{ACAD_REACTORS
330
173
330
174
330
175
330
176
330
177
330
178
330
179
330
17A
330
17B
330
17C
330
17D
330
17E
330
18D
102
}
330
A
100
AcDbSymbolTableRecord
100
AcDbDimStyleTableRecord
  2
Standard
 70
     0
 41
1.5
 42
0.0
 44
2.75
 73
     0
 74
     0
 77
     1
 78
     8
 79
     2
140
4.0
146
0.8
147
1.0
172
     1
179
     1
271
     1
340
11
  0
ENDTAB
  0
TABLE
  2
BLOCK_RECORD
  5
1
330
0
100
AcDbSymbolTable
 70
    14
  0
BLOCK_RECORD
  5
1F
330
1
100
AcDbSymbolTableRecord
100
AcDbBlockTableRecord
  2
*Model_Space
340
22
  0
BLOCK_RECORD
  5
1B
330
1
100
AcDbSymbolTableRecord
100
AcDbBlockTableRecord
  2
*Paper_Space
340
1E
  0
BLOCK_RECORD
  5
23
330
1
100
AcDbSymbolTableRecord
100
AcDbBlockTableRecord
  2
*Paper_Space0
340
26
  0
BLOCK_RECORD
  5
64
330
1
100
AcDbSymbolTableRecord
100
AcDbBlockTableRecord
  2
*D1
340
0
  0
BLOCK_RECORD
  5
7A
330
1
100
AcDbSymbolTableRecord
100
AcDbBlockTableRecord
  2
*D2
340
0
  0
BLOCK_RECORD
  5
90
330
1
100
AcDbSymbolTableRecord
100
AcDbBlockTableRecord
  2
*D3
340
0
  0
BLOCK_RECORD
  5
A6
330
1
100
AcDbSymbolTableRecord
100
AcDbBlockTableRecord
  2
*D4
340
0
  0
BLOCK_RECORD
  5
BA
330
1
100
AcDbSymbolTableRecord
100
AcDbBlockTableRecord
  2
*D5
340
0
  0
BLOCK_RECORD
  5
CE
330
1
100
AcDbSymbolTableRecord
100
AcDbBlockTableRecord
  2
*D6
340
0
  0
BLOCK_RECORD
  5
E2
330
1
100
AcDbSymbolTableRecord
100
AcDbBlockTableRecord
  2
*D7
340
0
  0
BLOCK_RECORD
  5
F6
330
1
100
AcDbSymbolTableRecord
100
AcDbBlockTableRecord
  2
*D8
340
0
  0
BLOCK_RECORD
  5
10A
330
1
100
AcDbSymbolTableRecord
100
AcDbBlockTableRecord
  2
*D9
340
0
  0
BLOCK_RECORD
  5
11F
330
1
100
AcDbSymbolTableRecord
100
AcDbBlockTableRecord
  2
*D10
340
0
  0
BLOCK_RECORD
  5
135
330
1
100
AcDbSymbolTableRecord
100
AcDbBlockTableRecord
  2
*D11
340
0
  0
BLOCK_RECORD
  5
14B
330
1
100
AcDbSymbolTableRecord
100
AcDbBlockTableRecord
  2
*D12
340
0
  0
BLOCK_RECORD
  5
15F
330
1
100
AcDbSymbolTableRecord
100
AcDbBlockTableRecord
  2
*D13
340
0
  0
ENDTAB
  0
ENDSEC
  0
SECTION
  2
BLOCKS
  0
BLOCK
  5
20
330
1F
100
AcDbEntity
  8
0
100
AcDbBlockBegin
  2
*Model_Space
 70
     0
 10
0.0
 20
0.0
 30
0.0
  3
*Model_Space
  1

  0
ENDBLK
  5
21
330
1F
100
AcDbEntity
  8
0
100
AcDbBlockEnd
  0
BLOCK
  5
1C
330
1B
100
AcDbEntity
 67
     1
  8
0
100
AcDbBlockBegin
  2
*Paper_Space
 70
     0
 10
0.0
 20
0.0
 30
0.0
  3
*Paper_Space
  1

  0
ENDBLK
  5
1D
330
1B
100
AcDbEntity
 67
     1
  8
0
100
AcDbBlockEnd
  0
BLOCK
  5
24
330
23
100
AcDbEntity
  8
0
100
AcDbBlockBegin
  2
*Paper_Space0
 70
     0
 10
0.0
 20
0.0
 30
0.0
  3
*Paper_Space0
  1

  0
ENDBLK
  5
25
330
23
100
AcDbEntity
  8
0
100
AcDbBlockEnd
  0
BLOCK
  5
65
330
64
100
AcDbEntity
  8
0
100
AcDbBlockBegin
  2
*D1
 70
     1
 10
0.0
 20
0.0
 30
0.0
  3
*D1
  1

  0
LINE
  5
67
330
64
100
AcDbEntity
  8
001
370
     9
100
AcDbLine
 10
155.712528
 20
53.164002
 30
0.0
 11
180.108119
 21
53.164002
 31
0.0
  0
LINE
  5
68
330
64
100
AcDbEntity
  8
001
370
     9
100
AcDbLine
 10
155.712528
 20
65.164002
 30
0.0
 11
180.108119
 21
65.164002
 31
0.0
  0
LINE
  5
69
330
64
100
AcDbEntity
  8
001
370
     9
100
AcDbLine
 10
177.358119
 20
53.164002
 30
0.0
 11
177.358119
 21
65.164002
 31
0.0
  0
POLYLINE
  5
6A
330
64
100
AcDbEntity
  8
001
370
     9
100
AcDb2dPolyline
 66
     1
 10
0.0
 20
0.0
 30
0.0
  0
VERTEX
  5
6C
330
6A
100
AcDbEntity
  8
001
370
     9
100
AcDbVertex
100
AcDb2dVertex
 10
176.956195
 20
51.664002
 30
0.0
  0
VERTEX
  5
6D
330
6A
100
AcDbEntity
  8
001
370
     9
100
AcDbVertex
100
AcDb2dVertex
 10
177.358119
 20
53.164002
 30
0.0
  0
VERTEX
  5
6E
330
6A
100
AcDbEntity
  8
001
370
     9
100
AcDbVertex
100
AcDb2dVertex
 10
177.760043
 20
51.664002
 30
0.0
  0
SEQEND
  5
6B
330
6A
100
AcDbEntity
  8
001
370
     9
  0
POLYLINE
  5
6F
330
64
100
AcDbEntity
  8
001
370
     9
100
AcDb2dPolyline
 66
     1
 10
0.0
 20
0.0
 30
0.0
  0
VERTEX
  5
71
330
6F
100
AcDbEntity
  8
001
370
     9
100
AcDbVertex
100
AcDb2dVertex
 10
177.760043
 20
66.664002
 30
0.0
  0
VERTEX
  5
72
330
6F
100
AcDbEntity
  8
001
370
     9
100
AcDbVertex
100
AcDb2dVertex
 10
177.358119
 20
65.164002
 30
0.0
  0
VERTEX
  5
73
330
6F
100
AcDbEntity
  8
001
370
     9
100
AcDbVertex
100
AcDb2dVertex
 10
176.956195
 20
66.664002
 30
0.0
  0
SEQEND
  5
70
330
6F
100
AcDbEntity
  8
001
370
     9
  0
TEXT
  5
74
330
64
100
AcDbEntity
  8
001
370
    30
100
AcDbText
 10
176.358119
 20
37.664002
 30
0.0
 40
4.0
  1
%%c１２
 50
90.000003
 41
0.882353
100
AcDbText
  0
POINT
  5
75
330
64
100
AcDbEntity
  8
001
370
     9
100
AcDbPoint
 10
155.712528
 20
53.164002
 30
0.0
  0
POINT
  5
76
330
64
100
AcDbEntity
  8
001
370
     9
100
AcDbPoint
 10
155.712528
 20
65.164002
 30
0.0
  0
POINT
  5
77
330
64
100
AcDbEntity
  8
001
370
     9
100
AcDbPoint
 10
177.358119
 20
65.164002
 30
0.0
  0
LINE
  5
78
330
64
100
AcDbEntity
  8
001
370
     9
100
AcDbLine
 10
177.358119
 20
53.164002
 30
0.0
 11
177.358119
 21
34.664002
 31
0.0
  0
LINE
  5
79
330
64
100
AcDbEntity
  8
001
370
     9
100
AcDbLine
 10
177.358119
 20
65.164002
 30
0.0
 11
177.358119
 21
67.664002
 31
0.0
  0
ENDBLK
  5
66
330
64
100
AcDbEntity
  8
0
100
AcDbBlockEnd
  0
BLOCK
  5
7B
330
7A
100
AcDbEntity
  8
0
100
AcDbBlockBegin
  2
*D2
 70
     1
 10
0.0
 20
0.0
 30
0.0
  3
*D2
  1

  0
LINE
  5
7D
330
7A
100
AcDbEntity
  8
001
370
     9
100
AcDbLine
 10
83.464387
 20
55.164002
 30
0.0
 11
71.123872
 21
55.164002
 31
0.0
  0
LINE
  5
7E
330
7A
100
AcDbEntity
  8
001
370
     9
100
AcDbLine
 10
83.464387
 20
63.164002
 30
0.0
 11
71.123872
 21
63.164002
 31
0.0
  0
LINE
  5
7F
330
7A
100
AcDbEntity
  8
001
370
     9
100
AcDbLine
 10
73.873872
 20
55.164002
 30
0.0
 11
73.873872
 21
63.164002
 31
0.0
  0
POLYLINE
  5
80
330
7A
100
AcDbEntity
  8
001
370
     9
100
AcDb2dPolyline
 66
     1
 10
0.0
 20
0.0
 30
0.0
  0
VERTEX
  5
82
330
80
100
AcDbEntity
  8
001
370
     9
100
AcDbVertex
100
AcDb2dVertex
 10
73.471949
 20
53.664002
 30
0.0
  0
VERTEX
  5
83
330
80
100
AcDbEntity
  8
001
370
     9
100
AcDbVertex
100
AcDb2dVertex
 10
73.873872
 20
55.164002
 30
0.0
  0
VERTEX
  5
84
330
80
100
AcDbEntity
  8
001
370
     9
100
AcDbVertex
100
AcDb2dVertex
 10
74.275796
 20
53.664002
 30
0.0
  0
SEQEND
  5
81
330
80
100
AcDbEntity
  8
001
370
     9
  0
POLYLINE
  5
85
330
7A
100
AcDbEntity
  8
001
370
     9
100
AcDb2dPolyline
 66
     1
 10
0.0
 20
0.0
 30
0.0
  0
VERTEX
  5
87
330
85
100
AcDbEntity
  8
001
370
     9
100
AcDbVertex
100
AcDb2dVertex
 10
74.275796
 20
64.664002
 30
0.0
  0
VERTEX
  5
88
330
85
100
AcDbEntity
  8
001
370
     9
100
AcDbVertex
100
AcDb2dVertex
 10
73.873872
 20
63.164002
 30
0.0
  0
VERTEX
  5
89
330
85
100
AcDbEntity
  8
001
370
     9
100
AcDbVertex
100
AcDb2dVertex
 10
73.471949
 20
64.664002
 30
0.0
  0
SEQEND
  5
86
330
85
100
AcDbEntity
  8
001
370
     9
  0
TEXT
  5
8A
330
7A
100
AcDbEntity
  8
001
370
    30
100
AcDbText
 10
72.873872
 20
55.164002
 30
0.0
 40
4.0
  1
%%c８
 50
90.000003
 41
0.909091
100
AcDbText
  0
POINT
  5
8B
330
7A
100
AcDbEntity
  8
001
370
     9
100
AcDbPoint
 10
83.464387
 20
55.164002
 30
0.0
  0
POINT
  5
8C
330
7A
100
AcDbEntity
  8
001
370
     9
100
AcDbPoint
 10
83.464387
 20
63.164002
 30
0.0
  0
POINT
  5
8D
330
7A
100
AcDbEntity
  8
001
370
     9
100
AcDbPoint
 10
73.873872
 20
63.164002
 30
0.0
  0
LINE
  5
8E
330
7A
100
AcDbEntity
  8
001
370
     9
100
AcDbLine
 10
73.873872
 20
55.164002
 30
0.0
 11
73.873872
 21
52.664002
 31
0.0
  0
LINE
  5
8F
330
7A
100
AcDbEntity
  8
001
370
     9
100
AcDbLine
 10
73.873872
 20
63.164002
 30
0.0
 11
73.873872
 21
65.664002
 31
0.0
  0
ENDBLK
  5
7C
330
7A
100
AcDbEntity
  8
0
100
AcDbBlockEnd
  0
BLOCK
  5
91
330
90
100
AcDbEntity
  8
0
100
AcDbBlockBegin
  2
*D3
 70
     1
 10
0.0
 20
0.0
 30
0.0
  3
*D3
  1

  0
LINE
  5
93
330
90
100
AcDbEntity
  8
001
370
     9
100
AcDbLine
 10
88.369473
 20
64.414002
 30
0.0
 11
61.402798
 21
64.414002
 31
0.0
  0
LINE
  5
94
330
90
100
AcDbEntity
  8
001
370
     9
100
AcDbLine
 10
88.369473
 20
53.914002
 30
0.0
 11
61.402798
 21
53.914002
 31
0.0
  0
LINE
  5
95
330
90
100
AcDbEntity
  8
001
370
     9
100
AcDbLine
 10
64.152798
 20
64.414002
 30
0.0
 11
64.152798
 21
53.914002
 31
0.0
  0
POLYLINE
  5
96
330
90
100
AcDbEntity
  8
001
370
     9
100
AcDb2dPolyline
 66
     1
 10
0.0
 20
0.0
 30
0.0
  0
VERTEX
  5
98
330
96
100
AcDbEntity
  8
001
370
     9
100
AcDbVertex
100
AcDb2dVertex
 10
64.554722
 20
65.914002
 30
0.0
  0
VERTEX
  5
99
330
96
100
AcDbEntity
  8
001
370
     9
100
AcDbVertex
100
AcDb2dVertex
 10
64.152798
 20
64.414002
 30
0.0
  0
VERTEX
  5
9A
330
96
100
AcDbEntity
  8
001
370
     9
100
AcDbVertex
100
AcDb2dVertex
 10
63.750874
 20
65.914002
 30
0.0
  0
SEQEND
  5
97
330
96
100
AcDbEntity
  8
001
370
     9
  0
POLYLINE
  5
9B
330
90
100
AcDbEntity
  8
001
370
     9
100
AcDb2dPolyline
 66
     1
 10
0.0
 20
0.0
 30
0.0
  0
VERTEX
  5
9D
330
9B
100
AcDbEntity
  8
001
370
     9
100
AcDbVertex
100
AcDb2dVertex
 10
63.750874
 20
52.414002
 30
0.0
  0
VERTEX
  5
9E
330
9B
100
AcDbEntity
  8
001
370
     9
100
AcDbVertex
100
AcDb2dVertex
 10
64.152798
 20
53.914002
 30
0.0
  0
VERTEX
  5
9F
330
9B
100
AcDbEntity
  8
001
370
     9
100
AcDbVertex
100
AcDb2dVertex
 10
64.554722
 20
52.414002
 30
0.0
  0
SEQEND
  5
9C
330
9B
100
AcDbEntity
  8
001
370
     9
  0
TEXT
  5
A0
330
90
100
AcDbEntity
  8
001
370
    30
100
AcDbText
 10
63.152798
 20
49.164002
 30
0.0
 40
4.0
  1
%%c１０．５
 50
90.000003
 41
0.862069
100
AcDbText
  0
POINT
  5
A1
330
90
100
AcDbEntity
  8
001
370
     9
100
AcDbPoint
 10
88.369473
 20
64.414002
 30
0.0
  0
POINT
  5
A2
330
90
100
AcDbEntity
  8
001
370
     9
100
AcDbPoint
 10
88.369473
 20
53.914002
 30
0.0
  0
POINT
  5
A3
330
90
100
AcDbEntity
  8
001
370
     9
100
AcDbPoint
 10
64.152798
 20
53.914002
 30
0.0
  0
LINE
  5
A4
330
90
100
AcDbEntity
  8
001
370
     9
100
AcDbLine
 10
64.152798
 20
64.414002
 30
0.0
 11
64.152798
 21
66.914002
 31
0.0
  0
LINE
  5
A5
330
90
100
AcDbEntity
  8
001
370
     9
100
AcDbLine
 10
64.152798
 20
53.914002
 30
0.0
 11
64.152798
 21
51.414002
 31
0.0
  0
ENDBLK
  5
92
330
90
100
AcDbEntity
  8
0
100
AcDbBlockEnd
  0
BLOCK
  5
A7
330
A6
100
AcDbEntity
  8
0
100
AcDbBlockBegin
  2
*D4
 70
     1
 10
0.0
 20
0.0
 30
0.0
  3
*D4
  1

  0
LINE
  5
A9
330
A6
100
AcDbEntity
  8
001
370
     9
100
AcDbLine
 10
83.262499
 20
56.614002
 30
0.0
 11
114.143415
 21
25.733085
 31
0.0
  0
ARC
  5
AA
330
A6
100
AcDbEntity
  8
001
370
     9
100
AcDbCircle
 10
80.712499
 20
59.164002
 30
0.0
 40
44.52845564694002
100
AcDbArc
 50
315.0
 51
0.0
  0
POLYLINE
  5
AB
330
A6
100
AcDbEntity
  8
001
370
     9
100
AcDb2dPolyline
 66
     1
 10
0.0
 20
0.0
 30
0.0
  0
VERTEX
  5
AD
330
AB
100
AcDbEntity
  8
001
370
     9
100
AcDbVertex
100
AcDb2dVertex
 10
124.813824
 20
57.670984
 30
0.0
  0
VERTEX
  5
AE
330
AB
100
AcDbEntity
  8
001
370
     9
100
AcDbVertex
100
AcDb2dVertex
 10
125.240954
 20
59.164002
 30
0.0
  0
VERTEX
  5
AF
330
AB
100
AcDbEntity
  8
001
370
     9
100
AcDbVertex
100
AcDb2dVertex
 10
125.617558
 20
57.657445
 30
0.0
  0
SEQEND
  5
AC
330
AB
100
AcDbEntity
  8
001
370
     9
  0
POLYLINE
  5
B0
330
A6
100
AcDbEntity
  8
001
370
     9
100
AcDb2dPolyline
 66
     1
 10
0.0
 20
0.0
 30
0.0
  0
VERTEX
  5
B2
330
B0
100
AcDbEntity
  8
001
370
     9
100
AcDbVertex
100
AcDb2dVertex
 10
113.530467
 20
28.476627
 30
0.0
  0
VERTEX
  5
B3
330
B0
100
AcDbEntity
  8
001
370
     9
100
AcDbVertex
100
AcDb2dVertex
 10
112.198872
 20
27.677629
 30
0.0
  0
VERTEX
  5
B4
330
B0
100
AcDbEntity
  8
001
370
     9
100
AcDbVertex
100
AcDb2dVertex
 10
112.952568
 20
29.035379
 30
0.0
  0
SEQEND
  5
B1
330
B0
100
AcDbEntity
  8
001
370
     9
  0
TEXT
  5
B5
330
A6
100
AcDbEntity
  8
001
370
    30
100
AcDbText
 10
118.631447
 20
36.963106
 30
0.0
 40
4.0
  1
４５%%d
 50
67.5
 41
0.978261
100
AcDbText
  0
POINT
  5
B6
330
A6
100
AcDbEntity
  8
001
370
     9
100
AcDbPoint
 10
82.096952
 20
59.164002
 30
0.0
  0
POINT
  5
B7
330
A6
100
AcDbEntity
  8
001
370
     9
100
AcDbPoint
 10
80.712499
 20
59.164002
 30
0.0
  0
POINT
  5
B8
330
A6
100
AcDbEntity
  8
001
370
     9
100
AcDbPoint
 10
80.712499
 20
59.164002
 30
0.0
  0
POINT
  5
B9
330
A6
100
AcDbEntity
  8
001
370
     9
100
AcDbPoint
 10
83.262499
 20
56.614002
 30
0.0
  0
ENDBLK
  5
A8
330
A6
100
AcDbEntity
  8
0
100
AcDbBlockEnd
  0
BLOCK
  5
BB
330
BA
100
AcDbEntity
  8
0
100
AcDbBlockBegin
  2
*D5
 70
     1
 10
0.0
 20
0.0
 30
0.0
  3
*D5
  1

  0
LINE
  5
BD
330
BA
100
AcDbEntity
  8
001
370
     9
100
AcDbLine
 10
88.412499
 20
53.914002
 30
0.0
 11
108.233233
 21
34.093268
 31
0.0
  0
ARC
  5
BE
330
BA
100
AcDbEntity
  8
001
370
     9
100
AcDbCircle
 10
83.162499
 20
59.164002
 30
0.0
 40
32.70537189565869
100
AcDbArc
 50
315.0
 51
0.0
  0
POLYLINE
  5
BF
330
BA
100
AcDbEntity
  8
001
370
     9
100
AcDb2dPolyline
 66
     1
 10
0.0
 20
0.0
 30
0.0
  0
VERTEX
  5
C1
330
BF
100
AcDbEntity
  8
001
370
     9
100
AcDbVertex
100
AcDb2dVertex
 10
115.431657
 20
57.673612
 30
0.0
  0
VERTEX
  5
C2
330
BF
100
AcDbEntity
  8
001
370
     9
100
AcDbVertex
100
AcDb2dVertex
 10
115.867871
 20
59.164002
 30
0.0
  0
VERTEX
  5
C3
330
BF
100
AcDbEntity
  8
001
370
     9
100
AcDbVertex
100
AcDb2dVertex
 10
116.235294
 20
57.65518
 30
0.0
  0
SEQEND
  5
C0
330
BF
100
AcDbEntity
  8
001
370
     9
  0
POLYLINE
  5
C4
330
BA
100
AcDbEntity
  8
001
370
     9
100
AcDb2dPolyline
 66
     1
 10
0.0
 20
0.0
 30
0.0
  0
VERTEX
  5
C6
330
C4
100
AcDbEntity
  8
001
370
     9
100
AcDbVertex
100
AcDb2dVertex
 10
107.615394
 20
36.844902
 30
0.0
  0
VERTEX
  5
C7
330
C4
100
AcDbEntity
  8
001
370
     9
100
AcDbVertex
100
AcDb2dVertex
 10
106.288689
 20
36.037812
 30
0.0
  0
VERTEX
  5
C8
330
C4
100
AcDbEntity
  8
001
370
     9
100
AcDbVertex
100
AcDb2dVertex
 10
107.034104
 20
37.400126
 30
0.0
  0
SEQEND
  5
C5
330
C4
100
AcDbEntity
  8
001
370
     9
  0
TEXT
  5
C9
330
BA
100
AcDbEntity
  8
001
370
    30
100
AcDbText
 10
108.689465
 20
39.425598
 30
0.0
 40
4.0
  1
４５%%d
 50
63.00353
 41
0.978261
100
AcDbText
  0
POINT
  5
CA
330
BA
100
AcDbEntity
  8
001
370
     9
100
AcDbPoint
 10
82.096952
 20
59.164002
 30
0.0
  0
POINT
  5
CB
330
BA
100
AcDbEntity
  8
001
370
     9
100
AcDbPoint
 10
83.162499
 20
59.164002
 30
0.0
  0
POINT
  5
CC
330
BA
100
AcDbEntity
  8
001
370
     9
100
AcDbPoint
 10
83.162499
 20
59.164002
 30
0.0
  0
POINT
  5
CD
330
BA
100
AcDbEntity
  8
001
370
     9
100
AcDbPoint
 10
88.412499
 20
53.914002
 30
0.0
  0
ENDBLK
  5
BC
330
BA
100
AcDbEntity
  8
0
100
AcDbBlockEnd
  0
BLOCK
  5
CF
330
CE
100
AcDbEntity
  8
0
100
AcDbBlockBegin
  2
*D6
 70
     1
 10
0.0
 20
0.0
 30
0.0
  3
*D6
  1

  0
LINE
  5
D1
330
CE
100
AcDbEntity
  8
001
370
     9
100
AcDbLine
 10
82.712528
 20
32.077915
 30
0.0
 11
82.712528
 21
7.067254
 31
0.0
  0
LINE
  5
D2
330
CE
100
AcDbEntity
  8
001
370
     9
100
AcDbLine
 10
158.712528
 20
56.164002
 30
0.0
 11
158.712528
 21
7.067254
 31
0.0
  0
LINE
  5
D3
330
CE
100
AcDbEntity
  8
001
370
     9
100
AcDbLine
 10
82.712528
 20
9.817254
 30
0.0
 11
158.712528
 21
9.817254
 31
0.0
  0
POLYLINE
  5
D4
330
CE
100
AcDbEntity
  8
001
370
     9
100
AcDb2dPolyline
 66
     1
 10
0.0
 20
0.0
 30
0.0
  0
VERTEX
  5
D6
330
D4
100
AcDbEntity
  8
001
370
     9
100
AcDbVertex
100
AcDb2dVertex
 10
84.212528
 20
9.41533
 30
0.0
  0
VERTEX
  5
D7
330
D4
100
AcDbEntity
  8
001
370
     9
100
AcDbVertex
100
AcDb2dVertex
 10
82.712528
 20
9.817254
 30
0.0
  0
VERTEX
  5
D8
330
D4
100
AcDbEntity
  8
001
370
     9
100
AcDbVertex
100
AcDb2dVertex
 10
84.212528
 20
10.219178
 30
0.0
  0
SEQEND
  5
D5
330
D4
100
AcDbEntity
  8
001
370
     9
  0
POLYLINE
  5
D9
330
CE
100
AcDbEntity
  8
001
370
     9
100
AcDb2dPolyline
 66
     1
 10
0.0
 20
0.0
 30
0.0
  0
VERTEX
  5
DB
330
D9
100
AcDbEntity
  8
001
370
     9
100
AcDbVertex
100
AcDb2dVertex
 10
157.212528
 20
10.219178
 30
0.0
  0
VERTEX
  5
DC
330
D9
100
AcDbEntity
  8
001
370
     9
100
AcDbVertex
100
AcDb2dVertex
 10
158.712528
 20
9.817254
 30
0.0
  0
VERTEX
  5
DD
330
D9
100
AcDbEntity
  8
001
370
     9
100
AcDbVertex
100
AcDb2dVertex
 10
157.212528
 20
9.41533
 30
0.0
  0
SEQEND
  5
DA
330
D9
100
AcDbEntity
  8
001
370
     9
  0
TEXT
  5
DE
330
CE
100
AcDbEntity
  8
001
370
    30
100
AcDbText
 10
116.712528
 20
10.817254
 30
0.0
 40
4.0
  1
７６
 41
0.833333
100
AcDbText
  0
POINT
  5
DF
330
CE
100
AcDbEntity
  8
001
370
     9
100
AcDbPoint
 10
82.712528
 20
32.077915
 30
0.0
  0
POINT
  5
E0
330
CE
100
AcDbEntity
  8
001
370
     9
100
AcDbPoint
 10
158.712528
 20
56.164002
 30
0.0
  0
POINT
  5
E1
330
CE
100
AcDbEntity
  8
001
370
     9
100
AcDbPoint
 10
158.712528
 20
9.817254
 30
0.0
  0
ENDBLK
  5
D0
330
CE
100
AcDbEntity
  8
0
100
AcDbBlockEnd
  0
BLOCK
  5
E3
330
E2
100
AcDbEntity
  8
0
100
AcDbBlockBegin
  2
*D7
 70
     1
 10
0.0
 20
0.0
 30
0.0
  3
*D7
  1

  0
LINE
  5
E5
330
E2
100
AcDbEntity
  8
001
370
     9
100
AcDbLine
 10
158.712528
 20
56.164002
 30
0.0
 11
158.712528
 21
15.976462
 31
0.0
  0
LINE
  5
E6
330
E2
100
AcDbEntity
  8
001
370
     9
100
AcDbLine
 10
98.712528
 20
53.864002
 30
0.0
 11
98.712528
 21
15.976462
 31
0.0
  0
LINE
  5
E7
330
E2
100
AcDbEntity
  8
001
370
     9
100
AcDbLine
 10
158.712528
 20
18.726462
 30
0.0
 11
98.712528
 21
18.726462
 31
0.0
  0
POLYLINE
  5
E8
330
E2
100
AcDbEntity
  8
001
370
     9
100
AcDb2dPolyline
 66
     1
 10
0.0
 20
0.0
 30
0.0
  0
VERTEX
  5
EA
330
E8
100
AcDbEntity
  8
001
370
     9
100
AcDbVertex
100
AcDb2dVertex
 10
157.212528
 20
19.128386
 30
0.0
  0
VERTEX
  5
EB
330
E8
100
AcDbEntity
  8
001
370
     9
100
AcDbVertex
100
AcDb2dVertex
 10
158.712528
 20
18.726462
 30
0.0
  0
VERTEX
  5
EC
330
E8
100
AcDbEntity
  8
001
370
     9
100
AcDbVertex
100
AcDb2dVertex
 10
157.212528
 20
18.324539
 30
0.0
  0
SEQEND
  5
E9
330
E8
100
AcDbEntity
  8
001
370
     9
  0
POLYLINE
  5
ED
330
E2
100
AcDbEntity
  8
001
370
     9
100
AcDb2dPolyline
 66
     1
 10
0.0
 20
0.0
 30
0.0
  0
VERTEX
  5
EF
330
ED
100
AcDbEntity
  8
001
370
     9
100
AcDbVertex
100
AcDb2dVertex
 10
100.212528
 20
18.324539
 30
0.0
  0
VERTEX
  5
F0
330
ED
100
AcDbEntity
  8
001
370
     9
100
AcDbVertex
100
AcDb2dVertex
 10
98.712528
 20
18.726462
 30
0.0
  0
VERTEX
  5
F1
330
ED
100
AcDbEntity
  8
001
370
     9
100
AcDbVertex
100
AcDb2dVertex
 10
100.212528
 20
19.128386
 30
0.0
  0
SEQEND
  5
EE
330
ED
100
AcDbEntity
  8
001
370
     9
  0
TEXT
  5
F2
330
E2
100
AcDbEntity
  8
001
370
    30
100
AcDbText
 10
124.712528
 20
19.726462
 30
0.0
 40
4.0
  1
６０
 41
0.833333
100
AcDbText
  0
POINT
  5
F3
330
E2
100
AcDbEntity
  8
001
370
     9
100
AcDbPoint
 10
158.712528
 20
56.164002
 30
0.0
  0
POINT
  5
F4
330
E2
100
AcDbEntity
  8
001
370
     9
100
AcDbPoint
 10
98.712528
 20
53.864002
 30
0.0
  0
POINT
  5
F5
330
E2
100
AcDbEntity
  8
001
370
     9
100
AcDbPoint
 10
98.712528
 20
18.726462
 30
0.0
  0
ENDBLK
  5
E4
330
E2
100
AcDbEntity
  8
0
100
AcDbBlockEnd
  0
BLOCK
  5
F7
330
F6
100
AcDbEntity
  8
0
100
AcDbBlockBegin
  2
*D8
 70
     1
 10
0.0
 20
0.0
 30
0.0
  3
*D8
  1

  0
LINE
  5
F9
330
F6
100
AcDbEntity
  8
001
370
     9
100
AcDbLine
 10
98.712528
 20
53.864002
 30
0.0
 11
98.712528
 21
15.976462
 31
0.0
  0
LINE
  5
FA
330
F6
100
AcDbEntity
  8
001
370
     9
100
AcDbLine
 10
82.712528
 20
57.163973
 30
0.0
 11
82.712528
 21
15.976462
 31
0.0
  0
LINE
  5
FB
330
F6
100
AcDbEntity
  8
001
370
     9
100
AcDbLine
 10
98.712528
 20
18.726462
 30
0.0
 11
82.712528
 21
18.726462
 31
0.0
  0
POLYLINE
  5
FC
330
F6
100
AcDbEntity
  8
001
370
     9
100
AcDb2dPolyline
 66
     1
 10
0.0
 20
0.0
 30
0.0
  0
VERTEX
  5
FE
330
FC
100
AcDbEntity
  8
001
370
     9
100
AcDbVertex
100
AcDb2dVertex
 10
97.212528
 20
19.128386
 30
0.0
  0
VERTEX
  5
FF
330
FC
100
AcDbEntity
  8
001
370
     9
100
AcDbVertex
100
AcDb2dVertex
 10
98.712528
 20
18.726462
 30
0.0
  0
VERTEX
  5
100
330
FC
100
AcDbEntity
  8
001
370
     9
100
AcDbVertex
100
AcDb2dVertex
 10
97.212528
 20
18.324539
 30
0.0
  0
SEQEND
  5
FD
330
FC
100
AcDbEntity
  8
001
370
     9
  0
POLYLINE
  5
101
330
F6
100
AcDbEntity
  8
001
370
     9
100
AcDb2dPolyline
 66
     1
 10
0.0
 20
0.0
 30
0.0
  0
VERTEX
  5
103
330
101
100
AcDbEntity
  8
001
370
     9
100
AcDbVertex
100
AcDb2dVertex
 10
84.212528
 20
18.324539
 30
0.0
  0
VERTEX
  5
104
330
101
100
AcDbEntity
  8
001
370
     9
100
AcDbVertex
100
AcDb2dVertex
 10
82.712528
 20
18.726462
 30
0.0
  0
VERTEX
  5
105
330
101
100
AcDbEntity
  8
001
370
     9
100
AcDbVertex
100
AcDb2dVertex
 10
84.212528
 20
19.128386
 30
0.0
  0
SEQEND
  5
102
330
101
100
AcDbEntity
  8
001
370
     9
  0
TEXT
  5
106
330
F6
100
AcDbEntity
  8
001
370
    30
100
AcDbText
 10
86.712528
 20
19.726462
 30
0.0
 40
4.0
  1
１６
 41
0.833333
100
AcDbText
  0
POINT
  5
107
330
F6
100
AcDbEntity
  8
001
370
     9
100
AcDbPoint
 10
98.712528
 20
53.864002
 30
0.0
  0
POINT
  5
108
330
F6
100
AcDbEntity
  8
001
370
     9
100
AcDbPoint
 10
82.712528
 20
57.163973
 30
0.0
  0
POINT
  5
109
330
F6
100
AcDbEntity
  8
001
370
     9
100
AcDbPoint
 10
82.712528
 20
18.726462
 30
0.0
  0
ENDBLK
  5
F8
330
F6
100
AcDbEntity
  8
0
100
AcDbBlockEnd
  0
BLOCK
  5
10B
330
10A
100
AcDbEntity
  8
0
100
AcDbBlockBegin
  2
*D9
 70
     1
 10
0.0
 20
0.0
 30
0.0
  3
*D9
  1

  0
LINE
  5
10D
330
10A
100
AcDbEntity
  8
001
370
     9
100
AcDbLine
 10
83.262499
 20
55.367002
 30
0.0
 11
83.262499
 21
24.877573
 31
0.0
  0
LINE
  5
10E
330
10A
100
AcDbEntity
  8
001
370
     9
100
AcDbLine
 10
83.262499
 20
27.627573
 30
0.0
 11
82.712528
 21
27.627573
 31
0.0
  0
POLYLINE
  5
10F
330
10A
100
AcDbEntity
  8
001
370
     9
100
AcDb2dPolyline
 66
     1
 10
0.0
 20
0.0
 30
0.0
  0
VERTEX
  5
111
330
10F
100
AcDbEntity
  8
001
370
     9
100
AcDbVertex
100
AcDb2dVertex
 10
84.762499
 20
27.225649
 30
0.0
  0
VERTEX
  5
112
330
10F
100
AcDbEntity
  8
001
370
     9
100
AcDbVertex
100
AcDb2dVertex
 10
83.262499
 20
27.627573
 30
0.0
  0
VERTEX
  5
113
330
10F
100
AcDbEntity
  8
001
370
     9
100
AcDbVertex
100
AcDb2dVertex
 10
84.762499
 20
28.029497
 30
0.0
  0
SEQEND
  5
110
330
10F
100
AcDbEntity
  8
001
370
     9
  0
POLYLINE
  5
114
330
10A
100
AcDbEntity
  8
001
370
     9
100
AcDb2dPolyline
 66
     1
 10
0.0
 20
0.0
 30
0.0
  0
VERTEX
  5
116
330
114
100
AcDbEntity
  8
001
370
     9
100
AcDbVertex
100
AcDb2dVertex
 10
81.212528
 20
28.029497
 30
0.0
  0
VERTEX
  5
117
330
114
100
AcDbEntity
  8
001
370
     9
100
AcDbVertex
100
AcDb2dVertex
 10
82.712528
 20
27.627573
 30
0.0
  0
VERTEX
  5
118
330
114
100
AcDbEntity
  8
001
370
     9
100
AcDbVertex
100
AcDb2dVertex
 10
81.212528
 20
27.225649
 30
0.0
  0
SEQEND
  5
115
330
114
100
AcDbEntity
  8
001
370
     9
  0
TEXT
  5
119
330
10A
100
AcDbEntity
  8
001
370
    30
100
AcDbText
 10
63.212528
 20
28.627573
 30
0.0
 40
4.0
  1
０．５５
 41
0.833333
100
AcDbText
  0
POINT
  5
11A
330
10A
100
AcDbEntity
  8
001
370
     9
100
AcDbPoint
 10
83.262499
 20
55.367002
 30
0.0
  0
POINT
  5
11B
330
10A
100
AcDbEntity
  8
001
370
     9
100
AcDbPoint
 10
82.712528
 20
57.163973
 30
0.0
  0
POINT
  5
11C
330
10A
100
AcDbEntity
  8
001
370
     9
100
AcDbPoint
 10
82.712528
 20
27.627573
 30
0.0
  0
LINE
  5
11D
330
10A
100
AcDbEntity
  8
001
370
     9
100
AcDbLine
 10
83.262499
 20
27.627573
 30
0.0
 11
85.762499
 21
27.627573
 31
0.0
  0
LINE
  5
11E
330
10A
100
AcDbEntity
  8
001
370
     9
100
AcDbLine
 10
82.712528
 20
27.627573
 30
0.0
 11
60.212528
 21
27.627573
 31
0.0
  0
ENDBLK
  5
10C
330
10A
100
AcDbEntity
  8
0
100
AcDbBlockEnd
  0
BLOCK
  5
120
330
11F
100
AcDbEntity
  8
0
100
AcDbBlockBegin
  2
*D10
 70
     1
 10
0.0
 20
0.0
 30
0.0
  3
*D10
  1

  0
LINE
  5
122
330
11F
100
AcDbEntity
  8
001
370
     9
100
AcDbLine
 10
87.162499
 20
55.164002
 30
0.0
 11
87.162499
 21
24.877573
 31
0.0
  0
LINE
  5
123
330
11F
100
AcDbEntity
  8
001
370
     9
100
AcDbLine
 10
83.262499
 20
55.367002
 30
0.0
 11
83.262499
 21
24.877573
 31
0.0
  0
LINE
  5
124
330
11F
100
AcDbEntity
  8
001
370
     9
100
AcDbLine
 10
87.162499
 20
27.627573
 30
0.0
 11
83.262499
 21
27.627573
 31
0.0
  0
POLYLINE
  5
125
330
11F
100
AcDbEntity
  8
001
370
     9
100
AcDb2dPolyline
 66
     1
 10
0.0
 20
0.0
 30
0.0
  0
VERTEX
  5
127
330
125
100
AcDbEntity
  8
001
370
     9
100
AcDbVertex
100
AcDb2dVertex
 10
88.662499
 20
27.225649
 30
0.0
  0
VERTEX
  5
128
330
125
100
AcDbEntity
  8
001
370
     9
100
AcDbVertex
100
AcDb2dVertex
 10
87.162499
 20
27.627573
 30
0.0
  0
VERTEX
  5
129
330
125
100
AcDbEntity
  8
001
370
     9
100
AcDbVertex
100
AcDb2dVertex
 10
88.662499
 20
28.029497
 30
0.0
  0
SEQEND
  5
126
330
125
100
AcDbEntity
  8
001
370
     9
  0
POLYLINE
  5
12A
330
11F
100
AcDbEntity
  8
001
370
     9
100
AcDb2dPolyline
 66
     1
 10
0.0
 20
0.0
 30
0.0
  0
VERTEX
  5
12C
330
12A
100
AcDbEntity
  8
001
370
     9
100
AcDbVertex
100
AcDb2dVertex
 10
81.762499
 20
28.029497
 30
0.0
  0
VERTEX
  5
12D
330
12A
100
AcDbEntity
  8
001
370
     9
100
AcDbVertex
100
AcDb2dVertex
 10
83.262499
 20
27.627573
 30
0.0
  0
VERTEX
  5
12E
330
12A
100
AcDbEntity
  8
001
370
     9
100
AcDbVertex
100
AcDb2dVertex
 10
81.762499
 20
27.225649
 30
0.0
  0
SEQEND
  5
12B
330
12A
100
AcDbEntity
  8
001
370
     9
  0
TEXT
  5
12F
330
11F
100
AcDbEntity
  8
001
370
    30
100
AcDbText
 10
90.117093
 20
28.555425
 30
0.0
 40
4.0
  1
４
 41
0.833333
100
AcDbText
  0
POINT
  5
130
330
11F
100
AcDbEntity
  8
001
370
     9
100
AcDbPoint
 10
87.162499
 20
55.164002
 30
0.0
  0
POINT
  5
131
330
11F
100
AcDbEntity
  8
001
370
     9
100
AcDbPoint
 10
83.262499
 20
55.367002
 30
0.0
  0
POINT
  5
132
330
11F
100
AcDbEntity
  8
001
370
     9
100
AcDbPoint
 10
83.262499
 20
27.627573
 30
0.0
  0
LINE
  5
133
330
11F
100
AcDbEntity
  8
001
370
     9
100
AcDbLine
 10
87.162499
 20
27.627573
 30
0.0
 11
96.662499
 21
27.627573
 31
0.0
  0
LINE
  5
134
330
11F
100
AcDbEntity
  8
001
370
     9
100
AcDbLine
 10
83.262499
 20
27.627573
 30
0.0
 11
80.762499
 21
27.627573
 31
0.0
  0
ENDBLK
  5
121
330
11F
100
AcDbEntity
  8
0
100
AcDbBlockEnd
  0
BLOCK
  5
136
330
135
100
AcDbEntity
  8
0
100
AcDbBlockBegin
  2
*D11
 70
     1
 10
0.0
 20
0.0
 30
0.0
  3
*D11
  1

  0
LINE
  5
138
330
135
100
AcDbEntity
  8
001
370
     9
100
AcDbLine
 10
37.910535
 20
23.706999
 30
0.0
 11
37.910535
 21
19.832182
 31
0.0
  0
LINE
  5
139
330
135
100
AcDbEntity
  8
001
370
     9
100
AcDbLine
 10
33.410535
 20
23.706999
 30
0.0
 11
33.410535
 21
19.832182
 31
0.0
  0
LINE
  5
13A
330
135
100
AcDbEntity
  8
001
370
     9
100
AcDbLine
 10
37.910535
 20
20.748849
 30
0.0
 11
33.410535
 21
20.748849
 31
0.0
  0
POLYLINE
  5
13B
330
135
100
AcDbEntity
  8
001
370
     9
100
AcDb2dPolyline
 66
     1
 10
0.0
 20
0.0
 30
0.0
  0
VERTEX
  5
13D
330
13B
100
AcDbEntity
  8
001
370
     9
100
AcDbVertex
100
AcDb2dVertex
 10
38.410535
 20
20.614875
 30
0.0
  0
VERTEX
  5
13E
330
13B
100
AcDbEntity
  8
001
370
     9
100
AcDbVertex
100
AcDb2dVertex
 10
37.910535
 20
20.748849
 30
0.0
  0
VERTEX
  5
13F
330
13B
100
AcDbEntity
  8
001
370
     9
100
AcDbVertex
100
AcDb2dVertex
 10
38.410535
 20
20.882824
 30
0.0
  0
SEQEND
  5
13C
330
13B
100
AcDbEntity
  8
001
370
     9
  0
POLYLINE
  5
140
330
135
100
AcDbEntity
  8
001
370
     9
100
AcDb2dPolyline
 66
     1
 10
0.0
 20
0.0
 30
0.0
  0
VERTEX
  5
142
330
140
100
AcDbEntity
  8
001
370
     9
100
AcDbVertex
100
AcDb2dVertex
 10
32.910535
 20
20.882824
 30
0.0
  0
VERTEX
  5
143
330
140
100
AcDbEntity
  8
001
370
     9
100
AcDbVertex
100
AcDb2dVertex
 10
33.410535
 20
20.748849
 30
0.0
  0
VERTEX
  5
144
330
140
100
AcDbEntity
  8
001
370
     9
100
AcDbVertex
100
AcDb2dVertex
 10
32.910535
 20
20.614875
 30
0.0
  0
SEQEND
  5
141
330
140
100
AcDbEntity
  8
001
370
     9
  0
TEXT
  5
145
330
135
100
AcDbEntity
  8
001
370
    30
100
AcDbText
 10
39.077202
 20
21.082182
 30
0.0
 40
1.333333
  1
%%c４．５
 41
0.869565
100
AcDbText
  0
POINT
  5
146
330
135
100
AcDbEntity
  8
001
370
     9
100
AcDbPoint
 10
37.910535
 20
23.706999
 30
0.0
  0
POINT
  5
147
330
135
100
AcDbEntity
  8
001
370
     9
100
AcDbPoint
 10
33.410535
 20
23.706999
 30
0.0
  0
POINT
  5
148
330
135
100
AcDbEntity
  8
001
370
     9
100
AcDbPoint
 10
33.410535
 20
20.748849
 30
0.0
  0
LINE
  5
149
330
135
100
AcDbEntity
  8
001
370
     9
100
AcDbLine
 10
37.910535
 20
20.748849
 30
0.0
 11
45.410535
 21
20.748849
 31
0.0
  0
LINE
  5
14A
330
135
100
AcDbEntity
  8
001
370
     9
100
AcDbLine
 10
33.410535
 20
20.748849
 30
0.0
 11
32.577202
 21
20.748849
 31
0.0
  0
ENDBLK
  5
137
330
135
100
AcDbEntity
  8
0
100
AcDbBlockEnd
  0
BLOCK
  5
14C
330
14B
100
AcDbEntity
  8
0
100
AcDbBlockBegin
  2
*D12
 70
     1
 10
0.0
 20
0.0
 30
0.0
  3
*D12
  1

  0
LINE
  5
14E
330
14B
100
AcDbEntity
  8
001
370
     9
100
AcDbLine
 10
43.160535
 20
31.706999
 30
0.0
 11
46.401036
 21
31.706999
 31
0.0
  0
LINE
  5
14F
330
14B
100
AcDbEntity
  8
001
370
     9
100
AcDbLine
 10
39.660535
 20
27.306999
 30
0.0
 11
46.401036
 21
27.306999
 31
0.0
  0
LINE
  5
150
330
14B
100
AcDbEntity
  8
001
370
     9
100
AcDbLine
 10
45.48437
 20
31.706999
 30
0.0
 11
45.48437
 21
27.306999
 31
0.0
  0
POLYLINE
  5
151
330
14B
100
AcDbEntity
  8
001
370
     9
100
AcDb2dPolyline
 66
     1
 10
0.0
 20
0.0
 30
0.0
  0
VERTEX
  5
153
330
151
100
AcDbEntity
  8
001
370
     9
100
AcDbVertex
100
AcDb2dVertex
 10
45.350395
 20
31.206999
 30
0.0
  0
VERTEX
  5
154
330
151
100
AcDbEntity
  8
001
370
     9
100
AcDbVertex
100
AcDb2dVertex
 10
45.48437
 20
31.706999
 30
0.0
  0
VERTEX
  5
155
330
151
100
AcDbEntity
  8
001
370
     9
100
AcDbVertex
100
AcDb2dVertex
 10
45.618344
 20
31.206999
 30
0.0
  0
SEQEND
  5
152
330
151
100
AcDbEntity
  8
001
370
     9
  0
POLYLINE
  5
156
330
14B
100
AcDbEntity
  8
001
370
     9
100
AcDb2dPolyline
 66
     1
 10
0.0
 20
0.0
 30
0.0
  0
VERTEX
  5
158
330
156
100
AcDbEntity
  8
001
370
     9
100
AcDbVertex
100
AcDb2dVertex
 10
45.618344
 20
27.806999
 30
0.0
  0
VERTEX
  5
159
330
156
100
AcDbEntity
  8
001
370
     9
100
AcDbVertex
100
AcDb2dVertex
 10
45.48437
 20
27.306999
 30
0.0
  0
VERTEX
  5
15A
330
156
100
AcDbEntity
  8
001
370
     9
100
AcDbVertex
100
AcDb2dVertex
 10
45.350395
 20
27.806999
 30
0.0
  0
SEQEND
  5
157
330
156
100
AcDbEntity
  8
001
370
     9
  0
TEXT
  5
15B
330
14B
100
AcDbEntity
  8
001
370
    30
100
AcDbText
 10
45.151036
 20
27.506999
 30
0.0
 40
1.333333
  1
４．４
 50
90.000003
 41
0.833333
100
AcDbText
  0
POINT
  5
15C
330
14B
100
AcDbEntity
  8
001
370
     9
100
AcDbPoint
 10
43.160535
 20
31.706999
 30
0.0
  0
POINT
  5
15D
330
14B
100
AcDbEntity
  8
001
370
     9
100
AcDbPoint
 10
39.660535
 20
27.306999
 30
0.0
  0
POINT
  5
15E
330
14B
100
AcDbEntity
  8
001
370
     9
100
AcDbPoint
 10
45.48437
 20
27.306999
 30
0.0
  0
ENDBLK
  5
14D
330
14B
100
AcDbEntity
  8
0
100
AcDbBlockEnd
  0
BLOCK
  5
160
330
15F
100
AcDbEntity
  8
0
100
AcDbBlockBegin
  2
*D13
 70
     1
 10
0.0
 20
0.0
 30
0.0
  3
*D13
  1

  0
LINE
  5
162
330
15F
100
AcDbEntity
  8
001
370
     9
100
AcDbLine
 10
39.660535
 20
31.206999
 30
0.0
 11
39.660535
 21
39.591492
 31
0.0
  0
LINE
  5
163
330
15F
100
AcDbEntity
  8
001
370
     9
100
AcDbLine
 10
31.660535
 20
31.206999
 30
0.0
 11
31.660535
 21
39.591492
 31
0.0
  0
LINE
  5
164
330
15F
100
AcDbEntity
  8
001
370
     9
100
AcDbLine
 10
39.660535
 20
38.674825
 30
0.0
 11
31.660535
 21
38.674825
 31
0.0
  0
POLYLINE
  5
165
330
15F
100
AcDbEntity
  8
001
370
     9
100
AcDb2dPolyline
 66
     1
 10
0.0
 20
0.0
 30
0.0
  0
VERTEX
  5
167
330
165
100
AcDbEntity
  8
001
370
     9
100
AcDbVertex
100
AcDb2dVertex
 10
39.160535
 20
38.8088
 30
0.0
  0
VERTEX
  5
168
330
165
100
AcDbEntity
  8
001
370
     9
100
AcDbVertex
100
AcDb2dVertex
 10
39.660535
 20
38.674825
 30
0.0
  0
VERTEX
  5
169
330
165
100
AcDbEntity
  8
001
370
     9
100
AcDbVertex
100
AcDb2dVertex
 10
39.160535
 20
38.540851
 30
0.0
  0
SEQEND
  5
166
330
165
100
AcDbEntity
  8
001
370
     9
  0
POLYLINE
  5
16A
330
15F
100
AcDbEntity
  8
001
370
     9
100
AcDb2dPolyline
 66
     1
 10
0.0
 20
0.0
 30
0.0
  0
VERTEX
  5
16C
330
16A
100
AcDbEntity
  8
001
370
     9
100
AcDbVertex
100
AcDb2dVertex
 10
32.160535
 20
38.540851
 30
0.0
  0
VERTEX
  5
16D
330
16A
100
AcDbEntity
  8
001
370
     9
100
AcDbVertex
100
AcDb2dVertex
 10
31.660535
 20
38.674825
 30
0.0
  0
VERTEX
  5
16E
330
16A
100
AcDbEntity
  8
001
370
     9
100
AcDbVertex
100
AcDb2dVertex
 10
32.160535
 20
38.8088
 30
0.0
  0
SEQEND
  5
16B
330
16A
100
AcDbEntity
  8
001
370
     9
  0
TEXT
  5
16F
330
15F
100
AcDbEntity
  8
001
370
    30
100
AcDbText
 10
34.280781
 20
39.008159
 30
0.0
 40
1.333333
  1
%%c８
 41
0.909091
100
AcDbText
  0
POINT
  5
170
330
15F
100
AcDbEntity
  8
001
370
     9
100
AcDbPoint
 10
39.660535
 20
31.206999
 30
0.0
  0
POINT
  5
171
330
15F
100
AcDbEntity
  8
001
370
     9
100
AcDbPoint
 10
31.660535
 20
31.206999
 30
0.0
  0
POINT
  5
172
330
15F
100
AcDbEntity
  8
001
370
     9
100
AcDbPoint
 10
31.660535
 20
38.674825
 30
0.0
  0
ENDBLK
  5
161
330
15F
100
AcDbEntity
  8
0
100
AcDbBlockEnd
  0
ENDSEC
  0
SECTION
  2
ENTITIES
  0
DIMENSION
  5
173
330
1F
100
AcDbEntity
  8
001
370
     9
100
AcDbDimension
  2
*D1
 10
177.358119
 20
65.164002
 30
0.0
 11
174.358119
 21
43.664002
 31
0.0
 70
   160
 71
     5
 42
-1.0
  3
Standard
100
AcDbAlignedDimension
 13
155.712528
 23
53.164002
 33
0.0
 14
155.712528
 24
65.164002
 34
0.0
 50
90.0
100
AcDbRotatedDimension
  0
DIMENSION
  5
174
330
1F
100
AcDbEntity
  8
001
370
     9
100
AcDbDimension
  2
*D2
 10
73.873872
 20
63.164002
 30
0.0
 11
70.873872
 21
59.164002
 31
0.0
 70
   160
 71
     5
 42
-1.0
  3
Standard
100
AcDbAlignedDimension
 13
83.464387
 23
55.164002
 33
0.0
 14
83.464387
 24
63.164002
 34
0.0
 50
90.0
100
AcDbRotatedDimension
  0
DIMENSION
  5
175
330
1F
100
AcDbEntity
  8
001
370
     9
100
AcDbDimension
  2
*D3
 10
64.152798
 20
53.914002
 30
0.0
 11
61.152798
 21
59.164002
 31
0.0
 70
   160
 71
     5
 42
-1.0
  3
Standard
100
AcDbAlignedDimension
 13
88.369473
 23
64.414002
 33
0.0
 14
88.369473
 24
53.914002
 34
0.0
 50
270.0
100
AcDbRotatedDimension
  0
DIMENSION
  5
176
330
1F
100
AcDbEntity
  8
001
370
     9
100
AcDbDimension
  2
*D4
 10
80.712499
 20
59.164002
 30
0.0
 11
119.079789
 21
43.27175
 31
0.0
 70
    34
 71
     5
 42
-1.0
  3
Standard
100
AcDb2LineAngularDimension
 13
82.096952
 23
59.164002
 33
0.0
 14
80.712499
 24
59.164002
 34
0.0
 15
83.262499
 25
56.614002
 35
0.0
 16
121.851427
 26
42.1237
 36
0.0
  0
DIMENSION
  5
177
330
1F
100
AcDbEntity
  8
001
370
     9
100
AcDbDimension
  2
*D5
 10
83.162499
 20
59.164002
 30
0.0
 11
109.63101
 21
45.679676
 31
0.0
 70
    34
 71
     5
 42
-1.0
  3
Standard
100
AcDb2LineAngularDimension
 13
82.096952
 23
59.164002
 33
0.0
 14
83.162499
 24
59.164002
 34
0.0
 15
88.412499
 25
53.914002
 35
0.0
 16
113.378322
 26
46.648198
 36
0.0
  0
DIMENSION
  5
178
330
1F
100
AcDbEntity
  8
001
370
     9
100
AcDbDimension
  2
*D6
 10
158.712528
 20
9.817254
 30
0.0
 11
120.712528
 21
12.817254
 31
0.0
 70
   160
 71
     5
 42
-1.0
  3
Standard
100
AcDbAlignedDimension
 13
82.712528
 23
32.077915
 33
0.0
 14
158.712528
 24
56.164002
 34
0.0
100
AcDbRotatedDimension
  0
DIMENSION
  5
179
330
1F
100
AcDbEntity
  8
001
370
     9
100
AcDbDimension
  2
*D7
 10
98.712528
 20
18.726462
 30
0.0
 11
128.712528
 21
21.726462
 31
0.0
 70
   160
 71
     5
 42
-1.0
  3
Standard
100
AcDbAlignedDimension
 13
158.712528
 23
56.164002
 33
0.0
 14
98.712528
 24
53.864002
 34
0.0
 50
180.0
100
AcDbRotatedDimension
  0
DIMENSION
  5
17A
330
1F
100
AcDbEntity
  8
001
370
     9
100
AcDbDimension
  2
*D8
 10
82.712528
 20
18.726462
 30
0.0
 11
90.712528
 21
21.726462
 31
0.0
 70
   160
 71
     5
 42
-1.0
  3
Standard
100
AcDbAlignedDimension
 13
98.712528
 23
53.864002
 33
0.0
 14
82.712528
 24
57.163973
 34
0.0
 50
180.0
100
AcDbRotatedDimension
  0
DIMENSION
  5
17B
330
1F
100
AcDbEntity
  8
001
370
     9
100
AcDbDimension
  2
*D9
 10
82.712528
 20
27.627573
 30
0.0
 11
71.212528
 21
30.627573
 31
0.0
 70
   160
 71
     5
 42
-1.0
  3
Standard
100
AcDbAlignedDimension
 13
83.262499
 23
55.367002
 33
0.0
 14
82.712528
 24
57.163973
 34
0.0
 50
180.0
100
AcDbRotatedDimension
  0
DIMENSION
  5
17C
330
1F
100
AcDbEntity
  8
001
370
     9
100
AcDbDimension
  2
*D10
 10
83.262499
 20
27.627573
 30
0.0
 11
92.117093
 21
30.555425
 31
0.0
 70
   160
 71
     5
 42
-1.0
  3
Standard
100
AcDbAlignedDimension
 13
87.162499
 23
55.164002
 33
0.0
 14
83.262499
 24
55.367002
 34
0.0
 50
180.0
100
AcDbRotatedDimension
  0
DIMENSION
  5
17D
330
1F
100
AcDbEntity
  8
001
370
     9
100
AcDbDimension
  2
*D11
 10
33.410535
 20
20.748849
 30
0.0
 11
41.743869
 21
21.748849
 31
0.0
 70
   160
 71
     5
 42
-1.0
  3
Standard
100
AcDbAlignedDimension
 13
37.910535
 23
23.706999
 33
0.0
 14
33.410535
 24
23.706999
 34
0.0
 50
180.0
100
AcDbRotatedDimension
  0
DIMENSION
  5
17E
330
1F
100
AcDbEntity
  8
001
370
     9
100
AcDbDimension
  2
*D12
 10
45.48437
 20
27.306999
 30
0.0
 11
44.48437
 21
29.506999
 31
0.0
 70
   160
 71
     5
 42
-1.0
  3
Standard
100
AcDbAlignedDimension
 13
43.160535
 23
31.706999
 33
0.0
 14
39.660535
 24
27.306999
 34
0.0
 50
270.0
100
AcDbRotatedDimension
  0
TEXT
  5
17F
330
1F
100
AcDbEntity
  8
001
370
    30
100
AcDbText
 10
34.756706
 20
37.082233
 30
0.0
 40
1.333333
  1
Ｃ０．５
 50
314.999992
 41
0.833333
100
AcDbText
  0
POLYLINE
  5
180
330
1F
100
AcDbEntity
  8
001
370
     9
100
AcDb2dPolyline
 66
     1
 10
0.0
 20
0.0
 30
0.0
  0
VERTEX
  5
182
330
180
100
AcDbEntity
  8
001
370
     9
100
AcDbVertex
100
AcDb2dVertex
 10
39.651716
 20
31.905287
 30
0.0
  0
VERTEX
  5
183
330
180
100
AcDbEntity
  8
001
370
     9
100
AcDbVertex
100
AcDb2dVertex
 10
39.910535
 20
31.456999
 30
0.0
  0
VERTEX
  5
184
330
180
100
AcDbEntity
  8
001
370
     9
100
AcDbVertex
100
AcDb2dVertex
 10
39.462248
 20
31.715818
 30
0.0
  0
SEQEND
  5
181
330
180
100
AcDbEntity
  8
001
370
     9
  0
LINE
  5
185
330
1F
100
AcDbEntity
  8
001
370
     9
100
AcDbLine
 10
39.910535
 20
31.456999
 30
0.0
 11
33.813897
 21
37.553638
 31
0.0
  0
TEXT
  5
186
330
1F
100
AcDbEntity
  8
001
370
    30
100
AcDbText
 10
26.537209
 20
39.15173
 30
0.0
 40
1.333333
  1
Ｃ０．３
 50
314.999992
 41
0.833333
100
AcDbText
  0
POLYLINE
  5
187
330
1F
100
AcDbEntity
  8
001
370
     9
100
AcDb2dPolyline
 66
     1
 10
0.0
 20
0.0
 30
0.0
  0
VERTEX
  5
189
330
187
100
AcDbEntity
  8
001
370
     9
100
AcDbVertex
100
AcDb2dVertex
 10
37.801716
 20
27.605287
 30
0.0
  0
VERTEX
  5
18A
330
187
100
AcDbEntity
  8
001
370
     9
100
AcDbVertex
100
AcDb2dVertex
 10
38.060535
 20
27.156999
 30
0.0
  0
VERTEX
  5
18B
330
187
100
AcDbEntity
  8
001
370
     9
100
AcDbVertex
100
AcDb2dVertex
 10
37.612248
 20
27.415818
 30
0.0
  0
SEQEND
  5
188
330
187
100
AcDbEntity
  8
001
370
     9
  0
LINE
  5
18C
330
1F
100
AcDbEntity
  8
001
370
     9
100
AcDbLine
 10
38.060535
 20
27.156999
 30
0.0
 11
25.5944
 21
39.623134
 31
0.0
  0
DIMENSION
  5
18D
330
1F
100
AcDbEntity
  8
001
370
     9
100
AcDbDimension
  2
*D13
 10
31.660535
 20
38.674825
 30
0.0
 11
35.614115
 21
39.674825
 31
0.0
 70
   160
 71
     5
 42
-1.0
  3
Standard
100
AcDbAlignedDimension
 13
39.660535
 23
31.206999
 33
0.0
 14
31.660535
 24
31.206999
 34
0.0
 50
180.0
100
AcDbRotatedDimension
  0
TEXT
  5
18E
330
1F
100
AcDbEntity
  8
001
370
    30
100
AcDbText
 10
23.134687
 20
80.14375
 30
0.0
 40
10.0
  1
イーグルカット　ＥＣ１２－８ＸＸ－Ｍ４
 41
0.833333
100
AcDbText
  0
CIRCLE
  5
18F
330
1F
100
AcDbEntity
  8
001
370
    50
100
AcDbCircle
 10
86.656243
 20
57.932544
 30
0.0
 40
1.2
  0
LINE
  5
190
330
1F
100
AcDbEntity
  8
001
370
    50
100
AcDbLine
 10
86.944918
 20
58.432544
 30
0.0
 11
86.829448
 21
58.632544
 31
0.0
  0
LINE
  5
191
330
1F
100
AcDbEntity
  8
001
370
    50
100
AcDbLine
 10
86.367567
 20
58.432544
 30
0.0
 11
86.483037
 21
58.632544
 31
0.0
  0
ARC
  5
192
330
1F
100
AcDbEntity
  8
001
370
    50
100
AcDbCircle
 10
86.656243
 20
58.532544
 30
0.0
 40
0.2
100
AcDbArc
 50
30.0
 51
150.0
  0
LINE
  5
193
330
1F
100
AcDbEntity
  8
001
370
    50
100
AcDbLine
 10
86.367567
 20
58.432544
 30
0.0
 11
86.136627
 21
58.432544
 31
0.0
  0
LINE
  5
194
330
1F
100
AcDbEntity
  8
001
370
    50
100
AcDbLine
 10
86.078892
 20
57.932544
 30
0.0
 11
85.963422
 21
58.132544
 31
0.0
  0
ARC
  5
195
330
1F
100
AcDbEntity
  8
001
370
    50
100
AcDbCircle
 10
86.136627
 20
58.232544
 30
0.0
 40
0.2
100
AcDbArc
 50
90.0
 51
210.0
  0
LINE
  5
196
330
1F
100
AcDbEntity
  8
001
370
    50
100
AcDbLine
 10
86.078892
 20
57.932544
 30
0.0
 11
85.963422
 21
57.732544
 31
0.0
  0
LINE
  5
197
330
1F
100
AcDbEntity
  8
001
370
    50
100
AcDbLine
 10
86.367567
 20
57.432544
 30
0.0
 11
86.136627
 21
57.432544
 31
0.0
  0
ARC
  5
198
330
1F
100
AcDbEntity
  8
001
370
    50
100
AcDbCircle
 10
86.136627
 20
57.632544
 30
0.0
 40
0.2
100
AcDbArc
 50
150.0
 51
270.0
  0
LINE
  5
199
330
1F
100
AcDbEntity
  8
001
370
    50
100
AcDbLine
 10
86.367567
 20
57.432544
 30
0.0
 11
86.483037
 21
57.232544
 31
0.0
  0
LINE
  5
19A
330
1F
100
AcDbEntity
  8
001
370
    50
100
AcDbLine
 10
86.944918
 20
57.432544
 30
0.0
 11
86.829448
 21
57.232544
 31
0.0
  0
ARC
  5
19B
330
1F
100
AcDbEntity
  8
001
370
    50
100
AcDbCircle
 10
86.656243
 20
57.332544
 30
0.0
 40
0.2
100
AcDbArc
 50
210.0
 51
330.0
  0
LINE
  5
19C
330
1F
100
AcDbEntity
  8
001
370
    50
100
AcDbLine
 10
86.944918
 20
57.432544
 30
0.0
 11
87.175858
 21
57.432544
 31
0.0
  0
LINE
  5
19D
330
1F
100
AcDbEntity
  8
001
370
    50
100
AcDbLine
 10
87.233593
 20
57.932544
 30
0.0
 11
87.349063
 21
57.732544
 31
0.0
  0
ARC
  5
19E
330
1F
100
AcDbEntity
  8
001
370
    50
100
AcDbCircle
 10
87.175858
 20
57.632544
 30
0.0
 40
0.2
100
AcDbArc
 50
270.0
 51
30.0
  0
LINE
  5
19F
330
1F
100
AcDbEntity
  8
001
370
    50
100
AcDbLine
 10
87.233593
 20
57.932544
 30
0.0
 11
87.349063
 21
58.132544
 31
0.0
  0
LINE
  5
1A0
330
1F
100
AcDbEntity
  8
001
370
    50
100
AcDbLine
 10
86.944918
 20
58.432544
 30
0.0
 11
87.175858
 21
58.432544
 31
0.0
  0
ARC
  5
1A1
330
1F
100
AcDbEntity
  8
001
370
    50
100
AcDbCircle
 10
87.175858
 20
58.232544
 30
0.0
 40
0.2
100
AcDbArc
 50
330.0
 51
90.0
  0
POLYLINE
  5
1A2
330
1F
100
AcDbEntity
  8
001
370
    50
100
AcDb2dPolyline
 66
     1
 10
0.0
 20
0.0
 30
0.0
  0
VERTEX
  5
1A4
330
1A2
100
AcDbEntity
  8
001
370
    50
100
AcDbVertex
100
AcDb2dVertex
 10
82.914416
 20
60.364002
 30
0.0
  0
VERTEX
  5
1A5
330
1A2
100
AcDbEntity
  8
001
370
    50
100
AcDbVertex
100
AcDb2dVertex
 10
82.899616
 20
60.363229
 30
0.0
  0
VERTEX
  5
1A6
330
1A2
100
AcDbEntity
  8
001
370
    50
100
AcDbVertex
100
AcDb2dVertex
 10
82.879359
 20
60.360918
 30
0.0
  0
VERTEX
  5
1A7
330
1A2
100
AcDbEntity
  8
001
370
    50
100
AcDbVertex
100
AcDb2dVertex
 10
82.861412
 20
60.357084
 30
0.0
  0
VERTEX
  5
1A8
330
1A2
100
AcDbEntity
  8
001
370
    50
100
AcDbVertex
100
AcDb2dVertex
 10
82.845366
 20
60.35176
 30
0.0
  0
VERTEX
  5
1A9
330
1A2
100
AcDbEntity
  8
001
370
    50
100
AcDbVertex
100
AcDb2dVertex
 10
82.829293
 20
60.34498
 30
0.0
  0
VERTEX
  5
1AA
330
1A2
100
AcDbEntity
  8
001
370
    50
100
AcDbVertex
100
AcDb2dVertex
 10
82.813472
 20
60.336805
 30
0.0
  0
VERTEX
  5
1AB
330
1A2
100
AcDbEntity
  8
001
370
    50
100
AcDbVertex
100
AcDb2dVertex
 10
82.798561
 20
60.327291
 30
0.0
  0
VERTEX
  5
1AC
330
1A2
100
AcDbEntity
  8
001
370
    50
100
AcDbVertex
100
AcDb2dVertex
 10
82.784645
 20
60.316509
 30
0.0
  0
VERTEX
  5
1AD
330
1A2
100
AcDbEntity
  8
001
370
    50
100
AcDbVertex
100
AcDb2dVertex
 10
82.771672
 20
60.304527
 30
0.0
  0
VERTEX
  5
1AE
330
1A2
100
AcDbEntity
  8
001
370
    50
100
AcDbVertex
100
AcDb2dVertex
 10
82.759761
 20
60.291488
 30
0.0
  0
VERTEX
  5
1AF
330
1A2
100
AcDbEntity
  8
001
370
    50
100
AcDbVertex
100
AcDb2dVertex
 10
82.749033
 20
60.277488
 30
0.0
  0
VERTEX
  5
1B0
330
1A2
100
AcDbEntity
  8
001
370
    50
100
AcDbVertex
100
AcDb2dVertex
 10
82.739576
 20
60.262502
 30
0.0
  0
VERTEX
  5
1B1
330
1A2
100
AcDbEntity
  8
001
370
    50
100
AcDbVertex
100
AcDb2dVertex
 10
82.731444
 20
60.246589
 30
0.0
  0
VERTEX
  5
1B2
330
1A2
100
AcDbEntity
  8
001
370
    50
100
AcDbVertex
100
AcDb2dVertex
 10
82.724703
 20
60.230432
 30
0.0
  0
VERTEX
  5
1B3
330
1A2
100
AcDbEntity
  8
001
370
    50
100
AcDbVertex
100
AcDb2dVertex
 10
82.719407
 20
60.214293
 30
0.0
  0
VERTEX
  5
1B4
330
1A2
100
AcDbEntity
  8
001
370
    50
100
AcDbVertex
100
AcDb2dVertex
 10
82.715595
 20
60.196253
 30
0.0
  0
VERTEX
  5
1B5
330
1A2
100
AcDbEntity
  8
001
370
    50
100
AcDbVertex
100
AcDb2dVertex
 10
82.713297
 20
60.175883
 30
0.0
  0
VERTEX
  5
1B6
330
1A2
100
AcDbEntity
  8
001
370
    50
100
AcDbVertex
100
AcDb2dVertex
 10
82.712528
 20
60.161002
 30
0.0
  0
SEQEND
  5
1A3
330
1A2
100
AcDbEntity
  8
001
370
    50
  0
POLYLINE
  5
1B7
330
1F
100
AcDbEntity
  8
001
370
    50
100
AcDb2dPolyline
 66
     1
 10
0.0
 20
0.0
 30
0.0
  0
VERTEX
  5
1B9
330
1B7
100
AcDbEntity
  8
001
370
    50
100
AcDbVertex
100
AcDb2dVertex
 10
86.690616
 20
59.464002
 30
0.0
  0
VERTEX
  5
1BA
330
1B7
100
AcDbEntity
  8
001
370
    50
100
AcDbVertex
100
AcDb2dVertex
 10
86.581254
 20
59.458289
 30
0.0
  0
VERTEX
  5
1BB
330
1B7
100
AcDbEntity
  8
001
370
    50
100
AcDbVertex
100
AcDb2dVertex
 10
86.43157
 20
59.441214
 30
0.0
  0
VERTEX
  5
1BC
330
1B7
100
AcDbEntity
  8
001
370
    50
100
AcDbVertex
100
AcDb2dVertex
 10
86.298961
 20
59.412885
 30
0.0
  0
VERTEX
  5
1BD
330
1B7
100
AcDbEntity
  8
001
370
    50
100
AcDbVertex
100
AcDb2dVertex
 10
86.180396
 20
59.373541
 30
0.0
  0
VERTEX
  5
1BE
330
1B7
100
AcDbEntity
  8
001
370
    50
100
AcDbVertex
100
AcDb2dVertex
 10
86.061627
 20
59.323442
 30
0.0
  0
VERTEX
  5
1BF
330
1B7
100
AcDbEntity
  8
001
370
    50
100
AcDbVertex
100
AcDb2dVertex
 10
85.944724
 20
59.26304
 30
0.0
  0
VERTEX
  5
1C0
330
1B7
100
AcDbEntity
  8
001
370
    50
100
AcDbVertex
100
AcDb2dVertex
 10
85.834544
 20
59.192739
 30
0.0
  0
VERTEX
  5
1C1
330
1B7
100
AcDbEntity
  8
001
370
    50
100
AcDbVertex
100
AcDb2dVertex
 10
85.731716
 20
59.113069
 30
0.0
  0
VERTEX
  5
1C2
330
1B7
100
AcDbEntity
  8
001
370
    50
100
AcDbVertex
100
AcDb2dVertex
 10
85.635853
 20
59.024531
 30
0.0
  0
VERTEX
  5
1C3
330
1B7
100
AcDbEntity
  8
001
370
    50
100
AcDbVertex
100
AcDb2dVertex
 10
85.547844
 20
58.928183
 30
0.0
  0
VERTEX
  5
1C4
330
1B7
100
AcDbEntity
  8
001
370
    50
100
AcDbVertex
100
AcDb2dVertex
 10
85.468576
 20
58.824739
 30
0.0
  0
VERTEX
  5
1C5
330
1B7
100
AcDbEntity
  8
001
370
    50
100
AcDbVertex
100
AcDb2dVertex
 10
85.398694
 20
58.714002
 30
0.0
  0
VERTEX
  5
1C6
330
1B7
100
AcDbEntity
  8
001
370
    50
100
AcDbVertex
100
AcDb2dVertex
 10
85.338602
 20
58.596417
 30
0.0
  0
VERTEX
  5
1C7
330
1B7
100
AcDbEntity
  8
001
370
    50
100
AcDbVertex
100
AcDb2dVertex
 10
85.288798
 20
58.477032
 30
0.0
  0
VERTEX
  5
1C8
330
1B7
100
AcDbEntity
  8
001
370
    50
100
AcDbVertex
100
AcDb2dVertex
 10
85.249661
 20
58.357777
 30
0.0
  0
VERTEX
  5
1C9
330
1B7
100
AcDbEntity
  8
001
370
    50
100
AcDbVertex
100
AcDb2dVertex
 10
85.221496
 20
58.224474
 30
0.0
  0
VERTEX
  5
1CA
330
1B7
100
AcDbEntity
  8
001
370
    50
100
AcDbVertex
100
AcDb2dVertex
 10
85.204513
 20
58.073959
 30
0.0
  0
VERTEX
  5
1CB
330
1B7
100
AcDbEntity
  8
001
370
    50
100
AcDbVertex
100
AcDb2dVertex
 10
85.198833
 20
57.964002
 30
0.0
  0
SEQEND
  5
1B8
330
1B7
100
AcDbEntity
  8
001
370
    50
  0
POLYLINE
  5
1CC
330
1F
100
AcDbEntity
  8
001
370
    50
100
AcDb2dPolyline
 66
     1
 10
0.0
 20
0.0
 30
0.0
  0
VERTEX
  5
1CE
330
1CC
100
AcDbEntity
  8
001
370
    50
100
AcDbVertex
100
AcDb2dVertex
 10
90.668703
 20
60.161002
 30
0.0
  0
VERTEX
  5
1CF
330
1CC
100
AcDbEntity
  8
001
370
    50
100
AcDbVertex
100
AcDb2dVertex
 10
90.667935
 20
60.175883
 30
0.0
  0
VERTEX
  5
1D0
330
1CC
100
AcDbEntity
  8
001
370
    50
100
AcDbVertex
100
AcDb2dVertex
 10
90.665636
 20
60.196253
 30
0.0
  0
VERTEX
  5
1D1
330
1CC
100
AcDbEntity
  8
001
370
    50
100
AcDbVertex
100
AcDb2dVertex
 10
90.661824
 20
60.214293
 30
0.0
  0
VERTEX
  5
1D2
330
1CC
100
AcDbEntity
  8
001
370
    50
100
AcDbVertex
100
AcDb2dVertex
 10
90.656528
 20
60.230432
 30
0.0
  0
VERTEX
  5
1D3
330
1CC
100
AcDbEntity
  8
001
370
    50
100
AcDbVertex
100
AcDb2dVertex
 10
90.649788
 20
60.246589
 30
0.0
  0
VERTEX
  5
1D4
330
1CC
100
AcDbEntity
  8
001
370
    50
100
AcDbVertex
100
AcDb2dVertex
 10
90.641655
 20
60.262502
 30
0.0
  0
VERTEX
  5
1D5
330
1CC
100
AcDbEntity
  8
001
370
    50
100
AcDbVertex
100
AcDb2dVertex
 10
90.632198
 20
60.277488
 30
0.0
  0
VERTEX
  5
1D6
330
1CC
100
AcDbEntity
  8
001
370
    50
100
AcDbVertex
100
AcDb2dVertex
 10
90.62147
 20
60.291488
 30
0.0
  0
VERTEX
  5
1D7
330
1CC
100
AcDbEntity
  8
001
370
    50
100
AcDbVertex
100
AcDb2dVertex
 10
90.60956
 20
60.304527
 30
0.0
  0
VERTEX
  5
1D8
330
1CC
100
AcDbEntity
  8
001
370
    50
100
AcDbVertex
100
AcDb2dVertex
 10
90.596586
 20
60.316509
 30
0.0
  0
VERTEX
  5
1D9
330
1CC
100
AcDbEntity
  8
001
370
    50
100
AcDbVertex
100
AcDb2dVertex
 10
90.58267
 20
60.327291
 30
0.0
  0
VERTEX
  5
1DA
330
1CC
100
AcDbEntity
  8
001
370
    50
100
AcDbVertex
100
AcDb2dVertex
 10
90.567759
 20
60.336805
 30
0.0
  0
VERTEX
  5
1DB
330
1CC
100
AcDbEntity
  8
001
370
    50
100
AcDbVertex
100
AcDb2dVertex
 10
90.551938
 20
60.34498
 30
0.0
  0
VERTEX
  5
1DC
330
1CC
100
AcDbEntity
  8
001
370
    50
100
AcDbVertex
100
AcDb2dVertex
 10
90.535865
 20
60.35176
 30
0.0
  0
VERTEX
  5
1DD
330
1CC
100
AcDbEntity
  8
001
370
    50
100
AcDbVertex
100
AcDb2dVertex
 10
90.519819
 20
60.357084
 30
0.0
  0
VERTEX
  5
1DE
330
1CC
100
AcDbEntity
  8
001
370
    50
100
AcDbVertex
100
AcDb2dVertex
 10
90.501873
 20
60.360918
 30
0.0
  0
VERTEX
  5
1DF
330
1CC
100
AcDbEntity
  8
001
370
    50
100
AcDbVertex
100
AcDb2dVertex
 10
90.481616
 20
60.363229
 30
0.0
  0
VERTEX
  5
1E0
330
1CC
100
AcDbEntity
  8
001
370
    50
100
AcDbVertex
100
AcDb2dVertex
 10
90.466815
 20
60.364002
 30
0.0
  0
SEQEND
  5
1CD
330
1CC
100
AcDbEntity
  8
001
370
    50
  0
LINE
  5
1E1
330
1F
100
AcDbEntity
  8
001
370
    50
100
AcDbLine
 10
90.668703
 20
54.117002
 30
0.0
 11
90.668703
 21
60.161002
 31
0.0
  0
LINE
  5
1E2
330
1F
100
AcDbEntity
  8
001
370
    50
100
AcDbLine
 10
88.412499
 20
53.914002
 30
0.0
 11
90.466815
 21
53.914002
 31
0.0
  0
LINE
  5
1E3
330
1F
100
AcDbEntity
  8
001
370
    50
100
AcDbLine
 10
87.162499
 20
55.164002
 30
0.0
 11
83.464387
 21
55.164002
 31
0.0
  0
POLYLINE
  5
1E4
330
1F
100
AcDbEntity
  8
001
370
    50
100
AcDb2dPolyline
 66
     1
 10
0.0
 20
0.0
 30
0.0
  0
VERTEX
  5
1E6
330
1E4
100
AcDbEntity
  8
001
370
    50
100
AcDbVertex
100
AcDb2dVertex
 10
83.262499
 20
55.367002
 30
0.0
  0
VERTEX
  5
1E7
330
1E4
100
AcDbEntity
  8
001
370
    50
100
AcDbVertex
100
AcDb2dVertex
 10
83.263471
 20
55.350269
 30
0.0
  0
VERTEX
  5
1E8
330
1E4
100
AcDbEntity
  8
001
370
    50
100
AcDbVertex
100
AcDb2dVertex
 10
83.266378
 20
55.327399
 30
0.0
  0
VERTEX
  5
1E9
330
1E4
100
AcDbEntity
  8
001
370
    50
100
AcDbVertex
100
AcDb2dVertex
 10
83.271193
 20
55.30723
 30
0.0
  0
VERTEX
  5
1EA
330
1E4
100
AcDbEntity
  8
001
370
    50
100
AcDbVertex
100
AcDb2dVertex
 10
83.277866
 20
55.289317
 30
0.0
  0
VERTEX
  5
1EB
330
1E4
100
AcDbEntity
  8
001
370
    50
100
AcDbVertex
100
AcDb2dVertex
 10
83.286332
 20
55.271539
 30
0.0
  0
VERTEX
  5
1EC
330
1E4
100
AcDbEntity
  8
001
370
    50
100
AcDbVertex
100
AcDb2dVertex
 10
83.296523
 20
55.254221
 30
0.0
  0
VERTEX
  5
1ED
330
1E4
100
AcDbEntity
  8
001
370
    50
100
AcDbVertex
100
AcDb2dVertex
 10
83.308339
 20
55.238164
 30
0.0
  0
VERTEX
  5
1EE
330
1E4
100
AcDbEntity
  8
001
370
    50
100
AcDbVertex
100
AcDb2dVertex
 10
83.32163
 20
55.223459
 30
0.0
  0
VERTEX
  5
1EF
330
1E4
100
AcDbEntity
  8
001
370
    50
100
AcDbVertex
100
AcDb2dVertex
 10
83.336246
 20
55.210101
 30
0.0
  0
VERTEX
  5
1F0
330
1E4
100
AcDbEntity
  8
001
370
    50
100
AcDbVertex
100
AcDb2dVertex
 10
83.352224
 20
55.198214
 30
0.0
  0
VERTEX
  5
1F1
330
1E4
100
AcDbEntity
  8
001
370
    50
100
AcDbVertex
100
AcDb2dVertex
 10
83.36944
 20
55.18797
 30
0.0
  0
VERTEX
  5
1F2
330
1E4
100
AcDbEntity
  8
001
370
    50
100
AcDbVertex
100
AcDb2dVertex
 10
83.387127
 20
55.179454
 30
0.0
  0
VERTEX
  5
1F3
330
1E4
100
AcDbEntity
  8
001
370
    50
100
AcDbVertex
100
AcDb2dVertex
 10
83.404935
 20
55.172746
 30
0.0
  0
VERTEX
  5
1F4
330
1E4
100
AcDbEntity
  8
001
370
    50
100
AcDbVertex
100
AcDb2dVertex
 10
83.425
 20
55.167903
 30
0.0
  0
VERTEX
  5
1F5
330
1E4
100
AcDbEntity
  8
001
370
    50
100
AcDbVertex
100
AcDb2dVertex
 10
83.447744
 20
55.16498
 30
0.0
  0
VERTEX
  5
1F6
330
1E4
100
AcDbEntity
  8
001
370
    50
100
AcDbVertex
100
AcDb2dVertex
 10
83.464387
 20
55.164002
 30
0.0
  0
SEQEND
  5
1E5
330
1E4
100
AcDbEntity
  8
001
370
    50
  0
LINE
  5
1F7
330
1F
100
AcDbEntity
  8
001
370
    50
100
AcDbLine
 10
82.712528
 20
57.163973
 30
0.0
 11
82.712528
 21
60.161002
 31
0.0
  0
POLYLINE
  5
1F8
330
1F
100
AcDbEntity
  8
001
370
    50
100
AcDb2dPolyline
 66
     1
 10
0.0
 20
0.0
 30
0.0
  0
VERTEX
  5
1FA
330
1F8
100
AcDbEntity
  8
001
370
    50
100
AcDbVertex
100
AcDb2dVertex
 10
85.198833
 20
57.964002
 30
0.0
  0
VERTEX
  5
1FB
330
1F8
100
AcDbEntity
  8
001
370
    50
100
AcDbVertex
100
AcDb2dVertex
 10
85.206019
 20
57.840359
 30
0.0
  0
VERTEX
  5
1FC
330
1F8
100
AcDbEntity
  8
001
370
    50
100
AcDbVertex
100
AcDb2dVertex
 10
85.227497
 20
57.671367
 30
0.0
  0
VERTEX
  5
1FD
330
1F8
100
AcDbEntity
  8
001
370
    50
100
AcDbVertex
100
AcDb2dVertex
 10
85.263076
 20
57.522339
 30
0.0
  0
VERTEX
  5
1FE
330
1F8
100
AcDbEntity
  8
001
370
    50
100
AcDbVertex
100
AcDb2dVertex
 10
85.312388
 20
57.389977
 30
0.0
  0
VERTEX
  5
1FF
330
1F8
100
AcDbEntity
  8
001
370
    50
100
AcDbVertex
100
AcDb2dVertex
 10
85.374938
 20
57.258614
 30
0.0
  0
VERTEX
  5
200
330
1F8
100
AcDbEntity
  8
001
370
    50
100
AcDbVertex
100
AcDb2dVertex
 10
85.450244
 20
57.130647
 30
0.0
  0
VERTEX
  5
201
330
1F8
100
AcDbEntity
  8
001
370
    50
100
AcDbVertex
100
AcDb2dVertex
 10
85.537552
 20
57.011997
 30
0.0
  0
VERTEX
  5
202
330
1F8
100
AcDbEntity
  8
001
370
    50
100
AcDbVertex
100
AcDb2dVertex
 10
85.635766
 20
56.903342
 30
0.0
  0
VERTEX
  5
203
330
1F8
100
AcDbEntity
  8
001
370
    50
100
AcDbVertex
100
AcDb2dVertex
 10
85.743764
 20
56.804635
 30
0.0
  0
VERTEX
  5
204
330
1F8
100
AcDbEntity
  8
001
370
    50
100
AcDbVertex
100
AcDb2dVertex
 10
85.861826
 20
56.716798
 30
0.0
  0
VERTEX
  5
205
330
1F8
100
AcDbEntity
  8
001
370
    50
100
AcDbVertex
100
AcDb2dVertex
 10
85.989041
 20
56.641109
 30
0.0
  0
VERTEX
  5
206
330
1F8
100
AcDbEntity
  8
001
370
    50
100
AcDbVertex
100
AcDb2dVertex
 10
86.119735
 20
56.578183
 30
0.0
  0
VERTEX
  5
207
330
1F8
100
AcDbEntity
  8
001
370
    50
100
AcDbVertex
100
AcDb2dVertex
 10
86.25132
 20
56.528612
 30
0.0
  0
VERTEX
  5
208
330
1F8
100
AcDbEntity
  8
001
370
    50
100
AcDbVertex
100
AcDb2dVertex
 10
86.399583
 20
56.492824
 30
0.0
  0
VERTEX
  5
209
330
1F8
100
AcDbEntity
  8
001
370
    50
100
AcDbVertex
100
AcDb2dVertex
 10
86.567641
 20
56.47123
 30
0.0
  0
VERTEX
  5
20A
330
1F8
100
AcDbEntity
  8
001
370
    50
100
AcDbVertex
100
AcDb2dVertex
 10
86.690616
 20
56.464002
 30
0.0
  0
SEQEND
  5
1F9
330
1F8
100
AcDbEntity
  8
001
370
    50
  0
POLYLINE
  5
20B
330
1F
100
AcDbEntity
  8
001
370
    50
100
AcDb2dPolyline
 66
     1
 10
0.0
 20
0.0
 30
0.0
  0
VERTEX
  5
20D
330
20B
100
AcDbEntity
  8
001
370
    50
100
AcDbVertex
100
AcDb2dVertex
 10
86.690616
 20
56.464002
 30
0.0
  0
VERTEX
  5
20E
330
20B
100
AcDbEntity
  8
001
370
    50
100
AcDbVertex
100
AcDb2dVertex
 10
86.799977
 20
56.469714
 30
0.0
  0
VERTEX
  5
20F
330
20B
100
AcDbEntity
  8
001
370
    50
100
AcDbVertex
100
AcDb2dVertex
 10
86.949661
 20
56.48679
 30
0.0
  0
VERTEX
  5
210
330
20B
100
AcDbEntity
  8
001
370
    50
100
AcDbVertex
100
AcDb2dVertex
 10
87.082271
 20
56.515121
 30
0.0
  0
VERTEX
  5
211
330
20B
100
AcDbEntity
  8
001
370
    50
100
AcDbVertex
100
AcDb2dVertex
 10
87.200835
 20
56.554463
 30
0.0
  0
VERTEX
  5
212
330
20B
100
AcDbEntity
  8
001
370
    50
100
AcDbVertex
100
AcDb2dVertex
 10
87.319605
 20
56.604554
 30
0.0
  0
VERTEX
  5
213
330
20B
100
AcDbEntity
  8
001
370
    50
100
AcDbVertex
100
AcDb2dVertex
 10
87.436507
 20
56.664964
 30
0.0
  0
VERTEX
  5
214
330
20B
100
AcDbEntity
  8
001
370
    50
100
AcDbVertex
100
AcDb2dVertex
 10
87.546688
 20
56.735294
 30
0.0
  0
VERTEX
  5
215
330
20B
100
AcDbEntity
  8
001
370
    50
100
AcDbVertex
100
AcDb2dVertex
 10
87.649515
 20
56.814935
 30
0.0
  0
VERTEX
  5
216
330
20B
100
AcDbEntity
  8
001
370
    50
100
AcDbVertex
100
AcDb2dVertex
 10
87.745378
 20
56.903366
 30
0.0
  0
VERTEX
  5
217
330
20B
100
AcDbEntity
  8
001
370
    50
100
AcDbVertex
100
AcDb2dVertex
 10
87.833388
 20
56.999821
 30
0.0
  0
VERTEX
  5
218
330
20B
100
AcDbEntity
  8
001
370
    50
100
AcDbVertex
100
AcDb2dVertex
 10
87.912655
 20
57.103663
 30
0.0
  0
VERTEX
  5
219
330
20B
100
AcDbEntity
  8
001
370
    50
100
AcDbVertex
100
AcDb2dVertex
 10
87.982537
 20
57.214002
 30
0.0
  0
VERTEX
  5
21A
330
20B
100
AcDbEntity
  8
001
370
    50
100
AcDbVertex
100
AcDb2dVertex
 10
88.042629
 20
57.330098
 30
0.0
  0
VERTEX
  5
21B
330
20B
100
AcDbEntity
  8
001
370
    50
100
AcDbVertex
100
AcDb2dVertex
 10
88.092433
 20
57.450972
 30
0.0
  0
VERTEX
  5
21C
330
20B
100
AcDbEntity
  8
001
370
    50
100
AcDbVertex
100
AcDb2dVertex
 10
88.13157
 20
57.575789
 30
0.0
  0
VERTEX
  5
21D
330
20B
100
AcDbEntity
  8
001
370
    50
100
AcDbVertex
100
AcDb2dVertex
 10
88.159735
 20
57.70353
 30
0.0
  0
VERTEX
  5
21E
330
20B
100
AcDbEntity
  8
001
370
    50
100
AcDbVertex
100
AcDb2dVertex
 10
88.176718
 20
57.833274
 30
0.0
  0
VERTEX
  5
21F
330
20B
100
AcDbEntity
  8
001
370
    50
100
AcDbVertex
100
AcDb2dVertex
 10
88.182398
 20
57.964002
 30
0.0
  0
VERTEX
  5
220
330
20B
100
AcDbEntity
  8
001
370
    50
100
AcDbVertex
100
AcDb2dVertex
 10
88.176718
 20
58.09473
 30
0.0
  0
VERTEX
  5
221
330
20B
100
AcDbEntity
  8
001
370
    50
100
AcDbVertex
100
AcDb2dVertex
 10
88.159735
 20
58.224474
 30
0.0
  0
VERTEX
  5
222
330
20B
100
AcDbEntity
  8
001
370
    50
100
AcDbVertex
100
AcDb2dVertex
 10
88.13157
 20
58.352215
 30
0.0
  0
VERTEX
  5
223
330
20B
100
AcDbEntity
  8
001
370
    50
100
AcDbVertex
100
AcDb2dVertex
 10
88.092433
 20
58.477032
 30
0.0
  0
VERTEX
  5
224
330
20B
100
AcDbEntity
  8
001
370
    50
100
AcDbVertex
100
AcDb2dVertex
 10
88.042629
 20
58.597906
 30
0.0
  0
VERTEX
  5
225
330
20B
100
AcDbEntity
  8
001
370
    50
100
AcDbVertex
100
AcDb2dVertex
 10
87.982537
 20
58.714002
 30
0.0
  0
VERTEX
  5
226
330
20B
100
AcDbEntity
  8
001
370
    50
100
AcDbVertex
100
AcDb2dVertex
 10
87.912655
 20
58.824341
 30
0.0
  0
VERTEX
  5
227
330
20B
100
AcDbEntity
  8
001
370
    50
100
AcDbVertex
100
AcDb2dVertex
 10
87.833388
 20
58.928183
 30
0.0
  0
VERTEX
  5
228
330
20B
100
AcDbEntity
  8
001
370
    50
100
AcDbVertex
100
AcDb2dVertex
 10
87.745378
 20
59.024637
 30
0.0
  0
VERTEX
  5
229
330
20B
100
AcDbEntity
  8
001
370
    50
100
AcDbVertex
100
AcDb2dVertex
 10
87.649515
 20
59.113069
 30
0.0
  0
VERTEX
  5
22A
330
20B
100
AcDbEntity
  8
001
370
    50
100
AcDbVertex
100
AcDb2dVertex
 10
87.546688
 20
59.19271
 30
0.0
  0
VERTEX
  5
22B
330
20B
100
AcDbEntity
  8
001
370
    50
100
AcDbVertex
100
AcDb2dVertex
 10
87.436507
 20
59.26304
 30
0.0
  0
VERTEX
  5
22C
330
20B
100
AcDbEntity
  8
001
370
    50
100
AcDbVertex
100
AcDb2dVertex
 10
87.319605
 20
59.32345
 30
0.0
  0
VERTEX
  5
22D
330
20B
100
AcDbEntity
  8
001
370
    50
100
AcDbVertex
100
AcDb2dVertex
 10
87.200835
 20
59.373541
 30
0.0
  0
VERTEX
  5
22E
330
20B
100
AcDbEntity
  8
001
370
    50
100
AcDbVertex
100
AcDb2dVertex
 10
87.082271
 20
59.412883
 30
0.0
  0
VERTEX
  5
22F
330
20B
100
AcDbEntity
  8
001
370
    50
100
AcDbVertex
100
AcDb2dVertex
 10
86.949661
 20
59.441214
 30
0.0
  0
VERTEX
  5
230
330
20B
100
AcDbEntity
  8
001
370
    50
100
AcDbVertex
100
AcDb2dVertex
 10
86.799977
 20
59.45829
 30
0.0
  0
VERTEX
  5
231
330
20B
100
AcDbEntity
  8
001
370
    50
100
AcDbVertex
100
AcDb2dVertex
 10
86.690616
 20
59.464002
 30
0.0
  0
SEQEND
  5
20C
330
20B
100
AcDbEntity
  8
001
370
    50
  0
LINE
  5
232
330
1F
100
AcDbEntity
  8
001
370
    50
100
AcDbLine
 10
99.412528
 20
65.164002
 30
0.0
 11
99.412528
 21
53.164002
 31
0.0
  0
LINE
  5
233
330
1F
100
AcDbEntity
  8
001
370
    50
100
AcDbLine
 10
98.712528
 20
64.464002
 30
0.0
 11
98.712528
 21
53.864002
 31
0.0
  0
LINE
  5
234
330
1F
100
AcDbEntity
  8
001
370
    50
100
AcDbLine
 10
99.412528
 20
65.164002
 30
0.0
 11
98.712528
 21
64.464002
 31
0.0
  0
LINE
  5
235
330
1F
100
AcDbEntity
  8
001
370
    50
100
AcDbLine
 10
98.712528
 20
53.864002
 30
0.0
 11
99.412528
 21
53.164002
 31
0.0
  0
LINE
  5
236
330
1F
100
AcDbEntity
  8
001
370
    50
100
AcDbLine
 10
158.712528
 20
56.164002
 30
0.0
 11
158.712528
 21
62.164002
 31
0.0
  0
POLYLINE
  5
237
330
1F
100
AcDbEntity
  8
001
370
    50
100
AcDb2dPolyline
 66
     1
 10
0.0
 20
0.0
 30
0.0
  0
VERTEX
  5
239
330
237
100
AcDbEntity
  8
001
370
    50
100
AcDbVertex
100
AcDb2dVertex
 10
94.317395
 20
60.094926
 30
0.0
  0
VERTEX
  5
23A
330
237
100
AcDbEntity
  8
001
370
    50
100
AcDbVertex
100
AcDb2dVertex
 10
94.49684
 20
59.913437
 30
0.0
  0
VERTEX
  5
23B
330
237
100
AcDbEntity
  8
001
370
    50
100
AcDbVertex
100
AcDb2dVertex
 10
94.672909
 20
59.728769
 30
0.0
  0
VERTEX
  5
23C
330
237
100
AcDbEntity
  8
001
370
    50
100
AcDbVertex
100
AcDb2dVertex
 10
94.759451
 20
59.633558
 30
0.0
  0
VERTEX
  5
23D
330
237
100
AcDbEntity
  8
001
370
    50
100
AcDbVertex
100
AcDb2dVertex
 10
94.844523
 20
59.537012
 30
0.0
  0
VERTEX
  5
23E
330
237
100
AcDbEntity
  8
001
370
    50
100
AcDbVertex
100
AcDb2dVertex
 10
94.928426
 20
59.439222
 30
0.0
  0
VERTEX
  5
23F
330
237
100
AcDbEntity
  8
001
370
    50
100
AcDbVertex
100
AcDb2dVertex
 10
95.011004
 20
59.340316
 30
0.0
  0
VERTEX
  5
240
330
237
100
AcDbEntity
  8
001
370
    50
100
AcDbVertex
100
AcDb2dVertex
 10
95.09375
 20
59.238277
 30
0.0
  0
VERTEX
  5
241
330
237
100
AcDbEntity
  8
001
370
    50
100
AcDbVertex
100
AcDb2dVertex
 10
95.175013
 20
59.13505
 30
0.0
  0
VERTEX
  5
242
330
237
100
AcDbEntity
  8
001
370
    50
100
AcDbVertex
100
AcDb2dVertex
 10
95.254769
 20
59.030684
 30
0.0
  0
VERTEX
  5
243
330
237
100
AcDbEntity
  8
001
370
    50
100
AcDbVertex
100
AcDb2dVertex
 10
95.333009
 20
58.925177
 30
0.0
  0
VERTEX
  5
244
330
237
100
AcDbEntity
  8
001
370
    50
100
AcDbVertex
100
AcDb2dVertex
 10
95.410197
 20
58.81784
 30
0.0
  0
VERTEX
  5
245
330
237
100
AcDbEntity
  8
001
370
    50
100
AcDbVertex
100
AcDb2dVertex
 10
95.485776
 20
58.709366
 30
0.0
  0
VERTEX
  5
246
330
237
100
AcDbEntity
  8
001
370
    50
100
AcDbVertex
100
AcDb2dVertex
 10
95.559531
 20
58.600054
 30
0.0
  0
VERTEX
  5
247
330
237
100
AcDbEntity
  8
001
370
    50
100
AcDbVertex
100
AcDb2dVertex
 10
95.631693
 20
58.489678
 30
0.0
  0
VERTEX
  5
248
330
237
100
AcDbEntity
  8
001
370
    50
100
AcDbVertex
100
AcDb2dVertex
 10
95.704456
 20
58.374727
 30
0.0
  0
VERTEX
  5
249
330
237
100
AcDbEntity
  8
001
370
    50
100
AcDbVertex
100
AcDb2dVertex
 10
95.775227
 20
58.258551
 30
0.0
  0
VERTEX
  5
24A
330
237
100
AcDbEntity
  8
001
370
    50
100
AcDbVertex
100
AcDb2dVertex
 10
95.843672
 20
58.141548
 30
0.0
  0
VERTEX
  5
24B
330
237
100
AcDbEntity
  8
001
370
    50
100
AcDbVertex
100
AcDb2dVertex
 10
95.910953
 20
58.023858
 30
0.0
  0
SEQEND
  5
238
330
237
100
AcDbEntity
  8
001
370
    50
  0
POLYLINE
  5
24C
330
1F
100
AcDbEntity
  8
001
370
    50
100
AcDb2dPolyline
 66
     1
 10
0.0
 20
0.0
 30
0.0
  0
VERTEX
  5
24E
330
24C
100
AcDbEntity
  8
001
370
    50
100
AcDbVertex
100
AcDb2dVertex
 10
95.285768
 20
58.023858
 30
0.0
  0
VERTEX
  5
24F
330
24C
100
AcDbEntity
  8
001
370
    50
100
AcDbVertex
100
AcDb2dVertex
 10
95.007439
 20
58.476381
 30
0.0
  0
VERTEX
  5
250
330
24C
100
AcDbEntity
  8
001
370
    50
100
AcDbVertex
100
AcDb2dVertex
 10
94.563028
 20
59.111472
 30
0.0
  0
VERTEX
  5
251
330
24C
100
AcDbEntity
  8
001
370
    50
100
AcDbVertex
100
AcDb2dVertex
 10
94.068076
 20
59.70732
 30
0.0
  0
VERTEX
  5
252
330
24C
100
AcDbEntity
  8
001
370
    50
100
AcDbVertex
100
AcDb2dVertex
 10
93.705287
 20
60.094926
 30
0.0
  0
SEQEND
  5
24D
330
24C
100
AcDbEntity
  8
001
370
    50
  0
POLYLINE
  5
253
330
1F
100
AcDbEntity
  8
001
370
    50
100
AcDb2dPolyline
 66
     1
 10
0.0
 20
0.0
 30
0.0
  0
VERTEX
  5
255
330
253
100
AcDbEntity
  8
001
370
    50
100
AcDbVertex
100
AcDb2dVertex
 10
97.617706
 20
53.962574
 30
0.0
  0
VERTEX
  5
256
330
253
100
AcDbEntity
  8
001
370
    50
100
AcDbVertex
100
AcDb2dVertex
 10
97.654718
 20
53.929677
 30
0.0
  0
VERTEX
  5
257
330
253
100
AcDbEntity
  8
001
370
    50
100
AcDbVertex
100
AcDb2dVertex
 10
97.713808
 20
53.888703
 30
0.0
  0
VERTEX
  5
258
330
253
100
AcDbEntity
  8
001
370
    50
100
AcDbVertex
100
AcDb2dVertex
 10
97.753279
 20
53.870923
 30
0.0
  0
VERTEX
  5
259
330
253
100
AcDbEntity
  8
001
370
    50
100
AcDbVertex
100
AcDb2dVertex
 10
97.781866
 20
53.864002
 30
0.0
  0
SEQEND
  5
254
330
253
100
AcDbEntity
  8
001
370
    50
  0
POLYLINE
  5
25A
330
1F
100
AcDbEntity
  8
001
370
    50
100
AcDb2dPolyline
 66
     1
 10
0.0
 20
0.0
 30
0.0
  0
VERTEX
  5
25C
330
25A
100
AcDbEntity
  8
001
370
    50
100
AcDbVertex
100
AcDb2dVertex
 10
94.317395
 20
60.094926
 30
0.0
  0
VERTEX
  5
25D
330
25A
100
AcDbEntity
  8
001
370
    50
100
AcDbVertex
100
AcDb2dVertex
 10
93.875981
 20
60.523179
 30
0.0
  0
VERTEX
  5
25E
330
25A
100
AcDbEntity
  8
001
370
    50
100
AcDbVertex
100
AcDb2dVertex
 10
93.267648
 20
61.108887
 30
0.0
  0
VERTEX
  5
25F
330
25A
100
AcDbEntity
  8
001
370
    50
100
AcDbVertex
100
AcDb2dVertex
 10
92.753215
 20
61.598122
 30
0.0
  0
VERTEX
  5
260
330
25A
100
AcDbEntity
  8
001
370
    50
100
AcDbVertex
100
AcDb2dVertex
 10
92.274735
 20
62.045947
 30
0.0
  0
VERTEX
  5
261
330
25A
100
AcDbEntity
  8
001
370
    50
100
AcDbVertex
100
AcDb2dVertex
 10
91.831349
 20
62.455417
 30
0.0
  0
VERTEX
  5
262
330
25A
100
AcDbEntity
  8
001
370
    50
100
AcDbVertex
100
AcDb2dVertex
 10
91.377919
 20
62.869054
 30
0.0
  0
VERTEX
  5
263
330
25A
100
AcDbEntity
  8
001
370
    50
100
AcDbVertex
100
AcDb2dVertex
 10
90.999235
 20
63.209072
 30
0.0
  0
VERTEX
  5
264
330
25A
100
AcDbEntity
  8
001
370
    50
100
AcDbVertex
100
AcDb2dVertex
 10
90.612657
 20
63.545662
 30
0.0
  0
VERTEX
  5
265
330
25A
100
AcDbEntity
  8
001
370
    50
100
AcDbVertex
100
AcDb2dVertex
 10
90.30594
 20
63.803425
 30
0.0
  0
VERTEX
  5
266
330
25A
100
AcDbEntity
  8
001
370
    50
100
AcDbVertex
100
AcDb2dVertex
 10
90.009211
 20
64.049019
 30
0.0
  0
VERTEX
  5
267
330
25A
100
AcDbEntity
  8
001
370
    50
100
AcDbVertex
100
AcDb2dVertex
 10
89.819531
 20
64.201592
 30
0.0
  0
VERTEX
  5
268
330
25A
100
AcDbEntity
  8
001
370
    50
100
AcDbVertex
100
AcDb2dVertex
 10
89.591439
 20
64.35922
 30
0.0
  0
VERTEX
  5
269
330
25A
100
AcDbEntity
  8
001
370
    50
100
AcDbVertex
100
AcDb2dVertex
 10
89.468122
 20
64.430687
 30
0.0
  0
VERTEX
  5
26A
330
25A
100
AcDbEntity
  8
001
370
    50
100
AcDbVertex
100
AcDb2dVertex
 10
89.375861
 20
64.464002
 30
0.0
  0
SEQEND
  5
25B
330
25A
100
AcDbEntity
  8
001
370
    50
  0
LINE
  5
26B
330
1F
100
AcDbEntity
  8
001
370
    50
100
AcDbLine
 10
98.712528
 20
64.464002
 30
0.0
 11
89.375861
 21
64.464002
 31
0.0
  0
LINE
  5
26C
330
1F
100
AcDbEntity
  8
001
370
    50
100
AcDbLine
 10
97.781866
 20
53.864002
 30
0.0
 11
98.712528
 21
53.864002
 31
0.0
  0
POLYLINE
  5
26D
330
1F
100
AcDbEntity
  8
001
370
    50
100
AcDb2dPolyline
 66
     1
 10
0.0
 20
0.0
 30
0.0
  0
VERTEX
  5
26F
330
26D
100
AcDbEntity
  8
001
370
    50
100
AcDbVertex
100
AcDb2dVertex
 10
97.781866
 20
53.864002
 30
0.0
  0
VERTEX
  5
270
330
26D
100
AcDbEntity
  8
001
370
    50
100
AcDbVertex
100
AcDb2dVertex
 10
97.809789
 20
53.896052
 30
0.0
  0
VERTEX
  5
271
330
26D
100
AcDbEntity
  8
001
370
    50
100
AcDbVertex
100
AcDb2dVertex
 10
97.831566
 20
53.962839
 30
0.0
  0
VERTEX
  5
272
330
26D
100
AcDbEntity
  8
001
370
    50
100
AcDbVertex
100
AcDb2dVertex
 10
97.824702
 20
54.123764
 30
0.0
  0
VERTEX
  5
273
330
26D
100
AcDbEntity
  8
001
370
    50
100
AcDbVertex
100
AcDb2dVertex
 10
97.764656
 20
54.255664
 30
0.0
  0
VERTEX
  5
274
330
26D
100
AcDbEntity
  8
001
370
    50
100
AcDbVertex
100
AcDb2dVertex
 10
97.669024
 20
54.488741
 30
0.0
  0
VERTEX
  5
275
330
26D
100
AcDbEntity
  8
001
370
    50
100
AcDbVertex
100
AcDb2dVertex
 10
97.583632
 20
54.731555
 30
0.0
  0
VERTEX
  5
276
330
26D
100
AcDbEntity
  8
001
370
    50
100
AcDbVertex
100
AcDb2dVertex
 10
97.447551
 20
55.055934
 30
0.0
  0
VERTEX
  5
277
330
26D
100
AcDbEntity
  8
001
370
    50
100
AcDbVertex
100
AcDb2dVertex
 10
97.295246
 20
55.372763
 30
0.0
  0
VERTEX
  5
278
330
26D
100
AcDbEntity
  8
001
370
    50
100
AcDbVertex
100
AcDb2dVertex
 10
97.1019
 20
55.768085
 30
0.0
  0
VERTEX
  5
279
330
26D
100
AcDbEntity
  8
001
370
    50
100
AcDbVertex
100
AcDb2dVertex
 10
96.910254
 20
56.155373
 30
0.0
  0
VERTEX
  5
27A
330
26D
100
AcDbEntity
  8
001
370
    50
100
AcDbVertex
100
AcDb2dVertex
 10
96.689244
 20
56.586844
 30
0.0
  0
VERTEX
  5
27B
330
26D
100
AcDbEntity
  8
001
370
    50
100
AcDbVertex
100
AcDb2dVertex
 10
96.443014
 20
57.050196
 30
0.0
  0
VERTEX
  5
27C
330
26D
100
AcDbEntity
  8
001
370
    50
100
AcDbVertex
100
AcDb2dVertex
 10
96.13662
 20
57.614106
 30
0.0
  0
VERTEX
  5
27D
330
26D
100
AcDbEntity
  8
001
370
    50
100
AcDbVertex
100
AcDb2dVertex
 10
95.910953
 20
58.023858
 30
0.0
  0
SEQEND
  5
26E
330
26D
100
AcDbEntity
  8
001
370
    50
  0
POLYLINE
  5
27E
330
1F
100
AcDbEntity
  8
001
370
    50
100
AcDb2dPolyline
 66
     1
 10
0.0
 20
0.0
 30
0.0
  0
VERTEX
  5
280
330
27E
100
AcDbEntity
  8
001
370
    50
100
AcDbVertex
100
AcDb2dVertex
 10
89.375861
 20
64.464002
 30
0.0
  0
VERTEX
  5
281
330
27E
100
AcDbEntity
  8
001
370
    50
100
AcDbVertex
100
AcDb2dVertex
 10
89.372865
 20
64.463922
 30
0.0
  0
VERTEX
  5
282
330
27E
100
AcDbEntity
  8
001
370
    50
100
AcDbVertex
100
AcDb2dVertex
 10
89.368522
 20
64.463473
 30
0.0
  0
VERTEX
  5
283
330
27E
100
AcDbEntity
  8
001
370
    50
100
AcDbVertex
100
AcDb2dVertex
 10
89.364769
 20
64.462658
 30
0.0
  0
VERTEX
  5
284
330
27E
100
AcDbEntity
  8
001
370
    50
100
AcDbVertex
100
AcDb2dVertex
 10
89.36225
 20
64.461886
 30
0.0
  0
SEQEND
  5
27F
330
27E
100
AcDbEntity
  8
001
370
    50
  0
POLYLINE
  5
285
330
1F
100
AcDbEntity
  8
001
370
    50
100
AcDb2dPolyline
 66
     1
 10
0.0
 20
0.0
 30
0.0
  0
VERTEX
  5
287
330
285
100
AcDbEntity
  8
001
370
    50
100
AcDbVertex
100
AcDb2dVertex
 10
89.36225
 20
64.461886
 30
0.0
  0
VERTEX
  5
288
330
285
100
AcDbEntity
  8
001
370
    50
100
AcDbVertex
100
AcDb2dVertex
 10
89.277521
 20
64.462129
 30
0.0
  0
VERTEX
  5
289
330
285
100
AcDbEntity
  8
001
370
    50
100
AcDbVertex
100
AcDb2dVertex
 10
89.153686
 20
64.46246
 30
0.0
  0
VERTEX
  5
28A
330
285
100
AcDbEntity
  8
001
370
    50
100
AcDbVertex
100
AcDb2dVertex
 10
89.029839
 20
64.462757
 30
0.0
  0
VERTEX
  5
28B
330
285
100
AcDbEntity
  8
001
370
    50
100
AcDbVertex
100
AcDb2dVertex
 10
88.945102
 20
64.462944
 30
0.0
  0
SEQEND
  5
286
330
285
100
AcDbEntity
  8
001
370
    50
  0
LINE
  5
28C
330
1F
100
AcDbEntity
  8
001
370
    50
100
AcDbLine
 10
93.705287
 20
60.094926
 30
0.0
 11
89.36225
 21
64.461886
 31
0.0
  0
LINE
  5
28D
330
1F
100
AcDbEntity
  8
001
370
    50
100
AcDbLine
 10
97.617706
 20
53.962574
 30
0.0
 11
95.285768
 21
58.023858
 31
0.0
  0
LINE
  5
28E
330
1F
100
AcDbEntity
  8
001
370
    50
100
AcDbLine
 10
83.112528
 20
60.995072
 30
0.0
 11
83.672528
 21
61.594868
 31
0.0
  0
POLYLINE
  5
28F
330
1F
100
AcDbEntity
  8
001
370
    50
100
AcDb2dPolyline
 66
     1
 10
0.0
 20
0.0
 30
0.0
  0
VERTEX
  5
291
330
28F
100
AcDbEntity
  8
001
370
    50
100
AcDbVertex
100
AcDb2dVertex
 10
87.062528
 20
62.612776
 30
0.0
  0
VERTEX
  5
292
330
28F
100
AcDbEntity
  8
001
370
    50
100
AcDbVertex
100
AcDb2dVertex
 10
86.372524
 20
62.609977
 30
0.0
  0
VERTEX
  5
293
330
28F
100
AcDbEntity
  8
001
370
    50
100
AcDbVertex
100
AcDb2dVertex
 10
85.364073
 20
62.603382
 30
0.0
  0
VERTEX
  5
294
330
28F
100
AcDbEntity
  8
001
370
    50
100
AcDbVertex
100
AcDb2dVertex
 10
84.359708
 20
62.593338
 30
0.0
  0
VERTEX
  5
295
330
28F
100
AcDbEntity
  8
001
370
    50
100
AcDbVertex
100
AcDb2dVertex
 10
83.672528
 20
62.584755
 30
0.0
  0
SEQEND
  5
290
330
28F
100
AcDbEntity
  8
001
370
    50
  0
LINE
  5
296
330
1F
100
AcDbEntity
  8
001
370
    50
100
AcDbLine
 10
87.062528
 20
62.612776
 30
0.0
 11
87.892031
 21
63.429149
 31
0.0
  0
LINE
  5
297
330
1F
100
AcDbEntity
  8
001
370
    50
100
AcDbLine
 10
83.672528
 20
61.635855
 30
0.0
 11
83.112528
 21
61.064002
 31
0.0
  0
LINE
  5
298
330
1F
100
AcDbEntity
  8
001
370
    50
100
AcDbLine
 10
87.062528
 20
62.614002
 30
0.0
 11
83.672528
 21
62.614002
 31
0.0
  0
LINE
  5
299
330
1F
100
AcDbEntity
  8
001
370
    50
100
AcDbLine
 10
87.891773
 20
63.428899
 30
0.0
 11
87.062528
 21
62.614002
 31
0.0
  0
LINE
  5
29A
330
1F
100
AcDbEntity
  8
001
370
    50
100
AcDbLine
 10
87.981975
 20
63.517537
 30
0.0
 11
88.945102
 21
64.462944
 31
0.0
  0
LINE
  5
29B
330
1F
100
AcDbEntity
  8
001
370
    50
100
AcDbLine
 10
87.892031
 20
63.429149
 30
0.0
 11
87.981975
 21
63.517537
 31
0.0
  0
POLYLINE
  5
29C
330
1F
100
AcDbEntity
  8
001
370
    50
100
AcDb2dPolyline
 66
     1
 10
0.0
 20
0.0
 30
0.0
  0
VERTEX
  5
29E
330
29C
100
AcDbEntity
  8
001
370
    50
100
AcDbVertex
100
AcDb2dVertex
 10
90.155763
 20
61.114002
 30
0.0
  0
VERTEX
  5
29F
330
29C
100
AcDbEntity
  8
001
370
    50
100
AcDbVertex
100
AcDb2dVertex
 10
90.054921
 20
61.108186
 30
0.0
  0
VERTEX
  5
2A0
330
29C
100
AcDbEntity
  8
001
370
    50
100
AcDbVertex
100
AcDb2dVertex
 10
89.917061
 20
61.090742
 30
0.0
  0
VERTEX
  5
2A1
330
29C
100
AcDbEntity
  8
001
370
    50
100
AcDbVertex
100
AcDb2dVertex
 10
89.79533
 20
61.061773
 30
0.0
  0
VERTEX
  5
2A2
330
29C
100
AcDbEntity
  8
001
370
    50
100
AcDbVertex
100
AcDb2dVertex
 10
89.687243
 20
61.021829
 30
0.0
  0
VERTEX
  5
2A3
330
29C
100
AcDbEntity
  8
001
370
    50
100
AcDbVertex
100
AcDb2dVertex
 10
89.579855
 20
60.971309
 30
0.0
  0
VERTEX
  5
2A4
330
29C
100
AcDbEntity
  8
001
370
    50
100
AcDbVertex
100
AcDb2dVertex
 10
89.47486
 20
60.909827
 30
0.0
  0
VERTEX
  5
2A5
330
29C
100
AcDbEntity
  8
001
370
    50
100
AcDbVertex
100
AcDb2dVertex
 10
89.376777
 20
60.837632
 30
0.0
  0
VERTEX
  5
2A6
330
29C
100
AcDbEntity
  8
001
370
    50
100
AcDbVertex
100
AcDb2dVertex
 10
89.287818
 20
60.758904
 30
0.0
  0
VERTEX
  5
2A7
330
29C
100
AcDbEntity
  8
001
370
    50
100
AcDbVertex
100
AcDb2dVertex
 10
89.208138
 20
60.675222
 30
0.0
  0
VERTEX
  5
2A8
330
29C
100
AcDbEntity
  8
001
370
    50
100
AcDbVertex
100
AcDb2dVertex
 10
89.133077
 20
60.574677
 30
0.0
  0
VERTEX
  5
2A9
330
29C
100
AcDbEntity
  8
001
370
    50
100
AcDbVertex
100
AcDb2dVertex
 10
89.062022
 20
60.454591
 30
0.0
  0
VERTEX
  5
2AA
330
29C
100
AcDbEntity
  8
001
370
    50
100
AcDbVertex
100
AcDb2dVertex
 10
89.016395
 20
60.364002
 30
0.0
  0
SEQEND
  5
29D
330
29C
100
AcDbEntity
  8
001
370
    50
  0
LINE
  5
2AB
330
1F
100
AcDbEntity
  8
001
370
    50
100
AcDbLine
 10
83.672528
 20
61.594868
 30
0.0
 11
83.672528
 21
62.614002
 31
0.0
  0
LINE
  5
2AC
330
1F
100
AcDbEntity
  8
001
370
    50
100
AcDbLine
 10
90.466815
 20
60.364002
 30
0.0
 11
82.914416
 21
60.364002
 31
0.0
  0
POLYLINE
  5
2AD
330
1F
100
AcDbEntity
  8
001
370
    50
100
AcDb2dPolyline
 66
     1
 10
0.0
 20
0.0
 30
0.0
  0
VERTEX
  5
2AF
330
2AD
100
AcDbEntity
  8
001
370
    50
100
AcDbVertex
100
AcDb2dVertex
 10
90.668703
 20
58.807586
 30
0.0
  0
VERTEX
  5
2B0
330
2AD
100
AcDbEntity
  8
001
370
    50
100
AcDbVertex
100
AcDb2dVertex
 10
90.682813
 20
58.81627
 30
0.0
  0
VERTEX
  5
2B1
330
2AD
100
AcDbEntity
  8
001
370
    50
100
AcDbVertex
100
AcDb2dVertex
 10
90.696565
 20
58.824971
 30
0.0
  0
VERTEX
  5
2B2
330
2AD
100
AcDbEntity
  8
001
370
    50
100
AcDbVertex
100
AcDb2dVertex
 10
90.79
 20
58.892753
 30
0.0
  0
VERTEX
  5
2B3
330
2AD
100
AcDbEntity
  8
001
370
    50
100
AcDbVertex
100
AcDb2dVertex
 10
90.868585
 20
58.964407
 30
0.0
  0
VERTEX
  5
2B4
330
2AD
100
AcDbEntity
  8
001
370
    50
100
AcDbVertex
100
AcDb2dVertex
 10
90.943533
 20
59.044609
 30
0.0
  0
VERTEX
  5
2B5
330
2AD
100
AcDbEntity
  8
001
370
    50
100
AcDbVertex
100
AcDb2dVertex
 10
91.013338
 20
59.132263
 30
0.0
  0
VERTEX
  5
2B6
330
2AD
100
AcDbEntity
  8
001
370
    50
100
AcDbVertex
100
AcDb2dVertex
 10
91.074343
 20
59.225379
 30
0.0
  0
VERTEX
  5
2B7
330
2AD
100
AcDbEntity
  8
001
370
    50
100
AcDbVertex
100
AcDb2dVertex
 10
91.126251
 20
59.323234
 30
0.0
  0
VERTEX
  5
2B8
330
2AD
100
AcDbEntity
  8
001
370
    50
100
AcDbVertex
100
AcDb2dVertex
 10
91.16953
 20
59.425507
 30
0.0
  0
VERTEX
  5
2B9
330
2AD
100
AcDbEntity
  8
001
370
    50
100
AcDbVertex
100
AcDb2dVertex
 10
91.203758
 20
59.531288
 30
0.0
  0
VERTEX
  5
2BA
330
2AD
100
AcDbEntity
  8
001
370
    50
100
AcDbVertex
100
AcDb2dVertex
 10
91.228443
 20
59.639703
 30
0.0
  0
VERTEX
  5
2BB
330
2AD
100
AcDbEntity
  8
001
370
    50
100
AcDbVertex
100
AcDb2dVertex
 10
91.243409
 20
59.749853
 30
0.0
  0
VERTEX
  5
2BC
330
2AD
100
AcDbEntity
  8
001
370
    50
100
AcDbVertex
100
AcDb2dVertex
 10
91.24859
 20
59.860924
 30
0.0
  0
VERTEX
  5
2BD
330
2AD
100
AcDbEntity
  8
001
370
    50
100
AcDbVertex
100
AcDb2dVertex
 10
91.243953
 20
59.972024
 30
0.0
  0
VERTEX
  5
2BE
330
2AD
100
AcDbEntity
  8
001
370
    50
100
AcDbVertex
100
AcDb2dVertex
 10
91.229507
 20
60.082258
 30
0.0
  0
VERTEX
  5
2BF
330
2AD
100
AcDbEntity
  8
001
370
    50
100
AcDbVertex
100
AcDb2dVertex
 10
91.205371
 20
60.190783
 30
0.0
  0
VERTEX
  5
2C0
330
2AD
100
AcDbEntity
  8
001
370
    50
100
AcDbVertex
100
AcDb2dVertex
 10
91.171738
 20
60.296696
 30
0.0
  0
VERTEX
  5
2C1
330
2AD
100
AcDbEntity
  8
001
370
    50
100
AcDbVertex
100
AcDb2dVertex
 10
91.128884
 20
60.399218
 30
0.0
  0
VERTEX
  5
2C2
330
2AD
100
AcDbEntity
  8
001
370
    50
100
AcDbVertex
100
AcDb2dVertex
 10
91.077169
 20
60.497465
 30
0.0
  0
VERTEX
  5
2C3
330
2AD
100
AcDbEntity
  8
001
370
    50
100
AcDbVertex
100
AcDb2dVertex
 10
91.016906
 20
60.590746
 30
0.0
  0
VERTEX
  5
2C4
330
2AD
100
AcDbEntity
  8
001
370
    50
100
AcDbVertex
100
AcDb2dVertex
 10
90.948597
 20
60.678236
 30
0.0
  0
VERTEX
  5
2C5
330
2AD
100
AcDbEntity
  8
001
370
    50
100
AcDbVertex
100
AcDb2dVertex
 10
90.872976
 20
60.759315
 30
0.0
  0
VERTEX
  5
2C6
330
2AD
100
AcDbEntity
  8
001
370
    50
100
AcDbVertex
100
AcDb2dVertex
 10
90.790771
 20
60.833254
 30
0.0
  0
VERTEX
  5
2C7
330
2AD
100
AcDbEntity
  8
001
370
    50
100
AcDbVertex
100
AcDb2dVertex
 10
90.701641
 20
60.899601
 30
0.0
  0
VERTEX
  5
2C8
330
2AD
100
AcDbEntity
  8
001
370
    50
100
AcDbVertex
100
AcDb2dVertex
 10
90.606116
 20
60.957777
 30
0.0
  0
VERTEX
  5
2C9
330
2AD
100
AcDbEntity
  8
001
370
    50
100
AcDbVertex
100
AcDb2dVertex
 10
90.508312
 20
61.007172
 30
0.0
  0
VERTEX
  5
2CA
330
2AD
100
AcDbEntity
  8
001
370
    50
100
AcDbVertex
100
AcDb2dVertex
 10
90.410001
 20
61.047289
 30
0.0
  0
VERTEX
  5
2CB
330
2AD
100
AcDbEntity
  8
001
370
    50
100
AcDbVertex
100
AcDb2dVertex
 10
90.299098
 20
61.078629
 30
0.0
  0
VERTEX
  5
2CC
330
2AD
100
AcDbEntity
  8
001
370
    50
100
AcDbVertex
100
AcDb2dVertex
 10
90.173065
 20
61.101126
 30
0.0
  0
VERTEX
  5
2CD
330
2AD
100
AcDbEntity
  8
001
370
    50
100
AcDbVertex
100
AcDb2dVertex
 10
90.080607
 20
61.111716
 30
0.0
  0
SEQEND
  5
2AE
330
2AD
100
AcDbEntity
  8
001
370
    50
  0
POLYLINE
  5
2CE
330
1F
100
AcDbEntity
  8
001
370
    50
100
AcDb2dPolyline
 66
     1
 10
0.0
 20
0.0
 30
0.0
  0
VERTEX
  5
2D0
330
2CE
100
AcDbEntity
  8
001
370
    50
100
AcDbVertex
100
AcDb2dVertex
 10
90.668703
 20
58.725601
 30
0.0
  0
VERTEX
  5
2D1
330
2CE
100
AcDbEntity
  8
001
370
    50
100
AcDbVertex
100
AcDb2dVertex
 10
90.752001
 20
58.768959
 30
0.0
  0
VERTEX
  5
2D2
330
2CE
100
AcDbEntity
  8
001
370
    50
100
AcDbVertex
100
AcDb2dVertex
 10
90.851038
 20
58.827782
 30
0.0
  0
VERTEX
  5
2D3
330
2CE
100
AcDbEntity
  8
001
370
    50
100
AcDbVertex
100
AcDb2dVertex
 10
90.946251
 20
58.897561
 30
0.0
  0
VERTEX
  5
2D4
330
2CE
100
AcDbEntity
  8
001
370
    50
100
AcDbVertex
100
AcDb2dVertex
 10
91.026085
 20
58.971437
 30
0.0
  0
VERTEX
  5
2D5
330
2CE
100
AcDbEntity
  8
001
370
    50
100
AcDbVertex
100
AcDb2dVertex
 10
91.101982
 20
59.054161
 30
0.0
  0
VERTEX
  5
2D6
330
2CE
100
AcDbEntity
  8
001
370
    50
100
AcDbVertex
100
AcDb2dVertex
 10
91.17238
 20
59.144577
 30
0.0
  0
VERTEX
  5
2D7
330
2CE
100
AcDbEntity
  8
001
370
    50
100
AcDbVertex
100
AcDb2dVertex
 10
91.233522
 20
59.240612
 30
0.0
  0
VERTEX
  5
2D8
330
2CE
100
AcDbEntity
  8
001
370
    50
100
AcDbVertex
100
AcDb2dVertex
 10
91.285092
 20
59.341483
 30
0.0
  0
VERTEX
  5
2D9
330
2CE
100
AcDbEntity
  8
001
370
    50
100
AcDbVertex
100
AcDb2dVertex
 10
91.327562
 20
59.446821
 30
0.0
  0
VERTEX
  5
2DA
330
2CE
100
AcDbEntity
  8
001
370
    50
100
AcDbVertex
100
AcDb2dVertex
 10
91.360498
 20
59.55565
 30
0.0
  0
VERTEX
  5
2DB
330
2CE
100
AcDbEntity
  8
001
370
    50
100
AcDbVertex
100
AcDb2dVertex
 10
91.383402
 20
59.667031
 30
0.0
  0
VERTEX
  5
2DC
330
2CE
100
AcDbEntity
  8
001
370
    50
100
AcDbVertex
100
AcDb2dVertex
 10
91.396105
 20
59.780004
 30
0.0
  0
VERTEX
  5
2DD
330
2CE
100
AcDbEntity
  8
001
370
    50
100
AcDbVertex
100
AcDb2dVertex
 10
91.398555
 20
59.893687
 30
0.0
  0
VERTEX
  5
2DE
330
2CE
100
AcDbEntity
  8
001
370
    50
100
AcDbVertex
100
AcDb2dVertex
 10
91.390739
 20
60.007132
 30
0.0
  0
VERTEX
  5
2DF
330
2CE
100
AcDbEntity
  8
001
370
    50
100
AcDbVertex
100
AcDb2dVertex
 10
91.372695
 20
60.119378
 30
0.0
  0
VERTEX
  5
2E0
330
2CE
100
AcDbEntity
  8
001
370
    50
100
AcDbVertex
100
AcDb2dVertex
 10
91.344576
 20
60.229532
 30
0.0
  0
VERTEX
  5
2E1
330
2CE
100
AcDbEntity
  8
001
370
    50
100
AcDbVertex
100
AcDb2dVertex
 10
91.306617
 20
60.336631
 30
0.0
  0
VERTEX
  5
2E2
330
2CE
100
AcDbEntity
  8
001
370
    50
100
AcDbVertex
100
AcDb2dVertex
 10
91.25914
 20
60.439857
 30
0.0
  0
VERTEX
  5
2E3
330
2CE
100
AcDbEntity
  8
001
370
    50
100
AcDbVertex
100
AcDb2dVertex
 10
91.202565
 20
60.538275
 30
0.0
  0
VERTEX
  5
2E4
330
2CE
100
AcDbEntity
  8
001
370
    50
100
AcDbVertex
100
AcDb2dVertex
 10
91.137256
 20
60.631159
 30
0.0
  0
VERTEX
  5
2E5
330
2CE
100
AcDbEntity
  8
001
370
    50
100
AcDbVertex
100
AcDb2dVertex
 10
91.063783
 20
60.717648
 30
0.0
  0
VERTEX
  5
2E6
330
2CE
100
AcDbEntity
  8
001
370
    50
100
AcDbVertex
100
AcDb2dVertex
 10
90.982948
 20
60.797118
 30
0.0
  0
VERTEX
  5
2E7
330
2CE
100
AcDbEntity
  8
001
370
    50
100
AcDbVertex
100
AcDb2dVertex
 10
90.895557
 20
60.868824
 30
0.0
  0
VERTEX
  5
2E8
330
2CE
100
AcDbEntity
  8
001
370
    50
100
AcDbVertex
100
AcDb2dVertex
 10
90.801315
 20
60.932253
 30
0.0
  0
VERTEX
  5
2E9
330
2CE
100
AcDbEntity
  8
001
370
    50
100
AcDbVertex
100
AcDb2dVertex
 10
90.700823
 20
60.986808
 30
0.0
  0
VERTEX
  5
2EA
330
2CE
100
AcDbEntity
  8
001
370
    50
100
AcDbVertex
100
AcDb2dVertex
 10
90.598356
 20
61.032098
 30
0.0
  0
VERTEX
  5
2EB
330
2CE
100
AcDbEntity
  8
001
370
    50
100
AcDbVertex
100
AcDb2dVertex
 10
90.49578
 20
61.0677
 30
0.0
  0
VERTEX
  5
2EC
330
2CE
100
AcDbEntity
  8
001
370
    50
100
AcDbVertex
100
AcDb2dVertex
 10
90.380776
 20
61.093355
 30
0.0
  0
VERTEX
  5
2ED
330
2CE
100
AcDbEntity
  8
001
370
    50
100
AcDbVertex
100
AcDb2dVertex
 10
90.250785
 20
61.108825
 30
0.0
  0
VERTEX
  5
2EE
330
2CE
100
AcDbEntity
  8
001
370
    50
100
AcDbVertex
100
AcDb2dVertex
 10
90.155763
 20
61.114002
 30
0.0
  0
SEQEND
  5
2CF
330
2CE
100
AcDbEntity
  8
001
370
    50
  0
ARC
  5
2EF
330
1F
100
AcDbEntity
  8
001
370
    50
100
AcDbCircle
 10
155.712528
 20
62.164002
 30
0.0
 40
3.0
100
AcDbArc
 50
0.0
 51
90.0
  0
ARC
  5
2F0
330
1F
100
AcDbEntity
  8
001
370
    50
100
AcDbCircle
 10
155.712528
 20
56.164002
 30
0.0
 40
3.0
100
AcDbArc
 50
270.0
 51
0.0
  0
LINE
  5
2F1
330
1F
100
AcDbEntity
  8
001
370
    50
100
AcDbLine
 10
158.712528
 20
59.164002
 30
0.0
 11
161.310604
 21
60.664002
 31
0.0
  0
LINE
  5
2F2
330
1F
100
AcDbEntity
  8
001
370
    50
100
AcDbLine
 10
158.712528
 20
59.164002
 30
0.0
 11
161.310604
 21
57.664002
 31
0.0
  0
LINE
  5
2F3
330
1F
100
AcDbEntity
  8
001
370
    50
100
AcDbLine
 10
155.712528
 20
65.164002
 30
0.0
 11
99.412528
 21
65.164002
 31
0.0
  0
LINE
  5
2F4
330
1F
100
AcDbEntity
  8
001
370
    50
100
AcDbLine
 10
155.712528
 20
53.164002
 30
0.0
 11
99.412528
 21
53.164002
 31
0.0
  0
LINE
  5
2F5
330
1F
100
AcDbEntity
  8
001
370
    50
100
AcDbLine
 10
83.112528
 20
60.364002
 30
0.0
 11
83.112528
 21
61.064002
 31
0.0
  0
LINE
  5
2F6
330
1F
100
AcDbEntity
  8
001
370
    50
100
AcDbLine
 10
88.412499
 20
53.914002
 30
0.0
 11
87.162499
 21
55.164002
 31
0.0
  0
LINE
  5
2F7
330
1F
100
AcDbEntity
  8
001
370
    50
100
AcDbLine
 10
83.262499
 20
56.614002
 30
0.0
 11
83.262499
 21
55.367002
 31
0.0
  0
LINE
  5
2F8
330
1F
100
AcDbEntity
  8
001
370
    50
100
AcDbLine
 10
83.262499
 20
56.614002
 30
0.0
 11
82.712528
 21
57.163973
 31
0.0
  0
LINE
  5
2F9
330
1F
100
AcDbEntity
  8
001
  6
PHANTOM
370
     9
100
AcDbLine
 10
83.262499
 20
63.164002
 30
0.0
 11
87.119473
 21
63.164002
 31
0.0
  0
LINE
  5
2FA
330
1F
100
AcDbEntity
  8
001
  6
PHANTOM
370
     9
100
AcDbLine
 10
88.369473
 20
64.414002
 30
0.0
 11
87.119473
 21
63.164002
 31
0.0
  0
LINE
  5
2FB
330
1F
100
AcDbEntity
  8
001
  6
PHANTOM
370
     9
100
AcDbLine
 10
83.262499
 20
63.164002
 30
0.0
 11
83.262499
 21
61.714002
 31
0.0
  0
LINE
  5
2FC
330
1F
100
AcDbEntity
  8
001
  6
PHANTOM
370
     9
100
AcDbLine
 10
83.262499
 20
61.714002
 30
0.0
 11
82.712528
 21
61.164031
 31
0.0
  0
POLYLINE
  5
2FD
330
1F
100
AcDbEntity
  8
001
370
    50
100
AcDb2dPolyline
 66
     1
 10
0.0
 20
0.0
 30
0.0
  0
VERTEX
  5
2FF
330
2FD
100
AcDbEntity
  8
001
370
    50
100
AcDbVertex
100
AcDb2dVertex
 10
90.466815
 20
53.914002
 30
0.0
  0
VERTEX
  5
300
330
2FD
100
AcDbEntity
  8
001
370
    50
100
AcDbVertex
100
AcDb2dVertex
 10
90.481616
 20
53.914775
 30
0.0
  0
VERTEX
  5
301
330
2FD
100
AcDbEntity
  8
001
370
    50
100
AcDbVertex
100
AcDb2dVertex
 10
90.501873
 20
53.917086
 30
0.0
  0
VERTEX
  5
302
330
2FD
100
AcDbEntity
  8
001
370
    50
100
AcDbVertex
100
AcDb2dVertex
 10
90.519819
 20
53.92092
 30
0.0
  0
VERTEX
  5
303
330
2FD
100
AcDbEntity
  8
001
370
    50
100
AcDbVertex
100
AcDb2dVertex
 10
90.535865
 20
53.926244
 30
0.0
  0
VERTEX
  5
304
330
2FD
100
AcDbEntity
  8
001
370
    50
100
AcDbVertex
100
AcDb2dVertex
 10
90.551938
 20
53.933024
 30
0.0
  0
VERTEX
  5
305
330
2FD
100
AcDbEntity
  8
001
370
    50
100
AcDbVertex
100
AcDb2dVertex
 10
90.567759
 20
53.941199
 30
0.0
  0
VERTEX
  5
306
330
2FD
100
AcDbEntity
  8
001
370
    50
100
AcDbVertex
100
AcDb2dVertex
 10
90.58267
 20
53.950713
 30
0.0
  0
VERTEX
  5
307
330
2FD
100
AcDbEntity
  8
001
370
    50
100
AcDbVertex
100
AcDb2dVertex
 10
90.596586
 20
53.961495
 30
0.0
  0
VERTEX
  5
308
330
2FD
100
AcDbEntity
  8
001
370
    50
100
AcDbVertex
100
AcDb2dVertex
 10
90.60956
 20
53.973477
 30
0.0
  0
VERTEX
  5
309
330
2FD
100
AcDbEntity
  8
001
370
    50
100
AcDbVertex
100
AcDb2dVertex
 10
90.62147
 20
53.986516
 30
0.0
  0
VERTEX
  5
30A
330
2FD
100
AcDbEntity
  8
001
370
    50
100
AcDbVertex
100
AcDb2dVertex
 10
90.632198
 20
54.000516
 30
0.0
  0
VERTEX
  5
30B
330
2FD
100
AcDbEntity
  8
001
370
    50
100
AcDbVertex
100
AcDb2dVertex
 10
90.641655
 20
54.015502
 30
0.0
  0
VERTEX
  5
30C
330
2FD
100
AcDbEntity
  8
001
370
    50
100
AcDbVertex
100
AcDb2dVertex
 10
90.649788
 20
54.031415
 30
0.0
  0
VERTEX
  5
30D
330
2FD
100
AcDbEntity
  8
001
370
    50
100
AcDbVertex
100
AcDb2dVertex
 10
90.656528
 20
54.047572
 30
0.0
  0
VERTEX
  5
30E
330
2FD
100
AcDbEntity
  8
001
370
    50
100
AcDbVertex
100
AcDb2dVertex
 10
90.661824
 20
54.063711
 30
0.0
  0
VERTEX
  5
30F
330
2FD
100
AcDbEntity
  8
001
370
    50
100
AcDbVertex
100
AcDb2dVertex
 10
90.665636
 20
54.081751
 30
0.0
  0
VERTEX
  5
310
330
2FD
100
AcDbEntity
  8
001
370
    50
100
AcDbVertex
100
AcDb2dVertex
 10
90.667935
 20
54.102121
 30
0.0
  0
VERTEX
  5
311
330
2FD
100
AcDbEntity
  8
001
370
    50
100
AcDbVertex
100
AcDb2dVertex
 10
90.668703
 20
54.117002
 30
0.0
  0
SEQEND
  5
2FE
330
2FD
100
AcDbEntity
  8
001
370
    50
  0
LINE
  5
312
330
1F
100
AcDbEntity
  8
001
370
    50
100
AcDbLine
 10
90.653024
 20
53.871692
 30
0.0
 11
90.653024
 21
54.03877
 31
0.0
  0
POLYLINE
  5
313
330
1F
100
AcDbEntity
  8
001
370
    50
100
AcDb2dPolyline
 66
     1
 10
0.0
 20
0.0
 30
0.0
  0
VERTEX
  5
315
330
313
100
AcDbEntity
  8
001
370
    50
100
AcDbVertex
100
AcDb2dVertex
 10
90.582657
 20
53.951814
 30
0.0
  0
VERTEX
  5
316
330
313
100
AcDbEntity
  8
001
370
    50
100
AcDbVertex
100
AcDb2dVertex
 10
90.60454
 20
53.920567
 30
0.0
  0
VERTEX
  5
317
330
313
100
AcDbEntity
  8
001
370
    50
100
AcDbVertex
100
AcDb2dVertex
 10
90.626343
 20
53.894559
 30
0.0
  0
VERTEX
  5
318
330
313
100
AcDbEntity
  8
001
370
    50
100
AcDbVertex
100
AcDb2dVertex
 10
90.636999
 20
53.88311
 30
0.0
  0
VERTEX
  5
319
330
313
100
AcDbEntity
  8
001
370
    50
100
AcDbVertex
100
AcDb2dVertex
 10
90.647656
 20
53.871662
 30
0.0
  0
SEQEND
  5
314
330
313
100
AcDbEntity
  8
001
370
    50
  0
POLYLINE
  5
31A
330
1F
100
AcDbEntity
  8
001
370
    50
100
AcDb2dPolyline
 66
     1
 10
0.0
 20
0.0
 30
0.0
  0
VERTEX
  5
31C
330
31A
100
AcDbEntity
  8
001
370
    50
100
AcDbVertex
100
AcDb2dVertex
 10
90.647656
 20
53.871662
 30
0.0
  0
VERTEX
  5
31D
330
31A
100
AcDbEntity
  8
001
370
    50
100
AcDbVertex
100
AcDb2dVertex
 10
90.65034
 20
53.871677
 30
0.0
  0
VERTEX
  5
31E
330
31A
100
AcDbEntity
  8
001
370
    50
100
AcDbVertex
100
AcDb2dVertex
 10
90.653024
 20
53.871692
 30
0.0
  0
VERTEX
  5
31F
330
31A
100
AcDbEntity
  8
001
370
    50
100
AcDbVertex
100
AcDb2dVertex
 10
92.073874
 20
53.882136
 30
0.0
  0
VERTEX
  5
320
330
31A
100
AcDbEntity
  8
001
370
    50
100
AcDbVertex
100
AcDb2dVertex
 10
94.150426
 20
53.904383
 30
0.0
  0
VERTEX
  5
321
330
31A
100
AcDbEntity
  8
001
370
    50
100
AcDbVertex
100
AcDb2dVertex
 10
96.209168
 20
53.936104
 30
0.0
  0
VERTEX
  5
322
330
31A
100
AcDbEntity
  8
001
370
    50
100
AcDbVertex
100
AcDb2dVertex
 10
97.617706
 20
53.962574
 30
0.0
  0
SEQEND
  5
31B
330
31A
100
AcDbEntity
  8
001
370
    50
  0
LINE
  5
323
330
1F
100
AcDbEntity
  8
001
  6
CENTER
370
     9
100
AcDbLine
 10
79.982982
 20
59.164002
 30
0.0
 11
163.023278
 21
59.164002
 31
0.0
  0
LINE
  5
324
330
1F
100
AcDbEntity
  8
001
370
    50
100
AcDbLine
 10
28.160535
 20
31.706999
 30
0.0
 11
43.160535
 21
31.706999
 31
0.0
  0
LINE
  5
325
330
1F
100
AcDbEntity
  8
001
370
    50
100
AcDbLine
 10
31.660535
 20
27.306999
 30
0.0
 11
39.660535
 21
27.306999
 31
0.0
  0
LINE
  5
326
330
1F
100
AcDbEntity
  8
001
370
    50
100
AcDbLine
 10
28.160535
 20
23.706999
 30
0.0
 11
43.160535
 21
23.706999
 31
0.0
  0
LINE
  5
327
330
1F
100
AcDbEntity
  8
001
370
    50
100
AcDbLine
 10
39.660535
 20
31.206999
 30
0.0
 11
39.660535
 21
27.306999
 31
0.0
  0
LINE
  5
328
330
1F
100
AcDbEntity
  8
001
370
    50
100
AcDbLine
 10
31.660535
 20
31.206999
 30
0.0
 11
31.660535
 21
27.306999
 31
0.0
  0
LINE
  5
329
330
1F
100
AcDbEntity
  8
001
370
    50
100
AcDbLine
 10
33.410535
 20
27.006999
 30
0.0
 11
33.410535
 21
23.706999
 31
0.0
  0
LINE
  5
32A
330
1F
100
AcDbEntity
  8
001
370
    50
100
AcDbLine
 10
37.910535
 20
27.006999
 30
0.0
 11
37.910535
 21
23.706999
 31
0.0
  0
LINE
  5
32B
330
1F
100
AcDbEntity
  8
001
  6
CENTER
370
     9
100
AcDbLine
 10
35.660535
 20
32.968369
 30
0.0
 11
35.660535
 21
22.501707
 31
0.0
  0
LINE
  5
32C
330
1F
100
AcDbEntity
  8
001
370
    50
100
AcDbLine
 10
39.660535
 20
31.206999
 30
0.0
 11
40.160535
 21
31.706999
 31
0.0
  0
LINE
  5
32D
330
1F
100
AcDbEntity
  8
001
370
    50
100
AcDbLine
 10
31.660535
 20
31.206999
 30
0.0
 11
31.160535
 21
31.706999
 31
0.0
  0
LINE
  5
32E
330
1F
100
AcDbEntity
  8
001
370
    50
100
AcDbLine
 10
37.910535
 20
27.006999
 30
0.0
 11
38.210535
 21
27.306999
 31
0.0
  0
LINE
  5
32F
330
1F
100
AcDbEntity
  8
001
370
    50
100
AcDbLine
 10
33.410535
 20
27.006999
 30
0.0
 11
33.110535
 21
27.306999
 31
0.0
  0
LINE
  5
330
330
1F
100
AcDbEntity
  8
001
370
    50
100
AcDbLine
 10
37.910535
 20
27.006999
 30
0.0
 11
33.410535
 21
27.006999
 31
0.0
  0
LINE
  5
331
330
1F
100
AcDbEntity
  8
001
370
    50
100
AcDbLine
 10
39.660535
 20
31.206999
 30
0.0
 11
31.660535
 21
31.206999
 31
0.0
  0
LINE
  5
332
330
1F
100
AcDbEntity
  8
001
370
     9
100
AcDbLine
 10
38.969633
 20
15.606871
 30
0.0
 11
33.23581
 21
15.606871
 31
0.0
  0
TEXT
  5
333
330
1F
100
AcDbEntity
  8
001
370
    30
100
AcDbText
 10
33.445946
 20
15.763873
 30
0.0
 40
1.333333
  1
加工形状
 41
0.833333
100
AcDbText
  0
ENDSEC
  0
SECTION
  2
OBJECTS
  0
DICTIONARY
  5
C
330
0
100
AcDbDictionary
281
     1
  3
ACAD_GROUP
350
D
  3
ACAD_LAYOUT
350
1A
  3
ACAD_MLEADERSTYLE
350
337
  3
ACAD_MLINESTYLE
350
17
  3
ACAD_PLOTSETTINGS
350
19
  3
ACAD_PLOTSTYLENAME
350
E
  3
ACAD_SCALELIST
350
3B
  3
ACAD_TABLESTYLE
350
336
  3
ACAD_VISUALSTYLE
350
2A
  3
AcDbVariableDictionary
350
334
  0
DICTIONARY
  5
D
102
{ACAD_REACTORS
330
C
102
}
330
C
100
AcDbDictionary
281
     1
  0
DICTIONARY
  5
1A
102
{ACAD_REACTORS
330
C
102
}
330
C
100
AcDbDictionary
281
     1
  3
Layout1
350
1E
  3
Layout2
350
26
  3
Model
350
22
  0
DICTIONARY
  5
337
102
{ACAD_REACTORS
330
C
102
}
330
C
100
AcDbDictionary
281
     1
  0
DICTIONARY
  5
17
102
{ACAD_REACTORS
330
C
102
}
330
C
100
AcDbDictionary
281
     1
  3
Standard
350
18
  0
DICTIONARY
  5
19
102
{ACAD_REACTORS
330
C
102
}
330
C
100
AcDbDictionary
281
     1
  0
ACDBDICTIONARYWDFLT
  5
E
102
{ACAD_REACTORS
330
C
102
}
330
C
100
AcDbDictionary
281
     1
  3
Normal
350
F
100
AcDbDictionaryWithDefault
340
F
  0
DICTIONARY
  5
3B
102
{ACAD_REACTORS
330
C
102
}
330
C
100
AcDbDictionary
281
     1
  3
A0
350
3C
  3
A1
350
3D
  3
A2
350
3E
  3
A3
350
3F
  3
A4
350
40
  3
A5
350
41
  3
A6
350
42
  3
A7
350
43
  3
A8
350
44
  3
A9
350
45
  3
B0
350
46
  3
B1
350
47
  3
B2
350
48
  3
B3
350
49
  3
B4
350
4A
  3
B5
350
4B
  3
B6
350
4C
  3
B7
350
4D
  3
B8
350
4E
  3
B9
350
4F
  3
C0
350
50
  3
C1
350
51
  3
C2
350
52
  3
C3
350
53
  3
C4
350
54
  3
C5
350
55
  3
C6
350
56
  3
C7
350
57
  3
C8
350
58
  3
C9
350
59
  3
D0
350
5A
  3
D1
350
5B
  3
D2
350
5C
  0
DICTIONARY
  5
336
102
{ACAD_REACTORS
330
C
102
}
330
C
100
AcDbDictionary
281
     1
  0
DICTIONARY
  5
2A
102
{ACAD_REACTORS
330
C
102
}
330
C
100
AcDbDictionary
281
     1
  3
2dWireframe
350
2F
  3
3D Hidden
350
31
  3
3dWireframe
350
30
  3
Basic
350
32
  3
Brighten
350
36
  3
ColorChange
350
3A
  3
Conceptual
350
34
  3
Dim
350
35
  3
Facepattern
350
39
  3
Flat
350
2B
  3
FlatWithEdges
350
2C
  3
Gouraud
350
2D
  3
GouraudWithEdges
350
2E
  3
Linepattern
350
38
  3
Realistic
350
33
  3
Thicken
350
37
  0
DICTIONARY
  5
334
102
{ACAD_REACTORS
330
C
102
}
330
C
100
AcDbDictionary
281
     1
  3
CANNOSCALE
350
335
  3
PSOLHEIGHT
350
339
  3
PSOLWIDTH
350
338
  0
LAYOUT
  5
1E
102
{ACAD_REACTORS
330
1A
102
}
330
1A
100
AcDbPlotSettings
  1

  2
none_device
  4

  6

 40
0.0
 41
0.0
 42
0.0
 43
0.0
 44
0.0
 45
0.0
 46
0.0
 47
0.0
 48
0.0
 49
0.0
140
0.0
141
0.0
142
1.0
143
1.0
 70
   688
 72
     0
 73
     0
 74
     5
  7

 75
    16
147
1.0
148
0.0
149
0.0
100
AcDbLayout
  1
Layout1
 70
     1
 71
     1
 10
0.0
 20
0.0
 11
12.0
 21
9.0
 12
0.0
 22
0.0
 32
0.0
 14
1.000000E+20
 24
1.000000E+20
 34
0.0
 15
-1.000000E+20
 25
-1.000000E+20
 35
0.0
146
0.0
 13
0.0
 23
0.0
 33
0.0
 16
1.0
 26
0.0
 36
0.0
 17
0.0
 27
1.0
 37
0.0
 76
     0
330
1B
  0
LAYOUT
  5
26
102
{ACAD_REACTORS
330
1A
102
}
330
1A
100
AcDbPlotSettings
  1

  2
none_device
  4

  6

 40
0.0
 41
0.0
 42
0.0
 43
0.0
 44
0.0
 45
0.0
 46
0.0
 47
0.0
 48
0.0
 49
0.0
140
0.0
141
0.0
142
1.0
143
1.0
 70
   688
 72
     0
 73
     0
 74
     5
  7

 75
    16
147
1.0
148
0.0
149
0.0
100
AcDbLayout
  1
Layout2
 70
     1
 71
     2
 10
0.0
 20
0.0
 11
0.0
 21
0.0
 12
0.0
 22
0.0
 32
0.0
 14
0.0
 24
0.0
 34
0.0
 15
0.0
 25
0.0
 35
0.0
146
0.0
 13
0.0
 23
0.0
 33
0.0
 16
1.0
 26
0.0
 36
0.0
 17
0.0
 27
1.0
 37
0.0
 76
     0
330
23
  0
LAYOUT
  5
22
102
{ACAD_REACTORS
330
1A
102
}
330
1A
100
AcDbPlotSettings
  1

  2
none_device
  4

  6

 40
0.0
 41
0.0
 42
0.0
 43
0.0
 44
0.0
 45
0.0
 46
0.0
 47
0.0
 48
0.0
 49
0.0
140
0.0
141
0.0
142
1.0
143
1.0
 70
  1712
 72
     0
 73
     0
 74
     0
  7

 75
     0
147
1.0
148
0.0
149
0.0
100
AcDbLayout
  1
Model
 70
     1
 71
     0
 10
0.0
 20
0.0
 11
12.0
 21
9.0
 12
0.0
 22
0.0
 32
0.0
 14
23.134689
 24
7.067253
 34
0.0
 15
213.134689
 25
90.143753
 35
0.0
146
0.0
 13
0.0
 23
0.0
 33
0.0
 16
1.0
 26
0.0
 36
0.0
 17
0.0
 27
1.0
 37
0.0
 76
     0
330
1F
331
29
  0
MLINESTYLE
  5
18
102
{ACAD_REACTORS
330
17
102
}
330
17
100
AcDbMlineStyle
  2
Standard
 70
     0
  3

 62
   256
 51
90.0
 52
90.0
 71
     2
 49
0.5
 62
   256
  6
BYLAYER
 49
-0.5
 62
   256
  6
BYLAYER
  0
ACDBPLACEHOLDER
  5
F
102
{ACAD_REACTORS
330
E
102
}
330
E
  0
SCALE
  5
3C
102
{ACAD_REACTORS
330
3B
102
}
330
3B
100
AcDbScale
 70
     0
300
1:1
140
1.0
141
1.0
290
     1
  0
SCALE
  5
3D
102
{ACAD_REACTORS
330
3B
102
}
330
3B
100
AcDbScale
 70
     0
300
1:2
140
1.0
141
2.0
290
     0
  0
SCALE
  5
3E
102
{ACAD_REACTORS
330
3B
102
}
330
3B
100
AcDbScale
 70
     0
300
1:4
140
1.0
141
4.0
290
     0
  0
SCALE
  5
3F
102
{ACAD_REACTORS
330
3B
102
}
330
3B
100
AcDbScale
 70
     0
300
1:5
140
1.0
141
5.0
290
     0
  0
SCALE
  5
40
102
{ACAD_REACTORS
330
3B
102
}
330
3B
100
AcDbScale
 70
     0
300
1:8
140
1.0
141
8.0
290
     0
  0
SCALE
  5
41
102
{ACAD_REACTORS
330
3B
102
}
330
3B
100
AcDbScale
 70
     0
300
1:10
140
1.0
141
10.0
290
     0
  0
SCALE
  5
42
102
{ACAD_REACTORS
330
3B
102
}
330
3B
100
AcDbScale
 70
     0
300
1:16
140
1.0
141
16.0
290
     0
  0
SCALE
  5
43
102
{ACAD_REACTORS
330
3B
102
}
330
3B
100
AcDbScale
 70
     0
300
1:20
140
1.0
141
20.0
290
     0
  0
SCALE
  5
44
102
{ACAD_REACTORS
330
3B
102
}
330
3B
100
AcDbScale
 70
     0
300
1:30
140
1.0
141
30.0
290
     0
  0
SCALE
  5
45
102
{ACAD_REACTORS
330
3B
102
}
330
3B
100
AcDbScale
 70
     0
300
1:40
140
1.0
141
40.0
290
     0
  0
SCALE
  5
46
102
{ACAD_REACTORS
330
3B
102
}
330
3B
100
AcDbScale
 70
     0
300
1:50
140
1.0
141
50.0
290
     0
  0
SCALE
  5
47
102
{ACAD_REACTORS
330
3B
102
}
330
3B
100
AcDbScale
 70
     0
300
1:100
140
1.0
141
100.0
290
     0
  0
SCALE
  5
48
102
{ACAD_REACTORS
330
3B
102
}
330
3B
100
AcDbScale
 70
     0
300
2:1
140
2.0
141
1.0
290
     0
  0
SCALE
  5
49
102
{ACAD_REACTORS
330
3B
102
}
330
3B
100
AcDbScale
 70
     0
300
4:1
140
4.0
141
1.0
290
     0
  0
SCALE
  5
4A
102
{ACAD_REACTORS
330
3B
102
}
330
3B
100
AcDbScale
 70
     0
300
8:1
140
8.0
141
1.0
290
     0
  0
SCALE
  5
4B
102
{ACAD_REACTORS
330
3B
102
}
330
3B
100
AcDbScale
 70
     0
300
10:1
140
10.0
141
1.0
290
     0
  0
SCALE
  5
4C
102
{ACAD_REACTORS
330
3B
102
}
330
3B
100
AcDbScale
 70
     0
300
100:1
140
100.0
141
1.0
290
     0
  0
SCALE
  5
4D
102
{ACAD_REACTORS
330
3B
102
}
330
3B
100
AcDbScale
 70
     0
300
1/128" = 1'-0"
140
0.007812
141
12.0
290
     0
  0
SCALE
  5
4E
102
{ACAD_REACTORS
330
3B
102
}
330
3B
100
AcDbScale
 70
     0
300
1/64" = 1'-0"
140
0.015625
141
12.0
290
     0
  0
SCALE
  5
4F
102
{ACAD_REACTORS
330
3B
102
}
330
3B
100
AcDbScale
 70
     0
300
1/32" = 1'-0"
140
0.03125
141
12.0
290
     0
  0
SCALE
  5
50
102
{ACAD_REACTORS
330
3B
102
}
330
3B
100
AcDbScale
 70
     0
300
1/16" = 1'-0"
140
0.0625
141
12.0
290
     0
  0
SCALE
  5
51
102
{ACAD_REACTORS
330
3B
102
}
330
3B
100
AcDbScale
 70
     0
300
3/32" = 1'-0"
140
0.09375
141
12.0
290
     0
  0
SCALE
  5
52
102
{ACAD_REACTORS
330
3B
102
}
330
3B
100
AcDbScale
 70
     0
300
1/8" = 1'-0"
140
0.125
141
12.0
290
     0
  0
SCALE
  5
53
102
{ACAD_REACTORS
330
3B
102
}
330
3B
100
AcDbScale
 70
     0
300
3/16" = 1'-0"
140
0.1875
141
12.0
290
     0
  0
SCALE
  5
54
102
{ACAD_REACTORS
330
3B
102
}
330
3B
100
AcDbScale
 70
     0
300
1/4" = 1'-0"
140
0.25
141
12.0
290
     0
  0
SCALE
  5
55
102
{ACAD_REACTORS
330
3B
102
}
330
3B
100
AcDbScale
 70
     0
300
3/8" = 1'-0"
140
0.375
141
12.0
290
     0
  0
SCALE
  5
56
102
{ACAD_REACTORS
330
3B
102
}
330
3B
100
AcDbScale
 70
     0
300
1/2" = 1'-0"
140
0.5
141
12.0
290
     0
  0
SCALE
  5
57
102
{ACAD_REACTORS
330
3B
102
}
330
3B
100
AcDbScale
 70
     0
300
3/4" = 1'-0"
140
0.75
141
12.0
290
     0
  0
SCALE
  5
58
102
{ACAD_REACTORS
330
3B
102
}
330
3B
100
AcDbScale
 70
     0
300
1" = 1'-0"
140
1.0
141
12.0
290
     0
  0
SCALE
  5
59
102
{ACAD_REACTORS
330
3B
102
}
330
3B
100
AcDbScale
 70
     0
300
1-1/2" = 1'-0"
140
1.5
141
12.0
290
     0
  0
SCALE
  5
5A
102
{ACAD_REACTORS
330
3B
102
}
330
3B
100
AcDbScale
 70
     0
300
3" = 1'-0"
140
3.0
141
12.0
290
     0
  0
SCALE
  5
5B
102
{ACAD_REACTORS
330
3B
102
}
330
3B
100
AcDbScale
 70
     0
300
6" = 1'-0"
140
6.0
141
12.0
290
     0
  0
SCALE
  5
5C
102
{ACAD_REACTORS
330
3B
102
}
330
3B
100
AcDbScale
 70
     0
300
1'-0" = 1'-0"
140
12.0
141
12.0
290
     0
  0
VISUALSTYLE
  5
2F
102
{ACAD_REACTORS
330
2A
102
}
330
2A
100
AcDbVisualStyle
  2
2dWireframe
 70
     4
 71
     0
 72
     2
 73
     0
 90
        0
 40
-0.6
 41
-30.0
 62
     5
 63
     7
 74
     1
 91
        4
 64
     7
 65
   257
 75
     1
175
     1
 42
1.0
 92
        0
 66
   257
 43
1.0
 76
     1
 77
     6
 78
     2
 67
     7
 79
     5
170
     0
171
     0
290
     0
174
     0
 93
        1
 44
0.0
173
     0
291
     0
 45
0.0
1001
ACAD
1000
AcDbSavedByObjectVersion
1070
     0
  0
VISUALSTYLE
  5
31
102
{ACAD_REACTORS
330
2A
102
}
330
2A
100
AcDbVisualStyle
  2
3D Hidden
 70
     6
 71
     1
 72
     2
 73
     2
 90
        0
 40
-0.6
 41
-30.0
 62
     5
 63
     7
 74
     2
 91
        2
 64
     7
 65
   257
 75
     2
175
     1
 42
40.0
 92
        0
 66
   257
 43
1.0
 76
     1
 77
     6
 78
     2
 67
     7
 79
     3
170
     0
171
     0
290
     0
174
     0
 93
        1
 44
0.0
173
     0
291
     0
 45
0.0
1001
ACAD
1000
AcDbSavedByObjectVersion
1070
     0
  0
VISUALSTYLE
  5
30
102
{ACAD_REACTORS
330
2A
102
}
330
2A
100
AcDbVisualStyle
  2
3dWireframe
 70
     5
 71
     0
 72
     2
 73
     0
 90
        0
 40
-0.6
 41
-30.0
 62
     5
 63
     7
 74
     1
 91
        4
 64
     7
 65
   257
 75
     1
175
     1
 42
1.0
 92
        0
 66
   257
 43
1.0
 76
     1
 77
     6
 78
     2
 67
     7
 79
     5
170
     0
171
     0
290
     0
174
     0
 93
        1
 44
0.0
173
     0
291
     0
 45
0.0
1001
ACAD
1000
AcDbSavedByObjectVersion
1070
     0
  0
VISUALSTYLE
  5
32
102
{ACAD_REACTORS
330
2A
102
}
330
2A
100
AcDbVisualStyle
  2
Basic
 70
     7
 71
     1
 72
     0
 73
     1
 90
        0
 40
-0.6
 41
-30.0
 62
     5
 63
     7
 74
     0
 91
        4
 64
     7
 65
   257
 75
     1
175
     1
 42
1.0
 92
        8
 66
     7
 43
1.0
 76
     1
 77
     6
 78
     2
 67
     7
 79
     5
170
     0
171
     0
290
     0
174
     0
 93
        1
 44
0.0
173
     0
291
     1
 45
0.0
1001
ACAD
1000
AcDbSavedByObjectVersion
1070
     0
  0
VISUALSTYLE
  5
36
102
{ACAD_REACTORS
330
2A
102
}
330
2A
100
AcDbVisualStyle
  2
Brighten
 70
    12
 71
     2
 72
     2
 73
     0
 90
        0
 40
-0.6
 41
-30.0
 62
     5
 63
     7
 74
     1
 91
        4
 64
     7
 65
   257
 75
     1
175
     1
 42
1.0
 92
        8
 66
     7
 43
1.0
 76
     1
 77
     6
 78
     2
 67
     7
 79
     5
170
     0
171
     0
290
     0
174
     0
 93
        1
 44
50.0
173
     0
291
     1
 45
0.0
1001
ACAD
1000
AcDbSavedByObjectVersion
1070
     0
  0
VISUALSTYLE
  5
3A
102
{ACAD_REACTORS
330
2A
102
}
330
2A
100
AcDbVisualStyle
  2
ColorChange
 70
    16
 71
     2
 72
     2
 73
     3
 90
        0
 40
-0.6
 41
-30.0
 62
     5
 63
     8
 74
     1
 91
        4
 64
     7
 65
   257
 75
     1
175
     1
 42
1.0
 92
        8
 66
     8
 43
1.0
 76
     1
 77
     6
 78
     2
 67
     7
 79
     5
170
     0
171
     0
290
     0
174
     0
 93
        1
 44
0.0
173
     0
291
     1
 45
0.0
1001
ACAD
1000
AcDbSavedByObjectVersion
1070
     0
  0
VISUALSTYLE
  5
34
102
{ACAD_REACTORS
330
2A
102
}
330
2A
100
AcDbVisualStyle
  2
Conceptual
 70
     9
 71
     3
 72
     2
 73
     0
 90
        0
 40
-0.6
 41
-30.0
 62
     5
 63
     7
 74
     2
 91
        2
 64
     7
 65
   257
 75
     1
175
     1
 42
40.0
 92
        8
 66
     7
 43
1.0
 76
     1
 77
     6
 78
     2
 67
     7
 79
     3
170
     0
171
     0
290
     0
174
     0
 93
        1
 44
0.0
173
     0
291
     0
 45
0.0
1001
ACAD
1000
AcDbSavedByObjectVersion
1070
     0
  0
VISUALSTYLE
  5
35
102
{ACAD_REACTORS
330
2A
102
}
330
2A
100
AcDbVisualStyle
  2
Dim
 70
    11
 71
     2
 72
     2
 73
     0
 90
        0
 40
-0.6
 41
-30.0
 62
     5
 63
     7
 74
     1
 91
        4
 64
     7
 65
   257
 75
     1
175
     1
 42
1.0
 92
        8
 66
     7
 43
1.0
 76
     1
 77
     6
 78
     2
 67
     7
 79
     5
170
     0
171
     0
290
     0
174
     0
 93
        1
 44
-50.0
173
     0
291
     1
 45
0.0
1001
ACAD
1000
AcDbSavedByObjectVersion
1070
     0
  0
VISUALSTYLE
  5
39
102
{ACAD_REACTORS
330
2A
102
}
330
2A
100
AcDbVisualStyle
  2
Facepattern
 70
    15
 71
     2
 72
     2
 73
     0
 90
        0
 40
-0.6
 41
-30.0
 62
     5
 63
     7
 74
     1
 91
        4
 64
     7
 65
   257
 75
     1
175
     1
 42
1.0
 92
        8
 66
     7
 43
1.0
 76
     1
 77
     6
 78
     2
 67
     7
 79
     5
170
     0
171
     0
290
     0
174
     0
 93
        1
 44
0.0
173
     0
291
     1
 45
0.0
1001
ACAD
1000
AcDbSavedByObjectVersion
1070
     0
  0
VISUALSTYLE
  5
2B
102
{ACAD_REACTORS
330
2A
102
}
330
2A
100
AcDbVisualStyle
  2
Flat
 70
     0
 71
     2
 72
     1
 73
     1
 90
        2
 40
-0.6
 41
30.0
 62
     5
 63
     7
 74
     0
 91
        4
 64
     7
 65
   257
 75
     1
175
     1
 42
1.0
 92
        8
 66
     7
 43
1.0
 76
     1
 77
     6
 78
     2
 67
     7
 79
     5
170
     0
171
     0
290
     0
174
     0
 93
       13
 44
0.0
173
     0
291
     1
 45
0.0
1001
ACAD
1000
AcDbSavedByObjectVersion
1070
     0
  0
VISUALSTYLE
  5
2C
102
{ACAD_REACTORS
330
2A
102
}
330
2A
100
AcDbVisualStyle
  2
FlatWithEdges
 70
     1
 71
     2
 72
     1
 73
     1
 90
        2
 40
-0.6
 41
30.0
 62
     5
 63
     7
 74
     1
 91
        4
 64
     7
 65
   257
 75
     1
175
     1
 42
1.0
 92
        0
 66
   257
 43
1.0
 76
     1
 77
     6
 78
     2
 67
     7
 79
     5
170
     0
171
     0
290
     0
174
     0
 93
       13
 44
0.0
173
     0
291
     1
 45
0.0
1001
ACAD
1000
AcDbSavedByObjectVersion
1070
     0
  0
VISUALSTYLE
  5
2D
102
{ACAD_REACTORS
330
2A
102
}
330
2A
100
AcDbVisualStyle
  2
Gouraud
 70
     2
 71
     2
 72
     2
 73
     1
 90
        2
 40
-0.6
 41
30.0
 62
     5
 63
     7
 74
     0
 91
        4
 64
     7
 65
   257
 75
     1
175
     1
 42
1.0
 92
        0
 66
     7
 43
1.0
 76
     1
 77
     6
 78
     2
 67
     7
 79
     5
170
     0
171
     0
290
     0
174
     0
 93
       13
 44
0.0
173
     0
291
     1
 45
0.0
1001
ACAD
1000
AcDbSavedByObjectVersion
1070
     0
  0
VISUALSTYLE
  5
2E
102
{ACAD_REACTORS
330
2A
102
}
330
2A
100
AcDbVisualStyle
  2
GouraudWithEdges
 70
     3
 71
     2
 72
     2
 73
     1
 90
        2
 40
-0.6
 41
30.0
 62
     5
 63
     7
 74
     1
 91
        4
 64
     7
 65
   257
 75
     1
175
     1
 42
1.0
 92
        0
 66
   257
 43
1.0
 76
     1
 77
     6
 78
     2
 67
     7
 79
     5
170
     0
171
     0
290
     0
174
     0
 93
       13
 44
0.0
173
     0
291
     1
 45
0.0
1001
ACAD
1000
AcDbSavedByObjectVersion
1070
     0
  0
VISUALSTYLE
  5
38
102
{ACAD_REACTORS
330
2A
102
}
330
2A
100
AcDbVisualStyle
  2
Linepattern
 70
    14
 71
     2
 72
     2
 73
     0
 90
        0
 40
-0.6
 41
-30.0
 62
     5
 63
     7
 74
     1
 91
        4
 64
     7
 65
   257
 75
     7
175
     7
 42
1.0
 92
        8
 66
     7
 43
1.0
 76
     1
 77
     6
 78
     2
 67
     7
 79
     5
170
     0
171
     0
290
     0
174
     0
 93
        1
 44
0.0
173
     0
291
     1
 45
0.0
1001
ACAD
1000
AcDbSavedByObjectVersion
1070
     0
  0
VISUALSTYLE
  5
33
102
{ACAD_REACTORS
330
2A
102
}
330
2A
100
AcDbVisualStyle
  2
Realistic
 70
     8
 71
     2
 72
     2
 73
     0
 90
        0
 40
-0.6
 41
-30.0
 62
     5
 63
     7
 74
     1
 91
        0
 64
     7
 65
   257
 75
     1
175
     1
 42
1.0
 92
        8
 66
     8
 43
1.0
 76
     1
 77
     6
 78
     2
 67
     7
 79
     5
170
     0
171
     0
290
     0
174
     0
 93
       13
 44
0.0
173
     0
291
     0
 45
0.0
1001
ACAD
1000
AcDbSavedByObjectVersion
1070
     0
  0
VISUALSTYLE
  5
37
102
{ACAD_REACTORS
330
2A
102
}
330
2A
100
AcDbVisualStyle
  2
Thicken
 70
    13
 71
     2
 72
     2
 73
     0
 90
        0
 40
-0.6
 41
-30.0
 62
     5
 63
     7
 74
     1
 91
        4
 64
     7
 65
   257
 75
     1
175
     1
 42
1.0
 92
       12
 66
     7
 43
1.0
 76
     1
 77
     6
 78
     2
 67
     7
 79
     5
170
     0
171
     0
290
     0
174
     0
 93
        1
 44
0.0
173
     0
291
     1
 45
0.0
1001
ACAD
1000
AcDbSavedByObjectVersion
1070
     0
  0
DICTIONARYVAR
  5
335
102
{ACAD_REACTORS
330
334
102
}
330
334
100
DictionaryVariables
280
     0
  1
1:1
  0
DICTIONARYVAR
  5
339
102
{ACAD_REACTORS
330
334
102
}
330
334
100
DictionaryVariables
280
     0
  1
80.000000
  0
DICTIONARYVAR
  5
338
102
{ACAD_REACTORS
330
334
102
}
330
334
100
DictionaryVariables
280
     0
  1
5.000000
  0
ENDSEC
  0
EOF
