  0
SECTION
  2
HEADER
  9
$ACADVER
  1
AC1015
  9
$ACADMAINTVER
 70
     6
  9
$DWGCODEPAGE
  3
ANSI_932
  9
$INSBASE
 10
0.0
 20
0.0
 30
0.0
  9
$EXTMIN
 10
12.92849
 20
4.281815
 30
0.0
  9
$EXTMAX
 10
252.689056
 20
168.829239
 30
0.0
  9
$LIMMIN
 10
0.0
 20
0.0
  9
$LIMMAX
 10
12.0
 20
9.0
  9
$ORTHOMODE
 70
     0
  9
$REGENMODE
 70
     1
  9
$FILLMODE
 70
     1
  9
$QTEXTMODE
 70
     0
  9
$MIRRTEXT
 70
     1
  9
$LTSCALE
 40
2.907937
  9
$ATTMODE
 70
     1
  9
$TEXTSIZE
 40
3.2
  9
$TRACEWID
 40
1.0
  9
$TEXTSTYLE
  7
Standard
  9
$CLAYER
  8
0
  9
$CELTYPE
  6
ByLayer
  9
$CECOLOR
 62
   256
  9
$CELTSCALE
 40
1.0
  9
$DISPSILH
 70
     0
  9
$DIMSCALE
 40
1.0
  9
$DIMASZ
 40
2.5
  9
$DIMEXO
 40
0.625
  9
$DIMDLI
 40
3.75
  9
$DIMRND
 40
0.0
  9
$DIMDLE
 40
0.0
  9
$DIMEXE
 40
1.25
  9
$DIMTP
 40
0.0
  9
$DIMTM
 40
0.0
  9
$DIMTXT
 40
2.5
  9
$DIMCEN
 40
0.09
  9
$DIMTSZ
 40
0.0
  9
$DIMTOL
 70
     0
  9
$DIMLIM
 70
     0
  9
$DIMTIH
 70
     0
  9
$DIMTOH
 70
     0
  9
$DIMSE1
 70
     0
  9
$DIMSE2
 70
     0
  9
$DIMTAD
 70
     0
  9
$DIMZIN
 70
     8
  9
$DIMBLK
  1

  9
$DIMASO
 70
     1
  9
$DIMSHO
 70
     0
  9
$DIMPOST
  1

  9
$DIMAPOST
  1

  9
$DIMALT
 70
     0
  9
$DIMALTD
 70
     3
  9
$DIMALTF
 40
0.03937
  9
$DIMLFAC
 40
1.0
  9
$DIMTOFL
 70
     1
  9
$DIMTVP
 40
0.0
  9
$DIMTIX
 70
     0
  9
$DIMSOXD
 70
     0
  9
$DIMSAH
 70
     0
  9
$DIMBLK1
  1

  9
$DIMBLK2
  1

  9
$DIMSTYLE
  2
ISO-25
  9
$DIMCLRD
 70
     0
  9
$DIMCLRE
 70
     0
  9
$DIMCLRT
 70
     0
  9
$DIMTFAC
 40
1.0
  9
$DIMGAP
 40
0.625
  9
$DIMJUST
 70
     0
  9
$DIMSD1
 70
     0
  9
$DIMSD2
 70
     0
  9
$DIMTOLJ
 70
     0
  9
$DIMTZIN
 70
     8
  9
$DIMALTZ
 70
     0
  9
$DIMALTTZ
 70
     0
  9
$DIMUPT
 70
     0
  9
$DIMDEC
 70
     2
  9
$DIMTDEC
 70
     2
  9
$DIMALTU
 70
     2
  9
$DIMALTTD
 70
     3
  9
$DIMTXSTY
  7
Standard
  9
$DIMAUNIT
 70
     0
  9
$DIMADEC
 70
     0
  9
$DIMALTRND
 40
0.0
  9
$DIMAZIN
 70
     0
  9
$DIMDSEP
 70
    44
  9
$DIMATFIT
 70
     3
  9
$DIMFRAC
 70
     0
  9
$DIMLDRBLK
  1

  9
$DIMLUNIT
 70
     2
  9
$DIMLWD
 70
    -2
  9
$DIMLWE
 70
    -2
  9
$DIMTMOVE
 70
     0
  9
$LUNITS
 70
     2
  9
$LUPREC
 70
     4
  9
$SKETCHINC
 40
1.0
  9
$FILLETRAD
 40
0.0
  9
$AUNITS
 70
     0
  9
$AUPREC
 70
     0
  9
$MENU
  1
.
  9
$ELEVATION
 40
0.0
  9
$PELEVATION
 40
0.0
  9
$THICKNESS
 40
0.0
  9
$LIMCHECK
 70
     0
  9
$CHAMFERA
 40
10.0
  9
$CHAMFERB
 40
10.0
  9
$CHAMFERC
 40
20.0
  9
$CHAMFERD
 40
0.0
  9
$SKPOLY
 70
     0
  9
$TDCREATE
 40
2454798.586429757
  9
$TDUCREATE
 40
2454798.211429757
  9
$TDUPDATE
 40
2454798.586429769
  9
$TDUUPDATE
 40
2454798.211429769
  9
$TDINDWG
 40
0.0000000116
  9
$TDUSRTIMER
 40
0.0000000116
  9
$USRTIMER
 70
     1
  9
$ANGBASE
 50
0.0
  9
$ANGDIR
 70
     0
  9
$PDMODE
 70
     0
  9
$PDSIZE
 40
0.0
  9
$PLINEWID
 40
0.0
  9
$SPLFRAME
 70
     0
  9
$SPLINETYPE
 70
     6
  9
$SPLINESEGS
 70
     8
  9
$HANDSEED
  5
6B5
  9
$SURFTAB1
 70
     6
  9
$SURFTAB2
 70
     6
  9
$SURFTYPE
 70
     6
  9
$SURFU
 70
     6
  9
$SURFV
 70
     6
  9
$UCSBASE
  2

  9
$UCSNAME
  2

  9
$UCSORG
 10
0.0
 20
0.0
 30
0.0
  9
$UCSXDIR
 10
1.0
 20
0.0
 30
0.0
  9
$UCSYDIR
 10
0.0
 20
1.0
 30
0.0
  9
$UCSORTHOREF
  2

  9
$UCSORTHOVIEW
 70
     0
  9
$UCSORGTOP
 10
0.0
 20
0.0
 30
0.0
  9
$UCSORGBOTTOM
 10
0.0
 20
0.0
 30
0.0
  9
$UCSORGLEFT
 10
0.0
 20
0.0
 30
0.0
  9
$UCSORGRIGHT
 10
0.0
 20
0.0
 30
0.0
  9
$UCSORGFRONT
 10
0.0
 20
0.0
 30
0.0
  9
$UCSORGBACK
 10
0.0
 20
0.0
 30
0.0
  9
$PUCSBASE
  2

  9
$PUCSNAME
  2

  9
$PUCSORG
 10
0.0
 20
0.0
 30
0.0
  9
$PUCSXDIR
 10
1.0
 20
0.0
 30
0.0
  9
$PUCSYDIR
 10
0.0
 20
1.0
 30
0.0
  9
$PUCSORTHOREF
  2

  9
$PUCSORTHOVIEW
 70
     0
  9
$PUCSORGTOP
 10
0.0
 20
0.0
 30
0.0
  9
$PUCSORGBOTTOM
 10
0.0
 20
0.0
 30
0.0
  9
$PUCSORGLEFT
 10
0.0
 20
0.0
 30
0.0
  9
$PUCSORGRIGHT
 10
0.0
 20
0.0
 30
0.0
  9
$PUCSORGFRONT
 10
0.0
 20
0.0
 30
0.0
  9
$PUCSORGBACK
 10
0.0
 20
0.0
 30
0.0
  9
$USERI1
 70
     0
  9
$USERI2
 70
     0
  9
$USERI3
 70
     0
  9
$USERI4
 70
     0
  9
$USERI5
 70
     0
  9
$USERR1
 40
0.0
  9
$USERR2
 40
0.0
  9
$USERR3
 40
0.0
  9
$USERR4
 40
0.0
  9
$USERR5
 40
0.0
  9
$WORLDVIEW
 70
     1
  9
$SHADEDGE
 70
     3
  9
$SHADEDIF
 70
    70
  9
$TILEMODE
 70
     1
  9
$MAXACTVP
 70
    64
  9
$PINSBASE
 10
0.0
 20
0.0
 30
0.0
  9
$PLIMCHECK
 70
     0
  9
$PEXTMIN
 10
1.000000E+20
 20
1.000000E+20
 30
0.0
  9
$PEXTMAX
 10
-1.000000E+20
 20
-1.000000E+20
 30
0.0
  9
$PLIMMIN
 10
0.0
 20
0.0
  9
$PLIMMAX
 10
12.0
 20
9.0
  9
$UNITMODE
 70
     0
  9
$VISRETAIN
 70
     1
  9
$PLINEGEN
 70
     0
  9
$PSLTSCALE
 70
     1
  9
$TREEDEPTH
 70
  3020
  9
$CMLSTYLE
  2
Standard
  9
$CMLJUST
 70
     0
  9
$CMLSCALE
 40
20.0
  9
$PROXYGRAPHICS
 70
     1
  9
$MEASUREMENT
 70
     1
  9
$CELWEIGHT
370
    -1
  9
$ENDCAPS
280
     0
  9
$JOINSTYLE
280
     0
  9
$LWDISPLAY
290
     0
  9
$INSUNITS
 70
     4
  9
$HYPERLINKBASE
  1

  9
$STYLESHEET
  1

  9
$XEDIT
290
     1
  9
$CEPSNTYPE
380
     0
  9
$PSTYLEMODE
290
     1
  9
$FINGERPRINTGUID
  2
{49CB9B7A-3DB3-4319-B679-9D0F05D9C241}
  9
$VERSIONGUID
  2
{FAEB1C32-E019-11D5-929B-00C0DF256EC4}
  9
$EXTNAMES
290
     1
  9
$PSVPSCALE
 40
0.0
  9
$OLESTARTUP
290
     0
  0
ENDSEC
  0
SECTION
  2
CLASSES
  0
CLASS
  1
ACDBDICTIONARYWDFLT
  2
AcDbDictionaryWithDefault
  3
ObjectDBX Classes
 90
        0
280
     0
281
     0
  0
CLASS
  1
VISUALSTYLE
  2
AcDbVisualStyle
  3
ObjectDBX Classes
 90
     4095
280
     0
281
     0
  0
CLASS
  1
SCALE
  2
AcDbScale
  3
ObjectDBX Classes
 90
     1153
280
     0
281
     0
  0
CLASS
  1
DICTIONARYVAR
  2
AcDbDictionaryVar
  3
ObjectDBX Classes
 90
        0
280
     0
281
     0
  0
CLASS
  1
ACDBPLACEHOLDER
  2
AcDbPlaceHolder
  3
ObjectDBX Classes
 90
        0
280
     0
281
     0
  0
CLASS
  1
LAYOUT
  2
AcDbLayout
  3
ObjectDBX Classes
 90
        0
280
     0
281
     0
  0
ENDSEC
  0
SECTION
  2
TABLES
  0
TABLE
  2
VPORT
  5
8
330
0
100
AcDbSymbolTable
 70
     1
  0
VPORT
  5
29
330
8
100
AcDbSymbolTableRecord
100
AcDbViewportTableRecord
  2
*Active
 70
     0
 10
0.0
 20
0.0
 11
1.0
 21
1.0
 12
132.808773
 22
86.555527
 13
0.0
 23
0.0
 14
1.0
 24
1.0
 15
0.0
 25
0.0
 16
0.0
 26
0.0
 36
1.0
 17
0.0
 27
0.0
 37
0.0
 40
166.192899
 41
1.691288
 42
50.0
 43
0.0
 44
0.0
 50
0.0
 51
0.0
 71
     0
 72
   100
 73
     1
 74
     3
 75
     0
 76
     0
 77
     0
 78
     0
281
     0
 65
     1
110
0.0
120
0.0
130
0.0
111
1.0
121
0.0
131
0.0
112
0.0
122
1.0
132
0.0
 79
     0
146
0.0
  0
ENDTAB
  0
TABLE
  2
LTYPE
  5
5
330
0
100
AcDbSymbolTable
 70
     5
  0
LTYPE
  5
14
330
5
100
AcDbSymbolTableRecord
100
AcDbLinetypeTableRecord
  2
ByBlock
 70
     0
  3

 72
    65
 73
     0
 40
0.0
  0
LTYPE
  5
15
330
5
100
AcDbSymbolTableRecord
100
AcDbLinetypeTableRecord
  2
ByLayer
 70
     0
  3

 72
    65
 73
     0
 40
0.0
  0
LTYPE
  5
16
330
5
100
AcDbSymbolTableRecord
100
AcDbLinetypeTableRecord
  2
Continuous
 70
     0
  3
Solid line
 72
    65
 73
     0
 40
0.0
  0
LTYPE
  5
5D
330
5
100
AcDbSymbolTableRecord
100
AcDbLinetypeTableRecord
  2
DASHED
 70
     0
  3
DASHED
 72
    83
 73
     2
 40
0.75
 49
0.5
 74
     0
 49
-0.25
 74
     0
  0
LTYPE
  5
5E
330
5
100
AcDbSymbolTableRecord
100
AcDbLinetypeTableRecord
  2
HIDDEN
 70
     0
  3
HIDDEN
 72
    83
 73
     2
 40
0.375
 49
0.25
 74
     0
 49
-0.125
 74
     0
  0
LTYPE
  5
5F
330
5
100
AcDbSymbolTableRecord
100
AcDbLinetypeTableRecord
  2
CENTER
 70
     0
  3
CENTER
 72
    83
 73
     4
 40
2.0
 49
1.25
 74
     0
 49
-0.25
 74
     0
 49
0.25
 74
     0
 49
-0.25
 74
     0
  0
LTYPE
  5
60
330
5
100
AcDbSymbolTableRecord
100
AcDbLinetypeTableRecord
  2
PHANTOM
 70
     0
  3
PHANTOM
 72
    83
 73
     6
 40
2.5
 49
1.25
 74
     0
 49
-0.25
 74
     0
 49
0.25
 74
     0
 49
-0.25
 74
     0
 49
0.25
 74
     0
 49
-0.25
 74
     0
  0
ENDTAB
  0
TABLE
  2
LAYER
  5
2
330
0
100
AcDbSymbolTable
 70
     2
  0
LAYER
  5
10
330
2
100
AcDbSymbolTableRecord
100
AcDbLayerTableRecord
  2
0
 70
     0
 62
     7
  6
Continuous
370
    -3
390
F
  0
LAYER
  5
61
330
2
100
AcDbSymbolTableRecord
100
AcDbLayerTableRecord
  2
001
 70
     0
 62
     7
  6
Continuous
370
    -3
390
F
  0
ENDTAB
  0
TABLE
  2
STYLE
  5
3
330
0
100
AcDbSymbolTable
 70
     2
  0
STYLE
  5
11
330
3
100
AcDbSymbolTableRecord
100
AcDbTextStyleTableRecord
  2
Standard
 70
     0
 40
0.0
 41
1.0
 50
0.0
 71
     0
 42
0.2
  3
TXT
  4
BIGFONT
  0
STYLE
  5
62
330
3
100
AcDbSymbolTableRecord
100
AcDbTextStyleTableRecord
  2
TATEGAKI
 70
     4
 40
1.0
 41
1.0
 50
0.0
 71
     0
 42
0.2
  3
TXT
  4
BIGFONT
  0
ENDTAB
  0
TABLE
  2
VIEW
  5
6
330
0
100
AcDbSymbolTable
 70
     0
  0
ENDTAB
  0
TABLE
  2
UCS
  5
7
330
0
100
AcDbSymbolTable
 70
     0
  0
ENDTAB
  0
TABLE
  2
APPID
  5
9
330
0
100
AcDbSymbolTable
 70
     1
  0
APPID
  5
12
330
9
100
AcDbSymbolTableRecord
100
AcDbRegAppTableRecord
  2
ACAD
 70
     0
  0
ENDTAB
  0
TABLE
  2
DIMSTYLE
  5
A
330
0
100
AcDbSymbolTable
 70
     2
100
AcDbDimStyleTable
  0
DIMSTYLE
105
27
330
A
100
AcDbSymbolTableRecord
100
AcDbDimStyleTableRecord
  2
ISO-25
 70
     0
 41
2.5
 42
0.625
 43
3.75
 44
1.25
 73
     0
 74
     0
 77
     1
 78
     8
140
2.5
141
2.5
143
0.03937
147
0.625
171
     3
172
     1
271
     2
272
     2
274
     3
278
    44
283
     0
284
     8
340
11
  0
DIMSTYLE
105
63
102
{ACAD_REACTORS
330
180
330
181
330
182
330
191
330
192
330
193
330
194
330
195
330
196
330
197
330
198
330
199
330
19A
330
19B
102
}
330
A
100
AcDbSymbolTableRecord
100
AcDbDimStyleTableRecord
  2
Standard
 70
     0
 41
1.5
 42
0.0
 44
2.75
 73
     0
 74
     0
 77
     1
 78
     8
 79
     2
140
4.0
146
0.8
147
1.0
172
     1
179
     1
271
     1
340
11
  0
ENDTAB
  0
TABLE
  2
BLOCK_RECORD
  5
1
330
0
100
AcDbSymbolTable
 70
    15
  0
BLOCK_RECORD
  5
1F
330
1
100
AcDbSymbolTableRecord
100
AcDbBlockTableRecord
  2
*Model_Space
340
22
  0
BLOCK_RECORD
  5
1B
330
1
100
AcDbSymbolTableRecord
100
AcDbBlockTableRecord
  2
*Paper_Space
340
1E
  0
BLOCK_RECORD
  5
23
330
1
100
AcDbSymbolTableRecord
100
AcDbBlockTableRecord
  2
*Paper_Space0
340
26
  0
BLOCK_RECORD
  5
64
330
1
100
AcDbSymbolTableRecord
100
AcDbBlockTableRecord
  2
*D1
340
0
  0
BLOCK_RECORD
  5
78
330
1
100
AcDbSymbolTableRecord
100
AcDbBlockTableRecord
  2
*D2
340
0
  0
BLOCK_RECORD
  5
8C
330
1
100
AcDbSymbolTableRecord
100
AcDbBlockTableRecord
  2
*D3
340
0
  0
BLOCK_RECORD
  5
A0
330
1
100
AcDbSymbolTableRecord
100
AcDbBlockTableRecord
  2
*D4
340
0
  0
BLOCK_RECORD
  5
B4
330
1
100
AcDbSymbolTableRecord
100
AcDbBlockTableRecord
  2
*D5
340
0
  0
BLOCK_RECORD
  5
C8
330
1
100
AcDbSymbolTableRecord
100
AcDbBlockTableRecord
  2
*D6
340
0
  0
BLOCK_RECORD
  5
DC
330
1
100
AcDbSymbolTableRecord
100
AcDbBlockTableRecord
  2
*D7
340
0
  0
BLOCK_RECORD
  5
F0
330
1
100
AcDbSymbolTableRecord
100
AcDbBlockTableRecord
  2
*D8
340
0
  0
BLOCK_RECORD
  5
104
330
1
100
AcDbSymbolTableRecord
100
AcDbBlockTableRecord
  2
*D9
340
0
  0
BLOCK_RECORD
  5
118
330
1
100
AcDbSymbolTableRecord
100
AcDbBlockTableRecord
  2
*D10
340
0
  0
BLOCK_RECORD
  5
12C
330
1
100
AcDbSymbolTableRecord
100
AcDbBlockTableRecord
  2
*D11
340
0
  0
BLOCK_RECORD
  5
140
330
1
100
AcDbSymbolTableRecord
100
AcDbBlockTableRecord
  2
*D12
340
0
  0
BLOCK_RECORD
  5
154
330
1
100
AcDbSymbolTableRecord
100
AcDbBlockTableRecord
  2
*D13
340
0
  0
BLOCK_RECORD
  5
16A
330
1
100
AcDbSymbolTableRecord
100
AcDbBlockTableRecord
  2
*D14
340
0
  0
ENDTAB
  0
ENDSEC
  0
SECTION
  2
BLOCKS
  0
BLOCK
  5
20
330
1F
100
AcDbEntity
  8
0
100
AcDbBlockBegin
  2
*Model_Space
 70
     0
 10
0.0
 20
0.0
 30
0.0
  3
*Model_Space
  1

  0
ENDBLK
  5
21
330
1F
100
AcDbEntity
  8
0
100
AcDbBlockEnd
  0
BLOCK
  5
1C
330
1B
100
AcDbEntity
 67
     1
  8
0
100
AcDbBlockBegin
  2
*Paper_Space
 70
     0
 10
0.0
 20
0.0
 30
0.0
  3
*Paper_Space
  1

  0
ENDBLK
  5
1D
330
1B
100
AcDbEntity
 67
     1
  8
0
100
AcDbBlockEnd
  0
BLOCK
  5
24
330
23
100
AcDbEntity
  8
0
100
AcDbBlockBegin
  2
*Paper_Space0
 70
     0
 10
0.0
 20
0.0
 30
0.0
  3
*Paper_Space0
  1

  0
ENDBLK
  5
25
330
23
100
AcDbEntity
  8
0
100
AcDbBlockEnd
  0
BLOCK
  5
65
330
64
100
AcDbEntity
  8
0
100
AcDbBlockBegin
  2
*D1
 70
     1
 10
0.0
 20
0.0
 30
0.0
  3
*D1
  1

  0
LINE
  5
67
330
64
100
AcDbEntity
  8
001
370
     9
100
AcDbLine
 10
215.0759
 20
100.703082
 30
0.0
 11
252.689066
 21
100.703082
 31
0.0
  0
LINE
  5
68
330
64
100
AcDbEntity
  8
001
370
     9
100
AcDbLine
 10
215.0759
 20
132.703082
 30
0.0
 11
252.689066
 21
132.703082
 31
0.0
  0
LINE
  5
69
330
64
100
AcDbEntity
  8
001
370
     9
100
AcDbLine
 10
249.939066
 20
100.703082
 30
0.0
 11
249.939066
 21
132.703082
 31
0.0
  0
POLYLINE
  5
6A
330
64
100
AcDbEntity
  8
001
370
     9
100
AcDb2dPolyline
 66
     1
 10
0.0
 20
0.0
 30
0.0
  0
VERTEX
  5
6C
330
6A
100
AcDbEntity
  8
001
370
     9
100
AcDbVertex
100
AcDb2dVertex
 10
250.34099
 20
102.203082
 30
0.0
  0
VERTEX
  5
6D
330
6A
100
AcDbEntity
  8
001
370
     9
100
AcDbVertex
100
AcDb2dVertex
 10
249.939066
 20
100.703082
 30
0.0
  0
VERTEX
  5
6E
330
6A
100
AcDbEntity
  8
001
370
     9
100
AcDbVertex
100
AcDb2dVertex
 10
249.537143
 20
102.203082
 30
0.0
  0
SEQEND
  5
6B
330
6A
100
AcDbEntity
  8
001
370
     9
  0
POLYLINE
  5
6F
330
64
100
AcDbEntity
  8
001
370
     9
100
AcDb2dPolyline
 66
     1
 10
0.0
 20
0.0
 30
0.0
  0
VERTEX
  5
71
330
6F
100
AcDbEntity
  8
001
370
     9
100
AcDbVertex
100
AcDb2dVertex
 10
249.537143
 20
131.203082
 30
0.0
  0
VERTEX
  5
72
330
6F
100
AcDbEntity
  8
001
370
     9
100
AcDbVertex
100
AcDb2dVertex
 10
249.939066
 20
132.703082
 30
0.0
  0
VERTEX
  5
73
330
6F
100
AcDbEntity
  8
001
370
     9
100
AcDbVertex
100
AcDb2dVertex
 10
250.34099
 20
131.203082
 30
0.0
  0
SEQEND
  5
70
330
6F
100
AcDbEntity
  8
001
370
     9
  0
TEXT
  5
74
330
64
100
AcDbEntity
  8
001
370
    30
100
AcDbText
 10
248.939066
 20
110.703082
 30
0.0
 40
4.0
  1
%%c３２
 50
90.000003
 41
0.882353
100
AcDbText
  0
POINT
  5
75
330
64
100
AcDbEntity
  8
001
370
     9
100
AcDbPoint
 10
215.0759
 20
100.703082
 30
0.0
  0
POINT
  5
76
330
64
100
AcDbEntity
  8
001
370
     9
100
AcDbPoint
 10
215.0759
 20
132.703082
 30
0.0
  0
POINT
  5
77
330
64
100
AcDbEntity
  8
001
370
     9
100
AcDbPoint
 10
249.939066
 20
132.703082
 30
0.0
  0
ENDBLK
  5
66
330
64
100
AcDbEntity
  8
0
100
AcDbBlockEnd
  0
BLOCK
  5
79
330
78
100
AcDbEntity
  8
0
100
AcDbBlockBegin
  2
*D2
 70
     1
 10
0.0
 20
0.0
 30
0.0
  3
*D2
  1

  0
LINE
  5
7B
330
78
100
AcDbEntity
  8
001
370
     9
100
AcDbLine
 10
45.428492
 20
16.322064
 30
0.0
 11
45.428492
 21
7.339458
 31
0.0
  0
LINE
  5
7C
330
78
100
AcDbEntity
  8
001
370
     9
100
AcDbLine
 10
25.428492
 20
16.322064
 30
0.0
 11
25.428492
 21
7.339458
 31
0.0
  0
LINE
  5
7D
330
78
100
AcDbEntity
  8
001
370
     9
100
AcDbLine
 10
45.428492
 20
9.172792
 30
0.0
 11
25.428492
 21
9.172792
 31
0.0
  0
POLYLINE
  5
7E
330
78
100
AcDbEntity
  8
001
370
     9
100
AcDb2dPolyline
 66
     1
 10
0.0
 20
0.0
 30
0.0
  0
VERTEX
  5
80
330
7E
100
AcDbEntity
  8
001
370
     9
100
AcDbVertex
100
AcDb2dVertex
 10
44.428492
 20
9.440741
 30
0.0
  0
VERTEX
  5
81
330
7E
100
AcDbEntity
  8
001
370
     9
100
AcDbVertex
100
AcDb2dVertex
 10
45.428492
 20
9.172792
 30
0.0
  0
VERTEX
  5
82
330
7E
100
AcDbEntity
  8
001
370
     9
100
AcDbVertex
100
AcDb2dVertex
 10
44.428492
 20
8.904842
 30
0.0
  0
SEQEND
  5
7F
330
7E
100
AcDbEntity
  8
001
370
     9
  0
POLYLINE
  5
83
330
78
100
AcDbEntity
  8
001
370
     9
100
AcDb2dPolyline
 66
     1
 10
0.0
 20
0.0
 30
0.0
  0
VERTEX
  5
85
330
83
100
AcDbEntity
  8
001
370
     9
100
AcDbVertex
100
AcDb2dVertex
 10
26.428492
 20
8.904842
 30
0.0
  0
VERTEX
  5
86
330
83
100
AcDbEntity
  8
001
370
     9
100
AcDbVertex
100
AcDb2dVertex
 10
25.428492
 20
9.172792
 30
0.0
  0
VERTEX
  5
87
330
83
100
AcDbEntity
  8
001
370
     9
100
AcDbVertex
100
AcDb2dVertex
 10
26.428492
 20
9.440741
 30
0.0
  0
SEQEND
  5
84
330
83
100
AcDbEntity
  8
001
370
     9
  0
TEXT
  5
88
330
78
100
AcDbEntity
  8
001
370
    30
100
AcDbText
 10
31.428492
 20
9.839458
 30
0.0
 40
2.666667
  1
%%c２０
 41
0.882353
100
AcDbText
  0
POINT
  5
89
330
78
100
AcDbEntity
  8
001
370
     9
100
AcDbPoint
 10
45.428492
 20
16.322064
 30
0.0
  0
POINT
  5
8A
330
78
100
AcDbEntity
  8
001
370
     9
100
AcDbPoint
 10
25.428492
 20
16.322064
 30
0.0
  0
POINT
  5
8B
330
78
100
AcDbEntity
  8
001
370
     9
100
AcDbPoint
 10
25.428492
 20
9.172792
 30
0.0
  0
ENDBLK
  5
7A
330
78
100
AcDbEntity
  8
0
100
AcDbBlockEnd
  0
BLOCK
  5
8D
330
8C
100
AcDbEntity
  8
0
100
AcDbBlockBegin
  2
*D3
 70
     1
 10
0.0
 20
0.0
 30
0.0
  3
*D3
  1

  0
LINE
  5
8F
330
8C
100
AcDbEntity
  8
001
370
     9
100
AcDbLine
 10
57.928492
 20
46.322064
 30
0.0
 11
64.100333
 21
46.322064
 31
0.0
  0
LINE
  5
90
330
8C
100
AcDbEntity
  8
001
370
     9
100
AcDbLine
 10
49.928492
 20
26.822064
 30
0.0
 11
64.100333
 21
26.822064
 31
0.0
  0
LINE
  5
91
330
8C
100
AcDbEntity
  8
001
370
     9
100
AcDbLine
 10
62.267
 20
46.322064
 30
0.0
 11
62.267
 21
26.822064
 31
0.0
  0
POLYLINE
  5
92
330
8C
100
AcDbEntity
  8
001
370
     9
100
AcDb2dPolyline
 66
     1
 10
0.0
 20
0.0
 30
0.0
  0
VERTEX
  5
94
330
92
100
AcDbEntity
  8
001
370
     9
100
AcDbVertex
100
AcDb2dVertex
 10
61.99905
 20
45.322064
 30
0.0
  0
VERTEX
  5
95
330
92
100
AcDbEntity
  8
001
370
     9
100
AcDbVertex
100
AcDb2dVertex
 10
62.267
 20
46.322064
 30
0.0
  0
VERTEX
  5
96
330
92
100
AcDbEntity
  8
001
370
     9
100
AcDbVertex
100
AcDb2dVertex
 10
62.534949
 20
45.322064
 30
0.0
  0
SEQEND
  5
93
330
92
100
AcDbEntity
  8
001
370
     9
  0
POLYLINE
  5
97
330
8C
100
AcDbEntity
  8
001
370
     9
100
AcDb2dPolyline
 66
     1
 10
0.0
 20
0.0
 30
0.0
  0
VERTEX
  5
99
330
97
100
AcDbEntity
  8
001
370
     9
100
AcDbVertex
100
AcDb2dVertex
 10
62.534949
 20
27.822064
 30
0.0
  0
VERTEX
  5
9A
330
97
100
AcDbEntity
  8
001
370
     9
100
AcDbVertex
100
AcDb2dVertex
 10
62.267
 20
26.822064
 30
0.0
  0
VERTEX
  5
9B
330
97
100
AcDbEntity
  8
001
370
     9
100
AcDbVertex
100
AcDb2dVertex
 10
61.99905
 20
27.822064
 30
0.0
  0
SEQEND
  5
98
330
97
100
AcDbEntity
  8
001
370
     9
  0
TEXT
  5
9C
330
8C
100
AcDbEntity
  8
001
370
    30
100
AcDbText
 10
61.600333
 20
31.23873
 30
0.0
 40
2.666667
  1
１９．５
 50
90.000003
 41
0.833333
100
AcDbText
  0
POINT
  5
9D
330
8C
100
AcDbEntity
  8
001
370
     9
100
AcDbPoint
 10
57.928492
 20
46.322064
 30
0.0
  0
POINT
  5
9E
330
8C
100
AcDbEntity
  8
001
370
     9
100
AcDbPoint
 10
49.928492
 20
26.822064
 30
0.0
  0
POINT
  5
9F
330
8C
100
AcDbEntity
  8
001
370
     9
100
AcDbPoint
 10
62.267
 20
26.822064
 30
0.0
  0
ENDBLK
  5
8E
330
8C
100
AcDbEntity
  8
0
100
AcDbBlockEnd
  0
BLOCK
  5
A1
330
A0
100
AcDbEntity
  8
0
100
AcDbBlockBegin
  2
*D4
 70
     1
 10
0.0
 20
0.0
 30
0.0
  3
*D4
  1

  0
LINE
  5
A3
330
A0
100
AcDbEntity
  8
001
370
     9
100
AcDbLine
 10
49.928492
 20
45.322064
 30
0.0
 11
49.928492
 21
62.015694
 31
0.0
  0
LINE
  5
A4
330
A0
100
AcDbEntity
  8
001
370
     9
100
AcDbLine
 10
20.928492
 20
45.322064
 30
0.0
 11
20.928492
 21
62.015694
 31
0.0
  0
LINE
  5
A5
330
A0
100
AcDbEntity
  8
001
370
     9
100
AcDbLine
 10
49.928492
 20
60.182361
 30
0.0
 11
20.928492
 21
60.182361
 31
0.0
  0
POLYLINE
  5
A6
330
A0
100
AcDbEntity
  8
001
370
     9
100
AcDb2dPolyline
 66
     1
 10
0.0
 20
0.0
 30
0.0
  0
VERTEX
  5
A8
330
A6
100
AcDbEntity
  8
001
370
     9
100
AcDbVertex
100
AcDb2dVertex
 10
48.928492
 20
60.45031
 30
0.0
  0
VERTEX
  5
A9
330
A6
100
AcDbEntity
  8
001
370
     9
100
AcDbVertex
100
AcDb2dVertex
 10
49.928492
 20
60.182361
 30
0.0
  0
VERTEX
  5
AA
330
A6
100
AcDbEntity
  8
001
370
     9
100
AcDbVertex
100
AcDb2dVertex
 10
48.928492
 20
59.914412
 30
0.0
  0
SEQEND
  5
A7
330
A6
100
AcDbEntity
  8
001
370
     9
  0
POLYLINE
  5
AB
330
A0
100
AcDbEntity
  8
001
370
     9
100
AcDb2dPolyline
 66
     1
 10
0.0
 20
0.0
 30
0.0
  0
VERTEX
  5
AD
330
AB
100
AcDbEntity
  8
001
370
     9
100
AcDbVertex
100
AcDb2dVertex
 10
21.928492
 20
59.914412
 30
0.0
  0
VERTEX
  5
AE
330
AB
100
AcDbEntity
  8
001
370
     9
100
AcDbVertex
100
AcDb2dVertex
 10
20.928492
 20
60.182361
 30
0.0
  0
VERTEX
  5
AF
330
AB
100
AcDbEntity
  8
001
370
     9
100
AcDbVertex
100
AcDb2dVertex
 10
21.928492
 20
60.45031
 30
0.0
  0
SEQEND
  5
AC
330
AB
100
AcDbEntity
  8
001
370
     9
  0
TEXT
  5
B0
330
A0
100
AcDbEntity
  8
001
370
    30
100
AcDbText
 10
30.900916
 20
60.849028
 30
0.0
 40
2.666667
  1
%%c２９
 41
0.882353
100
AcDbText
  0
POINT
  5
B1
330
A0
100
AcDbEntity
  8
001
370
     9
100
AcDbPoint
 10
49.928492
 20
45.322064
 30
0.0
  0
POINT
  5
B2
330
A0
100
AcDbEntity
  8
001
370
     9
100
AcDbPoint
 10
20.928492
 20
45.322064
 30
0.0
  0
POINT
  5
B3
330
A0
100
AcDbEntity
  8
001
370
     9
100
AcDbPoint
 10
20.928492
 20
60.182361
 30
0.0
  0
ENDBLK
  5
A2
330
A0
100
AcDbEntity
  8
0
100
AcDbBlockEnd
  0
BLOCK
  5
B5
330
B4
100
AcDbEntity
  8
0
100
AcDbBlockBegin
  2
*D5
 70
     1
 10
0.0
 20
0.0
 30
0.0
  3
*D5
  1

  0
LINE
  5
B7
330
B4
100
AcDbEntity
  8
001
370
     9
100
AcDbLine
 10
106.875901
 20
100.203082
 30
0.0
 11
138.272094
 21
68.806888
 31
0.0
  0
ARC
  5
B8
330
B4
100
AcDbEntity
  8
001
370
     9
100
AcDbCircle
 10
90.375901
 20
116.703082
 30
0.0
 40
64.98544649470246
100
AcDbArc
 50
315.0
 51
0.0
  0
POLYLINE
  5
B9
330
B4
100
AcDbEntity
  8
001
370
     9
100
AcDb2dPolyline
 66
     1
 10
0.0
 20
0.0
 30
0.0
  0
VERTEX
  5
BB
330
B9
100
AcDbEntity
  8
001
370
     9
100
AcDbVertex
100
AcDb2dVertex
 10
154.942139
 20
115.20782
 30
0.0
  0
VERTEX
  5
BC
330
B9
100
AcDbEntity
  8
001
370
     9
100
AcDbVertex
100
AcDb2dVertex
 10
155.361347
 20
116.703082
 30
0.0
  0
VERTEX
  5
BD
330
B9
100
AcDbEntity
  8
001
370
     9
100
AcDbVertex
100
AcDb2dVertex
 10
155.745933
 20
115.198543
 30
0.0
  0
SEQEND
  5
BA
330
B9
100
AcDbEntity
  8
001
370
     9
  0
POLYLINE
  5
BE
330
B4
100
AcDbEntity
  8
001
370
     9
100
AcDb2dPolyline
 66
     1
 10
0.0
 20
0.0
 30
0.0
  0
VERTEX
  5
C0
330
BE
100
AcDbEntity
  8
001
370
     9
100
AcDbVertex
100
AcDb2dVertex
 10
137.663363
 20
71.543358
 30
0.0
  0
VERTEX
  5
C1
330
BE
100
AcDbEntity
  8
001
370
     9
100
AcDbVertex
100
AcDb2dVertex
 10
136.327551
 20
70.751432
 30
0.0
  0
VERTEX
  5
C2
330
BE
100
AcDbEntity
  8
001
370
     9
100
AcDbVertex
100
AcDb2dVertex
 10
137.088435
 20
72.105167
 30
0.0
  0
SEQEND
  5
BF
330
BE
100
AcDbEntity
  8
001
370
     9
  0
TEXT
  5
C3
330
B4
100
AcDbEntity
  8
001
370
    30
100
AcDbText
 10
147.194644
 20
86.673634
 30
0.0
 40
4.0
  1
４５%%d
 50
67.5
 41
0.978261
100
AcDbText
  0
POINT
  5
C4
330
B4
100
AcDbEntity
  8
001
370
     9
100
AcDbPoint
 10
152.611347
 20
116.703082
 30
0.0
  0
POINT
  5
C5
330
B4
100
AcDbEntity
  8
001
370
     9
100
AcDbPoint
 10
90.375901
 20
116.703082
 30
0.0
  0
POINT
  5
C6
330
B4
100
AcDbEntity
  8
001
370
     9
100
AcDbPoint
 10
90.375901
 20
116.703082
 30
0.0
  0
POINT
  5
C7
330
B4
100
AcDbEntity
  8
001
370
     9
100
AcDbPoint
 10
106.875901
 20
100.203082
 30
0.0
  0
ENDBLK
  5
B6
330
B4
100
AcDbEntity
  8
0
100
AcDbBlockEnd
  0
BLOCK
  5
C9
330
C8
100
AcDbEntity
  8
0
100
AcDbBlockBegin
  2
*D6
 70
     1
 10
0.0
 20
0.0
 30
0.0
  3
*D6
  1

  0
LINE
  5
CB
330
C8
100
AcDbEntity
  8
001
370
     9
100
AcDbLine
 10
86.375901
 20
106.203082
 30
0.0
 11
138.655707
 21
53.923276
 31
0.0
  0
ARC
  5
CC
330
C8
100
AcDbEntity
  8
001
370
     9
100
AcDbCircle
 10
75.875901
 20
116.703082
 30
0.0
 40
86.03405289627338
100
AcDbArc
 50
315.0
 51
0.0
  0
POLYLINE
  5
CD
330
C8
100
AcDbEntity
  8
001
370
     9
100
AcDb2dPolyline
 66
     1
 10
0.0
 20
0.0
 30
0.0
  0
VERTEX
  5
CF
330
CD
100
AcDbEntity
  8
001
370
     9
100
AcDbVertex
100
AcDb2dVertex
 10
161.494969
 20
115.206643
 30
0.0
  0
VERTEX
  5
D0
330
CD
100
AcDbEntity
  8
001
370
     9
100
AcDbVertex
100
AcDb2dVertex
 10
161.909954
 20
116.703082
 30
0.0
  0
VERTEX
  5
D1
330
CD
100
AcDbEntity
  8
001
370
     9
100
AcDbVertex
100
AcDb2dVertex
 10
162.298786
 20
115.199635
 30
0.0
  0
SEQEND
  5
CE
330
CD
100
AcDbEntity
  8
001
370
     9
  0
POLYLINE
  5
D2
330
C8
100
AcDbEntity
  8
001
370
     9
100
AcDb2dPolyline
 66
     1
 10
0.0
 20
0.0
 30
0.0
  0
VERTEX
  5
D4
330
D2
100
AcDbEntity
  8
001
370
     9
100
AcDbVertex
100
AcDb2dVertex
 10
138.049206
 20
56.655971
 30
0.0
  0
VERTEX
  5
D5
330
D2
100
AcDbEntity
  8
001
370
     9
100
AcDbVertex
100
AcDb2dVertex
 10
136.711163
 20
55.86782
 30
0.0
  0
VERTEX
  5
D6
330
D2
100
AcDbEntity
  8
001
370
     9
100
AcDbVertex
100
AcDb2dVertex
 10
137.475867
 20
57.2194
 30
0.0
  0
SEQEND
  5
D3
330
D2
100
AcDbEntity
  8
001
370
     9
  0
TEXT
  5
D7
330
C8
100
AcDbEntity
  8
001
370
    30
100
AcDbText
 10
152.141021
 20
78.618681
 30
0.0
 40
4.0
  1
４５%%d
 50
67.5
 41
0.978261
100
AcDbText
  0
POINT
  5
D8
330
C8
100
AcDbEntity
  8
001
370
     9
100
AcDbPoint
 10
159.159954
 20
116.703082
 30
0.0
  0
POINT
  5
D9
330
C8
100
AcDbEntity
  8
001
370
     9
100
AcDbPoint
 10
75.875901
 20
116.703082
 30
0.0
  0
POINT
  5
DA
330
C8
100
AcDbEntity
  8
001
370
     9
100
AcDbPoint
 10
75.875901
 20
116.703082
 30
0.0
  0
POINT
  5
DB
330
C8
100
AcDbEntity
  8
001
370
     9
100
AcDbPoint
 10
86.375901
 20
106.203082
 30
0.0
  0
ENDBLK
  5
CA
330
C8
100
AcDbEntity
  8
0
100
AcDbBlockEnd
  0
BLOCK
  5
DD
330
DC
100
AcDbEntity
  8
0
100
AcDbBlockBegin
  2
*D7
 70
     1
 10
0.0
 20
0.0
 30
0.0
  3
*D7
  1

  0
LINE
  5
DF
330
DC
100
AcDbEntity
  8
001
370
     9
100
AcDbLine
 10
86.375901
 20
131.203082
 30
0.0
 11
60.130113
 21
131.203082
 31
0.0
  0
LINE
  5
E0
330
DC
100
AcDbEntity
  8
001
370
     9
100
AcDbLine
 10
86.375901
 20
102.203082
 30
0.0
 11
60.130113
 21
102.203082
 31
0.0
  0
LINE
  5
E1
330
DC
100
AcDbEntity
  8
001
370
     9
100
AcDbLine
 10
62.880113
 20
131.203082
 30
0.0
 11
62.880113
 21
102.203082
 31
0.0
  0
POLYLINE
  5
E2
330
DC
100
AcDbEntity
  8
001
370
     9
100
AcDb2dPolyline
 66
     1
 10
0.0
 20
0.0
 30
0.0
  0
VERTEX
  5
E4
330
E2
100
AcDbEntity
  8
001
370
     9
100
AcDbVertex
100
AcDb2dVertex
 10
62.47819
 20
129.703082
 30
0.0
  0
VERTEX
  5
E5
330
E2
100
AcDbEntity
  8
001
370
     9
100
AcDbVertex
100
AcDb2dVertex
 10
62.880113
 20
131.203082
 30
0.0
  0
VERTEX
  5
E6
330
E2
100
AcDbEntity
  8
001
370
     9
100
AcDbVertex
100
AcDb2dVertex
 10
63.282037
 20
129.703082
 30
0.0
  0
SEQEND
  5
E3
330
E2
100
AcDbEntity
  8
001
370
     9
  0
POLYLINE
  5
E7
330
DC
100
AcDbEntity
  8
001
370
     9
100
AcDb2dPolyline
 66
     1
 10
0.0
 20
0.0
 30
0.0
  0
VERTEX
  5
E9
330
E7
100
AcDbEntity
  8
001
370
     9
100
AcDbVertex
100
AcDb2dVertex
 10
63.282037
 20
103.703082
 30
0.0
  0
VERTEX
  5
EA
330
E7
100
AcDbEntity
  8
001
370
     9
100
AcDbVertex
100
AcDb2dVertex
 10
62.880113
 20
102.203082
 30
0.0
  0
VERTEX
  5
EB
330
E7
100
AcDbEntity
  8
001
370
     9
100
AcDbVertex
100
AcDb2dVertex
 10
62.47819
 20
103.703082
 30
0.0
  0
SEQEND
  5
E8
330
E7
100
AcDbEntity
  8
001
370
     9
  0
TEXT
  5
EC
330
DC
100
AcDbEntity
  8
001
370
    30
100
AcDbText
 10
61.880113
 20
110.703082
 30
0.0
 40
4.0
  1
%%c２９
 50
90.000003
 41
0.882353
100
AcDbText
  0
POINT
  5
ED
330
DC
100
AcDbEntity
  8
001
370
     9
100
AcDbPoint
 10
86.375901
 20
131.203082
 30
0.0
  0
POINT
  5
EE
330
DC
100
AcDbEntity
  8
001
370
     9
100
AcDbPoint
 10
86.375901
 20
102.203082
 30
0.0
  0
POINT
  5
EF
330
DC
100
AcDbEntity
  8
001
370
     9
100
AcDbPoint
 10
62.880113
 20
102.203082
 30
0.0
  0
ENDBLK
  5
DE
330
DC
100
AcDbEntity
  8
0
100
AcDbBlockEnd
  0
BLOCK
  5
F1
330
F0
100
AcDbEntity
  8
0
100
AcDbBlockBegin
  2
*D8
 70
     1
 10
0.0
 20
0.0
 30
0.0
  3
*D8
  1

  0
LINE
  5
F3
330
F0
100
AcDbEntity
  8
001
370
     9
100
AcDbLine
 10
106.875901
 20
133.203082
 30
0.0
 11
47.386296
 21
133.203082
 31
0.0
  0
LINE
  5
F4
330
F0
100
AcDbEntity
  8
001
370
     9
100
AcDbLine
 10
106.875901
 20
100.203082
 30
0.0
 11
47.386296
 21
100.203082
 31
0.0
  0
LINE
  5
F5
330
F0
100
AcDbEntity
  8
001
370
     9
100
AcDbLine
 10
50.136296
 20
133.203082
 30
0.0
 11
50.136296
 21
100.203082
 31
0.0
  0
POLYLINE
  5
F6
330
F0
100
AcDbEntity
  8
001
370
     9
100
AcDb2dPolyline
 66
     1
 10
0.0
 20
0.0
 30
0.0
  0
VERTEX
  5
F8
330
F6
100
AcDbEntity
  8
001
370
     9
100
AcDbVertex
100
AcDb2dVertex
 10
49.734372
 20
131.703082
 30
0.0
  0
VERTEX
  5
F9
330
F6
100
AcDbEntity
  8
001
370
     9
100
AcDbVertex
100
AcDb2dVertex
 10
50.136296
 20
133.203082
 30
0.0
  0
VERTEX
  5
FA
330
F6
100
AcDbEntity
  8
001
370
     9
100
AcDbVertex
100
AcDb2dVertex
 10
50.538219
 20
131.703082
 30
0.0
  0
SEQEND
  5
F7
330
F6
100
AcDbEntity
  8
001
370
     9
  0
POLYLINE
  5
FB
330
F0
100
AcDbEntity
  8
001
370
     9
100
AcDb2dPolyline
 66
     1
 10
0.0
 20
0.0
 30
0.0
  0
VERTEX
  5
FD
330
FB
100
AcDbEntity
  8
001
370
     9
100
AcDbVertex
100
AcDb2dVertex
 10
50.538219
 20
101.703082
 30
0.0
  0
VERTEX
  5
FE
330
FB
100
AcDbEntity
  8
001
370
     9
100
AcDbVertex
100
AcDb2dVertex
 10
50.136296
 20
100.203082
 30
0.0
  0
VERTEX
  5
FF
330
FB
100
AcDbEntity
  8
001
370
     9
100
AcDbVertex
100
AcDb2dVertex
 10
49.734372
 20
101.703082
 30
0.0
  0
SEQEND
  5
FC
330
FB
100
AcDbEntity
  8
001
370
     9
  0
TEXT
  5
100
330
F0
100
AcDbEntity
  8
001
370
    30
100
AcDbText
 10
49.136296
 20
110.703082
 30
0.0
 40
4.0
  1
%%c３３
 50
90.000003
 41
0.882353
100
AcDbText
  0
POINT
  5
101
330
F0
100
AcDbEntity
  8
001
370
     9
100
AcDbPoint
 10
106.875901
 20
133.203082
 30
0.0
  0
POINT
  5
102
330
F0
100
AcDbEntity
  8
001
370
     9
100
AcDbPoint
 10
106.875901
 20
100.203082
 30
0.0
  0
POINT
  5
103
330
F0
100
AcDbEntity
  8
001
370
     9
100
AcDbPoint
 10
50.136296
 20
100.203082
 30
0.0
  0
ENDBLK
  5
F2
330
F0
100
AcDbEntity
  8
0
100
AcDbBlockEnd
  0
BLOCK
  5
105
330
104
100
AcDbEntity
  8
0
100
AcDbBlockBegin
  2
*D9
 70
     1
 10
0.0
 20
0.0
 30
0.0
  3
*D9
  1

  0
LINE
  5
107
330
104
100
AcDbEntity
  8
001
370
     9
100
AcDbLine
 10
104.901899
 20
135.713082
 30
0.0
 11
33.147702
 21
135.713082
 31
0.0
  0
LINE
  5
108
330
104
100
AcDbEntity
  8
001
370
     9
100
AcDbLine
 10
104.901899
 20
97.693082
 30
0.0
 11
33.147702
 21
97.693082
 31
0.0
  0
LINE
  5
109
330
104
100
AcDbEntity
  8
001
370
     9
100
AcDbLine
 10
35.897702
 20
135.713082
 30
0.0
 11
35.897702
 21
97.693082
 31
0.0
  0
POLYLINE
  5
10A
330
104
100
AcDbEntity
  8
001
370
     9
100
AcDb2dPolyline
 66
     1
 10
0.0
 20
0.0
 30
0.0
  0
VERTEX
  5
10C
330
10A
100
AcDbEntity
  8
001
370
     9
100
AcDbVertex
100
AcDb2dVertex
 10
35.495778
 20
134.213082
 30
0.0
  0
VERTEX
  5
10D
330
10A
100
AcDbEntity
  8
001
370
     9
100
AcDbVertex
100
AcDb2dVertex
 10
35.897702
 20
135.713082
 30
0.0
  0
VERTEX
  5
10E
330
10A
100
AcDbEntity
  8
001
370
     9
100
AcDbVertex
100
AcDb2dVertex
 10
36.299625
 20
134.213082
 30
0.0
  0
SEQEND
  5
10B
330
10A
100
AcDbEntity
  8
001
370
     9
  0
POLYLINE
  5
10F
330
104
100
AcDbEntity
  8
001
370
     9
100
AcDb2dPolyline
 66
     1
 10
0.0
 20
0.0
 30
0.0
  0
VERTEX
  5
111
330
10F
100
AcDbEntity
  8
001
370
     9
100
AcDbVertex
100
AcDb2dVertex
 10
36.299625
 20
99.193082
 30
0.0
  0
VERTEX
  5
112
330
10F
100
AcDbEntity
  8
001
370
     9
100
AcDbVertex
100
AcDb2dVertex
 10
35.897702
 20
97.693082
 30
0.0
  0
VERTEX
  5
113
330
10F
100
AcDbEntity
  8
001
370
     9
100
AcDbVertex
100
AcDb2dVertex
 10
35.495778
 20
99.193082
 30
0.0
  0
SEQEND
  5
110
330
10F
100
AcDbEntity
  8
001
370
     9
  0
TEXT
  5
114
330
104
100
AcDbEntity
  8
001
370
    30
100
AcDbText
 10
34.897702
 20
110.703082
 30
0.0
 40
4.0
  1
%%c３８
 50
90.000003
 41
0.882353
100
AcDbText
  0
POINT
  5
115
330
104
100
AcDbEntity
  8
001
370
     9
100
AcDbPoint
 10
104.901899
 20
135.713082
 30
0.0
  0
POINT
  5
116
330
104
100
AcDbEntity
  8
001
370
     9
100
AcDbPoint
 10
104.901899
 20
97.693082
 30
0.0
  0
POINT
  5
117
330
104
100
AcDbEntity
  8
001
370
     9
100
AcDbPoint
 10
35.897702
 20
97.693082
 30
0.0
  0
ENDBLK
  5
106
330
104
100
AcDbEntity
  8
0
100
AcDbBlockEnd
  0
BLOCK
  5
119
330
118
100
AcDbEntity
  8
0
100
AcDbBlockBegin
  2
*D10
 70
     1
 10
0.0
 20
0.0
 30
0.0
  3
*D10
  1

  0
LINE
  5
11B
330
118
100
AcDbEntity
  8
001
370
     9
100
AcDbLine
 10
143.0759
 20
99.553082
 30
0.0
 11
143.0759
 21
47.5841
 31
0.0
  0
LINE
  5
11C
330
118
100
AcDbEntity
  8
001
370
     9
100
AcDbLine
 10
85.0759
 20
107.503082
 30
0.0
 11
85.0759
 21
47.5841
 31
0.0
  0
LINE
  5
11D
330
118
100
AcDbEntity
  8
001
370
     9
100
AcDbLine
 10
143.0759
 20
50.3341
 30
0.0
 11
85.0759
 21
50.3341
 31
0.0
  0
POLYLINE
  5
11E
330
118
100
AcDbEntity
  8
001
370
     9
100
AcDb2dPolyline
 66
     1
 10
0.0
 20
0.0
 30
0.0
  0
VERTEX
  5
120
330
11E
100
AcDbEntity
  8
001
370
     9
100
AcDbVertex
100
AcDb2dVertex
 10
141.5759
 20
50.736024
 30
0.0
  0
VERTEX
  5
121
330
11E
100
AcDbEntity
  8
001
370
     9
100
AcDbVertex
100
AcDb2dVertex
 10
143.0759
 20
50.3341
 30
0.0
  0
VERTEX
  5
122
330
11E
100
AcDbEntity
  8
001
370
     9
100
AcDbVertex
100
AcDb2dVertex
 10
141.5759
 20
49.932176
 30
0.0
  0
SEQEND
  5
11F
330
11E
100
AcDbEntity
  8
001
370
     9
  0
POLYLINE
  5
123
330
118
100
AcDbEntity
  8
001
370
     9
100
AcDb2dPolyline
 66
     1
 10
0.0
 20
0.0
 30
0.0
  0
VERTEX
  5
125
330
123
100
AcDbEntity
  8
001
370
     9
100
AcDbVertex
100
AcDb2dVertex
 10
86.5759
 20
49.932176
 30
0.0
  0
VERTEX
  5
126
330
123
100
AcDbEntity
  8
001
370
     9
100
AcDbVertex
100
AcDb2dVertex
 10
85.0759
 20
50.3341
 30
0.0
  0
VERTEX
  5
127
330
123
100
AcDbEntity
  8
001
370
     9
100
AcDbVertex
100
AcDb2dVertex
 10
86.5759
 20
50.736024
 30
0.0
  0
SEQEND
  5
124
330
123
100
AcDbEntity
  8
001
370
     9
  0
TEXT
  5
128
330
118
100
AcDbEntity
  8
001
370
    30
100
AcDbText
 10
110.0759
 20
51.3341
 30
0.0
 40
4.0
  1
５８
 41
0.833333
100
AcDbText
  0
POINT
  5
129
330
118
100
AcDbEntity
  8
001
370
     9
100
AcDbPoint
 10
143.0759
 20
99.553082
 30
0.0
  0
POINT
  5
12A
330
118
100
AcDbEntity
  8
001
370
     9
100
AcDbPoint
 10
85.0759
 20
107.503082
 30
0.0
  0
POINT
  5
12B
330
118
100
AcDbEntity
  8
001
370
     9
100
AcDbPoint
 10
85.0759
 20
50.3341
 30
0.0
  0
ENDBLK
  5
11A
330
118
100
AcDbEntity
  8
0
100
AcDbBlockEnd
  0
BLOCK
  5
12D
330
12C
100
AcDbEntity
  8
0
100
AcDbBlockBegin
  2
*D11
 70
     1
 10
0.0
 20
0.0
 30
0.0
  3
*D11
  1

  0
LINE
  5
12F
330
12C
100
AcDbEntity
  8
001
370
     9
100
AcDbLine
 10
223.0759
 20
108.703082
 30
0.0
 11
223.0759
 21
47.5841
 31
0.0
  0
LINE
  5
130
330
12C
100
AcDbEntity
  8
001
370
     9
100
AcDbLine
 10
143.0759
 20
99.553082
 30
0.0
 11
143.0759
 21
47.5841
 31
0.0
  0
LINE
  5
131
330
12C
100
AcDbEntity
  8
001
370
     9
100
AcDbLine
 10
223.0759
 20
50.3341
 30
0.0
 11
143.0759
 21
50.3341
 31
0.0
  0
POLYLINE
  5
132
330
12C
100
AcDbEntity
  8
001
370
     9
100
AcDb2dPolyline
 66
     1
 10
0.0
 20
0.0
 30
0.0
  0
VERTEX
  5
134
330
132
100
AcDbEntity
  8
001
370
     9
100
AcDbVertex
100
AcDb2dVertex
 10
221.5759
 20
50.736024
 30
0.0
  0
VERTEX
  5
135
330
132
100
AcDbEntity
  8
001
370
     9
100
AcDbVertex
100
AcDb2dVertex
 10
223.0759
 20
50.3341
 30
0.0
  0
VERTEX
  5
136
330
132
100
AcDbEntity
  8
001
370
     9
100
AcDbVertex
100
AcDb2dVertex
 10
221.5759
 20
49.932176
 30
0.0
  0
SEQEND
  5
133
330
132
100
AcDbEntity
  8
001
370
     9
  0
POLYLINE
  5
137
330
12C
100
AcDbEntity
  8
001
370
     9
100
AcDb2dPolyline
 66
     1
 10
0.0
 20
0.0
 30
0.0
  0
VERTEX
  5
139
330
137
100
AcDbEntity
  8
001
370
     9
100
AcDbVertex
100
AcDb2dVertex
 10
144.5759
 20
49.932176
 30
0.0
  0
VERTEX
  5
13A
330
137
100
AcDbEntity
  8
001
370
     9
100
AcDbVertex
100
AcDb2dVertex
 10
143.0759
 20
50.3341
 30
0.0
  0
VERTEX
  5
13B
330
137
100
AcDbEntity
  8
001
370
     9
100
AcDbVertex
100
AcDb2dVertex
 10
144.5759
 20
50.736024
 30
0.0
  0
SEQEND
  5
138
330
137
100
AcDbEntity
  8
001
370
     9
  0
TEXT
  5
13C
330
12C
100
AcDbEntity
  8
001
370
    30
100
AcDbText
 10
179.0759
 20
51.3341
 30
0.0
 40
4.0
  1
８０
 41
0.833333
100
AcDbText
  0
POINT
  5
13D
330
12C
100
AcDbEntity
  8
001
370
     9
100
AcDbPoint
 10
223.0759
 20
108.703082
 30
0.0
  0
POINT
  5
13E
330
12C
100
AcDbEntity
  8
001
370
     9
100
AcDbPoint
 10
143.0759
 20
99.553082
 30
0.0
  0
POINT
  5
13F
330
12C
100
AcDbEntity
  8
001
370
     9
100
AcDbPoint
 10
143.0759
 20
50.3341
 30
0.0
  0
ENDBLK
  5
12E
330
12C
100
AcDbEntity
  8
0
100
AcDbBlockEnd
  0
BLOCK
  5
141
330
140
100
AcDbEntity
  8
0
100
AcDbBlockBegin
  2
*D12
 70
     1
 10
0.0
 20
0.0
 30
0.0
  3
*D12
  1

  0
LINE
  5
143
330
140
100
AcDbEntity
  8
001
370
     9
100
AcDbLine
 10
85.0759
 20
107.503082
 30
0.0
 11
85.0759
 21
37.083519
 31
0.0
  0
LINE
  5
144
330
140
100
AcDbEntity
  8
001
370
     9
100
AcDbLine
 10
223.0759
 20
108.703082
 30
0.0
 11
223.0759
 21
37.083519
 31
0.0
  0
LINE
  5
145
330
140
100
AcDbEntity
  8
001
370
     9
100
AcDbLine
 10
85.0759
 20
39.833519
 30
0.0
 11
223.0759
 21
39.833519
 31
0.0
  0
POLYLINE
  5
146
330
140
100
AcDbEntity
  8
001
370
     9
100
AcDb2dPolyline
 66
     1
 10
0.0
 20
0.0
 30
0.0
  0
VERTEX
  5
148
330
146
100
AcDbEntity
  8
001
370
     9
100
AcDbVertex
100
AcDb2dVertex
 10
86.5759
 20
39.431595
 30
0.0
  0
VERTEX
  5
149
330
146
100
AcDbEntity
  8
001
370
     9
100
AcDbVertex
100
AcDb2dVertex
 10
85.0759
 20
39.833519
 30
0.0
  0
VERTEX
  5
14A
330
146
100
AcDbEntity
  8
001
370
     9
100
AcDbVertex
100
AcDb2dVertex
 10
86.5759
 20
40.235442
 30
0.0
  0
SEQEND
  5
147
330
146
100
AcDbEntity
  8
001
370
     9
  0
POLYLINE
  5
14B
330
140
100
AcDbEntity
  8
001
370
     9
100
AcDb2dPolyline
 66
     1
 10
0.0
 20
0.0
 30
0.0
  0
VERTEX
  5
14D
330
14B
100
AcDbEntity
  8
001
370
     9
100
AcDbVertex
100
AcDb2dVertex
 10
221.5759
 20
40.235442
 30
0.0
  0
VERTEX
  5
14E
330
14B
100
AcDbEntity
  8
001
370
     9
100
AcDbVertex
100
AcDb2dVertex
 10
223.0759
 20
39.833519
 30
0.0
  0
VERTEX
  5
14F
330
14B
100
AcDbEntity
  8
001
370
     9
100
AcDbVertex
100
AcDb2dVertex
 10
221.5759
 20
39.431595
 30
0.0
  0
SEQEND
  5
14C
330
14B
100
AcDbEntity
  8
001
370
     9
  0
TEXT
  5
150
330
140
100
AcDbEntity
  8
001
370
    30
100
AcDbText
 10
148.0759
 20
40.833519
 30
0.0
 40
4.0
  1
１３８
 41
0.833333
100
AcDbText
  0
POINT
  5
151
330
140
100
AcDbEntity
  8
001
370
     9
100
AcDbPoint
 10
85.0759
 20
107.503082
 30
0.0
  0
POINT
  5
152
330
140
100
AcDbEntity
  8
001
370
     9
100
AcDbPoint
 10
223.0759
 20
108.703082
 30
0.0
  0
POINT
  5
153
330
140
100
AcDbEntity
  8
001
370
     9
100
AcDbPoint
 10
223.0759
 20
39.833519
 30
0.0
  0
ENDBLK
  5
142
330
140
100
AcDbEntity
  8
0
100
AcDbBlockEnd
  0
BLOCK
  5
155
330
154
100
AcDbEntity
  8
0
100
AcDbBlockBegin
  2
*D13
 70
     1
 10
0.0
 20
0.0
 30
0.0
  3
*D13
  1

  0
LINE
  5
157
330
154
100
AcDbEntity
  8
001
370
     9
100
AcDbLine
 10
86.375901
 20
102.996852
 30
0.0
 11
86.375901
 21
58.279139
 31
0.0
  0
LINE
  5
158
330
154
100
AcDbEntity
  8
001
370
     9
100
AcDbLine
 10
85.0759
 20
107.503082
 30
0.0
 11
85.0759
 21
58.279139
 31
0.0
  0
LINE
  5
159
330
154
100
AcDbEntity
  8
001
370
     9
100
AcDbLine
 10
86.375901
 20
61.029139
 30
0.0
 11
85.0759
 21
61.029139
 31
0.0
  0
POLYLINE
  5
15A
330
154
100
AcDbEntity
  8
001
370
     9
100
AcDb2dPolyline
 66
     1
 10
0.0
 20
0.0
 30
0.0
  0
VERTEX
  5
15C
330
15A
100
AcDbEntity
  8
001
370
     9
100
AcDbVertex
100
AcDb2dVertex
 10
87.875901
 20
60.627215
 30
0.0
  0
VERTEX
  5
15D
330
15A
100
AcDbEntity
  8
001
370
     9
100
AcDbVertex
100
AcDb2dVertex
 10
86.375901
 20
61.029139
 30
0.0
  0
VERTEX
  5
15E
330
15A
100
AcDbEntity
  8
001
370
     9
100
AcDbVertex
100
AcDb2dVertex
 10
87.875901
 20
61.431063
 30
0.0
  0
SEQEND
  5
15B
330
15A
100
AcDbEntity
  8
001
370
     9
  0
POLYLINE
  5
15F
330
154
100
AcDbEntity
  8
001
370
     9
100
AcDb2dPolyline
 66
     1
 10
0.0
 20
0.0
 30
0.0
  0
VERTEX
  5
161
330
15F
100
AcDbEntity
  8
001
370
     9
100
AcDbVertex
100
AcDb2dVertex
 10
83.5759
 20
61.431063
 30
0.0
  0
VERTEX
  5
162
330
15F
100
AcDbEntity
  8
001
370
     9
100
AcDbVertex
100
AcDb2dVertex
 10
85.0759
 20
61.029139
 30
0.0
  0
VERTEX
  5
163
330
15F
100
AcDbEntity
  8
001
370
     9
100
AcDbVertex
100
AcDb2dVertex
 10
83.5759
 20
60.627215
 30
0.0
  0
SEQEND
  5
160
330
15F
100
AcDbEntity
  8
001
370
     9
  0
TEXT
  5
164
330
154
100
AcDbEntity
  8
001
370
    30
100
AcDbText
 10
69.5759
 20
62.029139
 30
0.0
 40
4.0
  1
１．３
 41
0.833333
100
AcDbText
  0
POINT
  5
165
330
154
100
AcDbEntity
  8
001
370
     9
100
AcDbPoint
 10
86.375901
 20
102.996852
 30
0.0
  0
POINT
  5
166
330
154
100
AcDbEntity
  8
001
370
     9
100
AcDbPoint
 10
85.0759
 20
107.503082
 30
0.0
  0
POINT
  5
167
330
154
100
AcDbEntity
  8
001
370
     9
100
AcDbPoint
 10
85.0759
 20
61.029139
 30
0.0
  0
LINE
  5
168
330
154
100
AcDbEntity
  8
001
370
     9
100
AcDbLine
 10
86.375901
 20
61.029139
 30
0.0
 11
88.875901
 21
61.029139
 31
0.0
  0
LINE
  5
169
330
154
100
AcDbEntity
  8
001
370
     9
100
AcDbLine
 10
85.0759
 20
61.029139
 30
0.0
 11
66.5759
 21
61.029139
 31
0.0
  0
ENDBLK
  5
156
330
154
100
AcDbEntity
  8
0
100
AcDbBlockEnd
  0
BLOCK
  5
16B
330
16A
100
AcDbEntity
  8
0
100
AcDbBlockBegin
  2
*D14
 70
     1
 10
0.0
 20
0.0
 30
0.0
  3
*D14
  1

  0
LINE
  5
16D
330
16A
100
AcDbEntity
  8
001
370
     9
100
AcDbLine
 10
105.875901
 20
94.203082
 30
0.0
 11
105.875901
 21
58.279139
 31
0.0
  0
LINE
  5
16E
330
16A
100
AcDbEntity
  8
001
370
     9
100
AcDbLine
 10
86.375901
 20
102.996852
 30
0.0
 11
86.375901
 21
58.279139
 31
0.0
  0
LINE
  5
16F
330
16A
100
AcDbEntity
  8
001
370
     9
100
AcDbLine
 10
105.875901
 20
61.029139
 30
0.0
 11
86.375901
 21
61.029139
 31
0.0
  0
POLYLINE
  5
170
330
16A
100
AcDbEntity
  8
001
370
     9
100
AcDb2dPolyline
 66
     1
 10
0.0
 20
0.0
 30
0.0
  0
VERTEX
  5
172
330
170
100
AcDbEntity
  8
001
370
     9
100
AcDbVertex
100
AcDb2dVertex
 10
107.375901
 20
60.627215
 30
0.0
  0
VERTEX
  5
173
330
170
100
AcDbEntity
  8
001
370
     9
100
AcDbVertex
100
AcDb2dVertex
 10
105.875901
 20
61.029139
 30
0.0
  0
VERTEX
  5
174
330
170
100
AcDbEntity
  8
001
370
     9
100
AcDbVertex
100
AcDb2dVertex
 10
107.375901
 20
61.431063
 30
0.0
  0
SEQEND
  5
171
330
170
100
AcDbEntity
  8
001
370
     9
  0
POLYLINE
  5
175
330
16A
100
AcDbEntity
  8
001
370
     9
100
AcDb2dPolyline
 66
     1
 10
0.0
 20
0.0
 30
0.0
  0
VERTEX
  5
177
330
175
100
AcDbEntity
  8
001
370
     9
100
AcDbVertex
100
AcDb2dVertex
 10
84.875901
 20
61.431063
 30
0.0
  0
VERTEX
  5
178
330
175
100
AcDbEntity
  8
001
370
     9
100
AcDbVertex
100
AcDb2dVertex
 10
86.375901
 20
61.029139
 30
0.0
  0
VERTEX
  5
179
330
175
100
AcDbEntity
  8
001
370
     9
100
AcDbVertex
100
AcDb2dVertex
 10
84.875901
 20
60.627215
 30
0.0
  0
SEQEND
  5
176
330
175
100
AcDbEntity
  8
001
370
     9
  0
TEXT
  5
17A
330
16A
100
AcDbEntity
  8
001
370
    30
100
AcDbText
 10
88.125901
 20
62.029139
 30
0.0
 40
4.0
  1
１９．５
 41
0.833333
100
AcDbText
  0
POINT
  5
17B
330
16A
100
AcDbEntity
  8
001
370
     9
100
AcDbPoint
 10
105.875901
 20
94.203082
 30
0.0
  0
POINT
  5
17C
330
16A
100
AcDbEntity
  8
001
370
     9
100
AcDbPoint
 10
86.375901
 20
102.996852
 30
0.0
  0
POINT
  5
17D
330
16A
100
AcDbEntity
  8
001
370
     9
100
AcDbPoint
 10
86.375901
 20
61.029139
 30
0.0
  0
LINE
  5
17E
330
16A
100
AcDbEntity
  8
001
370
     9
100
AcDbLine
 10
105.875901
 20
61.029139
 30
0.0
 11
108.375901
 21
61.029139
 31
0.0
  0
LINE
  5
17F
330
16A
100
AcDbEntity
  8
001
370
     9
100
AcDbLine
 10
86.375901
 20
61.029139
 30
0.0
 11
83.875901
 21
61.029139
 31
0.0
  0
ENDBLK
  5
16C
330
16A
100
AcDbEntity
  8
0
100
AcDbBlockEnd
  0
ENDSEC
  0
SECTION
  2
ENTITIES
  0
DIMENSION
  5
180
330
1F
100
AcDbEntity
  8
001
370
     9
100
AcDbDimension
  2
*D1
 10
249.939066
 20
132.703082
 30
0.0
 11
246.939066
 21
116.703082
 31
0.0
 70
   160
 71
     5
 42
-1.0
  3
Standard
100
AcDbAlignedDimension
 13
215.0759
 23
100.703082
 33
0.0
 14
215.0759
 24
132.703082
 34
0.0
 50
90.0
100
AcDbRotatedDimension
  0
DIMENSION
  5
181
330
1F
100
AcDbEntity
  8
001
370
     9
100
AcDbDimension
  2
*D2
 10
25.428492
 20
9.172792
 30
0.0
 11
35.428492
 21
11.172792
 31
0.0
 70
   160
 71
     5
 42
-1.0
  3
Standard
100
AcDbAlignedDimension
 13
45.428492
 23
16.322064
 33
0.0
 14
25.428492
 24
16.322064
 34
0.0
 50
180.0
100
AcDbRotatedDimension
  0
DIMENSION
  5
182
330
1F
100
AcDbEntity
  8
001
370
     9
100
AcDbDimension
  2
*D3
 10
62.267
 20
26.822064
 30
0.0
 11
60.266999
 21
36.572064
 31
0.0
 70
   160
 71
     5
 42
-1.0
  3
Standard
100
AcDbAlignedDimension
 13
57.928492
 23
46.322064
 33
0.0
 14
49.928492
 24
26.822064
 34
0.0
 50
270.0
100
AcDbRotatedDimension
  0
TEXT
  5
183
330
1F
100
AcDbEntity
  8
001
370
    30
100
AcDbText
 10
44.304603
 20
52.888762
 30
0.0
 40
2.666667
  1
Ｃ１
 50
314.999992
 41
0.833333
100
AcDbText
  0
POLYLINE
  5
184
330
1F
100
AcDbEntity
  8
001
370
     9
100
AcDb2dPolyline
 66
     1
 10
0.0
 20
0.0
 30
0.0
  0
VERTEX
  5
186
330
184
100
AcDbEntity
  8
001
370
     9
100
AcDbVertex
100
AcDb2dVertex
 10
49.910854
 20
46.718639
 30
0.0
  0
VERTEX
  5
187
330
184
100
AcDbEntity
  8
001
370
     9
100
AcDbVertex
100
AcDb2dVertex
 10
50.428492
 20
45.822064
 30
0.0
  0
VERTEX
  5
188
330
184
100
AcDbEntity
  8
001
370
     9
100
AcDbVertex
100
AcDb2dVertex
 10
49.531916
 20
46.339702
 30
0.0
  0
SEQEND
  5
185
330
184
100
AcDbEntity
  8
001
370
     9
  0
LINE
  5
189
330
1F
100
AcDbEntity
  8
001
370
     9
100
AcDbLine
 10
50.428492
 20
45.822064
 30
0.0
 11
42.418985
 21
53.831571
 31
0.0
  0
TEXT
  5
18A
330
1F
100
AcDbEntity
  8
001
370
    30
100
AcDbText
 10
29.753905
 20
43.439459
 30
0.0
 40
2.666667
  1
Ｃ０．５
 50
314.999992
 41
0.833333
100
AcDbText
  0
POLYLINE
  5
18B
330
1F
100
AcDbEntity
  8
001
370
     9
100
AcDb2dPolyline
 66
     1
 10
0.0
 20
0.0
 30
0.0
  0
VERTEX
  5
18D
330
18B
100
AcDbEntity
  8
001
370
     9
100
AcDbVertex
100
AcDb2dVertex
 10
45.160854
 20
27.468639
 30
0.0
  0
VERTEX
  5
18E
330
18B
100
AcDbEntity
  8
001
370
     9
100
AcDbVertex
100
AcDb2dVertex
 10
45.678492
 20
26.572064
 30
0.0
  0
VERTEX
  5
18F
330
18B
100
AcDbEntity
  8
001
370
     9
100
AcDbVertex
100
AcDb2dVertex
 10
44.781916
 20
27.089702
 30
0.0
  0
SEQEND
  5
18C
330
18B
100
AcDbEntity
  8
001
370
     9
  0
LINE
  5
190
330
1F
100
AcDbEntity
  8
001
370
     9
100
AcDbLine
 10
45.678492
 20
26.572064
 30
0.0
 11
27.868287
 21
44.382268
 31
0.0
  0
DIMENSION
  5
191
330
1F
100
AcDbEntity
  8
001
370
     9
100
AcDbDimension
  2
*D4
 10
20.928492
 20
60.182361
 30
0.0
 11
34.900916
 21
62.182361
 31
0.0
 70
   160
 71
     5
 42
-1.0
  3
Standard
100
AcDbAlignedDimension
 13
49.928492
 23
45.322064
 33
0.0
 14
20.928492
 24
45.322064
 34
0.0
 50
180.0
100
AcDbRotatedDimension
  0
DIMENSION
  5
192
330
1F
100
AcDbEntity
  8
001
370
     9
100
AcDbDimension
  2
*D5
 10
90.375901
 20
116.703082
 30
0.0
 11
147.642986
 21
92.982278
 31
0.0
 70
    34
 71
     5
 42
-1.0
  3
Standard
100
AcDb2LineAngularDimension
 13
152.611347
 23
116.703082
 33
0.0
 14
90.375901
 24
116.703082
 34
0.0
 15
106.875901
 25
100.203082
 35
0.0
 16
150.414625
 26
91.834228
 36
0.0
  0
DIMENSION
  5
193
330
1F
100
AcDbEntity
  8
001
370
     9
100
AcDbDimension
  2
*D6
 10
75.875901
 20
116.703082
 30
0.0
 11
152.589363
 21
84.927326
 31
0.0
 70
    34
 71
     5
 42
-1.0
  3
Standard
100
AcDb2LineAngularDimension
 13
159.159954
 23
116.703082
 33
0.0
 14
75.875901
 24
116.703082
 34
0.0
 15
86.375901
 25
106.203082
 35
0.0
 16
155.361001
 26
83.779275
 36
0.0
  0
DIMENSION
  5
194
330
1F
100
AcDbEntity
  8
001
370
     9
100
AcDbDimension
  2
*D7
 10
62.880113
 20
102.203082
 30
0.0
 11
59.880113
 21
116.703082
 31
0.0
 70
   160
 71
     5
 42
-1.0
  3
Standard
100
AcDbAlignedDimension
 13
86.375901
 23
131.203082
 33
0.0
 14
86.375901
 24
102.203082
 34
0.0
 50
270.0
100
AcDbRotatedDimension
  0
DIMENSION
  5
195
330
1F
100
AcDbEntity
  8
001
370
     9
100
AcDbDimension
  2
*D8
 10
50.136296
 20
100.203082
 30
0.0
 11
47.136295
 21
116.703082
 31
0.0
 70
   160
 71
     5
 42
-1.0
  3
Standard
100
AcDbAlignedDimension
 13
106.875901
 23
133.203082
 33
0.0
 14
106.875901
 24
100.203082
 34
0.0
 50
270.0
100
AcDbRotatedDimension
  0
DIMENSION
  5
196
330
1F
100
AcDbEntity
  8
001
370
     9
100
AcDbDimension
  2
*D9
 10
35.897702
 20
97.693082
 30
0.0
 11
32.897701
 21
116.703082
 31
0.0
 70
   160
 71
     5
 42
-1.0
  3
Standard
100
AcDbAlignedDimension
 13
104.901899
 23
135.713082
 33
0.0
 14
104.901899
 24
97.693082
 34
0.0
 50
270.0
100
AcDbRotatedDimension
  0
DIMENSION
  5
197
330
1F
100
AcDbEntity
  8
001
370
     9
100
AcDbDimension
  2
*D10
 10
85.0759
 20
50.3341
 30
0.0
 11
114.0759
 21
53.3341
 31
0.0
 70
   160
 71
     5
 42
-1.0
  3
Standard
100
AcDbAlignedDimension
 13
143.0759
 23
99.553082
 33
0.0
 14
85.0759
 24
107.503082
 34
0.0
 50
180.0
100
AcDbRotatedDimension
  0
DIMENSION
  5
198
330
1F
100
AcDbEntity
  8
001
370
     9
100
AcDbDimension
  2
*D11
 10
143.0759
 20
50.3341
 30
0.0
 11
183.0759
 21
53.3341
 31
0.0
 70
   160
 71
     5
 42
-1.0
  3
Standard
100
AcDbAlignedDimension
 13
223.0759
 23
108.703082
 33
0.0
 14
143.0759
 24
99.553082
 34
0.0
 50
180.0
100
AcDbRotatedDimension
  0
DIMENSION
  5
199
330
1F
100
AcDbEntity
  8
001
370
     9
100
AcDbDimension
  2
*D12
 10
223.0759
 20
39.833519
 30
0.0
 11
154.0759
 21
42.833519
 31
0.0
 70
   160
 71
     5
 42
-1.0
  3
Standard
100
AcDbAlignedDimension
 13
85.0759
 23
107.503082
 33
0.0
 14
223.0759
 24
108.703082
 34
0.0
100
AcDbRotatedDimension
  0
DIMENSION
  5
19A
330
1F
100
AcDbEntity
  8
001
370
     9
100
AcDbDimension
  2
*D13
 10
85.0759
 20
61.029139
 30
0.0
 11
75.5759
 21
64.029139
 31
0.0
 70
   160
 71
     5
 42
-1.0
  3
Standard
100
AcDbAlignedDimension
 13
86.375901
 23
102.996852
 33
0.0
 14
85.0759
 24
107.503082
 34
0.0
 50
180.0
100
AcDbRotatedDimension
  0
DIMENSION
  5
19B
330
1F
100
AcDbEntity
  8
001
370
     9
100
AcDbDimension
  2
*D14
 10
86.375901
 20
61.029139
 30
0.0
 11
96.125901
 21
64.029139
 31
0.0
 70
   160
 71
     5
 42
-1.0
  3
Standard
100
AcDbAlignedDimension
 13
105.875901
 23
94.203082
 33
0.0
 14
86.375901
 24
102.996852
 34
0.0
 50
180.0
100
AcDbRotatedDimension
  0
CIRCLE
  5
19C
330
1F
100
AcDbEntity
  8
001
370
    50
100
AcDbCircle
 10
91.326686
 20
108.68016
 30
0.0
 40
3.25
  0
LINE
  5
19D
330
1F
100
AcDbEntity
  8
001
370
    50
100
AcDbLine
 10
92.062808
 20
109.95516
 30
0.0
 11
91.759699
 21
110.48016
 31
0.0
  0
LINE
  5
19E
330
1F
100
AcDbEntity
  8
001
370
    50
100
AcDbLine
 10
90.590565
 20
109.95516
 30
0.0
 11
90.893674
 21
110.48016
 31
0.0
  0
ARC
  5
19F
330
1F
100
AcDbEntity
  8
001
370
    50
100
AcDbCircle
 10
91.326686
 20
110.23016
 30
0.0
 40
0.5
100
AcDbArc
 50
30.0
 51
150.0
  0
LINE
  5
1A0
330
1F
100
AcDbEntity
  8
001
370
    50
100
AcDbLine
 10
90.590565
 20
109.95516
 30
0.0
 11
89.984347
 21
109.95516
 31
0.0
  0
LINE
  5
1A1
330
1F
100
AcDbEntity
  8
001
370
    50
100
AcDbLine
 10
89.854443
 20
108.68016
 30
0.0
 11
89.551334
 21
109.20516
 31
0.0
  0
ARC
  5
1A2
330
1F
100
AcDbEntity
  8
001
370
    50
100
AcDbCircle
 10
89.984347
 20
109.45516
 30
0.0
 40
0.5
100
AcDbArc
 50
90.0
 51
210.0
  0
LINE
  5
1A3
330
1F
100
AcDbEntity
  8
001
370
    50
100
AcDbLine
 10
89.854443
 20
108.68016
 30
0.0
 11
89.551334
 21
108.15516
 31
0.0
  0
LINE
  5
1A4
330
1F
100
AcDbEntity
  8
001
370
    50
100
AcDbLine
 10
90.590565
 20
107.40516
 30
0.0
 11
89.984347
 21
107.40516
 31
0.0
  0
ARC
  5
1A5
330
1F
100
AcDbEntity
  8
001
370
    50
100
AcDbCircle
 10
89.984347
 20
107.90516
 30
0.0
 40
0.5
100
AcDbArc
 50
150.0
 51
270.0
  0
LINE
  5
1A6
330
1F
100
AcDbEntity
  8
001
370
    50
100
AcDbLine
 10
90.590565
 20
107.40516
 30
0.0
 11
90.893674
 21
106.88016
 31
0.0
  0
LINE
  5
1A7
330
1F
100
AcDbEntity
  8
001
370
    50
100
AcDbLine
 10
92.062808
 20
107.40516
 30
0.0
 11
91.759699
 21
106.88016
 31
0.0
  0
ARC
  5
1A8
330
1F
100
AcDbEntity
  8
001
370
    50
100
AcDbCircle
 10
91.326686
 20
107.13016
 30
0.0
 40
0.5
100
AcDbArc
 50
210.0
 51
330.0
  0
LINE
  5
1A9
330
1F
100
AcDbEntity
  8
001
370
    50
100
AcDbLine
 10
92.062808
 20
107.40516
 30
0.0
 11
92.669026
 21
107.40516
 31
0.0
  0
LINE
  5
1AA
330
1F
100
AcDbEntity
  8
001
370
    50
100
AcDbLine
 10
92.798929
 20
108.68016
 30
0.0
 11
93.102038
 21
108.15516
 31
0.0
  0
ARC
  5
1AB
330
1F
100
AcDbEntity
  8
001
370
    50
100
AcDbCircle
 10
92.669026
 20
107.90516
 30
0.0
 40
0.5
100
AcDbArc
 50
270.0
 51
30.0
  0
LINE
  5
1AC
330
1F
100
AcDbEntity
  8
001
370
    50
100
AcDbLine
 10
92.798929
 20
108.68016
 30
0.0
 11
93.102038
 21
109.20516
 31
0.0
  0
LINE
  5
1AD
330
1F
100
AcDbEntity
  8
001
370
    50
100
AcDbLine
 10
92.062808
 20
109.95516
 30
0.0
 11
92.669026
 21
109.95516
 31
0.0
  0
ARC
  5
1AE
330
1F
100
AcDbEntity
  8
001
370
    50
100
AcDbCircle
 10
92.669026
 20
109.45516
 30
0.0
 40
0.5
100
AcDbArc
 50
330.0
 51
90.0
  0
POLYLINE
  5
1AF
330
1F
100
AcDbEntity
  8
001
370
    50
100
AcDb2dPolyline
 66
     1
 10
0.0
 20
0.0
 30
0.0
  0
VERTEX
  5
1B1
330
1AF
100
AcDbEntity
  8
001
370
    50
100
AcDbVertex
100
AcDb2dVertex
 10
91.329429
 20
112.445639
 30
0.0
  0
VERTEX
  5
1B2
330
1AF
100
AcDbEntity
  8
001
370
    50
100
AcDbVertex
100
AcDb2dVertex
 10
91.058682
 20
112.431355
 30
0.0
  0
VERTEX
  5
1B3
330
1AF
100
AcDbEntity
  8
001
370
    50
100
AcDbVertex
100
AcDb2dVertex
 10
90.688142
 20
112.388669
 30
0.0
  0
VERTEX
  5
1B4
330
1AF
100
AcDbEntity
  8
001
370
    50
100
AcDbVertex
100
AcDb2dVertex
 10
90.359773
 20
112.317828
 30
0.0
  0
VERTEX
  5
1B5
330
1AF
100
AcDbEntity
  8
001
370
    50
100
AcDbVertex
100
AcDb2dVertex
 10
90.066339
 20
112.219487
 30
0.0
  0
VERTEX
  5
1B6
330
1AF
100
AcDbEntity
  8
001
370
    50
100
AcDbVertex
100
AcDb2dVertex
 10
89.77223
 20
112.094195
 30
0.0
  0
VERTEX
  5
1B7
330
1AF
100
AcDbEntity
  8
001
370
    50
100
AcDbVertex
100
AcDb2dVertex
 10
89.482915
 20
111.943235
 30
0.0
  0
VERTEX
  5
1B8
330
1AF
100
AcDbEntity
  8
001
370
    50
100
AcDbVertex
100
AcDb2dVertex
 10
89.210043
 20
111.767405
 30
0.0
  0
VERTEX
  5
1B9
330
1AF
100
AcDbEntity
  8
001
370
    50
100
AcDbVertex
100
AcDb2dVertex
 10
88.955596
 20
111.568306
 30
0.0
  0
VERTEX
  5
1BA
330
1AF
100
AcDbEntity
  8
001
370
    50
100
AcDbVertex
100
AcDb2dVertex
 10
88.718185
 20
111.346865
 30
0.0
  0
VERTEX
  5
1BB
330
1AF
100
AcDbEntity
  8
001
370
    50
100
AcDbVertex
100
AcDb2dVertex
 10
88.500405
 20
111.106093
 30
0.0
  0
VERTEX
  5
1BC
330
1AF
100
AcDbEntity
  8
001
370
    50
100
AcDbVertex
100
AcDb2dVertex
 10
88.304097
 20
110.847371
 30
0.0
  0
VERTEX
  5
1BD
330
1AF
100
AcDbEntity
  8
001
370
    50
100
AcDbVertex
100
AcDb2dVertex
 10
88.131172
 20
110.570639
 30
0.0
  0
VERTEX
  5
1BE
330
1AF
100
AcDbEntity
  8
001
370
    50
100
AcDbVertex
100
AcDb2dVertex
 10
87.982366
 20
110.276592
 30
0.0
  0
VERTEX
  5
1BF
330
1AF
100
AcDbEntity
  8
001
370
    50
100
AcDbVertex
100
AcDb2dVertex
 10
87.859117
 20
109.978215
 30
0.0
  0
VERTEX
  5
1C0
330
1AF
100
AcDbEntity
  8
001
370
    50
100
AcDbVertex
100
AcDb2dVertex
 10
87.762213
 20
109.679996
 30
0.0
  0
VERTEX
  5
1C1
330
1AF
100
AcDbEntity
  8
001
370
    50
100
AcDbVertex
100
AcDb2dVertex
 10
87.692506
 20
109.34682
 30
0.0
  0
VERTEX
  5
1C2
330
1AF
100
AcDbEntity
  8
001
370
    50
100
AcDbVertex
100
AcDb2dVertex
 10
87.650459
 20
108.970518
 30
0.0
  0
VERTEX
  5
1C3
330
1AF
100
AcDbEntity
  8
001
370
    50
100
AcDbVertex
100
AcDb2dVertex
 10
87.6364
 20
108.695639
 30
0.0
  0
SEQEND
  5
1B0
330
1AF
100
AcDbEntity
  8
001
370
    50
  0
LINE
  5
1C4
330
1F
100
AcDbEntity
  8
001
370
    50
100
AcDbLine
 10
90.371669
 20
115.045639
 30
0.0
 11
89.022655
 21
113.725584
 31
0.0
  0
LINE
  5
1C5
330
1F
100
AcDbEntity
  8
001
370
    50
100
AcDbLine
 10
95.501021
 20
115.045639
 30
0.0
 11
90.371669
 21
115.045639
 31
0.0
  0
POLYLINE
  5
1C6
330
1F
100
AcDbEntity
  8
001
370
    50
100
AcDb2dPolyline
 66
     1
 10
0.0
 20
0.0
 30
0.0
  0
VERTEX
  5
1C8
330
1C6
100
AcDbEntity
  8
001
370
    50
100
AcDbVertex
100
AcDb2dVertex
 10
96.282958
 20
114.251639
 30
0.0
  0
VERTEX
  5
1C9
330
1C6
100
AcDbEntity
  8
001
370
    50
100
AcDbVertex
100
AcDb2dVertex
 10
96.279982
 20
114.309841
 30
0.0
  0
VERTEX
  5
1CA
330
1C6
100
AcDbEntity
  8
001
370
    50
100
AcDbVertex
100
AcDb2dVertex
 10
96.271079
 20
114.389516
 30
0.0
  0
VERTEX
  5
1CB
330
1C6
100
AcDbEntity
  8
001
370
    50
100
AcDbVertex
100
AcDb2dVertex
 10
96.25632
 20
114.460061
 30
0.0
  0
VERTEX
  5
1CC
330
1C6
100
AcDbEntity
  8
001
370
    50
100
AcDbVertex
100
AcDb2dVertex
 10
96.235802
 20
114.523204
 30
0.0
  0
VERTEX
  5
1CD
330
1C6
100
AcDbEntity
  8
001
370
    50
100
AcDbVertex
100
AcDb2dVertex
 10
96.209706
 20
114.58638
 30
0.0
  0
VERTEX
  5
1CE
330
1C6
100
AcDbEntity
  8
001
370
    50
100
AcDbVertex
100
AcDb2dVertex
 10
96.178199
 20
114.64864
 30
0.0
  0
VERTEX
  5
1CF
330
1C6
100
AcDbEntity
  8
001
370
    50
100
AcDbVertex
100
AcDb2dVertex
 10
96.141585
 20
114.707233
 30
0.0
  0
VERTEX
  5
1D0
330
1C6
100
AcDbEntity
  8
001
370
    50
100
AcDbVertex
100
AcDb2dVertex
 10
96.10002
 20
114.762013
 30
0.0
  0
VERTEX
  5
1D1
330
1C6
100
AcDbEntity
  8
001
370
    50
100
AcDbVertex
100
AcDb2dVertex
 10
96.053908
 20
114.812992
 30
0.0
  0
VERTEX
  5
1D2
330
1C6
100
AcDbEntity
  8
001
370
    50
100
AcDbVertex
100
AcDb2dVertex
 10
96.003641
 20
114.859879
 30
0.0
  0
VERTEX
  5
1D3
330
1C6
100
AcDbEntity
  8
001
370
    50
100
AcDbVertex
100
AcDb2dVertex
 10
95.949766
 20
114.902035
 30
0.0
  0
VERTEX
  5
1D4
330
1C6
100
AcDbEntity
  8
001
370
    50
100
AcDbVertex
100
AcDb2dVertex
 10
95.89199
 20
114.939264
 30
0.0
  0
VERTEX
  5
1D5
330
1C6
100
AcDbEntity
  8
001
370
    50
100
AcDbVertex
100
AcDb2dVertex
 10
95.830732
 20
114.971227
 30
0.0
  0
VERTEX
  5
1D6
330
1C6
100
AcDbEntity
  8
001
370
    50
100
AcDbVertex
100
AcDb2dVertex
 10
95.768459
 20
114.997755
 30
0.0
  0
VERTEX
  5
1D7
330
1C6
100
AcDbEntity
  8
001
370
    50
100
AcDbVertex
100
AcDb2dVertex
 10
95.70633
 20
115.018578
 30
0.0
  0
VERTEX
  5
1D8
330
1C6
100
AcDbEntity
  8
001
370
    50
100
AcDbVertex
100
AcDb2dVertex
 10
95.636803
 20
115.033577
 30
0.0
  0
VERTEX
  5
1D9
330
1C6
100
AcDbEntity
  8
001
370
    50
100
AcDbVertex
100
AcDb2dVertex
 10
95.558347
 20
115.042615
 30
0.0
  0
VERTEX
  5
1DA
330
1C6
100
AcDbEntity
  8
001
370
    50
100
AcDbVertex
100
AcDb2dVertex
 10
95.501021
 20
115.045639
 30
0.0
  0
SEQEND
  5
1C7
330
1C6
100
AcDbEntity
  8
001
370
    50
  0
LINE
  5
1DB
330
1F
100
AcDbEntity
  8
001
370
    50
100
AcDbLine
 10
96.282958
 20
111.038
 30
0.0
 11
96.282958
 21
114.251639
 31
0.0
  0
LINE
  5
1DC
330
1F
100
AcDbEntity
  8
001
370
    50
100
AcDbLine
 10
97.582959
 20
109.668175
 30
0.0
 11
96.282958
 21
111.038
 31
0.0
  0
LINE
  5
1DD
330
1F
100
AcDbEntity
  8
001
370
    50
100
AcDbLine
 10
97.582959
 20
104.459694
 30
0.0
 11
97.582959
 21
109.668175
 31
0.0
  0
POLYLINE
  5
1DE
330
1F
100
AcDbEntity
  8
001
370
    50
100
AcDb2dPolyline
 66
     1
 10
0.0
 20
0.0
 30
0.0
  0
VERTEX
  5
1E0
330
1DE
100
AcDbEntity
  8
001
370
    50
100
AcDbVertex
100
AcDb2dVertex
 10
96.801021
 20
103.665694
 30
0.0
  0
VERTEX
  5
1E1
330
1DE
100
AcDbEntity
  8
001
370
    50
100
AcDbVertex
100
AcDb2dVertex
 10
96.858348
 20
103.668719
 30
0.0
  0
VERTEX
  5
1E2
330
1DE
100
AcDbEntity
  8
001
370
    50
100
AcDbVertex
100
AcDb2dVertex
 10
96.936803
 20
103.677757
 30
0.0
  0
VERTEX
  5
1E3
330
1DE
100
AcDbEntity
  8
001
370
    50
100
AcDbVertex
100
AcDb2dVertex
 10
97.00633
 20
103.692756
 30
0.0
  0
VERTEX
  5
1E4
330
1DE
100
AcDbEntity
  8
001
370
    50
100
AcDbVertex
100
AcDb2dVertex
 10
97.06846
 20
103.713579
 30
0.0
  0
VERTEX
  5
1E5
330
1DE
100
AcDbEntity
  8
001
370
    50
100
AcDbVertex
100
AcDb2dVertex
 10
97.130732
 20
103.740107
 30
0.0
  0
VERTEX
  5
1E6
330
1DE
100
AcDbEntity
  8
001
370
    50
100
AcDbVertex
100
AcDb2dVertex
 10
97.19199
 20
103.77207
 30
0.0
  0
VERTEX
  5
1E7
330
1DE
100
AcDbEntity
  8
001
370
    50
100
AcDbVertex
100
AcDb2dVertex
 10
97.249766
 20
103.809299
 30
0.0
  0
VERTEX
  5
1E8
330
1DE
100
AcDbEntity
  8
001
370
    50
100
AcDbVertex
100
AcDb2dVertex
 10
97.303641
 20
103.851455
 30
0.0
  0
VERTEX
  5
1E9
330
1DE
100
AcDbEntity
  8
001
370
    50
100
AcDbVertex
100
AcDb2dVertex
 10
97.353909
 20
103.898342
 30
0.0
  0
VERTEX
  5
1EA
330
1DE
100
AcDbEntity
  8
001
370
    50
100
AcDbVertex
100
AcDb2dVertex
 10
97.40002
 20
103.949321
 30
0.0
  0
VERTEX
  5
1EB
330
1DE
100
AcDbEntity
  8
001
370
    50
100
AcDbVertex
100
AcDb2dVertex
 10
97.441585
 20
104.004101
 30
0.0
  0
VERTEX
  5
1EC
330
1DE
100
AcDbEntity
  8
001
370
    50
100
AcDbVertex
100
AcDb2dVertex
 10
97.478199
 20
104.062694
 30
0.0
  0
VERTEX
  5
1ED
330
1DE
100
AcDbEntity
  8
001
370
    50
100
AcDbVertex
100
AcDb2dVertex
 10
97.509706
 20
104.124954
 30
0.0
  0
VERTEX
  5
1EE
330
1DE
100
AcDbEntity
  8
001
370
    50
100
AcDbVertex
100
AcDb2dVertex
 10
97.535802
 20
104.188131
 30
0.0
  0
VERTEX
  5
1EF
330
1DE
100
AcDbEntity
  8
001
370
    50
100
AcDbVertex
100
AcDb2dVertex
 10
97.55632
 20
104.251273
 30
0.0
  0
VERTEX
  5
1F0
330
1DE
100
AcDbEntity
  8
001
370
    50
100
AcDbVertex
100
AcDb2dVertex
 10
97.571079
 20
104.321818
 30
0.0
  0
VERTEX
  5
1F1
330
1DE
100
AcDbEntity
  8
001
370
    50
100
AcDbVertex
100
AcDb2dVertex
 10
97.579982
 20
104.401493
 30
0.0
  0
VERTEX
  5
1F2
330
1DE
100
AcDbEntity
  8
001
370
    50
100
AcDbVertex
100
AcDb2dVertex
 10
97.582959
 20
104.459694
 30
0.0
  0
SEQEND
  5
1DF
330
1DE
100
AcDbEntity
  8
001
370
    50
  0
LINE
  5
1F3
330
1F
100
AcDbEntity
  8
001
370
    50
100
AcDbLine
 10
93.636204
 20
103.665694
 30
0.0
 11
96.801021
 21
103.665694
 31
0.0
  0
LINE
  5
1F4
330
1F
100
AcDbEntity
  8
001
370
    50
100
AcDbLine
 10
92.141505
 20
102.203082
 30
0.0
 11
93.636204
 21
103.665694
 31
0.0
  0
LINE
  5
1F5
330
1F
100
AcDbEntity
  8
001
370
    50
100
AcDbLine
 10
92.141505
 20
102.203082
 30
0.0
 11
87.157838
 21
102.203082
 31
0.0
  0
LINE
  5
1F6
330
1F
100
AcDbEntity
  8
001
370
    50
100
AcDbLine
 10
86.375901
 20
106.203082
 30
0.0
 11
86.375901
 21
102.996852
 31
0.0
  0
LINE
  5
1F7
330
1F
100
AcDbEntity
  8
001
370
    50
100
AcDbLine
 10
85.0759
 20
107.503082
 30
0.0
 11
85.0759
 21
112.931584
 31
0.0
  0
POLYLINE
  5
1F8
330
1F
100
AcDbEntity
  8
001
370
    50
100
AcDb2dPolyline
 66
     1
 10
0.0
 20
0.0
 30
0.0
  0
VERTEX
  5
1FA
330
1F8
100
AcDbEntity
  8
001
370
    50
100
AcDbVertex
100
AcDb2dVertex
 10
85.857837
 20
113.725584
 30
0.0
  0
VERTEX
  5
1FB
330
1F8
100
AcDbEntity
  8
001
370
    50
100
AcDbVertex
100
AcDb2dVertex
 10
85.793374
 20
113.721757
 30
0.0
  0
VERTEX
  5
1FC
330
1F8
100
AcDbEntity
  8
001
370
    50
100
AcDbVertex
100
AcDb2dVertex
 10
85.705289
 20
113.710328
 30
0.0
  0
VERTEX
  5
1FD
330
1F8
100
AcDbEntity
  8
001
370
    50
100
AcDbVertex
100
AcDb2dVertex
 10
85.62755
 20
113.691378
 30
0.0
  0
VERTEX
  5
1FE
330
1F8
100
AcDbEntity
  8
001
370
    50
100
AcDbVertex
100
AcDb2dVertex
 10
85.558603
 20
113.665145
 30
0.0
  0
VERTEX
  5
1FF
330
1F8
100
AcDbEntity
  8
001
370
    50
100
AcDbVertex
100
AcDb2dVertex
 10
85.490074
 20
113.631821
 30
0.0
  0
VERTEX
  5
200
330
1F8
100
AcDbEntity
  8
001
370
    50
100
AcDbVertex
100
AcDb2dVertex
 10
85.423416
 20
113.591771
 30
0.0
  0
VERTEX
  5
201
330
1F8
100
AcDbEntity
  8
001
370
    50
100
AcDbVertex
100
AcDb2dVertex
 10
85.361503
 20
113.545253
 30
0.0
  0
VERTEX
  5
202
330
1F8
100
AcDbEntity
  8
001
370
    50
100
AcDbVertex
100
AcDb2dVertex
 10
85.304924
 20
113.493027
 30
0.0
  0
VERTEX
  5
203
330
1F8
100
AcDbEntity
  8
001
370
    50
100
AcDbVertex
100
AcDb2dVertex
 10
85.253422
 20
113.435483
 30
0.0
  0
VERTEX
  5
204
330
1F8
100
AcDbEntity
  8
001
370
    50
100
AcDbVertex
100
AcDb2dVertex
 10
85.20768
 20
113.372707
 30
0.0
  0
VERTEX
  5
205
330
1F8
100
AcDbEntity
  8
001
370
    50
100
AcDbVertex
100
AcDb2dVertex
 10
85.168193
 20
113.304946
 30
0.0
  0
VERTEX
  5
206
330
1F8
100
AcDbEntity
  8
001
370
    50
100
AcDbVertex
100
AcDb2dVertex
 10
85.135422
 20
113.235435
 30
0.0
  0
VERTEX
  5
207
330
1F8
100
AcDbEntity
  8
001
370
    50
100
AcDbVertex
100
AcDb2dVertex
 10
85.109568
 20
113.165348
 30
0.0
  0
VERTEX
  5
208
330
1F8
100
AcDbEntity
  8
001
370
    50
100
AcDbVertex
100
AcDb2dVertex
 10
85.090925
 20
113.086486
 30
0.0
  0
VERTEX
  5
209
330
1F8
100
AcDbEntity
  8
001
370
    50
100
AcDbVertex
100
AcDb2dVertex
 10
85.079666
 20
112.997029
 30
0.0
  0
VERTEX
  5
20A
330
1F8
100
AcDbEntity
  8
001
370
    50
100
AcDbVertex
100
AcDb2dVertex
 10
85.0759
 20
112.931584
 30
0.0
  0
SEQEND
  5
1F9
330
1F8
100
AcDbEntity
  8
001
370
    50
  0
LINE
  5
20B
330
1F
100
AcDbEntity
  8
001
370
    50
100
AcDbLine
 10
89.022655
 20
113.725584
 30
0.0
 11
85.857838
 21
113.725584
 31
0.0
  0
POLYLINE
  5
20C
330
1F
100
AcDbEntity
  8
001
370
    50
100
AcDb2dPolyline
 66
     1
 10
0.0
 20
0.0
 30
0.0
  0
VERTEX
  5
20E
330
20C
100
AcDbEntity
  8
001
370
    50
100
AcDbVertex
100
AcDb2dVertex
 10
87.6364
 20
108.695639
 30
0.0
  0
VERTEX
  5
20F
330
20C
100
AcDbEntity
  8
001
370
    50
100
AcDbVertex
100
AcDb2dVertex
 10
87.654186
 20
108.386551
 30
0.0
  0
VERTEX
  5
210
330
20C
100
AcDbEntity
  8
001
370
    50
100
AcDbVertex
100
AcDb2dVertex
 10
87.707361
 20
107.964051
 30
0.0
  0
VERTEX
  5
211
330
20C
100
AcDbEntity
  8
001
370
    50
100
AcDbVertex
100
AcDb2dVertex
 10
87.795411
 20
107.591595
 30
0.0
  0
VERTEX
  5
212
330
20C
100
AcDbEntity
  8
001
370
    50
100
AcDbVertex
100
AcDb2dVertex
 10
87.917515
 20
107.260577
 30
0.0
  0
VERTEX
  5
213
330
20C
100
AcDbEntity
  8
001
370
    50
100
AcDbVertex
100
AcDb2dVertex
 10
88.072294
 20
106.932282
 30
0.0
  0
VERTEX
  5
214
330
20C
100
AcDbEntity
  8
001
370
    50
100
AcDbVertex
100
AcDb2dVertex
 10
88.258788
 20
106.612251
 30
0.0
  0
VERTEX
  5
215
330
20C
100
AcDbEntity
  8
001
370
    50
100
AcDbVertex
100
AcDb2dVertex
 10
88.474823
 20
106.315768
 30
0.0
  0
VERTEX
  5
216
330
20C
100
AcDbEntity
  8
001
370
    50
100
AcDbVertex
100
AcDb2dVertex
 10
88.718064
 20
106.043989
 30
0.0
  0
VERTEX
  5
217
330
20C
100
AcDbEntity
  8
001
370
    50
100
AcDbVertex
100
AcDb2dVertex
 10
88.985282
 20
105.797331
 30
0.0
  0
VERTEX
  5
218
330
20C
100
AcDbEntity
  8
001
370
    50
100
AcDbVertex
100
AcDb2dVertex
 10
89.277692
 20
105.577628
 30
0.0
  0
VERTEX
  5
219
330
20C
100
AcDbEntity
  8
001
370
    50
100
AcDbVertex
100
AcDb2dVertex
 10
89.59251
 20
105.388478
 30
0.0
  0
VERTEX
  5
21A
330
20C
100
AcDbEntity
  8
001
370
    50
100
AcDbVertex
100
AcDb2dVertex
 10
89.916168
 20
105.231091
 30
0.0
  0
VERTEX
  5
21B
330
20C
100
AcDbEntity
  8
001
370
    50
100
AcDbVertex
100
AcDb2dVertex
 10
90.241802
 20
105.107195
 30
0.0
  0
VERTEX
  5
21C
330
20C
100
AcDbEntity
  8
001
370
    50
100
AcDbVertex
100
AcDb2dVertex
 10
90.608955
 20
105.017695
 30
0.0
  0
VERTEX
  5
21D
330
20C
100
AcDbEntity
  8
001
370
    50
100
AcDbVertex
100
AcDb2dVertex
 10
91.024974
 20
104.963715
 30
0.0
  0
VERTEX
  5
21E
330
20C
100
AcDbEntity
  8
001
370
    50
100
AcDbVertex
100
AcDb2dVertex
 10
91.329429
 20
104.945639
 30
0.0
  0
SEQEND
  5
20D
330
20C
100
AcDbEntity
  8
001
370
    50
  0
POLYLINE
  5
21F
330
1F
100
AcDbEntity
  8
001
370
    50
100
AcDb2dPolyline
 66
     1
 10
0.0
 20
0.0
 30
0.0
  0
VERTEX
  5
221
330
21F
100
AcDbEntity
  8
001
370
    50
100
AcDbVertex
100
AcDb2dVertex
 10
91.329429
 20
104.945639
 30
0.0
  0
VERTEX
  5
222
330
21F
100
AcDbEntity
  8
001
370
    50
100
AcDbVertex
100
AcDb2dVertex
 10
91.600177
 20
104.959923
 30
0.0
  0
VERTEX
  5
223
330
21F
100
AcDbEntity
  8
001
370
    50
100
AcDbVertex
100
AcDb2dVertex
 10
91.970717
 20
105.00261
 30
0.0
  0
VERTEX
  5
224
330
21F
100
AcDbEntity
  8
001
370
    50
100
AcDbVertex
100
AcDb2dVertex
 10
92.299086
 20
105.073456
 30
0.0
  0
VERTEX
  5
225
330
21F
100
AcDbEntity
  8
001
370
    50
100
AcDbVertex
100
AcDb2dVertex
 10
92.59252
 20
105.171792
 30
0.0
  0
VERTEX
  5
226
330
21F
100
AcDbEntity
  8
001
370
    50
100
AcDbVertex
100
AcDb2dVertex
 10
92.886629
 20
105.297065
 30
0.0
  0
VERTEX
  5
227
330
21F
100
AcDbEntity
  8
001
370
    50
100
AcDbVertex
100
AcDb2dVertex
 10
93.175944
 20
105.448044
 30
0.0
  0
VERTEX
  5
228
330
21F
100
AcDbEntity
  8
001
370
    50
100
AcDbVertex
100
AcDb2dVertex
 10
93.448816
 20
105.623945
 30
0.0
  0
VERTEX
  5
229
330
21F
100
AcDbEntity
  8
001
370
    50
100
AcDbVertex
100
AcDb2dVertex
 10
93.703263
 20
105.822973
 30
0.0
  0
VERTEX
  5
22A
330
21F
100
AcDbEntity
  8
001
370
    50
100
AcDbVertex
100
AcDb2dVertex
 10
93.940674
 20
106.044149
 30
0.0
  0
VERTEX
  5
22B
330
21F
100
AcDbEntity
  8
001
370
    50
100
AcDbVertex
100
AcDb2dVertex
 10
94.158454
 20
106.285186
 30
0.0
  0
VERTEX
  5
22C
330
21F
100
AcDbEntity
  8
001
370
    50
100
AcDbVertex
100
AcDb2dVertex
 10
94.354761
 20
106.5449
 30
0.0
  0
VERTEX
  5
22D
330
21F
100
AcDbEntity
  8
001
370
    50
100
AcDbVertex
100
AcDb2dVertex
 10
94.527686
 20
106.820639
 30
0.0
  0
VERTEX
  5
22E
330
21F
100
AcDbEntity
  8
001
370
    50
100
AcDbVertex
100
AcDb2dVertex
 10
94.676492
 20
107.110974
 30
0.0
  0
VERTEX
  5
22F
330
21F
100
AcDbEntity
  8
001
370
    50
100
AcDbVertex
100
AcDb2dVertex
 10
94.799742
 20
107.413064
 30
0.0
  0
VERTEX
  5
230
330
21F
100
AcDbEntity
  8
001
370
    50
100
AcDbVertex
100
AcDb2dVertex
 10
94.896646
 20
107.725174
 30
0.0
  0
VERTEX
  5
231
330
21F
100
AcDbEntity
  8
001
370
    50
100
AcDbVertex
100
AcDb2dVertex
 10
94.966353
 20
108.044459
 30
0.0
  0
VERTEX
  5
232
330
21F
100
AcDbEntity
  8
001
370
    50
100
AcDbVertex
100
AcDb2dVertex
 10
95.0084
 20
108.368843
 30
0.0
  0
VERTEX
  5
233
330
21F
100
AcDbEntity
  8
001
370
    50
100
AcDbVertex
100
AcDb2dVertex
 10
95.022459
 20
108.695639
 30
0.0
  0
VERTEX
  5
234
330
21F
100
AcDbEntity
  8
001
370
    50
100
AcDbVertex
100
AcDb2dVertex
 10
95.0084
 20
109.022436
 30
0.0
  0
VERTEX
  5
235
330
21F
100
AcDbEntity
  8
001
370
    50
100
AcDbVertex
100
AcDb2dVertex
 10
94.966353
 20
109.34682
 30
0.0
  0
VERTEX
  5
236
330
21F
100
AcDbEntity
  8
001
370
    50
100
AcDbVertex
100
AcDb2dVertex
 10
94.896646
 20
109.666105
 30
0.0
  0
VERTEX
  5
237
330
21F
100
AcDbEntity
  8
001
370
    50
100
AcDbVertex
100
AcDb2dVertex
 10
94.799742
 20
109.978215
 30
0.0
  0
VERTEX
  5
238
330
21F
100
AcDbEntity
  8
001
370
    50
100
AcDbVertex
100
AcDb2dVertex
 10
94.676492
 20
110.280305
 30
0.0
  0
VERTEX
  5
239
330
21F
100
AcDbEntity
  8
001
370
    50
100
AcDbVertex
100
AcDb2dVertex
 10
94.527686
 20
110.570639
 30
0.0
  0
VERTEX
  5
23A
330
21F
100
AcDbEntity
  8
001
370
    50
100
AcDbVertex
100
AcDb2dVertex
 10
94.354761
 20
110.846379
 30
0.0
  0
VERTEX
  5
23B
330
21F
100
AcDbEntity
  8
001
370
    50
100
AcDbVertex
100
AcDb2dVertex
 10
94.158454
 20
111.106093
 30
0.0
  0
VERTEX
  5
23C
330
21F
100
AcDbEntity
  8
001
370
    50
100
AcDbVertex
100
AcDb2dVertex
 10
93.940674
 20
111.34713
 30
0.0
  0
VERTEX
  5
23D
330
21F
100
AcDbEntity
  8
001
370
    50
100
AcDbVertex
100
AcDb2dVertex
 10
93.703263
 20
111.568306
 30
0.0
  0
VERTEX
  5
23E
330
21F
100
AcDbEntity
  8
001
370
    50
100
AcDbVertex
100
AcDb2dVertex
 10
93.448816
 20
111.767334
 30
0.0
  0
VERTEX
  5
23F
330
21F
100
AcDbEntity
  8
001
370
    50
100
AcDbVertex
100
AcDb2dVertex
 10
93.175944
 20
111.943235
 30
0.0
  0
VERTEX
  5
240
330
21F
100
AcDbEntity
  8
001
370
    50
100
AcDbVertex
100
AcDb2dVertex
 10
92.886629
 20
112.094214
 30
0.0
  0
VERTEX
  5
241
330
21F
100
AcDbEntity
  8
001
370
    50
100
AcDbVertex
100
AcDb2dVertex
 10
92.59252
 20
112.219487
 30
0.0
  0
VERTEX
  5
242
330
21F
100
AcDbEntity
  8
001
370
    50
100
AcDbVertex
100
AcDb2dVertex
 10
92.299086
 20
112.317823
 30
0.0
  0
VERTEX
  5
243
330
21F
100
AcDbEntity
  8
001
370
    50
100
AcDbVertex
100
AcDb2dVertex
 10
91.970717
 20
112.388669
 30
0.0
  0
VERTEX
  5
244
330
21F
100
AcDbEntity
  8
001
370
    50
100
AcDbVertex
100
AcDb2dVertex
 10
91.600177
 20
112.431356
 30
0.0
  0
VERTEX
  5
245
330
21F
100
AcDbEntity
  8
001
370
    50
100
AcDbVertex
100
AcDb2dVertex
 10
91.329429
 20
112.445639
 30
0.0
  0
SEQEND
  5
220
330
21F
100
AcDbEntity
  8
001
370
    50
  0
LINE
  5
246
330
1F
100
AcDbEntity
  8
001
370
    50
100
AcDbLine
 10
142.0759
 20
134.853082
 30
0.0
 11
109.314637
 21
134.853082
 31
0.0
  0
LINE
  5
247
330
1F
100
AcDbEntity
  8
001
370
    50
100
AcDbLine
 10
141.378937
 20
98.553082
 30
0.0
 11
142.0759
 21
98.553082
 31
0.0
  0
POLYLINE
  5
248
330
1F
100
AcDbEntity
  8
001
370
    50
100
AcDb2dPolyline
 66
     1
 10
0.0
 20
0.0
 30
0.0
  0
VERTEX
  5
24A
330
248
100
AcDbEntity
  8
001
370
    50
100
AcDbVertex
100
AcDb2dVertex
 10
139.161274
 20
101.536433
 30
0.0
  0
VERTEX
  5
24B
330
248
100
AcDbEntity
  8
001
370
    50
100
AcDbVertex
100
AcDb2dVertex
 10
139.297431
 20
101.212477
 30
0.0
  0
VERTEX
  5
24C
330
248
100
AcDbEntity
  8
001
370
    50
100
AcDbVertex
100
AcDb2dVertex
 10
139.440687
 20
100.891759
 30
0.0
  0
VERTEX
  5
24D
330
248
100
AcDbEntity
  8
001
370
    50
100
AcDbVertex
100
AcDb2dVertex
 10
139.582952
 20
100.603457
 30
0.0
  0
VERTEX
  5
24E
330
248
100
AcDbEntity
  8
001
370
    50
100
AcDbVertex
100
AcDb2dVertex
 10
139.735976
 20
100.32061
 30
0.0
  0
VERTEX
  5
24F
330
248
100
AcDbEntity
  8
001
370
    50
100
AcDbVertex
100
AcDb2dVertex
 10
139.882588
 20
100.070348
 30
0.0
  0
VERTEX
  5
250
330
248
100
AcDbEntity
  8
001
370
    50
100
AcDbVertex
100
AcDb2dVertex
 10
140.037997
 20
99.825512
 30
0.0
  0
VERTEX
  5
251
330
248
100
AcDbEntity
  8
001
370
    50
100
AcDbVertex
100
AcDb2dVertex
 10
140.183611
 20
99.614252
 30
0.0
  0
VERTEX
  5
252
330
248
100
AcDbEntity
  8
001
370
    50
100
AcDbVertex
100
AcDb2dVertex
 10
140.33761
 20
99.40899
 30
0.0
  0
VERTEX
  5
253
330
248
100
AcDbEntity
  8
001
370
    50
100
AcDbVertex
100
AcDb2dVertex
 10
140.47771
 20
99.237856
 30
0.0
  0
VERTEX
  5
254
330
248
100
AcDbEntity
  8
001
370
    50
100
AcDbVertex
100
AcDb2dVertex
 10
140.625671
 20
99.073569
 30
0.0
  0
VERTEX
  5
255
330
248
100
AcDbEntity
  8
001
370
    50
100
AcDbVertex
100
AcDb2dVertex
 10
140.734058
 20
98.964043
 30
0.0
  0
VERTEX
  5
256
330
248
100
AcDbEntity
  8
001
370
    50
100
AcDbVertex
100
AcDb2dVertex
 10
140.847368
 20
98.859519
 30
0.0
  0
VERTEX
  5
257
330
248
100
AcDbEntity
  8
001
370
    50
100
AcDbVertex
100
AcDb2dVertex
 10
140.945822
 20
98.777249
 30
0.0
  0
VERTEX
  5
258
330
248
100
AcDbEntity
  8
001
370
    50
100
AcDbVertex
100
AcDb2dVertex
 10
141.048683
 20
98.700884
 30
0.0
  0
VERTEX
  5
259
330
248
100
AcDbEntity
  8
001
370
    50
100
AcDbVertex
100
AcDb2dVertex
 10
141.132852
 20
98.646595
 30
0.0
  0
VERTEX
  5
25A
330
248
100
AcDbEntity
  8
001
370
    50
100
AcDbVertex
100
AcDb2dVertex
 10
141.2215
 20
98.598976
 30
0.0
  0
VERTEX
  5
25B
330
248
100
AcDbEntity
  8
001
370
    50
100
AcDbVertex
100
AcDb2dVertex
 10
141.288146
 20
98.571238
 30
0.0
  0
VERTEX
  5
25C
330
248
100
AcDbEntity
  8
001
370
    50
100
AcDbVertex
100
AcDb2dVertex
 10
141.357704
 20
98.555105
 30
0.0
  0
VERTEX
  5
25D
330
248
100
AcDbEntity
  8
001
370
    50
100
AcDbVertex
100
AcDb2dVertex
 10
141.370374
 20
98.553944
 30
0.0
  0
VERTEX
  5
25E
330
248
100
AcDbEntity
  8
001
370
    50
100
AcDbVertex
100
AcDb2dVertex
 10
141.38309
 20
98.553082
 30
0.0
  0
SEQEND
  5
249
330
248
100
AcDbEntity
  8
001
370
    50
  0
POLYLINE
  5
25F
330
1F
100
AcDbEntity
  8
001
370
    50
100
AcDb2dPolyline
 66
     1
 10
0.0
 20
0.0
 30
0.0
  0
VERTEX
  5
261
330
25F
100
AcDbEntity
  8
001
370
    50
100
AcDbVertex
100
AcDb2dVertex
 10
130.734915
 20
108.974538
 30
0.0
  0
VERTEX
  5
262
330
25F
100
AcDbEntity
  8
001
370
    50
100
AcDbVertex
100
AcDb2dVertex
 10
131.20725
 20
108.815543
 30
0.0
  0
VERTEX
  5
263
330
25F
100
AcDbEntity
  8
001
370
    50
100
AcDbVertex
100
AcDb2dVertex
 10
131.675124
 20
108.644716
 30
0.0
  0
VERTEX
  5
264
330
25F
100
AcDbEntity
  8
001
370
    50
100
AcDbVertex
100
AcDb2dVertex
 10
132.131165
 20
108.454519
 30
0.0
  0
VERTEX
  5
265
330
25F
100
AcDbEntity
  8
001
370
    50
100
AcDbVertex
100
AcDb2dVertex
 10
132.578882
 20
108.244957
 30
0.0
  0
VERTEX
  5
266
330
25F
100
AcDbEntity
  8
001
370
    50
100
AcDbVertex
100
AcDb2dVertex
 10
132.974785
 20
108.042617
 30
0.0
  0
VERTEX
  5
267
330
25F
100
AcDbEntity
  8
001
370
    50
100
AcDbVertex
100
AcDb2dVertex
 10
133.363858
 20
107.827624
 30
0.0
  0
VERTEX
  5
268
330
25F
100
AcDbEntity
  8
001
370
    50
100
AcDbVertex
100
AcDb2dVertex
 10
133.74195
 20
107.602292
 30
0.0
  0
VERTEX
  5
269
330
25F
100
AcDbEntity
  8
001
370
    50
100
AcDbVertex
100
AcDb2dVertex
 10
134.112776
 20
107.365132
 30
0.0
  0
VERTEX
  5
26A
330
25F
100
AcDbEntity
  8
001
370
    50
100
AcDbVertex
100
AcDb2dVertex
 10
134.47057
 20
107.120764
 30
0.0
  0
VERTEX
  5
26B
330
25F
100
AcDbEntity
  8
001
370
    50
100
AcDbVertex
100
AcDb2dVertex
 10
134.820965
 20
106.86592
 30
0.0
  0
VERTEX
  5
26C
330
25F
100
AcDbEntity
  8
001
370
    50
100
AcDbVertex
100
AcDb2dVertex
 10
135.156137
 20
106.606921
 30
0.0
  0
VERTEX
  5
26D
330
25F
100
AcDbEntity
  8
001
370
    50
100
AcDbVertex
100
AcDb2dVertex
 10
135.483755
 20
106.338424
 30
0.0
  0
VERTEX
  5
26E
330
25F
100
AcDbEntity
  8
001
370
    50
100
AcDbVertex
100
AcDb2dVertex
 10
135.82912
 20
106.037821
 30
0.0
  0
VERTEX
  5
26F
330
25F
100
AcDbEntity
  8
001
370
    50
100
AcDbVertex
100
AcDb2dVertex
 10
136.165191
 20
105.726856
 30
0.0
  0
VERTEX
  5
270
330
25F
100
AcDbEntity
  8
001
370
    50
100
AcDbVertex
100
AcDb2dVertex
 10
136.48246
 20
105.415373
 30
0.0
  0
VERTEX
  5
271
330
25F
100
AcDbEntity
  8
001
370
    50
100
AcDbVertex
100
AcDb2dVertex
 10
136.790525
 20
105.094787
 30
0.0
  0
VERTEX
  5
272
330
25F
100
AcDbEntity
  8
001
370
    50
100
AcDbVertex
100
AcDb2dVertex
 10
137.077748
 20
104.778174
 30
0.0
  0
VERTEX
  5
273
330
25F
100
AcDbEntity
  8
001
370
    50
100
AcDbVertex
100
AcDb2dVertex
 10
137.355758
 20
104.453446
 30
0.0
  0
VERTEX
  5
274
330
25F
100
AcDbEntity
  8
001
370
    50
100
AcDbVertex
100
AcDb2dVertex
 10
137.61097
 20
104.137395
 30
0.0
  0
VERTEX
  5
275
330
25F
100
AcDbEntity
  8
001
370
    50
100
AcDbVertex
100
AcDb2dVertex
 10
137.856889
 20
103.814057
 30
0.0
  0
VERTEX
  5
276
330
25F
100
AcDbEntity
  8
001
370
    50
100
AcDbVertex
100
AcDb2dVertex
 10
138.068529
 20
103.51854
 30
0.0
  0
VERTEX
  5
277
330
25F
100
AcDbEntity
  8
001
370
    50
100
AcDbVertex
100
AcDb2dVertex
 10
138.271541
 20
103.217067
 30
0.0
  0
VERTEX
  5
278
330
25F
100
AcDbEntity
  8
001
370
    50
100
AcDbVertex
100
AcDb2dVertex
 10
138.454305
 20
102.927596
 30
0.0
  0
VERTEX
  5
279
330
25F
100
AcDbEntity
  8
001
370
    50
100
AcDbVertex
100
AcDb2dVertex
 10
138.628664
 20
102.63291
 30
0.0
  0
VERTEX
  5
27A
330
25F
100
AcDbEntity
  8
001
370
    50
100
AcDbVertex
100
AcDb2dVertex
 10
138.782644
 20
102.354138
 30
0.0
  0
VERTEX
  5
27B
330
25F
100
AcDbEntity
  8
001
370
    50
100
AcDbVertex
100
AcDb2dVertex
 10
138.925996
 20
102.069921
 30
0.0
  0
VERTEX
  5
27C
330
25F
100
AcDbEntity
  8
001
370
    50
100
AcDbVertex
100
AcDb2dVertex
 10
139.046551
 20
101.804543
 30
0.0
  0
VERTEX
  5
27D
330
25F
100
AcDbEntity
  8
001
370
    50
100
AcDbVertex
100
AcDb2dVertex
 10
139.161274
 20
101.536433
 30
0.0
  0
SEQEND
  5
260
330
25F
100
AcDbEntity
  8
001
370
    50
  0
LINE
  5
27E
330
1F
100
AcDbEntity
  8
001
370
    50
100
AcDbLine
 10
129.907915
 20
109.262324
 30
0.0
 11
130.734915
 21
108.974538
 31
0.0
  0
LINE
  5
27F
330
1F
100
AcDbEntity
  8
001
370
    50
100
AcDbLine
 10
129.080915
 20
109.552376
 30
0.0
 11
129.907915
 21
109.262324
 31
0.0
  0
LINE
  5
280
330
1F
100
AcDbEntity
  8
001
370
    50
100
AcDbLine
 10
128.253915
 20
109.844607
 30
0.0
 11
129.080915
 21
109.552376
 31
0.0
  0
LINE
  5
281
330
1F
100
AcDbEntity
  8
001
370
    50
100
AcDbLine
 10
127.426915
 20
110.138926
 30
0.0
 11
128.253915
 21
109.844607
 31
0.0
  0
LINE
  5
282
330
1F
100
AcDbEntity
  8
001
370
    50
100
AcDbLine
 10
126.599915
 20
110.435245
 30
0.0
 11
127.426915
 21
110.138926
 31
0.0
  0
LINE
  5
283
330
1F
100
AcDbEntity
  8
001
370
    50
100
AcDbLine
 10
125.772915
 20
110.733474
 30
0.0
 11
126.599915
 21
110.435245
 31
0.0
  0
LINE
  5
284
330
1F
100
AcDbEntity
  8
001
370
    50
100
AcDbLine
 10
124.945915
 20
111.033521
 30
0.0
 11
125.772915
 21
110.733474
 31
0.0
  0
LINE
  5
285
330
1F
100
AcDbEntity
  8
001
370
    50
100
AcDbLine
 10
124.118915
 20
111.335295
 30
0.0
 11
124.945915
 21
111.033521
 31
0.0
  0
LINE
  5
286
330
1F
100
AcDbEntity
  8
001
370
    50
100
AcDbLine
 10
123.291915
 20
111.638703
 30
0.0
 11
124.118915
 21
111.335295
 31
0.0
  0
LINE
  5
287
330
1F
100
AcDbEntity
  8
001
370
    50
100
AcDbLine
 10
122.464915
 20
111.943655
 30
0.0
 11
123.291915
 21
111.638703
 31
0.0
  0
LINE
  5
288
330
1F
100
AcDbEntity
  8
001
370
    50
100
AcDbLine
 10
121.637915
 20
112.250056
 30
0.0
 11
122.464915
 21
111.943655
 31
0.0
  0
LINE
  5
289
330
1F
100
AcDbEntity
  8
001
370
    50
100
AcDbLine
 10
120.810915
 20
112.557814
 30
0.0
 11
121.637915
 21
112.250056
 31
0.0
  0
LINE
  5
28A
330
1F
100
AcDbEntity
  8
001
370
    50
100
AcDbLine
 10
119.983915
 20
112.866835
 30
0.0
 11
120.810915
 21
112.557814
 31
0.0
  0
LINE
  5
28B
330
1F
100
AcDbEntity
  8
001
370
    50
100
AcDbLine
 10
119.156915
 20
113.177024
 30
0.0
 11
119.983915
 21
112.866835
 31
0.0
  0
LINE
  5
28C
330
1F
100
AcDbEntity
  8
001
370
    50
100
AcDbLine
 10
118.329915
 20
113.488287
 30
0.0
 11
119.156915
 21
113.177024
 31
0.0
  0
LINE
  5
28D
330
1F
100
AcDbEntity
  8
001
370
    50
100
AcDbLine
 10
117.502915
 20
113.800529
 30
0.0
 11
118.329915
 21
113.488287
 31
0.0
  0
LINE
  5
28E
330
1F
100
AcDbEntity
  8
001
370
    50
100
AcDbLine
 10
116.675915
 20
114.113656
 30
0.0
 11
117.502915
 21
113.800529
 31
0.0
  0
LINE
  5
28F
330
1F
100
AcDbEntity
  8
001
370
    50
100
AcDbLine
 10
115.848915
 20
114.427571
 30
0.0
 11
116.675915
 21
114.113656
 31
0.0
  0
LINE
  5
290
330
1F
100
AcDbEntity
  8
001
370
    50
100
AcDbLine
 10
115.021915
 20
114.742179
 30
0.0
 11
115.848915
 21
114.427571
 31
0.0
  0
LINE
  5
291
330
1F
100
AcDbEntity
  8
001
370
    50
100
AcDbLine
 10
114.194915
 20
115.057385
 30
0.0
 11
115.021915
 21
114.742179
 31
0.0
  0
LINE
  5
292
330
1F
100
AcDbEntity
  8
001
370
    50
100
AcDbLine
 10
113.367915
 20
115.373092
 30
0.0
 11
114.194915
 21
115.057385
 31
0.0
  0
LINE
  5
293
330
1F
100
AcDbEntity
  8
001
370
    50
100
AcDbLine
 10
112.540915
 20
115.689204
 30
0.0
 11
113.367915
 21
115.373092
 31
0.0
  0
LINE
  5
294
330
1F
100
AcDbEntity
  8
001
370
    50
100
AcDbLine
 10
111.713915
 20
116.005625
 30
0.0
 11
112.540915
 21
115.689204
 31
0.0
  0
LINE
  5
295
330
1F
100
AcDbEntity
  8
001
370
    50
100
AcDbLine
 10
110.886915
 20
116.322259
 30
0.0
 11
111.713915
 21
116.005625
 31
0.0
  0
LINE
  5
296
330
1F
100
AcDbEntity
  8
001
370
    50
100
AcDbLine
 10
110.059915
 20
116.639008
 30
0.0
 11
110.886915
 21
116.322259
 31
0.0
  0
LINE
  5
297
330
1F
100
AcDbEntity
  8
001
370
    50
100
AcDbLine
 10
109.314637
 20
116.927845
 30
0.0
 11
110.059915
 21
116.639008
 31
0.0
  0
ARC
  5
298
330
1F
100
AcDbEntity
  8
001
370
    50
100
AcDbCircle
 10
142.0759
 20
133.853082
 30
0.0
 40
1.000000000000001
100
AcDbArc
 50
0.0
 51
90.0
  0
ARC
  5
299
330
1F
100
AcDbEntity
  8
001
370
    50
100
AcDbCircle
 10
142.0759
 20
99.553082
 30
0.0
 40
1.000000000000001
100
AcDbArc
 50
270.0
 51
0.0
  0
LINE
  5
29A
330
1F
100
AcDbEntity
  8
001
370
    50
100
AcDbLine
 10
143.0759
 20
133.853082
 30
0.0
 11
143.0759
 21
99.553082
 31
0.0
  0
LINE
  5
29B
330
1F
100
AcDbEntity
  8
001
370
    50
100
AcDbLine
 10
109.229535
 20
117.016504
 30
0.0
 11
109.314637
 21
116.927845
 31
0.0
  0
LINE
  5
29C
330
1F
100
AcDbEntity
  8
001
370
    50
100
AcDbLine
 10
109.314637
 20
134.853082
 30
0.0
 11
104.7759
 21
130.153082
 31
0.0
  0
POLYLINE
  5
29D
330
1F
100
AcDbEntity
  8
001
370
    50
100
AcDb2dPolyline
 66
     1
 10
0.0
 20
0.0
 30
0.0
  0
VERTEX
  5
29F
330
29D
100
AcDbEntity
  8
001
370
    50
100
AcDbVertex
100
AcDb2dVertex
 10
108.352648
 20
117.887574
 30
0.0
  0
VERTEX
  5
2A0
330
29D
100
AcDbEntity
  8
001
370
    50
100
AcDbVertex
100
AcDb2dVertex
 10
108.577248
 20
117.682628
 30
0.0
  0
VERTEX
  5
2A1
330
29D
100
AcDbEntity
  8
001
370
    50
100
AcDbVertex
100
AcDb2dVertex
 10
108.797018
 20
117.472815
 30
0.0
  0
VERTEX
  5
2A2
330
29D
100
AcDbEntity
  8
001
370
    50
100
AcDbVertex
100
AcDb2dVertex
 10
109.015861
 20
117.247263
 30
0.0
  0
VERTEX
  5
2A3
330
29D
100
AcDbEntity
  8
001
370
    50
100
AcDbVertex
100
AcDb2dVertex
 10
109.229535
 20
117.016504
 30
0.0
  0
SEQEND
  5
29E
330
29D
100
AcDbEntity
  8
001
370
    50
  0
POLYLINE
  5
2A4
330
1F
100
AcDbEntity
  8
001
370
    50
100
AcDb2dPolyline
 66
     1
 10
0.0
 20
0.0
 30
0.0
  0
VERTEX
  5
2A6
330
2A4
100
AcDbEntity
  8
001
370
    50
100
AcDbVertex
100
AcDb2dVertex
 10
107.447354
 20
118.644645
 30
0.0
  0
VERTEX
  5
2A7
330
2A4
100
AcDbEntity
  8
001
370
    50
100
AcDbVertex
100
AcDb2dVertex
 10
107.793816
 20
118.375578
 30
0.0
  0
VERTEX
  5
2A8
330
2A4
100
AcDbEntity
  8
001
370
    50
100
AcDbVertex
100
AcDb2dVertex
 10
108.129502
 20
118.094046
 30
0.0
  0
VERTEX
  5
2A9
330
2A4
100
AcDbEntity
  8
001
370
    50
100
AcDbVertex
100
AcDb2dVertex
 10
108.241723
 20
117.991559
 30
0.0
  0
VERTEX
  5
2AA
330
2A4
100
AcDbEntity
  8
001
370
    50
100
AcDbVertex
100
AcDb2dVertex
 10
108.352648
 20
117.887574
 30
0.0
  0
SEQEND
  5
2A5
330
2A4
100
AcDbEntity
  8
001
370
    50
  0
POLYLINE
  5
2AB
330
1F
100
AcDbEntity
  8
001
370
    50
100
AcDb2dPolyline
 66
     1
 10
0.0
 20
0.0
 30
0.0
  0
VERTEX
  5
2AD
330
2AB
100
AcDbEntity
  8
001
370
    50
100
AcDbVertex
100
AcDb2dVertex
 10
106.513842
 20
119.281694
 30
0.0
  0
VERTEX
  5
2AE
330
2AB
100
AcDbEntity
  8
001
370
    50
100
AcDbVertex
100
AcDb2dVertex
 10
106.751971
 20
119.137062
 30
0.0
  0
VERTEX
  5
2AF
330
2AB
100
AcDbEntity
  8
001
370
    50
100
AcDbVertex
100
AcDb2dVertex
 10
106.985665
 20
118.985923
 30
0.0
  0
VERTEX
  5
2B0
330
2AB
100
AcDbEntity
  8
001
370
    50
100
AcDbVertex
100
AcDb2dVertex
 10
107.218867
 20
118.818742
 30
0.0
  0
VERTEX
  5
2B1
330
2AB
100
AcDbEntity
  8
001
370
    50
100
AcDbVertex
100
AcDb2dVertex
 10
107.447354
 20
118.644645
 30
0.0
  0
SEQEND
  5
2AC
330
2AB
100
AcDbEntity
  8
001
370
    50
  0
POLYLINE
  5
2B2
330
1F
100
AcDbEntity
  8
001
370
    50
100
AcDb2dPolyline
 66
     1
 10
0.0
 20
0.0
 30
0.0
  0
VERTEX
  5
2B4
330
2B2
100
AcDbEntity
  8
001
370
    50
100
AcDbVertex
100
AcDb2dVertex
 10
105.552316
 20
119.793108
 30
0.0
  0
VERTEX
  5
2B5
330
2B2
100
AcDbEntity
  8
001
370
    50
100
AcDbVertex
100
AcDb2dVertex
 10
105.796969
 20
119.680713
 30
0.0
  0
VERTEX
  5
2B6
330
2B2
100
AcDbEntity
  8
001
370
    50
100
AcDbVertex
100
AcDb2dVertex
 10
106.03769
 20
119.560917
 30
0.0
  0
VERTEX
  5
2B7
330
2B2
100
AcDbEntity
  8
001
370
    50
100
AcDbVertex
100
AcDb2dVertex
 10
106.277835
 20
119.4252
 30
0.0
  0
VERTEX
  5
2B8
330
2B2
100
AcDbEntity
  8
001
370
    50
100
AcDbVertex
100
AcDb2dVertex
 10
106.513842
 20
119.281694
 30
0.0
  0
SEQEND
  5
2B3
330
2B2
100
AcDbEntity
  8
001
370
    50
  0
POLYLINE
  5
2B9
330
1F
100
AcDbEntity
  8
001
370
    50
100
AcDb2dPolyline
 66
     1
 10
0.0
 20
0.0
 30
0.0
  0
VERTEX
  5
2BB
330
2B9
100
AcDbEntity
  8
001
370
    50
100
AcDbVertex
100
AcDb2dVertex
 10
104.7759
 20
120.109031
 30
0.0
  0
VERTEX
  5
2BC
330
2B9
100
AcDbEntity
  8
001
370
    50
100
AcDbVertex
100
AcDb2dVertex
 10
104.97241
 20
120.040045
 30
0.0
  0
VERTEX
  5
2BD
330
2B9
100
AcDbEntity
  8
001
370
    50
100
AcDbVertex
100
AcDb2dVertex
 10
105.166854
 20
119.965978
 30
0.0
  0
VERTEX
  5
2BE
330
2B9
100
AcDbEntity
  8
001
370
    50
100
AcDbVertex
100
AcDb2dVertex
 10
105.360649
 20
119.882159
 30
0.0
  0
VERTEX
  5
2BF
330
2B9
100
AcDbEntity
  8
001
370
    50
100
AcDbVertex
100
AcDb2dVertex
 10
105.552316
 20
119.793108
 30
0.0
  0
SEQEND
  5
2BA
330
2B9
100
AcDbEntity
  8
001
370
    50
  0
LINE
  5
2C0
330
1F
100
AcDbEntity
  8
001
370
    50
100
AcDbLine
 10
146.0759
 20
132.703082
 30
0.0
 11
215.0759
 21
132.703082
 31
0.0
  0
LINE
  5
2C1
330
1F
100
AcDbEntity
  8
001
370
    50
100
AcDbLine
 10
146.0759
 20
100.703082
 30
0.0
 11
215.0759
 21
100.703082
 31
0.0
  0
ARC
  5
2C2
330
1F
100
AcDbEntity
  8
001
370
    50
100
AcDbCircle
 10
215.0759
 20
124.703082
 30
0.0
 40
8.000000000000007
100
AcDbArc
 50
0.0
 51
90.0
  0
ARC
  5
2C3
330
1F
100
AcDbEntity
  8
001
370
    50
100
AcDbCircle
 10
215.0759
 20
108.703082
 30
0.0
 40
8.000000000000007
100
AcDbArc
 50
270.0
 51
0.0
  0
LINE
  5
2C4
330
1F
100
AcDbEntity
  8
001
370
    50
100
AcDbLine
 10
223.0759
 20
124.703082
 30
0.0
 11
223.0759
 21
108.703082
 31
0.0
  0
LINE
  5
2C5
330
1F
100
AcDbEntity
  8
001
370
    50
100
AcDbLine
 10
104.599874
 20
120.152253
 30
0.0
 11
104.7759
 21
120.109031
 31
0.0
  0
LINE
  5
2C6
330
1F
100
AcDbEntity
  8
001
370
    50
100
AcDbLine
 10
104.7759
 20
130.153082
 30
0.0
 11
86.8759
 21
130.153082
 31
0.0
  0
LINE
  5
2C7
330
1F
100
AcDbEntity
  8
001
370
    50
100
AcDbLine
 10
103.772874
 20
120.378613
 30
0.0
 11
104.599874
 21
120.152253
 31
0.0
  0
LINE
  5
2C8
330
1F
100
AcDbEntity
  8
001
370
    50
100
AcDbLine
 10
102.945874
 20
120.603853
 30
0.0
 11
103.772874
 21
120.378613
 31
0.0
  0
LINE
  5
2C9
330
1F
100
AcDbEntity
  8
001
370
    50
100
AcDbLine
 10
102.118874
 20
120.827905
 30
0.0
 11
102.945874
 21
120.603853
 31
0.0
  0
LINE
  5
2CA
330
1F
100
AcDbEntity
  8
001
370
    50
100
AcDbLine
 10
101.291874
 20
121.050701
 30
0.0
 11
101.633867
 21
120.965978
 31
0.0
  0
LINE
  5
2CB
330
1F
100
AcDbEntity
  8
001
370
    50
100
AcDbLine
 10
100.464874
 20
121.272172
 30
0.0
 11
101.291874
 21
121.050701
 31
0.0
  0
LINE
  5
2CC
330
1F
100
AcDbEntity
  8
001
370
    50
100
AcDbLine
 10
99.637874
 20
121.492251
 30
0.0
 11
100.464874
 21
121.272172
 31
0.0
  0
LINE
  5
2CD
330
1F
100
AcDbEntity
  8
001
370
    50
100
AcDbLine
 10
98.810874
 20
121.710872
 30
0.0
 11
99.637874
 21
121.492251
 31
0.0
  0
LINE
  5
2CE
330
1F
100
AcDbEntity
  8
001
370
    50
100
AcDbLine
 10
97.983874
 20
121.927967
 30
0.0
 11
98.810874
 21
121.710872
 31
0.0
  0
LINE
  5
2CF
330
1F
100
AcDbEntity
  8
001
370
    50
100
AcDbLine
 10
97.156874
 20
122.143471
 30
0.0
 11
97.983874
 21
121.927967
 31
0.0
  0
LINE
  5
2D0
330
1F
100
AcDbEntity
  8
001
370
    50
100
AcDbLine
 10
96.329874
 20
122.357317
 30
0.0
 11
97.156874
 21
122.143471
 31
0.0
  0
LINE
  5
2D1
330
1F
100
AcDbEntity
  8
001
370
    50
100
AcDbLine
 10
95.502874
 20
122.569441
 30
0.0
 11
96.329874
 21
122.357317
 31
0.0
  0
LINE
  5
2D2
330
1F
100
AcDbEntity
  8
001
370
    50
100
AcDbLine
 10
94.675874
 20
122.779778
 30
0.0
 11
95.502874
 21
122.569441
 31
0.0
  0
LINE
  5
2D3
330
1F
100
AcDbEntity
  8
001
370
    50
100
AcDbLine
 10
93.848874
 20
122.988264
 30
0.0
 11
94.675874
 21
122.779778
 31
0.0
  0
LINE
  5
2D4
330
1F
100
AcDbEntity
  8
001
370
    50
100
AcDbLine
 10
93.021874
 20
123.194836
 30
0.0
 11
93.848874
 21
122.988264
 31
0.0
  0
LINE
  5
2D5
330
1F
100
AcDbEntity
  8
001
370
    50
100
AcDbLine
 10
92.194874
 20
123.39943
 30
0.0
 11
93.021874
 21
123.194836
 31
0.0
  0
LINE
  5
2D6
330
1F
100
AcDbEntity
  8
001
370
    50
100
AcDbLine
 10
91.367874
 20
123.601985
 30
0.0
 11
92.194874
 21
123.39943
 31
0.0
  0
LINE
  5
2D7
330
1F
100
AcDbEntity
  8
001
370
    50
100
AcDbLine
 10
90.540874
 20
123.802437
 30
0.0
 11
91.367874
 21
123.601985
 31
0.0
  0
LINE
  5
2D8
330
1F
100
AcDbEntity
  8
001
370
    50
100
AcDbLine
 10
89.713874
 20
124.000728
 30
0.0
 11
90.540874
 21
123.802437
 31
0.0
  0
LINE
  5
2D9
330
1F
100
AcDbEntity
  8
001
370
    50
100
AcDbLine
 10
88.886874
 20
124.196795
 30
0.0
 11
89.713874
 21
124.000728
 31
0.0
  0
LINE
  5
2DA
330
1F
100
AcDbEntity
  8
001
370
    50
100
AcDbLine
 10
88.059874
 20
124.39058
 30
0.0
 11
88.886874
 21
124.196795
 31
0.0
  0
LINE
  5
2DB
330
1F
100
AcDbEntity
  8
001
370
    50
100
AcDbLine
 10
87.232874
 20
124.582023
 30
0.0
 11
88.059874
 21
124.39058
 31
0.0
  0
LINE
  5
2DC
330
1F
100
AcDbEntity
  8
001
370
    50
100
AcDbLine
 10
86.8759
 20
124.67017
 30
0.0
 11
87.232874
 21
124.582023
 31
0.0
  0
LINE
  5
2DD
330
1F
100
AcDbEntity
  8
001
370
    50
100
AcDbLine
 10
97.744367
 20
103.136319
 30
0.0
 11
97.13396
 21
103.120734
 31
0.0
  0
LINE
  5
2DE
330
1F
100
AcDbEntity
  8
001
370
    50
100
AcDbLine
 10
98.571367
 20
103.161656
 30
0.0
 11
97.744367
 21
103.136319
 31
0.0
  0
LINE
  5
2DF
330
1F
100
AcDbEntity
  8
001
370
    50
100
AcDbLine
 10
99.398367
 20
103.191061
 30
0.0
 11
98.571367
 21
103.161656
 31
0.0
  0
LINE
  5
2E0
330
1F
100
AcDbEntity
  8
001
370
    50
100
AcDbLine
 10
100.225367
 20
103.224527
 30
0.0
 11
99.398367
 21
103.191061
 31
0.0
  0
POLYLINE
  5
2E1
330
1F
100
AcDbEntity
  8
001
370
    50
100
AcDb2dPolyline
 66
     1
 10
0.0
 20
0.0
 30
0.0
  0
VERTEX
  5
2E3
330
2E1
100
AcDbEntity
  8
001
370
    50
100
AcDbVertex
100
AcDb2dVertex
 10
101.052367
 20
103.262043
 30
0.0
  0
VERTEX
  5
2E4
330
2E1
100
AcDbEntity
  8
001
370
    50
100
AcDbVertex
100
AcDb2dVertex
 10
100.771762
 20
103.249836
 30
0.0
  0
VERTEX
  5
2E5
330
2E1
100
AcDbEntity
  8
001
370
    50
100
AcDbVertex
100
AcDb2dVertex
 10
100.491178
 20
103.237168
 30
0.0
  0
VERTEX
  5
2E6
330
2E1
100
AcDbEntity
  8
001
370
    50
100
AcDbVertex
100
AcDb2dVertex
 10
100.35827
 20
103.230899
 30
0.0
  0
VERTEX
  5
2E7
330
2E1
100
AcDbEntity
  8
001
370
    50
100
AcDbVertex
100
AcDb2dVertex
 10
100.225367
 20
103.224527
 30
0.0
  0
SEQEND
  5
2E2
330
2E1
100
AcDbEntity
  8
001
370
    50
  0
LINE
  5
2E8
330
1F
100
AcDbEntity
  8
001
370
    50
100
AcDbLine
 10
101.691733
 20
103.294762
 30
0.0
 11
101.052367
 21
103.262043
 31
0.0
  0
POLYLINE
  5
2E9
330
1F
100
AcDbEntity
  8
001
370
    50
100
AcDb2dPolyline
 66
     1
 10
0.0
 20
0.0
 30
0.0
  0
VERTEX
  5
2EB
330
2E9
100
AcDbEntity
  8
001
370
    50
100
AcDbVertex
100
AcDb2dVertex
 10
97.961948
 20
111.742911
 30
0.0
  0
VERTEX
  5
2EC
330
2E9
100
AcDbEntity
  8
001
370
    50
100
AcDbVertex
100
AcDb2dVertex
 10
98.068493
 20
111.849213
 30
0.0
  0
VERTEX
  5
2ED
330
2E9
100
AcDbEntity
  8
001
370
    50
100
AcDbVertex
100
AcDb2dVertex
 10
98.171222
 20
111.958979
 30
0.0
  0
VERTEX
  5
2EE
330
2E9
100
AcDbEntity
  8
001
370
    50
100
AcDbVertex
100
AcDb2dVertex
 10
98.266376
 20
112.074005
 30
0.0
  0
VERTEX
  5
2EF
330
2E9
100
AcDbEntity
  8
001
370
    50
100
AcDbVertex
100
AcDb2dVertex
 10
98.354599
 20
112.194611
 30
0.0
  0
VERTEX
  5
2F0
330
2E9
100
AcDbEntity
  8
001
370
    50
100
AcDbVertex
100
AcDb2dVertex
 10
98.46764
 20
112.371691
 30
0.0
  0
VERTEX
  5
2F1
330
2E9
100
AcDbEntity
  8
001
370
    50
100
AcDbVertex
100
AcDb2dVertex
 10
98.567265
 20
112.556598
 30
0.0
  0
VERTEX
  5
2F2
330
2E9
100
AcDbEntity
  8
001
370
    50
100
AcDbVertex
100
AcDb2dVertex
 10
98.651346
 20
112.745342
 30
0.0
  0
VERTEX
  5
2F3
330
2E9
100
AcDbEntity
  8
001
370
    50
100
AcDbVertex
100
AcDb2dVertex
 10
98.720934
 20
112.939904
 30
0.0
  0
VERTEX
  5
2F4
330
2E9
100
AcDbEntity
  8
001
370
    50
100
AcDbVertex
100
AcDb2dVertex
 10
98.777271
 20
113.147157
 30
0.0
  0
VERTEX
  5
2F5
330
2E9
100
AcDbEntity
  8
001
370
    50
100
AcDbVertex
100
AcDb2dVertex
 10
98.816961
 20
113.358259
 30
0.0
  0
VERTEX
  5
2F6
330
2E9
100
AcDbEntity
  8
001
370
    50
100
AcDbVertex
100
AcDb2dVertex
 10
98.839368
 20
113.567719
 30
0.0
  0
VERTEX
  5
2F7
330
2E9
100
AcDbEntity
  8
001
370
    50
100
AcDbVertex
100
AcDb2dVertex
 10
98.844764
 20
113.778249
 30
0.0
  0
VERTEX
  5
2F8
330
2E9
100
AcDbEntity
  8
001
370
    50
100
AcDbVertex
100
AcDb2dVertex
 10
98.831545
 20
113.998737
 30
0.0
  0
VERTEX
  5
2F9
330
2E9
100
AcDbEntity
  8
001
370
    50
100
AcDbVertex
100
AcDb2dVertex
 10
98.799179
 20
114.217382
 30
0.0
  0
VERTEX
  5
2FA
330
2E9
100
AcDbEntity
  8
001
370
    50
100
AcDbVertex
100
AcDb2dVertex
 10
98.748666
 20
114.42918
 30
0.0
  0
VERTEX
  5
2FB
330
2E9
100
AcDbEntity
  8
001
370
    50
100
AcDbVertex
100
AcDb2dVertex
 10
98.678495
 20
114.634994
 30
0.0
  0
VERTEX
  5
2FC
330
2E9
100
AcDbEntity
  8
001
370
    50
100
AcDbVertex
100
AcDb2dVertex
 10
98.656524
 20
114.6883
 30
0.0
  0
VERTEX
  5
2FD
330
2E9
100
AcDbEntity
  8
001
370
    50
100
AcDbVertex
100
AcDb2dVertex
 10
98.63381
 20
114.741299
 30
0.0
  0
SEQEND
  5
2EA
330
2E9
100
AcDbEntity
  8
001
370
    50
  0
POLYLINE
  5
2FE
330
1F
100
AcDbEntity
  8
001
370
    50
100
AcDb2dPolyline
 66
     1
 10
0.0
 20
0.0
 30
0.0
  0
VERTEX
  5
300
330
2FE
100
AcDbEntity
  8
001
370
    50
100
AcDbVertex
100
AcDb2dVertex
 10
97.961948
 20
111.742911
 30
0.0
  0
VERTEX
  5
301
330
2FE
100
AcDbEntity
  8
001
370
    50
100
AcDbVertex
100
AcDb2dVertex
 10
97.959698
 20
111.723055
 30
0.0
  0
VERTEX
  5
302
330
2FE
100
AcDbEntity
  8
001
370
    50
100
AcDbVertex
100
AcDb2dVertex
 10
97.956434
 20
111.694034
 30
0.0
  0
VERTEX
  5
303
330
2FE
100
AcDbEntity
  8
001
370
    50
100
AcDbVertex
100
AcDb2dVertex
 10
97.953203
 20
111.664981
 30
0.0
  0
VERTEX
  5
304
330
2FE
100
AcDbEntity
  8
001
370
    50
100
AcDbVertex
100
AcDb2dVertex
 10
97.951009
 20
111.645101
 30
0.0
  0
SEQEND
  5
2FF
330
2FE
100
AcDbEntity
  8
001
370
    50
  0
LINE
  5
305
330
1F
100
AcDbEntity
  8
001
370
    50
100
AcDbLine
 10
101.633867
 20
120.965978
 30
0.0
 11
102.118874
 21
120.827905
 31
0.0
  0
POLYLINE
  5
306
330
1F
100
AcDbEntity
  8
001
370
    50
100
AcDb2dPolyline
 66
     1
 10
0.0
 20
0.0
 30
0.0
  0
VERTEX
  5
308
330
306
100
AcDbEntity
  8
001
370
    50
100
AcDbVertex
100
AcDb2dVertex
 10
98.63381
 20
114.741299
 30
0.0
  0
VERTEX
  5
309
330
306
100
AcDbEntity
  8
001
370
    50
100
AcDbVertex
100
AcDb2dVertex
 10
98.53832
 20
114.919523
 30
0.0
  0
VERTEX
  5
30A
330
306
100
AcDbEntity
  8
001
370
    50
100
AcDbVertex
100
AcDb2dVertex
 10
98.433171
 20
115.091688
 30
0.0
  0
VERTEX
  5
30B
330
306
100
AcDbEntity
  8
001
370
    50
100
AcDbVertex
100
AcDb2dVertex
 10
98.353289
 20
115.200607
 30
0.0
  0
VERTEX
  5
30C
330
306
100
AcDbEntity
  8
001
370
    50
100
AcDbVertex
100
AcDb2dVertex
 10
98.265573
 20
115.303376
 30
0.0
  0
VERTEX
  5
30D
330
306
100
AcDbEntity
  8
001
370
    50
100
AcDbVertex
100
AcDb2dVertex
 10
98.169419
 20
115.401748
 30
0.0
  0
VERTEX
  5
30E
330
306
100
AcDbEntity
  8
001
370
    50
100
AcDbVertex
100
AcDb2dVertex
 10
98.069614
 20
115.496547
 30
0.0
  0
SEQEND
  5
307
330
306
100
AcDbEntity
  8
001
370
    50
  0
POLYLINE
  5
30F
330
1F
100
AcDbEntity
  8
001
370
    50
100
AcDb2dPolyline
 66
     1
 10
0.0
 20
0.0
 30
0.0
  0
VERTEX
  5
311
330
30F
100
AcDbEntity
  8
001
370
    50
100
AcDbVertex
100
AcDb2dVertex
 10
98.069614
 20
115.496547
 30
0.0
  0
VERTEX
  5
312
330
30F
100
AcDbEntity
  8
001
370
    50
100
AcDbVertex
100
AcDb2dVertex
 10
97.924899
 20
115.607871
 30
0.0
  0
VERTEX
  5
313
330
30F
100
AcDbEntity
  8
001
370
    50
100
AcDbVertex
100
AcDb2dVertex
 10
97.774573
 20
115.70977
 30
0.0
  0
VERTEX
  5
314
330
30F
100
AcDbEntity
  8
001
370
    50
100
AcDbVertex
100
AcDb2dVertex
 10
97.580465
 20
115.811935
 30
0.0
  0
VERTEX
  5
315
330
30F
100
AcDbEntity
  8
001
370
    50
100
AcDbVertex
100
AcDb2dVertex
 10
97.378167
 20
115.900341
 30
0.0
  0
SEQEND
  5
310
330
30F
100
AcDbEntity
  8
001
370
    50
  0
POLYLINE
  5
316
330
1F
100
AcDbEntity
  8
001
370
    50
100
AcDb2dPolyline
 66
     1
 10
0.0
 20
0.0
 30
0.0
  0
VERTEX
  5
318
330
316
100
AcDbEntity
  8
001
370
    50
100
AcDbVertex
100
AcDb2dVertex
 10
97.378167
 20
115.900341
 30
0.0
  0
VERTEX
  5
319
330
316
100
AcDbEntity
  8
001
370
    50
100
AcDbVertex
100
AcDb2dVertex
 10
97.33136
 20
115.91646
 30
0.0
  0
VERTEX
  5
31A
330
316
100
AcDbEntity
  8
001
370
    50
100
AcDbVertex
100
AcDb2dVertex
 10
97.284373
 20
115.932087
 30
0.0
  0
VERTEX
  5
31B
330
316
100
AcDbEntity
  8
001
370
    50
100
AcDbVertex
100
AcDb2dVertex
 10
97.116676
 20
115.97923
 30
0.0
  0
VERTEX
  5
31C
330
316
100
AcDbEntity
  8
001
370
    50
100
AcDbVertex
100
AcDb2dVertex
 10
96.94581
 20
116.012709
 30
0.0
  0
VERTEX
  5
31D
330
316
100
AcDbEntity
  8
001
370
    50
100
AcDbVertex
100
AcDb2dVertex
 10
96.768
 20
116.032938
 30
0.0
  0
VERTEX
  5
31E
330
316
100
AcDbEntity
  8
001
370
    50
100
AcDbVertex
100
AcDb2dVertex
 10
96.589201
 20
116.04515
 30
0.0
  0
SEQEND
  5
317
330
316
100
AcDbEntity
  8
001
370
    50
  0
LINE
  5
31F
330
1F
100
AcDbEntity
  8
001
370
    50
100
AcDbLine
 10
96.589201
 20
116.04515
 30
0.0
 11
96.538434
 21
116.045639
 31
0.0
  0
POLYLINE
  5
320
330
1F
100
AcDbEntity
  8
001
370
    50
100
AcDb2dPolyline
 66
     1
 10
0.0
 20
0.0
 30
0.0
  0
VERTEX
  5
322
330
320
100
AcDbEntity
  8
001
370
    50
100
AcDbVertex
100
AcDb2dVertex
 10
95.69626
 20
115.909636
 30
0.0
  0
VERTEX
  5
323
330
320
100
AcDbEntity
  8
001
370
    50
100
AcDbVertex
100
AcDb2dVertex
 10
95.60583
 20
115.877788
 30
0.0
  0
VERTEX
  5
324
330
320
100
AcDbEntity
  8
001
370
    50
100
AcDbVertex
100
AcDb2dVertex
 10
95.516034
 20
115.844202
 30
0.0
  0
VERTEX
  5
325
330
320
100
AcDbEntity
  8
001
370
    50
100
AcDbVertex
100
AcDb2dVertex
 10
95.379013
 20
115.785578
 30
0.0
  0
VERTEX
  5
326
330
320
100
AcDbEntity
  8
001
370
    50
100
AcDbVertex
100
AcDb2dVertex
 10
95.245915
 20
115.718582
 30
0.0
  0
VERTEX
  5
327
330
320
100
AcDbEntity
  8
001
370
    50
100
AcDbVertex
100
AcDb2dVertex
 10
95.116312
 20
115.643465
 30
0.0
  0
VERTEX
  5
328
330
320
100
AcDbEntity
  8
001
370
    50
100
AcDbVertex
100
AcDb2dVertex
 10
94.989131
 20
115.564122
 30
0.0
  0
SEQEND
  5
321
330
320
100
AcDbEntity
  8
001
370
    50
  0
POLYLINE
  5
329
330
1F
100
AcDbEntity
  8
001
370
    50
100
AcDb2dPolyline
 66
     1
 10
0.0
 20
0.0
 30
0.0
  0
VERTEX
  5
32B
330
329
100
AcDbEntity
  8
001
370
    50
100
AcDbVertex
100
AcDb2dVertex
 10
94.725977
 20
115.552022
 30
0.0
  0
VERTEX
  5
32C
330
329
100
AcDbEntity
  8
001
370
    50
100
AcDbVertex
100
AcDb2dVertex
 10
94.779436
 20
115.55433
 30
0.0
  0
VERTEX
  5
32D
330
329
100
AcDbEntity
  8
001
370
    50
100
AcDbVertex
100
AcDb2dVertex
 10
94.857563
 20
115.557833
 30
0.0
  0
VERTEX
  5
32E
330
329
100
AcDbEntity
  8
001
370
    50
100
AcDbVertex
100
AcDb2dVertex
 10
94.935684
 20
115.561515
 30
0.0
  0
VERTEX
  5
32F
330
329
100
AcDbEntity
  8
001
370
    50
100
AcDbVertex
100
AcDb2dVertex
 10
94.989131
 20
115.564122
 30
0.0
  0
SEQEND
  5
32A
330
329
100
AcDbEntity
  8
001
370
    50
  0
POLYLINE
  5
330
330
1F
100
AcDbEntity
  8
001
370
    50
100
AcDb2dPolyline
 66
     1
 10
0.0
 20
0.0
 30
0.0
  0
VERTEX
  5
332
330
330
100
AcDbEntity
  8
001
370
    50
100
AcDbVertex
100
AcDb2dVertex
 10
93.86944
 20
115.506724
 30
0.0
  0
VERTEX
  5
333
330
330
100
AcDbEntity
  8
001
370
    50
100
AcDbVertex
100
AcDb2dVertex
 10
94.043596
 20
115.51438
 30
0.0
  0
VERTEX
  5
334
330
330
100
AcDbEntity
  8
001
370
    50
100
AcDbVertex
100
AcDb2dVertex
 10
94.298066
 20
115.526905
 30
0.0
  0
VERTEX
  5
335
330
330
100
AcDbEntity
  8
001
370
    50
100
AcDbVertex
100
AcDb2dVertex
 10
94.552169
 20
115.541276
 30
0.0
  0
VERTEX
  5
336
330
330
100
AcDbEntity
  8
001
370
    50
100
AcDbVertex
100
AcDb2dVertex
 10
94.725977
 20
115.552022
 30
0.0
  0
SEQEND
  5
331
330
330
100
AcDbEntity
  8
001
370
    50
  0
POLYLINE
  5
337
330
1F
100
AcDbEntity
  8
001
370
    50
100
AcDb2dPolyline
 66
     1
 10
0.0
 20
0.0
 30
0.0
  0
VERTEX
  5
339
330
337
100
AcDbEntity
  8
001
370
    50
100
AcDbVertex
100
AcDb2dVertex
 10
93.013763
 20
115.462539
 30
0.0
  0
VERTEX
  5
33A
330
337
100
AcDbEntity
  8
001
370
    50
100
AcDbVertex
100
AcDb2dVertex
 10
93.187721
 20
115.470003
 30
0.0
  0
VERTEX
  5
33B
330
337
100
AcDbEntity
  8
001
370
    50
100
AcDbVertex
100
AcDb2dVertex
 10
93.441905
 20
115.482218
 30
0.0
  0
VERTEX
  5
33C
330
337
100
AcDbEntity
  8
001
370
    50
100
AcDbVertex
100
AcDb2dVertex
 10
93.695783
 20
115.496238
 30
0.0
  0
VERTEX
  5
33D
330
337
100
AcDbEntity
  8
001
370
    50
100
AcDbVertex
100
AcDb2dVertex
 10
93.86944
 20
115.506724
 30
0.0
  0
SEQEND
  5
338
330
337
100
AcDbEntity
  8
001
370
    50
  0
POLYLINE
  5
33E
330
1F
100
AcDbEntity
  8
001
370
    50
100
AcDb2dPolyline
 66
     1
 10
0.0
 20
0.0
 30
0.0
  0
VERTEX
  5
340
330
33E
100
AcDbEntity
  8
001
370
    50
100
AcDbVertex
100
AcDb2dVertex
 10
92.158858
 20
115.419397
 30
0.0
  0
VERTEX
  5
341
330
33E
100
AcDbEntity
  8
001
370
    50
100
AcDbVertex
100
AcDb2dVertex
 10
92.332638
 20
115.426681
 30
0.0
  0
VERTEX
  5
342
330
33E
100
AcDbEntity
  8
001
370
    50
100
AcDbVertex
100
AcDb2dVertex
 10
92.586564
 20
115.438604
 30
0.0
  0
VERTEX
  5
343
330
33E
100
AcDbEntity
  8
001
370
    50
100
AcDbVertex
100
AcDb2dVertex
 10
92.840242
 20
115.452297
 30
0.0
  0
VERTEX
  5
344
330
33E
100
AcDbEntity
  8
001
370
    50
100
AcDbVertex
100
AcDb2dVertex
 10
93.013763
 20
115.462539
 30
0.0
  0
SEQEND
  5
33F
330
33E
100
AcDbEntity
  8
001
370
    50
  0
POLYLINE
  5
345
330
1F
100
AcDbEntity
  8
001
370
    50
100
AcDb2dPolyline
 66
     1
 10
0.0
 20
0.0
 30
0.0
  0
VERTEX
  5
347
330
345
100
AcDbEntity
  8
001
370
    50
100
AcDbVertex
100
AcDb2dVertex
 10
91.304646
 20
115.377237
 30
0.0
  0
VERTEX
  5
348
330
345
100
AcDbEntity
  8
001
370
    50
100
AcDbVertex
100
AcDb2dVertex
 10
91.478266
 20
115.384351
 30
0.0
  0
VERTEX
  5
349
330
345
100
AcDbEntity
  8
001
370
    50
100
AcDbVertex
100
AcDb2dVertex
 10
91.731961
 20
115.395999
 30
0.0
  0
VERTEX
  5
34A
330
345
100
AcDbEntity
  8
001
370
    50
100
AcDbVertex
100
AcDb2dVertex
 10
91.985458
 20
115.409383
 30
0.0
  0
VERTEX
  5
34B
330
345
100
AcDbEntity
  8
001
370
    50
100
AcDbVertex
100
AcDb2dVertex
 10
92.158858
 20
115.419397
 30
0.0
  0
SEQEND
  5
346
330
345
100
AcDbEntity
  8
001
370
    50
  0
POLYLINE
  5
34C
330
1F
100
AcDbEntity
  8
001
370
    50
100
AcDb2dPolyline
 66
     1
 10
0.0
 20
0.0
 30
0.0
  0
VERTEX
  5
34E
330
34C
100
AcDbEntity
  8
001
370
    50
100
AcDbVertex
100
AcDb2dVertex
 10
90.451059
 20
115.336007
 30
0.0
  0
VERTEX
  5
34F
330
34C
100
AcDbEntity
  8
001
370
    50
100
AcDbVertex
100
AcDb2dVertex
 10
90.624534
 20
115.342958
 30
0.0
  0
VERTEX
  5
350
330
34C
100
AcDbEntity
  8
001
370
    50
100
AcDbVertex
100
AcDb2dVertex
 10
90.878021
 20
115.354346
 30
0.0
  0
VERTEX
  5
351
330
34C
100
AcDbEntity
  8
001
370
    50
100
AcDbVertex
100
AcDb2dVertex
 10
91.131355
 20
115.367439
 30
0.0
  0
VERTEX
  5
352
330
34C
100
AcDbEntity
  8
001
370
    50
100
AcDbVertex
100
AcDb2dVertex
 10
91.304646
 20
115.377237
 30
0.0
  0
SEQEND
  5
34D
330
34C
100
AcDbEntity
  8
001
370
    50
  0
LINE
  5
353
330
1F
100
AcDbEntity
  8
001
370
    50
100
AcDbLine
 10
90.097746
 20
115.317117
 30
0.0
 11
89.582636
 21
115.249346
 31
0.0
  0
POLYLINE
  5
354
330
1F
100
AcDbEntity
  8
001
370
    50
100
AcDb2dPolyline
 66
     1
 10
0.0
 20
0.0
 30
0.0
  0
VERTEX
  5
356
330
354
100
AcDbEntity
  8
001
370
    50
100
AcDbVertex
100
AcDb2dVertex
 10
90.097746
 20
115.317117
 30
0.0
  0
VERTEX
  5
357
330
354
100
AcDbEntity
  8
001
370
    50
100
AcDbVertex
100
AcDb2dVertex
 10
90.169541
 20
115.320714
 30
0.0
  0
VERTEX
  5
358
330
354
100
AcDbEntity
  8
001
370
    50
100
AcDbVertex
100
AcDb2dVertex
 10
90.274461
 20
115.326179
 30
0.0
  0
VERTEX
  5
359
330
354
100
AcDbEntity
  8
001
370
    50
100
AcDbVertex
100
AcDb2dVertex
 10
90.37932
 20
115.33193
 30
0.0
  0
VERTEX
  5
35A
330
354
100
AcDbEntity
  8
001
370
    50
100
AcDbVertex
100
AcDb2dVertex
 10
90.451059
 20
115.336007
 30
0.0
  0
SEQEND
  5
355
330
354
100
AcDbEntity
  8
001
370
    50
  0
POLYLINE
  5
35B
330
1F
100
AcDbEntity
  8
001
370
    50
100
AcDb2dPolyline
 66
     1
 10
0.0
 20
0.0
 30
0.0
  0
VERTEX
  5
35D
330
35B
100
AcDbEntity
  8
001
370
    50
100
AcDbVertex
100
AcDb2dVertex
 10
89.582636
 20
115.249346
 30
0.0
  0
VERTEX
  5
35E
330
35B
100
AcDbEntity
  8
001
370
    50
100
AcDbVertex
100
AcDb2dVertex
 10
89.302903
 20
115.167866
 30
0.0
  0
VERTEX
  5
35F
330
35B
100
AcDbEntity
  8
001
370
    50
100
AcDbVertex
100
AcDb2dVertex
 10
89.030593
 20
115.068645
 30
0.0
  0
VERTEX
  5
360
330
35B
100
AcDbEntity
  8
001
370
    50
100
AcDbVertex
100
AcDb2dVertex
 10
88.819636
 20
114.966896
 30
0.0
  0
VERTEX
  5
361
330
35B
100
AcDbEntity
  8
001
370
    50
100
AcDbVertex
100
AcDb2dVertex
 10
88.613524
 20
114.853568
 30
0.0
  0
SEQEND
  5
35C
330
35B
100
AcDbEntity
  8
001
370
    50
  0
POLYLINE
  5
362
330
1F
100
AcDbEntity
  8
001
370
    50
100
AcDb2dPolyline
 66
     1
 10
0.0
 20
0.0
 30
0.0
  0
VERTEX
  5
364
330
362
100
AcDbEntity
  8
001
370
    50
100
AcDbVertex
100
AcDb2dVertex
 10
88.613524
 20
114.853568
 30
0.0
  0
VERTEX
  5
365
330
362
100
AcDbEntity
  8
001
370
    50
100
AcDbVertex
100
AcDb2dVertex
 10
88.467836
 20
114.755397
 30
0.0
  0
VERTEX
  5
366
330
362
100
AcDbEntity
  8
001
370
    50
100
AcDbVertex
100
AcDb2dVertex
 10
88.325558
 20
114.652571
 30
0.0
  0
VERTEX
  5
367
330
362
100
AcDbEntity
  8
001
370
    50
100
AcDbVertex
100
AcDb2dVertex
 10
88.187914
 20
114.539971
 30
0.0
  0
VERTEX
  5
368
330
362
100
AcDbEntity
  8
001
370
    50
100
AcDbVertex
100
AcDb2dVertex
 10
88.057446
 20
114.419061
 30
0.0
  0
VERTEX
  5
369
330
362
100
AcDbEntity
  8
001
370
    50
100
AcDbVertex
100
AcDb2dVertex
 10
88.013328
 20
114.374962
 30
0.0
  0
VERTEX
  5
36A
330
362
100
AcDbEntity
  8
001
370
    50
100
AcDbVertex
100
AcDb2dVertex
 10
87.969664
 20
114.330426
 30
0.0
  0
SEQEND
  5
363
330
362
100
AcDbEntity
  8
001
370
    50
  0
POLYLINE
  5
36B
330
1F
100
AcDbEntity
  8
001
370
    50
100
AcDb2dPolyline
 66
     1
 10
0.0
 20
0.0
 30
0.0
  0
VERTEX
  5
36D
330
36B
100
AcDbEntity
  8
001
370
    50
100
AcDbVertex
100
AcDb2dVertex
 10
87.458584
 20
113.798766
 30
0.0
  0
VERTEX
  5
36E
330
36B
100
AcDbEntity
  8
001
370
    50
100
AcDbVertex
100
AcDb2dVertex
 10
87.562908
 20
113.906566
 30
0.0
  0
VERTEX
  5
36F
330
36B
100
AcDbEntity
  8
001
370
    50
100
AcDbVertex
100
AcDb2dVertex
 10
87.715069
 20
114.06442
 30
0.0
  0
VERTEX
  5
370
330
36B
100
AcDbEntity
  8
001
370
    50
100
AcDbVertex
100
AcDb2dVertex
 10
87.866362
 20
114.22224
 30
0.0
  0
VERTEX
  5
371
330
36B
100
AcDbEntity
  8
001
370
    50
100
AcDbVertex
100
AcDb2dVertex
 10
87.969664
 20
114.330426
 30
0.0
  0
SEQEND
  5
36C
330
36B
100
AcDbEntity
  8
001
370
    50
  0
POLYLINE
  5
372
330
1F
100
AcDbEntity
  8
001
370
    50
100
AcDb2dPolyline
 66
     1
 10
0.0
 20
0.0
 30
0.0
  0
VERTEX
  5
374
330
372
100
AcDbEntity
  8
001
370
    50
100
AcDbVertex
100
AcDb2dVertex
 10
87.438445
 20
113.798275
 30
0.0
  0
VERTEX
  5
375
330
372
100
AcDbEntity
  8
001
370
    50
100
AcDbVertex
100
AcDb2dVertex
 10
87.442536
 20
113.798374
 30
0.0
  0
VERTEX
  5
376
330
372
100
AcDbEntity
  8
001
370
    50
100
AcDbVertex
100
AcDb2dVertex
 10
87.448514
 20
113.798519
 30
0.0
  0
VERTEX
  5
377
330
372
100
AcDbEntity
  8
001
370
    50
100
AcDbVertex
100
AcDb2dVertex
 10
87.454493
 20
113.798665
 30
0.0
  0
VERTEX
  5
378
330
372
100
AcDbEntity
  8
001
370
    50
100
AcDbVertex
100
AcDb2dVertex
 10
87.458584
 20
113.798766
 30
0.0
  0
SEQEND
  5
373
330
372
100
AcDbEntity
  8
001
370
    50
  0
POLYLINE
  5
379
330
1F
100
AcDbEntity
  8
001
370
    50
100
AcDb2dPolyline
 66
     1
 10
0.0
 20
0.0
 30
0.0
  0
VERTEX
  5
37B
330
379
100
AcDbEntity
  8
001
370
    50
100
AcDbVertex
100
AcDb2dVertex
 10
86.59239
 20
113.770251
 30
0.0
  0
VERTEX
  5
37C
330
379
100
AcDbEntity
  8
001
370
    50
100
AcDbVertex
100
AcDb2dVertex
 10
86.764129
 20
113.774691
 30
0.0
  0
VERTEX
  5
37D
330
379
100
AcDbEntity
  8
001
370
    50
100
AcDbVertex
100
AcDb2dVertex
 10
87.0151
 20
113.782254
 30
0.0
  0
VERTEX
  5
37E
330
379
100
AcDbEntity
  8
001
370
    50
100
AcDbVertex
100
AcDb2dVertex
 10
87.266477
 20
113.79133
 30
0.0
  0
VERTEX
  5
37F
330
379
100
AcDbEntity
  8
001
370
    50
100
AcDbVertex
100
AcDb2dVertex
 10
87.438445
 20
113.798275
 30
0.0
  0
SEQEND
  5
37A
330
379
100
AcDbEntity
  8
001
370
    50
  0
POLYLINE
  5
380
330
1F
100
AcDbEntity
  8
001
370
    50
100
AcDb2dPolyline
 66
     1
 10
0.0
 20
0.0
 30
0.0
  0
VERTEX
  5
382
330
380
100
AcDbEntity
  8
001
370
    50
100
AcDbVertex
100
AcDb2dVertex
 10
85.746321
 20
113.742719
 30
0.0
  0
VERTEX
  5
383
330
380
100
AcDbEntity
  8
001
370
    50
100
AcDbVertex
100
AcDb2dVertex
 10
85.918056
 20
113.747069
 30
0.0
  0
VERTEX
  5
384
330
380
100
AcDbEntity
  8
001
370
    50
100
AcDbVertex
100
AcDb2dVertex
 10
86.169023
 20
113.754494
 30
0.0
  0
VERTEX
  5
385
330
380
100
AcDbEntity
  8
001
370
    50
100
AcDbVertex
100
AcDb2dVertex
 10
86.420413
 20
113.763417
 30
0.0
  0
VERTEX
  5
386
330
380
100
AcDbEntity
  8
001
370
    50
100
AcDbVertex
100
AcDb2dVertex
 10
86.59239
 20
113.770251
 30
0.0
  0
SEQEND
  5
381
330
380
100
AcDbEntity
  8
001
370
    50
  0
POLYLINE
  5
387
330
1F
100
AcDbEntity
  8
001
370
    50
100
AcDb2dPolyline
 66
     1
 10
0.0
 20
0.0
 30
0.0
  0
VERTEX
  5
389
330
387
100
AcDbEntity
  8
001
370
    50
100
AcDbVertex
100
AcDb2dVertex
 10
85.5759
 20
113.736009
 30
0.0
  0
VERTEX
  5
38A
330
387
100
AcDbEntity
  8
001
370
    50
100
AcDbVertex
100
AcDb2dVertex
 10
85.610516
 20
113.737322
 30
0.0
  0
VERTEX
  5
38B
330
387
100
AcDbEntity
  8
001
370
    50
100
AcDbVertex
100
AcDb2dVertex
 10
85.661105
 20
113.739284
 30
0.0
  0
VERTEX
  5
38C
330
387
100
AcDbEntity
  8
001
370
    50
100
AcDbVertex
100
AcDb2dVertex
 10
85.711703
 20
113.741306
 30
0.0
  0
VERTEX
  5
38D
330
387
100
AcDbEntity
  8
001
370
    50
100
AcDbVertex
100
AcDb2dVertex
 10
85.746321
 20
113.742719
 30
0.0
  0
SEQEND
  5
388
330
387
100
AcDbEntity
  8
001
370
    50
  0
LINE
  5
38E
330
1F
100
AcDbEntity
  8
001
370
    50
100
AcDbLine
 10
86.452393
 20
122.940529
 30
0.0
 11
86.8759
 21
123.140393
 31
0.0
  0
LINE
  5
38F
330
1F
100
AcDbEntity
  8
001
370
    50
100
AcDbLine
 10
86.8759
 20
126.742292
 30
0.0
 11
85.5759
 21
125.353082
 31
0.0
  0
POLYLINE
  5
390
330
1F
100
AcDbEntity
  8
001
370
    50
100
AcDb2dPolyline
 66
     1
 10
0.0
 20
0.0
 30
0.0
  0
VERTEX
  5
392
330
390
100
AcDbEntity
  8
001
370
    50
100
AcDbVertex
100
AcDb2dVertex
 10
85.5759
 20
122.481186
 30
0.0
  0
VERTEX
  5
393
330
390
100
AcDbEntity
  8
001
370
    50
100
AcDbVertex
100
AcDb2dVertex
 10
85.794456
 20
122.604978
 30
0.0
  0
VERTEX
  5
394
330
390
100
AcDbEntity
  8
001
370
    50
100
AcDbVertex
100
AcDb2dVertex
 10
86.015131
 20
122.724724
 30
0.0
  0
VERTEX
  5
395
330
390
100
AcDbEntity
  8
001
370
    50
100
AcDbVertex
100
AcDb2dVertex
 10
86.232763
 20
122.834534
 30
0.0
  0
VERTEX
  5
396
330
390
100
AcDbEntity
  8
001
370
    50
100
AcDbVertex
100
AcDb2dVertex
 10
86.452393
 20
122.940529
 30
0.0
  0
SEQEND
  5
391
330
390
100
AcDbEntity
  8
001
370
    50
  0
POLYLINE
  5
397
330
1F
100
AcDbEntity
  8
001
370
    50
100
AcDb2dPolyline
 66
     1
 10
0.0
 20
0.0
 30
0.0
  0
VERTEX
  5
399
330
397
100
AcDbEntity
  8
001
370
    50
100
AcDbVertex
100
AcDb2dVertex
 10
96.538434
 20
116.045639
 30
0.0
  0
VERTEX
  5
39A
330
397
100
AcDbEntity
  8
001
370
    50
100
AcDbVertex
100
AcDb2dVertex
 10
96.370834
 20
116.03822
 30
0.0
  0
VERTEX
  5
39B
330
397
100
AcDbEntity
  8
001
370
    50
100
AcDbVertex
100
AcDb2dVertex
 10
96.203809
 20
116.024396
 30
0.0
  0
VERTEX
  5
39C
330
397
100
AcDbEntity
  8
001
370
    50
100
AcDbVertex
100
AcDb2dVertex
 10
96.009481
 20
115.993409
 30
0.0
  0
VERTEX
  5
39D
330
397
100
AcDbEntity
  8
001
370
    50
100
AcDbVertex
100
AcDb2dVertex
 10
95.818241
 20
115.94663
 30
0.0
  0
VERTEX
  5
39E
330
397
100
AcDbEntity
  8
001
370
    50
100
AcDbVertex
100
AcDb2dVertex
 10
95.75713
 20
115.9285
 30
0.0
  0
VERTEX
  5
39F
330
397
100
AcDbEntity
  8
001
370
    50
100
AcDbVertex
100
AcDb2dVertex
 10
95.69626
 20
115.909636
 30
0.0
  0
SEQEND
  5
398
330
397
100
AcDbEntity
  8
001
370
    50
  0
LINE
  5
3A0
330
1F
100
AcDbEntity
  8
001
370
    50
100
AcDbLine
 10
86.8759
 20
123.140393
 30
0.0
 11
86.8759
 21
130.153082
 31
0.0
  0
LINE
  5
3A1
330
1F
100
AcDbEntity
  8
001
370
    50
100
AcDbLine
 10
85.5759
 20
113.672497
 30
0.0
 11
85.5759
 21
125.353082
 31
0.0
  0
POLYLINE
  5
3A2
330
1F
100
AcDbEntity
  8
001
370
    50
100
AcDb2dPolyline
 66
     1
 10
0.0
 20
0.0
 30
0.0
  0
VERTEX
  5
3A4
330
3A2
100
AcDbEntity
  8
001
370
    50
100
AcDbVertex
100
AcDb2dVertex
 10
89.370479
 20
114.194901
 30
0.0
  0
VERTEX
  5
3A5
330
3A2
100
AcDbEntity
  8
001
370
    50
100
AcDbVertex
100
AcDb2dVertex
 10
89.21221
 20
114.186002
 30
0.0
  0
VERTEX
  5
3A6
330
3A2
100
AcDbEntity
  8
001
370
    50
100
AcDbVertex
100
AcDb2dVertex
 10
88.995164
 20
114.158255
 30
0.0
  0
VERTEX
  5
3A7
330
3A2
100
AcDbEntity
  8
001
370
    50
100
AcDbVertex
100
AcDb2dVertex
 10
88.802205
 20
114.111259
 30
0.0
  0
VERTEX
  5
3A8
330
3A2
100
AcDbEntity
  8
001
370
    50
100
AcDbVertex
100
AcDb2dVertex
 10
88.633604
 20
114.049661
 30
0.0
  0
VERTEX
  5
3A9
330
3A2
100
AcDbEntity
  8
001
370
    50
100
AcDbVertex
100
AcDb2dVertex
 10
88.469921
 20
113.975085
 30
0.0
  0
VERTEX
  5
3AA
330
3A2
100
AcDbEntity
  8
001
370
    50
100
AcDbVertex
100
AcDb2dVertex
 10
88.299047
 20
113.873097
 30
0.0
  0
VERTEX
  5
3AB
330
3A2
100
AcDbEntity
  8
001
370
    50
100
AcDbVertex
100
AcDb2dVertex
 10
88.199102
 20
113.800116
 30
0.0
  0
VERTEX
  5
3AC
330
3A2
100
AcDbEntity
  8
001
370
    50
100
AcDbVertex
100
AcDb2dVertex
 10
88.106192
 20
113.725584
 30
0.0
  0
SEQEND
  5
3A3
330
3A2
100
AcDbEntity
  8
001
370
    50
  0
LINE
  5
3AD
330
1F
100
AcDbEntity
  8
001
370
    50
100
AcDbLine
 10
89.502267
 20
114.194901
 30
0.0
 11
89.370479
 21
114.194901
 31
0.0
  0
LINE
  5
3AE
330
1F
100
AcDbEntity
  8
001
370
    50
100
AcDbLine
 10
87.458584
 20
113.798766
 30
0.0
 11
87.440232
 21
113.725584
 31
0.0
  0
POLYLINE
  5
3AF
330
1F
100
AcDbEntity
  8
001
370
    50
100
AcDb2dPolyline
 66
     1
 10
0.0
 20
0.0
 30
0.0
  0
VERTEX
  5
3B1
330
3AF
100
AcDbEntity
  8
001
370
    50
100
AcDbVertex
100
AcDb2dVertex
 10
94.989131
 20
115.564122
 30
0.0
  0
VERTEX
  5
3B2
330
3AF
100
AcDbEntity
  8
001
370
    50
100
AcDbVertex
100
AcDb2dVertex
 10
94.707421
 20
115.408203
 30
0.0
  0
VERTEX
  5
3B3
330
3AF
100
AcDbEntity
  8
001
370
    50
100
AcDbVertex
100
AcDb2dVertex
 10
94.334113
 20
115.182893
 30
0.0
  0
VERTEX
  5
3B4
330
3AF
100
AcDbEntity
  8
001
370
    50
100
AcDbVertex
100
AcDb2dVertex
 10
94.226818
 20
115.113313
 30
0.0
  0
VERTEX
  5
3B5
330
3AF
100
AcDbEntity
  8
001
370
    50
100
AcDbVertex
100
AcDb2dVertex
 10
94.127684
 20
115.045639
 30
0.0
  0
SEQEND
  5
3B0
330
3AF
100
AcDbEntity
  8
001
370
    50
  0
POLYLINE
  5
3B6
330
1F
100
AcDbEntity
  8
001
370
    50
100
AcDb2dPolyline
 66
     1
 10
0.0
 20
0.0
 30
0.0
  0
VERTEX
  5
3B8
330
3B6
100
AcDbEntity
  8
001
370
    50
100
AcDbVertex
100
AcDb2dVertex
 10
96.282958
 20
111.159336
 30
0.0
  0
VERTEX
  5
3B9
330
3B6
100
AcDbEntity
  8
001
370
    50
100
AcDbVertex
100
AcDb2dVertex
 10
96.438757
 20
111.215687
 30
0.0
  0
VERTEX
  5
3BA
330
3B6
100
AcDbEntity
  8
001
370
    50
100
AcDbVertex
100
AcDb2dVertex
 10
96.607519
 20
111.285885
 30
0.0
  0
VERTEX
  5
3BB
330
3B6
100
AcDbEntity
  8
001
370
    50
100
AcDbVertex
100
AcDb2dVertex
 10
96.811718
 20
111.393243
 30
0.0
  0
VERTEX
  5
3BC
330
3B6
100
AcDbEntity
  8
001
370
    50
100
AcDbVertex
100
AcDb2dVertex
 10
96.98747
 20
111.512784
 30
0.0
  0
VERTEX
  5
3BD
330
3B6
100
AcDbEntity
  8
001
370
    50
100
AcDbVertex
100
AcDb2dVertex
 10
97.158588
 20
111.650644
 30
0.0
  0
VERTEX
  5
3BE
330
3B6
100
AcDbEntity
  8
001
370
    50
100
AcDbVertex
100
AcDb2dVertex
 10
97.321487
 20
111.804843
 30
0.0
  0
VERTEX
  5
3BF
330
3B6
100
AcDbEntity
  8
001
370
    50
100
AcDbVertex
100
AcDb2dVertex
 10
97.468603
 20
111.972756
 30
0.0
  0
VERTEX
  5
3C0
330
3B6
100
AcDbEntity
  8
001
370
    50
100
AcDbVertex
100
AcDb2dVertex
 10
97.598862
 20
112.152701
 30
0.0
  0
VERTEX
  5
3C1
330
3B6
100
AcDbEntity
  8
001
370
    50
100
AcDbVertex
100
AcDb2dVertex
 10
97.71333
 20
112.344197
 30
0.0
  0
VERTEX
  5
3C2
330
3B6
100
AcDbEntity
  8
001
370
    50
100
AcDbVertex
100
AcDb2dVertex
 10
97.810706
 20
112.545208
 30
0.0
  0
VERTEX
  5
3C3
330
3B6
100
AcDbEntity
  8
001
370
    50
100
AcDbVertex
100
AcDb2dVertex
 10
97.889914
 20
112.754419
 30
0.0
  0
VERTEX
  5
3C4
330
3B6
100
AcDbEntity
  8
001
370
    50
100
AcDbVertex
100
AcDb2dVertex
 10
97.950228
 20
112.969781
 30
0.0
  0
VERTEX
  5
3C5
330
3B6
100
AcDbEntity
  8
001
370
    50
100
AcDbVertex
100
AcDb2dVertex
 10
97.991363
 20
113.189909
 30
0.0
  0
VERTEX
  5
3C6
330
3B6
100
AcDbEntity
  8
001
370
    50
100
AcDbVertex
100
AcDb2dVertex
 10
98.012956
 20
113.412813
 30
0.0
  0
VERTEX
  5
3C7
330
3B6
100
AcDbEntity
  8
001
370
    50
100
AcDbVertex
100
AcDb2dVertex
 10
98.014797
 20
113.636813
 30
0.0
  0
VERTEX
  5
3C8
330
3B6
100
AcDbEntity
  8
001
370
    50
100
AcDbVertex
100
AcDb2dVertex
 10
97.996879
 20
113.860103
 30
0.0
  0
VERTEX
  5
3C9
330
3B6
100
AcDbEntity
  8
001
370
    50
100
AcDbVertex
100
AcDb2dVertex
 10
97.959344
 20
114.080796
 30
0.0
  0
VERTEX
  5
3CA
330
3B6
100
AcDbEntity
  8
001
370
    50
100
AcDbVertex
100
AcDb2dVertex
 10
97.902512
 20
114.297313
 30
0.0
  0
VERTEX
  5
3CB
330
3B6
100
AcDbEntity
  8
001
370
    50
100
AcDbVertex
100
AcDb2dVertex
 10
97.826903
 20
114.507623
 30
0.0
  0
VERTEX
  5
3CC
330
3B6
100
AcDbEntity
  8
001
370
    50
100
AcDbVertex
100
AcDb2dVertex
 10
97.73288
 20
114.710429
 30
0.0
  0
VERTEX
  5
3CD
330
3B6
100
AcDbEntity
  8
001
370
    50
100
AcDbVertex
100
AcDb2dVertex
 10
97.621338
 20
114.903687
 30
0.0
  0
VERTEX
  5
3CE
330
3B6
100
AcDbEntity
  8
001
370
    50
100
AcDbVertex
100
AcDb2dVertex
 10
97.493421
 20
115.08621
 30
0.0
  0
VERTEX
  5
3CF
330
3B6
100
AcDbEntity
  8
001
370
    50
100
AcDbVertex
100
AcDb2dVertex
 10
97.350591
 20
115.256031
 30
0.0
  0
VERTEX
  5
3D0
330
3B6
100
AcDbEntity
  8
001
370
    50
100
AcDbVertex
100
AcDb2dVertex
 10
97.19181
 20
115.41261
 30
0.0
  0
VERTEX
  5
3D1
330
3B6
100
AcDbEntity
  8
001
370
    50
100
AcDbVertex
100
AcDb2dVertex
 10
97.018273
 20
115.554343
 30
0.0
  0
VERTEX
  5
3D2
330
3B6
100
AcDbEntity
  8
001
370
    50
100
AcDbVertex
100
AcDb2dVertex
 10
96.837715
 20
115.679166
 30
0.0
  0
VERTEX
  5
3D3
330
3B6
100
AcDbEntity
  8
001
370
    50
100
AcDbVertex
100
AcDb2dVertex
 10
96.653832
 20
115.785386
 30
0.0
  0
VERTEX
  5
3D4
330
3B6
100
AcDbEntity
  8
001
370
    50
100
AcDbVertex
100
AcDb2dVertex
 10
96.442485
 20
115.877336
 30
0.0
  0
VERTEX
  5
3D5
330
3B6
100
AcDbEntity
  8
001
370
    50
100
AcDbVertex
100
AcDb2dVertex
 10
96.199012
 20
115.955383
 30
0.0
  0
VERTEX
  5
3D6
330
3B6
100
AcDbEntity
  8
001
370
    50
100
AcDbVertex
100
AcDb2dVertex
 10
96.018789
 20
116.000767
 30
0.0
  0
SEQEND
  5
3B7
330
3B6
100
AcDbEntity
  8
001
370
    50
  0
POLYLINE
  5
3D7
330
1F
100
AcDbEntity
  8
001
370
    50
100
AcDb2dPolyline
 66
     1
 10
0.0
 20
0.0
 30
0.0
  0
VERTEX
  5
3D9
330
3D7
100
AcDbEntity
  8
001
370
    50
100
AcDbVertex
100
AcDb2dVertex
 10
96.282958
 20
111.146979
 30
0.0
  0
VERTEX
  5
3DA
330
3D7
100
AcDbEntity
  8
001
370
    50
100
AcDbVertex
100
AcDb2dVertex
 10
96.662659
 20
111.228431
 30
0.0
  0
VERTEX
  5
3DB
330
3D7
100
AcDbEntity
  8
001
370
    50
100
AcDbVertex
100
AcDb2dVertex
 10
97.140955
 20
111.368761
 30
0.0
  0
VERTEX
  5
3DC
330
3D7
100
AcDbEntity
  8
001
370
    50
100
AcDbVertex
100
AcDb2dVertex
 10
97.635676
 20
111.573816
 30
0.0
  0
VERTEX
  5
3DD
330
3D7
100
AcDbEntity
  8
001
370
    50
100
AcDbVertex
100
AcDb2dVertex
 10
97.961948
 20
111.742911
 30
0.0
  0
SEQEND
  5
3D8
330
3D7
100
AcDbEntity
  8
001
370
    50
  0
POLYLINE
  5
3DE
330
1F
100
AcDbEntity
  8
001
370
    50
100
AcDb2dPolyline
 66
     1
 10
0.0
 20
0.0
 30
0.0
  0
VERTEX
  5
3E0
330
3DE
100
AcDbEntity
  8
001
370
    50
100
AcDbVertex
100
AcDb2dVertex
 10
97.951009
 20
111.645101
 30
0.0
  0
VERTEX
  5
3E1
330
3DE
100
AcDbEntity
  8
001
370
    50
100
AcDbVertex
100
AcDb2dVertex
 10
97.798393
 20
110.223218
 30
0.0
  0
VERTEX
  5
3E2
330
3DE
100
AcDbEntity
  8
001
370
    50
100
AcDbVertex
100
AcDb2dVertex
 10
97.582959
 20
108.128233
 30
0.0
  0
SEQEND
  5
3DF
330
3DE
100
AcDbEntity
  8
001
370
    50
  0
POLYLINE
  5
3E3
330
1F
100
AcDbEntity
  8
001
370
    50
100
AcDb2dPolyline
 66
     1
 10
0.0
 20
0.0
 30
0.0
  0
VERTEX
  5
3E5
330
3E3
100
AcDbEntity
  8
001
370
    50
100
AcDbVertex
100
AcDb2dVertex
 10
97.174032
 20
103.761993
 30
0.0
  0
VERTEX
  5
3E6
330
3E3
100
AcDbEntity
  8
001
370
    50
100
AcDbVertex
100
AcDb2dVertex
 10
97.151993
 20
103.511062
 30
0.0
  0
VERTEX
  5
3E7
330
3E3
100
AcDbEntity
  8
001
370
    50
100
AcDbVertex
100
AcDb2dVertex
 10
97.13396
 20
103.303911
 30
0.0
  0
SEQEND
  5
3E4
330
3E3
100
AcDbEntity
  8
001
370
    50
  0
POLYLINE
  5
3E8
330
1F
100
AcDbEntity
  8
001
370
    50
100
AcDb2dPolyline
 66
     1
 10
0.0
 20
0.0
 30
0.0
  0
VERTEX
  5
3EA
330
3E8
100
AcDbEntity
  8
001
370
    50
100
AcDbVertex
100
AcDb2dVertex
 10
93.496763
 20
103.529247
 30
0.0
  0
VERTEX
  5
3EB
330
3E8
100
AcDbEntity
  8
001
370
    50
100
AcDbVertex
100
AcDb2dVertex
 10
95.097555
 20
103.590335
 30
0.0
  0
VERTEX
  5
3EC
330
3E8
100
AcDbEntity
  8
001
370
    50
100
AcDbVertex
100
AcDb2dVertex
 10
96.193812
 20
103.635477
 30
0.0
  0
SEQEND
  5
3E9
330
3E8
100
AcDbEntity
  8
001
370
    50
  0
LINE
  5
3ED
330
1F
100
AcDbEntity
  8
001
370
    50
100
AcDbLine
 10
96.193812
 20
103.635477
 30
0.0
 11
96.193812
 21
103.665694
 31
0.0
  0
LINE
  5
3EE
330
1F
100
AcDbEntity
  8
001
370
    50
100
AcDbLine
 10
109.314637
 20
116.927845
 30
0.0
 11
109.314637
 21
134.853082
 31
0.0
  0
LINE
  5
3EF
330
1F
100
AcDbEntity
  8
001
370
    50
100
AcDbLine
 10
104.7759
 20
120.109031
 30
0.0
 11
104.7759
 21
130.153082
 31
0.0
  0
LINE
  5
3F0
330
1F
100
AcDbEntity
  8
001
  6
CENTER
370
     9
100
AcDbLine
 10
83.817934
 20
116.703082
 30
0.0
 11
226.627945
 21
116.703082
 31
0.0
  0
LINE
  5
3F1
330
1F
100
AcDbEntity
  8
001
370
    50
100
AcDbLine
 10
146.0759
 20
100.703082
 30
0.0
 11
146.0759
 21
132.703082
 31
0.0
  0
LINE
  5
3F2
330
1F
100
AcDbEntity
  8
001
370
    50
100
AcDbLine
 10
146.0759
 20
132.203082
 30
0.0
 11
143.0759
 21
132.203082
 31
0.0
  0
LINE
  5
3F3
330
1F
100
AcDbEntity
  8
001
370
    50
100
AcDbLine
 10
143.0759
 20
101.203082
 30
0.0
 11
146.0759
 21
101.203082
 31
0.0
  0
LINE
  5
3F4
330
1F
100
AcDbEntity
  8
001
370
    50
100
AcDbLine
 10
223.0759
 20
116.703082
 30
0.0
 11
226.540002
 21
118.703082
 31
0.0
  0
LINE
  5
3F5
330
1F
100
AcDbEntity
  8
001
370
    50
100
AcDbLine
 10
223.0759
 20
116.703082
 30
0.0
 11
226.540002
 21
114.703082
 31
0.0
  0
CIRCLE
  5
3F6
330
1F
100
AcDbEntity
  8
001
370
    50
100
AcDbCircle
 10
110.725077
 20
105.386132
 30
0.0
 40
3.25
  0
LINE
  5
3F7
330
1F
100
AcDbEntity
  8
001
370
    50
100
AcDbLine
 10
111.461198
 20
106.661132
 30
0.0
 11
111.158089
 21
107.186132
 31
0.0
  0
LINE
  5
3F8
330
1F
100
AcDbEntity
  8
001
370
    50
100
AcDbLine
 10
109.988955
 20
106.661132
 30
0.0
 11
110.292064
 21
107.186132
 31
0.0
  0
ARC
  5
3F9
330
1F
100
AcDbEntity
  8
001
370
    50
100
AcDbCircle
 10
110.725077
 20
106.936132
 30
0.0
 40
0.5
100
AcDbArc
 50
30.0
 51
150.0
  0
LINE
  5
3FA
330
1F
100
AcDbEntity
  8
001
370
    50
100
AcDbLine
 10
109.988955
 20
106.661132
 30
0.0
 11
109.382737
 21
106.661132
 31
0.0
  0
LINE
  5
3FB
330
1F
100
AcDbEntity
  8
001
370
    50
100
AcDbLine
 10
109.252834
 20
105.386132
 30
0.0
 11
108.949725
 21
105.911132
 31
0.0
  0
ARC
  5
3FC
330
1F
100
AcDbEntity
  8
001
370
    50
100
AcDbCircle
 10
109.382737
 20
106.161132
 30
0.0
 40
0.5
100
AcDbArc
 50
90.0
 51
210.0
  0
LINE
  5
3FD
330
1F
100
AcDbEntity
  8
001
370
    50
100
AcDbLine
 10
109.252834
 20
105.386132
 30
0.0
 11
108.949725
 21
104.861132
 31
0.0
  0
LINE
  5
3FE
330
1F
100
AcDbEntity
  8
001
370
    50
100
AcDbLine
 10
109.988955
 20
104.111132
 30
0.0
 11
109.382737
 21
104.111132
 31
0.0
  0
ARC
  5
3FF
330
1F
100
AcDbEntity
  8
001
370
    50
100
AcDbCircle
 10
109.382737
 20
104.611132
 30
0.0
 40
0.5
100
AcDbArc
 50
150.0
 51
270.0
  0
LINE
  5
400
330
1F
100
AcDbEntity
  8
001
370
    50
100
AcDbLine
 10
109.988955
 20
104.111132
 30
0.0
 11
110.292064
 21
103.586132
 31
0.0
  0
LINE
  5
401
330
1F
100
AcDbEntity
  8
001
370
    50
100
AcDbLine
 10
111.461198
 20
104.111132
 30
0.0
 11
111.158089
 21
103.586132
 31
0.0
  0
ARC
  5
402
330
1F
100
AcDbEntity
  8
001
370
    50
100
AcDbCircle
 10
110.725077
 20
103.836132
 30
0.0
 40
0.5
100
AcDbArc
 50
210.0
 51
330.0
  0
LINE
  5
403
330
1F
100
AcDbEntity
  8
001
370
    50
100
AcDbLine
 10
111.461198
 20
104.111132
 30
0.0
 11
112.067416
 21
104.111132
 31
0.0
  0
LINE
  5
404
330
1F
100
AcDbEntity
  8
001
370
    50
100
AcDbLine
 10
112.19732
 20
105.386132
 30
0.0
 11
112.500429
 21
104.861132
 31
0.0
  0
ARC
  5
405
330
1F
100
AcDbEntity
  8
001
370
    50
100
AcDbCircle
 10
112.067416
 20
104.611132
 30
0.0
 40
0.5
100
AcDbArc
 50
270.0
 51
30.0
  0
LINE
  5
406
330
1F
100
AcDbEntity
  8
001
370
    50
100
AcDbLine
 10
112.19732
 20
105.386132
 30
0.0
 11
112.500429
 21
105.911132
 31
0.0
  0
LINE
  5
407
330
1F
100
AcDbEntity
  8
001
370
    50
100
AcDbLine
 10
111.461198
 20
106.661132
 30
0.0
 11
112.067416
 21
106.661132
 31
0.0
  0
ARC
  5
408
330
1F
100
AcDbEntity
  8
001
370
    50
100
AcDbCircle
 10
112.067416
 20
106.161132
 30
0.0
 40
0.5
100
AcDbArc
 50
330.0
 51
90.0
  0
POLYLINE
  5
409
330
1F
100
AcDbEntity
  8
001
370
    50
100
AcDb2dPolyline
 66
     1
 10
0.0
 20
0.0
 30
0.0
  0
VERTEX
  5
40B
330
409
100
AcDbEntity
  8
001
370
    50
100
AcDbVertex
100
AcDb2dVertex
 10
110.687365
 20
109.171341
 30
0.0
  0
VERTEX
  5
40C
330
409
100
AcDbEntity
  8
001
370
    50
100
AcDbVertex
100
AcDb2dVertex
 10
110.416618
 20
109.157057
 30
0.0
  0
VERTEX
  5
40D
330
409
100
AcDbEntity
  8
001
370
    50
100
AcDbVertex
100
AcDb2dVertex
 10
110.046078
 20
109.11437
 30
0.0
  0
VERTEX
  5
40E
330
409
100
AcDbEntity
  8
001
370
    50
100
AcDbVertex
100
AcDb2dVertex
 10
109.717708
 20
109.04353
 30
0.0
  0
VERTEX
  5
40F
330
409
100
AcDbEntity
  8
001
370
    50
100
AcDbVertex
100
AcDb2dVertex
 10
109.424275
 20
108.945188
 30
0.0
  0
VERTEX
  5
410
330
409
100
AcDbEntity
  8
001
370
    50
100
AcDbVertex
100
AcDb2dVertex
 10
109.130166
 20
108.819896
 30
0.0
  0
VERTEX
  5
411
330
409
100
AcDbEntity
  8
001
370
    50
100
AcDbVertex
100
AcDb2dVertex
 10
108.840851
 20
108.668936
 30
0.0
  0
VERTEX
  5
412
330
409
100
AcDbEntity
  8
001
370
    50
100
AcDbVertex
100
AcDb2dVertex
 10
108.567979
 20
108.493106
 30
0.0
  0
VERTEX
  5
413
330
409
100
AcDbEntity
  8
001
370
    50
100
AcDbVertex
100
AcDb2dVertex
 10
108.313532
 20
108.294008
 30
0.0
  0
VERTEX
  5
414
330
409
100
AcDbEntity
  8
001
370
    50
100
AcDbVertex
100
AcDb2dVertex
 10
108.076121
 20
108.072567
 30
0.0
  0
VERTEX
  5
415
330
409
100
AcDbEntity
  8
001
370
    50
100
AcDbVertex
100
AcDb2dVertex
 10
107.858341
 20
107.831795
 30
0.0
  0
VERTEX
  5
416
330
409
100
AcDbEntity
  8
001
370
    50
100
AcDbVertex
100
AcDb2dVertex
 10
107.662033
 20
107.573072
 30
0.0
  0
VERTEX
  5
417
330
409
100
AcDbEntity
  8
001
370
    50
100
AcDbVertex
100
AcDb2dVertex
 10
107.489108
 20
107.296341
 30
0.0
  0
VERTEX
  5
418
330
409
100
AcDbEntity
  8
001
370
    50
100
AcDbVertex
100
AcDb2dVertex
 10
107.340302
 20
107.002294
 30
0.0
  0
VERTEX
  5
419
330
409
100
AcDbEntity
  8
001
370
    50
100
AcDbVertex
100
AcDb2dVertex
 10
107.217053
 20
106.703917
 30
0.0
  0
VERTEX
  5
41A
330
409
100
AcDbEntity
  8
001
370
    50
100
AcDbVertex
100
AcDb2dVertex
 10
107.120148
 20
106.405698
 30
0.0
  0
VERTEX
  5
41B
330
409
100
AcDbEntity
  8
001
370
    50
100
AcDbVertex
100
AcDb2dVertex
 10
107.050442
 20
106.072522
 30
0.0
  0
VERTEX
  5
41C
330
409
100
AcDbEntity
  8
001
370
    50
100
AcDbVertex
100
AcDb2dVertex
 10
107.008395
 20
105.69622
 30
0.0
  0
VERTEX
  5
41D
330
409
100
AcDbEntity
  8
001
370
    50
100
AcDbVertex
100
AcDb2dVertex
 10
106.994336
 20
105.421341
 30
0.0
  0
SEQEND
  5
40A
330
409
100
AcDbEntity
  8
001
370
    50
  0
POLYLINE
  5
41E
330
1F
100
AcDbEntity
  8
001
370
    50
100
AcDb2dPolyline
 66
     1
 10
0.0
 20
0.0
 30
0.0
  0
VERTEX
  5
420
330
41E
100
AcDbEntity
  8
001
370
    50
100
AcDbVertex
100
AcDb2dVertex
 10
103.314517
 20
104.891012
 30
0.0
  0
VERTEX
  5
421
330
41E
100
AcDbEntity
  8
001
370
    50
100
AcDbVertex
100
AcDb2dVertex
 10
103.275933
 20
104.847823
 30
0.0
  0
VERTEX
  5
422
330
41E
100
AcDbEntity
  8
001
370
    50
100
AcDbVertex
100
AcDb2dVertex
 10
103.226559
 20
104.785284
 30
0.0
  0
VERTEX
  5
423
330
41E
100
AcDbEntity
  8
001
370
    50
100
AcDbVertex
100
AcDb2dVertex
 10
103.187628
 20
104.724866
 30
0.0
  0
VERTEX
  5
424
330
41E
100
AcDbEntity
  8
001
370
    50
100
AcDbVertex
100
AcDb2dVertex
 10
103.158018
 20
104.665653
 30
0.0
  0
VERTEX
  5
425
330
41E
100
AcDbEntity
  8
001
370
    50
100
AcDbVertex
100
AcDb2dVertex
 10
103.132255
 20
104.602276
 30
0.0
  0
VERTEX
  5
426
330
41E
100
AcDbEntity
  8
001
370
    50
100
AcDbVertex
100
AcDb2dVertex
 10
103.110976
 20
104.535754
 30
0.0
  0
VERTEX
  5
427
330
41E
100
AcDbEntity
  8
001
370
    50
100
AcDbVertex
100
AcDb2dVertex
 10
103.09583
 20
104.468023
 30
0.0
  0
VERTEX
  5
428
330
41E
100
AcDbEntity
  8
001
370
    50
100
AcDbVertex
100
AcDb2dVertex
 10
103.086863
 20
104.399534
 30
0.0
  0
VERTEX
  5
429
330
41E
100
AcDbEntity
  8
001
370
    50
100
AcDbVertex
100
AcDb2dVertex
 10
103.083742
 20
104.330342
 30
0.0
  0
VERTEX
  5
42A
330
41E
100
AcDbEntity
  8
001
370
    50
100
AcDbVertex
100
AcDb2dVertex
 10
103.086411
 20
104.261132
 30
0.0
  0
VERTEX
  5
42B
330
41E
100
AcDbEntity
  8
001
370
    50
100
AcDbVertex
100
AcDb2dVertex
 10
103.09493
 20
104.192583
 30
0.0
  0
VERTEX
  5
42C
330
41E
100
AcDbEntity
  8
001
370
    50
100
AcDbVertex
100
AcDb2dVertex
 10
103.109634
 20
104.124752
 30
0.0
  0
VERTEX
  5
42D
330
41E
100
AcDbEntity
  8
001
370
    50
100
AcDbVertex
100
AcDb2dVertex
 10
103.130478
 20
104.058088
 30
0.0
  0
VERTEX
  5
42E
330
41E
100
AcDbEntity
  8
001
370
    50
100
AcDbVertex
100
AcDb2dVertex
 10
103.155826
 20
103.994539
 30
0.0
  0
VERTEX
  5
42F
330
41E
100
AcDbEntity
  8
001
370
    50
100
AcDbVertex
100
AcDb2dVertex
 10
103.18505
 20
103.935128
 30
0.0
  0
VERTEX
  5
430
330
41E
100
AcDbEntity
  8
001
370
    50
100
AcDbVertex
100
AcDb2dVertex
 10
103.223585
 20
103.87445
 30
0.0
  0
VERTEX
  5
431
330
41E
100
AcDbEntity
  8
001
370
    50
100
AcDbVertex
100
AcDb2dVertex
 10
103.272549
 20
103.811579
 30
0.0
  0
VERTEX
  5
432
330
41E
100
AcDbEntity
  8
001
370
    50
100
AcDbVertex
100
AcDb2dVertex
 10
103.31085
 20
103.768132
 30
0.0
  0
SEQEND
  5
41F
330
41E
100
AcDbEntity
  8
001
370
    50
  0
LINE
  5
433
330
1F
100
AcDbEntity
  8
001
370
    50
100
AcDbLine
 10
109.239666
 20
112.911651
 30
0.0
 11
105.600659
 21
109.240932
 31
0.0
  0
POLYLINE
  5
434
330
1F
100
AcDbEntity
  8
001
370
    50
100
AcDb2dPolyline
 66
     1
 10
0.0
 20
0.0
 30
0.0
  0
VERTEX
  5
436
330
434
100
AcDbEntity
  8
001
370
    50
100
AcDbVertex
100
AcDb2dVertex
 10
110.345487
 20
112.907927
 30
0.0
  0
VERTEX
  5
437
330
434
100
AcDbEntity
  8
001
370
    50
100
AcDbVertex
100
AcDb2dVertex
 10
110.302999
 20
112.947073
 30
0.0
  0
VERTEX
  5
438
330
434
100
AcDbEntity
  8
001
370
    50
100
AcDbVertex
100
AcDb2dVertex
 10
110.241365
 20
112.997242
 30
0.0
  0
VERTEX
  5
439
330
434
100
AcDbEntity
  8
001
370
    50
100
AcDbVertex
100
AcDb2dVertex
 10
110.181955
 20
113.036711
 30
0.0
  0
VERTEX
  5
43A
330
434
100
AcDbEntity
  8
001
370
    50
100
AcDbVertex
100
AcDb2dVertex
 10
110.123552
 20
113.066841
 30
0.0
  0
VERTEX
  5
43B
330
434
100
AcDbEntity
  8
001
370
    50
100
AcDbVertex
100
AcDb2dVertex
 10
110.061184
 20
113.09299
 30
0.0
  0
VERTEX
  5
43C
330
434
100
AcDbEntity
  8
001
370
    50
100
AcDbVertex
100
AcDb2dVertex
 10
109.995627
 20
113.114609
 30
0.0
  0
VERTEX
  5
43D
330
434
100
AcDbEntity
  8
001
370
    50
100
AcDbVertex
100
AcDb2dVertex
 10
109.928958
 20
113.129979
 30
0.0
  0
VERTEX
  5
43E
330
434
100
AcDbEntity
  8
001
370
    50
100
AcDbVertex
100
AcDb2dVertex
 10
109.861476
 20
113.139094
 30
0.0
  0
VERTEX
  5
43F
330
434
100
AcDbEntity
  8
001
370
    50
100
AcDbVertex
100
AcDb2dVertex
 10
109.793336
 20
113.142263
 30
0.0
  0
VERTEX
  5
440
330
434
100
AcDbEntity
  8
001
370
    50
100
AcDbVertex
100
AcDb2dVertex
 10
109.725176
 20
113.139553
 30
0.0
  0
VERTEX
  5
441
330
434
100
AcDbEntity
  8
001
370
    50
100
AcDbVertex
100
AcDb2dVertex
 10
109.657636
 20
113.130893
 30
0.0
  0
VERTEX
  5
442
330
434
100
AcDbEntity
  8
001
370
    50
100
AcDbVertex
100
AcDb2dVertex
 10
109.590869
 20
113.115971
 30
0.0
  0
VERTEX
  5
443
330
434
100
AcDbEntity
  8
001
370
    50
100
AcDbVertex
100
AcDb2dVertex
 10
109.525172
 20
113.094795
 30
0.0
  0
VERTEX
  5
444
330
434
100
AcDbEntity
  8
001
370
    50
100
AcDbVertex
100
AcDb2dVertex
 10
109.462634
 20
113.069066
 30
0.0
  0
VERTEX
  5
445
330
434
100
AcDbEntity
  8
001
370
    50
100
AcDbVertex
100
AcDb2dVertex
 10
109.404036
 20
113.039331
 30
0.0
  0
VERTEX
  5
446
330
434
100
AcDbEntity
  8
001
370
    50
100
AcDbVertex
100
AcDb2dVertex
 10
109.344369
 20
113.000262
 30
0.0
  0
VERTEX
  5
447
330
434
100
AcDbEntity
  8
001
370
    50
100
AcDbVertex
100
AcDb2dVertex
 10
109.282409
 20
112.95051
 30
0.0
  0
VERTEX
  5
448
330
434
100
AcDbEntity
  8
001
370
    50
100
AcDbVertex
100
AcDb2dVertex
 10
109.239666
 20
112.911651
 30
0.0
  0
SEQEND
  5
435
330
434
100
AcDbEntity
  8
001
370
    50
  0
LINE
  5
449
330
1F
100
AcDbEntity
  8
001
370
    50
100
AcDbLine
 10
112.575917
 20
110.628017
 30
0.0
 11
110.345487
 21
112.907927
 31
0.0
  0
LINE
  5
44A
330
1F
100
AcDbEntity
  8
001
370
    50
100
AcDbLine
 10
114.448928
 20
110.586518
 30
0.0
 11
112.575917
 21
110.628017
 31
0.0
  0
LINE
  5
44B
330
1F
100
AcDbEntity
  8
001
370
    50
100
AcDbLine
 10
118.06388
 20
106.891373
 30
0.0
 11
114.448928
 21
110.586518
 31
0.0
  0
POLYLINE
  5
44C
330
1F
100
AcDbEntity
  8
001
370
    50
100
AcDb2dPolyline
 66
     1
 10
0.0
 20
0.0
 30
0.0
  0
VERTEX
  5
44E
330
44C
100
AcDbEntity
  8
001
370
    50
100
AcDbVertex
100
AcDb2dVertex
 10
118.060213
 20
105.768494
 30
0.0
  0
VERTEX
  5
44F
330
44C
100
AcDbEntity
  8
001
370
    50
100
AcDbVertex
100
AcDb2dVertex
 10
118.098798
 20
105.811682
 30
0.0
  0
VERTEX
  5
450
330
44C
100
AcDbEntity
  8
001
370
    50
100
AcDbVertex
100
AcDb2dVertex
 10
118.148171
 20
105.874221
 30
0.0
  0
VERTEX
  5
451
330
44C
100
AcDbEntity
  8
001
370
    50
100
AcDbVertex
100
AcDb2dVertex
 10
118.187102
 20
105.934639
 30
0.0
  0
VERTEX
  5
452
330
44C
100
AcDbEntity
  8
001
370
    50
100
AcDbVertex
100
AcDb2dVertex
 10
118.216713
 20
105.993852
 30
0.0
  0
VERTEX
  5
453
330
44C
100
AcDbEntity
  8
001
370
    50
100
AcDbVertex
100
AcDb2dVertex
 10
118.242476
 20
106.057229
 30
0.0
  0
VERTEX
  5
454
330
44C
100
AcDbEntity
  8
001
370
    50
100
AcDbVertex
100
AcDb2dVertex
 10
118.263755
 20
106.123751
 30
0.0
  0
VERTEX
  5
455
330
44C
100
AcDbEntity
  8
001
370
    50
100
AcDbVertex
100
AcDb2dVertex
 10
118.278901
 20
106.191482
 30
0.0
  0
VERTEX
  5
456
330
44C
100
AcDbEntity
  8
001
370
    50
100
AcDbVertex
100
AcDb2dVertex
 10
118.287868
 20
106.259971
 30
0.0
  0
VERTEX
  5
457
330
44C
100
AcDbEntity
  8
001
370
    50
100
AcDbVertex
100
AcDb2dVertex
 10
118.290988
 20
106.329163
 30
0.0
  0
VERTEX
  5
458
330
44C
100
AcDbEntity
  8
001
370
    50
100
AcDbVertex
100
AcDb2dVertex
 10
118.28832
 20
106.398374
 30
0.0
  0
VERTEX
  5
459
330
44C
100
AcDbEntity
  8
001
370
    50
100
AcDbVertex
100
AcDb2dVertex
 10
118.2798
 20
106.466922
 30
0.0
  0
VERTEX
  5
45A
330
44C
100
AcDbEntity
  8
001
370
    50
100
AcDbVertex
100
AcDb2dVertex
 10
118.265097
 20
106.534753
 30
0.0
  0
VERTEX
  5
45B
330
44C
100
AcDbEntity
  8
001
370
    50
100
AcDbVertex
100
AcDb2dVertex
 10
118.244253
 20
106.601417
 30
0.0
  0
VERTEX
  5
45C
330
44C
100
AcDbEntity
  8
001
370
    50
100
AcDbVertex
100
AcDb2dVertex
 10
118.218904
 20
106.664966
 30
0.0
  0
VERTEX
  5
45D
330
44C
100
AcDbEntity
  8
001
370
    50
100
AcDbVertex
100
AcDb2dVertex
 10
118.189681
 20
106.724377
 30
0.0
  0
VERTEX
  5
45E
330
44C
100
AcDbEntity
  8
001
370
    50
100
AcDbVertex
100
AcDb2dVertex
 10
118.151146
 20
106.785056
 30
0.0
  0
VERTEX
  5
45F
330
44C
100
AcDbEntity
  8
001
370
    50
100
AcDbVertex
100
AcDb2dVertex
 10
118.102182
 20
106.847926
 30
0.0
  0
VERTEX
  5
460
330
44C
100
AcDbEntity
  8
001
370
    50
100
AcDbVertex
100
AcDb2dVertex
 10
118.06388
 20
106.891373
 30
0.0
  0
SEQEND
  5
44D
330
44C
100
AcDbEntity
  8
001
370
    50
  0
LINE
  5
461
330
1F
100
AcDbEntity
  8
001
370
    50
100
AcDbLine
 10
115.81494
 20
103.503655
 30
0.0
 11
118.060213
 21
105.768494
 31
0.0
  0
LINE
  5
462
330
1F
100
AcDbEntity
  8
001
370
    50
100
AcDbLine
 10
115.774071
 20
101.60175
 30
0.0
 11
115.81494
 21
103.503655
 31
0.0
  0
LINE
  5
463
330
1F
100
AcDbEntity
  8
001
370
    50
100
AcDbLine
 10
112.121134
 20
97.91698
 30
0.0
 11
115.774071
 21
101.60175
 31
0.0
  0
LINE
  5
464
330
1F
100
AcDbEntity
  8
001
370
    50
100
AcDbLine
 10
111.043137
 20
97.920554
 30
0.0
 11
108.810145
 21
100.203082
 31
0.0
  0
POLYLINE
  5
465
330
1F
100
AcDbEntity
  8
001
370
    50
100
AcDb2dPolyline
 66
     1
 10
0.0
 20
0.0
 30
0.0
  0
VERTEX
  5
467
330
465
100
AcDbEntity
  8
001
370
    50
100
AcDbVertex
100
AcDb2dVertex
 10
106.994336
 20
105.421341
 30
0.0
  0
VERTEX
  5
468
330
465
100
AcDbEntity
  8
001
370
    50
100
AcDbVertex
100
AcDb2dVertex
 10
107.012122
 20
105.112253
 30
0.0
  0
VERTEX
  5
469
330
465
100
AcDbEntity
  8
001
370
    50
100
AcDbVertex
100
AcDb2dVertex
 10
107.065297
 20
104.689752
 30
0.0
  0
VERTEX
  5
46A
330
465
100
AcDbEntity
  8
001
370
    50
100
AcDbVertex
100
AcDb2dVertex
 10
107.153347
 20
104.317296
 30
0.0
  0
VERTEX
  5
46B
330
465
100
AcDbEntity
  8
001
370
    50
100
AcDbVertex
100
AcDb2dVertex
 10
107.275451
 20
103.986278
 30
0.0
  0
VERTEX
  5
46C
330
465
100
AcDbEntity
  8
001
370
    50
100
AcDbVertex
100
AcDb2dVertex
 10
107.43023
 20
103.657983
 30
0.0
  0
VERTEX
  5
46D
330
465
100
AcDbEntity
  8
001
370
    50
100
AcDbVertex
100
AcDb2dVertex
 10
107.616724
 20
103.337953
 30
0.0
  0
VERTEX
  5
46E
330
465
100
AcDbEntity
  8
001
370
    50
100
AcDbVertex
100
AcDb2dVertex
 10
107.832759
 20
103.04147
 30
0.0
  0
VERTEX
  5
46F
330
465
100
AcDbEntity
  8
001
370
    50
100
AcDbVertex
100
AcDb2dVertex
 10
108.075999
 20
102.769691
 30
0.0
  0
VERTEX
  5
470
330
465
100
AcDbEntity
  8
001
370
    50
100
AcDbVertex
100
AcDb2dVertex
 10
108.343218
 20
102.523032
 30
0.0
  0
VERTEX
  5
471
330
465
100
AcDbEntity
  8
001
370
    50
100
AcDbVertex
100
AcDb2dVertex
 10
108.635628
 20
102.30333
 30
0.0
  0
VERTEX
  5
472
330
465
100
AcDbEntity
  8
001
370
    50
100
AcDbVertex
100
AcDb2dVertex
 10
108.950446
 20
102.11418
 30
0.0
  0
VERTEX
  5
473
330
465
100
AcDbEntity
  8
001
370
    50
100
AcDbVertex
100
AcDb2dVertex
 10
109.274104
 20
101.956793
 30
0.0
  0
VERTEX
  5
474
330
465
100
AcDbEntity
  8
001
370
    50
100
AcDbVertex
100
AcDb2dVertex
 10
109.599738
 20
101.832896
 30
0.0
  0
VERTEX
  5
475
330
465
100
AcDbEntity
  8
001
370
    50
100
AcDbVertex
100
AcDb2dVertex
 10
109.966891
 20
101.743396
 30
0.0
  0
VERTEX
  5
476
330
465
100
AcDbEntity
  8
001
370
    50
100
AcDbVertex
100
AcDb2dVertex
 10
110.38291
 20
101.689416
 30
0.0
  0
VERTEX
  5
477
330
465
100
AcDbEntity
  8
001
370
    50
100
AcDbVertex
100
AcDb2dVertex
 10
110.687365
 20
101.671341
 30
0.0
  0
SEQEND
  5
466
330
465
100
AcDbEntity
  8
001
370
    50
  0
POLYLINE
  5
478
330
1F
100
AcDbEntity
  8
001
370
    50
100
AcDb2dPolyline
 66
     1
 10
0.0
 20
0.0
 30
0.0
  0
VERTEX
  5
47A
330
478
100
AcDbEntity
  8
001
370
    50
100
AcDbVertex
100
AcDb2dVertex
 10
110.687365
 20
101.671341
 30
0.0
  0
VERTEX
  5
47B
330
478
100
AcDbEntity
  8
001
370
    50
100
AcDbVertex
100
AcDb2dVertex
 10
110.958112
 20
101.685625
 30
0.0
  0
VERTEX
  5
47C
330
478
100
AcDbEntity
  8
001
370
    50
100
AcDbVertex
100
AcDb2dVertex
 10
111.328653
 20
101.728312
 30
0.0
  0
VERTEX
  5
47D
330
478
100
AcDbEntity
  8
001
370
    50
100
AcDbVertex
100
AcDb2dVertex
 10
111.657022
 20
101.799158
 30
0.0
  0
VERTEX
  5
47E
330
478
100
AcDbEntity
  8
001
370
    50
100
AcDbVertex
100
AcDb2dVertex
 10
111.950456
 20
101.897494
 30
0.0
  0
VERTEX
  5
47F
330
478
100
AcDbEntity
  8
001
370
    50
100
AcDbVertex
100
AcDb2dVertex
 10
112.244565
 20
102.022767
 30
0.0
  0
VERTEX
  5
480
330
478
100
AcDbEntity
  8
001
370
    50
100
AcDbVertex
100
AcDb2dVertex
 10
112.53388
 20
102.173746
 30
0.0
  0
VERTEX
  5
481
330
478
100
AcDbEntity
  8
001
370
    50
100
AcDbVertex
100
AcDb2dVertex
 10
112.806752
 20
102.349647
 30
0.0
  0
VERTEX
  5
482
330
478
100
AcDbEntity
  8
001
370
    50
100
AcDbVertex
100
AcDb2dVertex
 10
113.061199
 20
102.548674
 30
0.0
  0
VERTEX
  5
483
330
478
100
AcDbEntity
  8
001
370
    50
100
AcDbVertex
100
AcDb2dVertex
 10
113.29861
 20
102.769851
 30
0.0
  0
VERTEX
  5
484
330
478
100
AcDbEntity
  8
001
370
    50
100
AcDbVertex
100
AcDb2dVertex
 10
113.51639
 20
103.010888
 30
0.0
  0
VERTEX
  5
485
330
478
100
AcDbEntity
  8
001
370
    50
100
AcDbVertex
100
AcDb2dVertex
 10
113.712697
 20
103.270601
 30
0.0
  0
VERTEX
  5
486
330
478
100
AcDbEntity
  8
001
370
    50
100
AcDbVertex
100
AcDb2dVertex
 10
113.885622
 20
103.546341
 30
0.0
  0
VERTEX
  5
487
330
478
100
AcDbEntity
  8
001
370
    50
100
AcDbVertex
100
AcDb2dVertex
 10
114.034428
 20
103.836676
 30
0.0
  0
VERTEX
  5
488
330
478
100
AcDbEntity
  8
001
370
    50
100
AcDbVertex
100
AcDb2dVertex
 10
114.157677
 20
104.138766
 30
0.0
  0
VERTEX
  5
489
330
478
100
AcDbEntity
  8
001
370
    50
100
AcDbVertex
100
AcDb2dVertex
 10
114.254582
 20
104.450876
 30
0.0
  0
VERTEX
  5
48A
330
478
100
AcDbEntity
  8
001
370
    50
100
AcDbVertex
100
AcDb2dVertex
 10
114.324289
 20
104.77016
 30
0.0
  0
VERTEX
  5
48B
330
478
100
AcDbEntity
  8
001
370
    50
100
AcDbVertex
100
AcDb2dVertex
 10
114.366336
 20
105.094545
 30
0.0
  0
VERTEX
  5
48C
330
478
100
AcDbEntity
  8
001
370
    50
100
AcDbVertex
100
AcDb2dVertex
 10
114.380394
 20
105.421341
 30
0.0
  0
VERTEX
  5
48D
330
478
100
AcDbEntity
  8
001
370
    50
100
AcDbVertex
100
AcDb2dVertex
 10
114.366336
 20
105.748137
 30
0.0
  0
VERTEX
  5
48E
330
478
100
AcDbEntity
  8
001
370
    50
100
AcDbVertex
100
AcDb2dVertex
 10
114.324289
 20
106.072522
 30
0.0
  0
VERTEX
  5
48F
330
478
100
AcDbEntity
  8
001
370
    50
100
AcDbVertex
100
AcDb2dVertex
 10
114.254582
 20
106.391807
 30
0.0
  0
VERTEX
  5
490
330
478
100
AcDbEntity
  8
001
370
    50
100
AcDbVertex
100
AcDb2dVertex
 10
114.157677
 20
106.703917
 30
0.0
  0
VERTEX
  5
491
330
478
100
AcDbEntity
  8
001
370
    50
100
AcDbVertex
100
AcDb2dVertex
 10
114.034428
 20
107.006006
 30
0.0
  0
VERTEX
  5
492
330
478
100
AcDbEntity
  8
001
370
    50
100
AcDbVertex
100
AcDb2dVertex
 10
113.885622
 20
107.296341
 30
0.0
  0
VERTEX
  5
493
330
478
100
AcDbEntity
  8
001
370
    50
100
AcDbVertex
100
AcDb2dVertex
 10
113.712697
 20
107.572081
 30
0.0
  0
VERTEX
  5
494
330
478
100
AcDbEntity
  8
001
370
    50
100
AcDbVertex
100
AcDb2dVertex
 10
113.51639
 20
107.831795
 30
0.0
  0
VERTEX
  5
495
330
478
100
AcDbEntity
  8
001
370
    50
100
AcDbVertex
100
AcDb2dVertex
 10
113.29861
 20
108.072831
 30
0.0
  0
VERTEX
  5
496
330
478
100
AcDbEntity
  8
001
370
    50
100
AcDbVertex
100
AcDb2dVertex
 10
113.061199
 20
108.294008
 30
0.0
  0
VERTEX
  5
497
330
478
100
AcDbEntity
  8
001
370
    50
100
AcDbVertex
100
AcDb2dVertex
 10
112.806752
 20
108.493036
 30
0.0
  0
VERTEX
  5
498
330
478
100
AcDbEntity
  8
001
370
    50
100
AcDbVertex
100
AcDb2dVertex
 10
112.53388
 20
108.668936
 30
0.0
  0
VERTEX
  5
499
330
478
100
AcDbEntity
  8
001
370
    50
100
AcDbVertex
100
AcDb2dVertex
 10
112.244565
 20
108.819915
 30
0.0
  0
VERTEX
  5
49A
330
478
100
AcDbEntity
  8
001
370
    50
100
AcDbVertex
100
AcDb2dVertex
 10
111.950456
 20
108.945188
 30
0.0
  0
VERTEX
  5
49B
330
478
100
AcDbEntity
  8
001
370
    50
100
AcDbVertex
100
AcDb2dVertex
 10
111.657022
 20
109.043525
 30
0.0
  0
VERTEX
  5
49C
330
478
100
AcDbEntity
  8
001
370
    50
100
AcDbVertex
100
AcDb2dVertex
 10
111.328653
 20
109.11437
 30
0.0
  0
VERTEX
  5
49D
330
478
100
AcDbEntity
  8
001
370
    50
100
AcDbVertex
100
AcDb2dVertex
 10
110.958112
 20
109.157058
 30
0.0
  0
VERTEX
  5
49E
330
478
100
AcDbEntity
  8
001
370
    50
100
AcDbVertex
100
AcDb2dVertex
 10
110.687365
 20
109.171341
 30
0.0
  0
SEQEND
  5
479
330
478
100
AcDbEntity
  8
001
370
    50
  0
POLYLINE
  5
49F
330
1F
100
AcDbEntity
  8
001
370
    50
100
AcDb2dPolyline
 66
     1
 10
0.0
 20
0.0
 30
0.0
  0
VERTEX
  5
4A1
330
49F
100
AcDbEntity
  8
001
370
    50
100
AcDbVertex
100
AcDb2dVertex
 10
119.800928
 20
99.024391
 30
0.0
  0
VERTEX
  5
4A2
330
49F
100
AcDbEntity
  8
001
370
    50
100
AcDbVertex
100
AcDb2dVertex
 10
119.503298
 20
99.000397
 30
0.0
  0
VERTEX
  5
4A3
330
49F
100
AcDbEntity
  8
001
370
    50
100
AcDbVertex
100
AcDb2dVertex
 10
119.205739
 20
98.975578
 30
0.0
  0
VERTEX
  5
4A4
330
49F
100
AcDbEntity
  8
001
370
    50
100
AcDbVertex
100
AcDb2dVertex
 10
119.089828
 20
98.965535
 30
0.0
  0
VERTEX
  5
4A5
330
49F
100
AcDbEntity
  8
001
370
    50
100
AcDbVertex
100
AcDb2dVertex
 10
118.973928
 20
98.955366
 30
0.0
  0
SEQEND
  5
4A0
330
49F
100
AcDbEntity
  8
001
370
    50
  0
POLYLINE
  5
4A6
330
1F
100
AcDbEntity
  8
001
370
    50
100
AcDb2dPolyline
 66
     1
 10
0.0
 20
0.0
 30
0.0
  0
VERTEX
  5
4A8
330
4A6
100
AcDbEntity
  8
001
370
    50
100
AcDbVertex
100
AcDb2dVertex
 10
120.627928
 20
99.098801
 30
0.0
  0
VERTEX
  5
4A9
330
4A6
100
AcDbEntity
  8
001
370
    50
100
AcDbVertex
100
AcDb2dVertex
 10
120.330291
 20
99.07298
 30
0.0
  0
VERTEX
  5
4AA
330
4A6
100
AcDbEntity
  8
001
370
    50
100
AcDbVertex
100
AcDb2dVertex
 10
120.032739
 20
99.046226
 30
0.0
  0
VERTEX
  5
4AB
330
4A6
100
AcDbEntity
  8
001
370
    50
100
AcDbVertex
100
AcDb2dVertex
 10
119.916827
 20
99.035379
 30
0.0
  0
VERTEX
  5
4AC
330
4A6
100
AcDbEntity
  8
001
370
    50
100
AcDbVertex
100
AcDb2dVertex
 10
119.800928
 20
99.024391
 30
0.0
  0
SEQEND
  5
4A7
330
4A6
100
AcDbEntity
  8
001
370
    50
  0
POLYLINE
  5
4AD
330
1F
100
AcDbEntity
  8
001
370
    50
100
AcDb2dPolyline
 66
     1
 10
0.0
 20
0.0
 30
0.0
  0
VERTEX
  5
4AF
330
4AD
100
AcDbEntity
  8
001
370
    50
100
AcDbVertex
100
AcDb2dVertex
 10
121.454928
 20
99.178573
 30
0.0
  0
VERTEX
  5
4B0
330
4AD
100
AcDbEntity
  8
001
370
    50
100
AcDbVertex
100
AcDb2dVertex
 10
121.157282
 20
99.150933
 30
0.0
  0
VERTEX
  5
4B1
330
4AD
100
AcDbEntity
  8
001
370
    50
100
AcDbVertex
100
AcDb2dVertex
 10
120.859739
 20
99.122252
 30
0.0
  0
VERTEX
  5
4B2
330
4AD
100
AcDbEntity
  8
001
370
    50
100
AcDbVertex
100
AcDb2dVertex
 10
120.743826
 20
99.110606
 30
0.0
  0
VERTEX
  5
4B3
330
4AD
100
AcDbEntity
  8
001
370
    50
100
AcDbVertex
100
AcDb2dVertex
 10
120.627928
 20
99.098801
 30
0.0
  0
SEQEND
  5
4AE
330
4AD
100
AcDbEntity
  8
001
370
    50
  0
POLYLINE
  5
4B4
330
1F
100
AcDbEntity
  8
001
370
    50
100
AcDb2dPolyline
 66
     1
 10
0.0
 20
0.0
 30
0.0
  0
VERTEX
  5
4B6
330
4B4
100
AcDbEntity
  8
001
370
    50
100
AcDbVertex
100
AcDb2dVertex
 10
122.281928
 20
99.263684
 30
0.0
  0
VERTEX
  5
4B7
330
4B4
100
AcDbEntity
  8
001
370
    50
100
AcDbVertex
100
AcDb2dVertex
 10
121.984273
 20
99.234232
 30
0.0
  0
VERTEX
  5
4B8
330
4B4
100
AcDbEntity
  8
001
370
    50
100
AcDbVertex
100
AcDb2dVertex
 10
121.686739
 20
99.203634
 30
0.0
  0
VERTEX
  5
4B9
330
4B4
100
AcDbEntity
  8
001
370
    50
100
AcDbVertex
100
AcDb2dVertex
 10
121.570824
 20
99.191191
 30
0.0
  0
VERTEX
  5
4BA
330
4B4
100
AcDbEntity
  8
001
370
    50
100
AcDbVertex
100
AcDb2dVertex
 10
121.454928
 20
99.178573
 30
0.0
  0
SEQEND
  5
4B5
330
4B4
100
AcDbEntity
  8
001
370
    50
  0
POLYLINE
  5
4BB
330
1F
100
AcDbEntity
  8
001
370
    50
100
AcDb2dPolyline
 66
     1
 10
0.0
 20
0.0
 30
0.0
  0
VERTEX
  5
4BD
330
4BB
100
AcDbEntity
  8
001
370
    50
100
AcDbVertex
100
AcDb2dVertex
 10
123.108928
 20
99.354106
 30
0.0
  0
VERTEX
  5
4BE
330
4BB
100
AcDbEntity
  8
001
370
    50
100
AcDbVertex
100
AcDb2dVertex
 10
122.811264
 20
99.322852
 30
0.0
  0
VERTEX
  5
4BF
330
4BB
100
AcDbEntity
  8
001
370
    50
100
AcDbVertex
100
AcDb2dVertex
 10
122.513739
 20
99.290347
 30
0.0
  0
VERTEX
  5
4C0
330
4BB
100
AcDbEntity
  8
001
370
    50
100
AcDbVertex
100
AcDb2dVertex
 10
122.397823
 20
99.27711
 30
0.0
  0
VERTEX
  5
4C1
330
4BB
100
AcDbEntity
  8
001
370
    50
100
AcDbVertex
100
AcDb2dVertex
 10
122.281928
 20
99.263684
 30
0.0
  0
SEQEND
  5
4BC
330
4BB
100
AcDbEntity
  8
001
370
    50
  0
POLYLINE
  5
4C2
330
1F
100
AcDbEntity
  8
001
370
    50
100
AcDb2dPolyline
 66
     1
 10
0.0
 20
0.0
 30
0.0
  0
VERTEX
  5
4C4
330
4C2
100
AcDbEntity
  8
001
370
    50
100
AcDbVertex
100
AcDb2dVertex
 10
123.935928
 20
99.449813
 30
0.0
  0
VERTEX
  5
4C5
330
4C2
100
AcDbEntity
  8
001
370
    50
100
AcDbVertex
100
AcDb2dVertex
 10
123.638254
 20
99.416767
 30
0.0
  0
VERTEX
  5
4C6
330
4C2
100
AcDbEntity
  8
001
370
    50
100
AcDbVertex
100
AcDb2dVertex
 10
123.340739
 20
99.382363
 30
0.0
  0
VERTEX
  5
4C7
330
4C2
100
AcDbEntity
  8
001
370
    50
100
AcDbVertex
100
AcDb2dVertex
 10
123.224821
 20
99.368338
 30
0.0
  0
VERTEX
  5
4C8
330
4C2
100
AcDbEntity
  8
001
370
    50
100
AcDbVertex
100
AcDb2dVertex
 10
123.108928
 20
99.354106
 30
0.0
  0
SEQEND
  5
4C3
330
4C2
100
AcDbEntity
  8
001
370
    50
  0
POLYLINE
  5
4C9
330
1F
100
AcDbEntity
  8
001
370
    50
100
AcDb2dPolyline
 66
     1
 10
0.0
 20
0.0
 30
0.0
  0
VERTEX
  5
4CB
330
4C9
100
AcDbEntity
  8
001
370
    50
100
AcDbVertex
100
AcDb2dVertex
 10
124.762928
 20
99.550776
 30
0.0
  0
VERTEX
  5
4CC
330
4C9
100
AcDbEntity
  8
001
370
    50
100
AcDbVertex
100
AcDb2dVertex
 10
124.465243
 20
99.515946
 30
0.0
  0
VERTEX
  5
4CD
330
4C9
100
AcDbEntity
  8
001
370
    50
100
AcDbVertex
100
AcDb2dVertex
 10
124.167739
 20
99.479656
 30
0.0
  0
VERTEX
  5
4CE
330
4C9
100
AcDbEntity
  8
001
370
    50
100
AcDbVertex
100
AcDb2dVertex
 10
124.05182
 20
99.464846
 30
0.0
  0
VERTEX
  5
4CF
330
4C9
100
AcDbEntity
  8
001
370
    50
100
AcDbVertex
100
AcDb2dVertex
 10
123.935928
 20
99.449813
 30
0.0
  0
SEQEND
  5
4CA
330
4C9
100
AcDbEntity
  8
001
370
    50
  0
POLYLINE
  5
4D0
330
1F
100
AcDbEntity
  8
001
370
    50
100
AcDb2dPolyline
 66
     1
 10
0.0
 20
0.0
 30
0.0
  0
VERTEX
  5
4D2
330
4D0
100
AcDbEntity
  8
001
370
    50
100
AcDbVertex
100
AcDb2dVertex
 10
118.839161
 20
98.999814
 30
0.0
  0
VERTEX
  5
4D3
330
4D0
100
AcDbEntity
  8
001
370
    50
100
AcDbVertex
100
AcDb2dVertex
 10
118.859371
 20
98.990079
 30
0.0
  0
VERTEX
  5
4D4
330
4D0
100
AcDbEntity
  8
001
370
    50
100
AcDbVertex
100
AcDb2dVertex
 10
118.88898
 20
98.976
 30
0.0
  0
VERTEX
  5
4D5
330
4D0
100
AcDbEntity
  8
001
370
    50
100
AcDbVertex
100
AcDb2dVertex
 10
118.918572
 20
98.962183
 30
0.0
  0
VERTEX
  5
4D6
330
4D0
100
AcDbEntity
  8
001
370
    50
100
AcDbVertex
100
AcDb2dVertex
 10
118.938866
 20
98.952831
 30
0.0
  0
SEQEND
  5
4D1
330
4D0
100
AcDbEntity
  8
001
370
    50
  0
LINE
  5
4D7
330
1F
100
AcDbEntity
  8
001
370
    50
100
AcDbLine
 10
118.973928
 20
98.955366
 30
0.0
 11
118.938866
 21
98.952831
 31
0.0
  0
POLYLINE
  5
4D8
330
1F
100
AcDbEntity
  8
001
370
    50
100
AcDb2dPolyline
 66
     1
 10
0.0
 20
0.0
 30
0.0
  0
VERTEX
  5
4DA
330
4D8
100
AcDbEntity
  8
001
370
    50
100
AcDbVertex
100
AcDb2dVertex
 10
113.429795
 20
112.006555
 30
0.0
  0
VERTEX
  5
4DB
330
4D8
100
AcDbEntity
  8
001
370
    50
100
AcDbVertex
100
AcDb2dVertex
 10
113.488051
 20
111.939894
 30
0.0
  0
VERTEX
  5
4DC
330
4D8
100
AcDbEntity
  8
001
370
    50
100
AcDbVertex
100
AcDb2dVertex
 10
113.573546
 20
111.842774
 30
0.0
  0
VERTEX
  5
4DD
330
4D8
100
AcDbEntity
  8
001
370
    50
100
AcDbVertex
100
AcDb2dVertex
 10
113.659921
 20
111.745643
 30
0.0
  0
VERTEX
  5
4DE
330
4D8
100
AcDbEntity
  8
001
370
    50
100
AcDbVertex
100
AcDb2dVertex
 10
113.719259
 20
111.679397
 30
0.0
  0
SEQEND
  5
4D9
330
4D8
100
AcDbEntity
  8
001
370
    50
  0
POLYLINE
  5
4DF
330
1F
100
AcDbEntity
  8
001
370
    50
100
AcDb2dPolyline
 66
     1
 10
0.0
 20
0.0
 30
0.0
  0
VERTEX
  5
4E1
330
4DF
100
AcDbEntity
  8
001
370
    50
100
AcDbVertex
100
AcDb2dVertex
 10
113.290042
 20
112.160059
 30
0.0
  0
VERTEX
  5
4E2
330
4DF
100
AcDbEntity
  8
001
370
    50
100
AcDbVertex
100
AcDb2dVertex
 10
113.318312
 20
112.128826
 30
0.0
  0
VERTEX
  5
4E3
330
4DF
100
AcDbEntity
  8
001
370
    50
100
AcDbVertex
100
AcDb2dVertex
 10
113.359708
 20
112.083248
 30
0.0
  0
VERTEX
  5
4E4
330
4DF
100
AcDbEntity
  8
001
370
    50
100
AcDbVertex
100
AcDb2dVertex
 10
113.401291
 20
112.037683
 30
0.0
  0
VERTEX
  5
4E5
330
4DF
100
AcDbEntity
  8
001
370
    50
100
AcDbVertex
100
AcDb2dVertex
 10
113.429795
 20
112.006555
 30
0.0
  0
SEQEND
  5
4E0
330
4DF
100
AcDbEntity
  8
001
370
    50
  0
POLYLINE
  5
4E6
330
1F
100
AcDbEntity
  8
001
370
    50
100
AcDb2dPolyline
 66
     1
 10
0.0
 20
0.0
 30
0.0
  0
VERTEX
  5
4E8
330
4E6
100
AcDbEntity
  8
001
370
    50
100
AcDbVertex
100
AcDb2dVertex
 10
113.290042
 20
112.160059
 30
0.0
  0
VERTEX
  5
4E9
330
4E6
100
AcDbEntity
  8
001
370
    50
100
AcDbVertex
100
AcDb2dVertex
 10
113.296848
 20
112.382132
 30
0.0
  0
VERTEX
  5
4EA
330
4E6
100
AcDbEntity
  8
001
370
    50
100
AcDbVertex
100
AcDb2dVertex
 10
113.291392
 20
112.603604
 30
0.0
  0
VERTEX
  5
4EB
330
4E6
100
AcDbEntity
  8
001
370
    50
100
AcDbVertex
100
AcDb2dVertex
 10
113.266139
 20
112.811666
 30
0.0
  0
VERTEX
  5
4EC
330
4E6
100
AcDbEntity
  8
001
370
    50
100
AcDbVertex
100
AcDb2dVertex
 10
113.222092
 20
113.017076
 30
0.0
  0
VERTEX
  5
4ED
330
4E6
100
AcDbEntity
  8
001
370
    50
100
AcDbVertex
100
AcDb2dVertex
 10
113.160507
 20
113.221468
 30
0.0
  0
VERTEX
  5
4EE
330
4E6
100
AcDbEntity
  8
001
370
    50
100
AcDbVertex
100
AcDb2dVertex
 10
113.081455
 20
113.419382
 30
0.0
  0
VERTEX
  5
4EF
330
4E6
100
AcDbEntity
  8
001
370
    50
100
AcDbVertex
100
AcDb2dVertex
 10
113.070155
 20
113.443897
 30
0.0
  0
VERTEX
  5
4F0
330
4E6
100
AcDbEntity
  8
001
370
    50
100
AcDbVertex
100
AcDb2dVertex
 10
113.058705
 20
113.468343
 30
0.0
  0
SEQEND
  5
4E7
330
4E6
100
AcDbEntity
  8
001
370
    50
  0
POLYLINE
  5
4F1
330
1F
100
AcDbEntity
  8
001
370
    50
100
AcDb2dPolyline
 66
     1
 10
0.0
 20
0.0
 30
0.0
  0
VERTEX
  5
4F3
330
4F1
100
AcDbEntity
  8
001
370
    50
100
AcDbVertex
100
AcDb2dVertex
 10
113.058705
 20
113.468343
 30
0.0
  0
VERTEX
  5
4F4
330
4F1
100
AcDbEntity
  8
001
370
    50
100
AcDbVertex
100
AcDb2dVertex
 10
113.051697
 20
113.48252
 30
0.0
  0
VERTEX
  5
4F5
330
4F1
100
AcDbEntity
  8
001
370
    50
100
AcDbVertex
100
AcDb2dVertex
 10
113.044639
 20
113.496672
 30
0.0
  0
VERTEX
  5
4F6
330
4F1
100
AcDbEntity
  8
001
370
    50
100
AcDbVertex
100
AcDb2dVertex
 10
112.942843
 20
113.678339
 30
0.0
  0
VERTEX
  5
4F7
330
4F1
100
AcDbEntity
  8
001
370
    50
100
AcDbVertex
100
AcDb2dVertex
 10
112.825269
 20
113.850518
 30
0.0
  0
VERTEX
  5
4F8
330
4F1
100
AcDbEntity
  8
001
370
    50
100
AcDbVertex
100
AcDb2dVertex
 10
112.689248
 20
114.016187
 30
0.0
  0
VERTEX
  5
4F9
330
4F1
100
AcDbEntity
  8
001
370
    50
100
AcDbVertex
100
AcDb2dVertex
 10
112.538392
 20
114.168078
 30
0.0
  0
VERTEX
  5
4FA
330
4F1
100
AcDbEntity
  8
001
370
    50
100
AcDbVertex
100
AcDb2dVertex
 10
112.50622
 20
114.196903
 30
0.0
  0
VERTEX
  5
4FB
330
4F1
100
AcDbEntity
  8
001
370
    50
100
AcDbVertex
100
AcDb2dVertex
 10
112.473753
 20
114.225395
 30
0.0
  0
SEQEND
  5
4F2
330
4F1
100
AcDbEntity
  8
001
370
    50
  0
POLYLINE
  5
4FC
330
1F
100
AcDbEntity
  8
001
370
    50
100
AcDb2dPolyline
 66
     1
 10
0.0
 20
0.0
 30
0.0
  0
VERTEX
  5
4FE
330
4FC
100
AcDbEntity
  8
001
370
    50
100
AcDbVertex
100
AcDb2dVertex
 10
112.473753
 20
114.225395
 30
0.0
  0
VERTEX
  5
4FF
330
4FC
100
AcDbEntity
  8
001
370
    50
100
AcDbVertex
100
AcDb2dVertex
 10
112.334202
 20
114.330934
 30
0.0
  0
VERTEX
  5
500
330
4FC
100
AcDbEntity
  8
001
370
    50
100
AcDbVertex
100
AcDb2dVertex
 10
112.190141
 20
114.429747
 30
0.0
  0
VERTEX
  5
501
330
4FC
100
AcDbEntity
  8
001
370
    50
100
AcDbVertex
100
AcDb2dVertex
 10
112.034147
 20
114.518373
 30
0.0
  0
VERTEX
  5
502
330
4FC
100
AcDbEntity
  8
001
370
    50
100
AcDbVertex
100
AcDb2dVertex
 10
111.871038
 20
114.593366
 30
0.0
  0
VERTEX
  5
503
330
4FC
100
AcDbEntity
  8
001
370
    50
100
AcDbVertex
100
AcDb2dVertex
 10
111.822524
 20
114.612823
 30
0.0
  0
VERTEX
  5
504
330
4FC
100
AcDbEntity
  8
001
370
    50
100
AcDbVertex
100
AcDb2dVertex
 10
111.773808
 20
114.631724
 30
0.0
  0
SEQEND
  5
4FD
330
4FC
100
AcDbEntity
  8
001
370
    50
  0
POLYLINE
  5
505
330
1F
100
AcDbEntity
  8
001
370
    50
100
AcDb2dPolyline
 66
     1
 10
0.0
 20
0.0
 30
0.0
  0
VERTEX
  5
507
330
505
100
AcDbEntity
  8
001
370
    50
100
AcDbVertex
100
AcDb2dVertex
 10
111.773808
 20
114.631724
 30
0.0
  0
VERTEX
  5
508
330
505
100
AcDbEntity
  8
001
370
    50
100
AcDbVertex
100
AcDb2dVertex
 10
111.643716
 20
114.673412
 30
0.0
  0
VERTEX
  5
509
330
505
100
AcDbEntity
  8
001
370
    50
100
AcDbVertex
100
AcDb2dVertex
 10
111.512385
 20
114.710657
 30
0.0
  0
VERTEX
  5
50A
330
505
100
AcDbEntity
  8
001
370
    50
100
AcDbVertex
100
AcDb2dVertex
 10
111.376904
 20
114.740151
 30
0.0
  0
VERTEX
  5
50B
330
505
100
AcDbEntity
  8
001
370
    50
100
AcDbVertex
100
AcDb2dVertex
 10
111.239747
 20
114.760641
 30
0.0
  0
VERTEX
  5
50C
330
505
100
AcDbEntity
  8
001
370
    50
100
AcDbVertex
100
AcDb2dVertex
 10
111.138378
 20
114.770433
 30
0.0
  0
VERTEX
  5
50D
330
505
100
AcDbEntity
  8
001
370
    50
100
AcDbVertex
100
AcDb2dVertex
 10
111.036792
 20
114.777833
 30
0.0
  0
SEQEND
  5
506
330
505
100
AcDbEntity
  8
001
370
    50
  0
POLYLINE
  5
50E
330
1F
100
AcDbEntity
  8
001
370
    50
100
AcDb2dPolyline
 66
     1
 10
0.0
 20
0.0
 30
0.0
  0
VERTEX
  5
510
330
50E
100
AcDbEntity
  8
001
370
    50
100
AcDbVertex
100
AcDb2dVertex
 10
110.84374
 20
114.778928
 30
0.0
  0
VERTEX
  5
511
330
50E
100
AcDbEntity
  8
001
370
    50
100
AcDbVertex
100
AcDb2dVertex
 10
110.626845
 20
114.76057
 30
0.0
  0
VERTEX
  5
512
330
50E
100
AcDbEntity
  8
001
370
    50
100
AcDbVertex
100
AcDb2dVertex
 10
110.412465
 20
114.72895
 30
0.0
  0
VERTEX
  5
513
330
50E
100
AcDbEntity
  8
001
370
    50
100
AcDbVertex
100
AcDb2dVertex
 10
110.257271
 20
114.691532
 30
0.0
  0
VERTEX
  5
514
330
50E
100
AcDbEntity
  8
001
370
    50
100
AcDbVertex
100
AcDb2dVertex
 10
110.103441
 20
114.646923
 30
0.0
  0
SEQEND
  5
50F
330
50E
100
AcDbEntity
  8
001
370
    50
  0
POLYLINE
  5
515
330
1F
100
AcDbEntity
  8
001
370
    50
100
AcDb2dPolyline
 66
     1
 10
0.0
 20
0.0
 30
0.0
  0
VERTEX
  5
517
330
515
100
AcDbEntity
  8
001
370
    50
100
AcDbVertex
100
AcDb2dVertex
 10
110.103441
 20
114.646923
 30
0.0
  0
VERTEX
  5
518
330
515
100
AcDbEntity
  8
001
370
    50
100
AcDbVertex
100
AcDb2dVertex
 10
109.963124
 20
114.594937
 30
0.0
  0
VERTEX
  5
519
330
515
100
AcDbEntity
  8
001
370
    50
100
AcDbVertex
100
AcDb2dVertex
 10
109.824944
 20
114.538041
 30
0.0
  0
VERTEX
  5
51A
330
515
100
AcDbEntity
  8
001
370
    50
100
AcDbVertex
100
AcDb2dVertex
 10
109.689129
 20
114.471643
 30
0.0
  0
VERTEX
  5
51B
330
515
100
AcDbEntity
  8
001
370
    50
100
AcDbVertex
100
AcDb2dVertex
 10
109.557391
 20
114.397051
 30
0.0
  0
VERTEX
  5
51C
330
515
100
AcDbEntity
  8
001
370
    50
100
AcDbVertex
100
AcDb2dVertex
 10
109.424026
 20
114.311739
 30
0.0
  0
VERTEX
  5
51D
330
515
100
AcDbEntity
  8
001
370
    50
100
AcDbVertex
100
AcDb2dVertex
 10
109.296557
 20
114.218237
 30
0.0
  0
VERTEX
  5
51E
330
515
100
AcDbEntity
  8
001
370
    50
100
AcDbVertex
100
AcDb2dVertex
 10
109.174251
 20
114.114872
 30
0.0
  0
VERTEX
  5
51F
330
515
100
AcDbEntity
  8
001
370
    50
100
AcDbVertex
100
AcDb2dVertex
 10
109.055878
 20
114.006656
 30
0.0
  0
SEQEND
  5
516
330
515
100
AcDbEntity
  8
001
370
    50
  0
POLYLINE
  5
520
330
1F
100
AcDbEntity
  8
001
370
    50
100
AcDb2dPolyline
 66
     1
 10
0.0
 20
0.0
 30
0.0
  0
VERTEX
  5
522
330
520
100
AcDbEntity
  8
001
370
    50
100
AcDbVertex
100
AcDb2dVertex
 10
108.137647
 20
111.847508
 30
0.0
  0
VERTEX
  5
523
330
520
100
AcDbEntity
  8
001
370
    50
100
AcDbVertex
100
AcDb2dVertex
 10
108.172102
 20
111.883552
 30
0.0
  0
VERTEX
  5
524
330
520
100
AcDbEntity
  8
001
370
    50
100
AcDbVertex
100
AcDb2dVertex
 10
108.222426
 20
111.936264
 30
0.0
  0
VERTEX
  5
525
330
520
100
AcDbEntity
  8
001
370
    50
100
AcDbVertex
100
AcDb2dVertex
 10
108.272696
 20
111.989011
 30
0.0
  0
VERTEX
  5
526
330
520
100
AcDbEntity
  8
001
370
    50
100
AcDbVertex
100
AcDb2dVertex
 10
108.307068
 20
112.025123
 30
0.0
  0
SEQEND
  5
521
330
520
100
AcDbEntity
  8
001
370
    50
  0
POLYLINE
  5
527
330
1F
100
AcDbEntity
  8
001
370
    50
100
AcDb2dPolyline
 66
     1
 10
0.0
 20
0.0
 30
0.0
  0
VERTEX
  5
529
330
527
100
AcDbEntity
  8
001
370
    50
100
AcDbVertex
100
AcDb2dVertex
 10
109.055878
 20
114.006656
 30
0.0
  0
VERTEX
  5
52A
330
527
100
AcDbEntity
  8
001
370
    50
100
AcDbVertex
100
AcDb2dVertex
 10
108.918743
 20
113.856387
 30
0.0
  0
VERTEX
  5
52B
330
527
100
AcDbEntity
  8
001
370
    50
100
AcDbVertex
100
AcDb2dVertex
 10
108.78949
 20
113.699834
 30
0.0
  0
VERTEX
  5
52C
330
527
100
AcDbEntity
  8
001
370
    50
100
AcDbVertex
100
AcDb2dVertex
 10
108.671735
 20
113.527662
 30
0.0
  0
VERTEX
  5
52D
330
527
100
AcDbEntity
  8
001
370
    50
100
AcDbVertex
100
AcDb2dVertex
 10
108.569778
 20
113.345333
 30
0.0
  0
VERTEX
  5
52E
330
527
100
AcDbEntity
  8
001
370
    50
100
AcDbVertex
100
AcDb2dVertex
 10
108.479448
 20
113.146817
 30
0.0
  0
VERTEX
  5
52F
330
527
100
AcDbEntity
  8
001
370
    50
100
AcDbVertex
100
AcDb2dVertex
 10
108.405922
 20
112.941408
 30
0.0
  0
VERTEX
  5
530
330
527
100
AcDbEntity
  8
001
370
    50
100
AcDbVertex
100
AcDb2dVertex
 10
108.348601
 20
112.722713
 30
0.0
  0
VERTEX
  5
531
330
527
100
AcDbEntity
  8
001
370
    50
100
AcDbVertex
100
AcDb2dVertex
 10
108.31389
 20
112.499839
 30
0.0
  0
VERTEX
  5
532
330
527
100
AcDbEntity
  8
001
370
    50
100
AcDbVertex
100
AcDb2dVertex
 10
108.303066
 20
112.262999
 30
0.0
  0
VERTEX
  5
533
330
527
100
AcDbEntity
  8
001
370
    50
100
AcDbVertex
100
AcDb2dVertex
 10
108.307068
 20
112.025123
 30
0.0
  0
SEQEND
  5
528
330
527
100
AcDbEntity
  8
001
370
    50
  0
POLYLINE
  5
534
330
1F
100
AcDbEntity
  8
001
370
    50
100
AcDb2dPolyline
 66
     1
 10
0.0
 20
0.0
 30
0.0
  0
VERTEX
  5
536
330
534
100
AcDbEntity
  8
001
370
    50
100
AcDbVertex
100
AcDb2dVertex
 10
101.691733
 20
103.295491
 30
0.0
  0
VERTEX
  5
537
330
534
100
AcDbEntity
  8
001
370
    50
100
AcDbVertex
100
AcDb2dVertex
 10
101.708327
 20
103.217761
 30
0.0
  0
VERTEX
  5
538
330
534
100
AcDbEntity
  8
001
370
    50
100
AcDbVertex
100
AcDb2dVertex
 10
101.763124
 20
103.12642
 30
0.0
  0
VERTEX
  5
539
330
534
100
AcDbEntity
  8
001
370
    50
100
AcDbVertex
100
AcDb2dVertex
 10
101.862465
 20
103.079293
 30
0.0
  0
VERTEX
  5
53A
330
534
100
AcDbEntity
  8
001
370
    50
100
AcDbVertex
100
AcDb2dVertex
 10
101.944317
 20
103.069905
 30
0.0
  0
SEQEND
  5
535
330
534
100
AcDbEntity
  8
001
370
    50
  0
POLYLINE
  5
53B
330
1F
100
AcDbEntity
  8
001
370
    50
100
AcDb2dPolyline
 66
     1
 10
0.0
 20
0.0
 30
0.0
  0
VERTEX
  5
53D
330
53B
100
AcDbEntity
  8
001
370
    50
100
AcDbVertex
100
AcDb2dVertex
 10
101.944317
 20
103.069905
 30
0.0
  0
VERTEX
  5
53E
330
53B
100
AcDbEntity
  8
001
370
    50
100
AcDbVertex
100
AcDb2dVertex
 10
101.990049
 20
103.072334
 30
0.0
  0
VERTEX
  5
53F
330
53B
100
AcDbEntity
  8
001
370
    50
100
AcDbVertex
100
AcDb2dVertex
 10
102.056389
 20
103.08049
 30
0.0
  0
VERTEX
  5
540
330
53B
100
AcDbEntity
  8
001
370
    50
100
AcDbVertex
100
AcDb2dVertex
 10
102.135272
 20
103.097393
 30
0.0
  0
VERTEX
  5
541
330
53B
100
AcDbEntity
  8
001
370
    50
100
AcDbVertex
100
AcDb2dVertex
 10
102.188564
 20
103.112227
 30
0.0
  0
SEQEND
  5
53C
330
53B
100
AcDbEntity
  8
001
370
    50
  0
POLYLINE
  5
542
330
1F
100
AcDbEntity
  8
001
370
    50
100
AcDb2dPolyline
 66
     1
 10
0.0
 20
0.0
 30
0.0
  0
VERTEX
  5
544
330
542
100
AcDbEntity
  8
001
370
    50
100
AcDbVertex
100
AcDb2dVertex
 10
101.691733
 20
103.295491
 30
0.0
  0
VERTEX
  5
545
330
542
100
AcDbEntity
  8
001
370
    50
100
AcDbVertex
100
AcDb2dVertex
 10
101.732693
 20
103.335614
 30
0.0
  0
VERTEX
  5
546
330
542
100
AcDbEntity
  8
001
370
    50
100
AcDbVertex
100
AcDb2dVertex
 10
101.792527
 20
103.394288
 30
0.0
  0
VERTEX
  5
547
330
542
100
AcDbEntity
  8
001
370
    50
100
AcDbVertex
100
AcDb2dVertex
 10
101.852515
 20
103.453202
 30
0.0
  0
VERTEX
  5
548
330
542
100
AcDbEntity
  8
001
370
    50
100
AcDbVertex
100
AcDb2dVertex
 10
101.893538
 20
103.493534
 30
0.0
  0
SEQEND
  5
543
330
542
100
AcDbEntity
  8
001
370
    50
  0
POLYLINE
  5
549
330
1F
100
AcDbEntity
  8
001
370
    50
100
AcDb2dPolyline
 66
     1
 10
0.0
 20
0.0
 30
0.0
  0
VERTEX
  5
54B
330
549
100
AcDbEntity
  8
001
370
    50
100
AcDbVertex
100
AcDb2dVertex
 10
101.893538
 20
103.493534
 30
0.0
  0
VERTEX
  5
54C
330
549
100
AcDbEntity
  8
001
370
    50
100
AcDbVertex
100
AcDb2dVertex
 10
102.073997
 20
103.66914
 30
0.0
  0
VERTEX
  5
54D
330
549
100
AcDbEntity
  8
001
370
    50
100
AcDbVertex
100
AcDb2dVertex
 10
102.337119
 20
103.926434
 30
0.0
  0
VERTEX
  5
54E
330
549
100
AcDbEntity
  8
001
370
    50
100
AcDbVertex
100
AcDb2dVertex
 10
102.603413
 20
104.188591
 30
0.0
  0
VERTEX
  5
54F
330
549
100
AcDbEntity
  8
001
370
    50
100
AcDbVertex
100
AcDb2dVertex
 10
102.785182
 20
104.3684
 30
0.0
  0
SEQEND
  5
54A
330
549
100
AcDbEntity
  8
001
370
    50
  0
POLYLINE
  5
550
330
1F
100
AcDbEntity
  8
001
370
    50
100
AcDb2dPolyline
 66
     1
 10
0.0
 20
0.0
 30
0.0
  0
VERTEX
  5
552
330
550
100
AcDbEntity
  8
001
370
    50
100
AcDbVertex
100
AcDb2dVertex
 10
102.785182
 20
104.3684
 30
0.0
  0
VERTEX
  5
553
330
550
100
AcDbEntity
  8
001
370
    50
100
AcDbVertex
100
AcDb2dVertex
 10
102.966452
 20
104.546252
 30
0.0
  0
VERTEX
  5
554
330
550
100
AcDbEntity
  8
001
370
    50
100
AcDbVertex
100
AcDb2dVertex
 10
103.230759
 20
104.806823
 30
0.0
  0
VERTEX
  5
555
330
550
100
AcDbEntity
  8
001
370
    50
100
AcDbVertex
100
AcDb2dVertex
 10
103.497988
 20
105.07203
 30
0.0
  0
VERTEX
  5
556
330
550
100
AcDbEntity
  8
001
370
    50
100
AcDbVertex
100
AcDb2dVertex
 10
103.680397
 20
105.253921
 30
0.0
  0
SEQEND
  5
551
330
550
100
AcDbEntity
  8
001
370
    50
  0
POLYLINE
  5
557
330
1F
100
AcDbEntity
  8
001
370
    50
100
AcDb2dPolyline
 66
     1
 10
0.0
 20
0.0
 30
0.0
  0
VERTEX
  5
559
330
557
100
AcDbEntity
  8
001
370
    50
100
AcDbVertex
100
AcDb2dVertex
 10
104.723796
 20
108.101008
 30
0.0
  0
VERTEX
  5
55A
330
557
100
AcDbEntity
  8
001
370
    50
100
AcDbVertex
100
AcDb2dVertex
 10
104.645348
 20
107.904897
 30
0.0
  0
VERTEX
  5
55B
330
557
100
AcDbEntity
  8
001
370
    50
100
AcDbVertex
100
AcDb2dVertex
 10
104.575829
 20
107.705724
 30
0.0
  0
VERTEX
  5
55C
330
557
100
AcDbEntity
  8
001
370
    50
100
AcDbVertex
100
AcDb2dVertex
 10
104.527711
 20
107.524091
 30
0.0
  0
VERTEX
  5
55D
330
557
100
AcDbEntity
  8
001
370
    50
100
AcDbVertex
100
AcDb2dVertex
 10
104.493991
 20
107.339227
 30
0.0
  0
VERTEX
  5
55E
330
557
100
AcDbEntity
  8
001
370
    50
100
AcDbVertex
100
AcDb2dVertex
 10
104.473409
 20
107.149171
 30
0.0
  0
VERTEX
  5
55F
330
557
100
AcDbEntity
  8
001
370
    50
100
AcDbVertex
100
AcDb2dVertex
 10
104.460429
 20
106.958277
 30
0.0
  0
SEQEND
  5
558
330
557
100
AcDbEntity
  8
001
370
    50
  0
POLYLINE
  5
560
330
1F
100
AcDbEntity
  8
001
370
    50
100
AcDb2dPolyline
 66
     1
 10
0.0
 20
0.0
 30
0.0
  0
VERTEX
  5
562
330
560
100
AcDbEntity
  8
001
370
    50
100
AcDbVertex
100
AcDb2dVertex
 10
110.887088
 20
114.780239
 30
0.0
  0
VERTEX
  5
563
330
560
100
AcDbEntity
  8
001
370
    50
100
AcDbVertex
100
AcDb2dVertex
 10
110.878341
 20
114.780177
 30
0.0
  0
VERTEX
  5
564
330
560
100
AcDbEntity
  8
001
370
    50
100
AcDbVertex
100
AcDb2dVertex
 10
110.865562
 20
114.779912
 30
0.0
  0
VERTEX
  5
565
330
560
100
AcDbEntity
  8
001
370
    50
100
AcDbVertex
100
AcDb2dVertex
 10
110.852602
 20
114.779399
 30
0.0
  0
VERTEX
  5
566
330
560
100
AcDbEntity
  8
001
370
    50
100
AcDbVertex
100
AcDb2dVertex
 10
110.84374
 20
114.778928
 30
0.0
  0
SEQEND
  5
561
330
560
100
AcDbEntity
  8
001
370
    50
  0
POLYLINE
  5
567
330
1F
100
AcDbEntity
  8
001
370
    50
100
AcDb2dPolyline
 66
     1
 10
0.0
 20
0.0
 30
0.0
  0
VERTEX
  5
569
330
567
100
AcDbEntity
  8
001
370
    50
100
AcDbVertex
100
AcDb2dVertex
 10
110.891459
 20
114.780225
 30
0.0
  0
VERTEX
  5
56A
330
567
100
AcDbEntity
  8
001
370
    50
100
AcDbVertex
100
AcDb2dVertex
 10
110.890572
 20
114.78023
 30
0.0
  0
VERTEX
  5
56B
330
567
100
AcDbEntity
  8
001
370
    50
100
AcDbVertex
100
AcDb2dVertex
 10
110.889275
 20
114.780236
 30
0.0
  0
VERTEX
  5
56C
330
567
100
AcDbEntity
  8
001
370
    50
100
AcDbVertex
100
AcDb2dVertex
 10
110.887976
 20
114.780239
 30
0.0
  0
VERTEX
  5
56D
330
567
100
AcDbEntity
  8
001
370
    50
100
AcDbVertex
100
AcDb2dVertex
 10
110.887088
 20
114.780239
 30
0.0
  0
SEQEND
  5
568
330
567
100
AcDbEntity
  8
001
370
    50
  0
POLYLINE
  5
56E
330
1F
100
AcDbEntity
  8
001
370
    50
100
AcDb2dPolyline
 66
     1
 10
0.0
 20
0.0
 30
0.0
  0
VERTEX
  5
570
330
56E
100
AcDbEntity
  8
001
370
    50
100
AcDbVertex
100
AcDb2dVertex
 10
111.036792
 20
114.777833
 30
0.0
  0
VERTEX
  5
571
330
56E
100
AcDbEntity
  8
001
370
    50
100
AcDbVertex
100
AcDb2dVertex
 10
111.007376
 20
114.778641
 30
0.0
  0
VERTEX
  5
572
330
56E
100
AcDbEntity
  8
001
370
    50
100
AcDbVertex
100
AcDb2dVertex
 10
110.964378
 20
114.779543
 30
0.0
  0
VERTEX
  5
573
330
56E
100
AcDbEntity
  8
001
370
    50
100
AcDbVertex
100
AcDb2dVertex
 10
110.921084
 20
114.780062
 30
0.0
  0
VERTEX
  5
574
330
56E
100
AcDbEntity
  8
001
370
    50
100
AcDbVertex
100
AcDb2dVertex
 10
110.891459
 20
114.780225
 30
0.0
  0
SEQEND
  5
56F
330
56E
100
AcDbEntity
  8
001
370
    50
  0
POLYLINE
  5
575
330
1F
100
AcDbEntity
  8
001
370
    50
100
AcDb2dPolyline
 66
     1
 10
0.0
 20
0.0
 30
0.0
  0
VERTEX
  5
577
330
575
100
AcDbEntity
  8
001
370
    50
100
AcDbVertex
100
AcDb2dVertex
 10
112.287643
 20
111.025048
 30
0.0
  0
VERTEX
  5
578
330
575
100
AcDbEntity
  8
001
370
    50
100
AcDbVertex
100
AcDb2dVertex
 10
112.54028
 20
111.234787
 30
0.0
  0
VERTEX
  5
579
330
575
100
AcDbEntity
  8
001
370
    50
100
AcDbVertex
100
AcDb2dVertex
 10
112.878074
 20
111.572442
 30
0.0
  0
VERTEX
  5
57A
330
575
100
AcDbEntity
  8
001
370
    50
100
AcDbVertex
100
AcDb2dVertex
 10
113.136626
 20
111.910975
 30
0.0
  0
VERTEX
  5
57B
330
575
100
AcDbEntity
  8
001
370
    50
100
AcDbVertex
100
AcDb2dVertex
 10
113.290042
 20
112.160059
 30
0.0
  0
SEQEND
  5
576
330
575
100
AcDbEntity
  8
001
370
    50
  0
POLYLINE
  5
57C
330
1F
100
AcDbEntity
  8
001
370
    50
100
AcDb2dPolyline
 66
     1
 10
0.0
 20
0.0
 30
0.0
  0
VERTEX
  5
57E
330
57C
100
AcDbEntity
  8
001
370
    50
100
AcDbVertex
100
AcDb2dVertex
 10
112.287643
 20
111.025048
 30
0.0
  0
VERTEX
  5
57F
330
57C
100
AcDbEntity
  8
001
370
    50
100
AcDbVertex
100
AcDb2dVertex
 10
112.370735
 20
111.189646
 30
0.0
  0
VERTEX
  5
580
330
57C
100
AcDbEntity
  8
001
370
    50
100
AcDbVertex
100
AcDb2dVertex
 10
112.471057
 20
111.422637
 30
0.0
  0
VERTEX
  5
581
330
57C
100
AcDbEntity
  8
001
370
    50
100
AcDbVertex
100
AcDb2dVertex
 10
112.540938
 20
111.640338
 30
0.0
  0
VERTEX
  5
582
330
57C
100
AcDbEntity
  8
001
370
    50
100
AcDbVertex
100
AcDb2dVertex
 10
112.583144
 20
111.846677
 30
0.0
  0
VERTEX
  5
583
330
57C
100
AcDbEntity
  8
001
370
    50
100
AcDbVertex
100
AcDb2dVertex
 10
112.610022
 20
112.062398
 30
0.0
  0
VERTEX
  5
584
330
57C
100
AcDbEntity
  8
001
370
    50
100
AcDbVertex
100
AcDb2dVertex
 10
112.620448
 20
112.284088
 30
0.0
  0
VERTEX
  5
585
330
57C
100
AcDbEntity
  8
001
370
    50
100
AcDbVertex
100
AcDb2dVertex
 10
112.610939
 20
112.504153
 30
0.0
  0
VERTEX
  5
586
330
57C
100
AcDbEntity
  8
001
370
    50
100
AcDbVertex
100
AcDb2dVertex
 10
112.581818
 20
112.721381
 30
0.0
  0
VERTEX
  5
587
330
57C
100
AcDbEntity
  8
001
370
    50
100
AcDbVertex
100
AcDb2dVertex
 10
112.534221
 20
112.93553
 30
0.0
  0
VERTEX
  5
588
330
57C
100
AcDbEntity
  8
001
370
    50
100
AcDbVertex
100
AcDb2dVertex
 10
112.468446
 20
113.145067
 30
0.0
  0
VERTEX
  5
589
330
57C
100
AcDbEntity
  8
001
370
    50
100
AcDbVertex
100
AcDb2dVertex
 10
112.38485
 20
113.347627
 30
0.0
  0
VERTEX
  5
58A
330
57C
100
AcDbEntity
  8
001
370
    50
100
AcDbVertex
100
AcDb2dVertex
 10
112.283827
 20
113.542081
 30
0.0
  0
VERTEX
  5
58B
330
57C
100
AcDbEntity
  8
001
370
    50
100
AcDbVertex
100
AcDb2dVertex
 10
112.166389
 20
113.726618
 30
0.0
  0
VERTEX
  5
58C
330
57C
100
AcDbEntity
  8
001
370
    50
100
AcDbVertex
100
AcDb2dVertex
 10
112.033657
 20
113.900177
 30
0.0
  0
VERTEX
  5
58D
330
57C
100
AcDbEntity
  8
001
370
    50
100
AcDbVertex
100
AcDb2dVertex
 10
111.887089
 20
114.060908
 30
0.0
  0
VERTEX
  5
58E
330
57C
100
AcDbEntity
  8
001
370
    50
100
AcDbVertex
100
AcDb2dVertex
 10
111.725651
 20
114.20831
 30
0.0
  0
VERTEX
  5
58F
330
57C
100
AcDbEntity
  8
001
370
    50
100
AcDbVertex
100
AcDb2dVertex
 10
111.550523
 20
114.340926
 30
0.0
  0
VERTEX
  5
590
330
57C
100
AcDbEntity
  8
001
370
    50
100
AcDbVertex
100
AcDb2dVertex
 10
111.369309
 20
114.456978
 30
0.0
  0
VERTEX
  5
591
330
57C
100
AcDbEntity
  8
001
370
    50
100
AcDbVertex
100
AcDb2dVertex
 10
111.185609
 20
114.554967
 30
0.0
  0
VERTEX
  5
592
330
57C
100
AcDbEntity
  8
001
370
    50
100
AcDbVertex
100
AcDb2dVertex
 10
110.97562
 20
114.63851
 30
0.0
  0
VERTEX
  5
593
330
57C
100
AcDbEntity
  8
001
370
    50
100
AcDbVertex
100
AcDb2dVertex
 10
110.73467
 20
114.707888
 30
0.0
  0
VERTEX
  5
594
330
57C
100
AcDbEntity
  8
001
370
    50
100
AcDbVertex
100
AcDb2dVertex
 10
110.556727
 20
114.747308
 30
0.0
  0
SEQEND
  5
57D
330
57C
100
AcDbEntity
  8
001
370
    50
  0
POLYLINE
  5
595
330
1F
100
AcDbEntity
  8
001
370
    50
100
AcDb2dPolyline
 66
     1
 10
0.0
 20
0.0
 30
0.0
  0
VERTEX
  5
597
330
595
100
AcDbEntity
  8
001
370
    50
100
AcDbVertex
100
AcDb2dVertex
 10
105.282249
 20
108.907579
 30
0.0
  0
VERTEX
  5
598
330
595
100
AcDbEntity
  8
001
370
    50
100
AcDbVertex
100
AcDb2dVertex
 10
105.132511
 20
108.737941
 30
0.0
  0
VERTEX
  5
599
330
595
100
AcDbEntity
  8
001
370
    50
100
AcDbVertex
100
AcDb2dVertex
 10
104.99162
 20
108.561416
 30
0.0
  0
VERTEX
  5
59A
330
595
100
AcDbEntity
  8
001
370
    50
100
AcDbVertex
100
AcDb2dVertex
 10
104.86376
 20
108.367747
 30
0.0
  0
VERTEX
  5
59B
330
595
100
AcDbEntity
  8
001
370
    50
100
AcDbVertex
100
AcDb2dVertex
 10
104.753576
 20
108.163321
 30
0.0
  0
VERTEX
  5
59C
330
595
100
AcDbEntity
  8
001
370
    50
100
AcDbVertex
100
AcDb2dVertex
 10
104.738594
 20
108.132203
 30
0.0
  0
VERTEX
  5
59D
330
595
100
AcDbEntity
  8
001
370
    50
100
AcDbVertex
100
AcDb2dVertex
 10
104.723796
 20
108.101008
 30
0.0
  0
SEQEND
  5
596
330
595
100
AcDbEntity
  8
001
370
    50
  0
POLYLINE
  5
59E
330
1F
100
AcDbEntity
  8
001
370
    50
100
AcDb2dPolyline
 66
     1
 10
0.0
 20
0.0
 30
0.0
  0
VERTEX
  5
5A0
330
59E
100
AcDbEntity
  8
001
370
    50
100
AcDbVertex
100
AcDb2dVertex
 10
105.320632
 20
108.315446
 30
0.0
  0
VERTEX
  5
5A1
330
59E
100
AcDbEntity
  8
001
370
    50
100
AcDbVertex
100
AcDb2dVertex
 10
105.214485
 20
108.195817
 30
0.0
  0
VERTEX
  5
5A2
330
59E
100
AcDbEntity
  8
001
370
    50
100
AcDbVertex
100
AcDb2dVertex
 10
105.0798
 20
108.020862
 30
0.0
  0
VERTEX
  5
5A3
330
59E
100
AcDbEntity
  8
001
370
    50
100
AcDbVertex
100
AcDb2dVertex
 10
104.975483
 20
107.849372
 30
0.0
  0
VERTEX
  5
5A4
330
59E
100
AcDbEntity
  8
001
370
    50
100
AcDbVertex
100
AcDb2dVertex
 10
104.898662
 20
107.685076
 30
0.0
  0
VERTEX
  5
5A5
330
59E
100
AcDbEntity
  8
001
370
    50
100
AcDbVertex
100
AcDb2dVertex
 10
104.834312
 20
107.515099
 30
0.0
  0
VERTEX
  5
5A6
330
59E
100
AcDbEntity
  8
001
370
    50
100
AcDbVertex
100
AcDb2dVertex
 10
104.783856
 20
107.320394
 30
0.0
  0
VERTEX
  5
5A7
330
59E
100
AcDbEntity
  8
001
370
    50
100
AcDbVertex
100
AcDb2dVertex
 10
104.751787
 20
107.100617
 30
0.0
  0
VERTEX
  5
5A8
330
59E
100
AcDbEntity
  8
001
370
    50
100
AcDbVertex
100
AcDb2dVertex
 10
104.739588
 20
106.94018
 30
0.0
  0
SEQEND
  5
59F
330
59E
100
AcDbEntity
  8
001
370
    50
  0
POLYLINE
  5
5A9
330
1F
100
AcDbEntity
  8
001
370
    50
100
AcDb2dPolyline
 66
     1
 10
0.0
 20
0.0
 30
0.0
  0
VERTEX
  5
5AB
330
5A9
100
AcDbEntity
  8
001
370
    50
100
AcDbVertex
100
AcDb2dVertex
 10
106.568065
 20
110.223304
 30
0.0
  0
VERTEX
  5
5AC
330
5A9
100
AcDbEntity
  8
001
370
    50
100
AcDbVertex
100
AcDb2dVertex
 10
106.753982
 20
110.413783
 30
0.0
  0
VERTEX
  5
5AD
330
5A9
100
AcDbEntity
  8
001
370
    50
100
AcDbVertex
100
AcDb2dVertex
 10
107.025076
 20
110.69279
 30
0.0
  0
VERTEX
  5
5AE
330
5A9
100
AcDbEntity
  8
001
370
    50
100
AcDbVertex
100
AcDb2dVertex
 10
107.297564
 20
110.974997
 30
0.0
  0
VERTEX
  5
5AF
330
5A9
100
AcDbEntity
  8
001
370
    50
100
AcDbVertex
100
AcDb2dVertex
 10
107.483569
 20
111.168505
 30
0.0
  0
SEQEND
  5
5AA
330
5A9
100
AcDbEntity
  8
001
370
    50
  0
POLYLINE
  5
5B0
330
1F
100
AcDbEntity
  8
001
370
    50
100
AcDb2dPolyline
 66
     1
 10
0.0
 20
0.0
 30
0.0
  0
VERTEX
  5
5B2
330
5B0
100
AcDbEntity
  8
001
370
    50
100
AcDbVertex
100
AcDb2dVertex
 10
107.483569
 20
111.168505
 30
0.0
  0
VERTEX
  5
5B3
330
5B0
100
AcDbEntity
  8
001
370
    50
100
AcDbVertex
100
AcDb2dVertex
 10
107.616431
 20
111.305677
 30
0.0
  0
VERTEX
  5
5B4
330
5B0
100
AcDbEntity
  8
001
370
    50
100
AcDbVertex
100
AcDb2dVertex
 10
107.810289
 20
111.506471
 30
0.0
  0
VERTEX
  5
5B5
330
5B0
100
AcDbEntity
  8
001
370
    50
100
AcDbVertex
100
AcDb2dVertex
 10
108.00479
 20
111.708835
 30
0.0
  0
VERTEX
  5
5B6
330
5B0
100
AcDbEntity
  8
001
370
    50
100
AcDbVertex
100
AcDb2dVertex
 10
108.137647
 20
111.847508
 30
0.0
  0
SEQEND
  5
5B1
330
5B0
100
AcDbEntity
  8
001
370
    50
  0
POLYLINE
  5
5B7
330
1F
100
AcDbEntity
  8
001
370
    50
100
AcDb2dPolyline
 66
     1
 10
0.0
 20
0.0
 30
0.0
  0
VERTEX
  5
5B9
330
5B7
100
AcDbEntity
  8
001
370
    50
100
AcDbVertex
100
AcDb2dVertex
 10
113.719259
 20
111.679397
 30
0.0
  0
VERTEX
  5
5BA
330
5B7
100
AcDbEntity
  8
001
370
    50
100
AcDbVertex
100
AcDb2dVertex
 10
113.800402
 20
111.589256
 30
0.0
  0
VERTEX
  5
5BB
330
5B7
100
AcDbEntity
  8
001
370
    50
100
AcDbVertex
100
AcDb2dVertex
 10
113.919166
 20
111.457664
 30
0.0
  0
VERTEX
  5
5BC
330
5B7
100
AcDbEntity
  8
001
370
    50
100
AcDbVertex
100
AcDb2dVertex
 10
114.037698
 20
111.326805
 30
0.0
  0
VERTEX
  5
5BD
330
5B7
100
AcDbEntity
  8
001
370
    50
100
AcDbVertex
100
AcDb2dVertex
 10
114.118915
 20
111.237375
 30
0.0
  0
SEQEND
  5
5B8
330
5B7
100
AcDbEntity
  8
001
370
    50
  0
POLYLINE
  5
5BE
330
1F
100
AcDbEntity
  8
001
370
    50
100
AcDb2dPolyline
 66
     1
 10
0.0
 20
0.0
 30
0.0
  0
VERTEX
  5
5C0
330
5BE
100
AcDbEntity
  8
001
370
    50
100
AcDbVertex
100
AcDb2dVertex
 10
114.118915
 20
111.237375
 30
0.0
  0
VERTEX
  5
5C1
330
5BE
100
AcDbEntity
  8
001
370
    50
100
AcDbVertex
100
AcDb2dVertex
 10
114.270723
 20
111.063866
 30
0.0
  0
VERTEX
  5
5C2
330
5BE
100
AcDbEntity
  8
001
370
    50
100
AcDbVertex
100
AcDb2dVertex
 10
114.493193
 20
110.810801
 30
0.0
  0
VERTEX
  5
5C3
330
5BE
100
AcDbEntity
  8
001
370
    50
100
AcDbVertex
100
AcDb2dVertex
 10
114.714976
 20
110.560185
 30
0.0
  0
VERTEX
  5
5C4
330
5BE
100
AcDbEntity
  8
001
370
    50
100
AcDbVertex
100
AcDb2dVertex
 10
114.867129
 20
110.389071
 30
0.0
  0
SEQEND
  5
5BF
330
5BE
100
AcDbEntity
  8
001
370
    50
  0
POLYLINE
  5
5C5
330
1F
100
AcDbEntity
  8
001
370
    50
100
AcDb2dPolyline
 66
     1
 10
0.0
 20
0.0
 30
0.0
  0
VERTEX
  5
5C7
330
5C5
100
AcDbEntity
  8
001
370
    50
100
AcDbVertex
100
AcDb2dVertex
 10
114.867129
 20
110.389071
 30
0.0
  0
VERTEX
  5
5C8
330
5C5
100
AcDbEntity
  8
001
370
    50
100
AcDbVertex
100
AcDb2dVertex
 10
115.018786
 20
110.212231
 30
0.0
  0
VERTEX
  5
5C9
330
5C5
100
AcDbEntity
  8
001
370
    50
100
AcDbVertex
100
AcDb2dVertex
 10
115.241036
 20
109.954286
 30
0.0
  0
VERTEX
  5
5CA
330
5C5
100
AcDbEntity
  8
001
370
    50
100
AcDbVertex
100
AcDb2dVertex
 10
115.462666
 20
109.698732
 30
0.0
  0
VERTEX
  5
5CB
330
5C5
100
AcDbEntity
  8
001
370
    50
100
AcDbVertex
100
AcDb2dVertex
 10
115.614714
 20
109.524232
 30
0.0
  0
SEQEND
  5
5C6
330
5C5
100
AcDbEntity
  8
001
370
    50
  0
POLYLINE
  5
5CC
330
1F
100
AcDbEntity
  8
001
370
    50
100
AcDb2dPolyline
 66
     1
 10
0.0
 20
0.0
 30
0.0
  0
VERTEX
  5
5CE
330
5CC
100
AcDbEntity
  8
001
370
    50
100
AcDbVertex
100
AcDb2dVertex
 10
115.614714
 20
109.524232
 30
0.0
  0
VERTEX
  5
5CF
330
5CC
100
AcDbEntity
  8
001
370
    50
100
AcDbVertex
100
AcDb2dVertex
 10
115.766264
 20
109.343877
 30
0.0
  0
VERTEX
  5
5D0
330
5CC
100
AcDbEntity
  8
001
370
    50
100
AcDbVertex
100
AcDb2dVertex
 10
115.988357
 20
109.080787
 30
0.0
  0
VERTEX
  5
5D1
330
5CC
100
AcDbEntity
  8
001
370
    50
100
AcDbVertex
100
AcDb2dVertex
 10
116.209899
 20
108.820027
 30
0.0
  0
VERTEX
  5
5D2
330
5CC
100
AcDbEntity
  8
001
370
    50
100
AcDbVertex
100
AcDb2dVertex
 10
116.361887
 20
108.641958
 30
0.0
  0
SEQEND
  5
5CD
330
5CC
100
AcDbEntity
  8
001
370
    50
  0
POLYLINE
  5
5D3
330
1F
100
AcDbEntity
  8
001
370
    50
100
AcDb2dPolyline
 66
     1
 10
0.0
 20
0.0
 30
0.0
  0
VERTEX
  5
5D5
330
5D3
100
AcDbEntity
  8
001
370
    50
100
AcDbVertex
100
AcDb2dVertex
 10
118.603669
 20
105.879865
 30
0.0
  0
VERTEX
  5
5D6
330
5D3
100
AcDbEntity
  8
001
370
    50
100
AcDbVertex
100
AcDb2dVertex
 10
118.691995
 20
105.765243
 30
0.0
  0
VERTEX
  5
5D7
330
5D3
100
AcDbEntity
  8
001
370
    50
100
AcDbVertex
100
AcDb2dVertex
 10
118.821291
 20
105.597876
 30
0.0
  0
VERTEX
  5
5D8
330
5D3
100
AcDbEntity
  8
001
370
    50
100
AcDbVertex
100
AcDb2dVertex
 10
118.950511
 20
105.431193
 30
0.0
  0
VERTEX
  5
5D9
330
5D3
100
AcDbEntity
  8
001
370
    50
100
AcDbVertex
100
AcDb2dVertex
 10
119.039064
 20
105.317254
 30
0.0
  0
SEQEND
  5
5D4
330
5D3
100
AcDbEntity
  8
001
370
    50
  0
POLYLINE
  5
5DA
330
1F
100
AcDbEntity
  8
001
370
    50
100
AcDb2dPolyline
 66
     1
 10
0.0
 20
0.0
 30
0.0
  0
VERTEX
  5
5DC
330
5DA
100
AcDbEntity
  8
001
370
    50
100
AcDbVertex
100
AcDb2dVertex
 10
119.343246
 20
104.800371
 30
0.0
  0
VERTEX
  5
5DD
330
5DA
100
AcDbEntity
  8
001
370
    50
100
AcDbVertex
100
AcDb2dVertex
 10
119.281895
 20
104.929114
 30
0.0
  0
VERTEX
  5
5DE
330
5DA
100
AcDbEntity
  8
001
370
    50
100
AcDbVertex
100
AcDb2dVertex
 10
119.215678
 20
105.055239
 30
0.0
  0
VERTEX
  5
5DF
330
5DA
100
AcDbEntity
  8
001
370
    50
100
AcDbVertex
100
AcDb2dVertex
 10
119.140002
 20
105.177798
 30
0.0
  0
VERTEX
  5
5E0
330
5DA
100
AcDbEntity
  8
001
370
    50
100
AcDbVertex
100
AcDb2dVertex
 10
119.056167
 20
105.294999
 30
0.0
  0
VERTEX
  5
5E1
330
5DA
100
AcDbEntity
  8
001
370
    50
100
AcDbVertex
100
AcDb2dVertex
 10
119.04763
 20
105.306139
 30
0.0
  0
VERTEX
  5
5E2
330
5DA
100
AcDbEntity
  8
001
370
    50
100
AcDbVertex
100
AcDb2dVertex
 10
119.039064
 20
105.317254
 30
0.0
  0
SEQEND
  5
5DB
330
5DA
100
AcDbEntity
  8
001
370
    50
  0
POLYLINE
  5
5E3
330
1F
100
AcDbEntity
  8
001
370
    50
100
AcDb2dPolyline
 66
     1
 10
0.0
 20
0.0
 30
0.0
  0
VERTEX
  5
5E5
330
5E3
100
AcDbEntity
  8
001
370
    50
100
AcDbVertex
100
AcDb2dVertex
 10
119.505019
 20
103.50365
 30
0.0
  0
VERTEX
  5
5E6
330
5E3
100
AcDbEntity
  8
001
370
    50
100
AcDbVertex
100
AcDb2dVertex
 10
119.398109
 20
102.686071
 30
0.0
  0
VERTEX
  5
5E7
330
5E3
100
AcDbEntity
  8
001
370
    50
100
AcDbVertex
100
AcDb2dVertex
 10
119.245796
 20
101.490645
 30
0.0
  0
VERTEX
  5
5E8
330
5E3
100
AcDbEntity
  8
001
370
    50
100
AcDbVertex
100
AcDb2dVertex
 10
119.097806
 20
100.285176
 30
0.0
  0
VERTEX
  5
5E9
330
5E3
100
AcDbEntity
  8
001
370
    50
100
AcDbVertex
100
AcDb2dVertex
 10
118.999254
 20
99.46005
 30
0.0
  0
SEQEND
  5
5E4
330
5E3
100
AcDbEntity
  8
001
370
    50
  0
POLYLINE
  5
5EA
330
1F
100
AcDbEntity
  8
001
370
    50
100
AcDb2dPolyline
 66
     1
 10
0.0
 20
0.0
 30
0.0
  0
VERTEX
  5
5EC
330
5EA
100
AcDbEntity
  8
001
370
    50
100
AcDbVertex
100
AcDb2dVertex
 10
119.505019
 20
103.50365
 30
0.0
  0
VERTEX
  5
5ED
330
5EA
100
AcDbEntity
  8
001
370
    50
100
AcDbVertex
100
AcDb2dVertex
 10
119.515479
 20
103.602149
 30
0.0
  0
VERTEX
  5
5EE
330
5EA
100
AcDbEntity
  8
001
370
    50
100
AcDbVertex
100
AcDb2dVertex
 10
119.523723
 20
103.700804
 30
0.0
  0
VERTEX
  5
5EF
330
5EA
100
AcDbEntity
  8
001
370
    50
100
AcDbVertex
100
AcDb2dVertex
 10
119.527649
 20
103.912073
 30
0.0
  0
VERTEX
  5
5F0
330
5EA
100
AcDbEntity
  8
001
370
    50
100
AcDbVertex
100
AcDb2dVertex
 10
119.513586
 20
104.123288
 30
0.0
  0
VERTEX
  5
5F1
330
5EA
100
AcDbEntity
  8
001
370
    50
100
AcDbVertex
100
AcDb2dVertex
 10
119.482404
 20
104.335441
 30
0.0
  0
VERTEX
  5
5F2
330
5EA
100
AcDbEntity
  8
001
370
    50
100
AcDbVertex
100
AcDb2dVertex
 10
119.43217
 20
104.543443
 30
0.0
  0
VERTEX
  5
5F3
330
5EA
100
AcDbEntity
  8
001
370
    50
100
AcDbVertex
100
AcDb2dVertex
 10
119.389918
 20
104.672586
 30
0.0
  0
VERTEX
  5
5F4
330
5EA
100
AcDbEntity
  8
001
370
    50
100
AcDbVertex
100
AcDb2dVertex
 10
119.343246
 20
104.800371
 30
0.0
  0
SEQEND
  5
5EB
330
5EA
100
AcDbEntity
  8
001
370
    50
  0
POLYLINE
  5
5F5
330
1F
100
AcDbEntity
  8
001
370
    50
100
AcDb2dPolyline
 66
     1
 10
0.0
 20
0.0
 30
0.0
  0
VERTEX
  5
5F7
330
5F5
100
AcDbEntity
  8
001
370
    50
100
AcDbVertex
100
AcDb2dVertex
 10
118.839161
 20
103.50365
 30
0.0
  0
VERTEX
  5
5F8
330
5F5
100
AcDbEntity
  8
001
370
    50
100
AcDbVertex
100
AcDb2dVertex
 10
118.830059
 20
103.667493
 30
0.0
  0
VERTEX
  5
5F9
330
5F5
100
AcDbEntity
  8
001
370
    50
100
AcDbVertex
100
AcDb2dVertex
 10
118.801633
 20
103.892204
 30
0.0
  0
VERTEX
  5
5FA
330
5F5
100
AcDbEntity
  8
001
370
    50
100
AcDbVertex
100
AcDb2dVertex
 10
118.753545
 20
104.091612
 30
0.0
  0
VERTEX
  5
5FB
330
5F5
100
AcDbEntity
  8
001
370
    50
100
AcDbVertex
100
AcDb2dVertex
 10
118.69048
 20
104.265952
 30
0.0
  0
VERTEX
  5
5FC
330
5F5
100
AcDbEntity
  8
001
370
    50
100
AcDbVertex
100
AcDb2dVertex
 10
118.614359
 20
104.434576
 30
0.0
  0
VERTEX
  5
5FD
330
5F5
100
AcDbEntity
  8
001
370
    50
100
AcDbVertex
100
AcDb2dVertex
 10
118.509937
 20
104.610651
 30
0.0
  0
VERTEX
  5
5FE
330
5F5
100
AcDbEntity
  8
001
370
    50
100
AcDbVertex
100
AcDb2dVertex
 10
118.374202
 20
104.79032
 30
0.0
  0
VERTEX
  5
5FF
330
5F5
100
AcDbEntity
  8
001
370
    50
100
AcDbVertex
100
AcDb2dVertex
 10
118.266885
 20
104.913166
 30
0.0
  0
SEQEND
  5
5F6
330
5F5
100
AcDbEntity
  8
001
370
    50
  0
LINE
  5
600
330
1F
100
AcDbEntity
  8
001
370
    50
100
AcDbLine
 10
118.839161
 20
98.999814
 30
0.0
 11
118.839161
 21
103.50365
 31
0.0
  0
POLYLINE
  5
601
330
1F
100
AcDbEntity
  8
001
370
    50
100
AcDb2dPolyline
 66
     1
 10
0.0
 20
0.0
 30
0.0
  0
VERTEX
  5
603
330
601
100
AcDbEntity
  8
001
370
    50
100
AcDbVertex
100
AcDb2dVertex
 10
118.999254
 20
99.46005
 30
0.0
  0
VERTEX
  5
604
330
601
100
AcDbEntity
  8
001
370
    50
100
AcDbVertex
100
AcDb2dVertex
 10
118.986925
 20
99.357081
 30
0.0
  0
VERTEX
  5
605
330
601
100
AcDbEntity
  8
001
370
    50
100
AcDbVertex
100
AcDb2dVertex
 10
118.968966
 20
99.20658
 30
0.0
  0
VERTEX
  5
606
330
601
100
AcDbEntity
  8
001
370
    50
100
AcDbVertex
100
AcDb2dVertex
 10
118.95107
 20
99.055919
 30
0.0
  0
VERTEX
  5
607
330
601
100
AcDbEntity
  8
001
370
    50
100
AcDbVertex
100
AcDb2dVertex
 10
118.938866
 20
98.952831
 30
0.0
  0
SEQEND
  5
602
330
601
100
AcDbEntity
  8
001
370
    50
  0
POLYLINE
  5
608
330
1F
100
AcDbEntity
  8
001
370
    50
100
AcDb2dPolyline
 66
     1
 10
0.0
 20
0.0
 30
0.0
  0
VERTEX
  5
60A
330
608
100
AcDbEntity
  8
001
370
    50
100
AcDbVertex
100
AcDb2dVertex
 10
102.188564
 20
103.112227
 30
0.0
  0
VERTEX
  5
60B
330
608
100
AcDbEntity
  8
001
370
    50
100
AcDbVertex
100
AcDb2dVertex
 10
102.714556
 20
103.119969
 30
0.0
  0
VERTEX
  5
60C
330
608
100
AcDbEntity
  8
001
370
    50
100
AcDbVertex
100
AcDb2dVertex
 10
103.483298
 20
103.132339
 30
0.0
  0
VERTEX
  5
60D
330
608
100
AcDbEntity
  8
001
370
    50
100
AcDbVertex
100
AcDb2dVertex
 10
103.706857
 20
103.136222
 30
0.0
  0
VERTEX
  5
60E
330
608
100
AcDbEntity
  8
001
370
    50
100
AcDbVertex
100
AcDb2dVertex
 10
103.925219
 20
103.140135
 30
0.0
  0
SEQEND
  5
609
330
608
100
AcDbEntity
  8
001
370
    50
  0
LINE
  5
60F
330
1F
100
AcDbEntity
  8
001
370
    50
100
AcDbLine
 10
103.129362
 20
104.061224
 30
0.0
 11
102.188564
 21
103.112227
 31
0.0
  0
LINE
  5
610
330
1F
100
AcDbEntity
  8
001
370
    50
100
AcDbLine
 10
105.586536
 20
108.583667
 30
0.0
 11
105.320632
 21
108.315446
 31
0.0
  0
POLYLINE
  5
611
330
1F
100
AcDbEntity
  8
001
370
    50
100
AcDb2dPolyline
 66
     1
 10
0.0
 20
0.0
 30
0.0
  0
VERTEX
  5
613
330
611
100
AcDbEntity
  8
001
370
    50
100
AcDbVertex
100
AcDb2dVertex
 10
105.282249
 20
108.907579
 30
0.0
  0
VERTEX
  5
614
330
611
100
AcDbEntity
  8
001
370
    50
100
AcDbVertex
100
AcDb2dVertex
 10
105.358062
 20
108.984787
 30
0.0
  0
VERTEX
  5
615
330
611
100
AcDbEntity
  8
001
370
    50
100
AcDbVertex
100
AcDb2dVertex
 10
105.468762
 20
109.097731
 30
0.0
  0
VERTEX
  5
616
330
611
100
AcDbEntity
  8
001
370
    50
100
AcDbVertex
100
AcDb2dVertex
 10
105.5386
 20
109.169138
 30
0.0
  0
VERTEX
  5
617
330
611
100
AcDbEntity
  8
001
370
    50
100
AcDbVertex
100
AcDb2dVertex
 10
105.600478
 20
109.232492
 30
0.0
  0
SEQEND
  5
612
330
611
100
AcDbEntity
  8
001
370
    50
  0
POLYLINE
  5
618
330
1F
100
AcDbEntity
  8
001
370
    50
100
AcDb2dPolyline
 66
     1
 10
0.0
 20
0.0
 30
0.0
  0
VERTEX
  5
61A
330
618
100
AcDbEntity
  8
001
370
    50
100
AcDbVertex
100
AcDb2dVertex
 10
108.307068
 20
112.025123
 30
0.0
  0
VERTEX
  5
61B
330
618
100
AcDbEntity
  8
001
370
    50
100
AcDbVertex
100
AcDb2dVertex
 10
108.291353
 20
111.985876
 30
0.0
  0
VERTEX
  5
61C
330
618
100
AcDbEntity
  8
001
370
    50
100
AcDbVertex
100
AcDb2dVertex
 10
108.271545
 20
111.935093
 30
0.0
  0
SEQEND
  5
619
330
618
100
AcDbEntity
  8
001
370
    50
  0
POLYLINE
  5
61D
330
1F
100
AcDbEntity
  8
001
370
    50
100
AcDb2dPolyline
 66
     1
 10
0.0
 20
0.0
 30
0.0
  0
VERTEX
  5
61F
330
61D
100
AcDbEntity
  8
001
370
    50
100
AcDbVertex
100
AcDb2dVertex
 10
118.288958
 20
106.273808
 30
0.0
  0
VERTEX
  5
620
330
61D
100
AcDbEntity
  8
001
370
    50
100
AcDbVertex
100
AcDb2dVertex
 10
118.476251
 20
106.039016
 30
0.0
  0
VERTEX
  5
621
330
61D
100
AcDbEntity
  8
001
370
    50
100
AcDbVertex
100
AcDb2dVertex
 10
118.603669
 20
105.879865
 30
0.0
  0
SEQEND
  5
61E
330
61D
100
AcDbEntity
  8
001
370
    50
  0
LINE
  5
622
330
1F
100
AcDbEntity
  8
001
370
    50
100
AcDbLine
 10
118.266885
 20
104.913166
 30
0.0
 11
117.743077
 21
105.448594
 31
0.0
  0
LINE
  5
623
330
1F
100
AcDbEntity
  8
001
370
    50
100
AcDbLine
 10
112.678277
 20
110.625749
 30
0.0
 11
112.287643
 21
111.025048
 31
0.0
  0
POLYLINE
  5
624
330
1F
100
AcDbEntity
  8
001
370
    50
100
AcDb2dPolyline
 66
     1
 10
0.0
 20
0.0
 30
0.0
  0
VERTEX
  5
626
330
624
100
AcDbEntity
  8
001
370
    50
100
AcDbVertex
100
AcDb2dVertex
 10
112.994704
 20
98.798163
 30
0.0
  0
VERTEX
  5
627
330
624
100
AcDbEntity
  8
001
370
    50
100
AcDbVertex
100
AcDb2dVertex
 10
113.542857
 20
98.81435
 30
0.0
  0
VERTEX
  5
628
330
624
100
AcDbEntity
  8
001
370
    50
100
AcDbVertex
100
AcDb2dVertex
 10
114.096729
 20
98.831325
 30
0.0
  0
VERTEX
  5
629
330
624
100
AcDbEntity
  8
001
370
    50
100
AcDbVertex
100
AcDb2dVertex
 10
116.912699
 20
98.92692
 30
0.0
  0
VERTEX
  5
62A
330
624
100
AcDbEntity
  8
001
370
    50
100
AcDbVertex
100
AcDb2dVertex
 10
118.839161
 20
98.999814
 30
0.0
  0
SEQEND
  5
625
330
624
100
AcDbEntity
  8
001
370
    50
  0
POLYLINE
  5
62B
330
1F
100
AcDbEntity
  8
001
370
    50
100
AcDb2dPolyline
 66
     1
 10
0.0
 20
0.0
 30
0.0
  0
VERTEX
  5
62D
330
62B
100
AcDbEntity
  8
001
370
    50
100
AcDbVertex
100
AcDb2dVertex
 10
109.314637
 20
98.702312
 30
0.0
  0
VERTEX
  5
62E
330
62B
100
AcDbEntity
  8
001
370
    50
100
AcDbVertex
100
AcDb2dVertex
 10
109.723387
 20
98.71184
 30
0.0
  0
VERTEX
  5
62F
330
62B
100
AcDbEntity
  8
001
370
    50
100
AcDbVertex
100
AcDb2dVertex
 10
110.256375
 20
98.724769
 30
0.0
  0
SEQEND
  5
62C
330
62B
100
AcDbEntity
  8
001
370
    50
  0
POLYLINE
  5
630
330
1F
100
AcDbEntity
  8
001
370
    50
100
AcDb2dPolyline
 66
     1
 10
0.0
 20
0.0
 30
0.0
  0
VERTEX
  5
632
330
630
100
AcDbEntity
  8
001
370
    50
100
AcDbVertex
100
AcDb2dVertex
 10
140.684649
 20
98.553082
 30
0.0
  0
VERTEX
  5
633
330
630
100
AcDbEntity
  8
001
370
    50
100
AcDbVertex
100
AcDb2dVertex
 10
140.540019
 20
98.558598
 30
0.0
  0
VERTEX
  5
634
330
630
100
AcDbEntity
  8
001
370
    50
100
AcDbVertex
100
AcDb2dVertex
 10
140.395572
 20
98.566717
 30
0.0
  0
VERTEX
  5
635
330
630
100
AcDbEntity
  8
001
370
    50
100
AcDbVertex
100
AcDb2dVertex
 10
140.173993
 20
98.588014
 30
0.0
  0
VERTEX
  5
636
330
630
100
AcDbEntity
  8
001
370
    50
100
AcDbVertex
100
AcDb2dVertex
 10
139.953221
 20
98.617475
 30
0.0
  0
VERTEX
  5
637
330
630
100
AcDbEntity
  8
001
370
    50
100
AcDbVertex
100
AcDb2dVertex
 10
139.73091
 20
98.651864
 30
0.0
  0
VERTEX
  5
638
330
630
100
AcDbEntity
  8
001
370
    50
100
AcDbVertex
100
AcDb2dVertex
 10
139.509177
 20
98.689485
 30
0.0
  0
VERTEX
  5
639
330
630
100
AcDbEntity
  8
001
370
    50
100
AcDbVertex
100
AcDb2dVertex
 10
139.25925
 20
98.734841
 30
0.0
  0
VERTEX
  5
63A
330
630
100
AcDbEntity
  8
001
370
    50
100
AcDbVertex
100
AcDb2dVertex
 10
139.009698
 20
98.782309
 30
0.0
  0
VERTEX
  5
63B
330
630
100
AcDbEntity
  8
001
370
    50
100
AcDbVertex
100
AcDb2dVertex
 10
138.734944
 20
98.836077
 30
0.0
  0
VERTEX
  5
63C
330
630
100
AcDbEntity
  8
001
370
    50
100
AcDbVertex
100
AcDb2dVertex
 10
138.460371
 20
98.890729
 30
0.0
  0
VERTEX
  5
63D
330
630
100
AcDbEntity
  8
001
370
    50
100
AcDbVertex
100
AcDb2dVertex
 10
138.163591
 20
98.950196
 30
0.0
  0
VERTEX
  5
63E
330
630
100
AcDbEntity
  8
001
370
    50
100
AcDbVertex
100
AcDb2dVertex
 10
137.866783
 20
99.009527
 30
0.0
  0
VERTEX
  5
63F
330
630
100
AcDbEntity
  8
001
370
    50
100
AcDbVertex
100
AcDb2dVertex
 10
137.545009
 20
99.073123
 30
0.0
  0
VERTEX
  5
640
330
630
100
AcDbEntity
  8
001
370
    50
100
AcDbVertex
100
AcDb2dVertex
 10
137.223024
 20
99.135643
 30
0.0
  0
VERTEX
  5
641
330
630
100
AcDbEntity
  8
001
370
    50
100
AcDbVertex
100
AcDb2dVertex
 10
136.881341
 20
99.200434
 30
0.0
  0
VERTEX
  5
642
330
630
100
AcDbEntity
  8
001
370
    50
100
AcDbVertex
100
AcDb2dVertex
 10
136.539322
 20
99.263428
 30
0.0
  0
VERTEX
  5
643
330
630
100
AcDbEntity
  8
001
370
    50
100
AcDbVertex
100
AcDb2dVertex
 10
136.180947
 20
99.327176
 30
0.0
  0
VERTEX
  5
644
330
630
100
AcDbEntity
  8
001
370
    50
100
AcDbVertex
100
AcDb2dVertex
 10
135.822139
 20
99.388434
 30
0.0
  0
VERTEX
  5
645
330
630
100
AcDbEntity
  8
001
370
    50
100
AcDbVertex
100
AcDb2dVertex
 10
135.450294
 20
99.448942
 30
0.0
  0
VERTEX
  5
646
330
630
100
AcDbEntity
  8
001
370
    50
100
AcDbVertex
100
AcDb2dVertex
 10
135.077937
 20
99.506211
 30
0.0
  0
VERTEX
  5
647
330
630
100
AcDbEntity
  8
001
370
    50
100
AcDbVertex
100
AcDb2dVertex
 10
134.643925
 20
99.568453
 30
0.0
  0
VERTEX
  5
648
330
630
100
AcDbEntity
  8
001
370
    50
100
AcDbVertex
100
AcDb2dVertex
 10
134.209243
 20
99.625852
 30
0.0
  0
VERTEX
  5
649
330
630
100
AcDbEntity
  8
001
370
    50
100
AcDbVertex
100
AcDb2dVertex
 10
133.761136
 20
99.679822
 30
0.0
  0
VERTEX
  5
64A
330
630
100
AcDbEntity
  8
001
370
    50
100
AcDbVertex
100
AcDb2dVertex
 10
133.312426
 20
99.728514
 30
0.0
  0
VERTEX
  5
64B
330
630
100
AcDbEntity
  8
001
370
    50
100
AcDbVertex
100
AcDb2dVertex
 10
132.854285
 20
99.772619
 30
0.0
  0
VERTEX
  5
64C
330
630
100
AcDbEntity
  8
001
370
    50
100
AcDbVertex
100
AcDb2dVertex
 10
132.395624
 20
99.810955
 30
0.0
  0
VERTEX
  5
64D
330
630
100
AcDbEntity
  8
001
370
    50
100
AcDbVertex
100
AcDb2dVertex
 10
131.931503
 20
99.84364
 30
0.0
  0
VERTEX
  5
64E
330
630
100
AcDbEntity
  8
001
370
    50
100
AcDbVertex
100
AcDb2dVertex
 10
131.466976
 20
99.869934
 30
0.0
  0
VERTEX
  5
64F
330
630
100
AcDbEntity
  8
001
370
    50
100
AcDbVertex
100
AcDb2dVertex
 10
130.949309
 20
99.891424
 30
0.0
  0
VERTEX
  5
650
330
630
100
AcDbEntity
  8
001
370
    50
100
AcDbVertex
100
AcDb2dVertex
 10
130.431364
 20
99.904827
 30
0.0
  0
VERTEX
  5
651
330
630
100
AcDbEntity
  8
001
370
    50
100
AcDbVertex
100
AcDb2dVertex
 10
129.909745
 20
99.91036
 30
0.0
  0
VERTEX
  5
652
330
630
100
AcDbEntity
  8
001
370
    50
100
AcDbVertex
100
AcDb2dVertex
 10
129.388103
 20
99.908045
 30
0.0
  0
VERTEX
  5
653
330
630
100
AcDbEntity
  8
001
370
    50
100
AcDbVertex
100
AcDb2dVertex
 10
128.867657
 20
99.898009
 30
0.0
  0
VERTEX
  5
654
330
630
100
AcDbEntity
  8
001
370
    50
100
AcDbVertex
100
AcDb2dVertex
 10
128.347415
 20
99.880244
 30
0.0
  0
VERTEX
  5
655
330
630
100
AcDbEntity
  8
001
370
    50
100
AcDbVertex
100
AcDb2dVertex
 10
127.833247
 20
99.855026
 30
0.0
  0
VERTEX
  5
656
330
630
100
AcDbEntity
  8
001
370
    50
100
AcDbVertex
100
AcDb2dVertex
 10
127.319523
 20
99.822081
 30
0.0
  0
VERTEX
  5
657
330
630
100
AcDbEntity
  8
001
370
    50
100
AcDbVertex
100
AcDb2dVertex
 10
126.884755
 20
99.788125
 30
0.0
  0
VERTEX
  5
658
330
630
100
AcDbEntity
  8
001
370
    50
100
AcDbVertex
100
AcDb2dVertex
 10
126.450413
 20
99.749035
 30
0.0
  0
VERTEX
  5
659
330
630
100
AcDbEntity
  8
001
370
    50
100
AcDbVertex
100
AcDb2dVertex
 10
126.023029
 20
99.705828
 30
0.0
  0
VERTEX
  5
65A
330
630
100
AcDbEntity
  8
001
370
    50
100
AcDbVertex
100
AcDb2dVertex
 10
125.5962
 20
99.657576
 30
0.0
  0
VERTEX
  5
65B
330
630
100
AcDbEntity
  8
001
370
    50
100
AcDbVertex
100
AcDb2dVertex
 10
125.1794
 20
99.605515
 30
0.0
  0
VERTEX
  5
65C
330
630
100
AcDbEntity
  8
001
370
    50
100
AcDbVertex
100
AcDb2dVertex
 10
124.762928
 20
99.550776
 30
0.0
  0
SEQEND
  5
631
330
630
100
AcDbEntity
  8
001
370
    50
  0
LINE
  5
65D
330
1F
100
AcDbEntity
  8
001
370
    50
100
AcDbLine
 10
140.684649
 20
98.553082
 30
0.0
 11
141.38309
 21
98.553082
 31
0.0
  0
LINE
  5
65E
330
1F
100
AcDbEntity
  8
001
370
    50
100
AcDbLine
 10
101.944317
 20
103.069905
 30
0.0
 11
97.13396
 21
103.120734
 31
0.0
  0
LINE
  5
65F
330
1F
100
AcDbEntity
  8
001
  6
PHANTOM
370
     9
100
AcDbLine
 10
105.875901
 20
101.203082
 30
0.0
 11
105.875901
 21
94.203082
 31
0.0
  0
LINE
  5
660
330
1F
100
AcDbEntity
  8
001
  6
PHANTOM
370
     9
100
AcDbLine
 10
104.875901
 20
102.203082
 30
0.0
 11
86.375901
 21
102.203082
 31
0.0
  0
LINE
  5
661
330
1F
100
AcDbEntity
  8
001
  6
PHANTOM
370
     9
100
AcDbLine
 10
86.375901
 20
106.203082
 30
0.0
 11
86.375901
 21
102.203082
 31
0.0
  0
LINE
  5
662
330
1F
100
AcDbEntity
  8
001
  6
PHANTOM
370
     9
100
AcDbLine
 10
85.875901
 20
106.703082
 30
0.0
 11
75.875901
 21
106.703082
 31
0.0
  0
LINE
  5
663
330
1F
100
AcDbEntity
  8
001
  6
PHANTOM
370
     9
100
AcDbLine
 10
86.375901
 20
106.203082
 30
0.0
 11
85.875901
 21
106.703082
 31
0.0
  0
LINE
  5
664
330
1F
100
AcDbEntity
  8
001
  6
PHANTOM
370
     9
100
AcDbLine
 10
105.875901
 20
101.203082
 30
0.0
 11
104.875901
 21
102.203082
 31
0.0
  0
LINE
  5
665
330
1F
100
AcDbEntity
  8
001
  6
PHANTOM
370
     9
100
AcDbLine
 10
105.875901
 20
132.203082
 30
0.0
 11
105.875901
 21
139.203082
 31
0.0
  0
LINE
  5
666
330
1F
100
AcDbEntity
  8
001
  6
PHANTOM
370
     9
100
AcDbLine
 10
104.875901
 20
131.203082
 30
0.0
 11
86.375901
 21
131.203082
 31
0.0
  0
LINE
  5
667
330
1F
100
AcDbEntity
  8
001
  6
PHANTOM
370
     9
100
AcDbLine
 10
86.375901
 20
127.203082
 30
0.0
 11
86.375901
 21
131.203082
 31
0.0
  0
LINE
  5
668
330
1F
100
AcDbEntity
  8
001
  6
PHANTOM
370
     9
100
AcDbLine
 10
85.875901
 20
126.703082
 30
0.0
 11
75.875901
 21
126.703082
 31
0.0
  0
LINE
  5
669
330
1F
100
AcDbEntity
  8
001
  6
PHANTOM
370
     9
100
AcDbLine
 10
86.375901
 20
127.203082
 30
0.0
 11
85.875901
 21
126.703082
 31
0.0
  0
LINE
  5
66A
330
1F
100
AcDbEntity
  8
001
  6
PHANTOM
370
     9
100
AcDbLine
 10
106.875901
 20
133.203082
 30
0.0
 11
104.875901
 21
131.203082
 31
0.0
  0
LINE
  5
66B
330
1F
100
AcDbEntity
  8
001
370
    50
100
AcDbLine
 10
85.0759
 20
107.503082
 30
0.0
 11
86.375901
 21
106.203082
 31
0.0
  0
POLYLINE
  5
66C
330
1F
100
AcDbEntity
  8
001
370
    50
100
AcDb2dPolyline
 66
     1
 10
0.0
 20
0.0
 30
0.0
  0
VERTEX
  5
66E
330
66C
100
AcDbEntity
  8
001
370
    50
100
AcDbVertex
100
AcDb2dVertex
 10
86.375901
 20
102.99685
 30
0.0
  0
VERTEX
  5
66F
330
66C
100
AcDbEntity
  8
001
370
    50
100
AcDbVertex
100
AcDb2dVertex
 10
86.379689
 20
102.931387
 30
0.0
  0
VERTEX
  5
670
330
66C
100
AcDbEntity
  8
001
370
    50
100
AcDbVertex
100
AcDb2dVertex
 10
86.390925
 20
102.84218
 30
0.0
  0
VERTEX
  5
671
330
66C
100
AcDbEntity
  8
001
370
    50
100
AcDbVertex
100
AcDb2dVertex
 10
86.409569
 20
102.763319
 30
0.0
  0
VERTEX
  5
672
330
66C
100
AcDbEntity
  8
001
370
    50
100
AcDbVertex
100
AcDb2dVertex
 10
86.435422
 20
102.693231
 30
0.0
  0
VERTEX
  5
673
330
66C
100
AcDbEntity
  8
001
370
    50
100
AcDbVertex
100
AcDb2dVertex
 10
86.468194
 20
102.62372
 30
0.0
  0
VERTEX
  5
674
330
66C
100
AcDbEntity
  8
001
370
    50
100
AcDbVertex
100
AcDb2dVertex
 10
86.507681
 20
102.555959
 30
0.0
  0
VERTEX
  5
675
330
66C
100
AcDbEntity
  8
001
370
    50
100
AcDbVertex
100
AcDb2dVertex
 10
86.553423
 20
102.493184
 30
0.0
  0
VERTEX
  5
676
330
66C
100
AcDbEntity
  8
001
370
    50
100
AcDbVertex
100
AcDb2dVertex
 10
86.604925
 20
102.435639
 30
0.0
  0
VERTEX
  5
677
330
66C
100
AcDbEntity
  8
001
370
    50
100
AcDbVertex
100
AcDb2dVertex
 10
86.661504
 20
102.383413
 30
0.0
  0
VERTEX
  5
678
330
66C
100
AcDbEntity
  8
001
370
    50
100
AcDbVertex
100
AcDb2dVertex
 10
86.723417
 20
102.336895
 30
0.0
  0
VERTEX
  5
679
330
66C
100
AcDbEntity
  8
001
370
    50
100
AcDbVertex
100
AcDb2dVertex
 10
86.790074
 20
102.296846
 30
0.0
  0
VERTEX
  5
67A
330
66C
100
AcDbEntity
  8
001
370
    50
100
AcDbVertex
100
AcDb2dVertex
 10
86.858604
 20
102.263522
 30
0.0
  0
VERTEX
  5
67B
330
66C
100
AcDbEntity
  8
001
370
    50
100
AcDbVertex
100
AcDb2dVertex
 10
86.927551
 20
102.237288
 30
0.0
  0
VERTEX
  5
67C
330
66C
100
AcDbEntity
  8
001
370
    50
100
AcDbVertex
100
AcDb2dVertex
 10
87.00529
 20
102.218338
 30
0.0
  0
VERTEX
  5
67D
330
66C
100
AcDbEntity
  8
001
370
    50
100
AcDbVertex
100
AcDb2dVertex
 10
87.093375
 20
102.206909
 30
0.0
  0
VERTEX
  5
67E
330
66C
100
AcDbEntity
  8
001
370
    50
100
AcDbVertex
100
AcDb2dVertex
 10
87.157838
 20
102.203082
 30
0.0
  0
SEQEND
  5
66D
330
66C
100
AcDbEntity
  8
001
370
    50
  0
LINE
  5
67F
330
1F
100
AcDbEntity
  8
001
370
    50
100
AcDbLine
 10
106.875901
 20
100.203082
 30
0.0
 11
103.31085
 21
103.768132
 31
0.0
  0
POLYLINE
  5
680
330
1F
100
AcDbEntity
  8
001
370
    50
100
AcDb2dPolyline
 66
     1
 10
0.0
 20
0.0
 30
0.0
  0
VERTEX
  5
682
330
680
100
AcDbEntity
  8
001
370
    50
100
AcDbVertex
100
AcDb2dVertex
 10
96.193812
 20
103.635477
 30
0.0
  0
VERTEX
  5
683
330
680
100
AcDbEntity
  8
001
370
    50
100
AcDbVertex
100
AcDb2dVertex
 10
96.327245
 20
103.535937
 30
0.0
  0
VERTEX
  5
684
330
680
100
AcDbEntity
  8
001
370
    50
100
AcDbVertex
100
AcDb2dVertex
 10
96.462906
 20
103.439584
 30
0.0
  0
VERTEX
  5
685
330
680
100
AcDbEntity
  8
001
370
    50
100
AcDbVertex
100
AcDb2dVertex
 10
96.576154
 20
103.365765
 30
0.0
  0
VERTEX
  5
686
330
680
100
AcDbEntity
  8
001
370
    50
100
AcDbVertex
100
AcDb2dVertex
 10
96.69279
 20
103.297275
 30
0.0
  0
VERTEX
  5
687
330
680
100
AcDbEntity
  8
001
370
    50
100
AcDbVertex
100
AcDb2dVertex
 10
96.800588
 20
103.241564
 30
0.0
  0
VERTEX
  5
688
330
680
100
AcDbEntity
  8
001
370
    50
100
AcDbVertex
100
AcDb2dVertex
 10
96.911727
 20
103.19328
 30
0.0
  0
VERTEX
  5
689
330
680
100
AcDbEntity
  8
001
370
    50
100
AcDbVertex
100
AcDb2dVertex
 10
97.022007
 20
103.154759
 30
0.0
  0
VERTEX
  5
68A
330
680
100
AcDbEntity
  8
001
370
    50
100
AcDbVertex
100
AcDb2dVertex
 10
97.13396
 20
103.120734
 30
0.0
  0
SEQEND
  5
681
330
680
100
AcDbEntity
  8
001
370
    50
  0
LINE
  5
68B
330
1F
100
AcDbEntity
  8
001
370
    50
100
AcDbLine
 10
97.13396
 20
103.303911
 30
0.0
 11
97.13396
 21
103.120734
 31
0.0
  0
LINE
  5
68C
330
1F
100
AcDbEntity
  8
001
370
    50
100
AcDbLine
 10
104.739588
 20
106.94018
 30
0.0
 11
104.726152
 21
106.314948
 31
0.0
  0
POLYLINE
  5
68D
330
1F
100
AcDbEntity
  8
001
370
    50
100
AcDb2dPolyline
 66
     1
 10
0.0
 20
0.0
 30
0.0
  0
VERTEX
  5
68F
330
68D
100
AcDbEntity
  8
001
370
    50
100
AcDbVertex
100
AcDb2dVertex
 10
104.440461
 20
106.026766
 30
0.0
  0
VERTEX
  5
690
330
68D
100
AcDbEntity
  8
001
370
    50
100
AcDbVertex
100
AcDb2dVertex
 10
104.442475
 20
106.120387
 30
0.0
  0
VERTEX
  5
691
330
68D
100
AcDbEntity
  8
001
370
    50
100
AcDbVertex
100
AcDb2dVertex
 10
104.44449
 20
106.214008
 30
0.0
  0
VERTEX
  5
692
330
68D
100
AcDbEntity
  8
001
370
    50
100
AcDbVertex
100
AcDb2dVertex
 10
104.447797
 20
106.367856
 30
0.0
  0
VERTEX
  5
693
330
68D
100
AcDbEntity
  8
001
370
    50
100
AcDbVertex
100
AcDb2dVertex
 10
104.452296
 20
106.577584
 30
0.0
  0
VERTEX
  5
694
330
68D
100
AcDbEntity
  8
001
370
    50
100
AcDbVertex
100
AcDb2dVertex
 10
104.457129
 20
106.80362
 30
0.0
  0
VERTEX
  5
695
330
68D
100
AcDbEntity
  8
001
370
    50
100
AcDbVertex
100
AcDb2dVertex
 10
104.460429
 20
106.958277
 30
0.0
  0
SEQEND
  5
68E
330
68D
100
AcDbEntity
  8
001
370
    50
  0
LINE
  5
696
330
1F
100
AcDbEntity
  8
001
370
    50
100
AcDbLine
 10
105.600659
 20
109.240932
 30
0.0
 11
105.555767
 21
107.151792
 31
0.0
  0
LINE
  5
697
330
1F
100
AcDbEntity
  8
001
370
    50
100
AcDbLine
 10
105.555767
 20
107.151792
 30
0.0
 11
103.314517
 21
104.891012
 31
0.0
  0
LINE
  5
698
330
1F
100
AcDbEntity
  8
001
370
    50
100
AcDbLine
 10
108.810145
 20
100.203082
 30
0.0
 11
106.875901
 21
100.203082
 31
0.0
  0
LINE
  5
699
330
1F
100
AcDbEntity
  8
001
370
    50
100
AcDbLine
 10
109.314637
 20
98.702312
 30
0.0
 11
107.845735
 21
100.203082
 31
0.0
  0
LINE
  5
69A
330
1F
100
AcDbEntity
  8
001
  6
PHANTOM
370
     9
100
AcDbLine
 10
106.875901
 20
133.203082
 30
0.0
 11
108.810145
 21
133.203082
 31
0.0
  0
ARC
  5
69B
330
1F
100
AcDbEntity
  8
001
370
    50
100
AcDbCircle
 10
111.583895
 20
98.449577
 30
0.0
 40
0.7564952622413942
100
AcDbArc
 50
224.371483
 51
315.248561
  0
LINE
  5
69C
330
1F
100
AcDbEntity
  8
001
  6
CENTER
370
     9
100
AcDbLine
 10
104.901899
 20
97.693082
 30
0.0
 11
111.583895
 21
97.693082
 31
0.0
  0
LINE
  5
69D
330
1F
100
AcDbEntity
  8
001
  6
CENTER
370
     9
100
AcDbLine
 10
104.901899
 20
135.713082
 30
0.0
 11
111.583895
 21
135.713082
 31
0.0
  0
LINE
  5
69E
330
1F
100
AcDbEntity
  8
001
370
    50
100
AcDbLine
 10
12.928492
 20
46.322064
 30
0.0
 11
57.928492
 21
46.322064
 31
0.0
  0
LINE
  5
69F
330
1F
100
AcDbEntity
  8
001
370
    50
100
AcDbLine
 10
49.928492
 20
45.322064
 30
0.0
 11
49.928492
 21
26.822064
 31
0.0
  0
LINE
  5
6A0
330
1F
100
AcDbEntity
  8
001
370
    50
100
AcDbLine
 10
20.928492
 20
45.322064
 30
0.0
 11
20.928492
 21
26.822064
 31
0.0
  0
LINE
  5
6A1
330
1F
100
AcDbEntity
  8
001
370
    50
100
AcDbLine
 10
20.928492
 20
26.822064
 30
0.0
 11
49.928492
 21
26.822064
 31
0.0
  0
LINE
  5
6A2
330
1F
100
AcDbEntity
  8
001
370
    50
100
AcDbLine
 10
57.928492
 20
16.322064
 30
0.0
 11
12.928492
 21
16.322064
 31
0.0
  0
LINE
  5
6A3
330
1F
100
AcDbEntity
  8
001
  6
CENTER
370
     9
100
AcDbLine
 10
35.428492
 20
48.700429
 30
0.0
 11
35.428492
 21
13.534599
 31
0.0
  0
LINE
  5
6A4
330
1F
100
AcDbEntity
  8
001
370
    50
100
AcDbLine
 10
45.428492
 20
26.322064
 30
0.0
 11
45.428492
 21
16.322064
 31
0.0
  0
LINE
  5
6A5
330
1F
100
AcDbEntity
  8
001
370
    50
100
AcDbLine
 10
25.428492
 20
26.322064
 30
0.0
 11
25.428492
 21
16.322064
 31
0.0
  0
LINE
  5
6A6
330
1F
100
AcDbEntity
  8
001
370
    50
100
AcDbLine
 10
20.928492
 20
45.322064
 30
0.0
 11
19.928492
 21
46.322064
 31
0.0
  0
LINE
  5
6A7
330
1F
100
AcDbEntity
  8
001
370
    50
100
AcDbLine
 10
45.428492
 20
26.322064
 30
0.0
 11
45.928492
 21
26.822064
 31
0.0
  0
LINE
  5
6A8
330
1F
100
AcDbEntity
  8
001
370
    50
100
AcDbLine
 10
25.428492
 20
26.322064
 30
0.0
 11
24.928492
 21
26.822064
 31
0.0
  0
LINE
  5
6A9
330
1F
100
AcDbEntity
  8
001
370
    50
100
AcDbLine
 10
20.928492
 20
45.322064
 30
0.0
 11
49.928492
 21
45.322064
 31
0.0
  0
LINE
  5
6AA
330
1F
100
AcDbEntity
  8
001
370
    50
100
AcDbLine
 10
25.428492
 20
26.322064
 30
0.0
 11
45.428492
 21
26.322064
 31
0.0
  0
LINE
  5
6AB
330
1F
100
AcDbEntity
  8
001
370
    50
100
AcDbLine
 10
49.928492
 20
45.322064
 30
0.0
 11
50.928492
 21
46.322064
 31
0.0
  0
LINE
  5
6AC
330
1F
100
AcDbEntity
  8
001
370
     9
100
AcDbLine
 10
41.698195
 20
4.281821
 30
0.0
 11
30.380982
 21
4.281821
 31
0.0
  0
TEXT
  5
6AD
330
1F
100
AcDbEntity
  8
001
370
    30
100
AcDbText
 10
30.770901
 20
4.523933
 30
0.0
 40
2.666667
  1
加工形状
 41
0.833333
100
AcDbText
  0
TEXT
  5
6AE
330
1F
100
AcDbEntity
  8
001
370
    30
100
AcDbText
 10
21.610649
 20
158.829232
 30
0.0
 40
10.0
  1
イーグルカット　ＥＣ３２－２９ＸＳ－Ｍ１８
 41
0.833333
100
AcDbText
  0
ENDSEC
  0
SECTION
  2
OBJECTS
  0
DICTIONARY
  5
C
330
0
100
AcDbDictionary
281
     1
  3
ACAD_GROUP
350
D
  3
ACAD_LAYOUT
350
1A
  3
ACAD_MLEADERSTYLE
350
6B2
  3
ACAD_MLINESTYLE
350
17
  3
ACAD_PLOTSETTINGS
350
19
  3
ACAD_PLOTSTYLENAME
350
E
  3
ACAD_SCALELIST
350
3B
  3
ACAD_TABLESTYLE
350
6B1
  3
ACAD_VISUALSTYLE
350
2A
  3
AcDbVariableDictionary
350
6AF
  0
DICTIONARY
  5
D
102
{ACAD_REACTORS
330
C
102
}
330
C
100
AcDbDictionary
281
     1
  0
DICTIONARY
  5
1A
102
{ACAD_REACTORS
330
C
102
}
330
C
100
AcDbDictionary
281
     1
  3
Layout1
350
1E
  3
Layout2
350
26
  3
Model
350
22
  0
DICTIONARY
  5
6B2
102
{ACAD_REACTORS
330
C
102
}
330
C
100
AcDbDictionary
281
     1
  0
DICTIONARY
  5
17
102
{ACAD_REACTORS
330
C
102
}
330
C
100
AcDbDictionary
281
     1
  3
Standard
350
18
  0
DICTIONARY
  5
19
102
{ACAD_REACTORS
330
C
102
}
330
C
100
AcDbDictionary
281
     1
  0
ACDBDICTIONARYWDFLT
  5
E
102
{ACAD_REACTORS
330
C
102
}
330
C
100
AcDbDictionary
281
     1
  3
Normal
350
F
100
AcDbDictionaryWithDefault
340
F
  0
DICTIONARY
  5
3B
102
{ACAD_REACTORS
330
C
102
}
330
C
100
AcDbDictionary
281
     1
  3
A0
350
3C
  3
A1
350
3D
  3
A2
350
3E
  3
A3
350
3F
  3
A4
350
40
  3
A5
350
41
  3
A6
350
42
  3
A7
350
43
  3
A8
350
44
  3
A9
350
45
  3
B0
350
46
  3
B1
350
47
  3
B2
350
48
  3
B3
350
49
  3
B4
350
4A
  3
B5
350
4B
  3
B6
350
4C
  3
B7
350
4D
  3
B8
350
4E
  3
B9
350
4F
  3
C0
350
50
  3
C1
350
51
  3
C2
350
52
  3
C3
350
53
  3
C4
350
54
  3
C5
350
55
  3
C6
350
56
  3
C7
350
57
  3
C8
350
58
  3
C9
350
59
  3
D0
350
5A
  3
D1
350
5B
  3
D2
350
5C
  0
DICTIONARY
  5
6B1
102
{ACAD_REACTORS
330
C
102
}
330
C
100
AcDbDictionary
281
     1
  0
DICTIONARY
  5
2A
102
{ACAD_REACTORS
330
C
102
}
330
C
100
AcDbDictionary
281
     1
  3
2dWireframe
350
2F
  3
3D Hidden
350
31
  3
3dWireframe
350
30
  3
Basic
350
32
  3
Brighten
350
36
  3
ColorChange
350
3A
  3
Conceptual
350
34
  3
Dim
350
35
  3
Facepattern
350
39
  3
Flat
350
2B
  3
FlatWithEdges
350
2C
  3
Gouraud
350
2D
  3
GouraudWithEdges
350
2E
  3
Linepattern
350
38
  3
Realistic
350
33
  3
Thicken
350
37
  0
DICTIONARY
  5
6AF
102
{ACAD_REACTORS
330
C
102
}
330
C
100
AcDbDictionary
281
     1
  3
CANNOSCALE
350
6B0
  3
PSOLHEIGHT
350
6B4
  3
PSOLWIDTH
350
6B3
  0
LAYOUT
  5
1E
102
{ACAD_REACTORS
330
1A
102
}
330
1A
100
AcDbPlotSettings
  1

  2
none_device
  4

  6

 40
0.0
 41
0.0
 42
0.0
 43
0.0
 44
0.0
 45
0.0
 46
0.0
 47
0.0
 48
0.0
 49
0.0
140
0.0
141
0.0
142
1.0
143
1.0
 70
   688
 72
     0
 73
     0
 74
     5
  7

 75
    16
147
1.0
148
0.0
149
0.0
100
AcDbLayout
  1
Layout1
 70
     1
 71
     1
 10
0.0
 20
0.0
 11
12.0
 21
9.0
 12
0.0
 22
0.0
 32
0.0
 14
1.000000E+20
 24
1.000000E+20
 34
0.0
 15
-1.000000E+20
 25
-1.000000E+20
 35
0.0
146
0.0
 13
0.0
 23
0.0
 33
0.0
 16
1.0
 26
0.0
 36
0.0
 17
0.0
 27
1.0
 37
0.0
 76
     0
330
1B
  0
LAYOUT
  5
26
102
{ACAD_REACTORS
330
1A
102
}
330
1A
100
AcDbPlotSettings
  1

  2
none_device
  4

  6

 40
0.0
 41
0.0
 42
0.0
 43
0.0
 44
0.0
 45
0.0
 46
0.0
 47
0.0
 48
0.0
 49
0.0
140
0.0
141
0.0
142
1.0
143
1.0
 70
   688
 72
     0
 73
     0
 74
     5
  7

 75
    16
147
1.0
148
0.0
149
0.0
100
AcDbLayout
  1
Layout2
 70
     1
 71
     2
 10
0.0
 20
0.0
 11
0.0
 21
0.0
 12
0.0
 22
0.0
 32
0.0
 14
0.0
 24
0.0
 34
0.0
 15
0.0
 25
0.0
 35
0.0
146
0.0
 13
0.0
 23
0.0
 33
0.0
 16
1.0
 26
0.0
 36
0.0
 17
0.0
 27
1.0
 37
0.0
 76
     0
330
23
  0
LAYOUT
  5
22
102
{ACAD_REACTORS
330
1A
102
}
330
1A
100
AcDbPlotSettings
  1

  2
none_device
  4

  6

 40
0.0
 41
0.0
 42
0.0
 43
0.0
 44
0.0
 45
0.0
 46
0.0
 47
0.0
 48
0.0
 49
0.0
140
0.0
141
0.0
142
1.0
143
1.0
 70
  1712
 72
     0
 73
     0
 74
     0
  7

 75
     0
147
1.0
148
0.0
149
0.0
100
AcDbLayout
  1
Model
 70
     1
 71
     0
 10
0.0
 20
0.0
 11
12.0
 21
9.0
 12
0.0
 22
0.0
 32
0.0
 14
12.92849
 24
4.281815
 34
0.0
 15
252.689056
 25
168.829239
 35
0.0
146
0.0
 13
0.0
 23
0.0
 33
0.0
 16
1.0
 26
0.0
 36
0.0
 17
0.0
 27
1.0
 37
0.0
 76
     0
330
1F
331
29
  0
MLINESTYLE
  5
18
102
{ACAD_REACTORS
330
17
102
}
330
17
100
AcDbMlineStyle
  2
Standard
 70
     0
  3

 62
   256
 51
90.0
 52
90.0
 71
     2
 49
0.5
 62
   256
  6
BYLAYER
 49
-0.5
 62
   256
  6
BYLAYER
  0
ACDBPLACEHOLDER
  5
F
102
{ACAD_REACTORS
330
E
102
}
330
E
  0
SCALE
  5
3C
102
{ACAD_REACTORS
330
3B
102
}
330
3B
100
AcDbScale
 70
     0
300
1:1
140
1.0
141
1.0
290
     1
  0
SCALE
  5
3D
102
{ACAD_REACTORS
330
3B
102
}
330
3B
100
AcDbScale
 70
     0
300
1:2
140
1.0
141
2.0
290
     0
  0
SCALE
  5
3E
102
{ACAD_REACTORS
330
3B
102
}
330
3B
100
AcDbScale
 70
     0
300
1:4
140
1.0
141
4.0
290
     0
  0
SCALE
  5
3F
102
{ACAD_REACTORS
330
3B
102
}
330
3B
100
AcDbScale
 70
     0
300
1:5
140
1.0
141
5.0
290
     0
  0
SCALE
  5
40
102
{ACAD_REACTORS
330
3B
102
}
330
3B
100
AcDbScale
 70
     0
300
1:8
140
1.0
141
8.0
290
     0
  0
SCALE
  5
41
102
{ACAD_REACTORS
330
3B
102
}
330
3B
100
AcDbScale
 70
     0
300
1:10
140
1.0
141
10.0
290
     0
  0
SCALE
  5
42
102
{ACAD_REACTORS
330
3B
102
}
330
3B
100
AcDbScale
 70
     0
300
1:16
140
1.0
141
16.0
290
     0
  0
SCALE
  5
43
102
{ACAD_REACTORS
330
3B
102
}
330
3B
100
AcDbScale
 70
     0
300
1:20
140
1.0
141
20.0
290
     0
  0
SCALE
  5
44
102
{ACAD_REACTORS
330
3B
102
}
330
3B
100
AcDbScale
 70
     0
300
1:30
140
1.0
141
30.0
290
     0
  0
SCALE
  5
45
102
{ACAD_REACTORS
330
3B
102
}
330
3B
100
AcDbScale
 70
     0
300
1:40
140
1.0
141
40.0
290
     0
  0
SCALE
  5
46
102
{ACAD_REACTORS
330
3B
102
}
330
3B
100
AcDbScale
 70
     0
300
1:50
140
1.0
141
50.0
290
     0
  0
SCALE
  5
47
102
{ACAD_REACTORS
330
3B
102
}
330
3B
100
AcDbScale
 70
     0
300
1:100
140
1.0
141
100.0
290
     0
  0
SCALE
  5
48
102
{ACAD_REACTORS
330
3B
102
}
330
3B
100
AcDbScale
 70
     0
300
2:1
140
2.0
141
1.0
290
     0
  0
SCALE
  5
49
102
{ACAD_REACTORS
330
3B
102
}
330
3B
100
AcDbScale
 70
     0
300
4:1
140
4.0
141
1.0
290
     0
  0
SCALE
  5
4A
102
{ACAD_REACTORS
330
3B
102
}
330
3B
100
AcDbScale
 70
     0
300
8:1
140
8.0
141
1.0
290
     0
  0
SCALE
  5
4B
102
{ACAD_REACTORS
330
3B
102
}
330
3B
100
AcDbScale
 70
     0
300
10:1
140
10.0
141
1.0
290
     0
  0
SCALE
  5
4C
102
{ACAD_REACTORS
330
3B
102
}
330
3B
100
AcDbScale
 70
     0
300
100:1
140
100.0
141
1.0
290
     0
  0
SCALE
  5
4D
102
{ACAD_REACTORS
330
3B
102
}
330
3B
100
AcDbScale
 70
     0
300
1/128" = 1'-0"
140
0.007812
141
12.0
290
     0
  0
SCALE
  5
4E
102
{ACAD_REACTORS
330
3B
102
}
330
3B
100
AcDbScale
 70
     0
300
1/64" = 1'-0"
140
0.015625
141
12.0
290
     0
  0
SCALE
  5
4F
102
{ACAD_REACTORS
330
3B
102
}
330
3B
100
AcDbScale
 70
     0
300
1/32" = 1'-0"
140
0.03125
141
12.0
290
     0
  0
SCALE
  5
50
102
{ACAD_REACTORS
330
3B
102
}
330
3B
100
AcDbScale
 70
     0
300
1/16" = 1'-0"
140
0.0625
141
12.0
290
     0
  0
SCALE
  5
51
102
{ACAD_REACTORS
330
3B
102
}
330
3B
100
AcDbScale
 70
     0
300
3/32" = 1'-0"
140
0.09375
141
12.0
290
     0
  0
SCALE
  5
52
102
{ACAD_REACTORS
330
3B
102
}
330
3B
100
AcDbScale
 70
     0
300
1/8" = 1'-0"
140
0.125
141
12.0
290
     0
  0
SCALE
  5
53
102
{ACAD_REACTORS
330
3B
102
}
330
3B
100
AcDbScale
 70
     0
300
3/16" = 1'-0"
140
0.1875
141
12.0
290
     0
  0
SCALE
  5
54
102
{ACAD_REACTORS
330
3B
102
}
330
3B
100
AcDbScale
 70
     0
300
1/4" = 1'-0"
140
0.25
141
12.0
290
     0
  0
SCALE
  5
55
102
{ACAD_REACTORS
330
3B
102
}
330
3B
100
AcDbScale
 70
     0
300
3/8" = 1'-0"
140
0.375
141
12.0
290
     0
  0
SCALE
  5
56
102
{ACAD_REACTORS
330
3B
102
}
330
3B
100
AcDbScale
 70
     0
300
1/2" = 1'-0"
140
0.5
141
12.0
290
     0
  0
SCALE
  5
57
102
{ACAD_REACTORS
330
3B
102
}
330
3B
100
AcDbScale
 70
     0
300
3/4" = 1'-0"
140
0.75
141
12.0
290
     0
  0
SCALE
  5
58
102
{ACAD_REACTORS
330
3B
102
}
330
3B
100
AcDbScale
 70
     0
300
1" = 1'-0"
140
1.0
141
12.0
290
     0
  0
SCALE
  5
59
102
{ACAD_REACTORS
330
3B
102
}
330
3B
100
AcDbScale
 70
     0
300
1-1/2" = 1'-0"
140
1.5
141
12.0
290
     0
  0
SCALE
  5
5A
102
{ACAD_REACTORS
330
3B
102
}
330
3B
100
AcDbScale
 70
     0
300
3" = 1'-0"
140
3.0
141
12.0
290
     0
  0
SCALE
  5
5B
102
{ACAD_REACTORS
330
3B
102
}
330
3B
100
AcDbScale
 70
     0
300
6" = 1'-0"
140
6.0
141
12.0
290
     0
  0
SCALE
  5
5C
102
{ACAD_REACTORS
330
3B
102
}
330
3B
100
AcDbScale
 70
     0
300
1'-0" = 1'-0"
140
12.0
141
12.0
290
     0
  0
VISUALSTYLE
  5
2F
102
{ACAD_REACTORS
330
2A
102
}
330
2A
100
AcDbVisualStyle
  2
2dWireframe
 70
     4
 71
     0
 72
     2
 73
     0
 90
        0
 40
-0.6
 41
-30.0
 62
     5
 63
     7
 74
     1
 91
        4
 64
     7
 65
   257
 75
     1
175
     1
 42
1.0
 92
        0
 66
   257
 43
1.0
 76
     1
 77
     6
 78
     2
 67
     7
 79
     5
170
     0
171
     0
290
     0
174
     0
 93
        1
 44
0.0
173
     0
291
     0
 45
0.0
1001
ACAD
1000
AcDbSavedByObjectVersion
1070
     0
  0
VISUALSTYLE
  5
31
102
{ACAD_REACTORS
330
2A
102
}
330
2A
100
AcDbVisualStyle
  2
3D Hidden
 70
     6
 71
     1
 72
     2
 73
     2
 90
        0
 40
-0.6
 41
-30.0
 62
     5
 63
     7
 74
     2
 91
        2
 64
     7
 65
   257
 75
     2
175
     1
 42
40.0
 92
        0
 66
   257
 43
1.0
 76
     1
 77
     6
 78
     2
 67
     7
 79
     3
170
     0
171
     0
290
     0
174
     0
 93
        1
 44
0.0
173
     0
291
     0
 45
0.0
1001
ACAD
1000
AcDbSavedByObjectVersion
1070
     0
  0
VISUALSTYLE
  5
30
102
{ACAD_REACTORS
330
2A
102
}
330
2A
100
AcDbVisualStyle
  2
3dWireframe
 70
     5
 71
     0
 72
     2
 73
     0
 90
        0
 40
-0.6
 41
-30.0
 62
     5
 63
     7
 74
     1
 91
        4
 64
     7
 65
   257
 75
     1
175
     1
 42
1.0
 92
        0
 66
   257
 43
1.0
 76
     1
 77
     6
 78
     2
 67
     7
 79
     5
170
     0
171
     0
290
     0
174
     0
 93
        1
 44
0.0
173
     0
291
     0
 45
0.0
1001
ACAD
1000
AcDbSavedByObjectVersion
1070
     0
  0
VISUALSTYLE
  5
32
102
{ACAD_REACTORS
330
2A
102
}
330
2A
100
AcDbVisualStyle
  2
Basic
 70
     7
 71
     1
 72
     0
 73
     1
 90
        0
 40
-0.6
 41
-30.0
 62
     5
 63
     7
 74
     0
 91
        4
 64
     7
 65
   257
 75
     1
175
     1
 42
1.0
 92
        8
 66
     7
 43
1.0
 76
     1
 77
     6
 78
     2
 67
     7
 79
     5
170
     0
171
     0
290
     0
174
     0
 93
        1
 44
0.0
173
     0
291
     1
 45
0.0
1001
ACAD
1000
AcDbSavedByObjectVersion
1070
     0
  0
VISUALSTYLE
  5
36
102
{ACAD_REACTORS
330
2A
102
}
330
2A
100
AcDbVisualStyle
  2
Brighten
 70
    12
 71
     2
 72
     2
 73
     0
 90
        0
 40
-0.6
 41
-30.0
 62
     5
 63
     7
 74
     1
 91
        4
 64
     7
 65
   257
 75
     1
175
     1
 42
1.0
 92
        8
 66
     7
 43
1.0
 76
     1
 77
     6
 78
     2
 67
     7
 79
     5
170
     0
171
     0
290
     0
174
     0
 93
        1
 44
50.0
173
     0
291
     1
 45
0.0
1001
ACAD
1000
AcDbSavedByObjectVersion
1070
     0
  0
VISUALSTYLE
  5
3A
102
{ACAD_REACTORS
330
2A
102
}
330
2A
100
AcDbVisualStyle
  2
ColorChange
 70
    16
 71
     2
 72
     2
 73
     3
 90
        0
 40
-0.6
 41
-30.0
 62
     5
 63
     8
 74
     1
 91
        4
 64
     7
 65
   257
 75
     1
175
     1
 42
1.0
 92
        8
 66
     8
 43
1.0
 76
     1
 77
     6
 78
     2
 67
     7
 79
     5
170
     0
171
     0
290
     0
174
     0
 93
        1
 44
0.0
173
     0
291
     1
 45
0.0
1001
ACAD
1000
AcDbSavedByObjectVersion
1070
     0
  0
VISUALSTYLE
  5
34
102
{ACAD_REACTORS
330
2A
102
}
330
2A
100
AcDbVisualStyle
  2
Conceptual
 70
     9
 71
     3
 72
     2
 73
     0
 90
        0
 40
-0.6
 41
-30.0
 62
     5
 63
     7
 74
     2
 91
        2
 64
     7
 65
   257
 75
     1
175
     1
 42
40.0
 92
        8
 66
     7
 43
1.0
 76
     1
 77
     6
 78
     2
 67
     7
 79
     3
170
     0
171
     0
290
     0
174
     0
 93
        1
 44
0.0
173
     0
291
     0
 45
0.0
1001
ACAD
1000
AcDbSavedByObjectVersion
1070
     0
  0
VISUALSTYLE
  5
35
102
{ACAD_REACTORS
330
2A
102
}
330
2A
100
AcDbVisualStyle
  2
Dim
 70
    11
 71
     2
 72
     2
 73
     0
 90
        0
 40
-0.6
 41
-30.0
 62
     5
 63
     7
 74
     1
 91
        4
 64
     7
 65
   257
 75
     1
175
     1
 42
1.0
 92
        8
 66
     7
 43
1.0
 76
     1
 77
     6
 78
     2
 67
     7
 79
     5
170
     0
171
     0
290
     0
174
     0
 93
        1
 44
-50.0
173
     0
291
     1
 45
0.0
1001
ACAD
1000
AcDbSavedByObjectVersion
1070
     0
  0
VISUALSTYLE
  5
39
102
{ACAD_REACTORS
330
2A
102
}
330
2A
100
AcDbVisualStyle
  2
Facepattern
 70
    15
 71
     2
 72
     2
 73
     0
 90
        0
 40
-0.6
 41
-30.0
 62
     5
 63
     7
 74
     1
 91
        4
 64
     7
 65
   257
 75
     1
175
     1
 42
1.0
 92
        8
 66
     7
 43
1.0
 76
     1
 77
     6
 78
     2
 67
     7
 79
     5
170
     0
171
     0
290
     0
174
     0
 93
        1
 44
0.0
173
     0
291
     1
 45
0.0
1001
ACAD
1000
AcDbSavedByObjectVersion
1070
     0
  0
VISUALSTYLE
  5
2B
102
{ACAD_REACTORS
330
2A
102
}
330
2A
100
AcDbVisualStyle
  2
Flat
 70
     0
 71
     2
 72
     1
 73
     1
 90
        2
 40
-0.6
 41
30.0
 62
     5
 63
     7
 74
     0
 91
        4
 64
     7
 65
   257
 75
     1
175
     1
 42
1.0
 92
        8
 66
     7
 43
1.0
 76
     1
 77
     6
 78
     2
 67
     7
 79
     5
170
     0
171
     0
290
     0
174
     0
 93
       13
 44
0.0
173
     0
291
     1
 45
0.0
1001
ACAD
1000
AcDbSavedByObjectVersion
1070
     0
  0
VISUALSTYLE
  5
2C
102
{ACAD_REACTORS
330
2A
102
}
330
2A
100
AcDbVisualStyle
  2
FlatWithEdges
 70
     1
 71
     2
 72
     1
 73
     1
 90
        2
 40
-0.6
 41
30.0
 62
     5
 63
     7
 74
     1
 91
        4
 64
     7
 65
   257
 75
     1
175
     1
 42
1.0
 92
        0
 66
   257
 43
1.0
 76
     1
 77
     6
 78
     2
 67
     7
 79
     5
170
     0
171
     0
290
     0
174
     0
 93
       13
 44
0.0
173
     0
291
     1
 45
0.0
1001
ACAD
1000
AcDbSavedByObjectVersion
1070
     0
  0
VISUALSTYLE
  5
2D
102
{ACAD_REACTORS
330
2A
102
}
330
2A
100
AcDbVisualStyle
  2
Gouraud
 70
     2
 71
     2
 72
     2
 73
     1
 90
        2
 40
-0.6
 41
30.0
 62
     5
 63
     7
 74
     0
 91
        4
 64
     7
 65
   257
 75
     1
175
     1
 42
1.0
 92
        0
 66
     7
 43
1.0
 76
     1
 77
     6
 78
     2
 67
     7
 79
     5
170
     0
171
     0
290
     0
174
     0
 93
       13
 44
0.0
173
     0
291
     1
 45
0.0
1001
ACAD
1000
AcDbSavedByObjectVersion
1070
     0
  0
VISUALSTYLE
  5
2E
102
{ACAD_REACTORS
330
2A
102
}
330
2A
100
AcDbVisualStyle
  2
GouraudWithEdges
 70
     3
 71
     2
 72
     2
 73
     1
 90
        2
 40
-0.6
 41
30.0
 62
     5
 63
     7
 74
     1
 91
        4
 64
     7
 65
   257
 75
     1
175
     1
 42
1.0
 92
        0
 66
   257
 43
1.0
 76
     1
 77
     6
 78
     2
 67
     7
 79
     5
170
     0
171
     0
290
     0
174
     0
 93
       13
 44
0.0
173
     0
291
     1
 45
0.0
1001
ACAD
1000
AcDbSavedByObjectVersion
1070
     0
  0
VISUALSTYLE
  5
38
102
{ACAD_REACTORS
330
2A
102
}
330
2A
100
AcDbVisualStyle
  2
Linepattern
 70
    14
 71
     2
 72
     2
 73
     0
 90
        0
 40
-0.6
 41
-30.0
 62
     5
 63
     7
 74
     1
 91
        4
 64
     7
 65
   257
 75
     7
175
     7
 42
1.0
 92
        8
 66
     7
 43
1.0
 76
     1
 77
     6
 78
     2
 67
     7
 79
     5
170
     0
171
     0
290
     0
174
     0
 93
        1
 44
0.0
173
     0
291
     1
 45
0.0
1001
ACAD
1000
AcDbSavedByObjectVersion
1070
     0
  0
VISUALSTYLE
  5
33
102
{ACAD_REACTORS
330
2A
102
}
330
2A
100
AcDbVisualStyle
  2
Realistic
 70
     8
 71
     2
 72
     2
 73
     0
 90
        0
 40
-0.6
 41
-30.0
 62
     5
 63
     7
 74
     1
 91
        0
 64
     7
 65
   257
 75
     1
175
     1
 42
1.0
 92
        8
 66
     8
 43
1.0
 76
     1
 77
     6
 78
     2
 67
     7
 79
     5
170
     0
171
     0
290
     0
174
     0
 93
       13
 44
0.0
173
     0
291
     0
 45
0.0
1001
ACAD
1000
AcDbSavedByObjectVersion
1070
     0
  0
VISUALSTYLE
  5
37
102
{ACAD_REACTORS
330
2A
102
}
330
2A
100
AcDbVisualStyle
  2
Thicken
 70
    13
 71
     2
 72
     2
 73
     0
 90
        0
 40
-0.6
 41
-30.0
 62
     5
 63
     7
 74
     1
 91
        4
 64
     7
 65
   257
 75
     1
175
     1
 42
1.0
 92
       12
 66
     7
 43
1.0
 76
     1
 77
     6
 78
     2
 67
     7
 79
     5
170
     0
171
     0
290
     0
174
     0
 93
        1
 44
0.0
173
     0
291
     1
 45
0.0
1001
ACAD
1000
AcDbSavedByObjectVersion
1070
     0
  0
DICTIONARYVAR
  5
6B0
102
{ACAD_REACTORS
330
6AF
102
}
330
6AF
100
DictionaryVariables
280
     0
  1
1:1
  0
DICTIONARYVAR
  5
6B4
102
{ACAD_REACTORS
330
6AF
102
}
330
6AF
100
DictionaryVariables
280
     0
  1
80.000000
  0
DICTIONARYVAR
  5
6B3
102
{ACAD_REACTORS
330
6AF
102
}
330
6AF
100
DictionaryVariables
280
     0
  1
5.000000
  0
ENDSEC
  0
EOF
