  0
SECTION
  2
HEADER
  9
$ACADVER
  1
AC1014
  9
$ACADMAINTVER
 70
     9
  9
$DWGCODEPAGE
  3
ANSI_932
  9
$INSBASE
 10
0.0
 20
0.0
 30
0.0
  9
$EXTMIN
 10
18.39240264892578
 20
14.29699024382031
 30
0.0
  9
$EXTMAX
 10
285.3659279738426
 20
109.5854145050049
 30
0.0
  9
$LIMMIN
 10
18.39240264892578
 20
14.29699024382031
  9
$LIMMAX
 10
285.3659279738426
 20
109.7354145050049
  9
$ORTHOMODE
 70
     0
  9
$REGENMODE
 70
     1
  9
$FILLMODE
 70
     1
  9
$QTEXTMODE
 70
     0
  9
$MIRRTEXT
 70
     1
  9
$DRAGMODE
 70
     2
  9
$LTSCALE
 40
0.1156184558493735
  9
$OSMODE
 70
   511
  9
$ATTMODE
 70
     1
  9
$TEXTSIZE
 40
2.5
  9
$TRACEWID
 40
1.0
  9
$TEXTSTYLE
  7
STANDARD
  9
$CLAYER
  8
0
  9
$CELTYPE
  6
BYLAYER
  9
$CECOLOR
 62
   256
  9
$CELTSCALE
 40
1.0
  9
$DELOBJ
 70
     1
  9
$DISPSILH
 70
     0
  9
$DIMSCALE
 40
1.0
  9
$DIMASZ
 40
2.5
  9
$DIMEXO
 40
0.625
  9
$DIMDLI
 40
3.75
  9
$DIMRND
 40
0.0
  9
$DIMDLE
 40
0.0
  9
$DIMEXE
 40
1.25
  9
$DIMTP
 40
0.0
  9
$DIMTM
 40
0.0
  9
$DIMTXT
 40
2.5
  9
$DIMCEN
 40
2.5
  9
$DIMTSZ
 40
0.0
  9
$DIMTOL
 70
     0
  9
$DIMLIM
 70
     0
  9
$DIMTIH
 70
     0
  9
$DIMTOH
 70
     0
  9
$DIMSE1
 70
     0
  9
$DIMSE2
 70
     0
  9
$DIMTAD
 70
     1
  9
$DIMZIN
 70
     0
  9
$DIMBLK
  1

  9
$DIMASO
 70
     1
  9
$DIMSHO
 70
     1
  9
$DIMPOST
  1

  9
$DIMAPOST
  1

  9
$DIMALT
 70
     0
  9
$DIMALTD
 70
     3
  9
$DIMALTF
 40
0.03937007874016
  9
$DIMLFAC
 40
1.0
  9
$DIMTOFL
 70
     1
  9
$DIMTVP
 40
0.0
  9
$DIMTIX
 70
     0
  9
$DIMSOXD
 70
     0
  9
$DIMSAH
 70
     0
  9
$DIMBLK1
  1

  9
$DIMBLK2
  1

  9
$DIMSTYLE
  2
STANDARD
  9
$DIMCLRD
 70
     0
  9
$DIMCLRE
 70
     0
  9
$DIMCLRT
 70
     0
  9
$DIMTFAC
 40
0.75
  9
$DIMGAP
 40
0.625
  9
$DIMJUST
 70
     0
  9
$DIMSD1
 70
     0
  9
$DIMSD2
 70
     0
  9
$DIMTOLJ
 70
     0
  9
$DIMTZIN
 70
     8
  9
$DIMALTZ
 70
     0
  9
$DIMALTTZ
 70
     0
  9
$DIMFIT
 70
     3
  9
$DIMUPT
 70
     0
  9
$DIMUNIT
 70
     2
  9
$DIMDEC
 70
     2
  9
$DIMTDEC
 70
     2
  9
$DIMALTU
 70
     2
  9
$DIMALTTD
 70
     3
  9
$DIMTXSTY
  7
STANDARD
  9
$DIMAUNIT
 70
     0
  9
$LUNITS
 70
     2
  9
$LUPREC
 70
     4
  9
$SKETCHINC
 40
1.0
  9
$FILLETRAD
 40
10.0
  9
$AUNITS
 70
     0
  9
$AUPREC
 70
     0
  9
$MENU
  1
.
  9
$ELEVATION
 40
0.0
  9
$PELEVATION
 40
0.0
  9
$THICKNESS
 40
0.0
  9
$LIMCHECK
 70
     0
  9
$CHAMFERA
 40
10.0
  9
$CHAMFERB
 40
10.0
  9
$CHAMFERC
 40
20.0
  9
$CHAMFERD
 40
0.0
  9
$SKPOLY
 70
     0
  9
$TDCREATE
 40
2455188.75
  9
$TDUPDATE
 40
2457855.599517245
  9
$TDINDWG
 40
0.0006199769
  9
$TDUSRTIMER
 40
2457855.223897466
  9
$USRTIMER
 70
     1
  9
$ANGBASE
 50
0.0
  9
$ANGDIR
 70
     0
  9
$PDMODE
 70
     0
  9
$PDSIZE
 40
0.0
  9
$PLINEWID
 40
0.0
  9
$COORDS
 70
     1
  9
$SPLFRAME
 70
     0
  9
$SPLINETYPE
 70
     6
  9
$SPLINESEGS
 70
     8
  9
$ATTDIA
 70
     0
  9
$ATTREQ
 70
     1
  9
$HANDLING
 70
     1
  9
$HANDSEED
  5
1D0
  9
$SURFTAB1
 70
     6
  9
$SURFTAB2
 70
     6
  9
$SURFTYPE
 70
     6
  9
$SURFU
 70
     6
  9
$SURFV
 70
     6
  9
$UCSNAME
  2

  9
$UCSORG
 10
0.0
 20
0.0
 30
0.0
  9
$UCSXDIR
 10
1.0
 20
0.0
 30
0.0
  9
$UCSYDIR
 10
0.0
 20
1.0
 30
0.0
  9
$PUCSNAME
  2

  9
$PUCSORG
 10
0.0
 20
0.0
 30
0.0
  9
$PUCSXDIR
 10
1.0
 20
0.0
 30
0.0
  9
$PUCSYDIR
 10
0.0
 20
1.0
 30
0.0
  9
$USERI1
 70
     0
  9
$USERI2
 70
     0
  9
$USERI3
 70
     0
  9
$USERI4
 70
     0
  9
$USERI5
 70
     0
  9
$USERR1
 40
0.0
  9
$USERR2
 40
0.0
  9
$USERR3
 40
0.0
  9
$USERR4
 40
0.0
  9
$USERR5
 40
0.0
  9
$WORLDVIEW
 70
     1
  9
$SHADEDGE
 70
     3
  9
$SHADEDIF
 70
    70
  9
$TILEMODE
 70
     1
  9
$MAXACTVP
 70
    64
  9
$PINSBASE
 10
0.0
 20
0.0
 30
0.0
  9
$PLIMCHECK
 70
     0
  9
$PEXTMIN
 10
1.000000000000000E+20
 20
1.000000000000000E+20
 30
1.000000000000000E+20
  9
$PEXTMAX
 10
-1.000000000000000E+20
 20
-1.000000000000000E+20
 30
-1.000000000000000E+20
  9
$PLIMMIN
 10
0.0
 20
0.0
  9
$PLIMMAX
 10
0.0
 20
0.0
  9
$UNITMODE
 70
     0
  9
$VISRETAIN
 70
     1
  9
$PLINEGEN
 70
     0
  9
$PSLTSCALE
 70
     0
  9
$TREEDEPTH
 70
  3020
  9
$PICKSTYLE
 70
     1
  9
$CMLSTYLE
  2
STANDARD
  9
$CMLJUST
 70
     0
  9
$CMLSCALE
 40
20.0
  9
$PROXYGRAPHICS
 70
     1
  9
$MEASUREMENT
 70
     1
  0
ENDSEC
  0
SECTION
  2
CLASSES
  0
CLASS
  1
ACDBDICTIONARYWDFLT
  2
AcDbDictionaryWithDefault
  3
ObjectDBX Classes
 90
        0
280
     0
281
     0
  0
CLASS
  1
VISUALSTYLE
  2
AcDbVisualStyle
  3
ObjectDBX Classes
 90
     4095
280
     0
281
     0
  0
CLASS
  1
MATERIAL
  2
AcDbMaterial
  3
ObjectDBX Classes
 90
     1153
280
     0
281
     0
  0
CLASS
  1
SCALE
  2
AcDbScale
  3
ObjectDBX Classes
 90
     1153
280
     0
281
     0
  0
CLASS
  1
TABLESTYLE
  2
AcDbTableStyle
  3
ObjectDBX Classes
 90
     4095
280
     0
281
     0
  0
CLASS
  1
MLEADERSTYLE
  2
AcDbMLeaderStyle
  3
ACDB_MLEADERSTYLE_CLASS
 90
     4095
280
     0
281
     0
  0
CLASS
  1
SUN
  2
AcDbSun
  3
SCENEOE
 90
     1153
280
     0
281
     0
  0
CLASS
  1
DICTIONARYVAR
  2
AcDbDictionaryVar
  3
ObjectDBX Classes
 90
        0
280
     0
281
     0
  0
CLASS
  1
ACDBPLACEHOLDER
  2
AcDbPlaceHolder
  3
ObjectDBX Classes
 90
        0
280
     0
281
     0
  0
CLASS
  1
LAYOUT
  2
AcDbLayout
  3
ObjectDBX Classes
 90
        0
280
     0
281
     0
  0
CLASS
  1
RASTERVARIABLES
  2
AcDbRasterVariables
  3
ISM
 90
        0
280
     0
281
     0
  0
CLASS
  1
XRECORD
  2
AcDbXrecord
  3
ObjectDBX Classes
 90
        0
280
     0
281
     0
  0
CLASS
  1
LWPOLYLINE
  2
AcDbPolyline
  3
ObjectDBX Classes
 90
        0
280
     0
281
     1
  0
CLASS
  1
HATCH
  2
AcDbHatch
  3
ObjectDBX Classes
 90
        0
280
     0
281
     1
  0
ENDSEC
  0
SECTION
  2
TABLES
  0
TABLE
  2
VPORT
  5
8
330
0
100
AcDbSymbolTable
 70
     1
  0
VPORT
  5
29
330
8
100
AcDbSymbolTableRecord
100
AcDbViewportTableRecord
  2
*ACTIVE
 70
     0
 10
0.0
 20
0.0
 11
1.0
 21
1.0
 12
136.3431941220573
 22
56.34453720010835
 13
0.0
 23
0.0
 14
10.0
 24
10.0
 15
10.0
 25
10.0
 16
0.0
 26
0.0
 36
1.0
 17
0.0
 27
0.0
 37
0.0
 40
152.064
 41
2.08803611738149
 42
50.0
 43
0.0
 44
0.0
 50
0.0
 51
0.0
 71
    16
 72
   100
 73
     1
 74
     3
 75
     0
 76
     0
 77
     0
 78
     0
  0
ENDTAB
  0
TABLE
  2
LTYPE
  5
5
330
0
100
AcDbSymbolTable
 70
     7
  0
LTYPE
  5
14
330
5
100
AcDbSymbolTableRecord
100
AcDbLinetypeTableRecord
  2
BYBLOCK
 70
     0
  3

 72
    65
 73
     0
 40
0.0
  0
LTYPE
  5
15
330
5
100
AcDbSymbolTableRecord
100
AcDbLinetypeTableRecord
  2
BYLAYER
 70
     0
  3

 72
    65
 73
     0
 40
0.0
  0
LTYPE
  5
16
330
5
100
AcDbSymbolTableRecord
100
AcDbLinetypeTableRecord
  2
CONTINUOUS
 70
     0
  3
Solid line
 72
    65
 73
     0
 40
0.0
  0
LTYPE
  5
6F
330
5
100
AcDbSymbolTableRecord
100
AcDbLinetypeTableRecord
  2
DASHED
 70
     0
  3
ICAD/SX(2) Dashed __ __ __ __ __ __ __ __ __ __ __ __ __ _
 72
    65
 73
     2
 40
19.05
 49
12.7
 74
     0
 49
-6.35
 74
     0
  0
LTYPE
  5
70
330
5
100
AcDbSymbolTableRecord
100
AcDbLinetypeTableRecord
  2
CENTER
 70
     0
  3
ICAD/SX(3) Center ____ _ ____ _ ____ _ ____ _ ____ _ ____
 72
    65
 73
     4
 40
50.8
 49
31.75
 74
     0
 49
-6.35
 74
     0
 49
6.35
 74
     0
 49
-6.35
 74
     0
  0
LTYPE
  5
71
330
5
100
AcDbSymbolTableRecord
100
AcDbLinetypeTableRecord
  2
PHANTOM
 70
     0
  3
ICAD/SX(4) Phantom ______  __  __  ______  __  __  ______
 72
    65
 73
     6
 40
63.5
 49
31.75
 74
     0
 49
-6.35
 74
     0
 49
6.35
 74
     0
 49
-6.35
 74
     0
 49
6.35
 74
     0
 49
-6.35
 74
     0
  0
LTYPE
  5
72
330
5
100
AcDbSymbolTableRecord
100
AcDbLinetypeTableRecord
  2
DOT
 70
     0
  3
ICAD/SX(5) Dot . . . . . . . . . . . . . . . . . . . . . . . .
 72
    65
 73
     2
 40
6.35
 49
0.0
 74
     0
 49
-6.35
 74
     0
  0
LTYPE
  5
73
330
5
100
AcDbSymbolTableRecord
100
AcDbLinetypeTableRecord
  2
HIDDEN
 70
     0
  3
ICAD/SX(6) Hidden __ __ __ __ __ __ __ __ __ __ __ __ __ __
 72
    65
 73
     2
 40
9.525
 49
6.35
 74
     0
 49
-3.175
 74
     0
  0
LTYPE
  5
74
330
5
100
AcDbSymbolTableRecord
100
AcDbLinetypeTableRecord
  2
DOTSX
 70
     0
  3
ICAD/SX(5) Dot . . . . . . . . . . . . . . . . . . . . . . . .
 72
    65
 73
     2
 40
6.35
 49
3.175
 74
     0
 49
-3.175
 74
     0
  0
ENDTAB
  0
TABLE
  2
LAYER
  5
2
330
0
100
AcDbSymbolTable
 70
     3
  0
LAYER
  5
10
330
2
100
AcDbSymbolTableRecord
100
AcDbLayerTableRecord
  2
0
 70
     0
 62
     7
  6
CONTINUOUS
  0
LAYER
  5
75
330
2
100
AcDbSymbolTableRecord
100
AcDbLayerTableRecord
  2
NOLAYERNAME_001
 70
     0
 62
     7
  6
CONTINUOUS
  0
LAYER
  5
76
330
2
100
AcDbSymbolTableRecord
100
AcDbLayerTableRecord
  2
DEFPOINTS
 70
     0
 62
     7
  6
CONTINUOUS
  0
ENDTAB
  0
TABLE
  2
STYLE
  5
3
330
0
100
AcDbSymbolTable
 70
     2
  0
STYLE
  5
11
330
3
100
AcDbSymbolTableRecord
100
AcDbTextStyleTableRecord
  2
STANDARD
 70
     0
 40
0.0
 41
1.0
 50
0.0
 71
     0
 42
2.5
  3
txt
  4
extfont2
  0
STYLE
  5
6E
330
3
100
AcDbSymbolTableRecord
100
AcDbTextStyleTableRecord
  2

 70
     1
 40
0.0
 41
1.0
 50
0.0
 71
     0
 42
2.5
  3
ltypeshp.shx
  4

  0
ENDTAB
  0
TABLE
  2
VIEW
  5
6
330
0
100
AcDbSymbolTable
 70
     0
  0
ENDTAB
  0
TABLE
  2
UCS
  5
7
330
0
100
AcDbSymbolTable
 70
     0
  0
ENDTAB
  0
TABLE
  2
APPID
  5
9
330
0
100
AcDbSymbolTable
 70
     5
  0
APPID
  5
12
330
9
100
AcDbSymbolTableRecord
100
AcDbRegAppTableRecord
  2
ACAD
 70
     0
  0
APPID
  5
18B
330
9
100
AcDbSymbolTableRecord
100
AcDbRegAppTableRecord
  2
ACAD_DSTYLE_DIM_LINETYPE
 70
     0
  0
APPID
  5
18C
330
9
100
AcDbSymbolTableRecord
100
AcDbRegAppTableRecord
  2
ACAD_DSTYLE_DIM_EXT1_LINET
 70
     0
  0
APPID
  5
18D
330
9
100
AcDbSymbolTableRecord
100
AcDbRegAppTableRecord
  2
ACAD_DSTYLE_DIM_EXT2_LINET
 70
     0
  0
APPID
  5
1C8
330
9
100
AcDbSymbolTableRecord
100
AcDbRegAppTableRecord
  2
ACAD_MLEADERVER
 70
     0
  0
ENDTAB
  0
TABLE
  2
DIMSTYLE
  5
A
330
0
100
AcDbSymbolTable
 70
     1
  0
DIMSTYLE
105
27
102
{ACAD_REACTORS
330
BD
330
D1
330
E3
330
F1
330
FF
330
10D
330
11B
330
129
330
13E
330
14C
330
164
330
172
102
}
330
A
100
AcDbSymbolTableRecord
100
AcDbDimStyleTableRecord
  2
STANDARD
 70
     0
  3

  4

  5

  6

  7

 40
1.0
 41
2.5
 42
0.625
 43
3.75
 44
1.25
 45
0.0
 46
0.0
 47
0.0
 48
0.0
140
2.5
141
2.5
142
0.0
143
0.03937007874016
144
1.0
145
0.0
146
0.75
147
0.625
 71
     0
 72
     0
 73
     0
 74
     0
 75
     0
 76
     0
 77
     1
 78
     0
170
     0
171
     3
172
     1
173
     0
174
     0
175
     0
176
     0
177
     0
178
     0
270
     2
271
     2
272
     2
273
     2
274
     3
340
11
275
     0
280
     0
281
     0
282
     0
283
     0
284
     8
285
     0
286
     0
287
     3
288
     0
  0
ENDTAB
  0
TABLE
  2
BLOCK_RECORD
  5
1
330
0
100
AcDbSymbolTable
 70
    14
  0
BLOCK_RECORD
  5
1F
330
1
100
AcDbSymbolTableRecord
100
AcDbBlockTableRecord
  2
*MODEL_SPACE
  0
BLOCK_RECORD
  5
1B
330
1
100
AcDbSymbolTableRecord
100
AcDbBlockTableRecord
  2
*PAPER_SPACE
  0
BLOCK_RECORD
  5
23
330
1
100
AcDbSymbolTableRecord
100
AcDbBlockTableRecord
  2
*PAPER_SPACE0
  0
BLOCK_RECORD
  5
BF
330
1
100
AcDbSymbolTableRecord
100
AcDbBlockTableRecord
  2
_OPEN30
  0
BLOCK_RECORD
  5
C5
330
1
100
AcDbSymbolTableRecord
100
AcDbBlockTableRecord
  2
*D2
  0
BLOCK_RECORD
  5
D3
330
1
100
AcDbSymbolTableRecord
100
AcDbBlockTableRecord
  2
*D3
  0
BLOCK_RECORD
  5
E5
330
1
100
AcDbSymbolTableRecord
100
AcDbBlockTableRecord
  2
*D4
  0
BLOCK_RECORD
  5
F3
330
1
100
AcDbSymbolTableRecord
100
AcDbBlockTableRecord
  2
*D5
  0
BLOCK_RECORD
  5
101
330
1
100
AcDbSymbolTableRecord
100
AcDbBlockTableRecord
  2
*D6
  0
BLOCK_RECORD
  5
10F
330
1
100
AcDbSymbolTableRecord
100
AcDbBlockTableRecord
  2
*D7
  0
BLOCK_RECORD
  5
11D
330
1
100
AcDbSymbolTableRecord
100
AcDbBlockTableRecord
  2
*D8
  0
BLOCK_RECORD
  5
12B
330
1
100
AcDbSymbolTableRecord
100
AcDbBlockTableRecord
  2
*D9
  0
BLOCK_RECORD
  5
140
330
1
100
AcDbSymbolTableRecord
100
AcDbBlockTableRecord
  2
*D10
  0
BLOCK_RECORD
  5
14E
330
1
100
AcDbSymbolTableRecord
100
AcDbBlockTableRecord
  2
*D11
  0
BLOCK_RECORD
  5
166
330
1
100
AcDbSymbolTableRecord
100
AcDbBlockTableRecord
  2
*D12
  0
BLOCK_RECORD
  5
174
330
1
100
AcDbSymbolTableRecord
100
AcDbBlockTableRecord
  2
*D13
  0
ENDTAB
  0
ENDSEC
  0
SECTION
  2
BLOCKS
  0
BLOCK
  5
20
330
1F
100
AcDbEntity
  8
0
100
AcDbBlockBegin
  2
*MODEL_SPACE
 70
     0
 10
0.0
 20
0.0
 30
0.0
  3
*MODEL_SPACE
  1

  0
ENDBLK
  5
21
330
1F
100
AcDbEntity
  8
0
100
AcDbBlockEnd
  0
BLOCK
  5
1C
330
1B
100
AcDbEntity
 67
     1
  8
0
100
AcDbBlockBegin
  2
*PAPER_SPACE
 70
     0
 10
0.0
 20
0.0
 30
0.0
  3
*PAPER_SPACE
  1

  0
ENDBLK
  5
1D
330
1B
100
AcDbEntity
 67
     1
  8
0
100
AcDbBlockEnd
  0
BLOCK
  5
24
330
23
100
AcDbEntity
  8
0
100
AcDbBlockBegin
  2
*PAPER_SPACE0
 70
     0
 10
0.0
 20
0.0
 30
0.0
  3
*PAPER_SPACE0
  1
*Paper_Space0
  0
ENDBLK
  5
25
330
23
100
AcDbEntity
  8
0
100
AcDbBlockEnd
  0
BLOCK
  5
C3
330
BF
100
AcDbEntity
  8
0
100
AcDbBlockBegin
  2
_OPEN30
 70
     0
 10
0.0
 20
0.0
 30
0.0
  3
_OPEN30
  1
_OPEN30
  0
LINE
  5
C0
330
BF
100
AcDbEntity
  8
0
  6
BYBLOCK
 62
     0
100
AcDbLine
 10
-1.0
 20
0.267949
 30
0.0
 11
0.0
 21
0.0
 31
0.0
  0
LINE
  5
C1
330
BF
100
AcDbEntity
  8
0
  6
BYBLOCK
 62
     0
100
AcDbLine
 10
0.0
 20
0.0
 30
0.0
 11
-1.0
 21
-0.267949
 31
0.0
  0
LINE
  5
C2
330
BF
100
AcDbEntity
  8
0
  6
BYBLOCK
 62
     0
100
AcDbLine
 10
0.0
 20
0.0
 30
0.0
 11
-1.0
 21
0.0
 31
0.0
  0
ENDBLK
  5
C4
330
BF
100
AcDbEntity
  8
0
100
AcDbBlockEnd
  0
BLOCK
  5
C6
330
C5
100
AcDbEntity
  8
0
100
AcDbBlockBegin
  2
*D2
 70
     1
 10
0.0
 20
0.0
 30
0.0
  3
*D2
  1
*D2
  0
LINE
  5
C8
330
C5
100
AcDbEntity
  8
NOLAYERNAME_001
  6
CONTINUOUS
 62
     0
100
AcDbLine
 10
282.0676102532187
 20
66.28417101848288
 30
0.0
 11
282.0676102532187
 21
39.75396463869182
 31
0.0
  0
LINE
  5
C9
330
C5
100
AcDbEntity
  8
NOLAYERNAME_001
  6
CONTINUOUS
 62
     0
100
AcDbLine
 10
251.0676102532187
 20
60.71640665565292
 30
0.0
 11
251.0676102532187
 21
39.75396463869183
 31
0.0
  0
LINE
  5
CA
330
C5
100
AcDbEntity
  8
NOLAYERNAME_001
  6
CONTINUOUS
 62
     0
100
AcDbLine
 10
280.5676102532187
 20
42.50396463869179
 30
0.0
 11
252.5676102532187
 21
42.5039646386918
 31
0.0
  0
INSERT
  5
CB
330
C5
100
AcDbEntity
  8
NOLAYERNAME_001
 62
     0
100
AcDbBlockReference
  2
_OPEN30
 10
282.0676102532187
 20
42.50396463869179
 30
0.0
 41
1.5
 42
1.5
 43
1.5
 50
360.0
  0
INSERT
  5
CC
330
C5
100
AcDbEntity
  8
NOLAYERNAME_001
 62
     0
100
AcDbBlockReference
  2
_OPEN30
 10
251.0676102532187
 20
42.5039646386918
 30
0.0
 41
1.5
 42
1.5
 43
1.5
 50
180.0
  0
MTEXT
  5
CD
330
C5
100
AcDbEntity
  8
NOLAYERNAME_001
 62
     0
100
AcDbMText
 10
266.5676102532187
 20
45.5039646386918
 30
0.0
 40
4.0
 41
0.0
 71
     5
 72
     1
  1
31
  0
POINT
  5
CE
330
C5
100
AcDbEntity
  8
DEFPOINTS
 62
     0
100
AcDbPoint
 10
282.0676102532187
 20
66.90917101848288
 30
0.0
  0
POINT
  5
CF
330
C5
100
AcDbEntity
  8
DEFPOINTS
 62
     0
100
AcDbPoint
 10
251.0676102532187
 20
61.34140665565292
 30
0.0
  0
POINT
  5
D0
330
C5
100
AcDbEntity
  8
DEFPOINTS
 62
     0
100
AcDbPoint
 10
251.0676102532187
 20
42.5039646386918
 30
0.0
  0
ENDBLK
  5
C7
330
C5
100
AcDbEntity
  8
0
100
AcDbBlockEnd
  0
BLOCK
  5
D4
330
D3
100
AcDbEntity
  8
0
100
AcDbBlockBegin
  2
*D3
 70
     1
 10
0.0
 20
0.0
 30
0.0
  3
*D3
  1
*D3
  0
LINE
  5
D6
330
D3
100
AcDbEntity
  8
NOLAYERNAME_001
  6
CONTINUOUS
 62
     0
100
AcDbLine
 10
65.5369156023745
 20
50.33707096863054
 30
0.0
 11
65.5369156023745
 21
41.03116395526297
 31
0.0
  0
LINE
  5
D7
330
D3
100
AcDbEntity
  8
NOLAYERNAME_001
  6
CONTINUOUS
 62
     0
100
AcDbLine
 10
65.55327619506694
 20
50.33728514052082
 30
0.0
 11
65.7968764419139
 21
41.03456702906652
 31
0.0
  0
ARC
  5
D8
330
D3
100
AcDbEntity
  8
NOLAYERNAME_001
  6
CONTINUOUS
 62
     0
100
AcDbCircle
 10
65.5369156023745
 20
50.96207096863054
 30
0.0
 40
7.180907013367591
100
AcDbArc
 50
246.0195492040536
 51
258.0097746020269
  0
ARC
  5
D9
330
D3
100
AcDbEntity
  8
NOLAYERNAME_001
  6
CONTINUOUS
 62
     0
100
AcDbCircle
 10
65.5369156023745
 20
50.96207096863054
 30
0.0
 40
7.180907013367591
100
AcDbArc
 50
283.4902253979743
 51
295.4804507959474
  0
ARC
  5
DA
330
D3
100
AcDbEntity
  8
NOLAYERNAME_001
  6
CONTINUOUS
 62
     0
100
AcDbCircle
 10
65.5369156023745
 20
50.96207096863054
 30
0.0
 40
7.180907013367591
100
AcDbArc
 50
270.0
 51
271.500000000001
  0
INSERT
  5
DB
330
D3
100
AcDbEntity
  8
NOLAYERNAME_001
 62
     0
100
AcDbBlockReference
  2
_OPEN30
 10
65.5369156023745
 20
43.78116395526295
 30
0.0
 41
1.5
 42
1.5
 43
1.5
 50
354.0048873010134
  0
INSERT
  5
DC
330
D3
100
AcDbEntity
  8
NOLAYERNAME_001
 62
     0
100
AcDbBlockReference
  2
_OPEN30
 10
65.7248898340672
 20
43.78362467274928
 30
0.0
 41
1.5
 42
1.5
 43
1.5
 50
187.4951126989876
  0
MTEXT
  5
DD
330
D3
100
AcDbEntity
  8
NOLAYERNAME_001
 62
     0
100
AcDbMText
 10
68.47579566698357
 20
48.12381895825288
 30
0.0
 40
4.0
 41
0.0
 71
     5
 72
     1
  1
０°
 11
0.6946847792251047
 21
0.7193142967527946
 31
0.0
  0
POINT
  5
DE
330
D3
100
AcDbEntity
  8
DEFPOINTS
 62
     0
100
AcDbPoint
 10
65.59958004233722
 20
43.78143738219849
 30
0.0
  0
POINT
  5
DF
330
D3
100
AcDbEntity
  8
DEFPOINTS
 62
     0
100
AcDbPoint
 10
65.5369156023745
 20
51.56207096863056
 30
0.0
  0
POINT
  5
E0
330
D3
100
AcDbEntity
  8
DEFPOINTS
 62
     0
100
AcDbPoint
 10
65.5369156023745
 20
50.96207096863054
 30
0.0
  0
POINT
  5
E1
330
D3
100
AcDbEntity
  8
DEFPOINTS
 62
     0
100
AcDbPoint
 10
65.53429790754372
 20
51.0620367011281
 30
0.0
  0
POINT
  5
E2
330
D3
100
AcDbEntity
  8
DEFPOINTS
 62
     0
100
AcDbPoint
 10
65.5369156023745
 20
51.66207096863057
 30
0.0
  0
ENDBLK
  5
D5
330
D3
100
AcDbEntity
  8
0
100
AcDbBlockEnd
  0
BLOCK
  5
E6
330
E5
100
AcDbEntity
  8
0
100
AcDbBlockBegin
  2
*D4
 70
     1
 10
0.0
 20
0.0
 30
0.0
  3
*D4
  1
*D4
  0
LINE
  5
E8
330
E5
100
AcDbEntity
  8
NOLAYERNAME_001
  6
CONTINUOUS
 62
     0
100
AcDbLine
 10
137.5369156023745
 20
51.12563946112607
 30
0.0
 11
137.5369156023745
 21
36.43081158374048
 31
0.0
  0
LINE
  5
E9
330
E5
100
AcDbEntity
  8
NOLAYERNAME_001
  6
CONTINUOUS
 62
     0
100
AcDbLine
 10
65.5369156023745
 20
50.93707096863056
 30
0.0
 11
65.5369156023745
 21
36.43081158374048
 31
0.0
  0
LINE
  5
EA
330
E5
100
AcDbEntity
  8
NOLAYERNAME_001
  6
CONTINUOUS
 62
     0
100
AcDbLine
 10
136.0369156023745
 20
39.18081158374048
 30
0.0
 11
67.0369156023745
 21
39.18081158374048
 31
0.0
  0
INSERT
  5
EB
330
E5
100
AcDbEntity
  8
NOLAYERNAME_001
 62
     0
100
AcDbBlockReference
  2
_OPEN30
 10
137.5369156023745
 20
39.18081158374048
 30
0.0
 41
1.5
 42
1.5
 43
1.5
 50
360.0
  0
INSERT
  5
EC
330
E5
100
AcDbEntity
  8
NOLAYERNAME_001
 62
     0
100
AcDbBlockReference
  2
_OPEN30
 10
65.5369156023745
 20
39.18081158374048
 30
0.0
 41
1.5
 42
1.5
 43
1.5
 50
180.0
  0
MTEXT
  5
ED
330
E5
100
AcDbEntity
  8
NOLAYERNAME_001
 62
     0
100
AcDbMText
 10
101.5369156023745
 20
42.18081158374048
 30
0.0
 40
4.0
 41
0.0
 71
     5
 72
     1
  1
72
  0
POINT
  5
EE
330
E5
100
AcDbEntity
  8
DEFPOINTS
 62
     0
100
AcDbPoint
 10
137.5369156023745
 20
51.75063946112607
 30
0.0
  0
POINT
  5
EF
330
E5
100
AcDbEntity
  8
DEFPOINTS
 62
     0
100
AcDbPoint
 10
65.5369156023745
 20
51.56207096863056
 30
0.0
  0
POINT
  5
F0
330
E5
100
AcDbEntity
  8
DEFPOINTS
 62
     0
100
AcDbPoint
 10
65.5369156023745
 20
39.18081158374048
 30
0.0
  0
ENDBLK
  5
E7
330
E5
100
AcDbEntity
  8
0
100
AcDbBlockEnd
  0
BLOCK
  5
F4
330
F3
100
AcDbEntity
  8
0
100
AcDbBlockBegin
  2
*D5
 70
     1
 10
0.0
 20
0.0
 30
0.0
  3
*D5
  1
*D5
  0
LINE
  5
F6
330
F3
100
AcDbEntity
  8
NOLAYERNAME_001
  6
CONTINUOUS
 62
     0
100
AcDbLine
 10
65.5369156023745
 20
50.93707096863056
 30
0.0
 11
65.5369156023745
 21
28.77961685095249
 31
0.0
  0
LINE
  5
F7
330
F3
100
AcDbEntity
  8
NOLAYERNAME_001
  6
CONTINUOUS
 62
     0
100
AcDbLine
 10
54.53691560237451
 20
50.78417101848288
 30
0.0
 11
54.53691560237451
 21
28.77961685095249
 31
0.0
  0
LINE
  5
F8
330
F3
100
AcDbEntity
  8
NOLAYERNAME_001
  6
CONTINUOUS
 62
     0
100
AcDbLine
 10
64.0369156023745
 20
31.52961685095252
 30
0.0
 11
56.03691560237451
 21
31.52961685095252
 31
0.0
  0
INSERT
  5
F9
330
F3
100
AcDbEntity
  8
NOLAYERNAME_001
 62
     0
100
AcDbBlockReference
  2
_OPEN30
 10
65.5369156023745
 20
31.52961685095252
 30
0.0
 41
1.5
 42
1.5
 43
1.5
  0
INSERT
  5
FA
330
F3
100
AcDbEntity
  8
NOLAYERNAME_001
 62
     0
100
AcDbBlockReference
  2
_OPEN30
 10
54.53691560237451
 20
31.52961685095252
 30
0.0
 41
1.5
 42
1.5
 43
1.5
 50
180.0
  0
MTEXT
  5
FB
330
F3
100
AcDbEntity
  8
NOLAYERNAME_001
 62
     0
100
AcDbMText
 10
60.03691560237451
 20
34.52961685095252
 30
0.0
 40
4.0
 41
0.0
 71
     5
 72
     1
  1
11
  0
POINT
  5
FC
330
F3
100
AcDbEntity
  8
DEFPOINTS
 62
     0
100
AcDbPoint
 10
65.5369156023745
 20
51.56207096863056
 30
0.0
  0
POINT
  5
FD
330
F3
100
AcDbEntity
  8
DEFPOINTS
 62
     0
100
AcDbPoint
 10
54.53691560237451
 20
51.40917101848288
 30
0.0
  0
POINT
  5
FE
330
F3
100
AcDbEntity
  8
DEFPOINTS
 62
     0
100
AcDbPoint
 10
54.53691560237451
 20
31.52961685095252
 30
0.0
  0
ENDBLK
  5
F5
330
F3
100
AcDbEntity
  8
0
100
AcDbBlockEnd
  0
BLOCK
  5
102
330
101
100
AcDbEntity
  8
0
100
AcDbBlockBegin
  2
*D6
 70
     1
 10
0.0
 20
0.0
 30
0.0
  3
*D6
  1
*D6
  0
LINE
  5
104
330
101
100
AcDbEntity
  8
NOLAYERNAME_001
  6
CONTINUOUS
 62
     0
100
AcDbLine
 10
142.5369156023745
 20
56.78417101848288
 30
0.0
 11
142.5369156023745
 21
28.7796168509525
 31
0.0
  0
LINE
  5
105
330
101
100
AcDbEntity
  8
NOLAYERNAME_001
  6
CONTINUOUS
 62
     0
100
AcDbLine
 10
65.5369156023745
 20
50.93707096863056
 30
0.0
 11
65.5369156023745
 21
28.77961685095251
 31
0.0
  0
LINE
  5
106
330
101
100
AcDbEntity
  8
NOLAYERNAME_001
  6
CONTINUOUS
 62
     0
100
AcDbLine
 10
141.0369156023745
 20
31.52961685095251
 30
0.0
 11
67.0369156023745
 21
31.52961685095253
 31
0.0
  0
INSERT
  5
107
330
101
100
AcDbEntity
  8
NOLAYERNAME_001
 62
     0
100
AcDbBlockReference
  2
_OPEN30
 10
142.5369156023745
 20
31.52961685095251
 30
0.0
 41
1.5
 42
1.5
 43
1.5
 50
360.0
  0
INSERT
  5
108
330
101
100
AcDbEntity
  8
NOLAYERNAME_001
 62
     0
100
AcDbBlockReference
  2
_OPEN30
 10
65.5369156023745
 20
31.52961685095253
 30
0.0
 41
1.5
 42
1.5
 43
1.5
 50
180.0
  0
MTEXT
  5
109
330
101
100
AcDbEntity
  8
NOLAYERNAME_001
 62
     0
100
AcDbMText
 10
104.0369156023745
 20
34.52961685095252
 30
0.0
 40
4.0
 41
0.0
 71
     5
 72
     1
  1
77
  0
POINT
  5
10A
330
101
100
AcDbEntity
  8
DEFPOINTS
 62
     0
100
AcDbPoint
 10
142.5369156023745
 20
57.40917101848288
 30
0.0
  0
POINT
  5
10B
330
101
100
AcDbEntity
  8
DEFPOINTS
 62
     0
100
AcDbPoint
 10
65.5369156023745
 20
51.56207096863056
 30
0.0
  0
POINT
  5
10C
330
101
100
AcDbEntity
  8
DEFPOINTS
 62
     0
100
AcDbPoint
 10
65.5369156023745
 20
31.52961685095252
 30
0.0
  0
ENDBLK
  5
103
330
101
100
AcDbEntity
  8
0
100
AcDbBlockEnd
  0
BLOCK
  5
110
330
10F
100
AcDbEntity
  8
0
100
AcDbBlockBegin
  2
*D7
 70
     1
 10
0.0
 20
0.0
 30
0.0
  3
*D7
  1
*D7
  0
LINE
  5
112
330
10F
100
AcDbEntity
  8
NOLAYERNAME_001
  6
CONTINUOUS
 62
     0
100
AcDbLine
 10
142.5369156023745
 20
56.78417101848288
 30
0.0
 11
142.5369156023745
 21
22.49470495834424
 31
0.0
  0
LINE
  5
113
330
10F
100
AcDbEntity
  8
NOLAYERNAME_001
  6
CONTINUOUS
 62
     0
100
AcDbLine
 10
54.53691560237451
 20
50.78417101848288
 30
0.0
 11
54.53691560237451
 21
22.49470495834425
 31
0.0
  0
LINE
  5
114
330
10F
100
AcDbEntity
  8
NOLAYERNAME_001
  6
CONTINUOUS
 62
     0
100
AcDbLine
 10
141.0369156023745
 20
25.24470495834424
 30
0.0
 11
56.03691560237451
 21
25.24470495834425
 31
0.0
  0
INSERT
  5
115
330
10F
100
AcDbEntity
  8
NOLAYERNAME_001
 62
     0
100
AcDbBlockReference
  2
_OPEN30
 10
142.5369156023745
 20
25.24470495834424
 30
0.0
 41
1.5
 42
1.5
 43
1.5
 50
360.0
  0
INSERT
  5
116
330
10F
100
AcDbEntity
  8
NOLAYERNAME_001
 62
     0
100
AcDbBlockReference
  2
_OPEN30
 10
54.53691560237451
 20
25.24470495834425
 30
0.0
 41
1.5
 42
1.5
 43
1.5
 50
180.0
  0
MTEXT
  5
117
330
10F
100
AcDbEntity
  8
NOLAYERNAME_001
 62
     0
100
AcDbMText
 10
98.5369156023745
 20
28.24470495834424
 30
0.0
 40
4.0
 41
0.0
 71
     5
 72
     1
  1
88
  0
POINT
  5
118
330
10F
100
AcDbEntity
  8
DEFPOINTS
 62
     0
100
AcDbPoint
 10
142.5369156023745
 20
57.40917101848288
 30
0.0
  0
POINT
  5
119
330
10F
100
AcDbEntity
  8
DEFPOINTS
 62
     0
100
AcDbPoint
 10
54.53691560237451
 20
51.40917101848288
 30
0.0
  0
POINT
  5
11A
330
10F
100
AcDbEntity
  8
DEFPOINTS
 62
     0
100
AcDbPoint
 10
54.5369156023745
 20
25.24470495834424
 30
0.0
  0
ENDBLK
  5
111
330
10F
100
AcDbEntity
  8
0
100
AcDbBlockEnd
  0
BLOCK
  5
11E
330
11D
100
AcDbEntity
  8
0
100
AcDbBlockBegin
  2
*D8
 70
     1
 10
0.0
 20
0.0
 30
0.0
  3
*D8
  1
*D8
  0
LINE
  5
120
330
11D
100
AcDbEntity
  8
NOLAYERNAME_001
  6
CONTINUOUS
 62
     0
100
AcDbLine
 10
222.5369156023745
 20
53.28417101848288
 30
0.0
 11
222.5369156023745
 21
22.49470495834424
 31
0.0
  0
LINE
  5
121
330
11D
100
AcDbEntity
  8
NOLAYERNAME_001
  6
CONTINUOUS
 62
     0
100
AcDbLine
 10
142.5369156023745
 20
56.78417101848288
 30
0.0
 11
142.5369156023745
 21
22.49470495834425
 31
0.0
  0
LINE
  5
122
330
11D
100
AcDbEntity
  8
NOLAYERNAME_001
  6
CONTINUOUS
 62
     0
100
AcDbLine
 10
221.0369156023745
 20
25.24470495834424
 30
0.0
 11
144.0369156023745
 21
25.24470495834425
 31
0.0
  0
INSERT
  5
123
330
11D
100
AcDbEntity
  8
NOLAYERNAME_001
 62
     0
100
AcDbBlockReference
  2
_OPEN30
 10
222.5369156023745
 20
25.24470495834424
 30
0.0
 41
1.5
 42
1.5
 43
1.5
 50
360.0
  0
INSERT
  5
124
330
11D
100
AcDbEntity
  8
NOLAYERNAME_001
 62
     0
100
AcDbBlockReference
  2
_OPEN30
 10
142.5369156023745
 20
25.24470495834425
 30
0.0
 41
1.5
 42
1.5
 43
1.5
 50
180.0
  0
MTEXT
  5
125
330
11D
100
AcDbEntity
  8
NOLAYERNAME_001
 62
     0
100
AcDbMText
 10
182.5369156023745
 20
28.24470495834424
 30
0.0
 40
4.0
 41
0.0
 71
     5
 72
     1
  1
80
  0
POINT
  5
126
330
11D
100
AcDbEntity
  8
DEFPOINTS
 62
     0
100
AcDbPoint
 10
222.5369156023745
 20
53.90917101848288
 30
0.0
  0
POINT
  5
127
330
11D
100
AcDbEntity
  8
DEFPOINTS
 62
     0
100
AcDbPoint
 10
142.5369156023745
 20
57.40917101848288
 30
0.0
  0
POINT
  5
128
330
11D
100
AcDbEntity
  8
DEFPOINTS
 62
     0
100
AcDbPoint
 10
142.5369156023745
 20
25.24470495834424
 30
0.0
  0
ENDBLK
  5
11F
330
11D
100
AcDbEntity
  8
0
100
AcDbBlockEnd
  0
BLOCK
  5
12C
330
12B
100
AcDbEntity
  8
0
100
AcDbBlockBegin
  2
*D9
 70
     1
 10
0.0
 20
0.0
 30
0.0
  3
*D9
  1
*D9
  0
LINE
  5
12E
330
12B
100
AcDbEntity
  8
NOLAYERNAME_001
  6
CONTINUOUS
 62
     0
100
AcDbLine
 10
222.5369156023745
 20
53.28417101848288
 30
0.0
 11
222.5369156023745
 21
14.29699024382031
 31
0.0
  0
LINE
  5
12F
330
12B
100
AcDbEntity
  8
NOLAYERNAME_001
  6
CONTINUOUS
 62
     0
100
AcDbLine
 10
54.53691560237451
 20
50.78417101848288
 30
0.0
 11
54.53691560237451
 21
14.29699024382033
 31
0.0
  0
LINE
  5
130
330
12B
100
AcDbEntity
  8
NOLAYERNAME_001
  6
CONTINUOUS
 62
     0
100
AcDbLine
 10
221.0369156023745
 20
17.04699024382031
 30
0.0
 11
56.03691560237451
 21
17.04699024382033
 31
0.0
  0
INSERT
  5
131
330
12B
100
AcDbEntity
  8
NOLAYERNAME_001
 62
     0
100
AcDbBlockReference
  2
_OPEN30
 10
222.5369156023745
 20
17.04699024382031
 30
0.0
 41
1.5
 42
1.5
 43
1.5
 50
360.0
  0
INSERT
  5
132
330
12B
100
AcDbEntity
  8
NOLAYERNAME_001
 62
     0
100
AcDbBlockReference
  2
_OPEN30
 10
54.53691560237451
 20
17.04699024382033
 30
0.0
 41
1.5
 42
1.5
 43
1.5
 50
180.0
  0
MTEXT
  5
133
330
12B
100
AcDbEntity
  8
NOLAYERNAME_001
 62
     0
100
AcDbMText
 10
138.5369156023745
 20
20.04699024382032
 30
0.0
 40
4.0
 41
0.0
 71
     5
 72
     1
  1
168
  0
POINT
  5
134
330
12B
100
AcDbEntity
  8
DEFPOINTS
 62
     0
100
AcDbPoint
 10
222.5369156023745
 20
53.90917101848288
 30
0.0
  0
POINT
  5
135
330
12B
100
AcDbEntity
  8
DEFPOINTS
 62
     0
100
AcDbPoint
 10
54.53691560237451
 20
51.40917101848288
 30
0.0
  0
POINT
  5
136
330
12B
100
AcDbEntity
  8
DEFPOINTS
 62
     0
100
AcDbPoint
 10
54.5369156023745
 20
17.04699024382032
 30
0.0
  0
ENDBLK
  5
12D
330
12B
100
AcDbEntity
  8
0
100
AcDbBlockEnd
  0
BLOCK
  5
141
330
140
100
AcDbEntity
  8
0
100
AcDbBlockBegin
  2
*D10
 70
     1
 10
0.0
 20
0.0
 30
0.0
  3
*D10
  1
*D10
  0
LINE
  5
143
330
140
100
AcDbEntity
  8
NOLAYERNAME_001
  6
CONTINUOUS
 62
     0
100
AcDbLine
 10
220.1619156023745
 20
50.90917101848288
 30
0.0
 11
238.2942736024349
 21
50.90917101848288
 31
0.0
  0
LINE
  5
144
330
140
100
AcDbEntity
  8
NOLAYERNAME_001
  6
CONTINUOUS
 62
     0
100
AcDbLine
 10
220.1619156023745
 20
82.90917101848288
 30
0.0
 11
238.2942736024349
 21
82.90917101848288
 31
0.0
  0
LINE
  5
145
330
140
100
AcDbEntity
  8
NOLAYERNAME_001
  6
CONTINUOUS
 62
     0
100
AcDbLine
 10
235.5442736024349
 20
52.40917101848288
 30
0.0
 11
235.5442736024349
 21
81.40917101848288
 31
0.0
  0
INSERT
  5
146
330
140
100
AcDbEntity
  8
NOLAYERNAME_001
 62
     0
100
AcDbBlockReference
  2
_OPEN30
 10
235.5442736024349
 20
50.90917101848288
 30
0.0
 41
1.5
 42
1.5
 43
1.5
 50
270.0
  0
INSERT
  5
147
330
140
100
AcDbEntity
  8
NOLAYERNAME_001
 62
     0
100
AcDbBlockReference
  2
_OPEN30
 10
235.5442736024349
 20
82.90917101848288
 30
0.0
 41
1.5
 42
1.5
 43
1.5
 50
90.0
  0
MTEXT
  5
148
330
140
100
AcDbEntity
  8
NOLAYERNAME_001
 62
     0
100
AcDbMText
 10
232.5442736024349
 20
66.90917093106009
 30
0.0
 40
4.0
 41
0.0
 71
     5
 72
     1
  1
%%c32
 11
0.0
 21
1.0
 31
0.0
  0
POINT
  5
149
330
140
100
AcDbEntity
  8
DEFPOINTS
 62
     0
100
AcDbPoint
 10
219.5369156023745
 20
50.90917101848288
 30
0.0
  0
POINT
  5
14A
330
140
100
AcDbEntity
  8
DEFPOINTS
 62
     0
100
AcDbPoint
 10
219.5369156023745
 20
82.90917101848288
 30
0.0
  0
POINT
  5
14B
330
140
100
AcDbEntity
  8
DEFPOINTS
 62
     0
100
AcDbPoint
 10
235.5442736024349
 20
82.90917101848288
 30
0.0
  0
ENDBLK
  5
142
330
140
100
AcDbEntity
  8
0
100
AcDbBlockEnd
  0
BLOCK
  5
14F
330
14E
100
AcDbEntity
  8
0
100
AcDbBlockBegin
  2
*D11
 70
     1
 10
0.0
 20
0.0
 30
0.0
  3
*D11
  1
*D11
  0
LINE
  5
151
330
14E
100
AcDbEntity
  8
NOLAYERNAME_001
  6
CONTINUOUS
 62
     0
100
AcDbLine
 10
51.71377092676761
 20
66.90917101848288
 30
0.0
 11
40.42546081542969
 21
66.90917101848288
 31
0.0
  0
LINE
  5
152
330
14E
100
AcDbEntity
  8
NOLAYERNAME_001
  6
CONTINUOUS
 62
     0
100
AcDbLine
 10
51.43761734530921
 20
60.87721090712864
 30
0.0
 11
40.42546081542969
 21
60.87721090712864
 31
0.0
  0
LINE
  5
153
330
14E
100
AcDbEntity
  8
NOLAYERNAME_001
  6
CONTINUOUS
 62
     0
100
AcDbLine
 10
43.17546081542969
 20
66.90917101848288
 30
0.0
 11
43.17546081542969
 21
85.40917093106009
 31
0.0
  0
LINE
  5
154
330
14E
100
AcDbEntity
  8
NOLAYERNAME_001
  6
CONTINUOUS
 62
     0
100
AcDbLine
 10
43.17546081542969
 20
65.40917101848288
 30
0.0
 11
43.17546081542969
 21
62.37721090712864
 31
0.0
  0
INSERT
  5
155
330
14E
100
AcDbEntity
  8
NOLAYERNAME_001
 62
     0
100
AcDbBlockReference
  2
_OPEN30
 10
43.17546081542969
 20
66.90917101848288
 30
0.0
 41
1.5
 42
1.5
 43
1.5
 50
90.0
  0
INSERT
  5
156
330
14E
100
AcDbEntity
  8
NOLAYERNAME_001
 62
     0
100
AcDbBlockReference
  2
_OPEN30
 10
43.17546081542969
 20
60.87721090712864
 30
0.0
 41
1.5
 42
1.5
 43
1.5
 50
270.0
  0
MTEXT
  5
157
330
14E
100
AcDbEntity
  8
NOLAYERNAME_001
 62
     0
100
AcDbMText
 10
40.17546081542969
 20
78.40917093106009
 30
0.0
 40
4.0
 41
0.0
 71
     5
 72
     1
  1
6.03
 11
0.0
 21
1.0
 31
0.0
  0
POINT
  5
158
330
14E
100
AcDbEntity
  8
DEFPOINTS
 62
     0
100
AcDbPoint
 10
52.33877092676761
 20
66.90917101848288
 30
0.0
  0
POINT
  5
159
330
14E
100
AcDbEntity
  8
DEFPOINTS
 62
     0
100
AcDbPoint
 10
52.06261734530921
 20
60.87721090712864
 30
0.0
  0
POINT
  5
15A
330
14E
100
AcDbEntity
  8
DEFPOINTS
 62
     0
100
AcDbPoint
 10
43.17546081542969
 20
60.87721090712864
 30
0.0
  0
ENDBLK
  5
150
330
14E
100
AcDbEntity
  8
0
100
AcDbBlockEnd
  0
BLOCK
  5
167
330
166
100
AcDbEntity
  8
0
100
AcDbBlockBegin
  2
*D12
 70
     1
 10
0.0
 20
0.0
 30
0.0
  3
*D12
  1
*D12
  0
LINE
  5
169
330
166
100
AcDbEntity
  8
NOLAYERNAME_001
  6
CONTINUOUS
 62
     0
100
AcDbLine
 10
64.31191560237448
 20
50.90917101848288
 30
0.0
 11
30.28378295898438
 21
50.90917101848289
 31
0.0
  0
LINE
  5
16A
330
166
100
AcDbEntity
  8
NOLAYERNAME_001
  6
CONTINUOUS
 62
     0
100
AcDbLine
 10
53.91191560237451
 20
70.90917101848288
 30
0.0
 11
30.28378295898438
 21
70.90917101848288
 31
0.0
  0
LINE
  5
16B
330
166
100
AcDbEntity
  8
NOLAYERNAME_001
  6
CONTINUOUS
 62
     0
100
AcDbLine
 10
33.03378295898438
 20
52.40917101848289
 30
0.0
 11
33.03378295898438
 21
69.40917101848288
 31
0.0
  0
INSERT
  5
16C
330
166
100
AcDbEntity
  8
NOLAYERNAME_001
 62
     0
100
AcDbBlockReference
  2
_OPEN30
 10
33.03378295898438
 20
50.90917101848289
 30
0.0
 41
1.5
 42
1.5
 43
1.5
 50
270.0
  0
INSERT
  5
16D
330
166
100
AcDbEntity
  8
NOLAYERNAME_001
 62
     0
100
AcDbBlockReference
  2
_OPEN30
 10
33.03378295898438
 20
70.90917101848288
 30
0.0
 41
1.5
 42
1.5
 43
1.5
 50
90.0
  0
MTEXT
  5
16E
330
166
100
AcDbEntity
  8
NOLAYERNAME_001
 62
     0
100
AcDbMText
 10
30.03378295898438
 20
60.90917093106009
 30
0.0
 40
4.0
 41
0.0
 71
     5
 72
     1
  1
%%c20
 11
0.0
 21
1.0
 31
0.0
  0
POINT
  5
16F
330
166
100
AcDbEntity
  8
DEFPOINTS
 62
     0
100
AcDbPoint
 10
64.93691560237448
 20
50.90917101848288
 30
0.0
  0
POINT
  5
170
330
166
100
AcDbEntity
  8
DEFPOINTS
 62
     0
100
AcDbPoint
 10
54.53691560237451
 20
70.90917101848288
 30
0.0
  0
POINT
  5
171
330
166
100
AcDbEntity
  8
DEFPOINTS
 62
     0
100
AcDbPoint
 10
33.03378295898438
 20
70.90917101848288
 30
0.0
  0
ENDBLK
  5
168
330
166
100
AcDbEntity
  8
0
100
AcDbBlockEnd
  0
BLOCK
  5
175
330
174
100
AcDbEntity
  8
0
100
AcDbBlockBegin
  2
*D13
 70
     1
 10
0.0
 20
0.0
 30
0.0
  3
*D13
  1
*D13
  0
LINE
  5
177
330
174
100
AcDbEntity
  8
NOLAYERNAME_001
  6
CONTINUOUS
 62
     0
100
AcDbLine
 10
64.31191560237448
 20
50.90917101848288
 30
0.0
 11
20.64240264892578
 21
50.90917101848288
 31
0.0
  0
LINE
  5
178
330
174
100
AcDbEntity
  8
NOLAYERNAME_001
  6
CONTINUOUS
 62
     0
100
AcDbLine
 10
23.39240264892578
 20
52.40917101848288
 30
0.0
 11
23.39240264892578
 21
73.24250426439342
 31
0.0
  0
INSERT
  5
179
330
174
100
AcDbEntity
  8
NOLAYERNAME_001
 62
     0
100
AcDbBlockReference
  2
_OPEN30
 10
23.39240264892578
 20
50.90917101848288
 30
0.0
 41
1.5
 42
1.5
 43
1.5
 50
270.0
  0
MTEXT
  5
17A
330
174
100
AcDbEntity
  8
NOLAYERNAME_001
 62
     0
100
AcDbMText
 10
20.39240264892578
 20
66.90917093106009
 30
0.0
 40
4.0
 41
0.0
 71
     5
 72
     1
  1
%%c32
 11
-1.110223024625157E-16
 21
1.0
 31
0.0
  0
POINT
  5
17B
330
174
100
AcDbEntity
  8
DEFPOINTS
 62
     0
100
AcDbPoint
 10
64.93691560237448
 20
82.90917101848288
 30
0.0
  0
POINT
  5
17C
330
174
100
AcDbEntity
  8
DEFPOINTS
 62
     0
100
AcDbPoint
 10
64.93691560237448
 20
50.90917101848288
 30
0.0
  0
POINT
  5
17D
330
174
100
AcDbEntity
  8
DEFPOINTS
 62
     0
100
AcDbPoint
 10
23.39240264892578
 20
50.90917101848288
 30
0.0
  0
ENDBLK
  5
176
330
174
100
AcDbEntity
  8
0
100
AcDbBlockEnd
  0
ENDSEC
  0
SECTION
  2
ENTITIES
  0
ARC
  5
77
330
1F
100
AcDbEntity
  8
NOLAYERNAME_001
  6
CONTINUOUS
 62
     7
100
AcDbCircle
 10
64.93691560237448
 20
51.50917101848287
 30
0.0
 40
0.5999999999999982
100
AcDbArc
 50
240.0000000000001
 51
0.0
  0
ARC
  5
78
330
1F
100
AcDbEntity
  8
NOLAYERNAME_001
  6
CONTINUOUS
 62
     7
100
AcDbCircle
 10
57.21191560237446
 20
55.96920184797276
 30
0.0
 40
0.5999999999999982
100
AcDbArc
 50
119.9999999999999
 51
240.0000000000001
  0
LINE
  5
79
330
1F
100
AcDbEntity
  8
NOLAYERNAME_001
  6
CONTINUOUS
 62
     7
100
AcDbLine
 10
64.63691560237453
 20
60.94884791973325
 30
0.0
 11
56.91191560237455
 21
56.4888170902434
 31
0.0
  0
ARC
  5
7A
330
1F
100
AcDbEntity
  8
NOLAYERNAME_001
  6
CONTINUOUS
 62
     7
100
AcDbCircle
 10
64.93691560237448
 20
60.42923267746258
 30
0.0
 40
0.5999999999999982
100
AcDbArc
 50
0.0
 51
119.9999999999999
  0
CIRCLE
  5
7B
330
1F
100
AcDbEntity
  8
NOLAYERNAME_001
  6
CONTINUOUS
 62
     7
100
AcDbCircle
 10
62.36191560237449
 20
56.02210179812045
 30
0.0
 40
1.9
  0
LINE
  5
7C
330
1F
100
AcDbEntity
  8
NOLAYERNAME_001
  6
CONTINUOUS
 62
     7
100
AcDbLine
 10
56.91191560237451
 20
55.44958660570208
 30
0.0
 11
64.6369156023745
 21
50.98955577621223
 31
0.0
  0
LINE
  5
7D
330
1F
100
AcDbEntity
  8
NOLAYERNAME_001
  6
CONTINUOUS
 62
     7
100
AcDbLine
 10
65.5369156023745
 20
51.50917101848287
 30
0.0
 11
65.53691560237449
 21
60.42923267746258
 31
0.0
  0
LINE
  5
7E
330
1F
100
AcDbEntity
  8
NOLAYERNAME_001
  6
CONTINUOUS
 62
     7
100
AcDbLine
 10
149.0369156023745
 20
50.90917101848288
 30
0.0
 11
219.5369156023745
 21
50.90917101848288
 31
0.0
  0
LINE
  5
7F
330
1F
100
AcDbEntity
  8
NOLAYERNAME_001
  6
CONTINUOUS
 62
     7
100
AcDbLine
 10
219.5369156023745
 20
82.90917101848288
 30
0.0
 11
149.0369156023745
 21
82.90917101848288
 31
0.0
  0
LINE
  5
80
330
1F
100
AcDbEntity
  8
NOLAYERNAME_001
  6
CONTINUOUS
 62
     7
100
AcDbLine
 10
149.0369156023745
 20
50.90917101848288
 30
0.0
 11
149.0369156023745
 21
82.90917101848288
 31
0.0
  0
LINE
  5
81
330
1F
100
AcDbEntity
  8
NOLAYERNAME_001
  6
CONTINUOUS
 62
     7
100
AcDbLine
 10
149.0369156023745
 20
82.90917101848288
 30
0.0
 11
142.5369156023745
 21
76.40917101848288
 31
0.0
  0
LINE
  5
82
330
1F
100
AcDbEntity
  8
NOLAYERNAME_001
  6
CONTINUOUS
 62
     7
100
AcDbLine
 10
142.5369156023745
 20
57.40917101848288
 30
0.0
 11
149.0369156023745
 21
50.90917101848288
 31
0.0
  0
ARC
  5
83
330
1F
100
AcDbEntity
  8
NOLAYERNAME_001
  6
CONTINUOUS
 62
     7
100
AcDbCircle
 10
219.5369156023745
 20
79.90917101848288
 30
0.0
 40
2.999999999999998
100
AcDbArc
 50
0.0
 51
90.0
  0
ARC
  5
84
330
1F
100
AcDbEntity
  8
NOLAYERNAME_001
  6
CONTINUOUS
 62
     7
100
AcDbCircle
 10
219.5369156023745
 20
53.90917101848288
 30
0.0
 40
2.999999999999998
100
AcDbArc
 50
270.0
 51
0.0
  0
LINE
  5
85
330
1F
100
AcDbEntity
  8
NOLAYERNAME_001
  6
CONTINUOUS
 62
     7
100
AcDbLine
 10
222.5369156023745
 20
79.90917101848288
 30
0.0
 11
222.5369156023745
 21
53.90917101848288
 31
0.0
  0
ELLIPSE
  5
86
330
1F
100
AcDbEntity
  8
NOLAYERNAME_001
  6
CONTINUOUS
 62
     7
100
AcDbEllipse
 10
65.77729567320074
 20
66.90917101848288
 30
0.0
 11
0.0
 21
9.5
 31
0.0
210
0.0
220
0.0
230
1.0
 40
0.1227845609029052
 41
2.94291984419317
 42
3.141592653589792
  0
LINE
  5
87
330
1F
100
AcDbEntity
  8
NOLAYERNAME_001
  6
CONTINUOUS
 62
     7
100
AcDbLine
 10
65.77729567320074
 20
57.40917101848288
 30
0.0
 11
142.5369156023745
 21
57.40917101848288
 31
0.0
  0
LINE
  5
88
330
1F
100
AcDbEntity
  8
NOLAYERNAME_001
  6
CONTINUOUS
 62
     7
100
AcDbLine
 10
65.5369156023745
 20
57.59604184510624
 30
0.0
 11
65.54707462150778
 21
57.59604184510624
 31
0.0
  0
ELLIPSE
  5
89
330
1F
100
AcDbEntity
  8
NOLAYERNAME_001
  6
CONTINUOUS
 62
     7
100
AcDbEllipse
 10
65.77729567320074
 20
66.90917101848288
 30
0.0
 11
0.0
 21
9.5
 31
0.0
210
0.0
220
0.0
230
1.0
 40
0.1227845609029052
 41
3.141592653589792
 42
3.257642436341316
  0
LINE
  5
8A
330
1F
100
AcDbEntity
  8
NOLAYERNAME_001
  6
CONTINUOUS
 62
     7
100
AcDbLine
 10
68.5369156023745
 20
57.47307012881453
 30
0.0
 11
65.91235869019393
 21
57.47307012881453
 31
0.0
  0
LINE
  5
8B
330
1F
100
AcDbEntity
  8
NOLAYERNAME_001
  6
CONTINUOUS
 62
     7
100
AcDbLine
 10
68.5369156023745
 20
59.90917101848288
 30
0.0
 11
68.5369156023745
 21
57.47307012881451
 31
0.0
  0
LINE
  5
8C
330
1F
100
AcDbEntity
  8
NOLAYERNAME_001
  6
CONTINUOUS
 62
     7
100
AcDbLine
 10
137.5369156023745
 20
63.89319096280576
 30
0.0
 11
64.93691560237453
 21
63.89319096280576
 31
0.0
  0
SPLINE
  5
8D
330
1F
100
AcDbEntity
  8
NOLAYERNAME_001
  6
CONTINUOUS
 62
     7
100
AcDbSpline
210
0.0
220
0.0
230
1.0
 70
  1064
 71
     3
 72
    27
 73
    23
 74
    21
 42
0.000000001
 43
0.0000000001
 44
0.0
 12
0.9979353335885631
 22
0.06422670764941402
 32
0.0
 13
0.01021803784573538
 23
0.9999477944885838
 33
0.0
 40
0.0
 40
0.0
 40
0.0
 40
0.0
 40
0.39954889475411
 40
0.8002516090855574
 40
1.198402737542406
 40
1.592163641145309
 40
1.986318419061787
 40
2.379149502733806
 40
2.934752572506119
 40
3.493637239713807
 40
4.053043103198002
 40
4.811186925531932
 40
5.573249334294404
 40
6.331276138462369
 40
7.098926575487875
 40
7.856753361145778
 40
8.596156300429001
 40
9.44048687393123
 40
10.24825853172972
 40
11.00759806822746
 40
11.6351033089949
 40
12.21609360849053
 40
12.21609360849053
 40
12.21609360849053
 40
12.21609360849053
 10
137.5369156023745
 20
63.89319096280576
 30
0.0
 10
137.6698235888983
 20
63.90174486615744
 30
0.0
 10
137.9372469931644
 20
63.90681787916469
 30
0.0
 10
138.3303819953661
 20
63.98675712892813
 30
0.0
 10
138.7102692274088
 20
64.1059802752527
 30
0.0
 10
139.0709510086784
 20
64.27026151378523
 30
0.0
 10
139.4105642918872
 20
64.47044675900152
 30
0.0
 10
139.7721738896533
 20
64.73527474206308
 30
0.0
 10
140.1425906603327
 20
65.07671233489698
 30
0.0
 10
140.5083120029772
 20
65.49942896997413
 30
0.0
 10
140.8697144319403
 20
66.01097814241305
 30
0.0
 10
141.2114490124604
 20
66.6156380878167
 30
0.0
 10
141.5217234927288
 20
67.30974434689328
 30
0.0
 10
141.7781152808626
 20
68.02860763764811
 30
0.0
 10
141.9867077523031
 20
68.76111177312258
 30
0.0
 10
142.1530651761067
 20
69.49784938288849
 30
0.0
 10
142.2892048211333
 20
70.26664359654691
 30
0.0
 10
142.3942974577973
 20
71.05710570710309
 30
0.0
 10
142.4687630088859
 20
71.8576508466128
 30
0.0
 10
142.5114614430921
 20
72.58803706771846
 30
0.0
 10
142.5338735283916
 20
73.24369259916051
 30
0.0
 10
142.5349367420851
 20
73.64655302007391
 30
0.0
 10
142.5369156023745
 20
73.84020634294055
 30
0.0
 11
137.5369156023745
 21
63.89319096280576
 31
0.0
 11
137.9356395619459
 21
63.91885267286078
 31
0.0
 11
138.329306390525
 21
63.9936129119525
 31
0.0
 11
138.7087782677916
 21
64.11413434347088
 31
0.0
 11
139.0675896021127
 21
64.27631348999991
 31
0.0
 11
139.4073347471005
 21
64.47614147955994
 31
0.0
 11
139.7244947041109
 21
64.70792979239752
 31
0.0
 11
140.1342336368133
 21
65.08317474994968
 31
0.0
 11
140.5009681934496
 21
65.50490669823984
 31
0.0
 11
140.8247218192459
 21
65.96110677483371
 31
0.0
 11
141.2001672862717
 21
66.6197590022139
 31
0.0
 11
141.5130587131779
 21
67.31462450705455
 31
0.0
 11
141.7692314001213
 21
68.02805298300802
 31
0.0
 11
141.980691691301
 21
68.76600402387703
 31
0.0
 11
142.1485457577597
 21
69.50500771090022
 31
0.0
 11
142.2782035552266
 21
70.23295383677541
 31
0.0
 11
142.3902667778265
 21
71.06981460864318
 31
0.0
 11
142.4655019646705
 21
71.87407496313237
 31
0.0
 11
142.510672553864
 21
72.63206978472452
 31
0.0
 11
142.5309790215063
 21
73.25924637434063
 31
0.0
 11
142.5369156023745
 21
73.84020634294055
 31
0.0
  0
ARC
  5
8E
330
1F
100
AcDbEntity
  8
NOLAYERNAME_001
  6
CONTINUOUS
 62
     7
100
AcDbCircle
 10
137.5369156023745
 20
75.37721090712864
 30
0.0
 40
5.0
100
AcDbArc
 50
270.0
 51
0.0
  0
LINE
  5
8F
330
1F
100
AcDbEntity
  8
NOLAYERNAME_001
  6
CONTINUOUS
 62
     7
100
AcDbLine
 10
137.5369156023745
 20
70.37721090712864
 30
0.0
 11
54.53691560237451
 21
70.37721090712864
 31
0.0
  0
LINE
  5
90
330
1F
100
AcDbEntity
  8
NOLAYERNAME_001
  6
CONTINUOUS
 62
     7
100
AcDbLine
 10
64.93691560237448
 20
63.89319096280576
 30
0.0
 11
64.93691560237448
 21
63.88912076690937
 31
0.0
  0
LINE
  5
91
330
1F
100
AcDbEntity
  8
NOLAYERNAME_001
  6
CONTINUOUS
 62
     7
100
AcDbLine
 10
64.5369156023745
 20
63.90917101848288
 30
0.0
 11
54.53691560237449
 21
63.90917101848288
 31
0.0
  0
LINE
  5
92
330
1F
100
AcDbEntity
  8
NOLAYERNAME_001
  6
CONTINUOUS
 62
     7
100
AcDbLine
 10
54.53691560237451
 20
51.40917101848288
 30
0.0
 11
64.00174608450502
 21
51.40917101848288
 31
0.0
  0
LINE
  5
93
330
1F
100
AcDbEntity
  8
NOLAYERNAME_001
  6
CONTINUOUS
 62
     7
100
AcDbLine
 10
63.93405489249312
 20
51.44825254641273
 30
0.0
 11
54.53691560237452
 21
51.44825254641273
 31
0.0
  0
LINE
  5
94
330
1F
100
AcDbEntity
  8
NOLAYERNAME_001
  6
CONTINUOUS
 62
     7
100
AcDbLine
 10
65.54707462150776
 20
57.59604184510624
 30
0.0
 11
65.54707462150776
 21
58.77697431478103
 31
0.0
  0
ARC
  5
95
330
1F
100
AcDbEntity
  8
NOLAYERNAME_001
  6
CONTINUOUS
 62
     7
100
AcDbCircle
 10
65.14293571989481
 20
60.47966975090662
 30
0.0
 40
1.75
100
AcDbArc
 50
283.3522145719231
 51
296.0828448817255
  0
LINE
  5
96
330
1F
100
AcDbEntity
  8
NOLAYERNAME_001
  6
CONTINUOUS
 62
     7
100
AcDbLine
 10
65.91235869019391
 20
57.47307012881453
 30
0.0
 11
65.91235869019391
 21
58.90789104740664
 31
0.0
  0
ARC
  5
97
330
1F
100
AcDbEntity
  8
NOLAYERNAME_001
  6
CONTINUOUS
 62
     7
100
AcDbCircle
 10
65.14293571989481
 20
60.47966975090662
 30
0.0
 40
1.75
100
AcDbArc
 50
296.0828448817255
 51
186.237971325021
  0
ARC
  5
98
330
1F
100
AcDbEntity
  8
NOLAYERNAME_001
  6
CONTINUOUS
 62
     7
100
AcDbCircle
 10
57.51191560237453
 20
56.02210179812045
 30
0.0
 40
1.75
100
AcDbArc
 50
55.37693352515184
 51
304.6230664748476
  0
LINE
  5
99
330
1F
100
AcDbEntity
  8
NOLAYERNAME_001
  6
CONTINUOUS
 62
     7
100
AcDbLine
 10
54.53691560237451
 20
51.40917101848288
 30
0.0
 11
54.53691560237451
 21
70.37721090712866
 31
0.0
  0
ARC
  5
9A
330
1F
100
AcDbEntity
  8
NOLAYERNAME_001
  6
CONTINUOUS
 62
     7
100
AcDbCircle
 10
64.5369156023745
 20
59.90917101848288
 30
0.0
 40
4.0
100
AcDbArc
 50
0.0
 51
90.0
  0
ARC
  5
9B
330
1F
100
AcDbEntity
  8
NOLAYERNAME_001
  6
CONTINUOUS
 62
     7
100
AcDbCircle
 10
62.36191560237449
 20
56.98210179812042
 30
0.0
 40
0.24
100
AcDbArc
 50
15.49770896877726
 51
164.5022910312227
  0
ARC
  5
9C
330
1F
100
AcDbEntity
  8
NOLAYERNAME_001
  6
CONTINUOUS
 62
     7
100
AcDbCircle
 10
61.70201716766724
 20
57.16507941486856
 30
0.0
 40
0.4447968694145122
100
AcDbArc
 50
255.4977089687773
 51
344.5022910312226
  0
ARC
  5
9D
330
1F
100
AcDbEntity
  8
NOLAYERNAME_001
  6
CONTINUOUS
 62
     7
100
AcDbCircle
 10
61.53053121474147
 20
56.50210179812041
 30
0.0
 40
0.24
100
AcDbArc
 50
75.49770896877726
 51
224.5022910312227
  0
ARC
  5
9E
330
1F
100
AcDbEntity
  8
NOLAYERNAME_001
  6
CONTINUOUS
 62
     7
100
AcDbCircle
 10
61.04211873296003
 20
56.02210179812045
 30
0.0
 40
0.4447968694145122
100
AcDbArc
 50
315.4977089687773
 51
44.50229103122272
  0
ARC
  5
9F
330
1F
100
AcDbEntity
  8
NOLAYERNAME_001
  6
CONTINUOUS
 62
     7
100
AcDbCircle
 10
61.53053121474147
 20
55.54210179812043
 30
0.0
 40
0.24
100
AcDbArc
 50
135.4977089687772
 51
284.5022910312226
  0
ARC
  5
A0
330
1F
100
AcDbEntity
  8
NOLAYERNAME_001
  6
CONTINUOUS
 62
     7
100
AcDbCircle
 10
61.70201716766724
 20
54.87912418137228
 30
0.0
 40
0.4447968694145122
100
AcDbArc
 50
15.49770896877726
 51
104.5022910312227
  0
ARC
  5
A1
330
1F
100
AcDbEntity
  8
NOLAYERNAME_001
  6
CONTINUOUS
 62
     7
100
AcDbCircle
 10
62.36191560237449
 20
55.06210179812047
 30
0.0
 40
0.24
100
AcDbArc
 50
195.4977089687773
 51
344.5022910312226
  0
ARC
  5
A2
330
1F
100
AcDbEntity
  8
NOLAYERNAME_001
  6
CONTINUOUS
 62
     7
100
AcDbCircle
 10
63.02181403708175
 20
54.87912418137228
 30
0.0
 40
0.4447968694145122
100
AcDbArc
 50
75.49770896877726
 51
164.5022910312227
  0
ARC
  5
A3
330
1F
100
AcDbEntity
  8
NOLAYERNAME_001
  6
CONTINUOUS
 62
     7
100
AcDbCircle
 10
63.19329999000757
 20
55.54210179812043
 30
0.0
 40
0.24
100
AcDbArc
 50
255.4977089687772
 51
44.50229103122267
  0
ARC
  5
A4
330
1F
100
AcDbEntity
  8
NOLAYERNAME_001
  6
CONTINUOUS
 62
     7
100
AcDbCircle
 10
63.68171247178901
 20
56.02210179812045
 30
0.0
 40
0.4447968694145122
100
AcDbArc
 50
135.4977089687772
 51
224.5022910312227
  0
ARC
  5
A5
330
1F
100
AcDbEntity
  8
NOLAYERNAME_001
  6
CONTINUOUS
 62
     7
100
AcDbCircle
 10
63.19329999000757
 20
56.50210179812041
 30
0.0
 40
0.24
100
AcDbArc
 50
315.4977089687772
 51
104.5022910312227
  0
ARC
  5
A6
330
1F
100
AcDbEntity
  8
NOLAYERNAME_001
  6
CONTINUOUS
 62
     7
100
AcDbCircle
 10
63.02181403708175
 20
57.16507941486856
 30
0.0
 40
0.4447968694145122
100
AcDbArc
 50
195.4977089687773
 51
284.5022910312226
  0
CIRCLE
  5
A7
330
1F
100
AcDbEntity
  8
NOLAYERNAME_001
  6
CONTINUOUS
 62
     7
100
AcDbCircle
 10
62.36191560237449
 20
56.02210179812045
 30
0.0
 40
1.55
  0
LINE
  5
A8
330
1F
100
AcDbEntity
  8
NOLAYERNAME_001
  6
CONTINUOUS
 62
     7
100
AcDbLine
 10
54.53691560237451
 20
66.90917101848288
 30
0.0
 11
51.93883939102119
 21
65.40917101848288
 31
0.0
  0
LINE
  5
A9
330
1F
100
AcDbEntity
  8
NOLAYERNAME_001
  6
CONTINUOUS
 62
     7
100
AcDbLine
 10
54.53691560237451
 20
66.90917101848288
 30
0.0
 11
51.93883939102119
 21
68.40917101848288
 31
0.0
  0
LINE
  5
AA
330
1F
100
AcDbEntity
  8
NOLAYERNAME_001
  6
CONTINUOUS
 62
     7
100
AcDbLine
 10
54.53691560237451
 20
60.87721090712864
 30
0.0
 11
51.93883939102119
 21
59.37721090712864
 31
0.0
  0
LINE
  5
AB
330
1F
100
AcDbEntity
  8
NOLAYERNAME_001
  6
CONTINUOUS
 62
     7
100
AcDbLine
 10
54.53691560237451
 20
60.87721090712864
 30
0.0
 11
51.93883939102119
 21
62.37721090712864
 31
0.0
  0
LINE
  5
AC
330
1F
100
AcDbEntity
  8
NOLAYERNAME_001
  6
CENTER
 62
     7
100
AcDbLine
 10
52.06261734530921
 20
60.87721090712864
 30
0.0
 11
71.27086067251476
 21
60.87721090712864
 31
0.0
  0
LINE
  5
AD
330
1F
100
AcDbEntity
  8
NOLAYERNAME_001
  6
CONTINUOUS
 62
     7
100
AcDbLine
 10
142.5369156023745
 20
57.40917101848288
 30
0.0
 11
142.5369156023745
 21
76.40917101848288
 31
0.0
  0
LINE
  5
AE
330
1F
100
AcDbEntity
  8
NOLAYERNAME_001
  6
CONTINUOUS
 62
     7
100
AcDbLine
 10
222.5369156023745
 20
66.90917101848288
 30
0.0
 11
225.1349918137278
 21
65.40917101848288
 31
0.0
  0
LINE
  5
AF
330
1F
100
AcDbEntity
  8
NOLAYERNAME_001
  6
CONTINUOUS
 62
     7
100
AcDbLine
 10
222.5369156023745
 20
66.90917101848288
 30
0.0
 11
225.1349918137278
 21
68.40917101848288
 31
0.0
  0
LINE
  5
B0
330
1F
100
AcDbEntity
  8
NOLAYERNAME_001
  6
CENTER
 62
     7
100
AcDbLine
 10
52.33877092676761
 20
66.90917101848288
 30
0.0
 11
224.7083318301281
 21
66.90917101848288
 31
0.0
  0
LINE
  5
B1
330
1F
100
AcDbEntity
  8
NOLAYERNAME_001
  6
CENTER
 62
     7
100
AcDbLine
 10
266.0676102532187
 20
84.74429190272099
 30
0.0
 11
266.0676102532187
 21
48.3461989866075
 31
0.0
  0
LINE
  5
B2
330
1F
100
AcDbEntity
  8
NOLAYERNAME_001
  6
CENTER
 62
     7
100
AcDbLine
 10
247.7464225437656
 20
66.90917101848288
 30
0.0
 11
285.3659279738426
 21
66.90917101848288
 31
0.0
  0
LINE
  5
B3
330
1F
100
AcDbEntity
  8
NOLAYERNAME_001
  6
CONTINUOUS
 62
     7
100
AcDbLine
 10
251.0676102532187
 20
61.34140665565292
 30
0.0
 11
251.0676102532187
 21
72.47693538131296
 31
0.0
  0
ARC
  5
B4
330
1F
100
AcDbEntity
  8
NOLAYERNAME_001
  6
CONTINUOUS
 62
     7
100
AcDbCircle
 10
266.0676102532187
 20
66.90917101848288
 30
0.0
 40
16.0
100
AcDbArc
 50
200.3641348063178
 51
159.6358651936822
  0
LINE
  5
B5
330
1F
100
AcDbEntity
  8
NOLAYERNAME_001
  6
CONTINUOUS
 62
     7
100
AcDbLine
 10
157.5369156023745
 20
72.47693538131296
 30
0.0
 11
212.5369156023745
 21
72.47693538131296
 31
0.0
  0
LINE
  5
B6
330
1F
100
AcDbEntity
  8
NOLAYERNAME_001
  6
CONTINUOUS
 62
     7
100
AcDbLine
 10
212.5369156023745
 20
61.34140665565292
 30
0.0
 11
157.5369156023745
 21
61.34140665565292
 31
0.0
  0
LINE
  5
B7
330
1F
100
AcDbEntity
  8
NOLAYERNAME_001
  6
CONTINUOUS
 62
     7
100
AcDbLine
 10
212.5369156023745
 20
61.34140665565292
 30
0.0
 11
212.5369156023745
 21
72.47693538131296
 31
0.0
  0
LINE
  5
B8
330
1F
100
AcDbEntity
  8
NOLAYERNAME_001
  6
CONTINUOUS
 62
     7
100
AcDbLine
 10
157.5369156023745
 20
61.34140665565292
 30
0.0
 11
157.5369156023745
 21
72.47693538131296
 31
0.0
  0
LINE
  5
B9
330
1F
100
AcDbEntity
  8
NOLAYERNAME_001
  6
CONTINUOUS
 62
     7
100
AcDbLine
 10
212.5369156023745
 20
72.47693538131296
 30
0.0
 11
157.5369156023745
 21
61.34140665565292
 31
0.0
  0
LINE
  5
BA
330
1F
100
AcDbEntity
  8
NOLAYERNAME_001
  6
CONTINUOUS
 62
     7
100
AcDbLine
 10
157.5369156023745
 20
72.47693538131296
 30
0.0
 11
212.5369156023745
 21
61.34140665565292
 31
0.0
  0
LINE
  5
BB
330
1F
100
AcDbEntity
  8
NOLAYERNAME_001
  6
PHANTOM
 62
     7
100
AcDbLine
 10
137.5369156023745
 20
78.66645778381815
 30
0.0
 11
137.5369156023745
 21
51.75063946112613
 31
0.0
  0
LINE
  5
BC
330
1F
100
AcDbEntity
  8
NOLAYERNAME_001
  6
PHANTOM
 62
     7
100
AcDbLine
 10
185.0369156023745
 20
90.27670765151612
 30
0.0
 11
185.0369156023745
 21
40.32494282245671
 31
0.0
  0
DIMENSION
  5
BD
330
1F
100
AcDbEntity
  8
NOLAYERNAME_001
  6
CONTINUOUS
 62
     7
100
AcDbDimension
  2
*D2
 10
251.0676102532187
 20
42.5039646386918
 30
0.0
 11
266.5676102532187
 21
42.5039646386918
 31
0.0
 70
   160
  3
STANDARD
100
AcDbAlignedDimension
 13
282.0676102532187
 23
66.90917101848288
 33
0.0
 14
251.0676102532187
 24
61.34140665565292
 34
0.0
 50
180.0
100
AcDbRotatedDimension
1001
ACAD
1000
DSTYLE
1002
{
1070
     5
1000
OPEN30
1070
   347
1005
16
1070
   372
1070
    25
1070
   346
1005
16
1070
   371
1070
    25
1070
   345
1005
16
1070
   178
1070
     0
1070
   177
1070
     0
1070
   176
1070
     0
1070
    47
1040
0.0
1070
    48
1040
0.0
1070
    78
1070
     8
1070
   271
1070
     1
1070
    41
1040
1.5
1070
    44
1040
2.749999999999972
1070
   147
1040
1.0
1070
   140
1040
4.0
1002
}
  0
DIMENSION
  5
D1
330
1F
100
AcDbEntity
  8
NOLAYERNAME_001
  6
CONTINUOUS
 62
     7
100
AcDbDimension
  2
*D3
 10
65.5369156023745
 20
51.66207096863057
 30
0.0
 11
70.70224468074223
 21
45.97360416541327
 31
0.0
 70
   162
  1
０°
  3
STANDARD
100
AcDb2LineAngularDimension
 13
65.5369156023745
 23
50.96207096863054
 33
0.0
 14
65.53429790754372
 24
51.0620367011281
 34
0.0
 15
65.5369156023745
 25
51.56207096863056
 35
0.0
 16
65.59958004233722
 26
43.78143738219849
 36
0.0
1001
ACAD
1000
DSTYLE
1002
{
1070
     5
1000
OPEN30
1070
   347
1005
16
1070
   372
1070
    25
1070
   346
1005
16
1070
   371
1070
    25
1070
   345
1005
16
1070
   178
1070
     0
1070
   177
1070
     0
1070
   176
1070
     0
1070
    47
1040
0.0
1070
    48
1040
0.0
1070
    79
1070
     2
1070
   179
1070
     1
1070
    41
1040
1.5
1070
    44
1040
2.749999999999989
1070
   147
1040
1.0
1070
   140
1040
4.0
1002
}
  0
DIMENSION
  5
E3
330
1F
100
AcDbEntity
  8
NOLAYERNAME_001
  6
CONTINUOUS
 62
     7
100
AcDbDimension
  2
*D4
 10
65.5369156023745
 20
39.18081158374048
 30
0.0
 11
101.5369156023745
 21
39.18081158374048
 31
0.0
 70
   160
  3
STANDARD
100
AcDbAlignedDimension
 13
137.5369156023745
 23
51.75063946112607
 33
0.0
 14
65.5369156023745
 24
51.56207096863056
 34
0.0
 50
180.0
100
AcDbRotatedDimension
1001
ACAD
1000
DSTYLE
1002
{
1070
     5
1000
OPEN30
1070
   347
1005
16
1070
   372
1070
    25
1070
   346
1005
16
1070
   371
1070
    25
1070
   345
1005
16
1070
   178
1070
     0
1070
   177
1070
     0
1070
   176
1070
     0
1070
    47
1040
0.0
1070
    48
1040
0.0
1070
    78
1070
     8
1070
   271
1070
     1
1070
    41
1040
1.5
1070
    44
1040
2.75
1070
   147
1040
1.0
1070
   140
1040
4.0
1002
}
  0
DIMENSION
  5
F1
330
1F
100
AcDbEntity
  8
NOLAYERNAME_001
  6
CONTINUOUS
 62
     7
100
AcDbDimension
  2
*D5
 10
54.53691560237451
 20
31.52961685095252
 30
0.0
 11
60.03691560237451
 21
31.52961685095252
 31
0.0
 70
   160
  3
STANDARD
100
AcDbAlignedDimension
 13
65.5369156023745
 23
51.56207096863056
 33
0.0
 14
54.53691560237451
 24
51.40917101848288
 34
0.0
 50
180.0
100
AcDbRotatedDimension
1001
ACAD
1000
DSTYLE
1002
{
1070
     5
1000
OPEN30
1070
   347
1005
16
1070
   372
1070
    25
1070
   346
1005
16
1070
   371
1070
    25
1070
   345
1005
16
1070
   178
1070
     0
1070
   177
1070
     0
1070
   176
1070
     0
1070
    47
1040
0.0
1070
    48
1040
0.0
1070
    78
1070
     8
1070
   271
1070
     1
1070
    41
1040
1.5
1070
    44
1040
2.750000000000028
1070
   147
1040
1.0
1070
   140
1040
4.0
1002
}
  0
DIMENSION
  5
FF
330
1F
100
AcDbEntity
  8
NOLAYERNAME_001
  6
CONTINUOUS
 62
     7
100
AcDbDimension
  2
*D6
 10
65.5369156023745
 20
31.52961685095253
 30
0.0
 11
104.0369156023745
 21
31.52961685095252
 31
0.0
 70
   160
  3
STANDARD
100
AcDbAlignedDimension
 13
142.5369156023745
 23
57.40917101848288
 33
0.0
 14
65.5369156023745
 24
51.56207096863056
 34
0.0
 50
180.0
100
AcDbRotatedDimension
1001
ACAD
1000
DSTYLE
1002
{
1070
     5
1000
OPEN30
1070
   347
1005
16
1070
   372
1070
    25
1070
   346
1005
16
1070
   371
1070
    25
1070
   345
1005
16
1070
   178
1070
     0
1070
   177
1070
     0
1070
   176
1070
     0
1070
    47
1040
0.0
1070
    48
1040
0.0
1070
    78
1070
     8
1070
   271
1070
     1
1070
    41
1040
1.5
1070
    44
1040
2.750000000000014
1070
   147
1040
1.0
1070
   140
1040
4.0
1002
}
  0
DIMENSION
  5
10D
330
1F
100
AcDbEntity
  8
NOLAYERNAME_001
  6
CONTINUOUS
 62
     7
100
AcDbDimension
  2
*D7
 10
54.53691560237451
 20
25.24470495834425
 30
0.0
 11
98.5369156023745
 21
25.24470495834424
 31
0.0
 70
   160
  3
STANDARD
100
AcDbAlignedDimension
 13
142.5369156023745
 23
57.40917101848288
 33
0.0
 14
54.53691560237451
 24
51.40917101848288
 34
0.0
 50
180.0
100
AcDbRotatedDimension
1001
ACAD
1000
DSTYLE
1002
{
1070
     5
1000
OPEN30
1070
   347
1005
16
1070
   372
1070
    25
1070
   346
1005
16
1070
   371
1070
    25
1070
   345
1005
16
1070
   178
1070
     0
1070
   177
1070
     0
1070
   176
1070
     0
1070
    47
1040
0.0
1070
    48
1040
0.0
1070
    78
1070
     8
1070
   271
1070
     1
1070
    41
1040
1.5
1070
    44
1040
2.75
1070
   147
1040
1.0
1070
   140
1040
4.0
1002
}
  0
DIMENSION
  5
11B
330
1F
100
AcDbEntity
  8
NOLAYERNAME_001
  6
CONTINUOUS
 62
     7
100
AcDbDimension
  2
*D8
 10
142.5369156023745
 20
25.24470495834425
 30
0.0
 11
182.5369156023745
 21
25.24470495834424
 31
0.0
 70
   160
  3
STANDARD
100
AcDbAlignedDimension
 13
222.5369156023745
 23
53.90917101848288
 33
0.0
 14
142.5369156023745
 24
57.40917101848288
 34
0.0
 50
180.0
100
AcDbRotatedDimension
1001
ACAD
1000
DSTYLE
1002
{
1070
     5
1000
OPEN30
1070
   347
1005
16
1070
   372
1070
    25
1070
   346
1005
16
1070
   371
1070
    25
1070
   345
1005
16
1070
   178
1070
     0
1070
   177
1070
     0
1070
   176
1070
     0
1070
    47
1040
0.0
1070
    48
1040
0.0
1070
    78
1070
     8
1070
   271
1070
     1
1070
    41
1040
1.5
1070
    44
1040
2.75
1070
   147
1040
1.0
1070
   140
1040
4.0
1002
}
  0
DIMENSION
  5
129
330
1F
100
AcDbEntity
  8
NOLAYERNAME_001
  6
CONTINUOUS
 62
     7
100
AcDbDimension
  2
*D9
 10
54.53691560237451
 20
17.04699024382033
 30
0.0
 11
138.5369156023745
 21
17.04699024382032
 31
0.0
 70
   160
  3
STANDARD
100
AcDbAlignedDimension
 13
222.5369156023745
 23
53.90917101848288
 33
0.0
 14
54.53691560237451
 24
51.40917101848288
 34
0.0
 50
180.0
100
AcDbRotatedDimension
1001
ACAD
1000
DSTYLE
1002
{
1070
     5
1000
OPEN30
1070
   347
1005
16
1070
   372
1070
    25
1070
   346
1005
16
1070
   371
1070
    25
1070
   345
1005
16
1070
   178
1070
     0
1070
   177
1070
     0
1070
   176
1070
     0
1070
    47
1040
0.0
1070
    48
1040
0.0
1070
    78
1070
     8
1070
   271
1070
     1
1070
    41
1040
1.5
1070
    44
1040
2.75
1070
   147
1040
1.0
1070
   140
1040
4.0
1002
}
  0
LWPOLYLINE
  5
137
330
1F
100
AcDbEntity
  8
NOLAYERNAME_001
  6
CONTINUOUS
 62
     7
100
AcDbPolyline
 90
        2
 70
     0
 43
0.992
 10
185.0369156503407
 20
44.99897964894665
 10
185.0369156503407
 20
40.43097964894665
  0
LWPOLYLINE
  5
138
330
1F
100
AcDbEntity
  8
NOLAYERNAME_001
  6
CONTINUOUS
 62
     7
100
AcDbPolyline
 90
        2
 70
     0
 43
0.992
 10
185.0369156503407
 20
86.79768958596824
 10
185.0369156503407
 20
91.36568958596825
  0
LEADER
  5
139
330
1F
100
AcDbEntity
  8
NOLAYERNAME_001
  6
CONTINUOUS
 62
     7
100
AcDbLeader
  3
STANDARD
 76
     2
 10
185.5329156503407
 20
42.71497965486139
 30
0.0
 10
191.5329156503407
 20
42.71497972641068
 30
0.0
1001
ACAD
1000
DSTYLE
1002
{
1070
     5
1000
OPEN30
1070
    41
1040
2.992
1070
   341
1005
BF
1002
}
  0
MTEXT
  5
13A
330
1F
100
AcDbEntity
  8
NOLAYERNAME_001
  6
CONTINUOUS
 62
     7
100
AcDbMText
 10
192.6369156023745
 20
39.51497941714854
 30
0.0
 40
8.0
 41
0.0
 71
     7
 72
     5
  1
\W0.8333;Ａ
1001
ACAD
1000
MTEXTBEGIN
1070
    44
1040
0.6
1000
MTEXTEND
1000
ACAD_MTEXT_DEFINED_HEIGHT_BEGIN
1070
    46
1040
8.0
1000
ACAD_MTEXT_DEFINED_HEIGHT_END
  0
LEADER
  5
13B
330
1F
100
AcDbEntity
  8
NOLAYERNAME_001
  6
CONTINUOUS
 62
     7
100
AcDbLeader
  3
STANDARD
 76
     2
 10
185.5329156503407
 20
89.08168959188299
 30
0.0
 10
191.5329156503407
 20
89.08168966343227
 30
0.0
1001
ACAD
1000
DSTYLE
1002
{
1070
     5
1000
OPEN30
1070
    41
1040
2.992
1070
   341
1005
BF
1002
}
  0
MTEXT
  5
13C
330
1F
100
AcDbEntity
  8
NOLAYERNAME_001
  6
CONTINUOUS
 62
     7
100
AcDbMText
 10
192.6369156023745
 20
85.88168935417013
 30
0.0
 40
8.0
 41
0.0
 71
     7
 72
     5
  1
\W0.8333;Ａ
1001
ACAD
1000
MTEXTBEGIN
1070
    44
1040
0.6
1000
MTEXTEND
1000
ACAD_MTEXT_DEFINED_HEIGHT_BEGIN
1070
    46
1040
8.0
1000
ACAD_MTEXT_DEFINED_HEIGHT_END
  0
MTEXT
  5
13D
330
1F
100
AcDbEntity
  8
NOLAYERNAME_001
 62
     7
100
AcDbMText
 10
147.7877044677734
 20
107.4854145050049
 30
0.0
 40
4.5
 41
0.0
 71
     5
 72
     5
  1
\A1;\W0.8333;ウラザグル　ＵＺＨ３２－２２Ｔ－Ｍ２０ＣＳ
1001
ACAD
1000
ACAD_MTEXT_DEFINED_HEIGHT_BEGIN
1070
    46
1040
4.5
1000
ACAD_MTEXT_DEFINED_HEIGHT_END
  0
DIMENSION
  5
13E
330
1F
100
AcDbEntity
  8
NOLAYERNAME_001
  6
CONTINUOUS
 62
     7
100
AcDbDimension
  2
*D10
 10
235.5442736024349
 20
82.90917101848288
 30
0.0
 11
235.5442736024349
 21
66.90917093106009
 31
0.0
 70
   160
  3
STANDARD
100
AcDbAlignedDimension
 13
219.5369156023745
 23
50.90917101848288
 33
0.0
 14
219.5369156023745
 24
82.90917101848288
 34
0.0
 50
90.0
100
AcDbRotatedDimension
1001
ACAD
1000
DSTYLE
1002
{
1070
     5
1000
OPEN30
1070
   347
1005
16
1070
   372
1070
    25
1070
   346
1005
16
1070
   371
1070
    25
1070
   345
1005
16
1070
   178
1070
     0
1070
   177
1070
     0
1070
   176
1070
     0
1070
     3
1000
%%c<>
1070
    47
1040
0.0
1070
    48
1040
0.0
1070
    78
1070
     8
1070
   271
1070
     1
1070
    41
1040
1.5
1070
    44
1040
2.75
1070
   147
1040
1.0
1070
   140
1040
4.0
1002
}
  0
DIMENSION
  5
14C
330
1F
100
AcDbEntity
  8
NOLAYERNAME_001
  6
CONTINUOUS
 62
     7
100
AcDbDimension
  2
*D11
 10
43.17546081542969
 20
60.87721090712864
 30
0.0
 11
43.17546081542969
 21
78.40917093106009
 31
0.0
 70
   160
  3
STANDARD
100
AcDbAlignedDimension
 13
52.33877092676761
 23
66.90917101848288
 33
0.0
 14
52.06261734530921
 24
60.87721090712864
 34
0.0
 50
-90.0
100
AcDbRotatedDimension
1001
ACAD
1000
DSTYLE
1002
{
1070
     5
1000
OPEN30
1070
   347
1005
16
1070
   372
1070
    25
1070
   346
1005
16
1070
   371
1070
    25
1070
   345
1005
16
1070
   178
1070
     0
1070
   177
1070
     0
1070
   176
1070
     0
1070
    47
1040
0.0
1070
    48
1040
0.0
1070
    78
1070
     8
1070
    41
1040
1.5
1070
    44
1040
2.75
1070
   147
1040
1.0
1070
   140
1040
4.0
1002
}
  0
LINE
  5
163
330
1F
100
AcDbEntity
  8
NOLAYERNAME_001
  6
PHANTOM
 62
     7
100
AcDbLine
 10
54.53691560237451
 20
70.90917101848288
 30
0.0
 11
65.53691560237449
 21
70.90917101848288
 31
0.0
  0
DIMENSION
  5
164
330
1F
100
AcDbEntity
  8
NOLAYERNAME_001
  6
CONTINUOUS
 62
     7
100
AcDbDimension
  2
*D12
 10
33.03378295898438
 20
70.90917101848288
 30
0.0
 11
33.03378295898438
 21
60.90917093106009
 31
0.0
 70
   160
  3
STANDARD
100
AcDbAlignedDimension
 13
64.93691560237448
 23
50.90917101848288
 33
0.0
 14
54.53691560237451
 24
70.90917101848288
 34
0.0
 50
90.0
100
AcDbRotatedDimension
1001
ACAD
1000
DSTYLE
1002
{
1070
     5
1000
OPEN30
1070
   347
1005
16
1070
   372
1070
    25
1070
   346
1005
16
1070
   371
1070
    25
1070
   345
1005
16
1070
   178
1070
     0
1070
   177
1070
     0
1070
   176
1070
     0
1070
     3
1000
%%c<>
1070
    47
1040
0.0
1070
    48
1040
0.0
1070
    78
1070
     8
1070
   271
1070
     1
1070
    41
1040
1.5
1070
    44
1040
2.75
1070
   147
1040
1.0
1070
   140
1040
4.0
1002
}
  0
DIMENSION
  5
172
330
1F
100
AcDbEntity
  8
NOLAYERNAME_001
  6
CONTINUOUS
 62
     7
100
AcDbDimension
  2
*D13
 10
23.39240264892578
 20
50.90917101848288
 30
0.0
 11
23.39240264892578
 21
66.90917093106009
 31
0.0
 70
   160
  3
STANDARD
100
AcDbAlignedDimension
 13
64.93691560237448
 23
82.90917101848288
 33
0.0
 14
64.93691560237448
 24
50.90917101848288
 34
0.0
 50
-90.0
100
AcDbRotatedDimension
1001
ACAD
1000
DSTYLE
1002
{
1070
     5
1000
OPEN30
1070
    75
1070
     1
1070
   281
1070
     1
1070
   282
1070
     0
1070
   347
1005
16
1070
   372
1070
    25
1070
   346
1005
16
1070
   371
1070
    25
1070
   345
1005
16
1070
   178
1070
     0
1070
   177
1070
     0
1070
   176
1070
     0
1070
     3
1000
%%c<>
1070
    47
1040
0.0
1070
    48
1040
0.0
1070
    78
1070
     8
1070
   271
1070
     1
1070
    41
1040
1.5
1070
    44
1040
2.75
1070
   147
1040
1.0
1070
   140
1040
4.0
1002
}
  0
MTEXT
  5
180
330
1F
100
AcDbEntity
  8
NOLAYERNAME_001
 62
     7
100
AcDbMText
 10
260.7092334392824
 20
28.48814505285412
 30
0.0
 40
4.0
 41
0.0
 71
     4
 72
     5
  1
\A1;\W0.8333;\LＡ－Ａ\l
1001
ACAD
1000
ACAD_MTEXT_DEFINED_HEIGHT_BEGIN
1070
    46
1040
4.0
1000
ACAD_MTEXT_DEFINED_HEIGHT_END
  0
ENDSEC
  0
SECTION
  2
OBJECTS
  0
DICTIONARY
  5
C
330
0
100
AcDbDictionary
  3
ACAD_GROUP
350
D
  3
ACAD_IMAGE_VARS
350
1CD
  3
ACAD_MLINESTYLE
350
17
  3
ACAD_SCALELIST
350
47
  3
ACDBVARIABLEDICTIONARY
350
181
  3
APPDATA
350
1CB
  3
DWGPROPS
350
1CF
  0
DICTIONARY
  5
D
102
{ACAD_REACTORS
330
C
102
}
330
C
100
AcDbDictionary
  0
RASTERVARIABLES
  5
1CD
102
{ACAD_REACTORS
330
C
102
}
330
C
100
AcDbRasterVariables
 90
        0
 70
     1
 71
     1
 72
     1
  0
DICTIONARY
  5
17
102
{ACAD_REACTORS
330
C
102
}
330
C
100
AcDbDictionary
  3
STANDARD
350
18
  0
DICTIONARY
  5
47
102
{ACAD_REACTORS
330
C
102
}
330
C
100
AcDbDictionary
  0
DICTIONARY
  5
181
102
{ACAD_REACTORS
330
C
102
}
330
C
100
AcDbDictionary
  3
DIMASSOC
350
188
  3
HIDETEXT
350
189
  0
DICTIONARY
  5
1CB
102
{ACAD_REACTORS
330
C
102
}
330
C
100
AcDbDictionary
  0
XRECORD
  5
1CF
102
{ACAD_REACTORS
330
C
102
}
330
C
100
AcDbXrecord
  1
DWGPROPS COOKIE
  2

  3

  4

  6
File was created by TR2_DExp
  7

  8
kaihatu03
  9

300
=
301
=
302
=
303
=
304
=
305
=
306
=
307
=
308
=
309
=
 40
0.0
 41
2455188.375
 42
2457855.224517245
  1

 90
        0
  0
MLINESTYLE
  5
18
102
{ACAD_REACTORS
330
17
102
}
330
17
100
AcDbMlineStyle
  2
Standard
 70
     0
  3

 62
   256
 51
90.0
 52
90.0
 71
     2
 49
0.5
 62
   256
  6
BYLAYER
 49
-0.5
 62
   256
  6
BYLAYER
  0
DICTIONARYVAR
  5
188
102
{ACAD_REACTORS
330
181
102
}
330
181
100
DictionaryVariables
280
     0
  1
2
  0
DICTIONARYVAR
  5
189
102
{ACAD_REACTORS
330
181
102
}
330
181
100
DictionaryVariables
280
     0
  1
1
  0
ENDSEC
  0
EOF
