  0
SECTION
  2
HEADER
  9
$ACADVER
  1
AC1015
  9
$ACADMAINTVER
 70
     6
  9
$DWGCODEPAGE
  3
ANSI_932
  9
$INSBASE
 10
0.0
 20
0.0
 30
0.0
  9
$EXTMIN
 10
22.868637
 20
6.059258
 30
0.0
  9
$EXTMAX
 10
172.868637
 20
115.000237
 30
0.0
  9
$LIMMIN
 10
0.0
 20
0.0
  9
$LIMMAX
 10
12.0
 20
9.0
  9
$ORTHOMODE
 70
     0
  9
$REGENMODE
 70
     1
  9
$FILLMODE
 70
     1
  9
$QTEXTMODE
 70
     0
  9
$MIRRTEXT
 70
     1
  9
$LTSCALE
 40
1.853865
  9
$ATTMODE
 70
     1
  9
$TEXTSIZE
 40
3.2
  9
$TRACEWID
 40
1.0
  9
$TEXTSTYLE
  7
Standard
  9
$CLAYER
  8
0
  9
$CELTYPE
  6
ByLayer
  9
$CECOLOR
 62
   256
  9
$CELTSCALE
 40
1.0
  9
$DISPSILH
 70
     0
  9
$DIMSCALE
 40
1.0
  9
$DIMASZ
 40
2.5
  9
$DIMEXO
 40
0.625
  9
$DIMDLI
 40
3.75
  9
$DIMRND
 40
0.0
  9
$DIMDLE
 40
0.0
  9
$DIMEXE
 40
1.25
  9
$DIMTP
 40
0.0
  9
$DIMTM
 40
0.0
  9
$DIMTXT
 40
2.5
  9
$DIMCEN
 40
0.09
  9
$DIMTSZ
 40
0.0
  9
$DIMTOL
 70
     0
  9
$DIMLIM
 70
     0
  9
$DIMTIH
 70
     0
  9
$DIMTOH
 70
     0
  9
$DIMSE1
 70
     0
  9
$DIMSE2
 70
     0
  9
$DIMTAD
 70
     0
  9
$DIMZIN
 70
     8
  9
$DIMBLK
  1

  9
$DIMASO
 70
     1
  9
$DIMSHO
 70
     0
  9
$DIMPOST
  1

  9
$DIMAPOST
  1

  9
$DIMALT
 70
     0
  9
$DIMALTD
 70
     3
  9
$DIMALTF
 40
0.03937
  9
$DIMLFAC
 40
1.0
  9
$DIMTOFL
 70
     1
  9
$DIMTVP
 40
0.0
  9
$DIMTIX
 70
     0
  9
$DIMSOXD
 70
     0
  9
$DIMSAH
 70
     0
  9
$DIMBLK1
  1

  9
$DIMBLK2
  1

  9
$DIMSTYLE
  2
ISO-25
  9
$DIMCLRD
 70
     0
  9
$DIMCLRE
 70
     0
  9
$DIMCLRT
 70
     0
  9
$DIMTFAC
 40
1.0
  9
$DIMGAP
 40
0.625
  9
$DIMJUST
 70
     0
  9
$DIMSD1
 70
     0
  9
$DIMSD2
 70
     0
  9
$DIMTOLJ
 70
     0
  9
$DIMTZIN
 70
     8
  9
$DIMALTZ
 70
     0
  9
$DIMALTTZ
 70
     0
  9
$DIMUPT
 70
     0
  9
$DIMDEC
 70
     2
  9
$DIMTDEC
 70
     2
  9
$DIMALTU
 70
     2
  9
$DIMALTTD
 70
     3
  9
$DIMTXSTY
  7
Standard
  9
$DIMAUNIT
 70
     0
  9
$DIMADEC
 70
     0
  9
$DIMALTRND
 40
0.0
  9
$DIMAZIN
 70
     0
  9
$DIMDSEP
 70
    44
  9
$DIMATFIT
 70
     3
  9
$DIMFRAC
 70
     0
  9
$DIMLDRBLK
  1

  9
$DIMLUNIT
 70
     2
  9
$DIMLWD
 70
    -2
  9
$DIMLWE
 70
    -2
  9
$DIMTMOVE
 70
     0
  9
$LUNITS
 70
     2
  9
$LUPREC
 70
     4
  9
$SKETCHINC
 40
1.0
  9
$FILLETRAD
 40
0.0
  9
$AUNITS
 70
     0
  9
$AUPREC
 70
     0
  9
$MENU
  1
.
  9
$ELEVATION
 40
0.0
  9
$PELEVATION
 40
0.0
  9
$THICKNESS
 40
0.0
  9
$LIMCHECK
 70
     0
  9
$CHAMFERA
 40
10.0
  9
$CHAMFERB
 40
10.0
  9
$CHAMFERC
 40
20.0
  9
$CHAMFERD
 40
0.0
  9
$SKPOLY
 70
     0
  9
$TDCREATE
 40
2454805.757031609
  9
$TDUCREATE
 40
2454805.382031609
  9
$TDUPDATE
 40
2454805.75703162
  9
$TDUUPDATE
 40
2454805.38203162
  9
$TDINDWG
 40
0.0000000116
  9
$TDUSRTIMER
 40
0.0000000116
  9
$USRTIMER
 70
     1
  9
$ANGBASE
 50
0.0
  9
$ANGDIR
 70
     0
  9
$PDMODE
 70
     0
  9
$PDSIZE
 40
0.0
  9
$PLINEWID
 40
0.0
  9
$SPLFRAME
 70
     0
  9
$SPLINETYPE
 70
     6
  9
$SPLINESEGS
 70
     8
  9
$HANDSEED
  5
439
  9
$SURFTAB1
 70
     6
  9
$SURFTAB2
 70
     6
  9
$SURFTYPE
 70
     6
  9
$SURFU
 70
     6
  9
$SURFV
 70
     6
  9
$UCSBASE
  2

  9
$UCSNAME
  2

  9
$UCSORG
 10
0.0
 20
0.0
 30
0.0
  9
$UCSXDIR
 10
1.0
 20
0.0
 30
0.0
  9
$UCSYDIR
 10
0.0
 20
1.0
 30
0.0
  9
$UCSORTHOREF
  2

  9
$UCSORTHOVIEW
 70
     0
  9
$UCSORGTOP
 10
0.0
 20
0.0
 30
0.0
  9
$UCSORGBOTTOM
 10
0.0
 20
0.0
 30
0.0
  9
$UCSORGLEFT
 10
0.0
 20
0.0
 30
0.0
  9
$UCSORGRIGHT
 10
0.0
 20
0.0
 30
0.0
  9
$UCSORGFRONT
 10
0.0
 20
0.0
 30
0.0
  9
$UCSORGBACK
 10
0.0
 20
0.0
 30
0.0
  9
$PUCSBASE
  2

  9
$PUCSNAME
  2

  9
$PUCSORG
 10
0.0
 20
0.0
 30
0.0
  9
$PUCSXDIR
 10
1.0
 20
0.0
 30
0.0
  9
$PUCSYDIR
 10
0.0
 20
1.0
 30
0.0
  9
$PUCSORTHOREF
  2

  9
$PUCSORTHOVIEW
 70
     0
  9
$PUCSORGTOP
 10
0.0
 20
0.0
 30
0.0
  9
$PUCSORGBOTTOM
 10
0.0
 20
0.0
 30
0.0
  9
$PUCSORGLEFT
 10
0.0
 20
0.0
 30
0.0
  9
$PUCSORGRIGHT
 10
0.0
 20
0.0
 30
0.0
  9
$PUCSORGFRONT
 10
0.0
 20
0.0
 30
0.0
  9
$PUCSORGBACK
 10
0.0
 20
0.0
 30
0.0
  9
$USERI1
 70
     0
  9
$USERI2
 70
     0
  9
$USERI3
 70
     0
  9
$USERI4
 70
     0
  9
$USERI5
 70
     0
  9
$USERR1
 40
0.0
  9
$USERR2
 40
0.0
  9
$USERR3
 40
0.0
  9
$USERR4
 40
0.0
  9
$USERR5
 40
0.0
  9
$WORLDVIEW
 70
     1
  9
$SHADEDGE
 70
     3
  9
$SHADEDIF
 70
    70
  9
$TILEMODE
 70
     1
  9
$MAXACTVP
 70
    64
  9
$PINSBASE
 10
0.0
 20
0.0
 30
0.0
  9
$PLIMCHECK
 70
     0
  9
$PEXTMIN
 10
1.000000E+20
 20
1.000000E+20
 30
0.0
  9
$PEXTMAX
 10
-1.000000E+20
 20
-1.000000E+20
 30
0.0
  9
$PLIMMIN
 10
0.0
 20
0.0
  9
$PLIMMAX
 10
12.0
 20
9.0
  9
$UNITMODE
 70
     0
  9
$VISRETAIN
 70
     1
  9
$PLINEGEN
 70
     0
  9
$PSLTSCALE
 70
     1
  9
$TREEDEPTH
 70
  3020
  9
$CMLSTYLE
  2
Standard
  9
$CMLJUST
 70
     0
  9
$CMLSCALE
 40
20.0
  9
$PROXYGRAPHICS
 70
     1
  9
$MEASUREMENT
 70
     1
  9
$CELWEIGHT
370
    -1
  9
$ENDCAPS
280
     0
  9
$JOINSTYLE
280
     0
  9
$LWDISPLAY
290
     0
  9
$INSUNITS
 70
     4
  9
$HYPERLINKBASE
  1

  9
$STYLESHEET
  1

  9
$XEDIT
290
     1
  9
$CEPSNTYPE
380
     0
  9
$PSTYLEMODE
290
     1
  9
$FINGERPRINTGUID
  2
{353CD140-E58B-4E14-AFC8-FEF0C741BE6F}
  9
$VERSIONGUID
  2
{FAEB1C32-E019-11D5-929B-00C0DF256EC4}
  9
$EXTNAMES
290
     1
  9
$PSVPSCALE
 40
0.0
  9
$OLESTARTUP
290
     0
  0
ENDSEC
  0
SECTION
  2
CLASSES
  0
CLASS
  1
ACDBDICTIONARYWDFLT
  2
AcDbDictionaryWithDefault
  3
ObjectDBX Classes
 90
        0
280
     0
281
     0
  0
CLASS
  1
VISUALSTYLE
  2
AcDbVisualStyle
  3
ObjectDBX Classes
 90
     4095
280
     0
281
     0
  0
CLASS
  1
SCALE
  2
AcDbScale
  3
ObjectDBX Classes
 90
     1153
280
     0
281
     0
  0
CLASS
  1
DICTIONARYVAR
  2
AcDbDictionaryVar
  3
ObjectDBX Classes
 90
        0
280
     0
281
     0
  0
CLASS
  1
ACDBPLACEHOLDER
  2
AcDbPlaceHolder
  3
ObjectDBX Classes
 90
        0
280
     0
281
     0
  0
CLASS
  1
LAYOUT
  2
AcDbLayout
  3
ObjectDBX Classes
 90
        0
280
     0
281
     0
  0
ENDSEC
  0
SECTION
  2
TABLES
  0
TABLE
  2
VPORT
  5
8
330
0
100
AcDbSymbolTable
 70
     1
  0
VPORT
  5
29
330
8
100
AcDbSymbolTableRecord
100
AcDbViewportTableRecord
  2
*Active
 70
     0
 10
0.0
 20
0.0
 11
1.0
 21
1.0
 12
97.868637
 22
60.529747
 13
0.0
 23
0.0
 14
1.0
 24
1.0
 15
0.0
 25
0.0
 16
0.0
 26
0.0
 36
1.0
 17
0.0
 27
0.0
 37
0.0
 40
110.030389
 41
1.691288
 42
50.0
 43
0.0
 44
0.0
 50
0.0
 51
0.0
 71
     0
 72
   100
 73
     1
 74
     3
 75
     0
 76
     0
 77
     0
 78
     0
281
     0
 65
     1
110
0.0
120
0.0
130
0.0
111
1.0
121
0.0
131
0.0
112
0.0
122
1.0
132
0.0
 79
     0
146
0.0
  0
ENDTAB
  0
TABLE
  2
LTYPE
  5
5
330
0
100
AcDbSymbolTable
 70
     5
  0
LTYPE
  5
14
330
5
100
AcDbSymbolTableRecord
100
AcDbLinetypeTableRecord
  2
ByBlock
 70
     0
  3

 72
    65
 73
     0
 40
0.0
  0
LTYPE
  5
15
330
5
100
AcDbSymbolTableRecord
100
AcDbLinetypeTableRecord
  2
ByLayer
 70
     0
  3

 72
    65
 73
     0
 40
0.0
  0
LTYPE
  5
16
330
5
100
AcDbSymbolTableRecord
100
AcDbLinetypeTableRecord
  2
Continuous
 70
     0
  3
Solid line
 72
    65
 73
     0
 40
0.0
  0
LTYPE
  5
5D
330
5
100
AcDbSymbolTableRecord
100
AcDbLinetypeTableRecord
  2
DASHED
 70
     0
  3
DASHED
 72
    83
 73
     2
 40
0.75
 49
0.5
 74
     0
 49
-0.25
 74
     0
  0
LTYPE
  5
5E
330
5
100
AcDbSymbolTableRecord
100
AcDbLinetypeTableRecord
  2
HIDDEN
 70
     0
  3
HIDDEN
 72
    83
 73
     2
 40
0.375
 49
0.25
 74
     0
 49
-0.125
 74
     0
  0
LTYPE
  5
5F
330
5
100
AcDbSymbolTableRecord
100
AcDbLinetypeTableRecord
  2
CENTER
 70
     0
  3
CENTER
 72
    83
 73
     4
 40
2.0
 49
1.25
 74
     0
 49
-0.25
 74
     0
 49
0.25
 74
     0
 49
-0.25
 74
     0
  0
LTYPE
  5
60
330
5
100
AcDbSymbolTableRecord
100
AcDbLinetypeTableRecord
  2
PHANTOM
 70
     0
  3
PHANTOM
 72
    83
 73
     6
 40
2.5
 49
1.25
 74
     0
 49
-0.25
 74
     0
 49
0.25
 74
     0
 49
-0.25
 74
     0
 49
0.25
 74
     0
 49
-0.25
 74
     0
  0
ENDTAB
  0
TABLE
  2
LAYER
  5
2
330
0
100
AcDbSymbolTable
 70
     2
  0
LAYER
  5
10
330
2
100
AcDbSymbolTableRecord
100
AcDbLayerTableRecord
  2
0
 70
     0
 62
     7
  6
Continuous
370
    -3
390
F
  0
LAYER
  5
61
330
2
100
AcDbSymbolTableRecord
100
AcDbLayerTableRecord
  2
001
 70
     0
 62
     7
  6
Continuous
370
    -3
390
F
  0
ENDTAB
  0
TABLE
  2
STYLE
  5
3
330
0
100
AcDbSymbolTable
 70
     2
  0
STYLE
  5
11
330
3
100
AcDbSymbolTableRecord
100
AcDbTextStyleTableRecord
  2
Standard
 70
     0
 40
0.0
 41
1.0
 50
0.0
 71
     0
 42
0.2
  3
TXT
  4
BIGFONT
  0
STYLE
  5
62
330
3
100
AcDbSymbolTableRecord
100
AcDbTextStyleTableRecord
  2
TATEGAKI
 70
     4
 40
1.0
 41
1.0
 50
0.0
 71
     0
 42
0.2
  3
TXT
  4
BIGFONT
  0
ENDTAB
  0
TABLE
  2
VIEW
  5
6
330
0
100
AcDbSymbolTable
 70
     0
  0
ENDTAB
  0
TABLE
  2
UCS
  5
7
330
0
100
AcDbSymbolTable
 70
     0
  0
ENDTAB
  0
TABLE
  2
APPID
  5
9
330
0
100
AcDbSymbolTable
 70
     1
  0
APPID
  5
12
330
9
100
AcDbSymbolTableRecord
100
AcDbRegAppTableRecord
  2
ACAD
 70
     0
  0
ENDTAB
  0
TABLE
  2
DIMSTYLE
  5
A
330
0
100
AcDbSymbolTable
 70
     2
100
AcDbDimStyleTable
  0
DIMSTYLE
105
27
330
A
100
AcDbSymbolTableRecord
100
AcDbDimStyleTableRecord
  2
ISO-25
 70
     0
 41
2.5
 42
0.625
 43
3.75
 44
1.25
 73
     0
 74
     0
 77
     1
 78
     8
140
2.5
141
2.5
143
0.03937
147
0.625
171
     3
172
     1
271
     2
272
     2
274
     3
278
    44
283
     0
284
     8
340
11
  0
DIMSTYLE
105
63
102
{ACAD_REACTORS
330
109
330
10A
330
10B
330
10C
330
10D
330
10E
330
10F
330
110
102
}
330
A
100
AcDbSymbolTableRecord
100
AcDbDimStyleTableRecord
  2
Standard
 70
     0
 41
1.5
 42
0.0
 44
2.75
 73
     0
 74
     0
 77
     1
 78
     8
 79
     2
140
4.0
146
0.8
147
1.0
172
     1
179
     1
271
     1
340
11
  0
ENDTAB
  0
TABLE
  2
BLOCK_RECORD
  5
1
330
0
100
AcDbSymbolTable
 70
     9
  0
BLOCK_RECORD
  5
1F
330
1
100
AcDbSymbolTableRecord
100
AcDbBlockTableRecord
  2
*Model_Space
340
22
  0
BLOCK_RECORD
  5
1B
330
1
100
AcDbSymbolTableRecord
100
AcDbBlockTableRecord
  2
*Paper_Space
340
1E
  0
BLOCK_RECORD
  5
23
330
1
100
AcDbSymbolTableRecord
100
AcDbBlockTableRecord
  2
*Paper_Space0
340
26
  0
BLOCK_RECORD
  5
64
330
1
100
AcDbSymbolTableRecord
100
AcDbBlockTableRecord
  2
*D1
340
0
  0
BLOCK_RECORD
  5
78
330
1
100
AcDbSymbolTableRecord
100
AcDbBlockTableRecord
  2
*D2
340
0
  0
BLOCK_RECORD
  5
8C
330
1
100
AcDbSymbolTableRecord
100
AcDbBlockTableRecord
  2
*D3
340
0
  0
BLOCK_RECORD
  5
A0
330
1
100
AcDbSymbolTableRecord
100
AcDbBlockTableRecord
  2
*D4
340
0
  0
BLOCK_RECORD
  5
B4
330
1
100
AcDbSymbolTableRecord
100
AcDbBlockTableRecord
  2
*D5
340
0
  0
BLOCK_RECORD
  5
C8
330
1
100
AcDbSymbolTableRecord
100
AcDbBlockTableRecord
  2
*D6
340
0
  0
BLOCK_RECORD
  5
DD
330
1
100
AcDbSymbolTableRecord
100
AcDbBlockTableRecord
  2
*D7
340
0
  0
BLOCK_RECORD
  5
F3
330
1
100
AcDbSymbolTableRecord
100
AcDbBlockTableRecord
  2
*D8
340
0
  0
ENDTAB
  0
ENDSEC
  0
SECTION
  2
BLOCKS
  0
BLOCK
  5
20
330
1F
100
AcDbEntity
  8
0
100
AcDbBlockBegin
  2
*Model_Space
 70
     0
 10
0.0
 20
0.0
 30
0.0
  3
*Model_Space
  1

  0
ENDBLK
  5
21
330
1F
100
AcDbEntity
  8
0
100
AcDbBlockEnd
  0
BLOCK
  5
1C
330
1B
100
AcDbEntity
 67
     1
  8
0
100
AcDbBlockBegin
  2
*Paper_Space
 70
     0
 10
0.0
 20
0.0
 30
0.0
  3
*Paper_Space
  1

  0
ENDBLK
  5
1D
330
1B
100
AcDbEntity
 67
     1
  8
0
100
AcDbBlockEnd
  0
BLOCK
  5
24
330
23
100
AcDbEntity
  8
0
100
AcDbBlockBegin
  2
*Paper_Space0
 70
     0
 10
0.0
 20
0.0
 30
0.0
  3
*Paper_Space0
  1

  0
ENDBLK
  5
25
330
23
100
AcDbEntity
  8
0
100
AcDbBlockEnd
  0
BLOCK
  5
65
330
64
100
AcDbEntity
  8
0
100
AcDbBlockBegin
  2
*D1
 70
     1
 10
0.0
 20
0.0
 30
0.0
  3
*D1
  1

  0
LINE
  5
67
330
64
100
AcDbEntity
  8
001
370
     9
100
AcDbLine
 10
54.660405
 20
54.811115
 30
0.0
 11
43.526264
 21
54.811115
 31
0.0
  0
LINE
  5
68
330
64
100
AcDbEntity
  8
001
370
     9
100
AcDbLine
 10
54.660405
 20
84.811115
 30
0.0
 11
43.526264
 21
84.811115
 31
0.0
  0
LINE
  5
69
330
64
100
AcDbEntity
  8
001
370
     9
100
AcDbLine
 10
46.276264
 20
54.811115
 30
0.0
 11
46.276264
 21
84.811115
 31
0.0
  0
POLYLINE
  5
6A
330
64
100
AcDbEntity
  8
001
370
     9
100
AcDb2dPolyline
 66
     1
 10
0.0
 20
0.0
 30
0.0
  0
VERTEX
  5
6C
330
6A
100
AcDbEntity
  8
001
370
     9
100
AcDbVertex
100
AcDb2dVertex
 10
46.678188
 20
56.311115
 30
0.0
  0
VERTEX
  5
6D
330
6A
100
AcDbEntity
  8
001
370
     9
100
AcDbVertex
100
AcDb2dVertex
 10
46.276264
 20
54.811115
 30
0.0
  0
VERTEX
  5
6E
330
6A
100
AcDbEntity
  8
001
370
     9
100
AcDbVertex
100
AcDb2dVertex
 10
45.87434
 20
56.311115
 30
0.0
  0
SEQEND
  5
6B
330
6A
100
AcDbEntity
  8
001
370
     9
  0
POLYLINE
  5
6F
330
64
100
AcDbEntity
  8
001
370
     9
100
AcDb2dPolyline
 66
     1
 10
0.0
 20
0.0
 30
0.0
  0
VERTEX
  5
71
330
6F
100
AcDbEntity
  8
001
370
     9
100
AcDbVertex
100
AcDb2dVertex
 10
45.87434
 20
83.311115
 30
0.0
  0
VERTEX
  5
72
330
6F
100
AcDbEntity
  8
001
370
     9
100
AcDbVertex
100
AcDb2dVertex
 10
46.276264
 20
84.811115
 30
0.0
  0
VERTEX
  5
73
330
6F
100
AcDbEntity
  8
001
370
     9
100
AcDbVertex
100
AcDb2dVertex
 10
46.678188
 20
83.311115
 30
0.0
  0
SEQEND
  5
70
330
6F
100
AcDbEntity
  8
001
370
     9
  0
TEXT
  5
74
330
64
100
AcDbEntity
  8
001
370
    30
100
AcDbText
 10
45.276264
 20
63.811115
 30
0.0
 40
4.0
  1
%%c３０
 50
90.000003
 41
0.882353
100
AcDbText
  0
POINT
  5
75
330
64
100
AcDbEntity
  8
001
370
     9
100
AcDbPoint
 10
54.660405
 20
54.811115
 30
0.0
  0
POINT
  5
76
330
64
100
AcDbEntity
  8
001
370
     9
100
AcDbPoint
 10
54.660405
 20
84.811115
 30
0.0
  0
POINT
  5
77
330
64
100
AcDbEntity
  8
001
370
     9
100
AcDbPoint
 10
46.276264
 20
84.811115
 30
0.0
  0
ENDBLK
  5
66
330
64
100
AcDbEntity
  8
0
100
AcDbBlockEnd
  0
BLOCK
  5
79
330
78
100
AcDbEntity
  8
0
100
AcDbBlockBegin
  2
*D2
 70
     1
 10
0.0
 20
0.0
 30
0.0
  3
*D2
  1

  0
LINE
  5
7B
330
78
100
AcDbEntity
  8
001
370
     9
100
AcDbLine
 10
83.898511
 20
62.311115
 30
0.0
 11
83.898511
 21
14.795809
 31
0.0
  0
LINE
  5
7C
330
78
100
AcDbEntity
  8
001
370
     9
100
AcDbLine
 10
143.898511
 20
65.811115
 30
0.0
 11
143.898511
 21
14.795809
 31
0.0
  0
LINE
  5
7D
330
78
100
AcDbEntity
  8
001
370
     9
100
AcDbLine
 10
83.898511
 20
17.545809
 30
0.0
 11
143.898511
 21
17.545809
 31
0.0
  0
POLYLINE
  5
7E
330
78
100
AcDbEntity
  8
001
370
     9
100
AcDb2dPolyline
 66
     1
 10
0.0
 20
0.0
 30
0.0
  0
VERTEX
  5
80
330
7E
100
AcDbEntity
  8
001
370
     9
100
AcDbVertex
100
AcDb2dVertex
 10
85.398511
 20
17.143885
 30
0.0
  0
VERTEX
  5
81
330
7E
100
AcDbEntity
  8
001
370
     9
100
AcDbVertex
100
AcDb2dVertex
 10
83.898511
 20
17.545809
 30
0.0
  0
VERTEX
  5
82
330
7E
100
AcDbEntity
  8
001
370
     9
100
AcDbVertex
100
AcDb2dVertex
 10
85.398511
 20
17.947732
 30
0.0
  0
SEQEND
  5
7F
330
7E
100
AcDbEntity
  8
001
370
     9
  0
POLYLINE
  5
83
330
78
100
AcDbEntity
  8
001
370
     9
100
AcDb2dPolyline
 66
     1
 10
0.0
 20
0.0
 30
0.0
  0
VERTEX
  5
85
330
83
100
AcDbEntity
  8
001
370
     9
100
AcDbVertex
100
AcDb2dVertex
 10
142.398511
 20
17.947732
 30
0.0
  0
VERTEX
  5
86
330
83
100
AcDbEntity
  8
001
370
     9
100
AcDbVertex
100
AcDb2dVertex
 10
143.898511
 20
17.545809
 30
0.0
  0
VERTEX
  5
87
330
83
100
AcDbEntity
  8
001
370
     9
100
AcDbVertex
100
AcDb2dVertex
 10
142.398511
 20
17.143885
 30
0.0
  0
SEQEND
  5
84
330
83
100
AcDbEntity
  8
001
370
     9
  0
TEXT
  5
88
330
78
100
AcDbEntity
  8
001
370
    30
100
AcDbText
 10
109.898511
 20
18.545809
 30
0.0
 40
4.0
  1
６０
 41
0.833333
100
AcDbText
  0
POINT
  5
89
330
78
100
AcDbEntity
  8
001
370
     9
100
AcDbPoint
 10
83.898511
 20
62.311115
 30
0.0
  0
POINT
  5
8A
330
78
100
AcDbEntity
  8
001
370
     9
100
AcDbPoint
 10
143.898511
 20
65.811115
 30
0.0
  0
POINT
  5
8B
330
78
100
AcDbEntity
  8
001
370
     9
100
AcDbPoint
 10
143.898511
 20
17.545809
 30
0.0
  0
ENDBLK
  5
7A
330
78
100
AcDbEntity
  8
0
100
AcDbBlockEnd
  0
BLOCK
  5
8D
330
8C
100
AcDbEntity
  8
0
100
AcDbBlockBegin
  2
*D3
 70
     1
 10
0.0
 20
0.0
 30
0.0
  3
*D3
  1

  0
LINE
  5
8F
330
8C
100
AcDbEntity
  8
001
370
     9
100
AcDbLine
 10
83.898511
 20
62.311115
 30
0.0
 11
83.898511
 21
14.795809
 31
0.0
  0
LINE
  5
90
330
8C
100
AcDbEntity
  8
001
370
     9
100
AcDbLine
 10
58.898511
 20
54.411115
 30
0.0
 11
58.898511
 21
14.795809
 31
0.0
  0
LINE
  5
91
330
8C
100
AcDbEntity
  8
001
370
     9
100
AcDbLine
 10
83.898511
 20
17.545809
 30
0.0
 11
58.898511
 21
17.545809
 31
0.0
  0
POLYLINE
  5
92
330
8C
100
AcDbEntity
  8
001
370
     9
100
AcDb2dPolyline
 66
     1
 10
0.0
 20
0.0
 30
0.0
  0
VERTEX
  5
94
330
92
100
AcDbEntity
  8
001
370
     9
100
AcDbVertex
100
AcDb2dVertex
 10
82.398511
 20
17.947732
 30
0.0
  0
VERTEX
  5
95
330
92
100
AcDbEntity
  8
001
370
     9
100
AcDbVertex
100
AcDb2dVertex
 10
83.898511
 20
17.545809
 30
0.0
  0
VERTEX
  5
96
330
92
100
AcDbEntity
  8
001
370
     9
100
AcDbVertex
100
AcDb2dVertex
 10
82.398511
 20
17.143885
 30
0.0
  0
SEQEND
  5
93
330
92
100
AcDbEntity
  8
001
370
     9
  0
POLYLINE
  5
97
330
8C
100
AcDbEntity
  8
001
370
     9
100
AcDb2dPolyline
 66
     1
 10
0.0
 20
0.0
 30
0.0
  0
VERTEX
  5
99
330
97
100
AcDbEntity
  8
001
370
     9
100
AcDbVertex
100
AcDb2dVertex
 10
60.398511
 20
17.143885
 30
0.0
  0
VERTEX
  5
9A
330
97
100
AcDbEntity
  8
001
370
     9
100
AcDbVertex
100
AcDb2dVertex
 10
58.898511
 20
17.545809
 30
0.0
  0
VERTEX
  5
9B
330
97
100
AcDbEntity
  8
001
370
     9
100
AcDbVertex
100
AcDb2dVertex
 10
60.398511
 20
17.947732
 30
0.0
  0
SEQEND
  5
98
330
97
100
AcDbEntity
  8
001
370
     9
  0
TEXT
  5
9C
330
8C
100
AcDbEntity
  8
001
370
    30
100
AcDbText
 10
67.398511
 20
18.545809
 30
0.0
 40
4.0
  1
２５
 41
0.833333
100
AcDbText
  0
POINT
  5
9D
330
8C
100
AcDbEntity
  8
001
370
     9
100
AcDbPoint
 10
83.898511
 20
62.311115
 30
0.0
  0
POINT
  5
9E
330
8C
100
AcDbEntity
  8
001
370
     9
100
AcDbPoint
 10
58.898511
 20
54.411115
 30
0.0
  0
POINT
  5
9F
330
8C
100
AcDbEntity
  8
001
370
     9
100
AcDbPoint
 10
58.898511
 20
17.545809
 30
0.0
  0
ENDBLK
  5
8E
330
8C
100
AcDbEntity
  8
0
100
AcDbBlockEnd
  0
BLOCK
  5
A1
330
A0
100
AcDbEntity
  8
0
100
AcDbBlockBegin
  2
*D4
 70
     1
 10
0.0
 20
0.0
 30
0.0
  3
*D4
  1

  0
LINE
  5
A3
330
A0
100
AcDbEntity
  8
001
370
     9
100
AcDbLine
 10
143.898511
 20
65.811115
 30
0.0
 11
143.898511
 21
6.059261
 31
0.0
  0
LINE
  5
A4
330
A0
100
AcDbEntity
  8
001
370
     9
100
AcDbLine
 10
58.898511
 20
54.411115
 30
0.0
 11
58.898511
 21
6.059261
 31
0.0
  0
LINE
  5
A5
330
A0
100
AcDbEntity
  8
001
370
     9
100
AcDbLine
 10
143.898511
 20
8.809261
 30
0.0
 11
58.898511
 21
8.809261
 31
0.0
  0
POLYLINE
  5
A6
330
A0
100
AcDbEntity
  8
001
370
     9
100
AcDb2dPolyline
 66
     1
 10
0.0
 20
0.0
 30
0.0
  0
VERTEX
  5
A8
330
A6
100
AcDbEntity
  8
001
370
     9
100
AcDbVertex
100
AcDb2dVertex
 10
142.398511
 20
9.211185
 30
0.0
  0
VERTEX
  5
A9
330
A6
100
AcDbEntity
  8
001
370
     9
100
AcDbVertex
100
AcDb2dVertex
 10
143.898511
 20
8.809261
 30
0.0
  0
VERTEX
  5
AA
330
A6
100
AcDbEntity
  8
001
370
     9
100
AcDbVertex
100
AcDb2dVertex
 10
142.398511
 20
8.407338
 30
0.0
  0
SEQEND
  5
A7
330
A6
100
AcDbEntity
  8
001
370
     9
  0
POLYLINE
  5
AB
330
A0
100
AcDbEntity
  8
001
370
     9
100
AcDb2dPolyline
 66
     1
 10
0.0
 20
0.0
 30
0.0
  0
VERTEX
  5
AD
330
AB
100
AcDbEntity
  8
001
370
     9
100
AcDbVertex
100
AcDb2dVertex
 10
60.398511
 20
8.407338
 30
0.0
  0
VERTEX
  5
AE
330
AB
100
AcDbEntity
  8
001
370
     9
100
AcDbVertex
100
AcDb2dVertex
 10
58.898511
 20
8.809261
 30
0.0
  0
VERTEX
  5
AF
330
AB
100
AcDbEntity
  8
001
370
     9
100
AcDbVertex
100
AcDb2dVertex
 10
60.398511
 20
9.211185
 30
0.0
  0
SEQEND
  5
AC
330
AB
100
AcDbEntity
  8
001
370
     9
  0
TEXT
  5
B0
330
A0
100
AcDbEntity
  8
001
370
    30
100
AcDbText
 10
97.398511
 20
9.809261
 30
0.0
 40
4.0
  1
８５
 41
0.833333
100
AcDbText
  0
POINT
  5
B1
330
A0
100
AcDbEntity
  8
001
370
     9
100
AcDbPoint
 10
143.898511
 20
65.811115
 30
0.0
  0
POINT
  5
B2
330
A0
100
AcDbEntity
  8
001
370
     9
100
AcDbPoint
 10
58.898511
 20
54.411115
 30
0.0
  0
POINT
  5
B3
330
A0
100
AcDbEntity
  8
001
370
     9
100
AcDbPoint
 10
58.898511
 20
8.809261
 30
0.0
  0
ENDBLK
  5
A2
330
A0
100
AcDbEntity
  8
0
100
AcDbBlockEnd
  0
BLOCK
  5
B5
330
B4
100
AcDbEntity
  8
0
100
AcDbBlockBegin
  2
*D5
 70
     1
 10
0.0
 20
0.0
 30
0.0
  3
*D5
  1

  0
LINE
  5
B7
330
B4
100
AcDbEntity
  8
001
370
     9
100
AcDbLine
 10
64.433567
 20
90.821115
 30
0.0
 11
34.178177
 21
90.821115
 31
0.0
  0
LINE
  5
B8
330
B4
100
AcDbEntity
  8
001
370
     9
100
AcDbLine
 10
64.433567
 20
48.801115
 30
0.0
 11
34.178177
 21
48.801115
 31
0.0
  0
LINE
  5
B9
330
B4
100
AcDbEntity
  8
001
370
     9
100
AcDbLine
 10
36.928177
 20
90.821115
 30
0.0
 11
36.928177
 21
48.801115
 31
0.0
  0
POLYLINE
  5
BA
330
B4
100
AcDbEntity
  8
001
370
     9
100
AcDb2dPolyline
 66
     1
 10
0.0
 20
0.0
 30
0.0
  0
VERTEX
  5
BC
330
BA
100
AcDbEntity
  8
001
370
     9
100
AcDbVertex
100
AcDb2dVertex
 10
36.526253
 20
89.321115
 30
0.0
  0
VERTEX
  5
BD
330
BA
100
AcDbEntity
  8
001
370
     9
100
AcDbVertex
100
AcDb2dVertex
 10
36.928177
 20
90.821115
 30
0.0
  0
VERTEX
  5
BE
330
BA
100
AcDbEntity
  8
001
370
     9
100
AcDbVertex
100
AcDb2dVertex
 10
37.330101
 20
89.321115
 30
0.0
  0
SEQEND
  5
BB
330
BA
100
AcDbEntity
  8
001
370
     9
  0
POLYLINE
  5
BF
330
B4
100
AcDbEntity
  8
001
370
     9
100
AcDb2dPolyline
 66
     1
 10
0.0
 20
0.0
 30
0.0
  0
VERTEX
  5
C1
330
BF
100
AcDbEntity
  8
001
370
     9
100
AcDbVertex
100
AcDb2dVertex
 10
37.330101
 20
50.301115
 30
0.0
  0
VERTEX
  5
C2
330
BF
100
AcDbEntity
  8
001
370
     9
100
AcDbVertex
100
AcDb2dVertex
 10
36.928177
 20
48.801115
 30
0.0
  0
VERTEX
  5
C3
330
BF
100
AcDbEntity
  8
001
370
     9
100
AcDbVertex
100
AcDb2dVertex
 10
36.526253
 20
50.301115
 30
0.0
  0
SEQEND
  5
C0
330
BF
100
AcDbEntity
  8
001
370
     9
  0
TEXT
  5
C4
330
B4
100
AcDbEntity
  8
001
370
    30
100
AcDbText
 10
35.928177
 20
59.811115
 30
0.0
 40
4.0
  1
（%%c４２）
 50
90.000003
 41
0.862069
100
AcDbText
  0
POINT
  5
C5
330
B4
100
AcDbEntity
  8
001
370
     9
100
AcDbPoint
 10
64.433567
 20
90.821115
 30
0.0
  0
POINT
  5
C6
330
B4
100
AcDbEntity
  8
001
370
     9
100
AcDbPoint
 10
64.433567
 20
48.801115
 30
0.0
  0
POINT
  5
C7
330
B4
100
AcDbEntity
  8
001
370
     9
100
AcDbPoint
 10
36.928177
 20
48.801115
 30
0.0
  0
ENDBLK
  5
B6
330
B4
100
AcDbEntity
  8
0
100
AcDbBlockEnd
  0
BLOCK
  5
C9
330
C8
100
AcDbEntity
  8
0
100
AcDbBlockBegin
  2
*D6
 70
     1
 10
0.0
 20
0.0
 30
0.0
  3
*D6
  1

  0
LINE
  5
CB
330
C8
100
AcDbEntity
  8
001
370
     9
100
AcDbLine
 10
63.863458
 20
49.039889
 30
0.0
 11
81.129659
 21
31.500408
 31
0.0
  0
LINE
  5
CC
330
C8
100
AcDbEntity
  8
001
370
     9
100
AcDbLine
 10
58.898511
 20
35.236445
 30
0.0
 11
58.898511
 21
22.394046
 31
0.0
  0
ARC
  5
CD
330
C8
100
AcDbEntity
  8
001
370
     9
100
AcDbCircle
 10
58.898511
 20
54.083418
 30
0.0
 40
28.93937184049754
100
AcDbArc
 50
270.0
 51
314.550147
  0
POLYLINE
  5
CE
330
C8
100
AcDbEntity
  8
001
370
     9
100
AcDb2dPolyline
 66
     1
 10
0.0
 20
0.0
 30
0.0
  0
VERTEX
  5
D0
330
CE
100
AcDbEntity
  8
001
370
     9
100
AcDbVertex
100
AcDb2dVertex
 10
77.830132
 20
32.729549
 30
0.0
  0
VERTEX
  5
D1
330
CE
100
AcDbEntity
  8
001
370
     9
100
AcDbVertex
100
AcDb2dVertex
 10
79.200443
 20
33.460159
 30
0.0
  0
VERTEX
  5
D2
330
CE
100
AcDbEntity
  8
001
370
     9
100
AcDbVertex
100
AcDb2dVertex
 10
78.379024
 20
32.142277
 30
0.0
  0
SEQEND
  5
CF
330
CE
100
AcDbEntity
  8
001
370
     9
  0
POLYLINE
  5
D3
330
C8
100
AcDbEntity
  8
001
370
     9
100
AcDb2dPolyline
 66
     1
 10
0.0
 20
0.0
 30
0.0
  0
VERTEX
  5
D5
330
D3
100
AcDbEntity
  8
001
370
     9
100
AcDbVertex
100
AcDb2dVertex
 10
60.408423
 20
24.781127
 30
0.0
  0
VERTEX
  5
D6
330
D3
100
AcDbEntity
  8
001
370
     9
100
AcDbVertex
100
AcDb2dVertex
 10
58.898511
 20
25.144046
 30
0.0
  0
VERTEX
  5
D7
330
D3
100
AcDbEntity
  8
001
370
     9
100
AcDbVertex
100
AcDb2dVertex
 10
60.387592
 20
25.584705
 30
0.0
  0
SEQEND
  5
D4
330
D3
100
AcDbEntity
  8
001
370
     9
  0
TEXT
  5
D8
330
C8
100
AcDbEntity
  8
001
370
    30
100
AcDbText
 10
60.235284
 20
24.438494
 30
0.0
 40
4.0
  1
（４５%%d）
 50
22.275074
 41
0.914634
100
AcDbText
  0
POINT
  5
D9
330
C8
100
AcDbEntity
  8
001
370
     9
100
AcDbPoint
 10
63.863458
 20
49.039889
 30
0.0
  0
POINT
  5
DA
330
C8
100
AcDbEntity
  8
001
370
     9
100
AcDbPoint
 10
58.898511
 20
54.083418
 30
0.0
  0
POINT
  5
DB
330
C8
100
AcDbEntity
  8
001
370
     9
100
AcDbPoint
 10
58.898511
 20
54.083418
 30
0.0
  0
POINT
  5
DC
330
C8
100
AcDbEntity
  8
001
370
     9
100
AcDbPoint
 10
58.898511
 20
35.236445
 30
0.0
  0
ENDBLK
  5
CA
330
C8
100
AcDbEntity
  8
0
100
AcDbBlockEnd
  0
BLOCK
  5
DE
330
DD
100
AcDbEntity
  8
0
100
AcDbBlockBegin
  2
*D7
 70
     1
 10
0.0
 20
0.0
 30
0.0
  3
*D7
  1

  0
LINE
  5
E0
330
DD
100
AcDbEntity
  8
001
370
     9
100
AcDbLine
 10
141.898511
 20
75.811115
 30
0.0
 11
171.359925
 21
75.811115
 31
0.0
  0
LINE
  5
E1
330
DD
100
AcDbEntity
  8
001
370
     9
100
AcDbLine
 10
141.898511
 20
63.811115
 30
0.0
 11
171.359925
 21
63.811115
 31
0.0
  0
LINE
  5
E2
330
DD
100
AcDbEntity
  8
001
370
     9
100
AcDbLine
 10
168.609925
 20
75.811115
 30
0.0
 11
168.609925
 21
63.811115
 31
0.0
  0
POLYLINE
  5
E3
330
DD
100
AcDbEntity
  8
001
370
     9
100
AcDb2dPolyline
 66
     1
 10
0.0
 20
0.0
 30
0.0
  0
VERTEX
  5
E5
330
E3
100
AcDbEntity
  8
001
370
     9
100
AcDbVertex
100
AcDb2dVertex
 10
169.011849
 20
77.311115
 30
0.0
  0
VERTEX
  5
E6
330
E3
100
AcDbEntity
  8
001
370
     9
100
AcDbVertex
100
AcDb2dVertex
 10
168.609925
 20
75.811115
 30
0.0
  0
VERTEX
  5
E7
330
E3
100
AcDbEntity
  8
001
370
     9
100
AcDbVertex
100
AcDb2dVertex
 10
168.208001
 20
77.311115
 30
0.0
  0
SEQEND
  5
E4
330
E3
100
AcDbEntity
  8
001
370
     9
  0
POLYLINE
  5
E8
330
DD
100
AcDbEntity
  8
001
370
     9
100
AcDb2dPolyline
 66
     1
 10
0.0
 20
0.0
 30
0.0
  0
VERTEX
  5
EA
330
E8
100
AcDbEntity
  8
001
370
     9
100
AcDbVertex
100
AcDb2dVertex
 10
168.208001
 20
62.311115
 30
0.0
  0
VERTEX
  5
EB
330
E8
100
AcDbEntity
  8
001
370
     9
100
AcDbVertex
100
AcDb2dVertex
 10
168.609925
 20
63.811115
 30
0.0
  0
VERTEX
  5
EC
330
E8
100
AcDbEntity
  8
001
370
     9
100
AcDbVertex
100
AcDb2dVertex
 10
169.011849
 20
62.311115
 30
0.0
  0
SEQEND
  5
E9
330
E8
100
AcDbEntity
  8
001
370
     9
  0
TEXT
  5
ED
330
DD
100
AcDbEntity
  8
001
370
    30
100
AcDbText
 10
167.609925
 20
48.311115
 30
0.0
 40
4.0
  1
%%c１２
 50
90.000003
 41
0.882353
100
AcDbText
  0
POINT
  5
EE
330
DD
100
AcDbEntity
  8
001
370
     9
100
AcDbPoint
 10
141.898511
 20
75.811115
 30
0.0
  0
POINT
  5
EF
330
DD
100
AcDbEntity
  8
001
370
     9
100
AcDbPoint
 10
141.898511
 20
63.811115
 30
0.0
  0
POINT
  5
F0
330
DD
100
AcDbEntity
  8
001
370
     9
100
AcDbPoint
 10
168.609925
 20
63.811115
 30
0.0
  0
LINE
  5
F1
330
DD
100
AcDbEntity
  8
001
370
     9
100
AcDbLine
 10
168.609925
 20
75.811115
 30
0.0
 11
168.609925
 21
78.311115
 31
0.0
  0
LINE
  5
F2
330
DD
100
AcDbEntity
  8
001
370
     9
100
AcDbLine
 10
168.609925
 20
63.811115
 30
0.0
 11
168.609925
 21
45.311115
 31
0.0
  0
ENDBLK
  5
DF
330
DD
100
AcDbEntity
  8
0
100
AcDbBlockEnd
  0
BLOCK
  5
F4
330
F3
100
AcDbEntity
  8
0
100
AcDbBlockBegin
  2
*D8
 70
     1
 10
0.0
 20
0.0
 30
0.0
  3
*D8
  1

  0
LINE
  5
F6
330
F3
100
AcDbEntity
  8
001
370
     9
100
AcDbLine
 10
64.098511
 20
48.801115
 30
0.0
 11
64.098511
 21
32.486445
 31
0.0
  0
LINE
  5
F7
330
F3
100
AcDbEntity
  8
001
370
     9
100
AcDbLine
 10
58.898511
 20
54.411115
 30
0.0
 11
58.898511
 21
32.486445
 31
0.0
  0
LINE
  5
F8
330
F3
100
AcDbEntity
  8
001
370
     9
100
AcDbLine
 10
64.098511
 20
35.236445
 30
0.0
 11
58.898511
 21
35.236445
 31
0.0
  0
POLYLINE
  5
F9
330
F3
100
AcDbEntity
  8
001
370
     9
100
AcDb2dPolyline
 66
     1
 10
0.0
 20
0.0
 30
0.0
  0
VERTEX
  5
FB
330
F9
100
AcDbEntity
  8
001
370
     9
100
AcDbVertex
100
AcDb2dVertex
 10
65.598511
 20
34.834521
 30
0.0
  0
VERTEX
  5
FC
330
F9
100
AcDbEntity
  8
001
370
     9
100
AcDbVertex
100
AcDb2dVertex
 10
64.098511
 20
35.236445
 30
0.0
  0
VERTEX
  5
FD
330
F9
100
AcDbEntity
  8
001
370
     9
100
AcDbVertex
100
AcDb2dVertex
 10
65.598511
 20
35.638369
 30
0.0
  0
SEQEND
  5
FA
330
F9
100
AcDbEntity
  8
001
370
     9
  0
POLYLINE
  5
FE
330
F3
100
AcDbEntity
  8
001
370
     9
100
AcDb2dPolyline
 66
     1
 10
0.0
 20
0.0
 30
0.0
  0
VERTEX
  5
100
330
FE
100
AcDbEntity
  8
001
370
     9
100
AcDbVertex
100
AcDb2dVertex
 10
57.398511
 20
35.638369
 30
0.0
  0
VERTEX
  5
101
330
FE
100
AcDbEntity
  8
001
370
     9
100
AcDbVertex
100
AcDb2dVertex
 10
58.898511
 20
35.236445
 30
0.0
  0
VERTEX
  5
102
330
FE
100
AcDbEntity
  8
001
370
     9
100
AcDbVertex
100
AcDb2dVertex
 10
57.398511
 20
34.834521
 30
0.0
  0
SEQEND
  5
FF
330
FE
100
AcDbEntity
  8
001
370
     9
  0
TEXT
  5
103
330
F3
100
AcDbEntity
  8
001
370
    30
100
AcDbText
 10
35.398511
 20
36.236445
 30
0.0
 40
4.0
  1
（５．２）
 41
0.833333
100
AcDbText
  0
POINT
  5
104
330
F3
100
AcDbEntity
  8
001
370
     9
100
AcDbPoint
 10
64.098511
 20
48.801115
 30
0.0
  0
POINT
  5
105
330
F3
100
AcDbEntity
  8
001
370
     9
100
AcDbPoint
 10
58.898511
 20
54.411115
 30
0.0
  0
POINT
  5
106
330
F3
100
AcDbEntity
  8
001
370
     9
100
AcDbPoint
 10
58.898511
 20
35.236445
 30
0.0
  0
LINE
  5
107
330
F3
100
AcDbEntity
  8
001
370
     9
100
AcDbLine
 10
64.098511
 20
35.236445
 30
0.0
 11
66.598511
 21
35.236445
 31
0.0
  0
LINE
  5
108
330
F3
100
AcDbEntity
  8
001
370
     9
100
AcDbLine
 10
58.898511
 20
35.236445
 30
0.0
 11
32.398511
 21
35.236445
 31
0.0
  0
ENDBLK
  5
F5
330
F3
100
AcDbEntity
  8
0
100
AcDbBlockEnd
  0
ENDSEC
  0
SECTION
  2
ENTITIES
  0
DIMENSION
  5
109
330
1F
100
AcDbEntity
  8
001
370
     9
100
AcDbDimension
  2
*D1
 10
46.276264
 20
84.811115
 30
0.0
 11
43.276264
 21
69.811115
 31
0.0
 70
   160
 71
     5
 42
-1.0
  3
Standard
100
AcDbAlignedDimension
 13
54.660405
 23
54.811115
 33
0.0
 14
54.660405
 24
84.811115
 34
0.0
 50
90.0
100
AcDbRotatedDimension
  0
DIMENSION
  5
10A
330
1F
100
AcDbEntity
  8
001
370
     9
100
AcDbDimension
  2
*D2
 10
143.898511
 20
17.545809
 30
0.0
 11
113.898511
 21
20.545809
 31
0.0
 70
   160
 71
     5
 42
-1.0
  3
Standard
100
AcDbAlignedDimension
 13
83.898511
 23
62.311115
 33
0.0
 14
143.898511
 24
65.811115
 34
0.0
100
AcDbRotatedDimension
  0
DIMENSION
  5
10B
330
1F
100
AcDbEntity
  8
001
370
     9
100
AcDbDimension
  2
*D3
 10
58.898511
 20
17.545809
 30
0.0
 11
71.398511
 21
20.545809
 31
0.0
 70
   160
 71
     5
 42
-1.0
  3
Standard
100
AcDbAlignedDimension
 13
83.898511
 23
62.311115
 33
0.0
 14
58.898511
 24
54.411115
 34
0.0
 50
180.0
100
AcDbRotatedDimension
  0
DIMENSION
  5
10C
330
1F
100
AcDbEntity
  8
001
370
     9
100
AcDbDimension
  2
*D4
 10
58.898511
 20
8.809261
 30
0.0
 11
101.398511
 21
11.809261
 31
0.0
 70
   160
 71
     5
 42
-1.0
  3
Standard
100
AcDbAlignedDimension
 13
143.898511
 23
65.811115
 33
0.0
 14
58.898511
 24
54.411115
 34
0.0
 50
180.0
100
AcDbRotatedDimension
  0
DIMENSION
  5
10D
330
1F
100
AcDbEntity
  8
001
370
     9
100
AcDbDimension
  2
*D5
 10
36.928177
 20
48.801115
 30
0.0
 11
33.928177
 21
69.811115
 31
0.0
 70
   160
 71
     5
 42
-1.0
  3
Standard
100
AcDbAlignedDimension
 13
64.433567
 23
90.821115
 33
0.0
 14
64.433567
 24
48.801115
 34
0.0
 50
270.0
100
AcDbRotatedDimension
  0
DIMENSION
  5
10E
330
1F
100
AcDbEntity
  8
001
370
     9
100
AcDbDimension
  2
*D6
 10
58.898511
 20
54.083418
 30
0.0
 11
68.730924
 21
30.079779
 31
0.0
 70
    34
 71
     5
 42
-1.0
  3
Standard
100
AcDb2LineAngularDimension
 13
63.863458
 23
49.039889
 33
0.0
 14
58.898511
 24
54.083418
 34
0.0
 15
58.898511
 25
35.236445
 35
0.0
 16
69.868085
 26
27.303655
 36
0.0
  0
DIMENSION
  5
10F
330
1F
100
AcDbEntity
  8
001
370
     9
100
AcDbDimension
  2
*D7
 10
168.609925
 20
63.811115
 30
0.0
 11
165.609925
 21
54.311115
 31
0.0
 70
   160
 71
     5
 42
-1.0
  3
Standard
100
AcDbAlignedDimension
 13
141.898511
 23
75.811115
 33
0.0
 14
141.898511
 24
63.811115
 34
0.0
 50
270.0
100
AcDbRotatedDimension
  0
DIMENSION
  5
110
330
1F
100
AcDbEntity
  8
001
370
     9
100
AcDbDimension
  2
*D8
 10
58.898511
 20
35.236445
 30
0.0
 11
45.398511
 21
38.236445
 31
0.0
 70
   160
 71
     5
 42
-1.0
  3
Standard
100
AcDbAlignedDimension
 13
64.098511
 23
48.801115
 33
0.0
 14
58.898511
 24
54.411115
 34
0.0
 50
180.0
100
AcDbRotatedDimension
  0
TEXT
  5
111
330
1F
100
AcDbEntity
  8
001
370
    30
100
AcDbText
 10
22.868634
 20
105.000238
 30
0.0
 40
10.0
  1
エアロミル　ＡＲＮ１２－３０Ｓ
 41
0.833333
100
AcDbText
  0
LINE
  5
112
330
1F
100
AcDbEntity
  8
001
370
    50
100
AcDbLine
 10
143.898511
 20
73.811115
 30
0.0
 11
143.898511
 21
65.811115
 31
0.0
  0
POLYLINE
  5
113
330
1F
100
AcDbEntity
  8
001
370
    50
100
AcDb2dPolyline
 66
     1
 10
0.0
 20
0.0
 30
0.0
  0
VERTEX
  5
115
330
113
100
AcDbEntity
  8
001
370
    50
100
AcDbVertex
100
AcDb2dVertex
 10
64.471634
 20
83.266853
 30
0.0
  0
VERTEX
  5
116
330
113
100
AcDbEntity
  8
001
370
    50
100
AcDbVertex
100
AcDb2dVertex
 10
64.40627
 20
83.259067
 30
0.0
  0
VERTEX
  5
117
330
113
100
AcDbEntity
  8
001
370
    50
100
AcDbVertex
100
AcDb2dVertex
 10
64.316417
 20
83.245039
 30
0.0
  0
VERTEX
  5
118
330
113
100
AcDbEntity
  8
001
370
    50
100
AcDbVertex
100
AcDb2dVertex
 10
64.237347
 20
83.228011
 30
0.0
  0
VERTEX
  5
119
330
113
100
AcDbEntity
  8
001
370
    50
100
AcDbVertex
100
AcDb2dVertex
 10
64.167165
 20
83.208692
 30
0.0
  0
VERTEX
  5
11A
330
113
100
AcDbEntity
  8
001
370
    50
100
AcDbVertex
100
AcDb2dVertex
 10
64.101255
 20
83.187613
 30
0.0
  0
VERTEX
  5
11B
330
113
100
AcDbEntity
  8
001
370
    50
100
AcDbVertex
100
AcDb2dVertex
 10
64.029613
 20
83.159207
 30
0.0
  0
VERTEX
  5
11C
330
113
100
AcDbEntity
  8
001
370
    50
100
AcDbVertex
100
AcDb2dVertex
 10
63.958894
 20
83.125313
 30
0.0
  0
VERTEX
  5
11D
330
113
100
AcDbEntity
  8
001
370
    50
100
AcDbVertex
100
AcDb2dVertex
 10
63.909048
 20
83.098488
 30
0.0
  0
SEQEND
  5
114
330
113
100
AcDbEntity
  8
001
370
    50
  0
POLYLINE
  5
11E
330
1F
100
AcDbEntity
  8
001
370
    50
100
AcDb2dPolyline
 66
     1
 10
0.0
 20
0.0
 30
0.0
  0
VERTEX
  5
120
330
11E
100
AcDbEntity
  8
001
370
    50
100
AcDbVertex
100
AcDb2dVertex
 10
64.804035
 20
80.527979
 30
0.0
  0
VERTEX
  5
121
330
11E
100
AcDbEntity
  8
001
370
    50
100
AcDbVertex
100
AcDb2dVertex
 10
64.738671
 20
80.520193
 30
0.0
  0
VERTEX
  5
122
330
11E
100
AcDbEntity
  8
001
370
    50
100
AcDbVertex
100
AcDb2dVertex
 10
64.648817
 20
80.506165
 30
0.0
  0
VERTEX
  5
123
330
11E
100
AcDbEntity
  8
001
370
    50
100
AcDbVertex
100
AcDb2dVertex
 10
64.569748
 20
80.489137
 30
0.0
  0
VERTEX
  5
124
330
11E
100
AcDbEntity
  8
001
370
    50
100
AcDbVertex
100
AcDb2dVertex
 10
64.499565
 20
80.469817
 30
0.0
  0
VERTEX
  5
125
330
11E
100
AcDbEntity
  8
001
370
    50
100
AcDbVertex
100
AcDb2dVertex
 10
64.433656
 20
80.448738
 30
0.0
  0
VERTEX
  5
126
330
11E
100
AcDbEntity
  8
001
370
    50
100
AcDbVertex
100
AcDb2dVertex
 10
64.362013
 20
80.420333
 30
0.0
  0
VERTEX
  5
127
330
11E
100
AcDbEntity
  8
001
370
    50
100
AcDbVertex
100
AcDb2dVertex
 10
64.291295
 20
80.386439
 30
0.0
  0
VERTEX
  5
128
330
11E
100
AcDbEntity
  8
001
370
    50
100
AcDbVertex
100
AcDb2dVertex
 10
64.241448
 20
80.359614
 30
0.0
  0
SEQEND
  5
11F
330
11E
100
AcDbEntity
  8
001
370
    50
  0
POLYLINE
  5
129
330
1F
100
AcDbEntity
  8
001
370
    50
100
AcDb2dPolyline
 66
     1
 10
0.0
 20
0.0
 30
0.0
  0
VERTEX
  5
12B
330
129
100
AcDbEntity
  8
001
370
    50
100
AcDbVertex
100
AcDb2dVertex
 10
66.162239
 20
80.53445
 30
0.0
  0
VERTEX
  5
12C
330
129
100
AcDbEntity
  8
001
370
    50
100
AcDbVertex
100
AcDb2dVertex
 10
66.112213
 20
80.552245
 30
0.0
  0
VERTEX
  5
12D
330
129
100
AcDbEntity
  8
001
370
    50
100
AcDbVertex
100
AcDb2dVertex
 10
66.041674
 20
80.573221
 30
0.0
  0
VERTEX
  5
12E
330
129
100
AcDbEntity
  8
001
370
    50
100
AcDbVertex
100
AcDb2dVertex
 10
65.969651
 20
80.588691
 30
0.0
  0
VERTEX
  5
12F
330
129
100
AcDbEntity
  8
001
370
    50
100
AcDbVertex
100
AcDb2dVertex
 10
65.904122
 20
80.597664
 30
0.0
  0
VERTEX
  5
130
330
129
100
AcDbEntity
  8
001
370
    50
100
AcDbVertex
100
AcDb2dVertex
 10
65.833534
 20
80.604196
 30
0.0
  0
VERTEX
  5
131
330
129
100
AcDbEntity
  8
001
370
    50
100
AcDbVertex
100
AcDb2dVertex
 10
65.754869
 20
80.606841
 30
0.0
  0
VERTEX
  5
132
330
129
100
AcDbEntity
  8
001
370
    50
100
AcDbVertex
100
AcDb2dVertex
 10
65.664786
 20
80.604516
 30
0.0
  0
VERTEX
  5
133
330
129
100
AcDbEntity
  8
001
370
    50
100
AcDbVertex
100
AcDb2dVertex
 10
65.599652
 20
80.600399
 30
0.0
  0
SEQEND
  5
12A
330
129
100
AcDbEntity
  8
001
370
    50
  0
LINE
  5
134
330
1F
100
AcDbEntity
  8
001
370
    50
100
AcDbLine
 10
66.162239
 20
80.53445
 30
0.0
 11
70.939744
 21
78.567402
 31
0.0
  0
LINE
  5
135
330
1F
100
AcDbEntity
  8
001
370
    50
100
AcDbLine
 10
59.230912
 20
76.818787
 30
0.0
 11
59.230912
 21
77.218787
 31
0.0
  0
POLYLINE
  5
136
330
1F
100
AcDbEntity
  8
001
370
    50
100
AcDb2dPolyline
 66
     1
 10
0.0
 20
0.0
 30
0.0
  0
VERTEX
  5
138
330
136
100
AcDbEntity
  8
001
370
    50
100
AcDbVertex
100
AcDb2dVertex
 10
59.463943
 20
77.52284
 30
0.0
  0
VERTEX
  5
139
330
136
100
AcDbEntity
  8
001
370
    50
100
AcDbVertex
100
AcDb2dVertex
 10
59.421174
 20
77.495065
 30
0.0
  0
VERTEX
  5
13A
330
136
100
AcDbEntity
  8
001
370
    50
100
AcDbVertex
100
AcDb2dVertex
 10
59.364997
 20
77.453219
 30
0.0
  0
VERTEX
  5
13B
330
136
100
AcDbEntity
  8
001
370
    50
100
AcDbVertex
100
AcDb2dVertex
 10
59.324413
 20
77.415545
 30
0.0
  0
VERTEX
  5
13C
330
136
100
AcDbEntity
  8
001
370
    50
100
AcDbVertex
100
AcDb2dVertex
 10
59.291475
 20
77.377373
 30
0.0
  0
VERTEX
  5
13D
330
136
100
AcDbEntity
  8
001
370
    50
100
AcDbVertex
100
AcDb2dVertex
 10
59.266323
 20
77.341749
 30
0.0
  0
VERTEX
  5
13E
330
136
100
AcDbEntity
  8
001
370
    50
100
AcDbVertex
100
AcDb2dVertex
 10
59.246199
 20
77.298214
 30
0.0
  0
VERTEX
  5
13F
330
136
100
AcDbEntity
  8
001
370
    50
100
AcDbVertex
100
AcDb2dVertex
 10
59.234884
 20
77.252572
 30
0.0
  0
VERTEX
  5
140
330
136
100
AcDbEntity
  8
001
370
    50
100
AcDbVertex
100
AcDb2dVertex
 10
59.230912
 20
77.218787
 30
0.0
  0
SEQEND
  5
137
330
136
100
AcDbEntity
  8
001
370
    50
  0
LINE
  5
141
330
1F
100
AcDbEntity
  8
001
370
    50
100
AcDbLine
 10
59.463943
 20
77.52284
 30
0.0
 11
64.241448
 21
80.359614
 31
0.0
  0
LINE
  5
142
330
1F
100
AcDbEntity
  8
001
370
    50
100
AcDbLine
 10
64.804035
 20
80.527979
 30
0.0
 11
65.599652
 21
80.600399
 31
0.0
  0
LINE
  5
143
330
1F
100
AcDbEntity
  8
001
370
    50
100
AcDbLine
 10
64.471634
 20
83.266853
 30
0.0
 11
65.267252
 21
83.339273
 31
0.0
  0
POLYLINE
  5
144
330
1F
100
AcDbEntity
  8
001
370
    50
100
AcDb2dPolyline
 66
     1
 10
0.0
 20
0.0
 30
0.0
  0
VERTEX
  5
146
330
144
100
AcDbEntity
  8
001
370
    50
100
AcDbVertex
100
AcDb2dVertex
 10
65.829838
 20
83.273324
 30
0.0
  0
VERTEX
  5
147
330
144
100
AcDbEntity
  8
001
370
    50
100
AcDbVertex
100
AcDb2dVertex
 10
65.779812
 20
83.291119
 30
0.0
  0
VERTEX
  5
148
330
144
100
AcDbEntity
  8
001
370
    50
100
AcDbVertex
100
AcDb2dVertex
 10
65.709273
 20
83.312095
 30
0.0
  0
VERTEX
  5
149
330
144
100
AcDbEntity
  8
001
370
    50
100
AcDbVertex
100
AcDb2dVertex
 10
65.63725
 20
83.327566
 30
0.0
  0
VERTEX
  5
14A
330
144
100
AcDbEntity
  8
001
370
    50
100
AcDbVertex
100
AcDb2dVertex
 10
65.571721
 20
83.336538
 30
0.0
  0
VERTEX
  5
14B
330
144
100
AcDbEntity
  8
001
370
    50
100
AcDbVertex
100
AcDb2dVertex
 10
65.501133
 20
83.34307
 30
0.0
  0
VERTEX
  5
14C
330
144
100
AcDbEntity
  8
001
370
    50
100
AcDbVertex
100
AcDb2dVertex
 10
65.422469
 20
83.345715
 30
0.0
  0
VERTEX
  5
14D
330
144
100
AcDbEntity
  8
001
370
    50
100
AcDbVertex
100
AcDb2dVertex
 10
65.332386
 20
83.34339
 30
0.0
  0
VERTEX
  5
14E
330
144
100
AcDbEntity
  8
001
370
    50
100
AcDbVertex
100
AcDb2dVertex
 10
65.267252
 20
83.339273
 30
0.0
  0
SEQEND
  5
145
330
144
100
AcDbEntity
  8
001
370
    50
  0
LINE
  5
14F
330
1F
100
AcDbEntity
  8
001
370
    50
100
AcDbLine
 10
59.131542
 20
80.261715
 30
0.0
 11
63.909048
 21
83.098488
 31
0.0
  0
LINE
  5
150
330
1F
100
AcDbEntity
  8
001
370
    50
100
AcDbLine
 10
65.829838
 20
83.273324
 30
0.0
 11
70.607344
 21
81.306276
 31
0.0
  0
POLYLINE
  5
151
330
1F
100
AcDbEntity
  8
001
370
    50
100
AcDb2dPolyline
 66
     1
 10
0.0
 20
0.0
 30
0.0
  0
VERTEX
  5
153
330
151
100
AcDbEntity
  8
001
370
    50
100
AcDbVertex
100
AcDb2dVertex
 10
59.131542
 20
80.261715
 30
0.0
  0
VERTEX
  5
154
330
151
100
AcDbEntity
  8
001
370
    50
100
AcDbVertex
100
AcDb2dVertex
 10
59.088773
 20
80.23394
 30
0.0
  0
VERTEX
  5
155
330
151
100
AcDbEntity
  8
001
370
    50
100
AcDbVertex
100
AcDb2dVertex
 10
59.032597
 20
80.192094
 30
0.0
  0
VERTEX
  5
156
330
151
100
AcDbEntity
  8
001
370
    50
100
AcDbVertex
100
AcDb2dVertex
 10
58.992013
 20
80.15442
 30
0.0
  0
VERTEX
  5
157
330
151
100
AcDbEntity
  8
001
370
    50
100
AcDbVertex
100
AcDb2dVertex
 10
58.959074
 20
80.116247
 30
0.0
  0
VERTEX
  5
158
330
151
100
AcDbEntity
  8
001
370
    50
100
AcDbVertex
100
AcDb2dVertex
 10
58.933922
 20
80.080623
 30
0.0
  0
VERTEX
  5
159
330
151
100
AcDbEntity
  8
001
370
    50
100
AcDbVertex
100
AcDb2dVertex
 10
58.913799
 20
80.037088
 30
0.0
  0
VERTEX
  5
15A
330
151
100
AcDbEntity
  8
001
370
    50
100
AcDbVertex
100
AcDb2dVertex
 10
58.902484
 20
79.991446
 30
0.0
  0
VERTEX
  5
15B
330
151
100
AcDbEntity
  8
001
370
    50
100
AcDbVertex
100
AcDb2dVertex
 10
58.898511
 20
79.957661
 30
0.0
  0
SEQEND
  5
152
330
151
100
AcDbEntity
  8
001
370
    50
  0
LINE
  5
15C
330
1F
100
AcDbEntity
  8
001
370
    50
100
AcDbLine
 10
58.898511
 20
79.557661
 30
0.0
 11
58.898511
 21
79.957661
 31
0.0
  0
POLYLINE
  5
15D
330
1F
100
AcDbEntity
  8
001
370
    50
100
AcDb2dPolyline
 66
     1
 10
0.0
 20
0.0
 30
0.0
  0
VERTEX
  5
15F
330
15D
100
AcDbEntity
  8
001
370
    50
100
AcDbVertex
100
AcDb2dVertex
 10
70.83893
 20
81.068609
 30
0.0
  0
VERTEX
  5
160
330
15D
100
AcDbEntity
  8
001
370
    50
100
AcDbVertex
100
AcDb2dVertex
 10
70.831938
 20
81.098489
 30
0.0
  0
VERTEX
  5
161
330
15D
100
AcDbEntity
  8
001
370
    50
100
AcDbVertex
100
AcDb2dVertex
 10
70.817275
 20
81.138228
 30
0.0
  0
VERTEX
  5
162
330
15D
100
AcDbEntity
  8
001
370
    50
100
AcDbVertex
100
AcDb2dVertex
 10
70.79563
 20
81.173995
 30
0.0
  0
VERTEX
  5
163
330
15D
100
AcDbEntity
  8
001
370
    50
100
AcDbVertex
100
AcDb2dVertex
 10
70.770303
 20
81.202406
 30
0.0
  0
VERTEX
  5
164
330
15D
100
AcDbEntity
  8
001
370
    50
100
AcDbVertex
100
AcDb2dVertex
 10
70.738279
 20
81.231521
 30
0.0
  0
VERTEX
  5
165
330
15D
100
AcDbEntity
  8
001
370
    50
100
AcDbVertex
100
AcDb2dVertex
 10
70.699553
 20
81.259041
 30
0.0
  0
VERTEX
  5
166
330
15D
100
AcDbEntity
  8
001
370
    50
100
AcDbVertex
100
AcDb2dVertex
 10
70.646978
 20
81.287921
 30
0.0
  0
VERTEX
  5
167
330
15D
100
AcDbEntity
  8
001
370
    50
100
AcDbVertex
100
AcDb2dVertex
 10
70.607344
 20
81.306276
 30
0.0
  0
SEQEND
  5
15E
330
15D
100
AcDbEntity
  8
001
370
    50
  0
POLYLINE
  5
168
330
1F
100
AcDbEntity
  8
001
370
    50
100
AcDb2dPolyline
 66
     1
 10
0.0
 20
0.0
 30
0.0
  0
VERTEX
  5
16A
330
168
100
AcDbEntity
  8
001
370
    50
100
AcDbVertex
100
AcDb2dVertex
 10
59.230912
 20
76.818787
 30
0.0
  0
VERTEX
  5
16B
330
168
100
AcDbEntity
  8
001
370
    50
100
AcDbVertex
100
AcDb2dVertex
 10
59.230979
 20
76.8139
 30
0.0
  0
VERTEX
  5
16C
330
168
100
AcDbEntity
  8
001
370
    50
100
AcDbVertex
100
AcDb2dVertex
 10
59.231273
 20
76.806766
 30
0.0
  0
VERTEX
  5
16D
330
168
100
AcDbEntity
  8
001
370
    50
100
AcDbVertex
100
AcDb2dVertex
 10
59.231837
 20
76.799668
 30
0.0
  0
VERTEX
  5
16E
330
168
100
AcDbEntity
  8
001
370
    50
100
AcDbVertex
100
AcDb2dVertex
 10
59.232357
 20
76.794822
 30
0.0
  0
SEQEND
  5
169
330
168
100
AcDbEntity
  8
001
370
    50
  0
POLYLINE
  5
16F
330
1F
100
AcDbEntity
  8
001
370
    50
100
AcDb2dPolyline
 66
     1
 10
0.0
 20
0.0
 30
0.0
  0
VERTEX
  5
171
330
16F
100
AcDbEntity
  8
001
370
    50
100
AcDbVertex
100
AcDb2dVertex
 10
58.898511
 20
79.557661
 30
0.0
  0
VERTEX
  5
172
330
16F
100
AcDbEntity
  8
001
370
    50
100
AcDbVertex
100
AcDb2dVertex
 10
58.898579
 20
79.552774
 30
0.0
  0
VERTEX
  5
173
330
16F
100
AcDbEntity
  8
001
370
    50
100
AcDbVertex
100
AcDb2dVertex
 10
58.898873
 20
79.54564
 30
0.0
  0
VERTEX
  5
174
330
16F
100
AcDbEntity
  8
001
370
    50
100
AcDbVertex
100
AcDb2dVertex
 10
58.899437
 20
79.538542
 30
0.0
  0
VERTEX
  5
175
330
16F
100
AcDbEntity
  8
001
370
    50
100
AcDbVertex
100
AcDb2dVertex
 10
58.899956
 20
79.533696
 30
0.0
  0
SEQEND
  5
170
330
16F
100
AcDbEntity
  8
001
370
    50
  0
LINE
  5
176
330
1F
100
AcDbEntity
  8
001
370
    50
100
AcDbLine
 10
58.899956
 20
79.533696
 30
0.0
 11
59.232357
 21
76.794822
 31
0.0
  0
POLYLINE
  5
177
330
1F
100
AcDbEntity
  8
001
370
    50
100
AcDb2dPolyline
 66
     1
 10
0.0
 20
0.0
 30
0.0
  0
VERTEX
  5
179
330
177
100
AcDbEntity
  8
001
370
    50
100
AcDbVertex
100
AcDb2dVertex
 10
58.898511
 20
74.361508
 30
0.0
  0
VERTEX
  5
17A
330
177
100
AcDbEntity
  8
001
370
    50
100
AcDbVertex
100
AcDb2dVertex
 10
58.902484
 20
74.327723
 30
0.0
  0
VERTEX
  5
17B
330
177
100
AcDbEntity
  8
001
370
    50
100
AcDbVertex
100
AcDb2dVertex
 10
58.913799
 20
74.282081
 30
0.0
  0
VERTEX
  5
17C
330
177
100
AcDbEntity
  8
001
370
    50
100
AcDbVertex
100
AcDb2dVertex
 10
58.933922
 20
74.238546
 30
0.0
  0
VERTEX
  5
17D
330
177
100
AcDbEntity
  8
001
370
    50
100
AcDbVertex
100
AcDb2dVertex
 10
58.959074
 20
74.202922
 30
0.0
  0
VERTEX
  5
17E
330
177
100
AcDbEntity
  8
001
370
    50
100
AcDbVertex
100
AcDb2dVertex
 10
58.992013
 20
74.164749
 30
0.0
  0
VERTEX
  5
17F
330
177
100
AcDbEntity
  8
001
370
    50
100
AcDbVertex
100
AcDb2dVertex
 10
59.032597
 20
74.127075
 30
0.0
  0
VERTEX
  5
180
330
177
100
AcDbEntity
  8
001
370
    50
100
AcDbVertex
100
AcDb2dVertex
 10
59.088773
 20
74.08523
 30
0.0
  0
VERTEX
  5
181
330
177
100
AcDbEntity
  8
001
370
    50
100
AcDbVertex
100
AcDb2dVertex
 10
59.131542
 20
74.057455
 30
0.0
  0
SEQEND
  5
178
330
177
100
AcDbEntity
  8
001
370
    50
  0
LINE
  5
182
330
1F
100
AcDbEntity
  8
001
370
    50
100
AcDbLine
 10
58.898511
 20
74.361508
 30
0.0
 11
58.898511
 21
74.761508
 31
0.0
  0
POLYLINE
  5
183
330
1F
100
AcDbEntity
  8
001
370
    50
100
AcDb2dPolyline
 66
     1
 10
0.0
 20
0.0
 30
0.0
  0
VERTEX
  5
185
330
183
100
AcDbEntity
  8
001
370
    50
100
AcDbVertex
100
AcDb2dVertex
 10
58.899956
 20
74.785473
 30
0.0
  0
VERTEX
  5
186
330
183
100
AcDbEntity
  8
001
370
    50
100
AcDbVertex
100
AcDb2dVertex
 10
58.899437
 20
74.780627
 30
0.0
  0
VERTEX
  5
187
330
183
100
AcDbEntity
  8
001
370
    50
100
AcDbVertex
100
AcDb2dVertex
 10
58.898873
 20
74.773529
 30
0.0
  0
VERTEX
  5
188
330
183
100
AcDbEntity
  8
001
370
    50
100
AcDbVertex
100
AcDb2dVertex
 10
58.898579
 20
74.766395
 30
0.0
  0
VERTEX
  5
189
330
183
100
AcDbEntity
  8
001
370
    50
100
AcDbVertex
100
AcDb2dVertex
 10
58.898511
 20
74.761508
 30
0.0
  0
SEQEND
  5
184
330
183
100
AcDbEntity
  8
001
370
    50
  0
POLYLINE
  5
18A
330
1F
100
AcDbEntity
  8
001
370
    50
100
AcDb2dPolyline
 66
     1
 10
0.0
 20
0.0
 30
0.0
  0
VERTEX
  5
18C
330
18A
100
AcDbEntity
  8
001
370
    50
100
AcDbVertex
100
AcDb2dVertex
 10
66.091404
 20
80.444492
 30
0.0
  0
VERTEX
  5
18D
330
18A
100
AcDbEntity
  8
001
370
    50
100
AcDbVertex
100
AcDb2dVertex
 10
65.954773
 20
80.485293
 30
0.0
  0
VERTEX
  5
18E
330
18A
100
AcDbEntity
  8
001
370
    50
100
AcDbVertex
100
AcDb2dVertex
 10
65.816365
 20
80.517245
 30
0.0
  0
VERTEX
  5
18F
330
18A
100
AcDbEntity
  8
001
370
    50
100
AcDbVertex
100
AcDb2dVertex
 10
65.654997
 20
80.534652
 30
0.0
  0
VERTEX
  5
190
330
18A
100
AcDbEntity
  8
001
370
    50
100
AcDbVertex
100
AcDb2dVertex
 10
65.492237
 20
80.534339
 30
0.0
  0
VERTEX
  5
191
330
18A
100
AcDbEntity
  8
001
370
    50
100
AcDbVertex
100
AcDb2dVertex
 10
65.438216
 20
80.5313
 30
0.0
  0
VERTEX
  5
192
330
18A
100
AcDbEntity
  8
001
370
    50
100
AcDbVertex
100
AcDb2dVertex
 10
65.384298
 20
80.527571
 30
0.0
  0
SEQEND
  5
18B
330
18A
100
AcDbEntity
  8
001
370
    50
  0
POLYLINE
  5
193
330
1F
100
AcDbEntity
  8
001
370
    50
100
AcDb2dPolyline
 66
     1
 10
0.0
 20
0.0
 30
0.0
  0
VERTEX
  5
195
330
193
100
AcDbEntity
  8
001
370
    50
100
AcDbVertex
100
AcDb2dVertex
 10
66.091404
 20
71.358958
 30
0.0
  0
VERTEX
  5
196
330
193
100
AcDbEntity
  8
001
370
    50
100
AcDbVertex
100
AcDb2dVertex
 10
66.029809
 20
71.39651
 30
0.0
  0
VERTEX
  5
197
330
193
100
AcDbEntity
  8
001
370
    50
100
AcDbVertex
100
AcDb2dVertex
 10
65.967037
 20
71.431891
 30
0.0
  0
VERTEX
  5
198
330
193
100
AcDbEntity
  8
001
370
    50
100
AcDbVertex
100
AcDb2dVertex
 10
65.894762
 20
71.466728
 30
0.0
  0
VERTEX
  5
199
330
193
100
AcDbEntity
  8
001
370
    50
100
AcDbVertex
100
AcDb2dVertex
 10
65.820429
 20
71.497152
 30
0.0
  0
VERTEX
  5
19A
330
193
100
AcDbEntity
  8
001
370
    50
100
AcDbVertex
100
AcDb2dVertex
 10
65.741919
 20
71.524916
 30
0.0
  0
VERTEX
  5
19B
330
193
100
AcDbEntity
  8
001
370
    50
100
AcDbVertex
100
AcDb2dVertex
 10
65.662233
 20
71.549023
 30
0.0
  0
VERTEX
  5
19C
330
193
100
AcDbEntity
  8
001
370
    50
100
AcDbVertex
100
AcDb2dVertex
 10
65.575324
 20
71.57085
 30
0.0
  0
VERTEX
  5
19D
330
193
100
AcDbEntity
  8
001
370
    50
100
AcDbVertex
100
AcDb2dVertex
 10
65.487407
 20
71.588052
 30
0.0
  0
VERTEX
  5
19E
330
193
100
AcDbEntity
  8
001
370
    50
100
AcDbVertex
100
AcDb2dVertex
 10
65.435918
 20
71.595909
 30
0.0
  0
VERTEX
  5
19F
330
193
100
AcDbEntity
  8
001
370
    50
100
AcDbVertex
100
AcDb2dVertex
 10
65.384298
 20
71.602908
 30
0.0
  0
SEQEND
  5
194
330
193
100
AcDbEntity
  8
001
370
    50
  0
LINE
  5
1A0
330
1F
100
AcDbEntity
  8
001
370
    50
100
AcDbLine
 10
65.682762
 20
67.241538
 30
0.0
 11
72.626356
 21
66.609512
 31
0.0
  0
LINE
  5
1A1
330
1F
100
AcDbEntity
  8
001
370
    50
100
AcDbLine
 10
65.682762
 20
67.241538
 30
0.0
 11
59.398511
 21
68.87398
 31
0.0
  0
POLYLINE
  5
1A2
330
1F
100
AcDbEntity
  8
001
370
    50
100
AcDb2dPolyline
 66
     1
 10
0.0
 20
0.0
 30
0.0
  0
VERTEX
  5
1A4
330
1A2
100
AcDbEntity
  8
001
370
    50
100
AcDbVertex
100
AcDb2dVertex
 10
59.68894
 20
69.445619
 30
0.0
  0
VERTEX
  5
1A5
330
1A2
100
AcDbEntity
  8
001
370
    50
100
AcDbVertex
100
AcDb2dVertex
 10
59.643927
 20
69.422144
 30
0.0
  0
VERTEX
  5
1A6
330
1A2
100
AcDbEntity
  8
001
370
    50
100
AcDbVertex
100
AcDb2dVertex
 10
59.600246
 20
69.396575
 30
0.0
  0
VERTEX
  5
1A7
330
1A2
100
AcDbEntity
  8
001
370
    50
100
AcDbVertex
100
AcDb2dVertex
 10
59.552406
 20
69.361892
 30
0.0
  0
VERTEX
  5
1A8
330
1A2
100
AcDbEntity
  8
001
370
    50
100
AcDbVertex
100
AcDb2dVertex
 10
59.508471
 20
69.321874
 30
0.0
  0
VERTEX
  5
1A9
330
1A2
100
AcDbEntity
  8
001
370
    50
100
AcDbVertex
100
AcDb2dVertex
 10
59.47252
 20
69.280933
 30
0.0
  0
VERTEX
  5
1AA
330
1A2
100
AcDbEntity
  8
001
370
    50
100
AcDbVertex
100
AcDb2dVertex
 10
59.443341
 20
69.23571
 30
0.0
  0
VERTEX
  5
1AB
330
1A2
100
AcDbEntity
  8
001
370
    50
100
AcDbVertex
100
AcDb2dVertex
 10
59.41426
 20
69.153658
 30
0.0
  0
VERTEX
  5
1AC
330
1A2
100
AcDbEntity
  8
001
370
    50
100
AcDbVertex
100
AcDb2dVertex
 10
59.398511
 20
69.06574
 30
0.0
  0
SEQEND
  5
1A3
330
1A2
100
AcDbEntity
  8
001
370
    50
  0
POLYLINE
  5
1AD
330
1F
100
AcDbEntity
  8
001
370
    50
100
AcDb2dPolyline
 66
     1
 10
0.0
 20
0.0
 30
0.0
  0
VERTEX
  5
1AF
330
1AD
100
AcDbEntity
  8
001
370
    50
100
AcDbVertex
100
AcDb2dVertex
 10
64.368328
 20
71.557324
 30
0.0
  0
VERTEX
  5
1B0
330
1AD
100
AcDbEntity
  8
001
370
    50
100
AcDbVertex
100
AcDb2dVertex
 10
63.190072
 20
71.035912
 30
0.0
  0
VERTEX
  5
1B1
330
1AD
100
AcDbEntity
  8
001
370
    50
100
AcDbVertex
100
AcDb2dVertex
 10
62.013936
 20
70.509802
 30
0.0
  0
VERTEX
  5
1B2
330
1AD
100
AcDbEntity
  8
001
370
    50
100
AcDbVertex
100
AcDb2dVertex
 10
60.850395
 20
69.980024
 30
0.0
  0
VERTEX
  5
1B3
330
1AD
100
AcDbEntity
  8
001
370
    50
100
AcDbVertex
100
AcDb2dVertex
 10
59.68894
 20
69.445619
 30
0.0
  0
SEQEND
  5
1AE
330
1AD
100
AcDbEntity
  8
001
370
    50
  0
POLYLINE
  5
1B4
330
1F
100
AcDbEntity
  8
001
370
    50
100
AcDb2dPolyline
 66
     1
 10
0.0
 20
0.0
 30
0.0
  0
VERTEX
  5
1B6
330
1B4
100
AcDbEntity
  8
001
370
    50
100
AcDbVertex
100
AcDb2dVertex
 10
65.077899
 20
71.638293
 30
0.0
  0
VERTEX
  5
1B7
330
1B4
100
AcDbEntity
  8
001
370
    50
100
AcDbVertex
100
AcDb2dVertex
 10
64.927411
 20
71.646964
 30
0.0
  0
VERTEX
  5
1B8
330
1B4
100
AcDbEntity
  8
001
370
    50
100
AcDbVertex
100
AcDb2dVertex
 10
64.776744
 20
71.647459
 30
0.0
  0
VERTEX
  5
1B9
330
1B4
100
AcDbEntity
  8
001
370
    50
100
AcDbVertex
100
AcDb2dVertex
 10
64.639163
 20
71.634375
 30
0.0
  0
VERTEX
  5
1BA
330
1B4
100
AcDbEntity
  8
001
370
    50
100
AcDbVertex
100
AcDb2dVertex
 10
64.504454
 20
71.604832
 30
0.0
  0
VERTEX
  5
1BB
330
1B4
100
AcDbEntity
  8
001
370
    50
100
AcDbVertex
100
AcDb2dVertex
 10
64.435978
 20
71.582394
 30
0.0
  0
VERTEX
  5
1BC
330
1B4
100
AcDbEntity
  8
001
370
    50
100
AcDbVertex
100
AcDb2dVertex
 10
64.368328
 20
71.557324
 30
0.0
  0
SEQEND
  5
1B5
330
1B4
100
AcDbEntity
  8
001
370
    50
  0
POLYLINE
  5
1BD
330
1F
100
AcDbEntity
  8
001
370
    50
100
AcDb2dPolyline
 66
     1
 10
0.0
 20
0.0
 30
0.0
  0
VERTEX
  5
1BF
330
1BD
100
AcDbEntity
  8
001
370
    50
100
AcDbVertex
100
AcDb2dVertex
 10
65.384298
 20
71.602908
 30
0.0
  0
VERTEX
  5
1C0
330
1BD
100
AcDbEntity
  8
001
370
    50
100
AcDbVertex
100
AcDb2dVertex
 10
65.322073
 20
71.610097
 30
0.0
  0
VERTEX
  5
1C1
330
1BD
100
AcDbEntity
  8
001
370
    50
100
AcDbVertex
100
AcDb2dVertex
 10
65.231129
 20
71.620601
 30
0.0
  0
VERTEX
  5
1C2
330
1BD
100
AcDbEntity
  8
001
370
    50
100
AcDbVertex
100
AcDb2dVertex
 10
65.140149
 20
71.631107
 30
0.0
  0
VERTEX
  5
1C3
330
1BD
100
AcDbEntity
  8
001
370
    50
100
AcDbVertex
100
AcDb2dVertex
 10
65.077899
 20
71.638293
 30
0.0
  0
SEQEND
  5
1BE
330
1BD
100
AcDbEntity
  8
001
370
    50
  0
LINE
  5
1C4
330
1F
100
AcDbEntity
  8
001
370
    50
100
AcDbLine
 10
67.032208
 20
70.723302
 30
0.0
 11
66.091404
 21
71.358958
 31
0.0
  0
POLYLINE
  5
1C5
330
1F
100
AcDbEntity
  8
001
370
    50
100
AcDb2dPolyline
 66
     1
 10
0.0
 20
0.0
 30
0.0
  0
VERTEX
  5
1C7
330
1C5
100
AcDbEntity
  8
001
370
    50
100
AcDbVertex
100
AcDb2dVertex
 10
68.864293
 20
69.380233
 30
0.0
  0
VERTEX
  5
1C8
330
1C5
100
AcDbEntity
  8
001
370
    50
100
AcDbVertex
100
AcDb2dVertex
 10
68.861964
 20
69.397359
 30
0.0
  0
VERTEX
  5
1C9
330
1C5
100
AcDbEntity
  8
001
370
    50
100
AcDbVertex
100
AcDb2dVertex
 10
68.857876
 20
69.422278
 30
0.0
  0
VERTEX
  5
1CA
330
1C5
100
AcDbEntity
  8
001
370
    50
100
AcDbVertex
100
AcDb2dVertex
 10
68.852774
 20
69.447371
 30
0.0
  0
VERTEX
  5
1CB
330
1C5
100
AcDbEntity
  8
001
370
    50
100
AcDbVertex
100
AcDb2dVertex
 10
68.848816
 20
69.464445
 30
0.0
  0
SEQEND
  5
1C6
330
1C5
100
AcDbEntity
  8
001
370
    50
  0
POLYLINE
  5
1CC
330
1F
100
AcDbEntity
  8
001
370
    50
100
AcDb2dPolyline
 66
     1
 10
0.0
 20
0.0
 30
0.0
  0
VERTEX
  5
1CE
330
1CC
100
AcDbEntity
  8
001
370
    50
100
AcDbVertex
100
AcDb2dVertex
 10
72.57223
 20
66.653917
 30
0.0
  0
VERTEX
  5
1CF
330
1CC
100
AcDbEntity
  8
001
370
    50
100
AcDbVertex
100
AcDb2dVertex
 10
72.129541
 20
67.012351
 30
0.0
  0
VERTEX
  5
1D0
330
1CC
100
AcDbEntity
  8
001
370
    50
100
AcDbVertex
100
AcDb2dVertex
 10
71.684144
 20
67.367358
 30
0.0
  0
VERTEX
  5
1D1
330
1CC
100
AcDbEntity
  8
001
370
    50
100
AcDbVertex
100
AcDb2dVertex
 10
71.225886
 20
67.722601
 30
0.0
  0
VERTEX
  5
1D2
330
1CC
100
AcDbEntity
  8
001
370
    50
100
AcDbVertex
100
AcDb2dVertex
 10
70.763558
 20
68.072586
 30
0.0
  0
VERTEX
  5
1D3
330
1CC
100
AcDbEntity
  8
001
370
    50
100
AcDbVertex
100
AcDb2dVertex
 10
70.291401
 20
68.423972
 30
0.0
  0
VERTEX
  5
1D4
330
1CC
100
AcDbEntity
  8
001
370
    50
100
AcDbVertex
100
AcDb2dVertex
 10
69.816426
 20
68.771506
 30
0.0
  0
VERTEX
  5
1D5
330
1CC
100
AcDbEntity
  8
001
370
    50
100
AcDbVertex
100
AcDb2dVertex
 10
69.333396
 20
69.119046
 30
0.0
  0
VERTEX
  5
1D6
330
1CC
100
AcDbEntity
  8
001
370
    50
100
AcDbVertex
100
AcDb2dVertex
 10
68.848816
 20
69.464445
 30
0.0
  0
SEQEND
  5
1CD
330
1CC
100
AcDbEntity
  8
001
370
    50
  0
LINE
  5
1D7
330
1F
100
AcDbEntity
  8
001
370
    50
100
AcDbLine
 10
72.626356
 20
66.609512
 30
0.0
 11
72.57223
 21
66.653917
 31
0.0
  0
POLYLINE
  5
1D8
330
1F
100
AcDbEntity
  8
001
370
    50
100
AcDb2dPolyline
 66
     1
 10
0.0
 20
0.0
 30
0.0
  0
VERTEX
  5
1DA
330
1D8
100
AcDbEntity
  8
001
370
    50
100
AcDbVertex
100
AcDb2dVertex
 10
65.077899
 20
80.500048
 30
0.0
  0
VERTEX
  5
1DB
330
1D8
100
AcDbEntity
  8
001
370
    50
100
AcDbVertex
100
AcDb2dVertex
 10
64.911218
 20
80.475412
 30
0.0
  0
VERTEX
  5
1DC
330
1D8
100
AcDbEntity
  8
001
370
    50
100
AcDbVertex
100
AcDb2dVertex
 10
64.746266
 20
80.441928
 30
0.0
  0
VERTEX
  5
1DD
330
1D8
100
AcDbEntity
  8
001
370
    50
100
AcDbVertex
100
AcDb2dVertex
 10
64.595793
 20
80.39594
 30
0.0
  0
VERTEX
  5
1DE
330
1D8
100
AcDbEntity
  8
001
370
    50
100
AcDbVertex
100
AcDb2dVertex
 10
64.451551
 20
80.333458
 30
0.0
  0
VERTEX
  5
1DF
330
1D8
100
AcDbEntity
  8
001
370
    50
100
AcDbVertex
100
AcDb2dVertex
 10
64.409725
 20
80.31138
 30
0.0
  0
VERTEX
  5
1E0
330
1D8
100
AcDbEntity
  8
001
370
    50
100
AcDbVertex
100
AcDb2dVertex
 10
64.368328
 20
80.288503
 30
0.0
  0
SEQEND
  5
1D9
330
1D8
100
AcDbEntity
  8
001
370
    50
  0
POLYLINE
  5
1E1
330
1F
100
AcDbEntity
  8
001
370
    50
100
AcDb2dPolyline
 66
     1
 10
0.0
 20
0.0
 30
0.0
  0
VERTEX
  5
1E3
330
1E1
100
AcDbEntity
  8
001
370
    50
100
AcDbVertex
100
AcDb2dVertex
 10
65.384298
 20
80.527571
 30
0.0
  0
VERTEX
  5
1E4
330
1E1
100
AcDbEntity
  8
001
370
    50
100
AcDbVertex
100
AcDb2dVertex
 10
65.322061
 20
80.521983
 30
0.0
  0
VERTEX
  5
1E5
330
1E1
100
AcDbEntity
  8
001
370
    50
100
AcDbVertex
100
AcDb2dVertex
 10
65.2311
 20
80.513813
 30
0.0
  0
VERTEX
  5
1E6
330
1E1
100
AcDbEntity
  8
001
370
    50
100
AcDbVertex
100
AcDb2dVertex
 10
65.140136
 20
80.505641
 30
0.0
  0
VERTEX
  5
1E7
330
1E1
100
AcDbEntity
  8
001
370
    50
100
AcDbVertex
100
AcDb2dVertex
 10
65.077899
 20
80.500048
 30
0.0
  0
SEQEND
  5
1E2
330
1E1
100
AcDbEntity
  8
001
370
    50
  0
POLYLINE
  5
1E8
330
1F
100
AcDbEntity
  8
001
370
    50
100
AcDb2dPolyline
 66
     1
 10
0.0
 20
0.0
 30
0.0
  0
VERTEX
  5
1EA
330
1E8
100
AcDbEntity
  8
001
370
    50
100
AcDbVertex
100
AcDb2dVertex
 10
68.848816
 20
69.464445
 30
0.0
  0
VERTEX
  5
1EB
330
1E8
100
AcDbEntity
  8
001
370
    50
100
AcDbVertex
100
AcDb2dVertex
 10
68.812649
 20
69.659282
 30
0.0
  0
VERTEX
  5
1EC
330
1E8
100
AcDbEntity
  8
001
370
    50
100
AcDbVertex
100
AcDb2dVertex
 10
68.771604
 20
69.853048
 30
0.0
  0
VERTEX
  5
1ED
330
1E8
100
AcDbEntity
  8
001
370
    50
100
AcDbVertex
100
AcDb2dVertex
 10
68.722229
 20
70.042383
 30
0.0
  0
VERTEX
  5
1EE
330
1E8
100
AcDbEntity
  8
001
370
    50
100
AcDbVertex
100
AcDb2dVertex
 10
68.662939
 20
70.228964
 30
0.0
  0
VERTEX
  5
1EF
330
1E8
100
AcDbEntity
  8
001
370
    50
100
AcDbVertex
100
AcDb2dVertex
 10
68.595456
 20
70.406022
 30
0.0
  0
VERTEX
  5
1F0
330
1E8
100
AcDbEntity
  8
001
370
    50
100
AcDbVertex
100
AcDb2dVertex
 10
68.516128
 20
70.577955
 30
0.0
  0
VERTEX
  5
1F1
330
1E8
100
AcDbEntity
  8
001
370
    50
100
AcDbVertex
100
AcDb2dVertex
 10
68.470687
 20
70.662409
 30
0.0
  0
VERTEX
  5
1F2
330
1E8
100
AcDbEntity
  8
001
370
    50
100
AcDbVertex
100
AcDb2dVertex
 10
68.421079
 20
70.744488
 30
0.0
  0
VERTEX
  5
1F3
330
1E8
100
AcDbEntity
  8
001
370
    50
100
AcDbVertex
100
AcDb2dVertex
 10
68.368882
 20
70.820568
 30
0.0
  0
VERTEX
  5
1F4
330
1E8
100
AcDbEntity
  8
001
370
    50
100
AcDbVertex
100
AcDb2dVertex
 10
68.311627
 20
70.892895
 30
0.0
  0
VERTEX
  5
1F5
330
1E8
100
AcDbEntity
  8
001
370
    50
100
AcDbVertex
100
AcDb2dVertex
 10
68.251304
 20
70.957789
 30
0.0
  0
VERTEX
  5
1F6
330
1E8
100
AcDbEntity
  8
001
370
    50
100
AcDbVertex
100
AcDb2dVertex
 10
68.185327
 20
71.016978
 30
0.0
  0
VERTEX
  5
1F7
330
1E8
100
AcDbEntity
  8
001
370
    50
100
AcDbVertex
100
AcDb2dVertex
 10
68.118217
 20
71.065852
 30
0.0
  0
VERTEX
  5
1F8
330
1E8
100
AcDbEntity
  8
001
370
    50
100
AcDbVertex
100
AcDb2dVertex
 10
68.04588
 20
71.106386
 30
0.0
  0
VERTEX
  5
1F9
330
1E8
100
AcDbEntity
  8
001
370
    50
100
AcDbVertex
100
AcDb2dVertex
 10
67.981073
 20
71.132562
 30
0.0
  0
VERTEX
  5
1FA
330
1E8
100
AcDbEntity
  8
001
370
    50
100
AcDbVertex
100
AcDb2dVertex
 10
67.913552
 20
71.150694
 30
0.0
  0
VERTEX
  5
1FB
330
1E8
100
AcDbEntity
  8
001
370
    50
100
AcDbVertex
100
AcDb2dVertex
 10
67.846506
 20
71.160132
 30
0.0
  0
VERTEX
  5
1FC
330
1E8
100
AcDbEntity
  8
001
370
    50
100
AcDbVertex
100
AcDb2dVertex
 10
67.778833
 20
71.161429
 30
0.0
  0
VERTEX
  5
1FD
330
1E8
100
AcDbEntity
  8
001
370
    50
100
AcDbVertex
100
AcDb2dVertex
 10
67.697905
 20
71.152404
 30
0.0
  0
VERTEX
  5
1FE
330
1E8
100
AcDbEntity
  8
001
370
    50
100
AcDbVertex
100
AcDb2dVertex
 10
67.618685
 20
71.133231
 30
0.0
  0
VERTEX
  5
1FF
330
1E8
100
AcDbEntity
  8
001
370
    50
100
AcDbVertex
100
AcDb2dVertex
 10
67.54015
 20
71.10479
 30
0.0
  0
VERTEX
  5
200
330
1E8
100
AcDbEntity
  8
001
370
    50
100
AcDbVertex
100
AcDb2dVertex
 10
67.464599
 20
71.06913
 30
0.0
  0
VERTEX
  5
201
330
1E8
100
AcDbEntity
  8
001
370
    50
100
AcDbVertex
100
AcDb2dVertex
 10
67.34837
 20
70.99945
 30
0.0
  0
VERTEX
  5
202
330
1E8
100
AcDbEntity
  8
001
370
    50
100
AcDbVertex
100
AcDb2dVertex
 10
67.240026
 20
70.918004
 30
0.0
  0
VERTEX
  5
203
330
1E8
100
AcDbEntity
  8
001
370
    50
100
AcDbVertex
100
AcDb2dVertex
 10
67.133908
 20
70.823094
 30
0.0
  0
VERTEX
  5
204
330
1E8
100
AcDbEntity
  8
001
370
    50
100
AcDbVertex
100
AcDb2dVertex
 10
67.032208
 20
70.723302
 30
0.0
  0
SEQEND
  5
1E9
330
1E8
100
AcDbEntity
  8
001
370
    50
  0
LINE
  5
205
330
1F
100
AcDbEntity
  8
001
370
    50
100
AcDbLine
 10
71.778297
 20
78.09963
 30
0.0
 11
66.091404
 21
80.444492
 31
0.0
  0
POLYLINE
  5
206
330
1F
100
AcDbEntity
  8
001
370
    50
100
AcDb2dPolyline
 66
     1
 10
0.0
 20
0.0
 30
0.0
  0
VERTEX
  5
208
330
206
100
AcDbEntity
  8
001
370
    50
100
AcDbVertex
100
AcDb2dVertex
 10
71.359679
 20
80.60264
 30
0.0
  0
VERTEX
  5
209
330
206
100
AcDbEntity
  8
001
370
    50
100
AcDbVertex
100
AcDb2dVertex
 10
71.488889
 20
79.991288
 30
0.0
  0
VERTEX
  5
20A
330
206
100
AcDbEntity
  8
001
370
    50
100
AcDbVertex
100
AcDb2dVertex
 10
71.604124
 20
79.377592
 30
0.0
  0
VERTEX
  5
20B
330
206
100
AcDbEntity
  8
001
370
    50
100
AcDbVertex
100
AcDb2dVertex
 10
71.69866
 20
78.73986
 30
0.0
  0
VERTEX
  5
20C
330
206
100
AcDbEntity
  8
001
370
    50
100
AcDbVertex
100
AcDb2dVertex
 10
71.778297
 20
78.09963
 30
0.0
  0
SEQEND
  5
207
330
206
100
AcDbEntity
  8
001
370
    50
  0
LINE
  5
20D
330
1F
100
AcDbEntity
  8
001
370
    50
100
AcDbLine
 10
72.57223
 20
80.060342
 30
0.0
 11
71.359679
 21
80.60264
 31
0.0
  0
LINE
  5
20E
330
1F
100
AcDbEntity
  8
001
370
    50
100
AcDbLine
 10
64.368328
 20
80.288503
 30
0.0
 11
59.68894
 21
77.50803
 31
0.0
  0
POLYLINE
  5
20F
330
1F
100
AcDbEntity
  8
001
370
    50
100
AcDb2dPolyline
 66
     1
 10
0.0
 20
0.0
 30
0.0
  0
VERTEX
  5
211
330
20F
100
AcDbEntity
  8
001
370
    50
100
AcDbVertex
100
AcDb2dVertex
 10
67.032208
 20
70.723302
 30
0.0
  0
VERTEX
  5
212
330
20F
100
AcDbEntity
  8
001
370
    50
100
AcDbVertex
100
AcDb2dVertex
 10
66.837289
 20
70.767647
 30
0.0
  0
VERTEX
  5
213
330
20F
100
AcDbEntity
  8
001
370
    50
100
AcDbVertex
100
AcDb2dVertex
 10
66.567139
 20
70.820388
 30
0.0
  0
VERTEX
  5
214
330
20F
100
AcDbEntity
  8
001
370
    50
100
AcDbVertex
100
AcDb2dVertex
 10
66.319109
 20
70.856559
 30
0.0
  0
VERTEX
  5
215
330
20F
100
AcDbEntity
  8
001
370
    50
100
AcDbVertex
100
AcDb2dVertex
 10
66.089712
 20
70.877304
 30
0.0
  0
VERTEX
  5
216
330
20F
100
AcDbEntity
  8
001
370
    50
100
AcDbVertex
100
AcDb2dVertex
 10
65.855108
 20
70.889381
 30
0.0
  0
VERTEX
  5
217
330
20F
100
AcDbEntity
  8
001
370
    50
100
AcDbVertex
100
AcDb2dVertex
 10
65.614965
 20
70.892258
 30
0.0
  0
VERTEX
  5
218
330
20F
100
AcDbEntity
  8
001
370
    50
100
AcDbVertex
100
AcDb2dVertex
 10
65.385422
 20
70.884151
 30
0.0
  0
VERTEX
  5
219
330
20F
100
AcDbEntity
  8
001
370
    50
100
AcDbVertex
100
AcDb2dVertex
 10
65.157855
 20
70.864779
 30
0.0
  0
VERTEX
  5
21A
330
20F
100
AcDbEntity
  8
001
370
    50
100
AcDbVertex
100
AcDb2dVertex
 10
64.944545
 20
70.83594
 30
0.0
  0
VERTEX
  5
21B
330
20F
100
AcDbEntity
  8
001
370
    50
100
AcDbVertex
100
AcDb2dVertex
 10
64.732781
 20
70.795732
 30
0.0
  0
VERTEX
  5
21C
330
20F
100
AcDbEntity
  8
001
370
    50
100
AcDbVertex
100
AcDb2dVertex
 10
64.541165
 20
70.747683
 30
0.0
  0
VERTEX
  5
21D
330
20F
100
AcDbEntity
  8
001
370
    50
100
AcDbVertex
100
AcDb2dVertex
 10
64.353133
 20
70.687292
 30
0.0
  0
VERTEX
  5
21E
330
20F
100
AcDbEntity
  8
001
370
    50
100
AcDbVertex
100
AcDb2dVertex
 10
64.189119
 20
70.621385
 30
0.0
  0
VERTEX
  5
21F
330
20F
100
AcDbEntity
  8
001
370
    50
100
AcDbVertex
100
AcDb2dVertex
 10
64.030871
 20
70.542875
 30
0.0
  0
VERTEX
  5
220
330
20F
100
AcDbEntity
  8
001
370
    50
100
AcDbVertex
100
AcDb2dVertex
 10
63.898824
 20
70.462171
 30
0.0
  0
VERTEX
  5
221
330
20F
100
AcDbEntity
  8
001
370
    50
100
AcDbVertex
100
AcDb2dVertex
 10
63.776146
 20
70.367031
 30
0.0
  0
VERTEX
  5
222
330
20F
100
AcDbEntity
  8
001
370
    50
100
AcDbVertex
100
AcDb2dVertex
 10
63.679783
 20
70.270634
 30
0.0
  0
VERTEX
  5
223
330
20F
100
AcDbEntity
  8
001
370
    50
100
AcDbVertex
100
AcDb2dVertex
 10
63.596982
 20
70.165298
 30
0.0
  0
VERTEX
  5
224
330
20F
100
AcDbEntity
  8
001
370
    50
100
AcDbVertex
100
AcDb2dVertex
 10
63.537967
 20
70.06405
 30
0.0
  0
VERTEX
  5
225
330
20F
100
AcDbEntity
  8
001
370
    50
100
AcDbVertex
100
AcDb2dVertex
 10
63.499024
 20
69.944033
 30
0.0
  0
VERTEX
  5
226
330
20F
100
AcDbEntity
  8
001
370
    50
100
AcDbVertex
100
AcDb2dVertex
 10
63.483921
 20
69.809087
 30
0.0
  0
VERTEX
  5
227
330
20F
100
AcDbEntity
  8
001
370
    50
100
AcDbVertex
100
AcDb2dVertex
 10
63.485357
 20
69.710204
 30
0.0
  0
SEQEND
  5
210
330
20F
100
AcDbEntity
  8
001
370
    50
  0
POLYLINE
  5
228
330
1F
100
AcDbEntity
  8
001
370
    50
100
AcDb2dPolyline
 66
     1
 10
0.0
 20
0.0
 30
0.0
  0
VERTEX
  5
22A
330
228
100
AcDbEntity
  8
001
370
    50
100
AcDbVertex
100
AcDb2dVertex
 10
63.485357
 20
69.710204
 30
0.0
  0
VERTEX
  5
22B
330
228
100
AcDbEntity
  8
001
370
    50
100
AcDbVertex
100
AcDb2dVertex
 10
63.510339
 20
69.603792
 30
0.0
  0
VERTEX
  5
22C
330
228
100
AcDbEntity
  8
001
370
    50
100
AcDbVertex
100
AcDb2dVertex
 10
63.560974
 20
69.461654
 30
0.0
  0
VERTEX
  5
22D
330
228
100
AcDbEntity
  8
001
370
    50
100
AcDbVertex
100
AcDb2dVertex
 10
63.636144
 20
69.326704
 30
0.0
  0
VERTEX
  5
22E
330
228
100
AcDbEntity
  8
001
370
    50
100
AcDbVertex
100
AcDb2dVertex
 10
63.725603
 20
69.21595
 30
0.0
  0
VERTEX
  5
22F
330
228
100
AcDbEntity
  8
001
370
    50
100
AcDbVertex
100
AcDb2dVertex
 10
63.843666
 20
69.094951
 30
0.0
  0
VERTEX
  5
230
330
228
100
AcDbEntity
  8
001
370
    50
100
AcDbVertex
100
AcDb2dVertex
 10
63.973638
 20
68.981459
 30
0.0
  0
VERTEX
  5
231
330
228
100
AcDbEntity
  8
001
370
    50
100
AcDbVertex
100
AcDb2dVertex
 10
64.131184
 20
68.867042
 30
0.0
  0
VERTEX
  5
232
330
228
100
AcDbEntity
  8
001
370
    50
100
AcDbVertex
100
AcDb2dVertex
 10
64.296631
 20
68.766165
 30
0.0
  0
VERTEX
  5
233
330
228
100
AcDbEntity
  8
001
370
    50
100
AcDbVertex
100
AcDb2dVertex
 10
64.487207
 20
68.666129
 30
0.0
  0
VERTEX
  5
234
330
228
100
AcDbEntity
  8
001
370
    50
100
AcDbVertex
100
AcDb2dVertex
 10
64.683583
 20
68.577402
 30
0.0
  0
VERTEX
  5
235
330
228
100
AcDbEntity
  8
001
370
    50
100
AcDbVertex
100
AcDb2dVertex
 10
64.900424
 20
68.493722
 30
0.0
  0
VERTEX
  5
236
330
228
100
AcDbEntity
  8
001
370
    50
100
AcDbVertex
100
AcDb2dVertex
 10
65.121318
 20
68.421596
 30
0.0
  0
VERTEX
  5
237
330
228
100
AcDbEntity
  8
001
370
    50
100
AcDbVertex
100
AcDb2dVertex
 10
65.356731
 20
68.357247
 30
0.0
  0
VERTEX
  5
238
330
228
100
AcDbEntity
  8
001
370
    50
100
AcDbVertex
100
AcDb2dVertex
 10
65.594929
 20
68.304054
 30
0.0
  0
VERTEX
  5
239
330
228
100
AcDbEntity
  8
001
370
    50
100
AcDbVertex
100
AcDb2dVertex
 10
65.840759
 20
68.260836
 30
0.0
  0
VERTEX
  5
23A
330
228
100
AcDbEntity
  8
001
370
    50
100
AcDbVertex
100
AcDb2dVertex
 10
66.088288
 20
68.228779
 30
0.0
  0
VERTEX
  5
23B
330
228
100
AcDbEntity
  8
001
370
    50
100
AcDbVertex
100
AcDb2dVertex
 10
66.336095
 20
68.207909
 30
0.0
  0
VERTEX
  5
23C
330
228
100
AcDbEntity
  8
001
370
    50
100
AcDbVertex
100
AcDb2dVertex
 10
66.584594
 20
68.198333
 30
0.0
  0
VERTEX
  5
23D
330
228
100
AcDbEntity
  8
001
370
    50
100
AcDbVertex
100
AcDb2dVertex
 10
66.825958
 20
68.200207
 30
0.0
  0
VERTEX
  5
23E
330
228
100
AcDbEntity
  8
001
370
    50
100
AcDbVertex
100
AcDb2dVertex
 10
67.066945
 20
68.213754
 30
0.0
  0
VERTEX
  5
23F
330
228
100
AcDbEntity
  8
001
370
    50
100
AcDbVertex
100
AcDb2dVertex
 10
67.293754
 20
68.238032
 30
0.0
  0
VERTEX
  5
240
330
228
100
AcDbEntity
  8
001
370
    50
100
AcDbVertex
100
AcDb2dVertex
 10
67.518917
 20
68.274516
 30
0.0
  0
VERTEX
  5
241
330
228
100
AcDbEntity
  8
001
370
    50
100
AcDbVertex
100
AcDb2dVertex
 10
67.723695
 20
68.319961
 30
0.0
  0
VERTEX
  5
242
330
228
100
AcDbEntity
  8
001
370
    50
100
AcDbVertex
100
AcDb2dVertex
 10
67.925117
 20
68.37855
 30
0.0
  0
VERTEX
  5
243
330
228
100
AcDbEntity
  8
001
370
    50
100
AcDbVertex
100
AcDb2dVertex
 10
68.10128
 20
68.443681
 30
0.0
  0
VERTEX
  5
244
330
228
100
AcDbEntity
  8
001
370
    50
100
AcDbVertex
100
AcDb2dVertex
 10
68.271712
 20
68.522314
 30
0.0
  0
VERTEX
  5
245
330
228
100
AcDbEntity
  8
001
370
    50
100
AcDbVertex
100
AcDb2dVertex
 10
68.414071
 20
68.603812
 30
0.0
  0
VERTEX
  5
246
330
228
100
AcDbEntity
  8
001
370
    50
100
AcDbVertex
100
AcDb2dVertex
 10
68.546901
 20
68.700912
 30
0.0
  0
VERTEX
  5
247
330
228
100
AcDbEntity
  8
001
370
    50
100
AcDbVertex
100
AcDb2dVertex
 10
68.651173
 20
68.7996
 30
0.0
  0
VERTEX
  5
248
330
228
100
AcDbEntity
  8
001
370
    50
100
AcDbVertex
100
AcDb2dVertex
 10
68.741312
 20
68.908261
 30
0.0
  0
VERTEX
  5
249
330
228
100
AcDbEntity
  8
001
370
    50
100
AcDbVertex
100
AcDb2dVertex
 10
68.805514
 20
69.012634
 30
0.0
  0
VERTEX
  5
24A
330
228
100
AcDbEntity
  8
001
370
    50
100
AcDbVertex
100
AcDb2dVertex
 10
68.848324
 20
69.137302
 30
0.0
  0
VERTEX
  5
24B
330
228
100
AcDbEntity
  8
001
370
    50
100
AcDbVertex
100
AcDb2dVertex
 10
68.865325
 20
69.277423
 30
0.0
  0
VERTEX
  5
24C
330
228
100
AcDbEntity
  8
001
370
    50
100
AcDbVertex
100
AcDb2dVertex
 10
68.864293
 20
69.380233
 30
0.0
  0
SEQEND
  5
229
330
228
100
AcDbEntity
  8
001
370
    50
  0
POLYLINE
  5
24D
330
1F
100
AcDbEntity
  8
001
370
    50
100
AcDb2dPolyline
 66
     1
 10
0.0
 20
0.0
 30
0.0
  0
VERTEX
  5
24F
330
24D
100
AcDbEntity
  8
001
370
    50
100
AcDbVertex
100
AcDb2dVertex
 10
59.68894
 20
77.50803
 30
0.0
  0
VERTEX
  5
250
330
24D
100
AcDbEntity
  8
001
370
    50
100
AcDbVertex
100
AcDb2dVertex
 10
59.587973
 20
77.436781
 30
0.0
  0
VERTEX
  5
251
330
24D
100
AcDbEntity
  8
001
370
    50
100
AcDbVertex
100
AcDb2dVertex
 10
59.496181
 20
77.353604
 30
0.0
  0
VERTEX
  5
252
330
24D
100
AcDbEntity
  8
001
370
    50
100
AcDbVertex
100
AcDb2dVertex
 10
59.438197
 20
77.274173
 30
0.0
  0
VERTEX
  5
253
330
24D
100
AcDbEntity
  8
001
370
    50
100
AcDbVertex
100
AcDb2dVertex
 10
59.404396
 20
77.183838
 30
0.0
  0
VERTEX
  5
254
330
24D
100
AcDbEntity
  8
001
370
    50
100
AcDbVertex
100
AcDb2dVertex
 10
59.400698
 20
77.156634
 30
0.0
  0
VERTEX
  5
255
330
24D
100
AcDbEntity
  8
001
370
    50
100
AcDbVertex
100
AcDb2dVertex
 10
59.398511
 20
77.129135
 30
0.0
  0
SEQEND
  5
24E
330
24D
100
AcDbEntity
  8
001
370
    50
  0
LINE
  5
256
330
1F
100
AcDbEntity
  8
001
370
    50
100
AcDbLine
 10
71.743568
 20
65.533425
 30
0.0
 11
72.57223
 21
66.542226
 31
0.0
  0
LINE
  5
257
330
1F
100
AcDbEntity
  8
001
370
    50
100
AcDbLine
 10
72.57223
 20
66.542226
 30
0.0
 11
72.626356
 21
66.609512
 31
0.0
  0
POLYLINE
  5
258
330
1F
100
AcDbEntity
  8
001
370
    50
100
AcDb2dPolyline
 66
     1
 10
0.0
 20
0.0
 30
0.0
  0
VERTEX
  5
25A
330
258
100
AcDbEntity
  8
001
370
    50
100
AcDbVertex
100
AcDb2dVertex
 10
71.743568
 20
65.533425
 30
0.0
  0
VERTEX
  5
25B
330
258
100
AcDbEntity
  8
001
370
    50
100
AcDbVertex
100
AcDb2dVertex
 10
71.533404
 20
65.614236
 30
0.0
  0
VERTEX
  5
25C
330
258
100
AcDbEntity
  8
001
370
    50
100
AcDbVertex
100
AcDb2dVertex
 10
71.223343
 20
65.724177
 30
0.0
  0
VERTEX
  5
25D
330
258
100
AcDbEntity
  8
001
370
    50
100
AcDbVertex
100
AcDb2dVertex
 10
70.908531
 20
65.822971
 30
0.0
  0
VERTEX
  5
25E
330
258
100
AcDbEntity
  8
001
370
    50
100
AcDbVertex
100
AcDb2dVertex
 10
70.691357
 20
65.884903
 30
0.0
  0
SEQEND
  5
259
330
258
100
AcDbEntity
  8
001
370
    50
  0
LINE
  5
25F
330
1F
100
AcDbEntity
  8
001
370
    50
100
AcDbLine
 10
70.691357
 20
65.884903
 30
0.0
 11
65.682762
 21
67.241538
 31
0.0
  0
LINE
  5
260
330
1F
100
AcDbEntity
  8
001
370
    50
100
AcDbLine
 10
72.57223
 20
66.542226
 30
0.0
 11
72.57223
 21
65.216404
 31
0.0
  0
LINE
  5
261
330
1F
100
AcDbEntity
  8
001
370
    50
100
AcDbLine
 10
71.743568
 20
65.533425
 30
0.0
 11
72.57223
 21
65.216404
 31
0.0
  0
POLYLINE
  5
262
330
1F
100
AcDbEntity
  8
001
370
    50
100
AcDb2dPolyline
 66
     1
 10
0.0
 20
0.0
 30
0.0
  0
VERTEX
  5
264
330
262
100
AcDbEntity
  8
001
370
    50
100
AcDbVertex
100
AcDb2dVertex
 10
75.710245
 20
79.32186
 30
0.0
  0
VERTEX
  5
265
330
262
100
AcDbEntity
  8
001
370
    50
100
AcDbVertex
100
AcDb2dVertex
 10
75.41959
 20
79.348622
 30
0.0
  0
VERTEX
  5
266
330
262
100
AcDbEntity
  8
001
370
    50
100
AcDbVertex
100
AcDb2dVertex
 10
75.12947
 20
79.380038
 30
0.0
  0
VERTEX
  5
267
330
262
100
AcDbEntity
  8
001
370
    50
100
AcDbVertex
100
AcDb2dVertex
 10
74.84699
 20
79.418806
 30
0.0
  0
VERTEX
  5
268
330
262
100
AcDbEntity
  8
001
370
    50
100
AcDbVertex
100
AcDb2dVertex
 10
74.565657
 20
79.465519
 30
0.0
  0
VERTEX
  5
269
330
262
100
AcDbEntity
  8
001
370
    50
100
AcDbVertex
100
AcDb2dVertex
 10
74.289469
 20
79.518735
 30
0.0
  0
VERTEX
  5
26A
330
262
100
AcDbEntity
  8
001
370
    50
100
AcDbVertex
100
AcDb2dVertex
 10
74.014888
 20
79.57952
 30
0.0
  0
VERTEX
  5
26B
330
262
100
AcDbEntity
  8
001
370
    50
100
AcDbVertex
100
AcDb2dVertex
 10
73.751449
 20
79.646011
 30
0.0
  0
VERTEX
  5
26C
330
262
100
AcDbEntity
  8
001
370
    50
100
AcDbVertex
100
AcDb2dVertex
 10
73.490008
 20
79.72015
 30
0.0
  0
VERTEX
  5
26D
330
262
100
AcDbEntity
  8
001
370
    50
100
AcDbVertex
100
AcDb2dVertex
 10
73.2514
 20
79.795379
 30
0.0
  0
VERTEX
  5
26E
330
262
100
AcDbEntity
  8
001
370
    50
100
AcDbVertex
100
AcDb2dVertex
 10
73.015658
 20
79.878869
 30
0.0
  0
VERTEX
  5
26F
330
262
100
AcDbEntity
  8
001
370
    50
100
AcDbVertex
100
AcDb2dVertex
 10
72.793048
 20
79.967278
 30
0.0
  0
VERTEX
  5
270
330
262
100
AcDbEntity
  8
001
370
    50
100
AcDbVertex
100
AcDb2dVertex
 10
72.57223
 20
80.060342
 30
0.0
  0
SEQEND
  5
263
330
262
100
AcDbEntity
  8
001
370
    50
  0
LINE
  5
271
330
1F
100
AcDbEntity
  8
001
370
    50
100
AcDbLine
 10
74.871511
 20
63.88609
 30
0.0
 11
75.710245
 21
63.248593
 31
0.0
  0
POLYLINE
  5
272
330
1F
100
AcDbEntity
  8
001
370
    50
100
AcDb2dPolyline
 66
     1
 10
0.0
 20
0.0
 30
0.0
  0
VERTEX
  5
274
330
272
100
AcDbEntity
  8
001
370
    50
100
AcDbVertex
100
AcDb2dVertex
 10
72.57223
 20
65.216404
 30
0.0
  0
VERTEX
  5
275
330
272
100
AcDbEntity
  8
001
370
    50
100
AcDbVertex
100
AcDb2dVertex
 10
72.847028
 20
65.093933
 30
0.0
  0
VERTEX
  5
276
330
272
100
AcDbEntity
  8
001
370
    50
100
AcDbVertex
100
AcDb2dVertex
 10
73.11948
 20
64.966574
 30
0.0
  0
VERTEX
  5
277
330
272
100
AcDbEntity
  8
001
370
    50
100
AcDbVertex
100
AcDb2dVertex
 10
73.408793
 20
64.819367
 30
0.0
  0
VERTEX
  5
278
330
272
100
AcDbEntity
  8
001
370
    50
100
AcDbVertex
100
AcDb2dVertex
 10
73.693289
 20
64.662785
 30
0.0
  0
VERTEX
  5
279
330
272
100
AcDbEntity
  8
001
370
    50
100
AcDbVertex
100
AcDb2dVertex
 10
73.992136
 20
64.486775
 30
0.0
  0
VERTEX
  5
27A
330
272
100
AcDbEntity
  8
001
370
    50
100
AcDbVertex
100
AcDb2dVertex
 10
74.284599
 20
64.300622
 30
0.0
  0
VERTEX
  5
27B
330
272
100
AcDbEntity
  8
001
370
    50
100
AcDbVertex
100
AcDb2dVertex
 10
74.580207
 20
64.096546
 30
0.0
  0
VERTEX
  5
27C
330
272
100
AcDbEntity
  8
001
370
    50
100
AcDbVertex
100
AcDb2dVertex
 10
74.871511
 20
63.88609
 30
0.0
  0
SEQEND
  5
273
330
272
100
AcDbEntity
  8
001
370
    50
  0
LINE
  5
27D
330
1F
100
AcDbEntity
  8
001
370
    50
100
AcDbLine
 10
75.710245
 20
57.796568
 30
0.0
 11
80.713176
 21
59.137099
 31
0.0
  0
LINE
  5
27E
330
1F
100
AcDbEntity
  8
001
370
    50
100
AcDbLine
 10
80.713176
 20
80.485131
 30
0.0
 11
75.710245
 21
81.825663
 31
0.0
  0
POLYLINE
  5
27F
330
1F
100
AcDbEntity
  8
001
370
    50
100
AcDb2dPolyline
 66
     1
 10
0.0
 20
0.0
 30
0.0
  0
VERTEX
  5
281
330
27F
100
AcDbEntity
  8
001
370
    50
100
AcDbVertex
100
AcDb2dVertex
 10
78.012767
 20
80.731034
 30
0.0
  0
VERTEX
  5
282
330
27F
100
AcDbEntity
  8
001
370
    50
100
AcDbVertex
100
AcDb2dVertex
 10
77.578665
 20
80.990163
 30
0.0
  0
VERTEX
  5
283
330
27F
100
AcDbEntity
  8
001
370
    50
100
AcDbVertex
100
AcDb2dVertex
 10
76.924002
 20
81.330289
 30
0.0
  0
VERTEX
  5
284
330
27F
100
AcDbEntity
  8
001
370
    50
100
AcDbVertex
100
AcDb2dVertex
 10
76.210323
 20
81.63047
 30
0.0
  0
VERTEX
  5
285
330
27F
100
AcDbEntity
  8
001
370
    50
100
AcDbVertex
100
AcDb2dVertex
 10
75.710245
 20
81.807994
 30
0.0
  0
SEQEND
  5
280
330
27F
100
AcDbEntity
  8
001
370
    50
  0
LINE
  5
286
330
1F
100
AcDbEntity
  8
001
370
    50
100
AcDbLine
 10
76.657524
 20
59.015363
 30
0.0
 11
75.710245
 21
58.697967
 31
0.0
  0
POLYLINE
  5
287
330
1F
100
AcDbEntity
  8
001
370
    50
100
AcDb2dPolyline
 66
     1
 10
0.0
 20
0.0
 30
0.0
  0
VERTEX
  5
289
330
287
100
AcDbEntity
  8
001
370
    50
100
AcDbVertex
100
AcDb2dVertex
 10
76.657524
 20
59.015363
 30
0.0
  0
VERTEX
  5
28A
330
287
100
AcDbEntity
  8
001
370
    50
100
AcDbVertex
100
AcDb2dVertex
 10
76.911772
 20
59.106702
 30
0.0
  0
VERTEX
  5
28B
330
287
100
AcDbEntity
  8
001
370
    50
100
AcDbVertex
100
AcDb2dVertex
 10
77.163797
 20
59.203691
 30
0.0
  0
VERTEX
  5
28C
330
287
100
AcDbEntity
  8
001
370
    50
100
AcDbVertex
100
AcDb2dVertex
 10
77.366999
 20
59.290736
 30
0.0
  0
VERTEX
  5
28D
330
287
100
AcDbEntity
  8
001
370
    50
100
AcDbVertex
100
AcDb2dVertex
 10
77.56681
 20
59.385473
 30
0.0
  0
VERTEX
  5
28E
330
287
100
AcDbEntity
  8
001
370
    50
100
AcDbVertex
100
AcDb2dVertex
 10
77.752465
 20
59.482785
 30
0.0
  0
VERTEX
  5
28F
330
287
100
AcDbEntity
  8
001
370
    50
100
AcDbVertex
100
AcDb2dVertex
 10
77.93304
 20
59.589093
 30
0.0
  0
VERTEX
  5
290
330
287
100
AcDbEntity
  8
001
370
    50
100
AcDbVertex
100
AcDb2dVertex
 10
78.064997
 20
59.676609
 30
0.0
  0
VERTEX
  5
291
330
287
100
AcDbEntity
  8
001
370
    50
100
AcDbVertex
100
AcDb2dVertex
 10
78.191854
 20
59.771415
 30
0.0
  0
VERTEX
  5
292
330
287
100
AcDbEntity
  8
001
370
    50
100
AcDbVertex
100
AcDb2dVertex
 10
78.301722
 20
59.865183
 30
0.0
  0
VERTEX
  5
293
330
287
100
AcDbEntity
  8
001
370
    50
100
AcDbVertex
100
AcDb2dVertex
 10
78.403722
 20
59.967376
 30
0.0
  0
VERTEX
  5
294
330
287
100
AcDbEntity
  8
001
370
    50
100
AcDbVertex
100
AcDb2dVertex
 10
78.486264
 20
60.06741
 30
0.0
  0
VERTEX
  5
295
330
287
100
AcDbEntity
  8
001
370
    50
100
AcDbVertex
100
AcDb2dVertex
 10
78.557423
 20
60.175885
 30
0.0
  0
VERTEX
  5
296
330
287
100
AcDbEntity
  8
001
370
    50
100
AcDbVertex
100
AcDb2dVertex
 10
78.608783
 20
60.280245
 30
0.0
  0
VERTEX
  5
297
330
287
100
AcDbEntity
  8
001
370
    50
100
AcDbVertex
100
AcDb2dVertex
 10
78.644983
 20
60.390565
 30
0.0
  0
VERTEX
  5
298
330
287
100
AcDbEntity
  8
001
370
    50
100
AcDbVertex
100
AcDb2dVertex
 10
78.661278
 20
60.486315
 30
0.0
  0
VERTEX
  5
299
330
287
100
AcDbEntity
  8
001
370
    50
100
AcDbVertex
100
AcDb2dVertex
 10
78.66426
 20
60.583436
 30
0.0
  0
VERTEX
  5
29A
330
287
100
AcDbEntity
  8
001
370
    50
100
AcDbVertex
100
AcDb2dVertex
 10
78.654142
 20
60.679151
 30
0.0
  0
VERTEX
  5
29B
330
287
100
AcDbEntity
  8
001
370
    50
100
AcDbVertex
100
AcDb2dVertex
 10
78.631902
 20
60.772774
 30
0.0
  0
VERTEX
  5
29C
330
287
100
AcDbEntity
  8
001
370
    50
100
AcDbVertex
100
AcDb2dVertex
 10
78.57956
 20
60.904825
 30
0.0
  0
VERTEX
  5
29D
330
287
100
AcDbEntity
  8
001
370
    50
100
AcDbVertex
100
AcDb2dVertex
 10
78.50892
 20
61.028523
 30
0.0
  0
VERTEX
  5
29E
330
287
100
AcDbEntity
  8
001
370
    50
100
AcDbVertex
100
AcDb2dVertex
 10
78.417259
 20
61.153056
 30
0.0
  0
VERTEX
  5
29F
330
287
100
AcDbEntity
  8
001
370
    50
100
AcDbVertex
100
AcDb2dVertex
 10
78.313337
 20
61.267225
 30
0.0
  0
VERTEX
  5
2A0
330
287
100
AcDbEntity
  8
001
370
    50
100
AcDbVertex
100
AcDb2dVertex
 10
78.238332
 20
61.338402
 30
0.0
  0
VERTEX
  5
2A1
330
287
100
AcDbEntity
  8
001
370
    50
100
AcDbVertex
100
AcDb2dVertex
 10
78.161149
 20
61.40729
 30
0.0
  0
SEQEND
  5
288
330
287
100
AcDbEntity
  8
001
370
    50
  0
POLYLINE
  5
2A2
330
1F
100
AcDbEntity
  8
001
370
    50
100
AcDb2dPolyline
 66
     1
 10
0.0
 20
0.0
 30
0.0
  0
VERTEX
  5
2A4
330
2A2
100
AcDbEntity
  8
001
370
    50
100
AcDbVertex
100
AcDb2dVertex
 10
75.710245
 20
63.248593
 30
0.0
  0
VERTEX
  5
2A5
330
2A2
100
AcDbEntity
  8
001
370
    50
100
AcDbVertex
100
AcDb2dVertex
 10
76.202398
 20
62.874408
 30
0.0
  0
VERTEX
  5
2A6
330
2A2
100
AcDbEntity
  8
001
370
    50
100
AcDbVertex
100
AcDb2dVertex
 10
76.924002
 20
62.330578
 30
0.0
  0
VERTEX
  5
2A7
330
2A2
100
AcDbEntity
  8
001
370
    50
100
AcDbVertex
100
AcDb2dVertex
 10
77.569557
 20
61.8502
 30
0.0
  0
VERTEX
  5
2A8
330
2A2
100
AcDbEntity
  8
001
370
    50
100
AcDbVertex
100
AcDb2dVertex
 10
78.012767
 20
61.523559
 30
0.0
  0
SEQEND
  5
2A3
330
2A2
100
AcDbEntity
  8
001
370
    50
  0
LINE
  5
2A9
330
1F
100
AcDbEntity
  8
001
370
    50
100
AcDbLine
 10
76.657524
 20
79.249386
 30
0.0
 11
75.710245
 21
79.32186
 31
0.0
  0
POLYLINE
  5
2AA
330
1F
100
AcDbEntity
  8
001
370
    50
100
AcDb2dPolyline
 66
     1
 10
0.0
 20
0.0
 30
0.0
  0
VERTEX
  5
2AC
330
2AA
100
AcDbEntity
  8
001
370
    50
100
AcDbVertex
100
AcDb2dVertex
 10
76.657524
 20
79.249386
 30
0.0
  0
VERTEX
  5
2AD
330
2AA
100
AcDbEntity
  8
001
370
    50
100
AcDbVertex
100
AcDb2dVertex
 10
76.910641
 20
79.23745
 30
0.0
  0
VERTEX
  5
2AE
330
2AA
100
AcDbEntity
  8
001
370
    50
100
AcDbVertex
100
AcDb2dVertex
 10
77.163797
 20
79.234123
 30
0.0
  0
VERTEX
  5
2AF
330
2AA
100
AcDbEntity
  8
001
370
    50
100
AcDbVertex
100
AcDb2dVertex
 10
77.365644
 20
79.242668
 30
0.0
  0
VERTEX
  5
2B0
330
2AA
100
AcDbEntity
  8
001
370
    50
100
AcDbVertex
100
AcDb2dVertex
 10
77.56681
 20
79.262176
 30
0.0
  0
VERTEX
  5
2B1
330
2AA
100
AcDbEntity
  8
001
370
    50
100
AcDbVertex
100
AcDb2dVertex
 10
77.750965
 20
79.290231
 30
0.0
  0
VERTEX
  5
2B2
330
2AA
100
AcDbEntity
  8
001
370
    50
100
AcDbVertex
100
AcDb2dVertex
 10
77.93304
 20
79.329737
 30
0.0
  0
VERTEX
  5
2B3
330
2AA
100
AcDbEntity
  8
001
370
    50
100
AcDbVertex
100
AcDb2dVertex
 10
78.064181
 20
79.36742
 30
0.0
  0
VERTEX
  5
2B4
330
2AA
100
AcDbEntity
  8
001
370
    50
100
AcDbVertex
100
AcDb2dVertex
 10
78.191854
 20
79.414979
 30
0.0
  0
VERTEX
  5
2B5
330
2AA
100
AcDbEntity
  8
001
370
    50
100
AcDbVertex
100
AcDb2dVertex
 10
78.24339
 20
79.437984
 30
0.0
  0
VERTEX
  5
2B6
330
2AA
100
AcDbEntity
  8
001
370
    50
100
AcDbVertex
100
AcDb2dVertex
 10
78.294468
 20
79.46206
 30
0.0
  0
SEQEND
  5
2AB
330
2AA
100
AcDbEntity
  8
001
370
    50
  0
ARC
  5
2B7
330
1F
100
AcDbEntity
  8
001
370
    50
100
AcDbCircle
 10
79.6779
 20
76.621428
 30
0.0
 40
4.0
100
AcDbArc
 50
30.0
 51
75.0
  0
ARC
  5
2B8
330
1F
100
AcDbEntity
  8
001
370
    50
100
AcDbCircle
 10
79.6779
 20
63.000803
 30
0.0
 40
4.0
100
AcDbArc
 50
285.0
 51
330.0
  0
LINE
  5
2B9
330
1F
100
AcDbEntity
  8
001
370
    50
100
AcDbLine
 10
83.898511
 20
77.311115
 30
0.0
 11
83.898511
 21
62.311115
 31
0.0
  0
LINE
  5
2BA
330
1F
100
AcDbEntity
  8
001
370
    50
100
AcDbLine
 10
83.142002
 20
61.000803
 30
0.0
 11
83.898511
 21
62.311115
 31
0.0
  0
LINE
  5
2BB
330
1F
100
AcDbEntity
  8
001
370
    50
100
AcDbLine
 10
83.898511
 20
77.311115
 30
0.0
 11
83.142002
 21
78.621428
 31
0.0
  0
LINE
  5
2BC
330
1F
100
AcDbEntity
  8
001
370
    50
100
AcDbLine
 10
78.161149
 20
61.40729
 30
0.0
 11
78.012767
 21
61.523559
 31
0.0
  0
LINE
  5
2BD
330
1F
100
AcDbEntity
  8
001
  6
DASHED
370
    30
100
AcDbLine
 10
59.984298
 20
62.396902
 30
0.0
 11
62.812725
 21
65.225329
 31
0.0
  0
POLYLINE
  5
2BE
330
1F
100
AcDbEntity
  8
001
370
    50
100
AcDb2dPolyline
 66
     1
 10
0.0
 20
0.0
 30
0.0
  0
VERTEX
  5
2C0
330
2BE
100
AcDbEntity
  8
001
370
    50
100
AcDbVertex
100
AcDb2dVertex
 10
59.984298
 20
62.993133
 30
0.0
  0
VERTEX
  5
2C1
330
2BE
100
AcDbEntity
  8
001
370
    50
100
AcDbVertex
100
AcDb2dVertex
 10
60.49918
 20
63.582485
 30
0.0
  0
VERTEX
  5
2C2
330
2BE
100
AcDbEntity
  8
001
370
    50
100
AcDbVertex
100
AcDb2dVertex
 10
61.00669
 20
64.17799
 30
0.0
  0
VERTEX
  5
2C3
330
2BE
100
AcDbEntity
  8
001
370
    50
100
AcDbVertex
100
AcDb2dVertex
 10
61.502448
 20
64.784418
 30
0.0
  0
VERTEX
  5
2C4
330
2BE
100
AcDbEntity
  8
001
370
    50
100
AcDbVertex
100
AcDb2dVertex
 10
61.990818
 20
65.397012
 30
0.0
  0
SEQEND
  5
2BF
330
2BE
100
AcDbEntity
  8
001
370
    50
  0
LINE
  5
2C5
330
1F
100
AcDbEntity
  8
001
370
    50
100
AcDbLine
 10
61.223714
 20
65.156207
 30
0.0
 11
59.984298
 21
63.882996
 31
0.0
  0
POLYLINE
  5
2C6
330
1F
100
AcDbEntity
  8
001
370
    50
100
AcDb2dPolyline
 66
     1
 10
0.0
 20
0.0
 30
0.0
  0
VERTEX
  5
2C8
330
2C6
100
AcDbEntity
  8
001
370
    50
100
AcDbVertex
100
AcDb2dVertex
 10
61.223714
 20
65.156207
 30
0.0
  0
VERTEX
  5
2C9
330
2C6
100
AcDbEntity
  8
001
370
    50
100
AcDbVertex
100
AcDb2dVertex
 10
61.418518
 20
65.36801
 30
0.0
  0
VERTEX
  5
2CA
330
2C6
100
AcDbEntity
  8
001
370
    50
100
AcDbVertex
100
AcDb2dVertex
 10
61.608509
 20
65.583987
 30
0.0
  0
VERTEX
  5
2CB
330
2C6
100
AcDbEntity
  8
001
370
    50
100
AcDbVertex
100
AcDb2dVertex
 10
61.791816
 20
65.810248
 30
0.0
  0
VERTEX
  5
2CC
330
2C6
100
AcDbEntity
  8
001
370
    50
100
AcDbVertex
100
AcDb2dVertex
 10
61.965292
 20
66.044258
 30
0.0
  0
VERTEX
  5
2CD
330
2C6
100
AcDbEntity
  8
001
370
    50
100
AcDbVertex
100
AcDb2dVertex
 10
62.1138
 20
66.262786
 30
0.0
  0
VERTEX
  5
2CE
330
2C6
100
AcDbEntity
  8
001
370
    50
100
AcDbVertex
100
AcDb2dVertex
 10
62.252061
 20
66.487874
 30
0.0
  0
VERTEX
  5
2CF
330
2C6
100
AcDbEntity
  8
001
370
    50
100
AcDbVertex
100
AcDb2dVertex
 10
62.376736
 20
66.718096
 30
0.0
  0
VERTEX
  5
2D0
330
2C6
100
AcDbEntity
  8
001
370
    50
100
AcDbVertex
100
AcDb2dVertex
 10
62.486666
 20
66.955754
 30
0.0
  0
VERTEX
  5
2D1
330
2C6
100
AcDbEntity
  8
001
370
    50
100
AcDbVertex
100
AcDb2dVertex
 10
62.555708
 20
67.133526
 30
0.0
  0
VERTEX
  5
2D2
330
2C6
100
AcDbEntity
  8
001
370
    50
100
AcDbVertex
100
AcDb2dVertex
 10
62.613039
 20
67.315246
 30
0.0
  0
VERTEX
  5
2D3
330
2C6
100
AcDbEntity
  8
001
370
    50
100
AcDbVertex
100
AcDb2dVertex
 10
62.628699
 20
67.374456
 30
0.0
  0
VERTEX
  5
2D4
330
2C6
100
AcDbEntity
  8
001
370
    50
100
AcDbVertex
100
AcDb2dVertex
 10
62.643623
 20
67.433865
 30
0.0
  0
SEQEND
  5
2C7
330
2C6
100
AcDbEntity
  8
001
370
    50
  0
POLYLINE
  5
2D5
330
1F
100
AcDbEntity
  8
001
370
    50
100
AcDb2dPolyline
 66
     1
 10
0.0
 20
0.0
 30
0.0
  0
VERTEX
  5
2D7
330
2D5
100
AcDbEntity
  8
001
370
    50
100
AcDbVertex
100
AcDb2dVertex
 10
78.294468
 20
79.46206
 30
0.0
  0
VERTEX
  5
2D8
330
2D5
100
AcDbEntity
  8
001
370
    50
100
AcDbVertex
100
AcDb2dVertex
 10
78.349725
 20
79.492907
 30
0.0
  0
VERTEX
  5
2D9
330
2D5
100
AcDbEntity
  8
001
370
    50
100
AcDbVertex
100
AcDb2dVertex
 10
78.403722
 20
79.525859
 30
0.0
  0
VERTEX
  5
2DA
330
2D5
100
AcDbEntity
  8
001
370
    50
100
AcDbVertex
100
AcDb2dVertex
 10
78.485447
 20
79.587503
 30
0.0
  0
VERTEX
  5
2DB
330
2D5
100
AcDbEntity
  8
001
370
    50
100
AcDbVertex
100
AcDb2dVertex
 10
78.557423
 20
79.660614
 30
0.0
  0
VERTEX
  5
2DC
330
2D5
100
AcDbEntity
  8
001
370
    50
100
AcDbVertex
100
AcDb2dVertex
 10
78.608446
 20
79.732552
 30
0.0
  0
VERTEX
  5
2DD
330
2D5
100
AcDbEntity
  8
001
370
    50
100
AcDbVertex
100
AcDb2dVertex
 10
78.644983
 20
79.812331
 30
0.0
  0
VERTEX
  5
2DE
330
2D5
100
AcDbEntity
  8
001
370
    50
100
AcDbVertex
100
AcDb2dVertex
 10
78.661275
 20
79.883723
 30
0.0
  0
VERTEX
  5
2DF
330
2D5
100
AcDbEntity
  8
001
370
    50
100
AcDbVertex
100
AcDb2dVertex
 10
78.66426
 20
79.957005
 30
0.0
  0
VERTEX
  5
2E0
330
2D5
100
AcDbEntity
  8
001
370
    50
100
AcDbVertex
100
AcDb2dVertex
 10
78.653905
 20
80.03214
 30
0.0
  0
VERTEX
  5
2E1
330
2D5
100
AcDbEntity
  8
001
370
    50
100
AcDbVertex
100
AcDb2dVertex
 10
78.631902
 20
80.104753
 30
0.0
  0
VERTEX
  5
2E2
330
2D5
100
AcDbEntity
  8
001
370
    50
100
AcDbVertex
100
AcDb2dVertex
 10
78.578498
 20
80.212519
 30
0.0
  0
VERTEX
  5
2E3
330
2D5
100
AcDbEntity
  8
001
370
    50
100
AcDbVertex
100
AcDb2dVertex
 10
78.50892
 20
80.311209
 30
0.0
  0
VERTEX
  5
2E4
330
2D5
100
AcDbEntity
  8
001
370
    50
100
AcDbVertex
100
AcDb2dVertex
 10
78.415869
 20
80.415583
 30
0.0
  0
VERTEX
  5
2E5
330
2D5
100
AcDbEntity
  8
001
370
    50
100
AcDbVertex
100
AcDb2dVertex
 10
78.313337
 20
80.510205
 30
0.0
  0
VERTEX
  5
2E6
330
2D5
100
AcDbEntity
  8
001
370
    50
100
AcDbVertex
100
AcDb2dVertex
 10
78.166085
 20
80.624412
 30
0.0
  0
VERTEX
  5
2E7
330
2D5
100
AcDbEntity
  8
001
370
    50
100
AcDbVertex
100
AcDb2dVertex
 10
78.012767
 20
80.731034
 30
0.0
  0
SEQEND
  5
2D6
330
2D5
100
AcDbEntity
  8
001
370
    50
  0
POLYLINE
  5
2E8
330
1F
100
AcDbEntity
  8
001
370
    50
100
AcDb2dPolyline
 66
     1
 10
0.0
 20
0.0
 30
0.0
  0
VERTEX
  5
2EA
330
2E8
100
AcDbEntity
  8
001
370
    50
100
AcDbVertex
100
AcDb2dVertex
 10
62.151487
 20
68.162211
 30
0.0
  0
VERTEX
  5
2EB
330
2E8
100
AcDbEntity
  8
001
370
    50
100
AcDbVertex
100
AcDb2dVertex
 10
62.168306
 20
68.147531
 30
0.0
  0
VERTEX
  5
2EC
330
2E8
100
AcDbEntity
  8
001
370
    50
100
AcDbVertex
100
AcDb2dVertex
 10
62.185033
 20
68.132743
 30
0.0
  0
VERTEX
  5
2ED
330
2E8
100
AcDbEntity
  8
001
370
    50
100
AcDbVertex
100
AcDb2dVertex
 10
62.30038
 20
68.019593
 30
0.0
  0
VERTEX
  5
2EE
330
2E8
100
AcDbEntity
  8
001
370
    50
100
AcDbVertex
100
AcDb2dVertex
 10
62.404583
 20
67.895886
 30
0.0
  0
VERTEX
  5
2EF
330
2E8
100
AcDbEntity
  8
001
370
    50
100
AcDbVertex
100
AcDb2dVertex
 10
62.497464
 20
67.760042
 30
0.0
  0
VERTEX
  5
2F0
330
2E8
100
AcDbEntity
  8
001
370
    50
100
AcDbVertex
100
AcDb2dVertex
 10
62.574839
 20
67.61497
 30
0.0
  0
VERTEX
  5
2F1
330
2E8
100
AcDbEntity
  8
001
370
    50
100
AcDbVertex
100
AcDb2dVertex
 10
62.625888
 20
67.487759
 30
0.0
  0
VERTEX
  5
2F2
330
2E8
100
AcDbEntity
  8
001
370
    50
100
AcDbVertex
100
AcDb2dVertex
 10
62.664038
 20
67.356067
 30
0.0
  0
VERTEX
  5
2F3
330
2E8
100
AcDbEntity
  8
001
370
    50
100
AcDbVertex
100
AcDb2dVertex
 10
62.689743
 20
67.214961
 30
0.0
  0
VERTEX
  5
2F4
330
2E8
100
AcDbEntity
  8
001
370
    50
100
AcDbVertex
100
AcDb2dVertex
 10
62.700743
 20
67.071994
 30
0.0
  0
VERTEX
  5
2F5
330
2E8
100
AcDbEntity
  8
001
370
    50
100
AcDbVertex
100
AcDb2dVertex
 10
62.696473
 20
66.918864
 30
0.0
  0
VERTEX
  5
2F6
330
2E8
100
AcDbEntity
  8
001
370
    50
100
AcDbVertex
100
AcDb2dVertex
 10
62.677387
 20
66.766778
 30
0.0
  0
VERTEX
  5
2F7
330
2E8
100
AcDbEntity
  8
001
370
    50
100
AcDbVertex
100
AcDb2dVertex
 10
62.643031
 20
66.607395
 30
0.0
  0
VERTEX
  5
2F8
330
2E8
100
AcDbEntity
  8
001
370
    50
100
AcDbVertex
100
AcDb2dVertex
 10
62.595925
 20
66.451341
 30
0.0
  0
VERTEX
  5
2F9
330
2E8
100
AcDbEntity
  8
001
370
    50
100
AcDbVertex
100
AcDb2dVertex
 10
62.539881
 20
66.304275
 30
0.0
  0
VERTEX
  5
2FA
330
2E8
100
AcDbEntity
  8
001
370
    50
100
AcDbVertex
100
AcDb2dVertex
 10
62.475128
 20
66.160816
 30
0.0
  0
VERTEX
  5
2FB
330
2E8
100
AcDbEntity
  8
001
370
    50
100
AcDbVertex
100
AcDb2dVertex
 10
62.400395
 20
66.015638
 30
0.0
  0
VERTEX
  5
2FC
330
2E8
100
AcDbEntity
  8
001
370
    50
100
AcDbVertex
100
AcDb2dVertex
 10
62.319199
 20
65.873968
 30
0.0
  0
VERTEX
  5
2FD
330
2E8
100
AcDbEntity
  8
001
370
    50
100
AcDbVertex
100
AcDb2dVertex
 10
62.243031
 20
65.751817
 30
0.0
  0
VERTEX
  5
2FE
330
2E8
100
AcDbEntity
  8
001
370
    50
100
AcDbVertex
100
AcDb2dVertex
 10
62.162796
 20
65.632332
 30
0.0
  0
VERTEX
  5
2FF
330
2E8
100
AcDbEntity
  8
001
370
    50
100
AcDbVertex
100
AcDb2dVertex
 10
62.077826
 20
65.513949
 30
0.0
  0
VERTEX
  5
300
330
2E8
100
AcDbEntity
  8
001
370
    50
100
AcDbVertex
100
AcDb2dVertex
 10
61.990818
 20
65.397012
 30
0.0
  0
SEQEND
  5
2E9
330
2E8
100
AcDbEntity
  8
001
370
    50
  0
LINE
  5
301
330
1F
100
AcDbEntity
  8
001
370
    50
100
AcDbLine
 10
86.898511
 20
75.811115
 30
0.0
 11
141.898511
 21
75.811115
 31
0.0
  0
LINE
  5
302
330
1F
100
AcDbEntity
  8
001
370
    50
100
AcDbLine
 10
86.898511
 20
63.811115
 30
0.0
 11
141.898511
 21
63.811115
 31
0.0
  0
ARC
  5
303
330
1F
100
AcDbEntity
  8
001
370
    50
100
AcDbCircle
 10
77.521978
 20
51.035087
 30
0.0
 40
6.999999999999998
100
AcDbArc
 50
105.0
 51
135.0
  0
POLYLINE
  5
304
330
1F
100
AcDbEntity
  8
001
370
    50
100
AcDb2dPolyline
 66
     1
 10
0.0
 20
0.0
 30
0.0
  0
VERTEX
  5
306
330
304
100
AcDbEntity
  8
001
370
    50
100
AcDbVertex
100
AcDb2dVertex
 10
75.710245
 20
58.697967
 30
0.0
  0
VERTEX
  5
307
330
304
100
AcDbEntity
  8
001
370
    50
100
AcDbVertex
100
AcDb2dVertex
 10
75.418229
 20
58.590875
 30
0.0
  0
VERTEX
  5
308
330
304
100
AcDbEntity
  8
001
370
    50
100
AcDbVertex
100
AcDb2dVertex
 10
75.12947
 20
58.475883
 30
0.0
  0
VERTEX
  5
309
330
304
100
AcDbEntity
  8
001
370
    50
100
AcDbVertex
100
AcDb2dVertex
 10
74.844423
 20
58.345769
 30
0.0
  0
VERTEX
  5
30A
330
304
100
AcDbEntity
  8
001
370
    50
100
AcDbVertex
100
AcDb2dVertex
 10
74.565657
 20
58.202281
 30
0.0
  0
VERTEX
  5
30B
330
304
100
AcDbEntity
  8
001
370
    50
100
AcDbVertex
100
AcDb2dVertex
 10
74.286784
 20
58.043898
 30
0.0
  0
VERTEX
  5
30C
330
304
100
AcDbEntity
  8
001
370
    50
100
AcDbVertex
100
AcDb2dVertex
 10
74.014888
 20
57.874014
 30
0.0
  0
VERTEX
  5
30D
330
304
100
AcDbEntity
  8
001
370
    50
100
AcDbVertex
100
AcDb2dVertex
 10
73.748568
 20
57.691097
 30
0.0
  0
VERTEX
  5
30E
330
304
100
AcDbEntity
  8
001
370
    50
100
AcDbVertex
100
AcDb2dVertex
 10
73.490008
 20
57.497202
 30
0.0
  0
VERTEX
  5
30F
330
304
100
AcDbEntity
  8
001
370
    50
100
AcDbVertex
100
AcDb2dVertex
 10
73.24832
 20
57.300485
 30
0.0
  0
VERTEX
  5
310
330
304
100
AcDbEntity
  8
001
370
    50
100
AcDbVertex
100
AcDb2dVertex
 10
73.015658
 20
57.093411
 30
0.0
  0
VERTEX
  5
311
330
304
100
AcDbEntity
  8
001
370
    50
100
AcDbVertex
100
AcDb2dVertex
 10
72.791175
 20
56.874478
 30
0.0
  0
VERTEX
  5
312
330
304
100
AcDbEntity
  8
001
370
    50
100
AcDbVertex
100
AcDb2dVertex
 10
72.57223
 20
56.64974
 30
0.0
  0
SEQEND
  5
305
330
304
100
AcDbEntity
  8
001
370
    50
  0
POLYLINE
  5
313
330
1F
100
AcDbEntity
  8
001
370
    50
100
AcDb2dPolyline
 66
     1
 10
0.0
 20
0.0
 30
0.0
  0
VERTEX
  5
315
330
313
100
AcDbEntity
  8
001
370
    50
100
AcDbVertex
100
AcDb2dVertex
 10
59.398511
 20
61.455856
 30
0.0
  0
VERTEX
  5
316
330
313
100
AcDbEntity
  8
001
370
    50
100
AcDbVertex
100
AcDb2dVertex
 10
59.404297
 20
61.592463
 30
0.0
  0
VERTEX
  5
317
330
313
100
AcDbEntity
  8
001
370
    50
100
AcDbVertex
100
AcDb2dVertex
 10
59.415105
 20
61.728605
 30
0.0
  0
VERTEX
  5
318
330
313
100
AcDbEntity
  8
001
370
    50
100
AcDbVertex
100
AcDb2dVertex
 10
59.444096
 20
61.91089
 30
0.0
  0
VERTEX
  5
319
330
313
100
AcDbEntity
  8
001
370
    50
100
AcDbVertex
100
AcDb2dVertex
 10
59.488911
 20
62.090199
 30
0.0
  0
VERTEX
  5
31A
330
313
100
AcDbEntity
  8
001
370
    50
100
AcDbVertex
100
AcDb2dVertex
 10
59.549115
 20
62.269878
 30
0.0
  0
VERTEX
  5
31B
330
313
100
AcDbEntity
  8
001
370
    50
100
AcDbVertex
100
AcDb2dVertex
 10
59.622955
 20
62.444382
 30
0.0
  0
VERTEX
  5
31C
330
313
100
AcDbEntity
  8
001
370
    50
100
AcDbVertex
100
AcDb2dVertex
 10
59.697384
 20
62.589756
 30
0.0
  0
VERTEX
  5
31D
330
313
100
AcDbEntity
  8
001
370
    50
100
AcDbVertex
100
AcDb2dVertex
 10
59.782605
 20
62.728823
 30
0.0
  0
VERTEX
  5
31E
330
313
100
AcDbEntity
  8
001
370
    50
100
AcDbVertex
100
AcDb2dVertex
 10
59.880395
 20
62.863123
 30
0.0
  0
VERTEX
  5
31F
330
313
100
AcDbEntity
  8
001
370
    50
100
AcDbVertex
100
AcDb2dVertex
 10
59.984298
 20
62.993133
 30
0.0
  0
SEQEND
  5
314
330
313
100
AcDbEntity
  8
001
370
    50
  0
ARC
  5
320
330
1F
100
AcDbEntity
  8
001
  6
DASHED
370
    30
100
AcDbCircle
 10
61.398511
 20
66.639543
 30
0.0
 40
2.0
100
AcDbArc
 50
315.0
 51
0.0
  0
LINE
  5
321
330
1F
100
AcDbEntity
  8
001
  6
DASHED
370
    30
100
AcDbLine
 10
63.398511
 20
72.982688
 30
0.0
 11
63.398511
 21
66.639543
 31
0.0
  0
LINE
  5
322
330
1F
100
AcDbEntity
  8
001
370
    50
100
AcDbLine
 10
74.871511
 20
82.105652
 30
0.0
 11
75.106531
 21
82.017089
 31
0.0
  0
ARC
  5
323
330
1F
100
AcDbEntity
  8
001
  6
DASHED
370
    30
100
AcDbCircle
 10
61.398511
 20
60.982688
 30
0.0
 40
2.0
100
AcDbArc
 50
135.0
 51
180.0
  0
POLYLINE
  5
324
330
1F
100
AcDbEntity
  8
001
370
    50
100
AcDb2dPolyline
 66
     1
 10
0.0
 20
0.0
 30
0.0
  0
VERTEX
  5
326
330
324
100
AcDbEntity
  8
001
370
    50
100
AcDbVertex
100
AcDb2dVertex
 10
59.984298
 20
63.882996
 30
0.0
  0
VERTEX
  5
327
330
324
100
AcDbEntity
  8
001
370
    50
100
AcDbVertex
100
AcDb2dVertex
 10
59.873926
 20
63.759756
 30
0.0
  0
VERTEX
  5
328
330
324
100
AcDbEntity
  8
001
370
    50
100
AcDbVertex
100
AcDb2dVertex
 10
59.769558
 20
63.631753
 30
0.0
  0
VERTEX
  5
329
330
324
100
AcDbEntity
  8
001
370
    50
100
AcDbVertex
100
AcDb2dVertex
 10
59.676071
 20
63.495123
 30
0.0
  0
VERTEX
  5
32A
330
324
100
AcDbEntity
  8
001
370
    50
100
AcDbVertex
100
AcDb2dVertex
 10
59.594617
 20
63.350789
 30
0.0
  0
VERTEX
  5
32B
330
324
100
AcDbEntity
  8
001
370
    50
100
AcDbVertex
100
AcDb2dVertex
 10
59.52897
 20
63.209052
 30
0.0
  0
VERTEX
  5
32C
330
324
100
AcDbEntity
  8
001
370
    50
100
AcDbVertex
100
AcDb2dVertex
 10
59.474977
 20
63.06244
 30
0.0
  0
VERTEX
  5
32D
330
324
100
AcDbEntity
  8
001
370
    50
100
AcDbVertex
100
AcDb2dVertex
 10
59.434087
 20
62.912002
 30
0.0
  0
VERTEX
  5
32E
330
324
100
AcDbEntity
  8
001
370
    50
100
AcDbVertex
100
AcDb2dVertex
 10
59.40889
 20
62.758456
 30
0.0
  0
VERTEX
  5
32F
330
324
100
AcDbEntity
  8
001
370
    50
100
AcDbVertex
100
AcDb2dVertex
 10
59.402199
 20
62.67098
 30
0.0
  0
VERTEX
  5
330
330
324
100
AcDbEntity
  8
001
370
    50
100
AcDbVertex
100
AcDb2dVertex
 10
59.398511
 20
62.583233
 30
0.0
  0
SEQEND
  5
325
330
324
100
AcDbEntity
  8
001
370
    50
  0
POLYLINE
  5
331
330
1F
100
AcDbEntity
  8
001
370
    50
100
AcDb2dPolyline
 66
     1
 10
0.0
 20
0.0
 30
0.0
  0
VERTEX
  5
333
330
331
100
AcDbEntity
  8
001
370
    50
100
AcDbVertex
100
AcDb2dVertex
 10
72.57223
 20
83.401876
 30
0.0
  0
VERTEX
  5
334
330
331
100
AcDbEntity
  8
001
370
    50
100
AcDbVertex
100
AcDb2dVertex
 10
72.842669
 20
83.192209
 30
0.0
  0
VERTEX
  5
335
330
331
100
AcDbEntity
  8
001
370
    50
100
AcDbVertex
100
AcDb2dVertex
 10
73.11948
 20
82.991647
 30
0.0
  0
VERTEX
  5
336
330
331
100
AcDbEntity
  8
001
370
    50
100
AcDbVertex
100
AcDb2dVertex
 10
73.40187
 20
82.810545
 30
0.0
  0
VERTEX
  5
337
330
331
100
AcDbEntity
  8
001
370
    50
100
AcDbVertex
100
AcDb2dVertex
 10
73.693289
 20
82.643756
 30
0.0
  0
VERTEX
  5
338
330
331
100
AcDbEntity
  8
001
370
    50
100
AcDbVertex
100
AcDb2dVertex
 10
73.98617
 20
82.491159
 30
0.0
  0
VERTEX
  5
339
330
331
100
AcDbEntity
  8
001
370
    50
100
AcDbVertex
100
AcDb2dVertex
 10
74.284599
 20
82.350152
 30
0.0
  0
VERTEX
  5
33A
330
331
100
AcDbEntity
  8
001
370
    50
100
AcDbVertex
100
AcDb2dVertex
 10
74.576782
 20
82.225017
 30
0.0
  0
VERTEX
  5
33B
330
331
100
AcDbEntity
  8
001
370
    50
100
AcDbVertex
100
AcDb2dVertex
 10
74.871511
 20
82.105652
 30
0.0
  0
SEQEND
  5
332
330
331
100
AcDbEntity
  8
001
370
    50
  0
POLYLINE
  5
33C
330
1F
100
AcDbEntity
  8
001
370
    50
100
AcDb2dPolyline
 66
     1
 10
0.0
 20
0.0
 30
0.0
  0
VERTEX
  5
33E
330
33C
100
AcDbEntity
  8
001
370
    50
100
AcDbVertex
100
AcDb2dVertex
 10
70.691357
 20
83.737327
 30
0.0
  0
VERTEX
  5
33F
330
33C
100
AcDbEntity
  8
001
370
    50
100
AcDbVertex
100
AcDb2dVertex
 10
70.908531
 20
83.79926
 30
0.0
  0
VERTEX
  5
340
330
33C
100
AcDbEntity
  8
001
370
    50
100
AcDbVertex
100
AcDb2dVertex
 10
71.223343
 20
83.898054
 30
0.0
  0
VERTEX
  5
341
330
33C
100
AcDbEntity
  8
001
370
    50
100
AcDbVertex
100
AcDb2dVertex
 10
71.533404
 20
84.007995
 30
0.0
  0
VERTEX
  5
342
330
33C
100
AcDbEntity
  8
001
370
    50
100
AcDbVertex
100
AcDb2dVertex
 10
71.743568
 20
84.088805
 30
0.0
  0
SEQEND
  5
33D
330
33C
100
AcDbEntity
  8
001
370
    50
  0
LINE
  5
343
330
1F
100
AcDbEntity
  8
001
370
    50
100
AcDbLine
 10
71.743568
 20
84.088805
 30
0.0
 11
72.57223
 21
83.401876
 31
0.0
  0
LINE
  5
344
330
1F
100
AcDbEntity
  8
001
370
    50
100
AcDbLine
 10
75.106531
 20
82.017089
 30
0.0
 11
75.710245
 21
81.807994
 31
0.0
  0
ARC
  5
345
330
1F
100
AcDbEntity
  8
001
  6
DASHED
370
    50
100
AcDbCircle
 10
77.521978
 20
88.587144
 30
0.0
 40
6.999999999999998
100
AcDbArc
 50
249.816786
 51
255.0
  0
POLYLINE
  5
346
330
1F
100
AcDbEntity
  8
001
370
    50
100
AcDb2dPolyline
 66
     1
 10
0.0
 20
0.0
 30
0.0
  0
VERTEX
  5
348
330
346
100
AcDbEntity
  8
001
370
    50
100
AcDbVertex
100
AcDb2dVertex
 10
59.68894
 20
83.493623
 30
0.0
  0
VERTEX
  5
349
330
346
100
AcDbEntity
  8
001
370
    50
100
AcDbVertex
100
AcDb2dVertex
 10
59.632172
 20
83.45275
 30
0.0
  0
VERTEX
  5
34A
330
346
100
AcDbEntity
  8
001
370
    50
100
AcDbVertex
100
AcDb2dVertex
 10
59.577918
 20
83.40905
 30
0.0
  0
VERTEX
  5
34B
330
346
100
AcDbEntity
  8
001
370
    50
100
AcDbVertex
100
AcDb2dVertex
 10
59.532477
 20
83.364681
 30
0.0
  0
VERTEX
  5
34C
330
346
100
AcDbEntity
  8
001
370
    50
100
AcDbVertex
100
AcDb2dVertex
 10
59.491501
 20
83.315562
 30
0.0
  0
VERTEX
  5
34D
330
346
100
AcDbEntity
  8
001
370
    50
100
AcDbVertex
100
AcDb2dVertex
 10
59.436136
 20
83.224983
 30
0.0
  0
VERTEX
  5
34E
330
346
100
AcDbEntity
  8
001
370
    50
100
AcDbVertex
100
AcDb2dVertex
 10
59.404321
 20
83.125189
 30
0.0
  0
VERTEX
  5
34F
330
346
100
AcDbEntity
  8
001
370
    50
100
AcDbVertex
100
AcDb2dVertex
 10
59.400601
 20
83.093161
 30
0.0
  0
VERTEX
  5
350
330
346
100
AcDbEntity
  8
001
370
    50
100
AcDbVertex
100
AcDb2dVertex
 10
59.398511
 20
83.060873
 30
0.0
  0
SEQEND
  5
347
330
346
100
AcDbEntity
  8
001
370
    50
  0
POLYLINE
  5
351
330
1F
100
AcDbEntity
  8
001
370
    50
100
AcDb2dPolyline
 66
     1
 10
0.0
 20
0.0
 30
0.0
  0
VERTEX
  5
353
330
351
100
AcDbEntity
  8
001
370
    50
100
AcDbVertex
100
AcDb2dVertex
 10
64.368328
 20
86.457192
 30
0.0
  0
VERTEX
  5
354
330
351
100
AcDbEntity
  8
001
370
    50
100
AcDbVertex
100
AcDb2dVertex
 10
63.189855
 20
85.721143
 30
0.0
  0
VERTEX
  5
355
330
351
100
AcDbEntity
  8
001
370
    50
100
AcDbVertex
100
AcDb2dVertex
 10
62.013936
 20
84.981062
 30
0.0
  0
VERTEX
  5
356
330
351
100
AcDbEntity
  8
001
370
    50
100
AcDbVertex
100
AcDb2dVertex
 10
60.850179
 20
84.239332
 30
0.0
  0
VERTEX
  5
357
330
351
100
AcDbEntity
  8
001
370
    50
100
AcDbVertex
100
AcDb2dVertex
 10
59.68894
 20
83.493623
 30
0.0
  0
SEQEND
  5
352
330
351
100
AcDbEntity
  8
001
370
    50
  0
POLYLINE
  5
358
330
1F
100
AcDbEntity
  8
001
370
    50
100
AcDb2dPolyline
 66
     1
 10
0.0
 20
0.0
 30
0.0
  0
VERTEX
  5
35A
330
358
100
AcDbEntity
  8
001
370
    50
100
AcDbVertex
100
AcDb2dVertex
 10
65.077899
 20
86.667334
 30
0.0
  0
VERTEX
  5
35B
330
358
100
AcDbEntity
  8
001
370
    50
100
AcDbVertex
100
AcDb2dVertex
 10
64.926661
 20
86.648415
 30
0.0
  0
VERTEX
  5
35C
330
358
100
AcDbEntity
  8
001
370
    50
100
AcDbVertex
100
AcDb2dVertex
 10
64.776744
 20
86.621677
 30
0.0
  0
VERTEX
  5
35D
330
358
100
AcDbEntity
  8
001
370
    50
100
AcDbVertex
100
AcDb2dVertex
 10
64.637957
 20
86.583131
 30
0.0
  0
VERTEX
  5
35E
330
358
100
AcDbEntity
  8
001
370
    50
100
AcDbVertex
100
AcDb2dVertex
 10
64.504454
 20
86.52948
 30
0.0
  0
VERTEX
  5
35F
330
358
100
AcDbEntity
  8
001
370
    50
100
AcDbVertex
100
AcDb2dVertex
 10
64.435801
 20
86.494506
 30
0.0
  0
VERTEX
  5
360
330
358
100
AcDbEntity
  8
001
370
    50
100
AcDbVertex
100
AcDb2dVertex
 10
64.368328
 20
86.457192
 30
0.0
  0
SEQEND
  5
359
330
358
100
AcDbEntity
  8
001
370
    50
  0
POLYLINE
  5
361
330
1F
100
AcDbEntity
  8
001
370
    50
100
AcDb2dPolyline
 66
     1
 10
0.0
 20
0.0
 30
0.0
  0
VERTEX
  5
363
330
361
100
AcDbEntity
  8
001
370
    50
100
AcDbVertex
100
AcDb2dVertex
 10
65.384298
 20
86.687729
 30
0.0
  0
VERTEX
  5
364
330
361
100
AcDbEntity
  8
001
370
    50
100
AcDbVertex
100
AcDb2dVertex
 10
65.322073
 20
86.68359
 30
0.0
  0
VERTEX
  5
365
330
361
100
AcDbEntity
  8
001
370
    50
100
AcDbVertex
100
AcDb2dVertex
 10
65.231129
 20
86.677538
 30
0.0
  0
VERTEX
  5
366
330
361
100
AcDbEntity
  8
001
370
    50
100
AcDbVertex
100
AcDb2dVertex
 10
65.140148
 20
86.67148
 30
0.0
  0
VERTEX
  5
367
330
361
100
AcDbEntity
  8
001
370
    50
100
AcDbVertex
100
AcDb2dVertex
 10
65.077899
 20
86.667334
 30
0.0
  0
SEQEND
  5
362
330
361
100
AcDbEntity
  8
001
370
    50
  0
POLYLINE
  5
368
330
1F
100
AcDbEntity
  8
001
370
    50
100
AcDb2dPolyline
 66
     1
 10
0.0
 20
0.0
 30
0.0
  0
VERTEX
  5
36A
330
368
100
AcDbEntity
  8
001
370
    50
100
AcDbVertex
100
AcDb2dVertex
 10
66.091404
 20
86.572504
 30
0.0
  0
VERTEX
  5
36B
330
368
100
AcDbEntity
  8
001
370
    50
100
AcDbVertex
100
AcDb2dVertex
 10
66.029662
 20
86.598881
 30
0.0
  0
VERTEX
  5
36C
330
368
100
AcDbEntity
  8
001
370
    50
100
AcDbVertex
100
AcDb2dVertex
 10
65.967037
 20
86.622796
 30
0.0
  0
VERTEX
  5
36D
330
368
100
AcDbEntity
  8
001
370
    50
100
AcDbVertex
100
AcDb2dVertex
 10
65.894446
 20
86.644575
 30
0.0
  0
VERTEX
  5
36E
330
368
100
AcDbEntity
  8
001
370
    50
100
AcDbVertex
100
AcDb2dVertex
 10
65.820429
 20
86.661368
 30
0.0
  0
VERTEX
  5
36F
330
368
100
AcDbEntity
  8
001
370
    50
100
AcDbVertex
100
AcDb2dVertex
 10
65.741603
 20
86.674883
 30
0.0
  0
VERTEX
  5
370
330
368
100
AcDbEntity
  8
001
370
    50
100
AcDbVertex
100
AcDb2dVertex
 10
65.662233
 20
86.68444
 30
0.0
  0
VERTEX
  5
371
330
368
100
AcDbEntity
  8
001
370
    50
100
AcDbVertex
100
AcDb2dVertex
 10
65.57491
 20
86.690457
 30
0.0
  0
VERTEX
  5
372
330
368
100
AcDbEntity
  8
001
370
    50
100
AcDbVertex
100
AcDb2dVertex
 10
65.487407
 20
86.691643
 30
0.0
  0
VERTEX
  5
373
330
368
100
AcDbEntity
  8
001
370
    50
100
AcDbVertex
100
AcDb2dVertex
 10
65.435839
 20
86.690128
 30
0.0
  0
VERTEX
  5
374
330
368
100
AcDbEntity
  8
001
370
    50
100
AcDbVertex
100
AcDb2dVertex
 10
65.384298
 20
86.687729
 30
0.0
  0
SEQEND
  5
369
330
368
100
AcDbEntity
  8
001
370
    50
  0
LINE
  5
375
330
1F
100
AcDbEntity
  8
001
370
    50
100
AcDbLine
 10
67.032208
 20
86.108118
 30
0.0
 11
66.091404
 21
86.572504
 31
0.0
  0
POLYLINE
  5
376
330
1F
100
AcDbEntity
  8
001
370
    50
100
AcDb2dPolyline
 66
     1
 10
0.0
 20
0.0
 30
0.0
  0
VERTEX
  5
378
330
376
100
AcDbEntity
  8
001
370
    50
100
AcDbVertex
100
AcDb2dVertex
 10
67.032208
 20
86.108118
 30
0.0
  0
VERTEX
  5
379
330
376
100
AcDbEntity
  8
001
370
    50
100
AcDbVertex
100
AcDb2dVertex
 10
66.830306
 20
86.117084
 30
0.0
  0
VERTEX
  5
37A
330
376
100
AcDbEntity
  8
001
370
    50
100
AcDbVertex
100
AcDb2dVertex
 10
66.551894
 20
86.120233
 30
0.0
  0
VERTEX
  5
37B
330
376
100
AcDbEntity
  8
001
370
    50
100
AcDbVertex
100
AcDb2dVertex
 10
66.294431
 20
86.110046
 30
0.0
  0
VERTEX
  5
37C
330
376
100
AcDbEntity
  8
001
370
    50
100
AcDbVertex
100
AcDb2dVertex
 10
66.058928
 20
86.087175
 30
0.0
  0
VERTEX
  5
37D
330
376
100
AcDbEntity
  8
001
370
    50
100
AcDbVertex
100
AcDb2dVertex
 10
65.816364
 20
86.0539
 30
0.0
  0
VERTEX
  5
37E
330
376
100
AcDbEntity
  8
001
370
    50
100
AcDbVertex
100
AcDb2dVertex
 10
65.56985
 20
86.010052
 30
0.0
  0
VERTEX
  5
37F
330
376
100
AcDbEntity
  8
001
370
    50
100
AcDbVertex
100
AcDb2dVertex
 10
65.333329
 20
85.956306
 30
0.0
  0
VERTEX
  5
380
330
376
100
AcDbEntity
  8
001
370
    50
100
AcDbVertex
100
AcDb2dVertex
 10
65.101072
 20
85.891452
 30
0.0
  0
VERTEX
  5
381
330
376
100
AcDbEntity
  8
001
370
    50
100
AcDbVertex
100
AcDb2dVertex
 10
64.882853
 20
85.819088
 30
0.0
  0
VERTEX
  5
382
330
376
100
AcDbEntity
  8
001
370
    50
100
AcDbVertex
100
AcDb2dVertex
 10
64.668324
 20
85.735355
 30
0.0
  0
VERTEX
  5
383
330
376
100
AcDbEntity
  8
001
370
    50
100
AcDbVertex
100
AcDb2dVertex
 10
64.474292
 20
85.646756
 30
0.0
  0
VERTEX
  5
384
330
376
100
AcDbEntity
  8
001
370
    50
100
AcDbVertex
100
AcDb2dVertex
 10
64.286125
 20
85.546998
 30
0.0
  0
VERTEX
  5
385
330
376
100
AcDbEntity
  8
001
370
    50
100
AcDbVertex
100
AcDb2dVertex
 10
64.122797
 20
85.446524
 30
0.0
  0
VERTEX
  5
386
330
376
100
AcDbEntity
  8
001
370
    50
100
AcDbVertex
100
AcDb2dVertex
 10
63.967302
 20
85.332701
 30
0.0
  0
VERTEX
  5
387
330
376
100
AcDbEntity
  8
001
370
    50
100
AcDbVertex
100
AcDb2dVertex
 10
63.839021
 20
85.219863
 30
0.0
  0
VERTEX
  5
388
330
376
100
AcDbEntity
  8
001
370
    50
100
AcDbVertex
100
AcDb2dVertex
 10
63.722551
 20
85.099656
 30
0.0
  0
VERTEX
  5
389
330
376
100
AcDbEntity
  8
001
370
    50
100
AcDbVertex
100
AcDb2dVertex
 10
63.634257
 20
84.989609
 30
0.0
  0
VERTEX
  5
38A
330
376
100
AcDbEntity
  8
001
370
    50
100
AcDbVertex
100
AcDb2dVertex
 10
63.560086
 20
84.855682
 30
0.0
  0
VERTEX
  5
38B
330
376
100
AcDbEntity
  8
001
370
    50
100
AcDbVertex
100
AcDb2dVertex
 10
63.510058
 20
84.714573
 30
0.0
  0
VERTEX
  5
38C
330
376
100
AcDbEntity
  8
001
370
    50
100
AcDbVertex
100
AcDb2dVertex
 10
63.485357
 20
84.608965
 30
0.0
  0
SEQEND
  5
377
330
376
100
AcDbEntity
  8
001
370
    50
  0
POLYLINE
  5
38D
330
1F
100
AcDbEntity
  8
001
370
    50
100
AcDb2dPolyline
 66
     1
 10
0.0
 20
0.0
 30
0.0
  0
VERTEX
  5
38F
330
38D
100
AcDbEntity
  8
001
370
    50
100
AcDbVertex
100
AcDb2dVertex
 10
71.179532
 20
83.897379
 30
0.0
  0
VERTEX
  5
390
330
38D
100
AcDbEntity
  8
001
370
    50
100
AcDbVertex
100
AcDb2dVertex
 10
70.971704
 20
84.017304
 30
0.0
  0
VERTEX
  5
391
330
38D
100
AcDbEntity
  8
001
370
    50
100
AcDbVertex
100
AcDb2dVertex
 10
70.763558
 20
84.136678
 30
0.0
  0
VERTEX
  5
392
330
38D
100
AcDbEntity
  8
001
370
    50
100
AcDbVertex
100
AcDb2dVertex
 10
70.29141
 20
84.402473
 30
0.0
  0
VERTEX
  5
393
330
38D
100
AcDbEntity
  8
001
370
    50
100
AcDbVertex
100
AcDb2dVertex
 10
69.816426
 20
84.663177
 30
0.0
  0
VERTEX
  5
394
330
38D
100
AcDbEntity
  8
001
370
    50
100
AcDbVertex
100
AcDb2dVertex
 10
69.333248
 20
84.922741
 30
0.0
  0
VERTEX
  5
395
330
38D
100
AcDbEntity
  8
001
370
    50
100
AcDbVertex
100
AcDb2dVertex
 10
68.848816
 20
85.179967
 30
0.0
  0
SEQEND
  5
38E
330
38D
100
AcDbEntity
  8
001
370
    50
  0
POLYLINE
  5
396
330
1F
100
AcDbEntity
  8
001
370
    50
100
AcDb2dPolyline
 66
     1
 10
0.0
 20
0.0
 30
0.0
  0
VERTEX
  5
398
330
396
100
AcDbEntity
  8
001
370
    50
100
AcDbVertex
100
AcDb2dVertex
 10
68.864293
 20
84.938936
 30
0.0
  0
VERTEX
  5
399
330
396
100
AcDbEntity
  8
001
370
    50
100
AcDbVertex
100
AcDb2dVertex
 10
68.868219
 20
84.988398
 30
0.0
  0
VERTEX
  5
39A
330
396
100
AcDbEntity
  8
001
370
    50
100
AcDbVertex
100
AcDb2dVertex
 10
68.86786
 20
85.060655
 30
0.0
  0
VERTEX
  5
39B
330
396
100
AcDbEntity
  8
001
370
    50
100
AcDbVertex
100
AcDb2dVertex
 10
68.859004
 20
85.131803
 30
0.0
  0
VERTEX
  5
39C
330
396
100
AcDbEntity
  8
001
370
    50
100
AcDbVertex
100
AcDb2dVertex
 10
68.848816
 20
85.179967
 30
0.0
  0
SEQEND
  5
397
330
396
100
AcDbEntity
  8
001
370
    50
  0
POLYLINE
  5
39D
330
1F
100
AcDbEntity
  8
001
370
    50
100
AcDb2dPolyline
 66
     1
 10
0.0
 20
0.0
 30
0.0
  0
VERTEX
  5
39F
330
39D
100
AcDbEntity
  8
001
370
    50
100
AcDbVertex
100
AcDb2dVertex
 10
63.485357
 20
84.608965
 30
0.0
  0
VERTEX
  5
3A0
330
39D
100
AcDbEntity
  8
001
370
    50
100
AcDbVertex
100
AcDb2dVertex
 10
63.484326
 20
84.506156
 30
0.0
  0
VERTEX
  5
3A1
330
39D
100
AcDbEntity
  8
001
370
    50
100
AcDbVertex
100
AcDb2dVertex
 10
63.501326
 20
84.366034
 30
0.0
  0
VERTEX
  5
3A2
330
39D
100
AcDbEntity
  8
001
370
    50
100
AcDbVertex
100
AcDb2dVertex
 10
63.544136
 20
84.241367
 30
0.0
  0
VERTEX
  5
3A3
330
39D
100
AcDbEntity
  8
001
370
    50
100
AcDbVertex
100
AcDb2dVertex
 10
63.608338
 20
84.136994
 30
0.0
  0
VERTEX
  5
3A4
330
39D
100
AcDbEntity
  8
001
370
    50
100
AcDbVertex
100
AcDb2dVertex
 10
63.698477
 20
84.028333
 30
0.0
  0
VERTEX
  5
3A5
330
39D
100
AcDbEntity
  8
001
370
    50
100
AcDbVertex
100
AcDb2dVertex
 10
63.802749
 20
83.929644
 30
0.0
  0
VERTEX
  5
3A6
330
39D
100
AcDbEntity
  8
001
370
    50
100
AcDbVertex
100
AcDb2dVertex
 10
63.93558
 20
83.832545
 30
0.0
  0
VERTEX
  5
3A7
330
39D
100
AcDbEntity
  8
001
370
    50
100
AcDbVertex
100
AcDb2dVertex
 10
64.077938
 20
83.751047
 30
0.0
  0
VERTEX
  5
3A8
330
39D
100
AcDbEntity
  8
001
370
    50
100
AcDbVertex
100
AcDb2dVertex
 10
64.24837
 20
83.672413
 30
0.0
  0
VERTEX
  5
3A9
330
39D
100
AcDbEntity
  8
001
370
    50
100
AcDbVertex
100
AcDb2dVertex
 10
64.424534
 20
83.607283
 30
0.0
  0
VERTEX
  5
3AA
330
39D
100
AcDbEntity
  8
001
370
    50
100
AcDbVertex
100
AcDb2dVertex
 10
64.625955
 20
83.548694
 30
0.0
  0
VERTEX
  5
3AB
330
39D
100
AcDbEntity
  8
001
370
    50
100
AcDbVertex
100
AcDb2dVertex
 10
64.830734
 20
83.503248
 30
0.0
  0
VERTEX
  5
3AC
330
39D
100
AcDbEntity
  8
001
370
    50
100
AcDbVertex
100
AcDb2dVertex
 10
65.055896
 20
83.466765
 30
0.0
  0
VERTEX
  5
3AD
330
39D
100
AcDbEntity
  8
001
370
    50
100
AcDbVertex
100
AcDb2dVertex
 10
65.282705
 20
83.442486
 30
0.0
  0
VERTEX
  5
3AE
330
39D
100
AcDbEntity
  8
001
370
    50
100
AcDbVertex
100
AcDb2dVertex
 10
65.523693
 20
83.42894
 30
0.0
  0
VERTEX
  5
3AF
330
39D
100
AcDbEntity
  8
001
370
    50
100
AcDbVertex
100
AcDb2dVertex
 10
65.765057
 20
83.427065
 30
0.0
  0
VERTEX
  5
3B0
330
39D
100
AcDbEntity
  8
001
370
    50
100
AcDbVertex
100
AcDb2dVertex
 10
66.013556
 20
83.436642
 30
0.0
  0
VERTEX
  5
3B1
330
39D
100
AcDbEntity
  8
001
370
    50
100
AcDbVertex
100
AcDb2dVertex
 10
66.261362
 20
83.457511
 30
0.0
  0
VERTEX
  5
3B2
330
39D
100
AcDbEntity
  8
001
370
    50
100
AcDbVertex
100
AcDb2dVertex
 10
66.508892
 20
83.489569
 30
0.0
  0
VERTEX
  5
3B3
330
39D
100
AcDbEntity
  8
001
370
    50
100
AcDbVertex
100
AcDb2dVertex
 10
66.754721
 20
83.532787
 30
0.0
  0
VERTEX
  5
3B4
330
39D
100
AcDbEntity
  8
001
370
    50
100
AcDbVertex
100
AcDb2dVertex
 10
66.992919
 20
83.585979
 30
0.0
  0
VERTEX
  5
3B5
330
39D
100
AcDbEntity
  8
001
370
    50
100
AcDbVertex
100
AcDb2dVertex
 10
67.228332
 20
83.650329
 30
0.0
  0
VERTEX
  5
3B6
330
39D
100
AcDbEntity
  8
001
370
    50
100
AcDbVertex
100
AcDb2dVertex
 10
67.449226
 20
83.722455
 30
0.0
  0
VERTEX
  5
3B7
330
39D
100
AcDbEntity
  8
001
370
    50
100
AcDbVertex
100
AcDb2dVertex
 10
67.666067
 20
83.806134
 30
0.0
  0
VERTEX
  5
3B8
330
39D
100
AcDbEntity
  8
001
370
    50
100
AcDbVertex
100
AcDb2dVertex
 10
67.862443
 20
83.894861
 30
0.0
  0
VERTEX
  5
3B9
330
39D
100
AcDbEntity
  8
001
370
    50
100
AcDbVertex
100
AcDb2dVertex
 10
68.05302
 20
83.994898
 30
0.0
  0
VERTEX
  5
3BA
330
39D
100
AcDbEntity
  8
001
370
    50
100
AcDbVertex
100
AcDb2dVertex
 10
68.218466
 20
84.095774
 30
0.0
  0
VERTEX
  5
3BB
330
39D
100
AcDbEntity
  8
001
370
    50
100
AcDbVertex
100
AcDb2dVertex
 10
68.376013
 20
84.210191
 30
0.0
  0
VERTEX
  5
3BC
330
39D
100
AcDbEntity
  8
001
370
    50
100
AcDbVertex
100
AcDb2dVertex
 10
68.505985
 20
84.323684
 30
0.0
  0
VERTEX
  5
3BD
330
39D
100
AcDbEntity
  8
001
370
    50
100
AcDbVertex
100
AcDb2dVertex
 10
68.624047
 20
84.444682
 30
0.0
  0
VERTEX
  5
3BE
330
39D
100
AcDbEntity
  8
001
370
    50
100
AcDbVertex
100
AcDb2dVertex
 10
68.713507
 20
84.555436
 30
0.0
  0
VERTEX
  5
3BF
330
39D
100
AcDbEntity
  8
001
370
    50
100
AcDbVertex
100
AcDb2dVertex
 10
68.788676
 20
84.690386
 30
0.0
  0
VERTEX
  5
3C0
330
39D
100
AcDbEntity
  8
001
370
    50
100
AcDbVertex
100
AcDb2dVertex
 10
68.839311
 20
84.832525
 30
0.0
  0
VERTEX
  5
3C1
330
39D
100
AcDbEntity
  8
001
370
    50
100
AcDbVertex
100
AcDb2dVertex
 10
68.864293
 20
84.938936
 30
0.0
  0
SEQEND
  5
39E
330
39D
100
AcDbEntity
  8
001
370
    50
  0
POLYLINE
  5
3C2
330
1F
100
AcDbEntity
  8
001
370
    50
100
AcDb2dPolyline
 66
     1
 10
0.0
 20
0.0
 30
0.0
  0
VERTEX
  5
3C4
330
3C2
100
AcDbEntity
  8
001
370
    50
100
AcDbVertex
100
AcDb2dVertex
 10
68.848816
 20
85.179967
 30
0.0
  0
VERTEX
  5
3C5
330
3C2
100
AcDbEntity
  8
001
370
    50
100
AcDbVertex
100
AcDb2dVertex
 10
68.812738
 20
85.115856
 30
0.0
  0
VERTEX
  5
3C6
330
3C2
100
AcDbEntity
  8
001
370
    50
100
AcDbVertex
100
AcDb2dVertex
 10
68.771604
 20
85.055283
 30
0.0
  0
VERTEX
  5
3C7
330
3C2
100
AcDbEntity
  8
001
370
    50
100
AcDbVertex
100
AcDb2dVertex
 10
68.72156
 20
85.001653
 30
0.0
  0
VERTEX
  5
3C8
330
3C2
100
AcDbEntity
  8
001
370
    50
100
AcDbVertex
100
AcDb2dVertex
 10
68.662939
 20
84.957217
 30
0.0
  0
VERTEX
  5
3C9
330
3C2
100
AcDbEntity
  8
001
370
    50
100
AcDbVertex
100
AcDb2dVertex
 10
68.592154
 20
84.921773
 30
0.0
  0
VERTEX
  5
3CA
330
3C2
100
AcDbEntity
  8
001
370
    50
100
AcDbVertex
100
AcDb2dVertex
 10
68.516128
 20
84.900048
 30
0.0
  0
VERTEX
  5
3CB
330
3C2
100
AcDbEntity
  8
001
370
    50
100
AcDbVertex
100
AcDb2dVertex
 10
68.468785
 20
84.893733
 30
0.0
  0
VERTEX
  5
3CC
330
3C2
100
AcDbEntity
  8
001
370
    50
100
AcDbVertex
100
AcDb2dVertex
 10
68.421079
 20
84.892336
 30
0.0
  0
VERTEX
  5
3CD
330
3C2
100
AcDbEntity
  8
001
370
    50
100
AcDbVertex
100
AcDb2dVertex
 10
68.366032
 20
84.896396
 30
0.0
  0
VERTEX
  5
3CE
330
3C2
100
AcDbEntity
  8
001
370
    50
100
AcDbVertex
100
AcDb2dVertex
 10
68.311627
 20
84.905885
 30
0.0
  0
VERTEX
  5
3CF
330
3C2
100
AcDbEntity
  8
001
370
    50
100
AcDbVertex
100
AcDb2dVertex
 10
68.247592
 20
84.923484
 30
0.0
  0
VERTEX
  5
3D0
330
3C2
100
AcDbEntity
  8
001
370
    50
100
AcDbVertex
100
AcDb2dVertex
 10
68.185327
 20
84.946655
 30
0.0
  0
VERTEX
  5
3D1
330
3C2
100
AcDbEntity
  8
001
370
    50
100
AcDbVertex
100
AcDb2dVertex
 10
68.114303
 20
84.979628
 30
0.0
  0
VERTEX
  5
3D2
330
3C2
100
AcDbEntity
  8
001
370
    50
100
AcDbVertex
100
AcDb2dVertex
 10
68.04588
 20
85.017691
 30
0.0
  0
VERTEX
  5
3D3
330
3C2
100
AcDbEntity
  8
001
370
    50
100
AcDbVertex
100
AcDb2dVertex
 10
67.97853
 20
85.060936
 30
0.0
  0
VERTEX
  5
3D4
330
3C2
100
AcDbEntity
  8
001
370
    50
100
AcDbVertex
100
AcDb2dVertex
 10
67.913552
 20
85.107687
 30
0.0
  0
VERTEX
  5
3D5
330
3C2
100
AcDbEntity
  8
001
370
    50
100
AcDbVertex
100
AcDb2dVertex
 10
67.845061
 20
85.161779
 30
0.0
  0
VERTEX
  5
3D6
330
3C2
100
AcDbEntity
  8
001
370
    50
100
AcDbVertex
100
AcDb2dVertex
 10
67.778833
 20
85.218614
 30
0.0
  0
VERTEX
  5
3D7
330
3C2
100
AcDbEntity
  8
001
370
    50
100
AcDbVertex
100
AcDb2dVertex
 10
67.697279
 20
85.294526
 30
0.0
  0
VERTEX
  5
3D8
330
3C2
100
AcDbEntity
  8
001
370
    50
100
AcDbVertex
100
AcDb2dVertex
 10
67.618685
 20
85.373513
 30
0.0
  0
VERTEX
  5
3D9
330
3C2
100
AcDbEntity
  8
001
370
    50
100
AcDbVertex
100
AcDb2dVertex
 10
67.540489
 20
85.457271
 30
0.0
  0
VERTEX
  5
3DA
330
3C2
100
AcDbEntity
  8
001
370
    50
100
AcDbVertex
100
AcDb2dVertex
 10
67.464599
 20
85.543124
 30
0.0
  0
VERTEX
  5
3DB
330
3C2
100
AcDbEntity
  8
001
370
    50
100
AcDbVertex
100
AcDb2dVertex
 10
67.350058
 20
85.680583
 30
0.0
  0
VERTEX
  5
3DC
330
3C2
100
AcDbEntity
  8
001
370
    50
100
AcDbVertex
100
AcDb2dVertex
 10
67.240026
 20
85.821672
 30
0.0
  0
VERTEX
  5
3DD
330
3C2
100
AcDbEntity
  8
001
370
    50
100
AcDbVertex
100
AcDb2dVertex
 10
67.135076
 20
85.964128
 30
0.0
  0
VERTEX
  5
3DE
330
3C2
100
AcDbEntity
  8
001
370
    50
100
AcDbVertex
100
AcDb2dVertex
 10
67.032208
 20
86.108118
 30
0.0
  0
SEQEND
  5
3C3
330
3C2
100
AcDbEntity
  8
001
370
    50
  0
LINE
  5
3DF
330
1F
100
AcDbEntity
  8
001
370
    50
100
AcDbLine
 10
59.398511
 20
77.129135
 30
0.0
 11
59.398511
 21
68.87398
 31
0.0
  0
LINE
  5
3E0
330
1F
100
AcDbEntity
  8
001
370
    50
100
AcDbLine
 10
59.398511
 20
73.898934
 30
0.0
 11
59.131542
 21
74.057455
 31
0.0
  0
LINE
  5
3E1
330
1F
100
AcDbEntity
  8
001
370
    50
100
AcDbLine
 10
59.188088
 20
77.159585
 30
0.0
 11
58.899956
 21
74.785473
 31
0.0
  0
LINE
  5
3E2
330
1F
100
AcDbEntity
  8
001
370
    50
100
AcDbLine
 10
63.045397
 20
82.585672
 30
0.0
 11
59.398511
 21
82.869113
 31
0.0
  0
LINE
  5
3E3
330
1F
100
AcDbEntity
  8
001
370
    50
100
AcDbLine
 10
59.398511
 20
80.420235
 30
0.0
 11
59.398511
 21
83.060873
 31
0.0
  0
LINE
  5
3E4
330
1F
100
AcDbEntity
  8
001
370
    50
100
AcDbLine
 10
70.691357
 20
83.737327
 30
0.0
 11
67.079184
 21
82.758929
 31
0.0
  0
POLYLINE
  5
3E5
330
1F
100
AcDbEntity
  8
001
370
    50
100
AcDb2dPolyline
 66
     1
 10
0.0
 20
0.0
 30
0.0
  0
VERTEX
  5
3E7
330
3E5
100
AcDbEntity
  8
001
370
    50
100
AcDbVertex
100
AcDb2dVertex
 10
59.232357
 20
76.794822
 30
0.0
  0
VERTEX
  5
3E8
330
3E5
100
AcDbEntity
  8
001
370
    50
100
AcDbVertex
100
AcDb2dVertex
 10
59.239348
 20
76.764941
 30
0.0
  0
VERTEX
  5
3E9
330
3E5
100
AcDbEntity
  8
001
370
    50
100
AcDbVertex
100
AcDb2dVertex
 10
59.254011
 20
76.725203
 30
0.0
  0
VERTEX
  5
3EA
330
3E5
100
AcDbEntity
  8
001
370
    50
100
AcDbVertex
100
AcDb2dVertex
 10
59.275657
 20
76.689436
 30
0.0
  0
VERTEX
  5
3EB
330
3E5
100
AcDbEntity
  8
001
370
    50
100
AcDbVertex
100
AcDb2dVertex
 10
59.300983
 20
76.661025
 30
0.0
  0
VERTEX
  5
3EC
330
3E5
100
AcDbEntity
  8
001
370
    50
100
AcDbVertex
100
AcDb2dVertex
 10
59.333008
 20
76.63191
 30
0.0
  0
VERTEX
  5
3ED
330
3E5
100
AcDbEntity
  8
001
370
    50
100
AcDbVertex
100
AcDb2dVertex
 10
59.371733
 20
76.60439
 30
0.0
  0
VERTEX
  5
3EE
330
3E5
100
AcDbEntity
  8
001
370
    50
100
AcDbVertex
100
AcDb2dVertex
 10
59.384873
 20
76.596543
 30
0.0
  0
VERTEX
  5
3EF
330
3E5
100
AcDbEntity
  8
001
370
    50
100
AcDbVertex
100
AcDb2dVertex
 10
59.398511
 20
76.588913
 30
0.0
  0
SEQEND
  5
3E6
330
3E5
100
AcDbEntity
  8
001
370
    50
  0
LINE
  5
3F0
330
1F
100
AcDbEntity
  8
001
370
    50
100
AcDbLine
 10
70.926684
 20
80.345538
 30
0.0
 11
71.359679
 21
80.60264
 31
0.0
  0
LINE
  5
3F1
330
1F
100
AcDbEntity
  8
001
370
    50
100
AcDbLine
 10
71.168754
 20
78.350961
 30
0.0
 11
70.83893
 21
81.068609
 31
0.0
  0
POLYLINE
  5
3F2
330
1F
100
AcDbEntity
  8
001
370
    50
100
AcDb2dPolyline
 66
     1
 10
0.0
 20
0.0
 30
0.0
  0
VERTEX
  5
3F4
330
3F2
100
AcDbEntity
  8
001
370
    50
100
AcDbVertex
100
AcDb2dVertex
 10
71.166527
 20
78.351879
 30
0.0
  0
VERTEX
  5
3F5
330
3F2
100
AcDbEntity
  8
001
370
    50
100
AcDbVertex
100
AcDb2dVertex
 10
71.159295
 20
78.375302
 30
0.0
  0
VERTEX
  5
3F6
330
3F2
100
AcDbEntity
  8
001
370
    50
100
AcDbVertex
100
AcDb2dVertex
 10
71.149676
 20
78.399353
 30
0.0
  0
VERTEX
  5
3F7
330
3F2
100
AcDbEntity
  8
001
370
    50
100
AcDbVertex
100
AcDb2dVertex
 10
71.12803
 20
78.435121
 30
0.0
  0
VERTEX
  5
3F8
330
3F2
100
AcDbEntity
  8
001
370
    50
100
AcDbVertex
100
AcDb2dVertex
 10
71.102704
 20
78.463532
 30
0.0
  0
VERTEX
  5
3F9
330
3F2
100
AcDbEntity
  8
001
370
    50
100
AcDbVertex
100
AcDb2dVertex
 10
71.070679
 20
78.492647
 30
0.0
  0
VERTEX
  5
3FA
330
3F2
100
AcDbEntity
  8
001
370
    50
100
AcDbVertex
100
AcDb2dVertex
 10
71.031954
 20
78.520167
 30
0.0
  0
VERTEX
  5
3FB
330
3F2
100
AcDbEntity
  8
001
370
    50
100
AcDbVertex
100
AcDb2dVertex
 10
70.979378
 20
78.549047
 30
0.0
  0
VERTEX
  5
3FC
330
3F2
100
AcDbEntity
  8
001
370
    50
100
AcDbVertex
100
AcDb2dVertex
 10
70.939744
 20
78.567402
 30
0.0
  0
SEQEND
  5
3F3
330
3F2
100
AcDbEntity
  8
001
370
    50
  0
LINE
  5
3FD
330
1F
100
AcDbEntity
  8
001
  6
DASHED
370
    30
100
AcDbLine
 10
59.984298
 20
77.225329
 30
0.0
 11
62.812725
 21
74.396902
 31
0.0
  0
ARC
  5
3FE
330
1F
100
AcDbEntity
  8
001
  6
DASHED
370
    30
100
AcDbCircle
 10
61.398511
 20
72.982688
 30
0.0
 40
2.0
100
AcDbArc
 50
0.0
 51
45.0
  0
ARC
  5
3FF
330
1F
100
AcDbEntity
  8
001
  6
DASHED
370
    30
100
AcDbCircle
 10
61.398511
 20
78.639543
 30
0.0
 40
2.0
100
AcDbArc
 50
180.0
 51
225.0
  0
LINE
  5
400
330
1F
100
AcDbEntity
  8
001
370
    50
100
AcDbLine
 10
86.898511
 20
63.811115
 30
0.0
 11
86.898511
 21
75.811115
 31
0.0
  0
LINE
  5
401
330
1F
100
AcDbEntity
  8
001
370
    50
100
AcDbLine
 10
86.898511
 20
75.311115
 30
0.0
 11
83.898511
 21
75.311115
 31
0.0
  0
LINE
  5
402
330
1F
100
AcDbEntity
  8
001
370
    50
100
AcDbLine
 10
83.898511
 20
64.311115
 30
0.0
 11
86.898511
 21
64.311115
 31
0.0
  0
ARC
  5
403
330
1F
100
AcDbEntity
  8
001
370
    50
100
AcDbCircle
 10
141.898511
 20
65.811115
 30
0.0
 40
2.0
100
AcDbArc
 50
270.0
 51
0.0
  0
ARC
  5
404
330
1F
100
AcDbEntity
  8
001
370
    50
100
AcDbCircle
 10
141.898511
 20
73.811115
 30
0.0
 40
2.0
100
AcDbArc
 50
0.0
 51
90.0
  0
LINE
  5
405
330
1F
100
AcDbEntity
  8
001
370
    50
100
AcDbLine
 10
143.898511
 20
69.811115
 30
0.0
 11
146.496587
 21
71.311115
 31
0.0
  0
LINE
  5
406
330
1F
100
AcDbEntity
  8
001
370
    50
100
AcDbLine
 10
143.898511
 20
69.811115
 30
0.0
 11
146.496587
 21
68.311115
 31
0.0
  0
LINE
  5
407
330
1F
100
AcDbEntity
  8
001
  6
CENTER
370
     9
100
AcDbLine
 10
57.795195
 20
69.811115
 30
0.0
 11
146.794818
 21
69.811115
 31
0.0
  0
CIRCLE
  5
408
330
1F
100
AcDbEntity
  8
001
370
    50
100
AcDbCircle
 10
64.902332
 20
54.811115
 30
0.0
 40
1.905
  0
LINE
  5
409
330
1F
100
AcDbEntity
  8
001
370
    50
100
AcDbLine
 10
64.502332
 20
60.814937
 30
0.0
 11
65.302332
 21
60.814937
 31
0.0
  0
ARC
  5
40A
330
1F
100
AcDbEntity
  8
001
370
    50
100
AcDbCircle
 10
64.502332
 20
60.014937
 30
0.0
 40
0.8
100
AcDbArc
 50
90.0
 51
135.0
  0
ARC
  5
40B
330
1F
100
AcDbEntity
  8
001
370
    50
100
AcDbCircle
 10
65.302332
 20
60.014937
 30
0.0
 40
0.8
100
AcDbArc
 50
45.0
 51
90.0
  0
LINE
  5
40C
330
1F
100
AcDbEntity
  8
001
370
    50
100
AcDbLine
 10
58.898511
 20
54.411115
 30
0.0
 11
58.898511
 21
55.211115
 31
0.0
  0
ARC
  5
40D
330
1F
100
AcDbEntity
  8
001
370
    50
100
AcDbCircle
 10
59.698511
 20
54.411115
 30
0.0
 40
0.8
100
AcDbArc
 50
180.0
 51
225.0
  0
ARC
  5
40E
330
1F
100
AcDbEntity
  8
001
370
    50
100
AcDbCircle
 10
59.698511
 20
55.211115
 30
0.0
 40
0.8
100
AcDbArc
 50
135.0
 51
180.0
  0
LINE
  5
40F
330
1F
100
AcDbEntity
  8
001
370
    50
100
AcDbLine
 10
70.906154
 20
55.211115
 30
0.0
 11
70.906154
 21
54.411115
 31
0.0
  0
ARC
  5
410
330
1F
100
AcDbEntity
  8
001
370
    50
100
AcDbCircle
 10
70.106154
 20
55.211115
 30
0.0
 40
0.8
100
AcDbArc
 50
0.0
 51
45.0
  0
ARC
  5
411
330
1F
100
AcDbEntity
  8
001
370
    50
100
AcDbCircle
 10
70.106154
 20
54.411115
 30
0.0
 40
0.8
100
AcDbArc
 50
315.0
 51
0.0
  0
LINE
  5
412
330
1F
100
AcDbEntity
  8
001
370
    50
100
AcDbLine
 10
59.132826
 20
55.776801
 30
0.0
 11
63.936647
 21
60.580622
 31
0.0
  0
LINE
  5
413
330
1F
100
AcDbEntity
  8
001
370
    50
100
AcDbLine
 10
65.861839
 20
49.03543
 30
0.0
 11
70.671839
 21
53.84543
 31
0.0
  0
LINE
  5
414
330
1F
100
AcDbEntity
  8
001
370
    50
100
AcDbLine
 10
59.398511
 20
62.583233
 30
0.0
 11
59.398511
 21
56.042486
 31
0.0
  0
LINE
  5
415
330
1F
100
AcDbEntity
  8
001
  6
DASHED
370
    30
100
AcDbLine
 10
59.398511
 20
78.639543
 30
0.0
 11
59.398511
 21
80.420235
 31
0.0
  0
ARC
  5
416
330
1F
100
AcDbEntity
  8
001
370
    50
100
AcDbCircle
 10
64.433567
 20
49.601115
 30
0.0
 40
0.8
100
AcDbArc
 50
224.550147
 51
270.0
  0
ARC
  5
417
330
1F
100
AcDbEntity
  8
001
370
    50
100
AcDbCircle
 10
65.296154
 20
49.601115
 30
0.0
 40
0.8
100
AcDbArc
 50
270.0
 51
315.0
  0
LINE
  5
418
330
1F
100
AcDbEntity
  8
001
  6
PHANTOM
370
     9
100
AcDbLine
 10
63.863458
 20
49.039889
 30
0.0
 11
64.098511
 21
48.801115
 31
0.0
  0
LINE
  5
419
330
1F
100
AcDbEntity
  8
001
370
    50
100
AcDbLine
 10
63.863458
 20
49.039889
 30
0.0
 11
59.128402
 21
53.849889
 31
0.0
  0
LINE
  5
41A
330
1F
100
AcDbEntity
  8
001
  6
PHANTOM
370
     9
100
AcDbLine
 10
64.433567
 20
48.801115
 30
0.0
 11
64.098511
 21
48.801115
 31
0.0
  0
LINE
  5
41B
330
1F
100
AcDbEntity
  8
001
370
    50
100
AcDbLine
 10
64.433567
 20
48.801115
 30
0.0
 11
65.296154
 21
48.801115
 31
0.0
  0
LINE
  5
41C
330
1F
100
AcDbEntity
  8
001
370
     9
100
AcDbLine
 10
54.660405
 20
54.811115
 30
0.0
 11
59.635592
 21
54.811115
 31
0.0
  0
LINE
  5
41D
330
1F
100
AcDbEntity
  8
001
  6
PHANTOM
370
     9
100
AcDbLine
 10
65.861839
 20
90.586801
 30
0.0
 11
70.671839
 21
85.776801
 31
0.0
  0
ARC
  5
41E
330
1F
100
AcDbEntity
  8
001
  6
PHANTOM
370
     9
100
AcDbCircle
 10
64.433567
 20
90.021115
 30
0.0
 40
0.8
100
AcDbArc
 50
90.0
 51
135.449853
  0
ARC
  5
41F
330
1F
100
AcDbEntity
  8
001
  6
PHANTOM
370
     9
100
AcDbCircle
 10
65.296154
 20
90.021115
 30
0.0
 40
0.8
100
AcDbArc
 50
45.0
 51
90.0
  0
LINE
  5
420
330
1F
100
AcDbEntity
  8
001
  6
PHANTOM
370
     9
100
AcDbLine
 10
63.863458
 20
90.582342
 30
0.0
 11
59.128402
 21
85.772342
 31
0.0
  0
LINE
  5
421
330
1F
100
AcDbEntity
  8
001
  6
PHANTOM
370
     9
100
AcDbLine
 10
64.433567
 20
90.821115
 30
0.0
 11
65.296154
 21
90.821115
 31
0.0
  0
LINE
  5
422
330
1F
100
AcDbEntity
  8
001
370
     9
100
AcDbLine
 10
54.660405
 20
84.811115
 30
0.0
 11
59.635592
 21
84.811115
 31
0.0
  0
LINE
  5
423
330
1F
100
AcDbEntity
  8
001
  6
PHANTOM
370
     9
100
AcDbLine
 10
58.898511
 20
85.211115
 30
0.0
 11
58.898511
 21
84.411115
 31
0.0
  0
ARC
  5
424
330
1F
100
AcDbEntity
  8
001
  6
PHANTOM
370
     9
100
AcDbCircle
 10
59.698511
 20
85.211115
 30
0.0
 40
0.8
100
AcDbArc
 50
135.0
 51
180.0
  0
ARC
  5
425
330
1F
100
AcDbEntity
  8
001
  6
PHANTOM
370
     9
100
AcDbCircle
 10
59.698511
 20
84.411115
 30
0.0
 40
0.8
100
AcDbArc
 50
180.0
 51
225.0
  0
ARC
  5
426
330
1F
100
AcDbEntity
  8
001
370
    50
100
AcDbCircle
 10
64.902332
 20
59.314937
 30
0.0
 40
2.5
100
AcDbArc
 50
354.133318
 51
185.866682
  0
LINE
  5
427
330
1F
100
AcDbEntity
  8
001
370
    50
100
AcDbLine
 10
71.236664
 20
55.211976
 30
0.0
 11
72.57223
 21
56.64974
 31
0.0
  0
LINE
  5
428
330
1F
100
AcDbEntity
  8
001
370
    50
100
AcDbLine
 10
70.900074
 20
54.312679
 30
0.0
 11
72.57223
 21
55.984835
 31
0.0
  0
LINE
  5
429
330
1F
100
AcDbEntity
  8
001
370
    50
100
AcDbLine
 10
71.647179
 20
55.104694
 30
0.0
 11
70.904311
 21
54.356848
 31
0.0
  0
POLYLINE
  5
42A
330
1F
100
AcDbEntity
  8
001
370
    50
100
AcDb2dPolyline
 66
     1
 10
0.0
 20
0.0
 30
0.0
  0
VERTEX
  5
42C
330
42A
100
AcDbEntity
  8
001
370
    50
100
AcDbVertex
100
AcDb2dVertex
 10
71.236664
 20
55.211976
 30
0.0
  0
VERTEX
  5
42D
330
42A
100
AcDbEntity
  8
001
370
    50
100
AcDbVertex
100
AcDb2dVertex
 10
71.357247
 20
55.159977
 30
0.0
  0
VERTEX
  5
42E
330
42A
100
AcDbEntity
  8
001
370
    50
100
AcDbVertex
100
AcDb2dVertex
 10
71.481109
 20
55.122153
 30
0.0
  0
VERTEX
  5
42F
330
42A
100
AcDbEntity
  8
001
370
    50
100
AcDbVertex
100
AcDb2dVertex
 10
71.563439
 20
55.110373
 30
0.0
  0
VERTEX
  5
430
330
42A
100
AcDbEntity
  8
001
370
    50
100
AcDbVertex
100
AcDb2dVertex
 10
71.647179
 20
55.104694
 30
0.0
  0
SEQEND
  5
42B
330
42A
100
AcDbEntity
  8
001
370
    50
  0
LINE
  5
431
330
1F
100
AcDbEntity
  8
001
370
    50
100
AcDbLine
 10
70.671839
 20
55.776801
 30
0.0
 11
71.236664
 21
55.211976
 31
0.0
  0
LINE
  5
432
330
1F
100
AcDbEntity
  8
001
370
    50
100
AcDbLine
 10
70.671839
 20
55.776801
 30
0.0
 11
65.868018
 21
60.580622
 31
0.0
  0
ENDSEC
  0
SECTION
  2
OBJECTS
  0
DICTIONARY
  5
C
330
0
100
AcDbDictionary
281
     1
  3
ACAD_GROUP
350
D
  3
ACAD_LAYOUT
350
1A
  3
ACAD_MLEADERSTYLE
350
436
  3
ACAD_MLINESTYLE
350
17
  3
ACAD_PLOTSETTINGS
350
19
  3
ACAD_PLOTSTYLENAME
350
E
  3
ACAD_SCALELIST
350
3B
  3
ACAD_TABLESTYLE
350
435
  3
ACAD_VISUALSTYLE
350
2A
  3
AcDbVariableDictionary
350
433
  0
DICTIONARY
  5
D
102
{ACAD_REACTORS
330
C
102
}
330
C
100
AcDbDictionary
281
     1
  0
DICTIONARY
  5
1A
102
{ACAD_REACTORS
330
C
102
}
330
C
100
AcDbDictionary
281
     1
  3
Layout1
350
1E
  3
Layout2
350
26
  3
Model
350
22
  0
DICTIONARY
  5
436
102
{ACAD_REACTORS
330
C
102
}
330
C
100
AcDbDictionary
281
     1
  0
DICTIONARY
  5
17
102
{ACAD_REACTORS
330
C
102
}
330
C
100
AcDbDictionary
281
     1
  3
Standard
350
18
  0
DICTIONARY
  5
19
102
{ACAD_REACTORS
330
C
102
}
330
C
100
AcDbDictionary
281
     1
  0
ACDBDICTIONARYWDFLT
  5
E
102
{ACAD_REACTORS
330
C
102
}
330
C
100
AcDbDictionary
281
     1
  3
Normal
350
F
100
AcDbDictionaryWithDefault
340
F
  0
DICTIONARY
  5
3B
102
{ACAD_REACTORS
330
C
102
}
330
C
100
AcDbDictionary
281
     1
  3
A0
350
3C
  3
A1
350
3D
  3
A2
350
3E
  3
A3
350
3F
  3
A4
350
40
  3
A5
350
41
  3
A6
350
42
  3
A7
350
43
  3
A8
350
44
  3
A9
350
45
  3
B0
350
46
  3
B1
350
47
  3
B2
350
48
  3
B3
350
49
  3
B4
350
4A
  3
B5
350
4B
  3
B6
350
4C
  3
B7
350
4D
  3
B8
350
4E
  3
B9
350
4F
  3
C0
350
50
  3
C1
350
51
  3
C2
350
52
  3
C3
350
53
  3
C4
350
54
  3
C5
350
55
  3
C6
350
56
  3
C7
350
57
  3
C8
350
58
  3
C9
350
59
  3
D0
350
5A
  3
D1
350
5B
  3
D2
350
5C
  0
DICTIONARY
  5
435
102
{ACAD_REACTORS
330
C
102
}
330
C
100
AcDbDictionary
281
     1
  0
DICTIONARY
  5
2A
102
{ACAD_REACTORS
330
C
102
}
330
C
100
AcDbDictionary
281
     1
  3
2dWireframe
350
2F
  3
3D Hidden
350
31
  3
3dWireframe
350
30
  3
Basic
350
32
  3
Brighten
350
36
  3
ColorChange
350
3A
  3
Conceptual
350
34
  3
Dim
350
35
  3
Facepattern
350
39
  3
Flat
350
2B
  3
FlatWithEdges
350
2C
  3
Gouraud
350
2D
  3
GouraudWithEdges
350
2E
  3
Linepattern
350
38
  3
Realistic
350
33
  3
Thicken
350
37
  0
DICTIONARY
  5
433
102
{ACAD_REACTORS
330
C
102
}
330
C
100
AcDbDictionary
281
     1
  3
CANNOSCALE
350
434
  3
PSOLHEIGHT
350
438
  3
PSOLWIDTH
350
437
  0
LAYOUT
  5
1E
102
{ACAD_REACTORS
330
1A
102
}
330
1A
100
AcDbPlotSettings
  1

  2
none_device
  4

  6

 40
0.0
 41
0.0
 42
0.0
 43
0.0
 44
0.0
 45
0.0
 46
0.0
 47
0.0
 48
0.0
 49
0.0
140
0.0
141
0.0
142
1.0
143
1.0
 70
   688
 72
     0
 73
     0
 74
     5
  7

 75
    16
147
1.0
148
0.0
149
0.0
100
AcDbLayout
  1
Layout1
 70
     1
 71
     1
 10
0.0
 20
0.0
 11
12.0
 21
9.0
 12
0.0
 22
0.0
 32
0.0
 14
1.000000E+20
 24
1.000000E+20
 34
0.0
 15
-1.000000E+20
 25
-1.000000E+20
 35
0.0
146
0.0
 13
0.0
 23
0.0
 33
0.0
 16
1.0
 26
0.0
 36
0.0
 17
0.0
 27
1.0
 37
0.0
 76
     0
330
1B
  0
LAYOUT
  5
26
102
{ACAD_REACTORS
330
1A
102
}
330
1A
100
AcDbPlotSettings
  1

  2
none_device
  4

  6

 40
0.0
 41
0.0
 42
0.0
 43
0.0
 44
0.0
 45
0.0
 46
0.0
 47
0.0
 48
0.0
 49
0.0
140
0.0
141
0.0
142
1.0
143
1.0
 70
   688
 72
     0
 73
     0
 74
     5
  7

 75
    16
147
1.0
148
0.0
149
0.0
100
AcDbLayout
  1
Layout2
 70
     1
 71
     2
 10
0.0
 20
0.0
 11
0.0
 21
0.0
 12
0.0
 22
0.0
 32
0.0
 14
0.0
 24
0.0
 34
0.0
 15
0.0
 25
0.0
 35
0.0
146
0.0
 13
0.0
 23
0.0
 33
0.0
 16
1.0
 26
0.0
 36
0.0
 17
0.0
 27
1.0
 37
0.0
 76
     0
330
23
  0
LAYOUT
  5
22
102
{ACAD_REACTORS
330
1A
102
}
330
1A
100
AcDbPlotSettings
  1

  2
none_device
  4

  6

 40
0.0
 41
0.0
 42
0.0
 43
0.0
 44
0.0
 45
0.0
 46
0.0
 47
0.0
 48
0.0
 49
0.0
140
0.0
141
0.0
142
1.0
143
1.0
 70
  1712
 72
     0
 73
     0
 74
     0
  7

 75
     0
147
1.0
148
0.0
149
0.0
100
AcDbLayout
  1
Model
 70
     1
 71
     0
 10
0.0
 20
0.0
 11
12.0
 21
9.0
 12
0.0
 22
0.0
 32
0.0
 14
22.868637
 24
6.059258
 34
0.0
 15
172.868637
 25
115.000237
 35
0.0
146
0.0
 13
0.0
 23
0.0
 33
0.0
 16
1.0
 26
0.0
 36
0.0
 17
0.0
 27
1.0
 37
0.0
 76
     0
330
1F
331
29
  0
MLINESTYLE
  5
18
102
{ACAD_REACTORS
330
17
102
}
330
17
100
AcDbMlineStyle
  2
Standard
 70
     0
  3

 62
   256
 51
90.0
 52
90.0
 71
     2
 49
0.5
 62
   256
  6
BYLAYER
 49
-0.5
 62
   256
  6
BYLAYER
  0
ACDBPLACEHOLDER
  5
F
102
{ACAD_REACTORS
330
E
102
}
330
E
  0
SCALE
  5
3C
102
{ACAD_REACTORS
330
3B
102
}
330
3B
100
AcDbScale
 70
     0
300
1:1
140
1.0
141
1.0
290
     1
  0
SCALE
  5
3D
102
{ACAD_REACTORS
330
3B
102
}
330
3B
100
AcDbScale
 70
     0
300
1:2
140
1.0
141
2.0
290
     0
  0
SCALE
  5
3E
102
{ACAD_REACTORS
330
3B
102
}
330
3B
100
AcDbScale
 70
     0
300
1:4
140
1.0
141
4.0
290
     0
  0
SCALE
  5
3F
102
{ACAD_REACTORS
330
3B
102
}
330
3B
100
AcDbScale
 70
     0
300
1:5
140
1.0
141
5.0
290
     0
  0
SCALE
  5
40
102
{ACAD_REACTORS
330
3B
102
}
330
3B
100
AcDbScale
 70
     0
300
1:8
140
1.0
141
8.0
290
     0
  0
SCALE
  5
41
102
{ACAD_REACTORS
330
3B
102
}
330
3B
100
AcDbScale
 70
     0
300
1:10
140
1.0
141
10.0
290
     0
  0
SCALE
  5
42
102
{ACAD_REACTORS
330
3B
102
}
330
3B
100
AcDbScale
 70
     0
300
1:16
140
1.0
141
16.0
290
     0
  0
SCALE
  5
43
102
{ACAD_REACTORS
330
3B
102
}
330
3B
100
AcDbScale
 70
     0
300
1:20
140
1.0
141
20.0
290
     0
  0
SCALE
  5
44
102
{ACAD_REACTORS
330
3B
102
}
330
3B
100
AcDbScale
 70
     0
300
1:30
140
1.0
141
30.0
290
     0
  0
SCALE
  5
45
102
{ACAD_REACTORS
330
3B
102
}
330
3B
100
AcDbScale
 70
     0
300
1:40
140
1.0
141
40.0
290
     0
  0
SCALE
  5
46
102
{ACAD_REACTORS
330
3B
102
}
330
3B
100
AcDbScale
 70
     0
300
1:50
140
1.0
141
50.0
290
     0
  0
SCALE
  5
47
102
{ACAD_REACTORS
330
3B
102
}
330
3B
100
AcDbScale
 70
     0
300
1:100
140
1.0
141
100.0
290
     0
  0
SCALE
  5
48
102
{ACAD_REACTORS
330
3B
102
}
330
3B
100
AcDbScale
 70
     0
300
2:1
140
2.0
141
1.0
290
     0
  0
SCALE
  5
49
102
{ACAD_REACTORS
330
3B
102
}
330
3B
100
AcDbScale
 70
     0
300
4:1
140
4.0
141
1.0
290
     0
  0
SCALE
  5
4A
102
{ACAD_REACTORS
330
3B
102
}
330
3B
100
AcDbScale
 70
     0
300
8:1
140
8.0
141
1.0
290
     0
  0
SCALE
  5
4B
102
{ACAD_REACTORS
330
3B
102
}
330
3B
100
AcDbScale
 70
     0
300
10:1
140
10.0
141
1.0
290
     0
  0
SCALE
  5
4C
102
{ACAD_REACTORS
330
3B
102
}
330
3B
100
AcDbScale
 70
     0
300
100:1
140
100.0
141
1.0
290
     0
  0
SCALE
  5
4D
102
{ACAD_REACTORS
330
3B
102
}
330
3B
100
AcDbScale
 70
     0
300
1/128" = 1'-0"
140
0.007812
141
12.0
290
     0
  0
SCALE
  5
4E
102
{ACAD_REACTORS
330
3B
102
}
330
3B
100
AcDbScale
 70
     0
300
1/64" = 1'-0"
140
0.015625
141
12.0
290
     0
  0
SCALE
  5
4F
102
{ACAD_REACTORS
330
3B
102
}
330
3B
100
AcDbScale
 70
     0
300
1/32" = 1'-0"
140
0.03125
141
12.0
290
     0
  0
SCALE
  5
50
102
{ACAD_REACTORS
330
3B
102
}
330
3B
100
AcDbScale
 70
     0
300
1/16" = 1'-0"
140
0.0625
141
12.0
290
     0
  0
SCALE
  5
51
102
{ACAD_REACTORS
330
3B
102
}
330
3B
100
AcDbScale
 70
     0
300
3/32" = 1'-0"
140
0.09375
141
12.0
290
     0
  0
SCALE
  5
52
102
{ACAD_REACTORS
330
3B
102
}
330
3B
100
AcDbScale
 70
     0
300
1/8" = 1'-0"
140
0.125
141
12.0
290
     0
  0
SCALE
  5
53
102
{ACAD_REACTORS
330
3B
102
}
330
3B
100
AcDbScale
 70
     0
300
3/16" = 1'-0"
140
0.1875
141
12.0
290
     0
  0
SCALE
  5
54
102
{ACAD_REACTORS
330
3B
102
}
330
3B
100
AcDbScale
 70
     0
300
1/4" = 1'-0"
140
0.25
141
12.0
290
     0
  0
SCALE
  5
55
102
{ACAD_REACTORS
330
3B
102
}
330
3B
100
AcDbScale
 70
     0
300
3/8" = 1'-0"
140
0.375
141
12.0
290
     0
  0
SCALE
  5
56
102
{ACAD_REACTORS
330
3B
102
}
330
3B
100
AcDbScale
 70
     0
300
1/2" = 1'-0"
140
0.5
141
12.0
290
     0
  0
SCALE
  5
57
102
{ACAD_REACTORS
330
3B
102
}
330
3B
100
AcDbScale
 70
     0
300
3/4" = 1'-0"
140
0.75
141
12.0
290
     0
  0
SCALE
  5
58
102
{ACAD_REACTORS
330
3B
102
}
330
3B
100
AcDbScale
 70
     0
300
1" = 1'-0"
140
1.0
141
12.0
290
     0
  0
SCALE
  5
59
102
{ACAD_REACTORS
330
3B
102
}
330
3B
100
AcDbScale
 70
     0
300
1-1/2" = 1'-0"
140
1.5
141
12.0
290
     0
  0
SCALE
  5
5A
102
{ACAD_REACTORS
330
3B
102
}
330
3B
100
AcDbScale
 70
     0
300
3" = 1'-0"
140
3.0
141
12.0
290
     0
  0
SCALE
  5
5B
102
{ACAD_REACTORS
330
3B
102
}
330
3B
100
AcDbScale
 70
     0
300
6" = 1'-0"
140
6.0
141
12.0
290
     0
  0
SCALE
  5
5C
102
{ACAD_REACTORS
330
3B
102
}
330
3B
100
AcDbScale
 70
     0
300
1'-0" = 1'-0"
140
12.0
141
12.0
290
     0
  0
VISUALSTYLE
  5
2F
102
{ACAD_REACTORS
330
2A
102
}
330
2A
100
AcDbVisualStyle
  2
2dWireframe
 70
     4
 71
     0
 72
     2
 73
     0
 90
        0
 40
-0.6
 41
-30.0
 62
     5
 63
     7
 74
     1
 91
        4
 64
     7
 65
   257
 75
     1
175
     1
 42
1.0
 92
        0
 66
   257
 43
1.0
 76
     1
 77
     6
 78
     2
 67
     7
 79
     5
170
     0
171
     0
290
     0
174
     0
 93
        1
 44
0.0
173
     0
291
     0
 45
0.0
1001
ACAD
1000
AcDbSavedByObjectVersion
1070
     0
  0
VISUALSTYLE
  5
31
102
{ACAD_REACTORS
330
2A
102
}
330
2A
100
AcDbVisualStyle
  2
3D Hidden
 70
     6
 71
     1
 72
     2
 73
     2
 90
        0
 40
-0.6
 41
-30.0
 62
     5
 63
     7
 74
     2
 91
        2
 64
     7
 65
   257
 75
     2
175
     1
 42
40.0
 92
        0
 66
   257
 43
1.0
 76
     1
 77
     6
 78
     2
 67
     7
 79
     3
170
     0
171
     0
290
     0
174
     0
 93
        1
 44
0.0
173
     0
291
     0
 45
0.0
1001
ACAD
1000
AcDbSavedByObjectVersion
1070
     0
  0
VISUALSTYLE
  5
30
102
{ACAD_REACTORS
330
2A
102
}
330
2A
100
AcDbVisualStyle
  2
3dWireframe
 70
     5
 71
     0
 72
     2
 73
     0
 90
        0
 40
-0.6
 41
-30.0
 62
     5
 63
     7
 74
     1
 91
        4
 64
     7
 65
   257
 75
     1
175
     1
 42
1.0
 92
        0
 66
   257
 43
1.0
 76
     1
 77
     6
 78
     2
 67
     7
 79
     5
170
     0
171
     0
290
     0
174
     0
 93
        1
 44
0.0
173
     0
291
     0
 45
0.0
1001
ACAD
1000
AcDbSavedByObjectVersion
1070
     0
  0
VISUALSTYLE
  5
32
102
{ACAD_REACTORS
330
2A
102
}
330
2A
100
AcDbVisualStyle
  2
Basic
 70
     7
 71
     1
 72
     0
 73
     1
 90
        0
 40
-0.6
 41
-30.0
 62
     5
 63
     7
 74
     0
 91
        4
 64
     7
 65
   257
 75
     1
175
     1
 42
1.0
 92
        8
 66
     7
 43
1.0
 76
     1
 77
     6
 78
     2
 67
     7
 79
     5
170
     0
171
     0
290
     0
174
     0
 93
        1
 44
0.0
173
     0
291
     1
 45
0.0
1001
ACAD
1000
AcDbSavedByObjectVersion
1070
     0
  0
VISUALSTYLE
  5
36
102
{ACAD_REACTORS
330
2A
102
}
330
2A
100
AcDbVisualStyle
  2
Brighten
 70
    12
 71
     2
 72
     2
 73
     0
 90
        0
 40
-0.6
 41
-30.0
 62
     5
 63
     7
 74
     1
 91
        4
 64
     7
 65
   257
 75
     1
175
     1
 42
1.0
 92
        8
 66
     7
 43
1.0
 76
     1
 77
     6
 78
     2
 67
     7
 79
     5
170
     0
171
     0
290
     0
174
     0
 93
        1
 44
50.0
173
     0
291
     1
 45
0.0
1001
ACAD
1000
AcDbSavedByObjectVersion
1070
     0
  0
VISUALSTYLE
  5
3A
102
{ACAD_REACTORS
330
2A
102
}
330
2A
100
AcDbVisualStyle
  2
ColorChange
 70
    16
 71
     2
 72
     2
 73
     3
 90
        0
 40
-0.6
 41
-30.0
 62
     5
 63
     8
 74
     1
 91
        4
 64
     7
 65
   257
 75
     1
175
     1
 42
1.0
 92
        8
 66
     8
 43
1.0
 76
     1
 77
     6
 78
     2
 67
     7
 79
     5
170
     0
171
     0
290
     0
174
     0
 93
        1
 44
0.0
173
     0
291
     1
 45
0.0
1001
ACAD
1000
AcDbSavedByObjectVersion
1070
     0
  0
VISUALSTYLE
  5
34
102
{ACAD_REACTORS
330
2A
102
}
330
2A
100
AcDbVisualStyle
  2
Conceptual
 70
     9
 71
     3
 72
     2
 73
     0
 90
        0
 40
-0.6
 41
-30.0
 62
     5
 63
     7
 74
     2
 91
        2
 64
     7
 65
   257
 75
     1
175
     1
 42
40.0
 92
        8
 66
     7
 43
1.0
 76
     1
 77
     6
 78
     2
 67
     7
 79
     3
170
     0
171
     0
290
     0
174
     0
 93
        1
 44
0.0
173
     0
291
     0
 45
0.0
1001
ACAD
1000
AcDbSavedByObjectVersion
1070
     0
  0
VISUALSTYLE
  5
35
102
{ACAD_REACTORS
330
2A
102
}
330
2A
100
AcDbVisualStyle
  2
Dim
 70
    11
 71
     2
 72
     2
 73
     0
 90
        0
 40
-0.6
 41
-30.0
 62
     5
 63
     7
 74
     1
 91
        4
 64
     7
 65
   257
 75
     1
175
     1
 42
1.0
 92
        8
 66
     7
 43
1.0
 76
     1
 77
     6
 78
     2
 67
     7
 79
     5
170
     0
171
     0
290
     0
174
     0
 93
        1
 44
-50.0
173
     0
291
     1
 45
0.0
1001
ACAD
1000
AcDbSavedByObjectVersion
1070
     0
  0
VISUALSTYLE
  5
39
102
{ACAD_REACTORS
330
2A
102
}
330
2A
100
AcDbVisualStyle
  2
Facepattern
 70
    15
 71
     2
 72
     2
 73
     0
 90
        0
 40
-0.6
 41
-30.0
 62
     5
 63
     7
 74
     1
 91
        4
 64
     7
 65
   257
 75
     1
175
     1
 42
1.0
 92
        8
 66
     7
 43
1.0
 76
     1
 77
     6
 78
     2
 67
     7
 79
     5
170
     0
171
     0
290
     0
174
     0
 93
        1
 44
0.0
173
     0
291
     1
 45
0.0
1001
ACAD
1000
AcDbSavedByObjectVersion
1070
     0
  0
VISUALSTYLE
  5
2B
102
{ACAD_REACTORS
330
2A
102
}
330
2A
100
AcDbVisualStyle
  2
Flat
 70
     0
 71
     2
 72
     1
 73
     1
 90
        2
 40
-0.6
 41
30.0
 62
     5
 63
     7
 74
     0
 91
        4
 64
     7
 65
   257
 75
     1
175
     1
 42
1.0
 92
        8
 66
     7
 43
1.0
 76
     1
 77
     6
 78
     2
 67
     7
 79
     5
170
     0
171
     0
290
     0
174
     0
 93
       13
 44
0.0
173
     0
291
     1
 45
0.0
1001
ACAD
1000
AcDbSavedByObjectVersion
1070
     0
  0
VISUALSTYLE
  5
2C
102
{ACAD_REACTORS
330
2A
102
}
330
2A
100
AcDbVisualStyle
  2
FlatWithEdges
 70
     1
 71
     2
 72
     1
 73
     1
 90
        2
 40
-0.6
 41
30.0
 62
     5
 63
     7
 74
     1
 91
        4
 64
     7
 65
   257
 75
     1
175
     1
 42
1.0
 92
        0
 66
   257
 43
1.0
 76
     1
 77
     6
 78
     2
 67
     7
 79
     5
170
     0
171
     0
290
     0
174
     0
 93
       13
 44
0.0
173
     0
291
     1
 45
0.0
1001
ACAD
1000
AcDbSavedByObjectVersion
1070
     0
  0
VISUALSTYLE
  5
2D
102
{ACAD_REACTORS
330
2A
102
}
330
2A
100
AcDbVisualStyle
  2
Gouraud
 70
     2
 71
     2
 72
     2
 73
     1
 90
        2
 40
-0.6
 41
30.0
 62
     5
 63
     7
 74
     0
 91
        4
 64
     7
 65
   257
 75
     1
175
     1
 42
1.0
 92
        0
 66
     7
 43
1.0
 76
     1
 77
     6
 78
     2
 67
     7
 79
     5
170
     0
171
     0
290
     0
174
     0
 93
       13
 44
0.0
173
     0
291
     1
 45
0.0
1001
ACAD
1000
AcDbSavedByObjectVersion
1070
     0
  0
VISUALSTYLE
  5
2E
102
{ACAD_REACTORS
330
2A
102
}
330
2A
100
AcDbVisualStyle
  2
GouraudWithEdges
 70
     3
 71
     2
 72
     2
 73
     1
 90
        2
 40
-0.6
 41
30.0
 62
     5
 63
     7
 74
     1
 91
        4
 64
     7
 65
   257
 75
     1
175
     1
 42
1.0
 92
        0
 66
   257
 43
1.0
 76
     1
 77
     6
 78
     2
 67
     7
 79
     5
170
     0
171
     0
290
     0
174
     0
 93
       13
 44
0.0
173
     0
291
     1
 45
0.0
1001
ACAD
1000
AcDbSavedByObjectVersion
1070
     0
  0
VISUALSTYLE
  5
38
102
{ACAD_REACTORS
330
2A
102
}
330
2A
100
AcDbVisualStyle
  2
Linepattern
 70
    14
 71
     2
 72
     2
 73
     0
 90
        0
 40
-0.6
 41
-30.0
 62
     5
 63
     7
 74
     1
 91
        4
 64
     7
 65
   257
 75
     7
175
     7
 42
1.0
 92
        8
 66
     7
 43
1.0
 76
     1
 77
     6
 78
     2
 67
     7
 79
     5
170
     0
171
     0
290
     0
174
     0
 93
        1
 44
0.0
173
     0
291
     1
 45
0.0
1001
ACAD
1000
AcDbSavedByObjectVersion
1070
     0
  0
VISUALSTYLE
  5
33
102
{ACAD_REACTORS
330
2A
102
}
330
2A
100
AcDbVisualStyle
  2
Realistic
 70
     8
 71
     2
 72
     2
 73
     0
 90
        0
 40
-0.6
 41
-30.0
 62
     5
 63
     7
 74
     1
 91
        0
 64
     7
 65
   257
 75
     1
175
     1
 42
1.0
 92
        8
 66
     8
 43
1.0
 76
     1
 77
     6
 78
     2
 67
     7
 79
     5
170
     0
171
     0
290
     0
174
     0
 93
       13
 44
0.0
173
     0
291
     0
 45
0.0
1001
ACAD
1000
AcDbSavedByObjectVersion
1070
     0
  0
VISUALSTYLE
  5
37
102
{ACAD_REACTORS
330
2A
102
}
330
2A
100
AcDbVisualStyle
  2
Thicken
 70
    13
 71
     2
 72
     2
 73
     0
 90
        0
 40
-0.6
 41
-30.0
 62
     5
 63
     7
 74
     1
 91
        4
 64
     7
 65
   257
 75
     1
175
     1
 42
1.0
 92
       12
 66
     7
 43
1.0
 76
     1
 77
     6
 78
     2
 67
     7
 79
     5
170
     0
171
     0
290
     0
174
     0
 93
        1
 44
0.0
173
     0
291
     1
 45
0.0
1001
ACAD
1000
AcDbSavedByObjectVersion
1070
     0
  0
DICTIONARYVAR
  5
434
102
{ACAD_REACTORS
330
433
102
}
330
433
100
DictionaryVariables
280
     0
  1
1:1
  0
DICTIONARYVAR
  5
438
102
{ACAD_REACTORS
330
433
102
}
330
433
100
DictionaryVariables
280
     0
  1
80.000000
  0
DICTIONARYVAR
  5
437
102
{ACAD_REACTORS
330
433
102
}
330
433
100
DictionaryVariables
280
     0
  1
5.000000
  0
ENDSEC
  0
EOF
