  0
SECTION
  2
HEADER
  9
$ACADVER
  1
AC1015
  9
$ACADMAINTVER
 70
     6
  9
$DWGCODEPAGE
  3
ANSI_932
  9
$INSBASE
 10
0.0
 20
0.0
 30
0.0
  9
$EXTMIN
 10
13.053482
 20
20.271027
 30
0.0
  9
$EXTMAX
 10
201.514236
 20
207.589294
 30
0.0
  9
$LIMMIN
 10
0.0
 20
0.0
  9
$LIMMAX
 10
12.0
 20
9.0
  9
$ORTHOMODE
 70
     0
  9
$REGENMODE
 70
     1
  9
$FILLMODE
 70
     1
  9
$QTEXTMODE
 70
     0
  9
$MIRRTEXT
 70
     1
  9
$LTSCALE
 40
2.657171
  9
$ATTMODE
 70
     1
  9
$TEXTSIZE
 40
3.2
  9
$TRACEWID
 40
1.0
  9
$TEXTSTYLE
  7
Standard
  9
$CLAYER
  8
0
  9
$CELTYPE
  6
ByLayer
  9
$CECOLOR
 62
   256
  9
$CELTSCALE
 40
1.0
  9
$DISPSILH
 70
     0
  9
$DIMSCALE
 40
1.0
  9
$DIMASZ
 40
2.5
  9
$DIMEXO
 40
0.625
  9
$DIMDLI
 40
3.75
  9
$DIMRND
 40
0.0
  9
$DIMDLE
 40
0.0
  9
$DIMEXE
 40
1.25
  9
$DIMTP
 40
0.0
  9
$DIMTM
 40
0.0
  9
$DIMTXT
 40
2.5
  9
$DIMCEN
 40
0.09
  9
$DIMTSZ
 40
0.0
  9
$DIMTOL
 70
     0
  9
$DIMLIM
 70
     0
  9
$DIMTIH
 70
     0
  9
$DIMTOH
 70
     0
  9
$DIMSE1
 70
     0
  9
$DIMSE2
 70
     0
  9
$DIMTAD
 70
     0
  9
$DIMZIN
 70
     8
  9
$DIMBLK
  1

  9
$DIMASO
 70
     1
  9
$DIMSHO
 70
     0
  9
$DIMPOST
  1

  9
$DIMAPOST
  1

  9
$DIMALT
 70
     0
  9
$DIMALTD
 70
     3
  9
$DIMALTF
 40
0.03937
  9
$DIMLFAC
 40
1.0
  9
$DIMTOFL
 70
     1
  9
$DIMTVP
 40
0.0
  9
$DIMTIX
 70
     0
  9
$DIMSOXD
 70
     0
  9
$DIMSAH
 70
     0
  9
$DIMBLK1
  1

  9
$DIMBLK2
  1

  9
$DIMSTYLE
  2
ISO-25
  9
$DIMCLRD
 70
     0
  9
$DIMCLRE
 70
     0
  9
$DIMCLRT
 70
     0
  9
$DIMTFAC
 40
1.0
  9
$DIMGAP
 40
0.625
  9
$DIMJUST
 70
     0
  9
$DIMSD1
 70
     0
  9
$DIMSD2
 70
     0
  9
$DIMTOLJ
 70
     0
  9
$DIMTZIN
 70
     8
  9
$DIMALTZ
 70
     0
  9
$DIMALTTZ
 70
     0
  9
$DIMUPT
 70
     0
  9
$DIMDEC
 70
     2
  9
$DIMTDEC
 70
     2
  9
$DIMALTU
 70
     2
  9
$DIMALTTD
 70
     3
  9
$DIMTXSTY
  7
Standard
  9
$DIMAUNIT
 70
     0
  9
$DIMADEC
 70
     0
  9
$DIMALTRND
 40
0.0
  9
$DIMAZIN
 70
     0
  9
$DIMDSEP
 70
    44
  9
$DIMATFIT
 70
     3
  9
$DIMFRAC
 70
     0
  9
$DIMLDRBLK
  1

  9
$DIMLUNIT
 70
     2
  9
$DIMLWD
 70
    -2
  9
$DIMLWE
 70
    -2
  9
$DIMTMOVE
 70
     0
  9
$LUNITS
 70
     2
  9
$LUPREC
 70
     4
  9
$SKETCHINC
 40
1.0
  9
$FILLETRAD
 40
0.0
  9
$AUNITS
 70
     0
  9
$AUPREC
 70
     0
  9
$MENU
  1
.
  9
$ELEVATION
 40
0.0
  9
$PELEVATION
 40
0.0
  9
$THICKNESS
 40
0.0
  9
$LIMCHECK
 70
     0
  9
$CHAMFERA
 40
10.0
  9
$CHAMFERB
 40
10.0
  9
$CHAMFERC
 40
20.0
  9
$CHAMFERD
 40
0.0
  9
$SKPOLY
 70
     0
  9
$TDCREATE
 40
2455356.587001771
  9
$TDUCREATE
 40
2455356.212001771
  9
$TDUPDATE
 40
2455356.587001782
  9
$TDUUPDATE
 40
2455356.212001782
  9
$TDINDWG
 40
0.0000000116
  9
$TDUSRTIMER
 40
0.0000000116
  9
$USRTIMER
 70
     1
  9
$ANGBASE
 50
0.0
  9
$ANGDIR
 70
     0
  9
$PDMODE
 70
     0
  9
$PDSIZE
 40
0.0
  9
$PLINEWID
 40
0.0
  9
$SPLFRAME
 70
     0
  9
$SPLINETYPE
 70
     6
  9
$SPLINESEGS
 70
     8
  9
$HANDSEED
  5
2F4
  9
$SURFTAB1
 70
     6
  9
$SURFTAB2
 70
     6
  9
$SURFTYPE
 70
     6
  9
$SURFU
 70
     6
  9
$SURFV
 70
     6
  9
$UCSBASE
  2

  9
$UCSNAME
  2

  9
$UCSORG
 10
0.0
 20
0.0
 30
0.0
  9
$UCSXDIR
 10
1.0
 20
0.0
 30
0.0
  9
$UCSYDIR
 10
0.0
 20
1.0
 30
0.0
  9
$UCSORTHOREF
  2

  9
$UCSORTHOVIEW
 70
     0
  9
$UCSORGTOP
 10
0.0
 20
0.0
 30
0.0
  9
$UCSORGBOTTOM
 10
0.0
 20
0.0
 30
0.0
  9
$UCSORGLEFT
 10
0.0
 20
0.0
 30
0.0
  9
$UCSORGRIGHT
 10
0.0
 20
0.0
 30
0.0
  9
$UCSORGFRONT
 10
0.0
 20
0.0
 30
0.0
  9
$UCSORGBACK
 10
0.0
 20
0.0
 30
0.0
  9
$PUCSBASE
  2

  9
$PUCSNAME
  2

  9
$PUCSORG
 10
0.0
 20
0.0
 30
0.0
  9
$PUCSXDIR
 10
1.0
 20
0.0
 30
0.0
  9
$PUCSYDIR
 10
0.0
 20
1.0
 30
0.0
  9
$PUCSORTHOREF
  2

  9
$PUCSORTHOVIEW
 70
     0
  9
$PUCSORGTOP
 10
0.0
 20
0.0
 30
0.0
  9
$PUCSORGBOTTOM
 10
0.0
 20
0.0
 30
0.0
  9
$PUCSORGLEFT
 10
0.0
 20
0.0
 30
0.0
  9
$PUCSORGRIGHT
 10
0.0
 20
0.0
 30
0.0
  9
$PUCSORGFRONT
 10
0.0
 20
0.0
 30
0.0
  9
$PUCSORGBACK
 10
0.0
 20
0.0
 30
0.0
  9
$USERI1
 70
     0
  9
$USERI2
 70
     0
  9
$USERI3
 70
     0
  9
$USERI4
 70
     0
  9
$USERI5
 70
     0
  9
$USERR1
 40
0.0
  9
$USERR2
 40
0.0
  9
$USERR3
 40
0.0
  9
$USERR4
 40
0.0
  9
$USERR5
 40
0.0
  9
$WORLDVIEW
 70
     1
  9
$SHADEDGE
 70
     3
  9
$SHADEDIF
 70
    70
  9
$TILEMODE
 70
     1
  9
$MAXACTVP
 70
    64
  9
$PINSBASE
 10
0.0
 20
0.0
 30
0.0
  9
$PLIMCHECK
 70
     0
  9
$PEXTMIN
 10
1.000000E+20
 20
1.000000E+20
 30
0.0
  9
$PEXTMAX
 10
-1.000000E+20
 20
-1.000000E+20
 30
0.0
  9
$PLIMMIN
 10
0.0
 20
0.0
  9
$PLIMMAX
 10
12.0
 20
9.0
  9
$UNITMODE
 70
     0
  9
$VISRETAIN
 70
     1
  9
$PLINEGEN
 70
     0
  9
$PSLTSCALE
 70
     1
  9
$TREEDEPTH
 70
  3020
  9
$CMLSTYLE
  2
Standard
  9
$CMLJUST
 70
     0
  9
$CMLSCALE
 40
20.0
  9
$PROXYGRAPHICS
 70
     1
  9
$MEASUREMENT
 70
     1
  9
$CELWEIGHT
370
    -1
  9
$ENDCAPS
280
     0
  9
$JOINSTYLE
280
     0
  9
$LWDISPLAY
290
     0
  9
$INSUNITS
 70
     4
  9
$HYPERLINKBASE
  1

  9
$STYLESHEET
  1

  9
$XEDIT
290
     1
  9
$CEPSNTYPE
380
     0
  9
$PSTYLEMODE
290
     1
  9
$FINGERPRINTGUID
  2
{542596A6-17A0-4AE5-9006-DBEF1775F3FD}
  9
$VERSIONGUID
  2
{FAEB1C32-E019-11D5-929B-00C0DF256EC4}
  9
$EXTNAMES
290
     1
  9
$PSVPSCALE
 40
0.0
  9
$OLESTARTUP
290
     0
  0
ENDSEC
  0
SECTION
  2
CLASSES
  0
CLASS
  1
ACDBDICTIONARYWDFLT
  2
AcDbDictionaryWithDefault
  3
ObjectDBX Classes
 90
        0
280
     0
281
     0
  0
CLASS
  1
VISUALSTYLE
  2
AcDbVisualStyle
  3
ObjectDBX Classes
 90
     4095
280
     0
281
     0
  0
CLASS
  1
SCALE
  2
AcDbScale
  3
ObjectDBX Classes
 90
     1153
280
     0
281
     0
  0
CLASS
  1
DICTIONARYVAR
  2
AcDbDictionaryVar
  3
ObjectDBX Classes
 90
        0
280
     0
281
     0
  0
CLASS
  1
ACDBPLACEHOLDER
  2
AcDbPlaceHolder
  3
ObjectDBX Classes
 90
        0
280
     0
281
     0
  0
CLASS
  1
LAYOUT
  2
AcDbLayout
  3
ObjectDBX Classes
 90
        0
280
     0
281
     0
  0
ENDSEC
  0
SECTION
  2
TABLES
  0
TABLE
  2
VPORT
  5
8
330
0
100
AcDbSymbolTable
 70
     1
  0
VPORT
  5
29
330
8
100
AcDbSymbolTableRecord
100
AcDbViewportTableRecord
  2
*Active
 70
     0
 10
0.0
 20
0.0
 11
1.0
 21
1.0
 12
107.283859
 22
113.930161
 13
0.0
 23
0.0
 14
1.0
 24
1.0
 15
0.0
 25
0.0
 16
0.0
 26
0.0
 36
1.0
 17
0.0
 27
0.0
 37
0.0
 40
189.191451
 41
1.691288
 42
50.0
 43
0.0
 44
0.0
 50
0.0
 51
0.0
 71
     0
 72
   100
 73
     1
 74
     3
 75
     0
 76
     0
 77
     0
 78
     0
281
     0
 65
     1
110
0.0
120
0.0
130
0.0
111
1.0
121
0.0
131
0.0
112
0.0
122
1.0
132
0.0
 79
     0
146
0.0
  0
ENDTAB
  0
TABLE
  2
LTYPE
  5
5
330
0
100
AcDbSymbolTable
 70
     5
  0
LTYPE
  5
14
330
5
100
AcDbSymbolTableRecord
100
AcDbLinetypeTableRecord
  2
ByBlock
 70
     0
  3

 72
    65
 73
     0
 40
0.0
  0
LTYPE
  5
15
330
5
100
AcDbSymbolTableRecord
100
AcDbLinetypeTableRecord
  2
ByLayer
 70
     0
  3

 72
    65
 73
     0
 40
0.0
  0
LTYPE
  5
16
330
5
100
AcDbSymbolTableRecord
100
AcDbLinetypeTableRecord
  2
Continuous
 70
     0
  3
Solid line
 72
    65
 73
     0
 40
0.0
  0
LTYPE
  5
5D
330
5
100
AcDbSymbolTableRecord
100
AcDbLinetypeTableRecord
  2
DASHED
 70
     0
  3
DASHED
 72
    83
 73
     2
 40
0.75
 49
0.5
 74
     0
 49
-0.25
 74
     0
  0
LTYPE
  5
5E
330
5
100
AcDbSymbolTableRecord
100
AcDbLinetypeTableRecord
  2
HIDDEN
 70
     0
  3
HIDDEN
 72
    83
 73
     2
 40
0.375
 49
0.25
 74
     0
 49
-0.125
 74
     0
  0
LTYPE
  5
5F
330
5
100
AcDbSymbolTableRecord
100
AcDbLinetypeTableRecord
  2
CENTER
 70
     0
  3
CENTER
 72
    83
 73
     4
 40
2.0
 49
1.25
 74
     0
 49
-0.25
 74
     0
 49
0.25
 74
     0
 49
-0.25
 74
     0
  0
LTYPE
  5
60
330
5
100
AcDbSymbolTableRecord
100
AcDbLinetypeTableRecord
  2
PHANTOM
 70
     0
  3
PHANTOM
 72
    83
 73
     6
 40
2.5
 49
1.25
 74
     0
 49
-0.25
 74
     0
 49
0.25
 74
     0
 49
-0.25
 74
     0
 49
0.25
 74
     0
 49
-0.25
 74
     0
  0
ENDTAB
  0
TABLE
  2
LAYER
  5
2
330
0
100
AcDbSymbolTable
 70
     2
  0
LAYER
  5
10
330
2
100
AcDbSymbolTableRecord
100
AcDbLayerTableRecord
  2
0
 70
     0
 62
     7
  6
Continuous
370
    -3
390
F
  0
LAYER
  5
61
330
2
100
AcDbSymbolTableRecord
100
AcDbLayerTableRecord
  2
001
 70
     0
 62
     7
  6
Continuous
370
    -3
390
F
  0
ENDTAB
  0
TABLE
  2
STYLE
  5
3
330
0
100
AcDbSymbolTable
 70
     2
  0
STYLE
  5
11
330
3
100
AcDbSymbolTableRecord
100
AcDbTextStyleTableRecord
  2
Standard
 70
     0
 40
0.0
 41
1.0
 50
0.0
 71
     0
 42
0.2
  3
TXT
  4
BIGFONT
  0
STYLE
  5
62
330
3
100
AcDbSymbolTableRecord
100
AcDbTextStyleTableRecord
  2
TATEGAKI
 70
     4
 40
1.0
 41
1.0
 50
0.0
 71
     0
 42
0.2
  3
TXT
  4
BIGFONT
  0
ENDTAB
  0
TABLE
  2
VIEW
  5
6
330
0
100
AcDbSymbolTable
 70
     0
  0
ENDTAB
  0
TABLE
  2
UCS
  5
7
330
0
100
AcDbSymbolTable
 70
     0
  0
ENDTAB
  0
TABLE
  2
APPID
  5
9
330
0
100
AcDbSymbolTable
 70
     1
  0
APPID
  5
12
330
9
100
AcDbSymbolTableRecord
100
AcDbRegAppTableRecord
  2
ACAD
 70
     0
  0
ENDTAB
  0
TABLE
  2
DIMSTYLE
  5
A
330
0
100
AcDbSymbolTable
 70
     2
100
AcDbDimStyleTable
  0
DIMSTYLE
105
27
330
A
100
AcDbSymbolTableRecord
100
AcDbDimStyleTableRecord
  2
ISO-25
 70
     0
 41
2.5
 42
0.625
 43
3.75
 44
1.25
 73
     0
 74
     0
 77
     1
 78
     8
140
2.5
141
2.5
143
0.03937
147
0.625
171
     3
172
     1
271
     2
272
     2
274
     3
278
    44
283
     0
284
     8
340
11
  0
DIMSTYLE
105
63
102
{ACAD_REACTORS
330
B4
330
B5
330
C2
330
C3
102
}
330
A
100
AcDbSymbolTableRecord
100
AcDbDimStyleTableRecord
  2
Standard
 70
     0
 41
1.5
 42
0.0
 44
2.75
 73
     0
 74
     0
 77
     1
 78
     8
 79
     2
140
4.0
146
0.8
147
1.0
172
     1
179
     1
271
     1
340
11
  0
ENDTAB
  0
TABLE
  2
BLOCK_RECORD
  5
1
330
0
100
AcDbSymbolTable
 70
     5
  0
BLOCK_RECORD
  5
1F
330
1
100
AcDbSymbolTableRecord
100
AcDbBlockTableRecord
  2
*Model_Space
340
22
  0
BLOCK_RECORD
  5
1B
330
1
100
AcDbSymbolTableRecord
100
AcDbBlockTableRecord
  2
*Paper_Space
340
1E
  0
BLOCK_RECORD
  5
23
330
1
100
AcDbSymbolTableRecord
100
AcDbBlockTableRecord
  2
*Paper_Space0
340
26
  0
BLOCK_RECORD
  5
64
330
1
100
AcDbSymbolTableRecord
100
AcDbBlockTableRecord
  2
*D1
340
0
  0
BLOCK_RECORD
  5
78
330
1
100
AcDbSymbolTableRecord
100
AcDbBlockTableRecord
  2
*D2
340
0
  0
BLOCK_RECORD
  5
8C
330
1
100
AcDbSymbolTableRecord
100
AcDbBlockTableRecord
  2
*D3
340
0
  0
BLOCK_RECORD
  5
A0
330
1
100
AcDbSymbolTableRecord
100
AcDbBlockTableRecord
  2
*D4
340
0
  0
ENDTAB
  0
ENDSEC
  0
SECTION
  2
BLOCKS
  0
BLOCK
  5
20
330
1F
100
AcDbEntity
  8
0
100
AcDbBlockBegin
  2
*Model_Space
 70
     0
 10
0.0
 20
0.0
 30
0.0
  3
*Model_Space
  1

  0
ENDBLK
  5
21
330
1F
100
AcDbEntity
  8
0
100
AcDbBlockEnd
  0
BLOCK
  5
1C
330
1B
100
AcDbEntity
 67
     1
  8
0
100
AcDbBlockBegin
  2
*Paper_Space
 70
     0
 10
0.0
 20
0.0
 30
0.0
  3
*Paper_Space
  1

  0
ENDBLK
  5
1D
330
1B
100
AcDbEntity
 67
     1
  8
0
100
AcDbBlockEnd
  0
BLOCK
  5
24
330
23
100
AcDbEntity
  8
0
100
AcDbBlockBegin
  2
*Paper_Space0
 70
     0
 10
0.0
 20
0.0
 30
0.0
  3
*Paper_Space0
  1

  0
ENDBLK
  5
25
330
23
100
AcDbEntity
  8
0
100
AcDbBlockEnd
  0
BLOCK
  5
65
330
64
100
AcDbEntity
  8
0
100
AcDbBlockBegin
  2
*D1
 70
     1
 10
0.0
 20
0.0
 30
0.0
  3
*D1
  1

  0
LINE
  5
67
330
64
100
AcDbEntity
  8
001
370
     9
100
AcDbLine
 10
90.213495
 20
82.332321
 30
0.0
 11
90.213495
 21
33.709474
 31
0.0
  0
LINE
  5
68
330
64
100
AcDbEntity
  8
001
370
     9
100
AcDbLine
 10
170.213495
 20
113.332321
 30
0.0
 11
170.213495
 21
33.709474
 31
0.0
  0
LINE
  5
69
330
64
100
AcDbEntity
  8
001
370
     9
100
AcDbLine
 10
90.213495
 20
36.459474
 30
0.0
 11
170.213495
 21
36.459474
 31
0.0
  0
POLYLINE
  5
6A
330
64
100
AcDbEntity
  8
001
370
     9
100
AcDb2dPolyline
 66
     1
 10
0.0
 20
0.0
 30
0.0
  0
VERTEX
  5
6C
330
6A
100
AcDbEntity
  8
001
370
     9
100
AcDbVertex
100
AcDb2dVertex
 10
91.713495
 20
36.057551
 30
0.0
  0
VERTEX
  5
6D
330
6A
100
AcDbEntity
  8
001
370
     9
100
AcDbVertex
100
AcDb2dVertex
 10
90.213495
 20
36.459474
 30
0.0
  0
VERTEX
  5
6E
330
6A
100
AcDbEntity
  8
001
370
     9
100
AcDbVertex
100
AcDb2dVertex
 10
91.713495
 20
36.861398
 30
0.0
  0
SEQEND
  5
6B
330
6A
100
AcDbEntity
  8
001
370
     9
  0
POLYLINE
  5
6F
330
64
100
AcDbEntity
  8
001
370
     9
100
AcDb2dPolyline
 66
     1
 10
0.0
 20
0.0
 30
0.0
  0
VERTEX
  5
71
330
6F
100
AcDbEntity
  8
001
370
     9
100
AcDbVertex
100
AcDb2dVertex
 10
168.713495
 20
36.861398
 30
0.0
  0
VERTEX
  5
72
330
6F
100
AcDbEntity
  8
001
370
     9
100
AcDbVertex
100
AcDb2dVertex
 10
170.213495
 20
36.459474
 30
0.0
  0
VERTEX
  5
73
330
6F
100
AcDbEntity
  8
001
370
     9
100
AcDbVertex
100
AcDb2dVertex
 10
168.713495
 20
36.057551
 30
0.0
  0
SEQEND
  5
70
330
6F
100
AcDbEntity
  8
001
370
     9
  0
TEXT
  5
74
330
64
100
AcDbEntity
  8
001
370
    30
100
AcDbText
 10
126.213495
 20
37.459474
 30
0.0
 40
4.0
  1
８０
 41
0.833333
100
AcDbText
  0
POINT
  5
75
330
64
100
AcDbEntity
  8
001
370
     9
100
AcDbPoint
 10
90.213495
 20
82.332321
 30
0.0
  0
POINT
  5
76
330
64
100
AcDbEntity
  8
001
370
     9
100
AcDbPoint
 10
170.213495
 20
113.332321
 30
0.0
  0
POINT
  5
77
330
64
100
AcDbEntity
  8
001
370
     9
100
AcDbPoint
 10
170.213495
 20
36.459474
 30
0.0
  0
ENDBLK
  5
66
330
64
100
AcDbEntity
  8
0
100
AcDbBlockEnd
  0
BLOCK
  5
79
330
78
100
AcDbEntity
  8
0
100
AcDbBlockBegin
  2
*D2
 70
     1
 10
0.0
 20
0.0
 30
0.0
  3
*D2
  1

  0
LINE
  5
7B
330
78
100
AcDbEntity
  8
001
370
     9
100
AcDbLine
 10
46.72194
 20
57.016657
 30
0.0
 11
46.72194
 21
33.709474
 31
0.0
  0
LINE
  5
7C
330
78
100
AcDbEntity
  8
001
370
     9
100
AcDbLine
 10
90.213495
 20
82.332321
 30
0.0
 11
90.213495
 21
33.709474
 31
0.0
  0
LINE
  5
7D
330
78
100
AcDbEntity
  8
001
370
     9
100
AcDbLine
 10
46.72194
 20
36.459474
 30
0.0
 11
90.213495
 21
36.459474
 31
0.0
  0
POLYLINE
  5
7E
330
78
100
AcDbEntity
  8
001
370
     9
100
AcDb2dPolyline
 66
     1
 10
0.0
 20
0.0
 30
0.0
  0
VERTEX
  5
80
330
7E
100
AcDbEntity
  8
001
370
     9
100
AcDbVertex
100
AcDb2dVertex
 10
48.22194
 20
36.057551
 30
0.0
  0
VERTEX
  5
81
330
7E
100
AcDbEntity
  8
001
370
     9
100
AcDbVertex
100
AcDb2dVertex
 10
46.72194
 20
36.459474
 30
0.0
  0
VERTEX
  5
82
330
7E
100
AcDbEntity
  8
001
370
     9
100
AcDbVertex
100
AcDb2dVertex
 10
48.22194
 20
36.861398
 30
0.0
  0
SEQEND
  5
7F
330
7E
100
AcDbEntity
  8
001
370
     9
  0
POLYLINE
  5
83
330
78
100
AcDbEntity
  8
001
370
     9
100
AcDb2dPolyline
 66
     1
 10
0.0
 20
0.0
 30
0.0
  0
VERTEX
  5
85
330
83
100
AcDbEntity
  8
001
370
     9
100
AcDbVertex
100
AcDb2dVertex
 10
88.713495
 20
36.861398
 30
0.0
  0
VERTEX
  5
86
330
83
100
AcDbEntity
  8
001
370
     9
100
AcDbVertex
100
AcDb2dVertex
 10
90.213495
 20
36.459474
 30
0.0
  0
VERTEX
  5
87
330
83
100
AcDbEntity
  8
001
370
     9
100
AcDbVertex
100
AcDb2dVertex
 10
88.713495
 20
36.057551
 30
0.0
  0
SEQEND
  5
84
330
83
100
AcDbEntity
  8
001
370
     9
  0
TEXT
  5
88
330
78
100
AcDbEntity
  8
001
370
    30
100
AcDbText
 10
60.467717
 20
37.459474
 30
0.0
 40
4.0
  1
４３．５
 41
0.833333
100
AcDbText
  0
POINT
  5
89
330
78
100
AcDbEntity
  8
001
370
     9
100
AcDbPoint
 10
46.72194
 20
57.016657
 30
0.0
  0
POINT
  5
8A
330
78
100
AcDbEntity
  8
001
370
     9
100
AcDbPoint
 10
90.213495
 20
82.332321
 30
0.0
  0
POINT
  5
8B
330
78
100
AcDbEntity
  8
001
370
     9
100
AcDbPoint
 10
90.213495
 20
36.459474
 30
0.0
  0
ENDBLK
  5
7A
330
78
100
AcDbEntity
  8
0
100
AcDbBlockEnd
  0
BLOCK
  5
8D
330
8C
100
AcDbEntity
  8
0
100
AcDbBlockBegin
  2
*D3
 70
     1
 10
0.0
 20
0.0
 30
0.0
  3
*D3
  1

  0
LINE
  5
8F
330
8C
100
AcDbEntity
  8
001
370
     9
100
AcDbLine
 10
162.213495
 20
142.332321
 30
0.0
 11
201.514239
 21
142.332321
 31
0.0
  0
LINE
  5
90
330
8C
100
AcDbEntity
  8
001
370
     9
100
AcDbLine
 10
162.213495
 20
110.332321
 30
0.0
 11
201.514239
 21
110.332321
 31
0.0
  0
LINE
  5
91
330
8C
100
AcDbEntity
  8
001
370
     9
100
AcDbLine
 10
198.764239
 20
142.332321
 30
0.0
 11
198.764239
 21
110.332321
 31
0.0
  0
POLYLINE
  5
92
330
8C
100
AcDbEntity
  8
001
370
     9
100
AcDb2dPolyline
 66
     1
 10
0.0
 20
0.0
 30
0.0
  0
VERTEX
  5
94
330
92
100
AcDbEntity
  8
001
370
     9
100
AcDbVertex
100
AcDb2dVertex
 10
198.362315
 20
140.832321
 30
0.0
  0
VERTEX
  5
95
330
92
100
AcDbEntity
  8
001
370
     9
100
AcDbVertex
100
AcDb2dVertex
 10
198.764239
 20
142.332321
 30
0.0
  0
VERTEX
  5
96
330
92
100
AcDbEntity
  8
001
370
     9
100
AcDbVertex
100
AcDb2dVertex
 10
199.166162
 20
140.832321
 30
0.0
  0
SEQEND
  5
93
330
92
100
AcDbEntity
  8
001
370
     9
  0
POLYLINE
  5
97
330
8C
100
AcDbEntity
  8
001
370
     9
100
AcDb2dPolyline
 66
     1
 10
0.0
 20
0.0
 30
0.0
  0
VERTEX
  5
99
330
97
100
AcDbEntity
  8
001
370
     9
100
AcDbVertex
100
AcDb2dVertex
 10
199.166162
 20
111.832321
 30
0.0
  0
VERTEX
  5
9A
330
97
100
AcDbEntity
  8
001
370
     9
100
AcDbVertex
100
AcDb2dVertex
 10
198.764239
 20
110.332321
 30
0.0
  0
VERTEX
  5
9B
330
97
100
AcDbEntity
  8
001
370
     9
100
AcDbVertex
100
AcDb2dVertex
 10
198.362315
 20
111.832321
 30
0.0
  0
SEQEND
  5
98
330
97
100
AcDbEntity
  8
001
370
     9
  0
TEXT
  5
9C
330
8C
100
AcDbEntity
  8
001
370
    30
100
AcDbText
 10
197.764239
 20
120.332321
 30
0.0
 40
4.0
  1
%%c３２
 50
90.000003
 41
0.882353
100
AcDbText
  0
POINT
  5
9D
330
8C
100
AcDbEntity
  8
001
370
     9
100
AcDbPoint
 10
162.213495
 20
142.332321
 30
0.0
  0
POINT
  5
9E
330
8C
100
AcDbEntity
  8
001
370
     9
100
AcDbPoint
 10
162.213495
 20
110.332321
 30
0.0
  0
POINT
  5
9F
330
8C
100
AcDbEntity
  8
001
370
     9
100
AcDbPoint
 10
198.764239
 20
110.332321
 30
0.0
  0
ENDBLK
  5
8E
330
8C
100
AcDbEntity
  8
0
100
AcDbBlockEnd
  0
BLOCK
  5
A1
330
A0
100
AcDbEntity
  8
0
100
AcDbBlockBegin
  2
*D4
 70
     1
 10
0.0
 20
0.0
 30
0.0
  3
*D4
  1

  0
LINE
  5
A3
330
A0
100
AcDbEntity
  8
001
370
     9
100
AcDbLine
 10
46.72194
 20
57.016611
 30
0.0
 11
46.72194
 21
20.27103
 31
0.0
  0
LINE
  5
A4
330
A0
100
AcDbEntity
  8
001
370
     9
100
AcDbLine
 10
170.213495
 20
118.332321
 30
0.0
 11
170.213495
 21
20.27103
 31
0.0
  0
LINE
  5
A5
330
A0
100
AcDbEntity
  8
001
370
     9
100
AcDbLine
 10
46.72194
 20
23.02103
 30
0.0
 11
170.213495
 21
23.02103
 31
0.0
  0
POLYLINE
  5
A6
330
A0
100
AcDbEntity
  8
001
370
     9
100
AcDb2dPolyline
 66
     1
 10
0.0
 20
0.0
 30
0.0
  0
VERTEX
  5
A8
330
A6
100
AcDbEntity
  8
001
370
     9
100
AcDbVertex
100
AcDb2dVertex
 10
48.22194
 20
22.619107
 30
0.0
  0
VERTEX
  5
A9
330
A6
100
AcDbEntity
  8
001
370
     9
100
AcDbVertex
100
AcDb2dVertex
 10
46.72194
 20
23.02103
 30
0.0
  0
VERTEX
  5
AA
330
A6
100
AcDbEntity
  8
001
370
     9
100
AcDbVertex
100
AcDb2dVertex
 10
48.22194
 20
23.422954
 30
0.0
  0
SEQEND
  5
A7
330
A6
100
AcDbEntity
  8
001
370
     9
  0
POLYLINE
  5
AB
330
A0
100
AcDbEntity
  8
001
370
     9
100
AcDb2dPolyline
 66
     1
 10
0.0
 20
0.0
 30
0.0
  0
VERTEX
  5
AD
330
AB
100
AcDbEntity
  8
001
370
     9
100
AcDbVertex
100
AcDb2dVertex
 10
168.713495
 20
23.422954
 30
0.0
  0
VERTEX
  5
AE
330
AB
100
AcDbEntity
  8
001
370
     9
100
AcDbVertex
100
AcDb2dVertex
 10
170.213495
 20
23.02103
 30
0.0
  0
VERTEX
  5
AF
330
AB
100
AcDbEntity
  8
001
370
     9
100
AcDbVertex
100
AcDb2dVertex
 10
168.713495
 20
22.619107
 30
0.0
  0
SEQEND
  5
AC
330
AB
100
AcDbEntity
  8
001
370
     9
  0
TEXT
  5
B0
330
A0
100
AcDbEntity
  8
001
370
    30
100
AcDbText
 10
98.467717
 20
24.02103
 30
0.0
 40
4.0
  1
１２３．５
 41
0.833333
100
AcDbText
  0
POINT
  5
B1
330
A0
100
AcDbEntity
  8
001
370
     9
100
AcDbPoint
 10
46.72194
 20
57.016611
 30
0.0
  0
POINT
  5
B2
330
A0
100
AcDbEntity
  8
001
370
     9
100
AcDbPoint
 10
170.213495
 20
118.332321
 30
0.0
  0
POINT
  5
B3
330
A0
100
AcDbEntity
  8
001
370
     9
100
AcDbPoint
 10
170.213495
 20
23.02103
 30
0.0
  0
ENDBLK
  5
A2
330
A0
100
AcDbEntity
  8
0
100
AcDbBlockEnd
  0
ENDSEC
  0
SECTION
  2
ENTITIES
  0
DIMENSION
  5
B4
330
1F
100
AcDbEntity
  8
001
370
     9
100
AcDbDimension
  2
*D1
 10
170.213495
 20
36.459474
 30
0.0
 11
130.213495
 21
39.459474
 31
0.0
 70
   160
 71
     5
 42
-1.0
  3
Standard
100
AcDbAlignedDimension
 13
90.213495
 23
82.332321
 33
0.0
 14
170.213495
 24
113.332321
 34
0.0
100
AcDbRotatedDimension
  0
DIMENSION
  5
B5
330
1F
100
AcDbEntity
  8
001
370
     9
100
AcDbDimension
  2
*D2
 10
90.213495
 20
36.459474
 30
0.0
 11
68.467717
 21
39.459474
 31
0.0
 70
   160
 71
     5
 42
-1.0
  3
Standard
100
AcDbAlignedDimension
 13
46.72194
 23
57.016657
 33
0.0
 14
90.213495
 24
82.332321
 34
0.0
 50
360.0
100
AcDbRotatedDimension
  0
TEXT
  5
B6
330
1F
100
AcDbEntity
  8
001
370
    30
100
AcDbText
 10
17.053484
 20
118.332321
 30
0.0
 40
4.0
  1
%%c１４０
 50
90.000003
 41
0.869565
100
AcDbText
  0
POLYLINE
  5
B7
330
1F
100
AcDbEntity
  8
001
370
     9
100
AcDb2dPolyline
 66
     1
 10
0.0
 20
0.0
 30
0.0
  0
VERTEX
  5
B9
330
B7
100
AcDbEntity
  8
001
370
     9
100
AcDbVertex
100
AcDb2dVertex
 10
18.455408
 20
57.832321
 30
0.0
  0
VERTEX
  5
BA
330
B7
100
AcDbEntity
  8
001
370
     9
100
AcDbVertex
100
AcDb2dVertex
 10
18.053484
 20
56.332321
 30
0.0
  0
VERTEX
  5
BB
330
B7
100
AcDbEntity
  8
001
370
     9
100
AcDbVertex
100
AcDb2dVertex
 10
17.65156
 20
57.832321
 30
0.0
  0
SEQEND
  5
B8
330
B7
100
AcDbEntity
  8
001
370
     9
  0
LINE
  5
BC
330
1F
100
AcDbEntity
  8
001
370
     9
100
AcDbLine
 10
18.053484
 20
56.332321
 30
0.0
 11
18.053484
 21
196.332321
 31
0.0
  0
POLYLINE
  5
BD
330
1F
100
AcDbEntity
  8
001
370
     9
100
AcDb2dPolyline
 66
     1
 10
0.0
 20
0.0
 30
0.0
  0
VERTEX
  5
BF
330
BD
100
AcDbEntity
  8
001
370
     9
100
AcDbVertex
100
AcDb2dVertex
 10
47.114012
 20
56.332321
 30
0.0
  0
VERTEX
  5
C0
330
BD
100
AcDbEntity
  8
001
370
     9
100
AcDbVertex
100
AcDb2dVertex
 10
18.053484
 20
56.332321
 30
0.0
  0
VERTEX
  5
C1
330
BD
100
AcDbEntity
  8
001
370
     9
100
AcDbVertex
100
AcDb2dVertex
 10
15.303484
 20
56.332321
 30
0.0
  0
SEQEND
  5
BE
330
BD
100
AcDbEntity
  8
001
370
     9
  0
DIMENSION
  5
C2
330
1F
100
AcDbEntity
  8
001
370
     9
100
AcDbDimension
  2
*D3
 10
198.764239
 20
110.332321
 30
0.0
 11
195.764238
 21
126.332321
 31
0.0
 70
   160
 71
     5
 42
-1.0
  3
Standard
100
AcDbAlignedDimension
 13
162.213495
 23
142.332321
 33
0.0
 14
162.213495
 24
110.332321
 34
0.0
 50
270.0
100
AcDbRotatedDimension
  0
DIMENSION
  5
C3
330
1F
100
AcDbEntity
  8
001
370
     9
100
AcDbDimension
  2
*D4
 10
170.213495
 20
23.02103
 30
0.0
 11
108.467717
 21
26.02103
 31
0.0
 70
   160
 71
     5
 42
-1.0
  3
Standard
100
AcDbAlignedDimension
 13
46.72194
 23
57.016611
 33
0.0
 14
170.213495
 24
118.332321
 34
0.0
100
AcDbRotatedDimension
  0
POLYLINE
  5
C4
330
1F
100
AcDbEntity
  8
001
 62
   140
370
    50
100
AcDb2dPolyline
 66
     1
 10
0.0
 20
0.0
 30
0.0
  0
VERTEX
  5
C6
330
C4
100
AcDbEntity
  8
001
 62
   140
370
    50
100
AcDbVertex
100
AcDb2dVertex
 10
57.881357
 20
145.665816
 30
0.0
  0
VERTEX
  5
C7
330
C4
100
AcDbEntity
  8
001
 62
   140
370
    50
100
AcDbVertex
100
AcDb2dVertex
 10
57.870756
 20
145.787625
 30
0.0
  0
VERTEX
  5
C8
330
C4
100
AcDbEntity
  8
001
 62
   140
370
    50
100
AcDbVertex
100
AcDb2dVertex
 10
57.846522
 20
145.955999
 30
0.0
  0
VERTEX
  5
C9
330
C4
100
AcDbEntity
  8
001
 62
   140
370
    50
100
AcDbVertex
100
AcDb2dVertex
 10
57.793776
 20
146.165833
 30
0.0
  0
VERTEX
  5
CA
330
C4
100
AcDbEntity
  8
001
 62
   140
370
    50
100
AcDbVertex
100
AcDb2dVertex
 10
57.720839
 20
146.348408
 30
0.0
  0
VERTEX
  5
CB
330
C4
100
AcDbEntity
  8
001
 62
   140
370
    50
100
AcDbVertex
100
AcDb2dVertex
 10
57.624874
 20
146.535728
 30
0.0
  0
VERTEX
  5
CC
330
C4
100
AcDbEntity
  8
001
 62
   140
370
    50
100
AcDbVertex
100
AcDb2dVertex
 10
57.508856
 20
146.718949
 30
0.0
  0
VERTEX
  5
CD
330
C4
100
AcDbEntity
  8
001
 62
   140
370
    50
100
AcDbVertex
100
AcDb2dVertex
 10
57.016431
 20
147.225832
 30
0.0
  0
VERTEX
  5
CE
330
C4
100
AcDbEntity
  8
001
 62
   140
370
    50
100
AcDbVertex
100
AcDb2dVertex
 10
56.431386
 20
147.592124
 30
0.0
  0
VERTEX
  5
CF
330
C4
100
AcDbEntity
  8
001
 62
   140
370
    50
100
AcDbVertex
100
AcDb2dVertex
 10
55.985534
 20
147.774486
 30
0.0
  0
VERTEX
  5
D0
330
C4
100
AcDbEntity
  8
001
 62
   140
370
    50
100
AcDbVertex
100
AcDb2dVertex
 10
55.458708
 20
147.891067
 30
0.0
  0
VERTEX
  5
D1
330
C4
100
AcDbEntity
  8
001
 62
   140
370
    50
100
AcDbVertex
100
AcDb2dVertex
 10
55.22558
 20
147.919761
 30
0.0
  0
VERTEX
  5
D2
330
C4
100
AcDbEntity
  8
001
 62
   140
370
    50
100
AcDbVertex
100
AcDb2dVertex
 10
55.060171
 20
147.934252
 30
0.0
  0
SEQEND
  5
C5
330
C4
100
AcDbEntity
  8
001
370
    50
  0
POLYLINE
  5
D3
330
1F
100
AcDbEntity
  8
001
 62
   140
370
    50
100
AcDb2dPolyline
 66
     1
 10
0.0
 20
0.0
 30
0.0
  0
VERTEX
  5
D5
330
D3
100
AcDbEntity
  8
001
 62
   140
370
    50
100
AcDbVertex
100
AcDb2dVertex
 10
51.879843
 20
145.591604
 30
0.0
  0
VERTEX
  5
D6
330
D3
100
AcDbEntity
  8
001
 62
   140
370
    50
100
AcDbVertex
100
AcDb2dVertex
 10
51.890459
 20
145.469794
 30
0.0
  0
VERTEX
  5
D7
330
D3
100
AcDbEntity
  8
001
 62
   140
370
    50
100
AcDbVertex
100
AcDb2dVertex
 10
51.914678
 20
145.30142
 30
0.0
  0
VERTEX
  5
D8
330
D3
100
AcDbEntity
  8
001
 62
   140
370
    50
100
AcDbVertex
100
AcDb2dVertex
 10
51.967308
 20
145.091593
 30
0.0
  0
VERTEX
  5
D9
330
D3
100
AcDbEntity
  8
001
 62
   140
370
    50
100
AcDbVertex
100
AcDb2dVertex
 10
52.040362
 20
144.909012
 30
0.0
  0
VERTEX
  5
DA
330
D3
100
AcDbEntity
  8
001
 62
   140
370
    50
100
AcDbVertex
100
AcDb2dVertex
 10
52.136813
 20
144.721664
 30
0.0
  0
VERTEX
  5
DB
330
D3
100
AcDbEntity
  8
001
 62
   140
370
    50
100
AcDbVertex
100
AcDb2dVertex
 10
52.252344
 20
144.53847
 30
0.0
  0
VERTEX
  5
DC
330
D3
100
AcDbEntity
  8
001
 62
   140
370
    50
100
AcDbVertex
100
AcDb2dVertex
 10
52.73391
 20
144.032193
 30
0.0
  0
VERTEX
  5
DD
330
D3
100
AcDbEntity
  8
001
 62
   140
370
    50
100
AcDbVertex
100
AcDb2dVertex
 10
53.329815
 20
143.665296
 30
0.0
  0
VERTEX
  5
DE
330
D3
100
AcDbEntity
  8
001
 62
   140
370
    50
100
AcDbVertex
100
AcDb2dVertex
 10
53.806476
 20
143.481217
 30
0.0
  0
VERTEX
  5
DF
330
D3
100
AcDbEntity
  8
001
 62
   140
370
    50
100
AcDbVertex
100
AcDb2dVertex
 10
54.302493
 20
143.366353
 30
0.0
  0
VERTEX
  5
E0
330
D3
100
AcDbEntity
  8
001
 62
   140
370
    50
100
AcDbVertex
100
AcDb2dVertex
 10
54.561852
 20
143.333488
 30
0.0
  0
VERTEX
  5
E1
330
D3
100
AcDbEntity
  8
001
 62
   140
370
    50
100
AcDbVertex
100
AcDb2dVertex
 10
54.822818
 20
143.318217
 30
0.0
  0
VERTEX
  5
E2
330
D3
100
AcDbEntity
  8
001
 62
   140
370
    50
100
AcDbVertex
100
AcDb2dVertex
 10
55.084225
 20
143.320527
 30
0.0
  0
VERTEX
  5
E3
330
D3
100
AcDbEntity
  8
001
 62
   140
370
    50
100
AcDbVertex
100
AcDb2dVertex
 10
55.344898
 20
143.340283
 30
0.0
  0
VERTEX
  5
E4
330
D3
100
AcDbEntity
  8
001
 62
   140
370
    50
100
AcDbVertex
100
AcDb2dVertex
 10
55.845993
 20
143.429416
 30
0.0
  0
VERTEX
  5
E5
330
D3
100
AcDbEntity
  8
001
 62
   140
370
    50
100
AcDbVertex
100
AcDb2dVertex
 10
56.331303
 20
143.590232
 30
0.0
  0
VERTEX
  5
E6
330
D3
100
AcDbEntity
  8
001
 62
   140
370
    50
100
AcDbVertex
100
AcDb2dVertex
 10
56.945076
 20
143.931783
 30
0.0
  0
VERTEX
  5
E7
330
D3
100
AcDbEntity
  8
001
 62
   140
370
    50
100
AcDbVertex
100
AcDb2dVertex
 10
57.451073
 20
144.408456
 30
0.0
  0
VERTEX
  5
E8
330
D3
100
AcDbEntity
  8
001
 62
   140
370
    50
100
AcDbVertex
100
AcDb2dVertex
 10
57.575374
 20
144.581278
 30
0.0
  0
VERTEX
  5
E9
330
D3
100
AcDbEntity
  8
001
 62
   140
370
    50
100
AcDbVertex
100
AcDb2dVertex
 10
57.681313
 20
144.767938
 30
0.0
  0
VERTEX
  5
EA
330
D3
100
AcDbEntity
  8
001
 62
   140
370
    50
100
AcDbVertex
100
AcDb2dVertex
 10
57.764171
 20
144.960415
 30
0.0
  0
VERTEX
  5
EB
330
D3
100
AcDbEntity
  8
001
 62
   140
370
    50
100
AcDbVertex
100
AcDb2dVertex
 10
57.826455
 20
145.153573
 30
0.0
  0
VERTEX
  5
EC
330
D3
100
AcDbEntity
  8
001
 62
   140
370
    50
100
AcDbVertex
100
AcDb2dVertex
 10
57.866016
 20
145.33921
 30
0.0
  0
VERTEX
  5
ED
330
D3
100
AcDbEntity
  8
001
 62
   140
370
    50
100
AcDbVertex
100
AcDb2dVertex
 10
57.882088
 20
145.553646
 30
0.0
  0
VERTEX
  5
EE
330
D3
100
AcDbEntity
  8
001
 62
   140
370
    50
100
AcDbVertex
100
AcDb2dVertex
 10
57.882235
 20
145.619575
 30
0.0
  0
VERTEX
  5
EF
330
D3
100
AcDbEntity
  8
001
 62
   140
370
    50
100
AcDbVertex
100
AcDb2dVertex
 10
57.881357
 20
145.665816
 30
0.0
  0
SEQEND
  5
D4
330
D3
100
AcDbEntity
  8
001
370
    50
  0
POLYLINE
  5
F0
330
1F
100
AcDbEntity
  8
001
 62
   140
370
    50
100
AcDb2dPolyline
 66
     1
 10
0.0
 20
0.0
 30
0.0
  0
VERTEX
  5
F2
330
F0
100
AcDbEntity
  8
001
 62
   140
370
    50
100
AcDbVertex
100
AcDb2dVertex
 10
55.060171
 20
147.934252
 30
0.0
  0
VERTEX
  5
F3
330
F0
100
AcDbEntity
  8
001
 62
   140
370
    50
100
AcDbVertex
100
AcDb2dVertex
 10
55.039133
 20
147.938774
 30
0.0
  0
VERTEX
  5
F4
330
F0
100
AcDbEntity
  8
001
 62
   140
370
    50
100
AcDbVertex
100
AcDb2dVertex
 10
55.018043
 20
147.943045
 30
0.0
  0
VERTEX
  5
F5
330
F0
100
AcDbEntity
  8
001
 62
   140
370
    50
100
AcDbVertex
100
AcDb2dVertex
 10
54.9284
 20
147.955711
 30
0.0
  0
VERTEX
  5
F6
330
F0
100
AcDbEntity
  8
001
 62
   140
370
    50
100
AcDbVertex
100
AcDb2dVertex
 10
54.837835
 20
147.959707
 30
0.0
  0
VERTEX
  5
F7
330
F0
100
AcDbEntity
  8
001
 62
   140
370
    50
100
AcDbVertex
100
AcDb2dVertex
 10
54.743798
 20
147.954841
 30
0.0
  0
VERTEX
  5
F8
330
F0
100
AcDbEntity
  8
001
 62
   140
370
    50
100
AcDbVertex
100
AcDb2dVertex
 10
54.650848
 20
147.940591
 30
0.0
  0
VERTEX
  5
F9
330
F0
100
AcDbEntity
  8
001
 62
   140
370
    50
100
AcDbVertex
100
AcDb2dVertex
 10
54.636322
 20
147.937482
 30
0.0
  0
VERTEX
  5
FA
330
F0
100
AcDbEntity
  8
001
 62
   140
370
    50
100
AcDbVertex
100
AcDb2dVertex
 10
54.621823
 20
147.934252
 30
0.0
  0
SEQEND
  5
F1
330
F0
100
AcDbEntity
  8
001
370
    50
  0
POLYLINE
  5
FB
330
1F
100
AcDbEntity
  8
001
 62
   140
370
    50
100
AcDb2dPolyline
 66
     1
 10
0.0
 20
0.0
 30
0.0
  0
VERTEX
  5
FD
330
FB
100
AcDbEntity
  8
001
 62
   140
370
    50
100
AcDbVertex
100
AcDb2dVertex
 10
54.621823
 20
147.934252
 30
0.0
  0
VERTEX
  5
FE
330
FB
100
AcDbEntity
  8
001
 62
   140
370
    50
100
AcDbVertex
100
AcDb2dVertex
 10
54.537313
 20
147.928095
 30
0.0
  0
VERTEX
  5
FF
330
FB
100
AcDbEntity
  8
001
 62
   140
370
    50
100
AcDbVertex
100
AcDb2dVertex
 10
54.416303
 20
147.917136
 30
0.0
  0
VERTEX
  5
100
330
FB
100
AcDbEntity
  8
001
 62
   140
370
    50
100
AcDbVertex
100
AcDb2dVertex
 10
53.880189
 20
147.825941
 30
0.0
  0
VERTEX
  5
101
330
FB
100
AcDbEntity
  8
001
 62
   140
370
    50
100
AcDbVertex
100
AcDb2dVertex
 10
53.429898
 20
147.667188
 30
0.0
  0
VERTEX
  5
102
330
FB
100
AcDbEntity
  8
001
 62
   140
370
    50
100
AcDbVertex
100
AcDb2dVertex
 10
52.828471
 20
147.326364
 30
0.0
  0
VERTEX
  5
103
330
FB
100
AcDbEntity
  8
001
 62
   140
370
    50
100
AcDbVertex
100
AcDb2dVertex
 10
52.310127
 20
146.848964
 30
0.0
  0
VERTEX
  5
104
330
FB
100
AcDbEntity
  8
001
 62
   140
370
    50
100
AcDbVertex
100
AcDb2dVertex
 10
52.185271
 20
146.676108
 30
0.0
  0
VERTEX
  5
105
330
FB
100
AcDbEntity
  8
001
 62
   140
370
    50
100
AcDbVertex
100
AcDb2dVertex
 10
52.079888
 20
146.489482
 30
0.0
  0
VERTEX
  5
106
330
FB
100
AcDbEntity
  8
001
 62
   140
370
    50
100
AcDbVertex
100
AcDb2dVertex
 10
51.99717
 20
146.297013
 30
0.0
  0
VERTEX
  5
107
330
FB
100
AcDbEntity
  8
001
 62
   140
370
    50
100
AcDbVertex
100
AcDb2dVertex
 10
51.934746
 20
146.103846
 30
0.0
  0
VERTEX
  5
108
330
FB
100
AcDbEntity
  8
001
 62
   140
370
    50
100
AcDbVertex
100
AcDb2dVertex
 10
51.895154
 20
145.918208
 30
0.0
  0
VERTEX
  5
109
330
FB
100
AcDbEntity
  8
001
 62
   140
370
    50
100
AcDbVertex
100
AcDb2dVertex
 10
51.879113
 20
145.703774
 30
0.0
  0
VERTEX
  5
10A
330
FB
100
AcDbEntity
  8
001
 62
   140
370
    50
100
AcDbVertex
100
AcDb2dVertex
 10
51.878967
 20
145.637844
 30
0.0
  0
VERTEX
  5
10B
330
FB
100
AcDbEntity
  8
001
 62
   140
370
    50
100
AcDbVertex
100
AcDb2dVertex
 10
51.879843
 20
145.591604
 30
0.0
  0
SEQEND
  5
FC
330
FB
100
AcDbEntity
  8
001
370
    50
  0
POLYLINE
  5
10C
330
1F
100
AcDbEntity
  8
001
 62
   140
370
    50
100
AcDb2dPolyline
 66
     1
 10
0.0
 20
0.0
 30
0.0
  0
VERTEX
  5
10E
330
10C
100
AcDbEntity
  8
001
 62
   140
370
    50
100
AcDbVertex
100
AcDb2dVertex
 10
62.39188
 20
154.94286
 30
0.0
  0
VERTEX
  5
10F
330
10C
100
AcDbEntity
  8
001
 62
   140
370
    50
100
AcDbVertex
100
AcDb2dVertex
 10
62.720753
 20
153.526816
 30
0.0
  0
VERTEX
  5
110
330
10C
100
AcDbEntity
  8
001
 62
   140
370
    50
100
AcDbVertex
100
AcDb2dVertex
 10
63.282969
 20
151.479404
 30
0.0
  0
VERTEX
  5
111
330
10C
100
AcDbEntity
  8
001
 62
   140
370
    50
100
AcDbVertex
100
AcDb2dVertex
 10
63.98976
 20
149.363467
 30
0.0
  0
VERTEX
  5
112
330
10C
100
AcDbEntity
  8
001
 62
   140
370
    50
100
AcDbVertex
100
AcDb2dVertex
 10
64.529003
 20
147.934252
 30
0.0
  0
SEQEND
  5
10D
330
10C
100
AcDbEntity
  8
001
370
    50
  0
LINE
  5
113
330
1F
100
AcDbEntity
  8
001
 62
   140
370
    50
100
AcDbLine
 10
64.529003
 20
147.934252
 30
0.0
 11
55.060171
 21
147.934252
 31
0.0
  0
LINE
  5
114
330
1F
100
AcDbEntity
  8
001
 62
   140
370
    50
100
AcDbLine
 10
54.621823
 20
147.934252
 30
0.0
 11
47.513495
 21
147.934252
 31
0.0
  0
POLYLINE
  5
115
330
1F
100
AcDbEntity
  8
001
 62
   140
370
    50
100
AcDb2dPolyline
 66
     1
 10
0.0
 20
0.0
 30
0.0
  0
VERTEX
  5
117
330
115
100
AcDbEntity
  8
001
 62
   140
370
    50
100
AcDbVertex
100
AcDb2dVertex
 10
47.513491
 20
155.675054
 30
0.0
  0
VERTEX
  5
118
330
115
100
AcDbEntity
  8
001
 62
   140
370
    50
100
AcDbVertex
100
AcDb2dVertex
 10
49.20501
 20
155.583771
 30
0.0
  0
VERTEX
  5
119
330
115
100
AcDbEntity
  8
001
 62
   140
370
    50
100
AcDbVertex
100
AcDb2dVertex
 10
51.677439
 20
155.454327
 30
0.0
  0
VERTEX
  5
11A
330
115
100
AcDbEntity
  8
001
 62
   140
370
    50
100
AcDbVertex
100
AcDb2dVertex
 10
54.540515
 20
155.30967
 30
0.0
  0
VERTEX
  5
11B
330
115
100
AcDbEntity
  8
001
 62
   140
370
    50
100
AcDbVertex
100
AcDb2dVertex
 10
57.739002
 20
155.155711
 30
0.0
  0
VERTEX
  5
11C
330
115
100
AcDbEntity
  8
001
 62
   140
370
    50
100
AcDbVertex
100
AcDb2dVertex
 10
60.501583
 20
155.02793
 30
0.0
  0
VERTEX
  5
11D
330
115
100
AcDbEntity
  8
001
 62
   140
370
    50
100
AcDbVertex
100
AcDb2dVertex
 10
62.39188
 20
154.94286
 30
0.0
  0
SEQEND
  5
116
330
115
100
AcDbEntity
  8
001
370
    50
  0
LINE
  5
11E
330
1F
100
AcDbEntity
  8
001
 62
   140
370
    50
100
AcDbLine
 10
47.213495
 20
155.57693
 30
0.0
 11
47.513491
 21
155.675096
 31
0.0
  0
LINE
  5
11F
330
1F
100
AcDbEntity
  8
001
 62
   140
370
    50
100
AcDbLine
 10
47.513495
 20
147.934252
 30
0.0
 11
47.213495
 21
147.654844
 31
0.0
  0
LINE
  5
120
330
1F
100
AcDbEntity
  8
001
 62
   140
370
    50
100
AcDbLine
 10
65.213495
 20
147.422027
 30
0.0
 11
64.529003
 21
147.934252
 31
0.0
  0
LINE
  5
121
330
1F
100
AcDbEntity
  8
001
 62
   140
370
    50
100
AcDbLine
 10
65.213495
 20
136.414554
 30
0.0
 11
50.213495
 21
136.414554
 31
0.0
  0
LINE
  5
122
330
1F
100
AcDbEntity
  8
001
 62
   140
370
    50
100
AcDbLine
 10
47.213495
 20
142.743988
 30
0.0
 11
50.213495
 21
138.855557
 31
0.0
  0
LINE
  5
123
330
1F
100
AcDbEntity
  8
001
 62
   140
370
    50
100
AcDbLine
 10
62.371578
 20
159.033522
 30
0.0
 11
62.255032
 21
160.958584
 31
0.0
  0
LINE
  5
124
330
1F
100
AcDbEntity
  8
001
 62
   140
370
    50
100
AcDbLine
 10
62.255032
 20
160.958584
 30
0.0
 11
65.213495
 21
159.479352
 31
0.0
  0
LINE
  5
125
330
1F
100
AcDbEntity
  8
001
 62
   140
370
    50
100
AcDbLine
 10
62.39188
 20
154.94286
 30
0.0
 11
62.155597
 21
157.387625
 31
0.0
  0
LINE
  5
126
330
1F
100
AcDbEntity
  8
001
 62
   140
370
    50
100
AcDbLine
 10
62.69695
 20
157.17427
 30
0.0
 11
62.155597
 21
157.387625
 31
0.0
  0
LINE
  5
127
330
1F
100
AcDbEntity
  8
001
 62
   140
370
    50
100
AcDbLine
 10
62.589591
 20
158.9476
 30
0.0
 11
62.69695
 21
157.17427
 31
0.0
  0
LINE
  5
128
330
1F
100
AcDbEntity
  8
001
 62
   140
370
    50
100
AcDbLine
 10
62.589591
 20
158.9476
 30
0.0
 11
62.371578
 21
159.033522
 31
0.0
  0
LINE
  5
129
330
1F
100
AcDbEntity
  8
001
 62
   140
370
    50
100
AcDbLine
 10
47.513491
 20
156.962551
 30
0.0
 11
47.513491
 21
147.934252
 31
0.0
  0
LINE
  5
12A
330
1F
100
AcDbEntity
  8
001
 62
   140
370
    50
100
AcDbLine
 10
62.155597
 20
157.387625
 30
0.0
 11
47.513491
 21
156.962551
 31
0.0
  0
LINE
  5
12B
330
1F
100
AcDbEntity
  8
001
 62
   140
370
    50
100
AcDbLine
 10
47.213495
 20
156.827106
 30
0.0
 11
47.513491
 21
156.962551
 31
0.0
  0
LINE
  5
12C
330
1F
100
AcDbEntity
  8
001
 62
   140
370
    50
100
AcDbLine
 10
47.213495
 20
142.743988
 30
0.0
 11
47.213495
 21
156.827106
 31
0.0
  0
LINE
  5
12D
330
1F
100
AcDbEntity
  8
001
 62
   140
370
    50
100
AcDbLine
 10
62.589591
 20
158.9476
 30
0.0
 11
62.138692
 21
158.607335
 31
0.0
  0
LINE
  5
12E
330
1F
100
AcDbEntity
  8
001
 62
   140
370
    50
100
AcDbLine
 10
62.371578
 20
159.033522
 30
0.0
 11
62.129435
 21
158.850792
 31
0.0
  0
LINE
  5
12F
330
1F
100
AcDbEntity
  8
001
 62
   140
370
    50
100
AcDbLine
 10
62.055826
 20
160.786686
 30
0.0
 11
62.255032
 21
160.958584
 31
0.0
  0
LINE
  5
130
330
1F
100
AcDbEntity
  8
001
 62
   140
370
    50
100
AcDbLine
 10
50.213495
 20
138.855557
 30
0.0
 11
50.213495
 21
136.122568
 31
0.0
  0
LINE
  5
131
330
1F
100
AcDbEntity
  8
001
 62
   140
370
    50
100
AcDbLine
 10
65.213495
 20
136.296227
 30
0.0
 11
65.213495
 21
159.479352
 31
0.0
  0
POLYLINE
  5
132
330
1F
100
AcDbEntity
  8
001
 62
   200
370
    50
100
AcDb2dPolyline
 66
     1
 10
0.0
 20
0.0
 30
0.0
  0
VERTEX
  5
134
330
132
100
AcDbEntity
  8
001
 62
   200
370
    50
100
AcDbVertex
100
AcDb2dVertex
 10
61.926927
 20
157.380986
 30
0.0
  0
VERTEX
  5
135
330
132
100
AcDbEntity
  8
001
 62
   200
370
    50
100
AcDbVertex
100
AcDb2dVertex
 10
61.866983
 20
157.398576
 30
0.0
  0
VERTEX
  5
136
330
132
100
AcDbEntity
  8
001
 62
   200
370
    50
100
AcDbVertex
100
AcDb2dVertex
 10
61.783565
 20
157.419565
 30
0.0
  0
VERTEX
  5
137
330
132
100
AcDbEntity
  8
001
 62
   200
370
    50
100
AcDbVertex
100
AcDb2dVertex
 10
61.653886
 20
157.442329
 30
0.0
  0
VERTEX
  5
138
330
132
100
AcDbEntity
  8
001
 62
   200
370
    50
100
AcDbVertex
100
AcDb2dVertex
 10
61.521148
 20
157.449737
 30
0.0
  0
VERTEX
  5
139
330
132
100
AcDbEntity
  8
001
 62
   200
370
    50
100
AcDbVertex
100
AcDb2dVertex
 10
61.450207
 20
157.450509
 30
0.0
  0
VERTEX
  5
13A
330
132
100
AcDbEntity
  8
001
 62
   200
370
    50
100
AcDbVertex
100
AcDb2dVertex
 10
61.399141
 20
157.450156
 30
0.0
  0
SEQEND
  5
133
330
132
100
AcDbEntity
  8
001
370
    50
  0
LINE
  5
13B
330
1F
100
AcDbEntity
  8
001
 62
   200
370
    50
100
AcDbLine
 10
47.213495
 20
156.360572
 30
0.0
 11
46.98231
 21
156.524671
 31
0.0
  0
POLYLINE
  5
13C
330
1F
100
AcDbEntity
  8
001
 62
   200
370
    50
100
AcDb2dPolyline
 66
     1
 10
0.0
 20
0.0
 30
0.0
  0
VERTEX
  5
13E
330
13C
100
AcDbEntity
  8
001
 62
   200
370
    50
100
AcDbVertex
100
AcDb2dVertex
 10
46.877374
 20
156.68342
 30
0.0
  0
VERTEX
  5
13F
330
13C
100
AcDbEntity
  8
001
 62
   200
370
    50
100
AcDbVertex
100
AcDb2dVertex
 10
46.881706
 20
156.658373
 30
0.0
  0
VERTEX
  5
140
330
13C
100
AcDbEntity
  8
001
 62
   200
370
    50
100
AcDbVertex
100
AcDb2dVertex
 10
46.891748
 20
156.625272
 30
0.0
  0
VERTEX
  5
141
330
13C
100
AcDbEntity
  8
001
 62
   200
370
    50
100
AcDbVertex
100
AcDb2dVertex
 10
46.907583
 20
156.595333
 30
0.0
  0
VERTEX
  5
142
330
13C
100
AcDbEntity
  8
001
 62
   200
370
    50
100
AcDbVertex
100
AcDb2dVertex
 10
46.929975
 20
156.569815
 30
0.0
  0
VERTEX
  5
143
330
13C
100
AcDbEntity
  8
001
 62
   200
370
    50
100
AcDbVertex
100
AcDb2dVertex
 10
46.959443
 20
156.543048
 30
0.0
  0
VERTEX
  5
144
330
13C
100
AcDbEntity
  8
001
 62
   200
370
    50
100
AcDbVertex
100
AcDb2dVertex
 10
46.98231
 20
156.524671
 30
0.0
  0
SEQEND
  5
13D
330
13C
100
AcDbEntity
  8
001
370
    50
  0
LINE
  5
145
330
1F
100
AcDbEntity
  8
001
 62
   200
370
    50
100
AcDbLine
 10
47.680969
 20
157.051905
 30
0.0
 11
61.399141
 21
157.450156
 31
0.0
  0
POLYLINE
  5
146
330
1F
100
AcDbEntity
  8
001
 62
   200
370
    50
100
AcDb2dPolyline
 66
     1
 10
0.0
 20
0.0
 30
0.0
  0
VERTEX
  5
148
330
146
100
AcDbEntity
  8
001
 62
   200
370
    50
100
AcDbVertex
100
AcDb2dVertex
 10
47.680969
 20
157.051905
 30
0.0
  0
VERTEX
  5
149
330
146
100
AcDbEntity
  8
001
 62
   200
370
    50
100
AcDbVertex
100
AcDb2dVertex
 10
47.674012
 20
157.051684
 30
0.0
  0
VERTEX
  5
14A
330
146
100
AcDbEntity
  8
001
 62
   200
370
    50
100
AcDbVertex
100
AcDb2dVertex
 10
47.663963
 20
157.051335
 30
0.0
  0
VERTEX
  5
14B
330
146
100
AcDbEntity
  8
001
 62
   200
370
    50
100
AcDbVertex
100
AcDb2dVertex
 10
47.589238
 20
157.047284
 30
0.0
  0
VERTEX
  5
14C
330
146
100
AcDbEntity
  8
001
 62
   200
370
    50
100
AcDbVertex
100
AcDb2dVertex
 10
47.52534
 20
157.040929
 30
0.0
  0
VERTEX
  5
14D
330
146
100
AcDbEntity
  8
001
 62
   200
370
    50
100
AcDbVertex
100
AcDb2dVertex
 10
47.398291
 20
157.021097
 30
0.0
  0
VERTEX
  5
14E
330
146
100
AcDbEntity
  8
001
 62
   200
370
    50
100
AcDbVertex
100
AcDb2dVertex
 10
47.265971
 20
156.990918
 30
0.0
  0
VERTEX
  5
14F
330
146
100
AcDbEntity
  8
001
 62
   200
370
    50
100
AcDbVertex
100
AcDb2dVertex
 10
47.113451
 20
156.938488
 30
0.0
  0
VERTEX
  5
150
330
146
100
AcDbEntity
  8
001
 62
   200
370
    50
100
AcDbVertex
100
AcDb2dVertex
 10
46.97806
 20
156.856252
 30
0.0
  0
VERTEX
  5
151
330
146
100
AcDbEntity
  8
001
 62
   200
370
    50
100
AcDbVertex
100
AcDb2dVertex
 10
46.948139
 20
156.82945
 30
0.0
  0
VERTEX
  5
152
330
146
100
AcDbEntity
  8
001
 62
   200
370
    50
100
AcDbVertex
100
AcDb2dVertex
 10
46.921196
 20
156.800691
 30
0.0
  0
VERTEX
  5
153
330
146
100
AcDbEntity
  8
001
 62
   200
370
    50
100
AcDbVertex
100
AcDb2dVertex
 10
46.901841
 20
156.7745
 30
0.0
  0
VERTEX
  5
154
330
146
100
AcDbEntity
  8
001
 62
   200
370
    50
100
AcDbVertex
100
AcDb2dVertex
 10
46.887291
 20
156.742491
 30
0.0
  0
VERTEX
  5
155
330
146
100
AcDbEntity
  8
001
 62
   200
370
    50
100
AcDbVertex
100
AcDb2dVertex
 10
46.879616
 20
156.708562
 30
0.0
  0
VERTEX
  5
156
330
146
100
AcDbEntity
  8
001
 62
   200
370
    50
100
AcDbVertex
100
AcDb2dVertex
 10
46.877374
 20
156.68342
 30
0.0
  0
SEQEND
  5
147
330
146
100
AcDbEntity
  8
001
370
    50
  0
POLYLINE
  5
157
330
1F
100
AcDbEntity
  8
001
 62
   200
370
    50
100
AcDb2dPolyline
 66
     1
 10
0.0
 20
0.0
 30
0.0
  0
VERTEX
  5
159
330
157
100
AcDbEntity
  8
001
 62
   200
370
    50
100
AcDbVertex
100
AcDb2dVertex
 10
47.517021
 20
161.363735
 30
0.0
  0
VERTEX
  5
15A
330
157
100
AcDbEntity
  8
001
 62
   200
370
    50
100
AcDbVertex
100
AcDb2dVertex
 10
47.510063
 20
161.363513
 30
0.0
  0
VERTEX
  5
15B
330
157
100
AcDbEntity
  8
001
 62
   200
370
    50
100
AcDbVertex
100
AcDb2dVertex
 10
47.500015
 20
161.363164
 30
0.0
  0
VERTEX
  5
15C
330
157
100
AcDbEntity
  8
001
 62
   200
370
    50
100
AcDbVertex
100
AcDb2dVertex
 10
47.425289
 20
161.359113
 30
0.0
  0
VERTEX
  5
15D
330
157
100
AcDbEntity
  8
001
 62
   200
370
    50
100
AcDbVertex
100
AcDb2dVertex
 10
47.361391
 20
161.352758
 30
0.0
  0
VERTEX
  5
15E
330
157
100
AcDbEntity
  8
001
 62
   200
370
    50
100
AcDbVertex
100
AcDb2dVertex
 10
47.234342
 20
161.332926
 30
0.0
  0
VERTEX
  5
15F
330
157
100
AcDbEntity
  8
001
 62
   200
370
    50
100
AcDbVertex
100
AcDb2dVertex
 10
47.102023
 20
161.302747
 30
0.0
  0
VERTEX
  5
160
330
157
100
AcDbEntity
  8
001
 62
   200
370
    50
100
AcDbVertex
100
AcDb2dVertex
 10
46.949503
 20
161.250317
 30
0.0
  0
VERTEX
  5
161
330
157
100
AcDbEntity
  8
001
 62
   200
370
    50
100
AcDbVertex
100
AcDb2dVertex
 10
46.814111
 20
161.168081
 30
0.0
  0
VERTEX
  5
162
330
157
100
AcDbEntity
  8
001
 62
   200
370
    50
100
AcDbVertex
100
AcDb2dVertex
 10
46.784191
 20
161.141279
 30
0.0
  0
VERTEX
  5
163
330
157
100
AcDbEntity
  8
001
 62
   200
370
    50
100
AcDbVertex
100
AcDb2dVertex
 10
46.757248
 20
161.11252
 30
0.0
  0
VERTEX
  5
164
330
157
100
AcDbEntity
  8
001
 62
   200
370
    50
100
AcDbVertex
100
AcDb2dVertex
 10
46.737893
 20
161.086329
 30
0.0
  0
VERTEX
  5
165
330
157
100
AcDbEntity
  8
001
 62
   200
370
    50
100
AcDbVertex
100
AcDb2dVertex
 10
46.723342
 20
161.05432
 30
0.0
  0
VERTEX
  5
166
330
157
100
AcDbEntity
  8
001
 62
   200
370
    50
100
AcDbVertex
100
AcDb2dVertex
 10
46.715668
 20
161.020391
 30
0.0
  0
VERTEX
  5
167
330
157
100
AcDbEntity
  8
001
 62
   200
370
    50
100
AcDbVertex
100
AcDb2dVertex
 10
46.713426
 20
160.995249
 30
0.0
  0
SEQEND
  5
158
330
157
100
AcDbEntity
  8
001
370
    50
  0
LINE
  5
168
330
1F
100
AcDbEntity
  8
001
 62
   200
370
    50
100
AcDbLine
 10
46.713426
 20
160.995249
 30
0.0
 11
46.877374
 21
156.68342
 31
0.0
  0
LINE
  5
169
330
1F
100
AcDbEntity
  8
001
 62
   200
370
    50
100
AcDbLine
 10
47.517021
 20
161.363735
 30
0.0
 11
61.235192
 21
161.761985
 31
0.0
  0
LINE
  5
16A
330
1F
100
AcDbEntity
  8
001
 62
   200
370
    50
100
AcDbLine
 10
62.185517
 20
157.375833
 30
0.0
 11
62.030442
 21
161.454293
 31
0.0
  0
POLYLINE
  5
16B
330
1F
100
AcDbEntity
  8
001
 62
   200
370
    50
100
AcDb2dPolyline
 66
     1
 10
0.0
 20
0.0
 30
0.0
  0
VERTEX
  5
16D
330
16B
100
AcDbEntity
  8
001
 62
   200
370
    50
100
AcDbVertex
100
AcDb2dVertex
 10
62.030442
 20
161.454293
 30
0.0
  0
VERTEX
  5
16E
330
16B
100
AcDbEntity
  8
001
 62
   200
370
    50
100
AcDbVertex
100
AcDb2dVertex
 10
62.026301
 20
161.479192
 30
0.0
  0
VERTEX
  5
16F
330
16B
100
AcDbEntity
  8
001
 62
   200
370
    50
100
AcDbVertex
100
AcDb2dVertex
 10
62.016068
 20
161.51244
 30
0.0
  0
VERTEX
  5
170
330
16B
100
AcDbEntity
  8
001
 62
   200
370
    50
100
AcDbVertex
100
AcDb2dVertex
 10
61.999109
 20
161.543251
 30
0.0
  0
VERTEX
  5
171
330
16B
100
AcDbEntity
  8
001
 62
   200
370
    50
100
AcDbVertex
100
AcDb2dVertex
 10
61.977842
 20
161.567898
 30
0.0
  0
VERTEX
  5
172
330
16B
100
AcDbEntity
  8
001
 62
   200
370
    50
100
AcDbVertex
100
AcDb2dVertex
 10
61.948891
 20
161.594531
 30
0.0
  0
VERTEX
  5
173
330
16B
100
AcDbEntity
  8
001
 62
   200
370
    50
100
AcDbVertex
100
AcDb2dVertex
 10
61.916923
 20
161.61898
 30
0.0
  0
VERTEX
  5
174
330
16B
100
AcDbEntity
  8
001
 62
   200
370
    50
100
AcDbVertex
100
AcDb2dVertex
 10
61.772501
 20
161.690587
 30
0.0
  0
VERTEX
  5
175
330
16B
100
AcDbEntity
  8
001
 62
   200
370
    50
100
AcDbVertex
100
AcDb2dVertex
 10
61.619617
 20
161.731394
 30
0.0
  0
VERTEX
  5
176
330
16B
100
AcDbEntity
  8
001
 62
   200
370
    50
100
AcDbVertex
100
AcDb2dVertex
 10
61.49625
 20
161.751818
 30
0.0
  0
VERTEX
  5
177
330
16B
100
AcDbEntity
  8
001
 62
   200
370
    50
100
AcDbVertex
100
AcDb2dVertex
 10
61.357199
 20
161.761566
 30
0.0
  0
VERTEX
  5
178
330
16B
100
AcDbEntity
  8
001
 62
   200
370
    50
100
AcDbVertex
100
AcDb2dVertex
 10
61.285861
 20
161.762485
 30
0.0
  0
VERTEX
  5
179
330
16B
100
AcDbEntity
  8
001
 62
   200
370
    50
100
AcDbVertex
100
AcDb2dVertex
 10
61.235192
 20
161.761985
 30
0.0
  0
SEQEND
  5
16C
330
16B
100
AcDbEntity
  8
001
370
    50
  0
LINE
  5
17A
330
1F
100
AcDbEntity
  8
001
 62
   140
370
    50
100
AcDbLine
 10
47.213495
 20
169.963402
 30
0.0
 11
50.213495
 21
168.65568
 31
0.0
  0
LINE
  5
17B
330
1F
100
AcDbEntity
  8
001
 62
   140
370
    50
100
AcDbLine
 10
47.513495
 20
171.708945
 30
0.0
 11
47.213495
 21
171.614977
 31
0.0
  0
LINE
  5
17C
330
1F
100
AcDbEntity
  8
001
 62
   140
370
    50
100
AcDbLine
 10
50.213495
 20
171.708945
 30
0.0
 11
47.513495
 21
171.708945
 31
0.0
  0
LINE
  5
17D
330
1F
100
AcDbEntity
  8
001
 62
   140
370
    50
100
AcDbLine
 10
47.213495
 20
161.329675
 30
0.0
 11
47.213495
 21
171.614977
 31
0.0
  0
LINE
  5
17E
330
1F
100
AcDbEntity
  8
001
 62
   200
370
    50
100
AcDbLine
 10
47.213495
 20
164.289816
 30
0.0
 11
46.98231
 21
164.529007
 31
0.0
  0
POLYLINE
  5
17F
330
1F
100
AcDbEntity
  8
001
 62
   200
370
    50
100
AcDb2dPolyline
 66
     1
 10
0.0
 20
0.0
 30
0.0
  0
VERTEX
  5
181
330
17F
100
AcDbEntity
  8
001
 62
   200
370
    50
100
AcDbVertex
100
AcDb2dVertex
 10
46.877504
 20
164.770448
 30
0.0
  0
VERTEX
  5
182
330
17F
100
AcDbEntity
  8
001
 62
   200
370
    50
100
AcDbVertex
100
AcDb2dVertex
 10
46.879094
 20
164.736637
 30
0.0
  0
VERTEX
  5
183
330
17F
100
AcDbEntity
  8
001
 62
   200
370
    50
100
AcDbVertex
100
AcDb2dVertex
 10
46.886298
 20
164.690353
 30
0.0
  0
VERTEX
  5
184
330
17F
100
AcDbEntity
  8
001
 62
   200
370
    50
100
AcDbVertex
100
AcDb2dVertex
 10
46.900522
 20
164.647515
 30
0.0
  0
VERTEX
  5
185
330
17F
100
AcDbEntity
  8
001
 62
   200
370
    50
100
AcDbVertex
100
AcDb2dVertex
 10
46.919112
 20
164.611671
 30
0.0
  0
VERTEX
  5
186
330
17F
100
AcDbEntity
  8
001
 62
   200
370
    50
100
AcDbVertex
100
AcDb2dVertex
 10
46.942653
 20
164.575501
 30
0.0
  0
VERTEX
  5
187
330
17F
100
AcDbEntity
  8
001
 62
   200
370
    50
100
AcDbVertex
100
AcDb2dVertex
 10
46.974947
 20
164.536791
 30
0.0
  0
VERTEX
  5
188
330
17F
100
AcDbEntity
  8
001
 62
   200
370
    50
100
AcDbVertex
100
AcDb2dVertex
 10
46.979285
 20
164.532176
 30
0.0
  0
VERTEX
  5
189
330
17F
100
AcDbEntity
  8
001
 62
   200
370
    50
100
AcDbVertex
100
AcDb2dVertex
 10
46.98231
 20
164.529007
 30
0.0
  0
SEQEND
  5
180
330
17F
100
AcDbEntity
  8
001
370
    50
  0
POLYLINE
  5
18A
330
1F
100
AcDbEntity
  8
001
 62
   200
370
    50
100
AcDb2dPolyline
 66
     1
 10
0.0
 20
0.0
 30
0.0
  0
VERTEX
  5
18C
330
18A
100
AcDbEntity
  8
001
 62
   200
370
    50
100
AcDbVertex
100
AcDb2dVertex
 10
47.213495
 20
165.123958
 30
0.0
  0
VERTEX
  5
18D
330
18A
100
AcDbEntity
  8
001
 62
   200
370
    50
100
AcDbVertex
100
AcDb2dVertex
 10
47.114748
 20
165.076694
 30
0.0
  0
VERTEX
  5
18E
330
18A
100
AcDbEntity
  8
001
 62
   200
370
    50
100
AcDbVertex
100
AcDb2dVertex
 10
46.994231
 20
164.995093
 30
0.0
  0
VERTEX
  5
18F
330
18A
100
AcDbEntity
  8
001
 62
   200
370
    50
100
AcDbVertex
100
AcDb2dVertex
 10
46.960267
 20
164.960818
 30
0.0
  0
VERTEX
  5
190
330
18A
100
AcDbEntity
  8
001
 62
   200
370
    50
100
AcDbVertex
100
AcDb2dVertex
 10
46.932303
 20
164.925168
 30
0.0
  0
VERTEX
  5
191
330
18A
100
AcDbEntity
  8
001
 62
   200
370
    50
100
AcDbVertex
100
AcDb2dVertex
 10
46.91043
 20
164.890647
 30
0.0
  0
VERTEX
  5
192
330
18A
100
AcDbEntity
  8
001
 62
   200
370
    50
100
AcDbVertex
100
AcDb2dVertex
 10
46.892996
 20
164.84952
 30
0.0
  0
VERTEX
  5
193
330
18A
100
AcDbEntity
  8
001
 62
   200
370
    50
100
AcDbVertex
100
AcDb2dVertex
 10
46.881991
 20
164.804073
 30
0.0
  0
VERTEX
  5
194
330
18A
100
AcDbEntity
  8
001
 62
   200
370
    50
100
AcDbVertex
100
AcDb2dVertex
 10
46.877504
 20
164.770448
 30
0.0
  0
SEQEND
  5
18B
330
18A
100
AcDbEntity
  8
001
370
    50
  0
LINE
  5
195
330
1F
100
AcDbEntity
  8
001
 62
   200
370
    50
100
AcDbLine
 10
46.877504
 20
164.770448
 30
0.0
 11
46.720836
 21
161.047129
 31
0.0
  0
LINE
  5
196
330
1F
100
AcDbEntity
  8
001
 62
   200
370
    50
100
AcDbLine
 10
46.715907
 20
160.929986
 30
0.0
 11
46.713555
 21
160.874091
 31
0.0
  0
POLYLINE
  5
197
330
1F
100
AcDbEntity
  8
001
 62
   200
370
    50
100
AcDb2dPolyline
 66
     1
 10
0.0
 20
0.0
 30
0.0
  0
VERTEX
  5
199
330
197
100
AcDbEntity
  8
001
 62
   200
370
    50
100
AcDbVertex
100
AcDb2dVertex
 10
46.713555
 20
160.874091
 30
0.0
  0
VERTEX
  5
19A
330
197
100
AcDbEntity
  8
001
 62
   200
370
    50
100
AcDbVertex
100
AcDb2dVertex
 10
46.713418
 20
160.859003
 30
0.0
  0
VERTEX
  5
19B
330
197
100
AcDbEntity
  8
001
 62
   200
370
    50
100
AcDbVertex
100
AcDb2dVertex
 10
46.714603
 20
160.837025
 30
0.0
  0
VERTEX
  5
19C
330
197
100
AcDbEntity
  8
001
 62
   200
370
    50
100
AcDbVertex
100
AcDb2dVertex
 10
46.717752
 20
160.81495
 30
0.0
  0
VERTEX
  5
19D
330
197
100
AcDbEntity
  8
001
 62
   200
370
    50
100
AcDbVertex
100
AcDb2dVertex
 10
46.720851
 20
160.79998
 30
0.0
  0
SEQEND
  5
198
330
197
100
AcDbEntity
  8
001
370
    50
  0
LINE
  5
19E
330
1F
100
AcDbEntity
  8
001
 62
   140
370
    50
100
AcDbLine
 10
65.213495
 20
72.283367
 30
0.0
 11
50.213495
 21
72.283367
 31
0.0
  0
POLYLINE
  5
19F
330
1F
100
AcDbEntity
  8
001
 62
   140
370
    50
100
AcDb2dPolyline
 66
     1
 10
0.0
 20
0.0
 30
0.0
  0
VERTEX
  5
1A1
330
19F
100
AcDbEntity
  8
001
 62
   140
370
    50
100
AcDbVertex
100
AcDb2dVertex
 10
56.811107
 20
66.475056
 30
0.0
  0
VERTEX
  5
1A2
330
19F
100
AcDbEntity
  8
001
 62
   140
370
    50
100
AcDbVertex
100
AcDb2dVertex
 10
56.854766
 20
66.539128
 30
0.0
  0
VERTEX
  5
1A3
330
19F
100
AcDbEntity
  8
001
 62
   140
370
    50
100
AcDbVertex
100
AcDb2dVertex
 10
56.915834
 20
66.634499
 30
0.0
  0
VERTEX
  5
1A4
330
19F
100
AcDbEntity
  8
001
 62
   140
370
    50
100
AcDbVertex
100
AcDb2dVertex
 10
57.063859
 20
66.908906
 30
0.0
  0
VERTEX
  5
1A5
330
19F
100
AcDbEntity
  8
001
 62
   140
370
    50
100
AcDbVertex
100
AcDb2dVertex
 10
57.150295
 20
67.104498
 30
0.0
  0
SEQEND
  5
1A0
330
19F
100
AcDbEntity
  8
001
370
    50
  0
LINE
  5
1A6
330
1F
100
AcDbEntity
  8
001
 62
   140
370
    50
100
AcDbLine
 10
47.213495
 20
58.222307
 30
0.0
 11
51.91595
 21
66.449425
 31
0.0
  0
LINE
  5
1A7
330
1F
100
AcDbEntity
  8
001
 62
   140
370
    50
100
AcDbLine
 10
47.213495
 20
58.222307
 30
0.0
 11
47.213495
 21
66.289573
 31
0.0
  0
LINE
  5
1A8
330
1F
100
AcDbEntity
  8
001
 62
   140
370
    50
100
AcDbLine
 10
50.213495
 20
71.485725
 30
0.0
 11
47.213495
 21
66.289573
 31
0.0
  0
LINE
  5
1A9
330
1F
100
AcDbEntity
  8
001
 62
   140
370
    50
100
AcDbLine
 10
50.213495
 20
73.332321
 30
0.0
 11
50.213495
 21
71.485725
 31
0.0
  0
LINE
  5
1AA
330
1F
100
AcDbEntity
  8
001
 62
   140
370
    50
100
AcDbLine
 10
65.213495
 20
60.038258
 30
0.0
 11
65.213495
 21
72.332321
 31
0.0
  0
LINE
  5
1AB
330
1F
100
AcDbEntity
  8
001
 62
   140
370
    50
100
AcDbLine
 10
56.811107
 20
66.475056
 30
0.0
 11
62.255032
 21
57.079795
 31
0.0
  0
POLYLINE
  5
1AC
330
1F
100
AcDbEntity
  8
001
 62
   140
370
    50
100
AcDb2dPolyline
 66
     1
 10
0.0
 20
0.0
 30
0.0
  0
VERTEX
  5
1AE
330
1AC
100
AcDbEntity
  8
001
 62
   140
370
    50
100
AcDbVertex
100
AcDb2dVertex
 10
51.632879
 20
69.456543
 30
0.0
  0
VERTEX
  5
1AF
330
1AC
100
AcDbEntity
  8
001
 62
   140
370
    50
100
AcDbVertex
100
AcDb2dVertex
 10
51.590417
 20
69.312395
 30
0.0
  0
VERTEX
  5
1B0
330
1AC
100
AcDbEntity
  8
001
 62
   140
370
    50
100
AcDbVertex
100
AcDb2dVertex
 10
51.540002
 20
69.108922
 30
0.0
  0
VERTEX
  5
1B1
330
1AC
100
AcDbEntity
  8
001
 62
   140
370
    50
100
AcDbVertex
100
AcDb2dVertex
 10
51.496157
 20
68.837521
 30
0.0
  0
VERTEX
  5
1B2
330
1AC
100
AcDbEntity
  8
001
 62
   140
370
    50
100
AcDbVertex
100
AcDb2dVertex
 10
51.481309
 20
68.591458
 30
0.0
  0
VERTEX
  5
1B3
330
1AC
100
AcDbEntity
  8
001
 62
   140
370
    50
100
AcDbVertex
100
AcDb2dVertex
 10
51.48359
 20
68.340878
 30
0.0
  0
VERTEX
  5
1B4
330
1AC
100
AcDbEntity
  8
001
 62
   140
370
    50
100
AcDbVertex
100
AcDb2dVertex
 10
51.513686
 20
68.071425
 30
0.0
  0
VERTEX
  5
1B5
330
1AC
100
AcDbEntity
  8
001
 62
   140
370
    50
100
AcDbVertex
100
AcDb2dVertex
 10
51.680266
 20
67.477157
 30
0.0
  0
VERTEX
  5
1B6
330
1AC
100
AcDbEntity
  8
001
 62
   140
370
    50
100
AcDbVertex
100
AcDb2dVertex
 10
51.861451
 20
67.056634
 30
0.0
  0
SEQEND
  5
1AD
330
1AC
100
AcDbEntity
  8
001
370
    50
  0
POLYLINE
  5
1B7
330
1F
100
AcDbEntity
  8
001
 62
   140
370
    50
100
AcDb2dPolyline
 66
     1
 10
0.0
 20
0.0
 30
0.0
  0
VERTEX
  5
1B9
330
1B7
100
AcDbEntity
  8
001
 62
   140
370
    50
100
AcDbVertex
100
AcDb2dVertex
 10
51.569117
 20
69.30687
 30
0.0
  0
VERTEX
  5
1BA
330
1B7
100
AcDbEntity
  8
001
 62
   140
370
    50
100
AcDbVertex
100
AcDb2dVertex
 10
51.500372
 20
69.09875
 30
0.0
  0
VERTEX
  5
1BB
330
1B7
100
AcDbEntity
  8
001
 62
   140
370
    50
100
AcDbVertex
100
AcDb2dVertex
 10
51.419446
 20
68.803412
 30
0.0
  0
VERTEX
  5
1BC
330
1B7
100
AcDbEntity
  8
001
 62
   140
370
    50
100
AcDbVertex
100
AcDb2dVertex
 10
51.338304
 20
68.269307
 30
0.0
  0
VERTEX
  5
1BD
330
1B7
100
AcDbEntity
  8
001
 62
   140
370
    50
100
AcDbVertex
100
AcDb2dVertex
 10
51.389952
 20
67.757861
 30
0.0
  0
VERTEX
  5
1BE
330
1B7
100
AcDbEntity
  8
001
 62
   140
370
    50
100
AcDbVertex
100
AcDb2dVertex
 10
51.642613
 20
66.991626
 30
0.0
  0
VERTEX
  5
1BF
330
1B7
100
AcDbEntity
  8
001
 62
   140
370
    50
100
AcDbVertex
100
AcDb2dVertex
 10
51.91595
 20
66.449425
 30
0.0
  0
SEQEND
  5
1B8
330
1B7
100
AcDbEntity
  8
001
370
    50
  0
POLYLINE
  5
1C0
330
1F
100
AcDbEntity
  8
001
 62
   140
370
    50
100
AcDb2dPolyline
 66
     1
 10
0.0
 20
0.0
 30
0.0
  0
VERTEX
  5
1C2
330
1C0
100
AcDbEntity
  8
001
 62
   140
370
    50
100
AcDbVertex
100
AcDb2dVertex
 10
57.150295
 20
67.104498
 30
0.0
  0
VERTEX
  5
1C3
330
1C0
100
AcDbEntity
  8
001
 62
   140
370
    50
100
AcDbVertex
100
AcDb2dVertex
 10
57.21973
 20
67.311579
 30
0.0
  0
VERTEX
  5
1C4
330
1C0
100
AcDbEntity
  8
001
 62
   140
370
    50
100
AcDbVertex
100
AcDb2dVertex
 10
57.299966
 20
67.607956
 30
0.0
  0
VERTEX
  5
1C5
330
1C0
100
AcDbEntity
  8
001
 62
   140
370
    50
100
AcDbVertex
100
AcDb2dVertex
 10
57.371519
 20
68.156506
 30
0.0
  0
VERTEX
  5
1C6
330
1C0
100
AcDbEntity
  8
001
 62
   140
370
    50
100
AcDbVertex
100
AcDb2dVertex
 10
57.32946
 20
68.653507
 30
0.0
  0
VERTEX
  5
1C7
330
1C0
100
AcDbEntity
  8
001
 62
   140
370
    50
100
AcDbVertex
100
AcDb2dVertex
 10
57.10874
 20
69.397674
 30
0.0
  0
VERTEX
  5
1C8
330
1C0
100
AcDbEntity
  8
001
 62
   140
370
    50
100
AcDbVertex
100
AcDb2dVertex
 10
56.712882
 20
70.082523
 30
0.0
  0
VERTEX
  5
1C9
330
1C0
100
AcDbEntity
  8
001
 62
   140
370
    50
100
AcDbVertex
100
AcDb2dVertex
 10
56.541727
 20
70.281471
 30
0.0
  0
VERTEX
  5
1CA
330
1C0
100
AcDbEntity
  8
001
 62
   140
370
    50
100
AcDbVertex
100
AcDb2dVertex
 10
56.353506
 20
70.462974
 30
0.0
  0
VERTEX
  5
1CB
330
1C0
100
AcDbEntity
  8
001
 62
   140
370
    50
100
AcDbVertex
100
AcDb2dVertex
 10
56.150303
 20
70.627876
 30
0.0
  0
VERTEX
  5
1CC
330
1C0
100
AcDbEntity
  8
001
 62
   140
370
    50
100
AcDbVertex
100
AcDb2dVertex
 10
55.933549
 20
70.774838
 30
0.0
  0
VERTEX
  5
1CD
330
1C0
100
AcDbEntity
  8
001
 62
   140
370
    50
100
AcDbVertex
100
AcDb2dVertex
 10
55.70479
 20
70.902036
 30
0.0
  0
VERTEX
  5
1CE
330
1C0
100
AcDbEntity
  8
001
 62
   140
370
    50
100
AcDbVertex
100
AcDb2dVertex
 10
55.465772
 20
71.008641
 30
0.0
  0
VERTEX
  5
1CF
330
1C0
100
AcDbEntity
  8
001
 62
   140
370
    50
100
AcDbVertex
100
AcDb2dVertex
 10
55.218364
 20
71.093983
 30
0.0
  0
VERTEX
  5
1D0
330
1C0
100
AcDbEntity
  8
001
 62
   140
370
    50
100
AcDbVertex
100
AcDb2dVertex
 10
54.964388
 20
71.157276
 30
0.0
  0
VERTEX
  5
1D1
330
1C0
100
AcDbEntity
  8
001
 62
   140
370
    50
100
AcDbVertex
100
AcDb2dVertex
 10
54.705685
 20
71.197933
 30
0.0
  0
VERTEX
  5
1D2
330
1C0
100
AcDbEntity
  8
001
 62
   140
370
    50
100
AcDbVertex
100
AcDb2dVertex
 10
54.444631
 20
71.216229
 30
0.0
  0
VERTEX
  5
1D3
330
1C0
100
AcDbEntity
  8
001
 62
   140
370
    50
100
AcDbVertex
100
AcDb2dVertex
 10
54.183184
 20
71.212168
 30
0.0
  0
VERTEX
  5
1D4
330
1C0
100
AcDbEntity
  8
001
 62
   140
370
    50
100
AcDbVertex
100
AcDb2dVertex
 10
53.922293
 20
71.183709
 30
0.0
  0
VERTEX
  5
1D5
330
1C0
100
AcDbEntity
  8
001
 62
   140
370
    50
100
AcDbVertex
100
AcDb2dVertex
 10
53.165438
 20
70.953728
 30
0.0
  0
VERTEX
  5
1D6
330
1C0
100
AcDbEntity
  8
001
 62
   140
370
    50
100
AcDbVertex
100
AcDb2dVertex
 10
52.496018
 20
70.560817
 30
0.0
  0
VERTEX
  5
1D7
330
1C0
100
AcDbEntity
  8
001
 62
   140
370
    50
100
AcDbVertex
100
AcDb2dVertex
 10
52.125901
 20
70.226464
 30
0.0
  0
VERTEX
  5
1D8
330
1C0
100
AcDbEntity
  8
001
 62
   140
370
    50
100
AcDbVertex
100
AcDb2dVertex
 10
51.803578
 20
69.776869
 30
0.0
  0
VERTEX
  5
1D9
330
1C0
100
AcDbEntity
  8
001
 62
   140
370
    50
100
AcDbVertex
100
AcDb2dVertex
 10
51.659804
 20
69.505565
 30
0.0
  0
VERTEX
  5
1DA
330
1C0
100
AcDbEntity
  8
001
 62
   140
370
    50
100
AcDbVertex
100
AcDb2dVertex
 10
51.569117
 20
69.30687
 30
0.0
  0
SEQEND
  5
1C1
330
1C0
100
AcDbEntity
  8
001
370
    50
  0
POLYLINE
  5
1DB
330
1F
100
AcDbEntity
  8
001
 62
   140
370
    50
100
AcDb2dPolyline
 66
     1
 10
0.0
 20
0.0
 30
0.0
  0
VERTEX
  5
1DD
330
1DB
100
AcDbEntity
  8
001
 62
   140
370
    50
100
AcDbVertex
100
AcDb2dVertex
 10
57.110648
 20
67.067832
 30
0.0
  0
VERTEX
  5
1DE
330
1DB
100
AcDbEntity
  8
001
 62
   140
370
    50
100
AcDbVertex
100
AcDb2dVertex
 10
57.131055
 20
67.105799
 30
0.0
  0
VERTEX
  5
1DF
330
1DB
100
AcDbEntity
  8
001
 62
   140
370
    50
100
AcDbVertex
100
AcDb2dVertex
 10
57.159977
 20
67.161758
 30
0.0
  0
VERTEX
  5
1E0
330
1DB
100
AcDbEntity
  8
001
 62
   140
370
    50
100
AcDbVertex
100
AcDb2dVertex
 10
57.18763
 20
67.218352
 30
0.0
  0
VERTEX
  5
1E1
330
1DB
100
AcDbEntity
  8
001
 62
   140
370
    50
100
AcDbVertex
100
AcDb2dVertex
 10
57.205924
 20
67.257381
 30
0.0
  0
SEQEND
  5
1DC
330
1DB
100
AcDbEntity
  8
001
370
    50
  0
LINE
  5
1E2
330
1F
100
AcDbEntity
  8
001
 62
   140
370
    50
100
AcDbLine
 10
51.861451
 20
67.056634
 30
0.0
 11
51.79291
 21
66.88294
 31
0.0
  0
POLYLINE
  5
1E3
330
1F
100
AcDbEntity
  8
001
 62
   140
370
    50
100
AcDb2dPolyline
 66
     1
 10
0.0
 20
0.0
 30
0.0
  0
VERTEX
  5
1E5
330
1E3
100
AcDbEntity
  8
001
 62
   140
370
    50
100
AcDbVertex
100
AcDb2dVertex
 10
51.79291
 20
66.88294
 30
0.0
  0
VERTEX
  5
1E6
330
1E3
100
AcDbEntity
  8
001
 62
   140
370
    50
100
AcDbVertex
100
AcDb2dVertex
 10
51.827257
 20
66.823419
 30
0.0
  0
VERTEX
  5
1E7
330
1E3
100
AcDbEntity
  8
001
 62
   140
370
    50
100
AcDbVertex
100
AcDb2dVertex
 10
51.879648
 20
66.737767
 30
0.0
  0
VERTEX
  5
1E8
330
1E3
100
AcDbEntity
  8
001
 62
   140
370
    50
100
AcDbVertex
100
AcDb2dVertex
 10
51.935069
 20
66.654015
 30
0.0
  0
VERTEX
  5
1E9
330
1E3
100
AcDbEntity
  8
001
 62
   140
370
    50
100
AcDbVertex
100
AcDb2dVertex
 10
51.974453
 20
66.597681
 30
0.0
  0
SEQEND
  5
1E4
330
1E3
100
AcDbEntity
  8
001
370
    50
  0
LINE
  5
1EA
330
1F
100
AcDbEntity
  8
001
 62
   140
370
    50
100
AcDbLine
 10
56.811107
 20
66.475056
 30
0.0
 11
56.863725
 21
66.608401
 31
0.0
  0
POLYLINE
  5
1EB
330
1F
100
AcDbEntity
  8
001
 62
   140
370
    50
100
AcDb2dPolyline
 66
     1
 10
0.0
 20
0.0
 30
0.0
  0
VERTEX
  5
1ED
330
1EB
100
AcDbEntity
  8
001
 62
   140
370
    50
100
AcDbVertex
100
AcDb2dVertex
 10
56.863725
 20
66.608401
 30
0.0
  0
VERTEX
  5
1EE
330
1EB
100
AcDbEntity
  8
001
 62
   140
370
    50
100
AcDbVertex
100
AcDb2dVertex
 10
56.907131
 20
66.67184
 30
0.0
  0
VERTEX
  5
1EF
330
1EB
100
AcDbEntity
  8
001
 62
   140
370
    50
100
AcDbVertex
100
AcDb2dVertex
 10
56.967849
 20
66.766314
 30
0.0
  0
VERTEX
  5
1F0
330
1EB
100
AcDbEntity
  8
001
 62
   140
370
    50
100
AcDbVertex
100
AcDb2dVertex
 10
57.01263
 20
66.841799
 30
0.0
  0
VERTEX
  5
1F1
330
1EB
100
AcDbEntity
  8
001
 62
   140
370
    50
100
AcDbVertex
100
AcDb2dVertex
 10
57.042107
 20
66.894137
 30
0.0
  0
SEQEND
  5
1EC
330
1EB
100
AcDbEntity
  8
001
370
    50
  0
LINE
  5
1F2
330
1F
100
AcDbEntity
  8
001
 62
   140
370
    50
100
AcDbLine
 10
57.042107
 20
66.894137
 30
0.0
 11
57.110648
 21
67.067832
 31
0.0
  0
LINE
  5
1F3
330
1F
100
AcDbEntity
  8
001
 62
   140
370
    50
100
AcDbLine
 10
51.974453
 20
66.597681
 30
0.0
 11
51.91595
 21
66.449425
 31
0.0
  0
LINE
  5
1F4
330
1F
100
AcDbEntity
  8
001
 62
   140
370
    50
100
AcDbLine
 10
62.155597
 20
56.980359
 30
0.0
 11
62.019679
 21
56.980061
 31
0.0
  0
LINE
  5
1F5
330
1F
100
AcDbEntity
  8
001
 62
   140
370
    50
100
AcDbLine
 10
65.213495
 20
60.038258
 30
0.0
 11
62.155597
 21
56.980359
 31
0.0
  0
POLYLINE
  5
1F6
330
1F
100
AcDbEntity
  8
001
 62
   200
370
    50
100
AcDb2dPolyline
 66
     1
 10
0.0
 20
0.0
 30
0.0
  0
VERTEX
  5
1F8
330
1F6
100
AcDbEntity
  8
001
 62
   200
370
    50
100
AcDbVertex
100
AcDb2dVertex
 10
55.16419
 20
69.803461
 30
0.0
  0
VERTEX
  5
1F9
330
1F6
100
AcDbEntity
  8
001
 62
   200
370
    50
100
AcDbVertex
100
AcDb2dVertex
 10
55.138346
 20
69.84355
 30
0.0
  0
VERTEX
  5
1FA
330
1F6
100
AcDbEntity
  8
001
 62
   200
370
    50
100
AcDbVertex
100
AcDb2dVertex
 10
55.099141
 20
69.898262
 30
0.0
  0
VERTEX
  5
1FB
330
1F6
100
AcDbEntity
  8
001
 62
   200
370
    50
100
AcDbVertex
100
AcDb2dVertex
 10
54.999268
 20
70.005613
 30
0.0
  0
VERTEX
  5
1FC
330
1F6
100
AcDbEntity
  8
001
 62
   200
370
    50
100
AcDbVertex
100
AcDb2dVertex
 10
54.891011
 20
70.082098
 30
0.0
  0
VERTEX
  5
1FD
330
1F6
100
AcDbEntity
  8
001
 62
   200
370
    50
100
AcDbVertex
100
AcDb2dVertex
 10
54.830316
 20
70.115322
 30
0.0
  0
VERTEX
  5
1FE
330
1F6
100
AcDbEntity
  8
001
 62
   200
370
    50
100
AcDbVertex
100
AcDb2dVertex
 10
54.766231
 20
70.144345
 30
0.0
  0
VERTEX
  5
1FF
330
1F6
100
AcDbEntity
  8
001
 62
   200
370
    50
100
AcDbVertex
100
AcDb2dVertex
 10
54.700186
 20
70.167303
 30
0.0
  0
VERTEX
  5
200
330
1F6
100
AcDbEntity
  8
001
 62
   200
370
    50
100
AcDbVertex
100
AcDb2dVertex
 10
54.632568
 20
70.184081
 30
0.0
  0
VERTEX
  5
201
330
1F6
100
AcDbEntity
  8
001
 62
   200
370
    50
100
AcDbVertex
100
AcDb2dVertex
 10
54.494326
 20
70.199855
 30
0.0
  0
VERTEX
  5
202
330
1F6
100
AcDbEntity
  8
001
 62
   200
370
    50
100
AcDbVertex
100
AcDb2dVertex
 10
54.354984
 20
70.191911
 30
0.0
  0
VERTEX
  5
203
330
1F6
100
AcDbEntity
  8
001
 62
   200
370
    50
100
AcDbVertex
100
AcDb2dVertex
 10
54.155141
 20
70.135778
 30
0.0
  0
VERTEX
  5
204
330
1F6
100
AcDbEntity
  8
001
 62
   200
370
    50
100
AcDbVertex
100
AcDb2dVertex
 10
53.975595
 20
70.028216
 30
0.0
  0
VERTEX
  5
205
330
1F6
100
AcDbEntity
  8
001
 62
   200
370
    50
100
AcDbVertex
100
AcDb2dVertex
 10
53.922218
 20
69.981465
 30
0.0
  0
VERTEX
  5
206
330
1F6
100
AcDbEntity
  8
001
 62
   200
370
    50
100
AcDbVertex
100
AcDb2dVertex
 10
53.874589
 20
69.932805
 30
0.0
  0
VERTEX
  5
207
330
1F6
100
AcDbEntity
  8
001
 62
   200
370
    50
100
AcDbVertex
100
AcDb2dVertex
 10
53.833147
 20
69.88303
 30
0.0
  0
VERTEX
  5
208
330
1F6
100
AcDbEntity
  8
001
 62
   200
370
    50
100
AcDbVertex
100
AcDb2dVertex
 10
53.791792
 20
69.821311
 30
0.0
  0
VERTEX
  5
209
330
1F6
100
AcDbEntity
  8
001
 62
   200
370
    50
100
AcDbVertex
100
AcDb2dVertex
 10
53.784427
 20
69.809026
 30
0.0
  0
VERTEX
  5
20A
330
1F6
100
AcDbEntity
  8
001
 62
   200
370
    50
100
AcDbVertex
100
AcDb2dVertex
 10
53.77939
 20
69.800425
 30
0.0
  0
SEQEND
  5
1F7
330
1F6
100
AcDbEntity
  8
001
370
    50
  0
POLYLINE
  5
20B
330
1F
100
AcDbEntity
  8
001
 62
   200
370
    50
100
AcDb2dPolyline
 66
     1
 10
0.0
 20
0.0
 30
0.0
  0
VERTEX
  5
20D
330
20B
100
AcDbEntity
  8
001
 62
   200
370
    50
100
AcDbVertex
100
AcDb2dVertex
 10
55.000242
 20
69.387989
 30
0.0
  0
VERTEX
  5
20E
330
20B
100
AcDbEntity
  8
001
 62
   200
370
    50
100
AcDbVertex
100
AcDb2dVertex
 10
54.974397
 20
69.428078
 30
0.0
  0
VERTEX
  5
20F
330
20B
100
AcDbEntity
  8
001
 62
   200
370
    50
100
AcDbVertex
100
AcDb2dVertex
 10
54.935193
 20
69.482789
 30
0.0
  0
VERTEX
  5
210
330
20B
100
AcDbEntity
  8
001
 62
   200
370
    50
100
AcDbVertex
100
AcDb2dVertex
 10
54.83532
 20
69.59014
 30
0.0
  0
VERTEX
  5
211
330
20B
100
AcDbEntity
  8
001
 62
   200
370
    50
100
AcDbVertex
100
AcDb2dVertex
 10
54.727062
 20
69.666625
 30
0.0
  0
VERTEX
  5
212
330
20B
100
AcDbEntity
  8
001
 62
   200
370
    50
100
AcDbVertex
100
AcDb2dVertex
 10
54.666367
 20
69.69985
 30
0.0
  0
VERTEX
  5
213
330
20B
100
AcDbEntity
  8
001
 62
   200
370
    50
100
AcDbVertex
100
AcDb2dVertex
 10
54.602282
 20
69.728872
 30
0.0
  0
VERTEX
  5
214
330
20B
100
AcDbEntity
  8
001
 62
   200
370
    50
100
AcDbVertex
100
AcDb2dVertex
 10
54.536238
 20
69.75183
 30
0.0
  0
VERTEX
  5
215
330
20B
100
AcDbEntity
  8
001
 62
   200
370
    50
100
AcDbVertex
100
AcDb2dVertex
 10
54.468619
 20
69.768608
 30
0.0
  0
VERTEX
  5
216
330
20B
100
AcDbEntity
  8
001
 62
   200
370
    50
100
AcDbVertex
100
AcDb2dVertex
 10
54.330377
 20
69.784382
 30
0.0
  0
VERTEX
  5
217
330
20B
100
AcDbEntity
  8
001
 62
   200
370
    50
100
AcDbVertex
100
AcDb2dVertex
 10
54.191036
 20
69.776439
 30
0.0
  0
VERTEX
  5
218
330
20B
100
AcDbEntity
  8
001
 62
   200
370
    50
100
AcDbVertex
100
AcDb2dVertex
 10
53.991192
 20
69.720305
 30
0.0
  0
VERTEX
  5
219
330
20B
100
AcDbEntity
  8
001
 62
   200
370
    50
100
AcDbVertex
100
AcDb2dVertex
 10
53.811646
 20
69.612743
 30
0.0
  0
VERTEX
  5
21A
330
20B
100
AcDbEntity
  8
001
 62
   200
370
    50
100
AcDbVertex
100
AcDb2dVertex
 10
53.758269
 20
69.565992
 30
0.0
  0
VERTEX
  5
21B
330
20B
100
AcDbEntity
  8
001
 62
   200
370
    50
100
AcDbVertex
100
AcDb2dVertex
 10
53.71064
 20
69.517332
 30
0.0
  0
VERTEX
  5
21C
330
20B
100
AcDbEntity
  8
001
 62
   200
370
    50
100
AcDbVertex
100
AcDb2dVertex
 10
53.669198
 20
69.467557
 30
0.0
  0
VERTEX
  5
21D
330
20B
100
AcDbEntity
  8
001
 62
   200
370
    50
100
AcDbVertex
100
AcDb2dVertex
 10
53.627843
 20
69.405838
 30
0.0
  0
VERTEX
  5
21E
330
20B
100
AcDbEntity
  8
001
 62
   200
370
    50
100
AcDbVertex
100
AcDb2dVertex
 10
53.620479
 20
69.393553
 30
0.0
  0
VERTEX
  5
21F
330
20B
100
AcDbEntity
  8
001
 62
   200
370
    50
100
AcDbVertex
100
AcDb2dVertex
 10
53.615442
 20
69.384953
 30
0.0
  0
SEQEND
  5
20C
330
20B
100
AcDbEntity
  8
001
370
    50
  0
POLYLINE
  5
220
330
1F
100
AcDbEntity
  8
001
 62
   200
370
    50
100
AcDb2dPolyline
 66
     1
 10
0.0
 20
0.0
 30
0.0
  0
VERTEX
  5
222
330
220
100
AcDbEntity
  8
001
 62
   200
370
    50
100
AcDbVertex
100
AcDb2dVertex
 10
46.818362
 20
57.527812
 30
0.0
  0
VERTEX
  5
223
330
220
100
AcDbEntity
  8
001
 62
   200
370
    50
100
AcDbVertex
100
AcDb2dVertex
 10
46.807109
 20
57.507399
 30
0.0
  0
VERTEX
  5
224
330
220
100
AcDbEntity
  8
001
 62
   200
370
    50
100
AcDbVertex
100
AcDb2dVertex
 10
46.791657
 20
57.477057
 30
0.0
  0
VERTEX
  5
225
330
220
100
AcDbEntity
  8
001
 62
   200
370
    50
100
AcDbVertex
100
AcDb2dVertex
 10
46.777608
 20
57.446043
 30
0.0
  0
VERTEX
  5
226
330
220
100
AcDbEntity
  8
001
 62
   200
370
    50
100
AcDbVertex
100
AcDb2dVertex
 10
46.768691
 20
57.424507
 30
0.0
  0
SEQEND
  5
221
330
220
100
AcDbEntity
  8
001
370
    50
  0
LINE
  5
227
330
1F
100
AcDbEntity
  8
001
 62
   200
370
    50
100
AcDbLine
 10
53.615442
 20
69.384953
 30
0.0
 11
46.818362
 21
57.527812
 31
0.0
  0
LINE
  5
228
330
1F
100
AcDbEntity
  8
001
 62
   200
370
    50
100
AcDbLine
 10
61.921333
 20
57.560925
 30
0.0
 11
55.000242
 21
69.387989
 31
0.0
  0
POLYLINE
  5
229
330
1F
100
AcDbEntity
  8
001
 62
   200
370
    50
100
AcDb2dPolyline
 66
     1
 10
0.0
 20
0.0
 30
0.0
  0
VERTEX
  5
22B
330
229
100
AcDbEntity
  8
001
 62
   200
370
    50
100
AcDbVertex
100
AcDb2dVertex
 10
61.235192
 20
56.36399
 30
0.0
  0
VERTEX
  5
22C
330
229
100
AcDbEntity
  8
001
 62
   200
370
    50
100
AcDbVertex
100
AcDb2dVertex
 10
61.282616
 20
56.366149
 30
0.0
  0
VERTEX
  5
22D
330
229
100
AcDbEntity
  8
001
 62
   200
370
    50
100
AcDbVertex
100
AcDb2dVertex
 10
61.349912
 20
56.372494
 30
0.0
  0
VERTEX
  5
22E
330
229
100
AcDbEntity
  8
001
 62
   200
370
    50
100
AcDbVertex
100
AcDb2dVertex
 10
61.561524
 20
56.429126
 30
0.0
  0
VERTEX
  5
22F
330
229
100
AcDbEntity
  8
001
 62
   200
370
    50
100
AcDbVertex
100
AcDb2dVertex
 10
61.729302
 20
56.536189
 30
0.0
  0
VERTEX
  5
230
330
229
100
AcDbEntity
  8
001
 62
   200
370
    50
100
AcDbVertex
100
AcDb2dVertex
 10
61.781698
 20
56.582522
 30
0.0
  0
VERTEX
  5
231
330
229
100
AcDbEntity
  8
001
 62
   200
370
    50
100
AcDbVertex
100
AcDb2dVertex
 10
61.830308
 20
56.6316
 30
0.0
  0
VERTEX
  5
232
330
229
100
AcDbEntity
  8
001
 62
   200
370
    50
100
AcDbVertex
100
AcDb2dVertex
 10
61.87319
 20
56.682758
 30
0.0
  0
VERTEX
  5
233
330
229
100
AcDbEntity
  8
001
 62
   200
370
    50
100
AcDbVertex
100
AcDb2dVertex
 10
61.913105
 20
56.743095
 30
0.0
  0
VERTEX
  5
234
330
229
100
AcDbEntity
  8
001
 62
   200
370
    50
100
AcDbVertex
100
AcDb2dVertex
 10
61.950885
 20
56.814096
 30
0.0
  0
VERTEX
  5
235
330
229
100
AcDbEntity
  8
001
 62
   200
370
    50
100
AcDbVertex
100
AcDb2dVertex
 10
61.975177
 20
56.867285
 30
0.0
  0
SEQEND
  5
22A
330
229
100
AcDbEntity
  8
001
370
    50
  0
LINE
  5
236
330
1F
100
AcDbEntity
  8
001
 62
   200
370
    50
100
AcDbLine
 10
47.517021
 20
56.333913
 30
0.0
 11
61.235192
 21
56.36399
 31
0.0
  0
POLYLINE
  5
237
330
1F
100
AcDbEntity
  8
001
 62
   200
370
    50
100
AcDb2dPolyline
 66
     1
 10
0.0
 20
0.0
 30
0.0
  0
VERTEX
  5
239
330
237
100
AcDbEntity
  8
001
 62
   200
370
    50
100
AcDbVertex
100
AcDb2dVertex
 10
54.351265
 20
62.986003
 30
0.0
  0
VERTEX
  5
23A
330
237
100
AcDbEntity
  8
001
 62
   200
370
    50
100
AcDbVertex
100
AcDb2dVertex
 10
54.234486
 20
62.981112
 30
0.0
  0
VERTEX
  5
23B
330
237
100
AcDbEntity
  8
001
 62
   200
370
    50
100
AcDbVertex
100
AcDb2dVertex
 10
54.068895
 20
62.965809
 30
0.0
  0
VERTEX
  5
23C
330
237
100
AcDbEntity
  8
001
 62
   200
370
    50
100
AcDbVertex
100
AcDb2dVertex
 10
53.566505
 20
62.831449
 30
0.0
  0
VERTEX
  5
23D
330
237
100
AcDbEntity
  8
001
 62
   200
370
    50
100
AcDbVertex
100
AcDb2dVertex
 10
53.167846
 20
62.577033
 30
0.0
  0
VERTEX
  5
23E
330
237
100
AcDbEntity
  8
001
 62
   200
370
    50
100
AcDbVertex
100
AcDb2dVertex
 10
53.043393
 20
62.466987
 30
0.0
  0
VERTEX
  5
23F
330
237
100
AcDbEntity
  8
001
 62
   200
370
    50
100
AcDbVertex
100
AcDb2dVertex
 10
52.927956
 20
62.350432
 30
0.0
  0
VERTEX
  5
240
330
237
100
AcDbEntity
  8
001
 62
   200
370
    50
100
AcDbVertex
100
AcDb2dVertex
 10
52.826114
 20
62.228935
 30
0.0
  0
VERTEX
  5
241
330
237
100
AcDbEntity
  8
001
 62
   200
370
    50
100
AcDbVertex
100
AcDb2dVertex
 10
52.731313
 20
62.085633
 30
0.0
  0
VERTEX
  5
242
330
237
100
AcDbEntity
  8
001
 62
   200
370
    50
100
AcDbVertex
100
AcDb2dVertex
 10
52.641584
 20
61.917005
 30
0.0
  0
VERTEX
  5
243
330
237
100
AcDbEntity
  8
001
 62
   200
370
    50
100
AcDbVertex
100
AcDb2dVertex
 10
52.583892
 20
61.790681
 30
0.0
  0
SEQEND
  5
238
330
237
100
AcDbEntity
  8
001
370
    50
  0
LINE
  5
244
330
1F
100
AcDbEntity
  8
001
 62
   200
370
    50
100
AcDbLine
 10
56.954288
 20
66.744464
 30
0.0
 11
55.16419
 21
69.803461
 31
0.0
  0
LINE
  5
245
330
1F
100
AcDbEntity
  8
001
 62
   200
370
    50
100
AcDbLine
 10
53.77939
 20
69.800425
 30
0.0
 11
51.957272
 21
66.621838
 31
0.0
  0
LINE
  5
246
330
1F
100
AcDbEntity
  8
001
 62
   200
370
    50
100
AcDbLine
 10
47.213495
 20
58.346574
 30
0.0
 11
46.98231
 21
57.943285
 31
0.0
  0
POLYLINE
  5
247
330
1F
100
AcDbEntity
  8
001
 62
   200
370
    50
100
AcDb2dPolyline
 66
     1
 10
0.0
 20
0.0
 30
0.0
  0
VERTEX
  5
249
330
247
100
AcDbEntity
  8
001
 62
   200
370
    50
100
AcDbVertex
100
AcDb2dVertex
 10
52.678227
 20
61.99354
 30
0.0
  0
VERTEX
  5
24A
330
247
100
AcDbEntity
  8
001
 62
   200
370
    50
100
AcDbVertex
100
AcDb2dVertex
 10
52.667792
 20
61.950893
 30
0.0
  0
VERTEX
  5
24B
330
247
100
AcDbEntity
  8
001
 62
   200
370
    50
100
AcDbVertex
100
AcDb2dVertex
 10
52.65412
 20
61.890012
 30
0.0
  0
VERTEX
  5
24C
330
247
100
AcDbEntity
  8
001
 62
   200
370
    50
100
AcDbVertex
100
AcDb2dVertex
 10
52.625777
 20
61.717016
 30
0.0
  0
VERTEX
  5
24D
330
247
100
AcDbEntity
  8
001
 62
   200
370
    50
100
AcDbVertex
100
AcDb2dVertex
 10
52.616948
 20
61.562284
 30
0.0
  0
VERTEX
  5
24E
330
247
100
AcDbEntity
  8
001
 62
   200
370
    50
100
AcDbVertex
100
AcDb2dVertex
 10
52.620659
 20
61.400263
 30
0.0
  0
VERTEX
  5
24F
330
247
100
AcDbEntity
  8
001
 62
   200
370
    50
100
AcDbVertex
100
AcDb2dVertex
 10
52.637453
 20
61.23293
 30
0.0
  0
VERTEX
  5
250
330
247
100
AcDbEntity
  8
001
 62
   200
370
    50
100
AcDbVertex
100
AcDb2dVertex
 10
52.77465
 20
60.755502
 30
0.0
  0
VERTEX
  5
251
330
247
100
AcDbEntity
  8
001
 62
   200
370
    50
100
AcDbVertex
100
AcDb2dVertex
 10
53.03021
 20
60.333608
 30
0.0
  0
VERTEX
  5
252
330
247
100
AcDbEntity
  8
001
 62
   200
370
    50
100
AcDbVertex
100
AcDb2dVertex
 10
53.258762
 20
60.093689
 30
0.0
  0
VERTEX
  5
253
330
247
100
AcDbEntity
  8
001
 62
   200
370
    50
100
AcDbVertex
100
AcDb2dVertex
 10
53.52452
 20
59.896998
 30
0.0
  0
VERTEX
  5
254
330
247
100
AcDbEntity
  8
001
 62
   200
370
    50
100
AcDbVertex
100
AcDb2dVertex
 10
53.66953
 20
59.816593
 30
0.0
  0
VERTEX
  5
255
330
247
100
AcDbEntity
  8
001
 62
   200
370
    50
100
AcDbVertex
100
AcDb2dVertex
 10
53.820873
 20
59.749161
 30
0.0
  0
VERTEX
  5
256
330
247
100
AcDbEntity
  8
001
 62
   200
370
    50
100
AcDbVertex
100
AcDb2dVertex
 10
53.977482
 20
59.695073
 30
0.0
  0
VERTEX
  5
257
330
247
100
AcDbEntity
  8
001
 62
   200
370
    50
100
AcDbVertex
100
AcDb2dVertex
 10
54.138323
 20
59.654787
 30
0.0
  0
VERTEX
  5
258
330
247
100
AcDbEntity
  8
001
 62
   200
370
    50
100
AcDbVertex
100
AcDb2dVertex
 10
54.466783
 20
59.616995
 30
0.0
  0
VERTEX
  5
259
330
247
100
AcDbEntity
  8
001
 62
   200
370
    50
100
AcDbVertex
100
AcDb2dVertex
 10
54.797584
 20
59.63619
 30
0.0
  0
VERTEX
  5
25A
330
247
100
AcDbEntity
  8
001
 62
   200
370
    50
100
AcDbVertex
100
AcDb2dVertex
 10
55.272381
 20
59.769879
 30
0.0
  0
VERTEX
  5
25B
330
247
100
AcDbEntity
  8
001
 62
   200
370
    50
100
AcDbVertex
100
AcDb2dVertex
 10
55.698634
 20
60.024967
 30
0.0
  0
VERTEX
  5
25C
330
247
100
AcDbEntity
  8
001
 62
   200
370
    50
100
AcDbVertex
100
AcDb2dVertex
 10
55.82517
 20
60.13574
 30
0.0
  0
VERTEX
  5
25D
330
247
100
AcDbEntity
  8
001
 62
   200
370
    50
100
AcDbVertex
100
AcDb2dVertex
 10
55.938523
 20
60.251568
 30
0.0
  0
VERTEX
  5
25E
330
247
100
AcDbEntity
  8
001
 62
   200
370
    50
100
AcDbVertex
100
AcDb2dVertex
 10
56.037735
 20
60.370633
 30
0.0
  0
VERTEX
  5
25F
330
247
100
AcDbEntity
  8
001
 62
   200
370
    50
100
AcDbVertex
100
AcDb2dVertex
 10
56.135166
 20
60.516367
 30
0.0
  0
VERTEX
  5
260
330
247
100
AcDbEntity
  8
001
 62
   200
370
    50
100
AcDbVertex
100
AcDb2dVertex
 10
56.166752
 20
60.570179
 30
0.0
  0
VERTEX
  5
261
330
247
100
AcDbEntity
  8
001
 62
   200
370
    50
100
AcDbVertex
100
AcDb2dVertex
 10
56.188253
 20
60.608459
 30
0.0
  0
SEQEND
  5
248
330
247
100
AcDbEntity
  8
001
370
    50
  0
POLYLINE
  5
262
330
1F
100
AcDbEntity
  8
001
 62
   200
370
    50
100
AcDb2dPolyline
 66
     1
 10
0.0
 20
0.0
 30
0.0
  0
VERTEX
  5
264
330
262
100
AcDbEntity
  8
001
 62
   200
370
    50
100
AcDbVertex
100
AcDb2dVertex
 10
56.118639
 20
60.395846
 30
0.0
  0
VERTEX
  5
265
330
262
100
AcDbEntity
  8
001
 62
   200
370
    50
100
AcDbVertex
100
AcDb2dVertex
 10
56.162813
 20
60.527475
 30
0.0
  0
VERTEX
  5
266
330
262
100
AcDbEntity
  8
001
 62
   200
370
    50
100
AcDbVertex
100
AcDb2dVertex
 10
56.212359
 20
60.711988
 30
0.0
  0
VERTEX
  5
267
330
262
100
AcDbEntity
  8
001
 62
   200
370
    50
100
AcDbVertex
100
AcDb2dVertex
 10
56.240685
 20
60.881664
 30
0.0
  0
VERTEX
  5
268
330
262
100
AcDbEntity
  8
001
 62
   200
370
    50
100
AcDbVertex
100
AcDb2dVertex
 10
56.249531
 20
61.039715
 30
0.0
  0
VERTEX
  5
269
330
262
100
AcDbEntity
  8
001
 62
   200
370
    50
100
AcDbVertex
100
AcDb2dVertex
 10
56.24585
 20
61.202734
 30
0.0
  0
VERTEX
  5
26A
330
262
100
AcDbEntity
  8
001
 62
   200
370
    50
100
AcDbVertex
100
AcDb2dVertex
 10
56.229026
 20
61.36907
 30
0.0
  0
VERTEX
  5
26B
330
262
100
AcDbEntity
  8
001
 62
   200
370
    50
100
AcDbVertex
100
AcDb2dVertex
 10
56.091308
 20
61.845503
 30
0.0
  0
VERTEX
  5
26C
330
262
100
AcDbEntity
  8
001
 62
   200
370
    50
100
AcDbVertex
100
AcDb2dVertex
 10
55.836269
 20
62.268392
 30
0.0
  0
VERTEX
  5
26D
330
262
100
AcDbEntity
  8
001
 62
   200
370
    50
100
AcDbVertex
100
AcDb2dVertex
 10
55.609016
 20
62.508442
 30
0.0
  0
VERTEX
  5
26E
330
262
100
AcDbEntity
  8
001
 62
   200
370
    50
100
AcDbVertex
100
AcDb2dVertex
 10
55.341959
 20
62.705002
 30
0.0
  0
VERTEX
  5
26F
330
262
100
AcDbEntity
  8
001
 62
   200
370
    50
100
AcDbVertex
100
AcDb2dVertex
 10
55.195029
 20
62.785404
 30
0.0
  0
VERTEX
  5
270
330
262
100
AcDbEntity
  8
001
 62
   200
370
    50
100
AcDbVertex
100
AcDb2dVertex
 10
55.045606
 20
62.852839
 30
0.0
  0
VERTEX
  5
271
330
262
100
AcDbEntity
  8
001
 62
   200
370
    50
100
AcDbVertex
100
AcDb2dVertex
 10
54.895606
 20
62.90689
 30
0.0
  0
VERTEX
  5
272
330
262
100
AcDbEntity
  8
001
 62
   200
370
    50
100
AcDbVertex
100
AcDb2dVertex
 10
54.728156
 20
62.947212
 30
0.0
  0
VERTEX
  5
273
330
262
100
AcDbEntity
  8
001
 62
   200
370
    50
100
AcDbVertex
100
AcDb2dVertex
 10
54.510947
 20
62.976074
 30
0.0
  0
VERTEX
  5
274
330
262
100
AcDbEntity
  8
001
 62
   200
370
    50
100
AcDbVertex
100
AcDb2dVertex
 10
54.351265
 20
62.986003
 30
0.0
  0
SEQEND
  5
263
330
262
100
AcDbEntity
  8
001
370
    50
  0
POLYLINE
  5
275
330
1F
100
AcDbEntity
  8
001
 62
   200
370
    50
100
AcDb2dPolyline
 66
     1
 10
0.0
 20
0.0
 30
0.0
  0
VERTEX
  5
277
330
275
100
AcDbEntity
  8
001
 62
   200
370
    50
100
AcDbVertex
100
AcDb2dVertex
 10
52.583892
 20
61.790681
 30
0.0
  0
VERTEX
  5
278
330
275
100
AcDbEntity
  8
001
 62
   200
370
    50
100
AcDbVertex
100
AcDb2dVertex
 10
52.53972
 20
61.659052
 30
0.0
  0
VERTEX
  5
279
330
275
100
AcDbEntity
  8
001
 62
   200
370
    50
100
AcDbVertex
100
AcDb2dVertex
 10
52.490171
 20
61.474539
 30
0.0
  0
VERTEX
  5
27A
330
275
100
AcDbEntity
  8
001
 62
   200
370
    50
100
AcDbVertex
100
AcDb2dVertex
 10
52.461838
 20
61.304863
 30
0.0
  0
VERTEX
  5
27B
330
275
100
AcDbEntity
  8
001
 62
   200
370
    50
100
AcDbVertex
100
AcDb2dVertex
 10
52.452999
 20
61.146812
 30
0.0
  0
VERTEX
  5
27C
330
275
100
AcDbEntity
  8
001
 62
   200
370
    50
100
AcDbVertex
100
AcDb2dVertex
 10
52.456708
 20
60.983793
 30
0.0
  0
VERTEX
  5
27D
330
275
100
AcDbEntity
  8
001
 62
   200
370
    50
100
AcDbVertex
100
AcDb2dVertex
 10
52.473505
 20
60.817457
 30
0.0
  0
VERTEX
  5
27E
330
275
100
AcDbEntity
  8
001
 62
   200
370
    50
100
AcDbVertex
100
AcDb2dVertex
 10
52.610703
 20
60.341026
 30
0.0
  0
VERTEX
  5
27F
330
275
100
AcDbEntity
  8
001
 62
   200
370
    50
100
AcDbVertex
100
AcDb2dVertex
 10
52.866262
 20
59.918135
 30
0.0
  0
VERTEX
  5
280
330
275
100
AcDbEntity
  8
001
 62
   200
370
    50
100
AcDbVertex
100
AcDb2dVertex
 10
53.094815
 20
59.678079
 30
0.0
  0
VERTEX
  5
281
330
275
100
AcDbEntity
  8
001
 62
   200
370
    50
100
AcDbVertex
100
AcDb2dVertex
 10
53.360572
 20
59.481525
 30
0.0
  0
VERTEX
  5
282
330
275
100
AcDbEntity
  8
001
 62
   200
370
    50
100
AcDbVertex
100
AcDb2dVertex
 10
53.505579
 20
59.401132
 30
0.0
  0
VERTEX
  5
283
330
275
100
AcDbEntity
  8
001
 62
   200
370
    50
100
AcDbVertex
100
AcDb2dVertex
 10
53.656925
 20
59.333688
 30
0.0
  0
VERTEX
  5
284
330
275
100
AcDbEntity
  8
001
 62
   200
370
    50
100
AcDbVertex
100
AcDb2dVertex
 10
53.813543
 20
59.279607
 30
0.0
  0
VERTEX
  5
285
330
275
100
AcDbEntity
  8
001
 62
   200
370
    50
100
AcDbVertex
100
AcDb2dVertex
 10
53.974374
 20
59.239315
 30
0.0
  0
VERTEX
  5
286
330
275
100
AcDbEntity
  8
001
 62
   200
370
    50
100
AcDbVertex
100
AcDb2dVertex
 10
54.30274
 20
59.201423
 30
0.0
  0
VERTEX
  5
287
330
275
100
AcDbEntity
  8
001
 62
   200
370
    50
100
AcDbVertex
100
AcDb2dVertex
 10
54.633635
 20
59.220718
 30
0.0
  0
VERTEX
  5
288
330
275
100
AcDbEntity
  8
001
 62
   200
370
    50
100
AcDbVertex
100
AcDb2dVertex
 10
55.109112
 20
59.355137
 30
0.0
  0
VERTEX
  5
289
330
275
100
AcDbEntity
  8
001
 62
   200
370
    50
100
AcDbVertex
100
AcDb2dVertex
 10
55.534685
 20
59.609494
 30
0.0
  0
VERTEX
  5
28A
330
275
100
AcDbEntity
  8
001
 62
   200
370
    50
100
AcDbVertex
100
AcDb2dVertex
 10
55.660543
 20
59.719537
 30
0.0
  0
VERTEX
  5
28B
330
275
100
AcDbEntity
  8
001
 62
   200
370
    50
100
AcDbVertex
100
AcDb2dVertex
 10
55.774574
 20
59.836095
 30
0.0
  0
VERTEX
  5
28C
330
275
100
AcDbEntity
  8
001
 62
   200
370
    50
100
AcDbVertex
100
AcDb2dVertex
 10
55.876048
 20
59.957592
 30
0.0
  0
VERTEX
  5
28D
330
275
100
AcDbEntity
  8
001
 62
   200
370
    50
100
AcDbVertex
100
AcDb2dVertex
 10
55.971217
 20
60.100894
 30
0.0
  0
VERTEX
  5
28E
330
275
100
AcDbEntity
  8
001
 62
   200
370
    50
100
AcDbVertex
100
AcDb2dVertex
 10
56.061021
 20
60.269522
 30
0.0
  0
VERTEX
  5
28F
330
275
100
AcDbEntity
  8
001
 62
   200
370
    50
100
AcDbVertex
100
AcDb2dVertex
 10
56.118639
 20
60.395846
 30
0.0
  0
SEQEND
  5
276
330
275
100
AcDbEntity
  8
001
370
    50
  0
POLYLINE
  5
290
330
1F
100
AcDbEntity
  8
001
 62
   200
370
    50
100
AcDb2dPolyline
 66
     1
 10
0.0
 20
0.0
 30
0.0
  0
VERTEX
  5
292
330
290
100
AcDbEntity
  8
001
 62
   200
370
    50
100
AcDbVertex
100
AcDb2dVertex
 10
61.975177
 20
56.867285
 30
0.0
  0
VERTEX
  5
293
330
290
100
AcDbEntity
  8
001
 62
   200
370
    50
100
AcDbVertex
100
AcDb2dVertex
 10
61.993826
 20
56.922623
 30
0.0
  0
VERTEX
  5
294
330
290
100
AcDbEntity
  8
001
 62
   200
370
    50
100
AcDbVertex
100
AcDb2dVertex
 10
62.014638
 20
57.000397
 30
0.0
  0
VERTEX
  5
295
330
290
100
AcDbEntity
  8
001
 62
   200
370
    50
100
AcDbVertex
100
AcDb2dVertex
 10
62.026316
 20
57.072264
 30
0.0
  0
VERTEX
  5
296
330
290
100
AcDbEntity
  8
001
 62
   200
370
    50
100
AcDbVertex
100
AcDb2dVertex
 10
62.03029
 20
57.138388
 30
0.0
  0
VERTEX
  5
297
330
290
100
AcDbEntity
  8
001
 62
   200
370
    50
100
AcDbVertex
100
AcDb2dVertex
 10
62.029687
 20
57.205415
 30
0.0
  0
VERTEX
  5
298
330
290
100
AcDbEntity
  8
001
 62
   200
370
    50
100
AcDbVertex
100
AcDb2dVertex
 10
62.021656
 20
57.277063
 30
0.0
  0
VERTEX
  5
299
330
290
100
AcDbEntity
  8
001
 62
   200
370
    50
100
AcDbVertex
100
AcDb2dVertex
 10
61.97385
 20
57.443365
 30
0.0
  0
VERTEX
  5
29A
330
290
100
AcDbEntity
  8
001
 62
   200
370
    50
100
AcDbVertex
100
AcDb2dVertex
 10
61.921333
 20
57.560925
 30
0.0
  0
SEQEND
  5
291
330
290
100
AcDbEntity
  8
001
370
    50
  0
LINE
  5
29B
330
1F
100
AcDbEntity
  8
001
 62
   200
370
    50
100
AcDbLine
 10
61.975177
 20
56.867285
 30
0.0
 11
62.138438
 21
57.281016
 31
0.0
  0
POLYLINE
  5
29C
330
1F
100
AcDbEntity
  8
001
 62
   200
370
    50
100
AcDb2dPolyline
 66
     1
 10
0.0
 20
0.0
 30
0.0
  0
VERTEX
  5
29E
330
29C
100
AcDbEntity
  8
001
 62
   200
370
    50
100
AcDbVertex
100
AcDb2dVertex
 10
46.768691
 20
57.424507
 30
0.0
  0
VERTEX
  5
29F
330
29C
100
AcDbEntity
  8
001
 62
   200
370
    50
100
AcDbVertex
100
AcDb2dVertex
 10
46.750091
 20
57.369085
 30
0.0
  0
VERTEX
  5
2A0
330
29C
100
AcDbEntity
  8
001
 62
   200
370
    50
100
AcDbVertex
100
AcDb2dVertex
 10
46.72923
 20
57.291395
 30
0.0
  0
VERTEX
  5
2A1
330
29C
100
AcDbEntity
  8
001
 62
   200
370
    50
100
AcDbVertex
100
AcDb2dVertex
 10
46.717303
 20
57.219953
 30
0.0
  0
VERTEX
  5
2A2
330
29C
100
AcDbEntity
  8
001
 62
   200
370
    50
100
AcDbVertex
100
AcDb2dVertex
 10
46.713578
 20
57.153404
 30
0.0
  0
VERTEX
  5
2A3
330
29C
100
AcDbEntity
  8
001
 62
   200
370
    50
100
AcDbVertex
100
AcDb2dVertex
 10
46.715129
 20
57.084765
 30
0.0
  0
VERTEX
  5
2A4
330
29C
100
AcDbEntity
  8
001
 62
   200
370
    50
100
AcDbVertex
100
AcDb2dVertex
 10
46.722212
 20
57.014729
 30
0.0
  0
VERTEX
  5
2A5
330
29C
100
AcDbEntity
  8
001
 62
   200
370
    50
100
AcDbVertex
100
AcDb2dVertex
 10
46.780196
 20
56.814127
 30
0.0
  0
VERTEX
  5
2A6
330
29C
100
AcDbEntity
  8
001
 62
   200
370
    50
100
AcDbVertex
100
AcDb2dVertex
 10
46.887584
 20
56.636067
 30
0.0
  0
VERTEX
  5
2A7
330
29C
100
AcDbEntity
  8
001
 62
   200
370
    50
100
AcDbVertex
100
AcDb2dVertex
 10
46.983276
 20
56.53499
 30
0.0
  0
VERTEX
  5
2A8
330
29C
100
AcDbEntity
  8
001
 62
   200
370
    50
100
AcDbVertex
100
AcDb2dVertex
 10
47.095714
 20
56.452231
 30
0.0
  0
VERTEX
  5
2A9
330
29C
100
AcDbEntity
  8
001
 62
   200
370
    50
100
AcDbVertex
100
AcDb2dVertex
 10
47.157569
 20
56.418382
 30
0.0
  0
VERTEX
  5
2AA
330
29C
100
AcDbEntity
  8
001
 62
   200
370
    50
100
AcDbVertex
100
AcDb2dVertex
 10
47.220494
 20
56.389984
 30
0.0
  0
VERTEX
  5
2AB
330
29C
100
AcDbEntity
  8
001
 62
   200
370
    50
100
AcDbVertex
100
AcDb2dVertex
 10
47.283687
 20
56.367211
 30
0.0
  0
VERTEX
  5
2AC
330
29C
100
AcDbEntity
  8
001
 62
   200
370
    50
100
AcDbVertex
100
AcDb2dVertex
 10
47.354157
 20
56.350248
 30
0.0
  0
VERTEX
  5
2AD
330
29C
100
AcDbEntity
  8
001
 62
   200
370
    50
100
AcDbVertex
100
AcDb2dVertex
 10
47.447984
 20
56.337951
 30
0.0
  0
VERTEX
  5
2AE
330
29C
100
AcDbEntity
  8
001
 62
   200
370
    50
100
AcDbVertex
100
AcDb2dVertex
 10
47.517021
 20
56.333913
 30
0.0
  0
SEQEND
  5
29D
330
29C
100
AcDbEntity
  8
001
370
    50
  0
LINE
  5
2AF
330
1F
100
AcDbEntity
  8
001
 62
   200
370
    50
100
AcDbLine
 10
46.932639
 20
57.83998
 30
0.0
 11
46.768691
 21
57.424507
 31
0.0
  0
POLYLINE
  5
2B0
330
1F
100
AcDbEntity
  8
001
 62
   200
370
    50
100
AcDb2dPolyline
 66
     1
 10
0.0
 20
0.0
 30
0.0
  0
VERTEX
  5
2B2
330
2B0
100
AcDbEntity
  8
001
 62
   200
370
    50
100
AcDbVertex
100
AcDb2dVertex
 10
46.98231
 20
57.943285
 30
0.0
  0
VERTEX
  5
2B3
330
2B0
100
AcDbEntity
  8
001
 62
   200
370
    50
100
AcDbVertex
100
AcDb2dVertex
 10
46.971057
 20
57.922872
 30
0.0
  0
VERTEX
  5
2B4
330
2B0
100
AcDbEntity
  8
001
 62
   200
370
    50
100
AcDbVertex
100
AcDb2dVertex
 10
46.955605
 20
57.89253
 30
0.0
  0
VERTEX
  5
2B5
330
2B0
100
AcDbEntity
  8
001
 62
   200
370
    50
100
AcDbVertex
100
AcDb2dVertex
 10
46.941556
 20
57.861516
 30
0.0
  0
VERTEX
  5
2B6
330
2B0
100
AcDbEntity
  8
001
 62
   200
370
    50
100
AcDbVertex
100
AcDb2dVertex
 10
46.932639
 20
57.83998
 30
0.0
  0
SEQEND
  5
2B1
330
2B0
100
AcDbEntity
  8
001
370
    50
  0
LINE
  5
2B7
330
1F
100
AcDbEntity
  8
001
 62
   134
370
    50
100
AcDbLine
 10
74.213495
 20
180.332321
 30
0.0
 11
51.213495
 21
180.332321
 31
0.0
  0
LINE
  5
2B8
330
1F
100
AcDbEntity
  8
001
 62
   134
370
    50
100
AcDbLine
 10
51.213495
 20
72.332321
 30
0.0
 11
74.213495
 21
72.332321
 31
0.0
  0
LINE
  5
2B9
330
1F
100
AcDbEntity
  8
001
 62
   134
370
    50
100
AcDbLine
 10
51.213495
 20
136.296227
 30
0.0
 11
65.213495
 21
136.296227
 31
0.0
  0
LINE
  5
2BA
330
1F
100
AcDbEntity
  8
001
 62
   134
370
    50
100
AcDbLine
 10
50.213495
 20
73.332321
 30
0.0
 11
50.213495
 21
136.122568
 31
0.0
  0
ARC
  5
2BB
330
1F
100
AcDbEntity
  8
001
 62
   134
370
    50
100
AcDbCircle
 10
51.213495
 20
73.332321
 30
0.0
 40
1.0
100
AcDbArc
 50
180.0
 51
229.689594
  0
POLYLINE
  5
2BC
330
1F
100
AcDbEntity
  8
001
 62
   134
370
    50
100
AcDb2dPolyline
 66
     1
 10
0.0
 20
0.0
 30
0.0
  0
VERTEX
  5
2BE
330
2BC
100
AcDbEntity
  8
001
 62
   134
370
    50
100
AcDbVertex
100
AcDb2dVertex
 10
51.213495
 20
72.332321
 30
0.0
  0
VERTEX
  5
2BF
330
2BC
100
AcDbEntity
  8
001
 62
   134
370
    50
100
AcDbVertex
100
AcDb2dVertex
 10
51.046321
 20
72.35158
 30
0.0
  0
VERTEX
  5
2C0
330
2BC
100
AcDbEntity
  8
001
 62
   134
370
    50
100
AcDbVertex
100
AcDb2dVertex
 10
50.883629
 20
72.388294
 30
0.0
  0
VERTEX
  5
2C1
330
2BC
100
AcDbEntity
  8
001
 62
   134
370
    50
100
AcDbVertex
100
AcDb2dVertex
 10
50.730072
 20
72.455651
 30
0.0
  0
VERTEX
  5
2C2
330
2BC
100
AcDbEntity
  8
001
 62
   134
370
    50
100
AcDbVertex
100
AcDb2dVertex
 10
50.590759
 20
72.549894
 30
0.0
  0
VERTEX
  5
2C3
330
2BC
100
AcDbEntity
  8
001
 62
   134
370
    50
100
AcDbVertex
100
AcDb2dVertex
 10
50.578555
 20
72.559848
 30
0.0
  0
VERTEX
  5
2C4
330
2BC
100
AcDbEntity
  8
001
 62
   134
370
    50
100
AcDbVertex
100
AcDb2dVertex
 10
50.566437
 20
72.569886
 30
0.0
  0
SEQEND
  5
2BD
330
2BC
100
AcDbEntity
  8
001
370
    50
  0
POLYLINE
  5
2C5
330
1F
100
AcDbEntity
  8
001
 62
   134
370
    50
100
AcDb2dPolyline
 66
     1
 10
0.0
 20
0.0
 30
0.0
  0
VERTEX
  5
2C7
330
2C5
100
AcDbEntity
  8
001
 62
   134
370
    50
100
AcDbVertex
100
AcDb2dVertex
 10
50.213495
 20
136.122568
 30
0.0
  0
VERTEX
  5
2C8
330
2C5
100
AcDbEntity
  8
001
 62
   134
370
    50
100
AcDbVertex
100
AcDb2dVertex
 10
50.216479
 20
136.132872
 30
0.0
  0
VERTEX
  5
2C9
330
2C5
100
AcDbEntity
  8
001
 62
   134
370
    50
100
AcDbVertex
100
AcDb2dVertex
 10
50.220192
 20
136.142633
 30
0.0
  0
VERTEX
  5
2CA
330
2C5
100
AcDbEntity
  8
001
 62
   134
370
    50
100
AcDbVertex
100
AcDb2dVertex
 10
50.25855
 20
136.178502
 30
0.0
  0
VERTEX
  5
2CB
330
2C5
100
AcDbEntity
  8
001
 62
   134
370
    50
100
AcDbVertex
100
AcDb2dVertex
 10
50.31444
 20
136.198602
 30
0.0
  0
VERTEX
  5
2CC
330
2C5
100
AcDbEntity
  8
001
 62
   134
370
    50
100
AcDbVertex
100
AcDb2dVertex
 10
50.414578
 20
136.22554
 30
0.0
  0
VERTEX
  5
2CD
330
2C5
100
AcDbEntity
  8
001
 62
   134
370
    50
100
AcDbVertex
100
AcDb2dVertex
 10
50.510064
 20
136.245999
 30
0.0
  0
VERTEX
  5
2CE
330
2C5
100
AcDbEntity
  8
001
 62
   134
370
    50
100
AcDbVertex
100
AcDb2dVertex
 10
50.645811
 20
136.266043
 30
0.0
  0
VERTEX
  5
2CF
330
2C5
100
AcDbEntity
  8
001
 62
   134
370
    50
100
AcDbVertex
100
AcDb2dVertex
 10
50.784996
 20
136.279476
 30
0.0
  0
VERTEX
  5
2D0
330
2C5
100
AcDbEntity
  8
001
 62
   134
370
    50
100
AcDbVertex
100
AcDb2dVertex
 10
50.94689
 20
136.289955
 30
0.0
  0
VERTEX
  5
2D1
330
2C5
100
AcDbEntity
  8
001
 62
   134
370
    50
100
AcDbVertex
100
AcDb2dVertex
 10
51.108228
 20
136.295262
 30
0.0
  0
VERTEX
  5
2D2
330
2C5
100
AcDbEntity
  8
001
 62
   134
370
    50
100
AcDbVertex
100
AcDb2dVertex
 10
51.160835
 20
136.295887
 30
0.0
  0
VERTEX
  5
2D3
330
2C5
100
AcDbEntity
  8
001
 62
   134
370
    50
100
AcDbVertex
100
AcDb2dVertex
 10
51.213495
 20
136.296227
 30
0.0
  0
SEQEND
  5
2C6
330
2C5
100
AcDbEntity
  8
001
370
    50
  0
ARC
  5
2D4
330
1F
100
AcDbEntity
  8
001
 62
   134
370
    50
100
AcDbCircle
 10
74.213495
 20
179.332321
 30
0.0
 40
0.9999999999999929
100
AcDbArc
 50
0.0
 51
90.0
  0
ARC
  5
2D5
330
1F
100
AcDbEntity
  8
001
 62
   134
370
    50
100
AcDbCircle
 10
74.213495
 20
73.332321
 30
0.0
 40
0.9999999999999929
100
AcDbArc
 50
270.0
 51
0.0
  0
LINE
  5
2D6
330
1F
100
AcDbEntity
  8
001
 62
   134
370
    50
100
AcDbLine
 10
75.213495
 20
73.332321
 30
0.0
 11
75.213495
 21
179.332321
 31
0.0
  0
ARC
  5
2D7
330
1F
100
AcDbEntity
  8
001
 62
   134
370
    50
100
AcDbCircle
 10
83.213495
 20
179.332321
 30
0.0
 40
8.000000000000007
100
AcDbArc
 50
180.0
 51
270.0
  0
ARC
  5
2D8
330
1F
100
AcDbEntity
  8
001
 62
   134
370
    50
100
AcDbCircle
 10
83.213495
 20
73.332321
 30
0.0
 40
8.000000000000007
100
AcDbArc
 50
90.0
 51
180.0
  0
ARC
  5
2D9
330
1F
100
AcDbEntity
  8
001
 62
   134
370
    50
100
AcDbCircle
 10
51.213495
 20
179.332321
 30
0.0
 40
1.0
100
AcDbArc
 50
90.0
 51
180.0
  0
LINE
  5
2DA
330
1F
100
AcDbEntity
  8
001
 62
   134
370
    50
100
AcDbLine
 10
50.213495
 20
161.442016
 30
0.0
 11
50.213495
 21
179.332321
 31
0.0
  0
ARC
  5
2DB
330
1F
100
AcDbEntity
  8
001
 62
   134
370
    50
100
AcDbCircle
 10
89.213495
 20
170.332321
 30
0.0
 40
1.0
100
AcDbArc
 50
0.0
 51
90.0
  0
ARC
  5
2DC
330
1F
100
AcDbEntity
  8
001
 62
   134
370
    50
100
AcDbCircle
 10
89.213495
 20
82.332321
 30
0.0
 40
1.0
100
AcDbArc
 50
270.0
 51
0.0
  0
LINE
  5
2DD
330
1F
100
AcDbEntity
  8
001
 62
   134
370
    50
100
AcDbLine
 10
90.213495
 20
170.332321
 30
0.0
 11
90.213495
 21
82.332321
 31
0.0
  0
LINE
  5
2DE
330
1F
100
AcDbEntity
  8
001
 62
   134
370
    50
100
AcDbLine
 10
89.213495
 20
171.332321
 30
0.0
 11
83.213495
 21
171.332321
 31
0.0
  0
LINE
  5
2DF
330
1F
100
AcDbEntity
  8
001
 62
   134
370
    50
100
AcDbLine
 10
83.213495
 20
81.332321
 30
0.0
 11
89.213495
 21
81.332321
 31
0.0
  0
LINE
  5
2E0
330
1F
100
AcDbEntity
  8
001
 62
   134
370
    50
100
AcDbLine
 10
170.213495
 20
118.332321
 30
0.0
 11
170.213495
 21
134.332321
 31
0.0
  0
LINE
  5
2E1
330
1F
100
AcDbEntity
  8
001
 62
   134
370
    50
100
AcDbLine
 10
162.213495
 20
142.332321
 30
0.0
 11
93.213495
 21
142.332321
 31
0.0
  0
LINE
  5
2E2
330
1F
100
AcDbEntity
  8
001
 62
   134
370
    50
100
AcDbLine
 10
162.213495
 20
110.332321
 30
0.0
 11
93.213495
 21
110.332321
 31
0.0
  0
LINE
  5
2E3
330
1F
100
AcDbEntity
  8
001
 62
   134
370
    50
100
AcDbLine
 10
93.213495
 20
142.332321
 30
0.0
 11
93.213495
 21
110.332321
 31
0.0
  0
LINE
  5
2E4
330
1F
100
AcDbEntity
  8
001
 62
   134
370
    50
100
AcDbLine
 10
93.213495
 20
141.832321
 30
0.0
 11
90.213495
 21
141.832321
 31
0.0
  0
LINE
  5
2E5
330
1F
100
AcDbEntity
  8
001
 62
   134
370
    50
100
AcDbLine
 10
90.213495
 20
110.832321
 30
0.0
 11
93.213495
 21
110.832321
 31
0.0
  0
LINE
  5
2E6
330
1F
100
AcDbEntity
  8
001
  6
CENTER
370
     9
100
AcDbLine
 10
40.750121
 20
126.332321
 30
0.0
 11
176.991673
 21
126.332321
 31
0.0
  0
LINE
  5
2E7
330
1F
100
AcDbEntity
  8
001
370
    50
100
AcDbLine
 10
50.213495
 20
126.332321
 30
0.0
 11
44.546034
 21
129.604431
 31
0.0
  0
LINE
  5
2E8
330
1F
100
AcDbEntity
  8
001
370
    50
100
AcDbLine
 10
50.213495
 20
126.332321
 30
0.0
 11
44.546034
 21
123.060211
 31
0.0
  0
LINE
  5
2E9
330
1F
100
AcDbEntity
  8
001
  6
DASHED
 62
   134
370
    50
100
AcDbLine
 10
53.213495
 20
100.832321
 30
0.0
 11
50.213495
 21
97.832321
 31
0.0
  0
LINE
  5
2EA
330
1F
100
AcDbEntity
  8
001
  6
DASHED
 62
   134
370
    50
100
AcDbLine
 10
53.213495
 20
100.832321
 30
0.0
 11
53.213495
 21
136.296227
 31
0.0
  0
TEXT
  5
2EB
330
1F
100
AcDbEntity
  8
001
370
    30
100
AcDbText
 10
57.561186
 20
199.589299
 30
0.0
 40
8.0
  1
ＮＫＮ３２－１４０Ｔ－０３
 41
0.833333
100
AcDbText
  0
ARC
  5
2EC
330
1F
100
AcDbEntity
  8
001
 62
   134
370
    50
100
AcDbCircle
 10
162.213495
 20
134.332321
 30
0.0
 40
8.0
100
AcDbArc
 50
0.0
 51
90.0
  0
ARC
  5
2ED
330
1F
100
AcDbEntity
  8
001
 62
   134
370
    50
100
AcDbCircle
 10
162.213495
 20
118.332321
 30
0.0
 40
8.0
100
AcDbArc
 50
270.0
 51
0.0
  0
ENDSEC
  0
SECTION
  2
OBJECTS
  0
DICTIONARY
  5
C
330
0
100
AcDbDictionary
281
     1
  3
ACAD_GROUP
350
D
  3
ACAD_LAYOUT
350
1A
  3
ACAD_MLEADERSTYLE
350
2F1
  3
ACAD_MLINESTYLE
350
17
  3
ACAD_PLOTSETTINGS
350
19
  3
ACAD_PLOTSTYLENAME
350
E
  3
ACAD_SCALELIST
350
3B
  3
ACAD_TABLESTYLE
350
2F0
  3
ACAD_VISUALSTYLE
350
2A
  3
AcDbVariableDictionary
350
2EE
  0
DICTIONARY
  5
D
102
{ACAD_REACTORS
330
C
102
}
330
C
100
AcDbDictionary
281
     1
  0
DICTIONARY
  5
1A
102
{ACAD_REACTORS
330
C
102
}
330
C
100
AcDbDictionary
281
     1
  3
Layout1
350
1E
  3
Layout2
350
26
  3
Model
350
22
  0
DICTIONARY
  5
2F1
102
{ACAD_REACTORS
330
C
102
}
330
C
100
AcDbDictionary
281
     1
  0
DICTIONARY
  5
17
102
{ACAD_REACTORS
330
C
102
}
330
C
100
AcDbDictionary
281
     1
  3
Standard
350
18
  0
DICTIONARY
  5
19
102
{ACAD_REACTORS
330
C
102
}
330
C
100
AcDbDictionary
281
     1
  0
ACDBDICTIONARYWDFLT
  5
E
102
{ACAD_REACTORS
330
C
102
}
330
C
100
AcDbDictionary
281
     1
  3
Normal
350
F
100
AcDbDictionaryWithDefault
340
F
  0
DICTIONARY
  5
3B
102
{ACAD_REACTORS
330
C
102
}
330
C
100
AcDbDictionary
281
     1
  3
A0
350
3C
  3
A1
350
3D
  3
A2
350
3E
  3
A3
350
3F
  3
A4
350
40
  3
A5
350
41
  3
A6
350
42
  3
A7
350
43
  3
A8
350
44
  3
A9
350
45
  3
B0
350
46
  3
B1
350
47
  3
B2
350
48
  3
B3
350
49
  3
B4
350
4A
  3
B5
350
4B
  3
B6
350
4C
  3
B7
350
4D
  3
B8
350
4E
  3
B9
350
4F
  3
C0
350
50
  3
C1
350
51
  3
C2
350
52
  3
C3
350
53
  3
C4
350
54
  3
C5
350
55
  3
C6
350
56
  3
C7
350
57
  3
C8
350
58
  3
C9
350
59
  3
D0
350
5A
  3
D1
350
5B
  3
D2
350
5C
  0
DICTIONARY
  5
2F0
102
{ACAD_REACTORS
330
C
102
}
330
C
100
AcDbDictionary
281
     1
  0
DICTIONARY
  5
2A
102
{ACAD_REACTORS
330
C
102
}
330
C
100
AcDbDictionary
281
     1
  3
2dWireframe
350
2F
  3
3D Hidden
350
31
  3
3dWireframe
350
30
  3
Basic
350
32
  3
Brighten
350
36
  3
ColorChange
350
3A
  3
Conceptual
350
34
  3
Dim
350
35
  3
Facepattern
350
39
  3
Flat
350
2B
  3
FlatWithEdges
350
2C
  3
Gouraud
350
2D
  3
GouraudWithEdges
350
2E
  3
Linepattern
350
38
  3
Realistic
350
33
  3
Thicken
350
37
  0
DICTIONARY
  5
2EE
102
{ACAD_REACTORS
330
C
102
}
330
C
100
AcDbDictionary
281
     1
  3
CANNOSCALE
350
2EF
  3
PSOLHEIGHT
350
2F3
  3
PSOLWIDTH
350
2F2
  0
LAYOUT
  5
1E
102
{ACAD_REACTORS
330
1A
102
}
330
1A
100
AcDbPlotSettings
  1

  2
none_device
  4

  6

 40
0.0
 41
0.0
 42
0.0
 43
0.0
 44
0.0
 45
0.0
 46
0.0
 47
0.0
 48
0.0
 49
0.0
140
0.0
141
0.0
142
1.0
143
1.0
 70
   688
 72
     0
 73
     0
 74
     5
  7

 75
    16
147
1.0
148
0.0
149
0.0
100
AcDbLayout
  1
Layout1
 70
     1
 71
     1
 10
0.0
 20
0.0
 11
12.0
 21
9.0
 12
0.0
 22
0.0
 32
0.0
 14
1.000000E+20
 24
1.000000E+20
 34
0.0
 15
-1.000000E+20
 25
-1.000000E+20
 35
0.0
146
0.0
 13
0.0
 23
0.0
 33
0.0
 16
1.0
 26
0.0
 36
0.0
 17
0.0
 27
1.0
 37
0.0
 76
     0
330
1B
  0
LAYOUT
  5
26
102
{ACAD_REACTORS
330
1A
102
}
330
1A
100
AcDbPlotSettings
  1

  2
none_device
  4

  6

 40
0.0
 41
0.0
 42
0.0
 43
0.0
 44
0.0
 45
0.0
 46
0.0
 47
0.0
 48
0.0
 49
0.0
140
0.0
141
0.0
142
1.0
143
1.0
 70
   688
 72
     0
 73
     0
 74
     5
  7

 75
    16
147
1.0
148
0.0
149
0.0
100
AcDbLayout
  1
Layout2
 70
     1
 71
     2
 10
0.0
 20
0.0
 11
0.0
 21
0.0
 12
0.0
 22
0.0
 32
0.0
 14
0.0
 24
0.0
 34
0.0
 15
0.0
 25
0.0
 35
0.0
146
0.0
 13
0.0
 23
0.0
 33
0.0
 16
1.0
 26
0.0
 36
0.0
 17
0.0
 27
1.0
 37
0.0
 76
     0
330
23
  0
LAYOUT
  5
22
102
{ACAD_REACTORS
330
1A
102
}
330
1A
100
AcDbPlotSettings
  1

  2
none_device
  4

  6

 40
0.0
 41
0.0
 42
0.0
 43
0.0
 44
0.0
 45
0.0
 46
0.0
 47
0.0
 48
0.0
 49
0.0
140
0.0
141
0.0
142
1.0
143
1.0
 70
  1712
 72
     0
 73
     0
 74
     0
  7

 75
     0
147
1.0
148
0.0
149
0.0
100
AcDbLayout
  1
Model
 70
     1
 71
     0
 10
0.0
 20
0.0
 11
12.0
 21
9.0
 12
0.0
 22
0.0
 32
0.0
 14
13.053482
 24
20.271027
 34
0.0
 15
201.514236
 25
207.589294
 35
0.0
146
0.0
 13
0.0
 23
0.0
 33
0.0
 16
1.0
 26
0.0
 36
0.0
 17
0.0
 27
1.0
 37
0.0
 76
     0
330
1F
331
29
  0
MLINESTYLE
  5
18
102
{ACAD_REACTORS
330
17
102
}
330
17
100
AcDbMlineStyle
  2
Standard
 70
     0
  3

 62
   256
 51
90.0
 52
90.0
 71
     2
 49
0.5
 62
   256
  6
BYLAYER
 49
-0.5
 62
   256
  6
BYLAYER
  0
ACDBPLACEHOLDER
  5
F
102
{ACAD_REACTORS
330
E
102
}
330
E
  0
SCALE
  5
3C
102
{ACAD_REACTORS
330
3B
102
}
330
3B
100
AcDbScale
 70
     0
300
1:1
140
1.0
141
1.0
290
     1
  0
SCALE
  5
3D
102
{ACAD_REACTORS
330
3B
102
}
330
3B
100
AcDbScale
 70
     0
300
1:2
140
1.0
141
2.0
290
     0
  0
SCALE
  5
3E
102
{ACAD_REACTORS
330
3B
102
}
330
3B
100
AcDbScale
 70
     0
300
1:4
140
1.0
141
4.0
290
     0
  0
SCALE
  5
3F
102
{ACAD_REACTORS
330
3B
102
}
330
3B
100
AcDbScale
 70
     0
300
1:5
140
1.0
141
5.0
290
     0
  0
SCALE
  5
40
102
{ACAD_REACTORS
330
3B
102
}
330
3B
100
AcDbScale
 70
     0
300
1:8
140
1.0
141
8.0
290
     0
  0
SCALE
  5
41
102
{ACAD_REACTORS
330
3B
102
}
330
3B
100
AcDbScale
 70
     0
300
1:10
140
1.0
141
10.0
290
     0
  0
SCALE
  5
42
102
{ACAD_REACTORS
330
3B
102
}
330
3B
100
AcDbScale
 70
     0
300
1:16
140
1.0
141
16.0
290
     0
  0
SCALE
  5
43
102
{ACAD_REACTORS
330
3B
102
}
330
3B
100
AcDbScale
 70
     0
300
1:20
140
1.0
141
20.0
290
     0
  0
SCALE
  5
44
102
{ACAD_REACTORS
330
3B
102
}
330
3B
100
AcDbScale
 70
     0
300
1:30
140
1.0
141
30.0
290
     0
  0
SCALE
  5
45
102
{ACAD_REACTORS
330
3B
102
}
330
3B
100
AcDbScale
 70
     0
300
1:40
140
1.0
141
40.0
290
     0
  0
SCALE
  5
46
102
{ACAD_REACTORS
330
3B
102
}
330
3B
100
AcDbScale
 70
     0
300
1:50
140
1.0
141
50.0
290
     0
  0
SCALE
  5
47
102
{ACAD_REACTORS
330
3B
102
}
330
3B
100
AcDbScale
 70
     0
300
1:100
140
1.0
141
100.0
290
     0
  0
SCALE
  5
48
102
{ACAD_REACTORS
330
3B
102
}
330
3B
100
AcDbScale
 70
     0
300
2:1
140
2.0
141
1.0
290
     0
  0
SCALE
  5
49
102
{ACAD_REACTORS
330
3B
102
}
330
3B
100
AcDbScale
 70
     0
300
4:1
140
4.0
141
1.0
290
     0
  0
SCALE
  5
4A
102
{ACAD_REACTORS
330
3B
102
}
330
3B
100
AcDbScale
 70
     0
300
8:1
140
8.0
141
1.0
290
     0
  0
SCALE
  5
4B
102
{ACAD_REACTORS
330
3B
102
}
330
3B
100
AcDbScale
 70
     0
300
10:1
140
10.0
141
1.0
290
     0
  0
SCALE
  5
4C
102
{ACAD_REACTORS
330
3B
102
}
330
3B
100
AcDbScale
 70
     0
300
100:1
140
100.0
141
1.0
290
     0
  0
SCALE
  5
4D
102
{ACAD_REACTORS
330
3B
102
}
330
3B
100
AcDbScale
 70
     0
300
1/128" = 1'-0"
140
0.007812
141
12.0
290
     0
  0
SCALE
  5
4E
102
{ACAD_REACTORS
330
3B
102
}
330
3B
100
AcDbScale
 70
     0
300
1/64" = 1'-0"
140
0.015625
141
12.0
290
     0
  0
SCALE
  5
4F
102
{ACAD_REACTORS
330
3B
102
}
330
3B
100
AcDbScale
 70
     0
300
1/32" = 1'-0"
140
0.03125
141
12.0
290
     0
  0
SCALE
  5
50
102
{ACAD_REACTORS
330
3B
102
}
330
3B
100
AcDbScale
 70
     0
300
1/16" = 1'-0"
140
0.0625
141
12.0
290
     0
  0
SCALE
  5
51
102
{ACAD_REACTORS
330
3B
102
}
330
3B
100
AcDbScale
 70
     0
300
3/32" = 1'-0"
140
0.09375
141
12.0
290
     0
  0
SCALE
  5
52
102
{ACAD_REACTORS
330
3B
102
}
330
3B
100
AcDbScale
 70
     0
300
1/8" = 1'-0"
140
0.125
141
12.0
290
     0
  0
SCALE
  5
53
102
{ACAD_REACTORS
330
3B
102
}
330
3B
100
AcDbScale
 70
     0
300
3/16" = 1'-0"
140
0.1875
141
12.0
290
     0
  0
SCALE
  5
54
102
{ACAD_REACTORS
330
3B
102
}
330
3B
100
AcDbScale
 70
     0
300
1/4" = 1'-0"
140
0.25
141
12.0
290
     0
  0
SCALE
  5
55
102
{ACAD_REACTORS
330
3B
102
}
330
3B
100
AcDbScale
 70
     0
300
3/8" = 1'-0"
140
0.375
141
12.0
290
     0
  0
SCALE
  5
56
102
{ACAD_REACTORS
330
3B
102
}
330
3B
100
AcDbScale
 70
     0
300
1/2" = 1'-0"
140
0.5
141
12.0
290
     0
  0
SCALE
  5
57
102
{ACAD_REACTORS
330
3B
102
}
330
3B
100
AcDbScale
 70
     0
300
3/4" = 1'-0"
140
0.75
141
12.0
290
     0
  0
SCALE
  5
58
102
{ACAD_REACTORS
330
3B
102
}
330
3B
100
AcDbScale
 70
     0
300
1" = 1'-0"
140
1.0
141
12.0
290
     0
  0
SCALE
  5
59
102
{ACAD_REACTORS
330
3B
102
}
330
3B
100
AcDbScale
 70
     0
300
1-1/2" = 1'-0"
140
1.5
141
12.0
290
     0
  0
SCALE
  5
5A
102
{ACAD_REACTORS
330
3B
102
}
330
3B
100
AcDbScale
 70
     0
300
3" = 1'-0"
140
3.0
141
12.0
290
     0
  0
SCALE
  5
5B
102
{ACAD_REACTORS
330
3B
102
}
330
3B
100
AcDbScale
 70
     0
300
6" = 1'-0"
140
6.0
141
12.0
290
     0
  0
SCALE
  5
5C
102
{ACAD_REACTORS
330
3B
102
}
330
3B
100
AcDbScale
 70
     0
300
1'-0" = 1'-0"
140
12.0
141
12.0
290
     0
  0
VISUALSTYLE
  5
2F
102
{ACAD_REACTORS
330
2A
102
}
330
2A
100
AcDbVisualStyle
  2
2dWireframe
 70
     4
 71
     0
 72
     2
 73
     0
 90
        0
 40
-0.6
 41
-30.0
 62
     5
 63
     7
 74
     1
 91
        4
 64
     7
 65
   257
 75
     1
175
     1
 42
1.0
 92
        0
 66
   257
 43
1.0
 76
     1
 77
     6
 78
     2
 67
     7
 79
     5
170
     0
171
     0
290
     0
174
     0
 93
        1
 44
0.0
173
     0
291
     0
 45
0.0
1001
ACAD
1000
AcDbSavedByObjectVersion
1070
     0
  0
VISUALSTYLE
  5
31
102
{ACAD_REACTORS
330
2A
102
}
330
2A
100
AcDbVisualStyle
  2
3D Hidden
 70
     6
 71
     1
 72
     2
 73
     2
 90
        0
 40
-0.6
 41
-30.0
 62
     5
 63
     7
 74
     2
 91
        2
 64
     7
 65
   257
 75
     2
175
     1
 42
40.0
 92
        0
 66
   257
 43
1.0
 76
     1
 77
     6
 78
     2
 67
     7
 79
     3
170
     0
171
     0
290
     0
174
     0
 93
        1
 44
0.0
173
     0
291
     0
 45
0.0
1001
ACAD
1000
AcDbSavedByObjectVersion
1070
     0
  0
VISUALSTYLE
  5
30
102
{ACAD_REACTORS
330
2A
102
}
330
2A
100
AcDbVisualStyle
  2
3dWireframe
 70
     5
 71
     0
 72
     2
 73
     0
 90
        0
 40
-0.6
 41
-30.0
 62
     5
 63
     7
 74
     1
 91
        4
 64
     7
 65
   257
 75
     1
175
     1
 42
1.0
 92
        0
 66
   257
 43
1.0
 76
     1
 77
     6
 78
     2
 67
     7
 79
     5
170
     0
171
     0
290
     0
174
     0
 93
        1
 44
0.0
173
     0
291
     0
 45
0.0
1001
ACAD
1000
AcDbSavedByObjectVersion
1070
     0
  0
VISUALSTYLE
  5
32
102
{ACAD_REACTORS
330
2A
102
}
330
2A
100
AcDbVisualStyle
  2
Basic
 70
     7
 71
     1
 72
     0
 73
     1
 90
        0
 40
-0.6
 41
-30.0
 62
     5
 63
     7
 74
     0
 91
        4
 64
     7
 65
   257
 75
     1
175
     1
 42
1.0
 92
        8
 66
     7
 43
1.0
 76
     1
 77
     6
 78
     2
 67
     7
 79
     5
170
     0
171
     0
290
     0
174
     0
 93
        1
 44
0.0
173
     0
291
     1
 45
0.0
1001
ACAD
1000
AcDbSavedByObjectVersion
1070
     0
  0
VISUALSTYLE
  5
36
102
{ACAD_REACTORS
330
2A
102
}
330
2A
100
AcDbVisualStyle
  2
Brighten
 70
    12
 71
     2
 72
     2
 73
     0
 90
        0
 40
-0.6
 41
-30.0
 62
     5
 63
     7
 74
     1
 91
        4
 64
     7
 65
   257
 75
     1
175
     1
 42
1.0
 92
        8
 66
     7
 43
1.0
 76
     1
 77
     6
 78
     2
 67
     7
 79
     5
170
     0
171
     0
290
     0
174
     0
 93
        1
 44
50.0
173
     0
291
     1
 45
0.0
1001
ACAD
1000
AcDbSavedByObjectVersion
1070
     0
  0
VISUALSTYLE
  5
3A
102
{ACAD_REACTORS
330
2A
102
}
330
2A
100
AcDbVisualStyle
  2
ColorChange
 70
    16
 71
     2
 72
     2
 73
     3
 90
        0
 40
-0.6
 41
-30.0
 62
     5
 63
     8
 74
     1
 91
        4
 64
     7
 65
   257
 75
     1
175
     1
 42
1.0
 92
        8
 66
     8
 43
1.0
 76
     1
 77
     6
 78
     2
 67
     7
 79
     5
170
     0
171
     0
290
     0
174
     0
 93
        1
 44
0.0
173
     0
291
     1
 45
0.0
1001
ACAD
1000
AcDbSavedByObjectVersion
1070
     0
  0
VISUALSTYLE
  5
34
102
{ACAD_REACTORS
330
2A
102
}
330
2A
100
AcDbVisualStyle
  2
Conceptual
 70
     9
 71
     3
 72
     2
 73
     0
 90
        0
 40
-0.6
 41
-30.0
 62
     5
 63
     7
 74
     2
 91
        2
 64
     7
 65
   257
 75
     1
175
     1
 42
40.0
 92
        8
 66
     7
 43
1.0
 76
     1
 77
     6
 78
     2
 67
     7
 79
     3
170
     0
171
     0
290
     0
174
     0
 93
        1
 44
0.0
173
     0
291
     0
 45
0.0
1001
ACAD
1000
AcDbSavedByObjectVersion
1070
     0
  0
VISUALSTYLE
  5
35
102
{ACAD_REACTORS
330
2A
102
}
330
2A
100
AcDbVisualStyle
  2
Dim
 70
    11
 71
     2
 72
     2
 73
     0
 90
        0
 40
-0.6
 41
-30.0
 62
     5
 63
     7
 74
     1
 91
        4
 64
     7
 65
   257
 75
     1
175
     1
 42
1.0
 92
        8
 66
     7
 43
1.0
 76
     1
 77
     6
 78
     2
 67
     7
 79
     5
170
     0
171
     0
290
     0
174
     0
 93
        1
 44
-50.0
173
     0
291
     1
 45
0.0
1001
ACAD
1000
AcDbSavedByObjectVersion
1070
     0
  0
VISUALSTYLE
  5
39
102
{ACAD_REACTORS
330
2A
102
}
330
2A
100
AcDbVisualStyle
  2
Facepattern
 70
    15
 71
     2
 72
     2
 73
     0
 90
        0
 40
-0.6
 41
-30.0
 62
     5
 63
     7
 74
     1
 91
        4
 64
     7
 65
   257
 75
     1
175
     1
 42
1.0
 92
        8
 66
     7
 43
1.0
 76
     1
 77
     6
 78
     2
 67
     7
 79
     5
170
     0
171
     0
290
     0
174
     0
 93
        1
 44
0.0
173
     0
291
     1
 45
0.0
1001
ACAD
1000
AcDbSavedByObjectVersion
1070
     0
  0
VISUALSTYLE
  5
2B
102
{ACAD_REACTORS
330
2A
102
}
330
2A
100
AcDbVisualStyle
  2
Flat
 70
     0
 71
     2
 72
     1
 73
     1
 90
        2
 40
-0.6
 41
30.0
 62
     5
 63
     7
 74
     0
 91
        4
 64
     7
 65
   257
 75
     1
175
     1
 42
1.0
 92
        8
 66
     7
 43
1.0
 76
     1
 77
     6
 78
     2
 67
     7
 79
     5
170
     0
171
     0
290
     0
174
     0
 93
       13
 44
0.0
173
     0
291
     1
 45
0.0
1001
ACAD
1000
AcDbSavedByObjectVersion
1070
     0
  0
VISUALSTYLE
  5
2C
102
{ACAD_REACTORS
330
2A
102
}
330
2A
100
AcDbVisualStyle
  2
FlatWithEdges
 70
     1
 71
     2
 72
     1
 73
     1
 90
        2
 40
-0.6
 41
30.0
 62
     5
 63
     7
 74
     1
 91
        4
 64
     7
 65
   257
 75
     1
175
     1
 42
1.0
 92
        0
 66
   257
 43
1.0
 76
     1
 77
     6
 78
     2
 67
     7
 79
     5
170
     0
171
     0
290
     0
174
     0
 93
       13
 44
0.0
173
     0
291
     1
 45
0.0
1001
ACAD
1000
AcDbSavedByObjectVersion
1070
     0
  0
VISUALSTYLE
  5
2D
102
{ACAD_REACTORS
330
2A
102
}
330
2A
100
AcDbVisualStyle
  2
Gouraud
 70
     2
 71
     2
 72
     2
 73
     1
 90
        2
 40
-0.6
 41
30.0
 62
     5
 63
     7
 74
     0
 91
        4
 64
     7
 65
   257
 75
     1
175
     1
 42
1.0
 92
        0
 66
     7
 43
1.0
 76
     1
 77
     6
 78
     2
 67
     7
 79
     5
170
     0
171
     0
290
     0
174
     0
 93
       13
 44
0.0
173
     0
291
     1
 45
0.0
1001
ACAD
1000
AcDbSavedByObjectVersion
1070
     0
  0
VISUALSTYLE
  5
2E
102
{ACAD_REACTORS
330
2A
102
}
330
2A
100
AcDbVisualStyle
  2
GouraudWithEdges
 70
     3
 71
     2
 72
     2
 73
     1
 90
        2
 40
-0.6
 41
30.0
 62
     5
 63
     7
 74
     1
 91
        4
 64
     7
 65
   257
 75
     1
175
     1
 42
1.0
 92
        0
 66
   257
 43
1.0
 76
     1
 77
     6
 78
     2
 67
     7
 79
     5
170
     0
171
     0
290
     0
174
     0
 93
       13
 44
0.0
173
     0
291
     1
 45
0.0
1001
ACAD
1000
AcDbSavedByObjectVersion
1070
     0
  0
VISUALSTYLE
  5
38
102
{ACAD_REACTORS
330
2A
102
}
330
2A
100
AcDbVisualStyle
  2
Linepattern
 70
    14
 71
     2
 72
     2
 73
     0
 90
        0
 40
-0.6
 41
-30.0
 62
     5
 63
     7
 74
     1
 91
        4
 64
     7
 65
   257
 75
     7
175
     7
 42
1.0
 92
        8
 66
     7
 43
1.0
 76
     1
 77
     6
 78
     2
 67
     7
 79
     5
170
     0
171
     0
290
     0
174
     0
 93
        1
 44
0.0
173
     0
291
     1
 45
0.0
1001
ACAD
1000
AcDbSavedByObjectVersion
1070
     0
  0
VISUALSTYLE
  5
33
102
{ACAD_REACTORS
330
2A
102
}
330
2A
100
AcDbVisualStyle
  2
Realistic
 70
     8
 71
     2
 72
     2
 73
     0
 90
        0
 40
-0.6
 41
-30.0
 62
     5
 63
     7
 74
     1
 91
        0
 64
     7
 65
   257
 75
     1
175
     1
 42
1.0
 92
        8
 66
     8
 43
1.0
 76
     1
 77
     6
 78
     2
 67
     7
 79
     5
170
     0
171
     0
290
     0
174
     0
 93
       13
 44
0.0
173
     0
291
     0
 45
0.0
1001
ACAD
1000
AcDbSavedByObjectVersion
1070
     0
  0
VISUALSTYLE
  5
37
102
{ACAD_REACTORS
330
2A
102
}
330
2A
100
AcDbVisualStyle
  2
Thicken
 70
    13
 71
     2
 72
     2
 73
     0
 90
        0
 40
-0.6
 41
-30.0
 62
     5
 63
     7
 74
     1
 91
        4
 64
     7
 65
   257
 75
     1
175
     1
 42
1.0
 92
       12
 66
     7
 43
1.0
 76
     1
 77
     6
 78
     2
 67
     7
 79
     5
170
     0
171
     0
290
     0
174
     0
 93
        1
 44
0.0
173
     0
291
     1
 45
0.0
1001
ACAD
1000
AcDbSavedByObjectVersion
1070
     0
  0
DICTIONARYVAR
  5
2EF
102
{ACAD_REACTORS
330
2EE
102
}
330
2EE
100
DictionaryVariables
280
     0
  1
1:1
  0
DICTIONARYVAR
  5
2F3
102
{ACAD_REACTORS
330
2EE
102
}
330
2EE
100
DictionaryVariables
280
     0
  1
80.000000
  0
DICTIONARYVAR
  5
2F2
102
{ACAD_REACTORS
330
2EE
102
}
330
2EE
100
DictionaryVariables
280
     0
  1
5.000000
  0
ENDSEC
  0
EOF
