  0
SECTION
  2
HEADER
  9
$ACADVER
  1
AC1015
  9
$ACADMAINTVER
 70
     6
  9
$DWGCODEPAGE
  3
ANSI_932
  9
$INSBASE
 10
0.0
 20
0.0
 30
0.0
  9
$EXTMIN
 10
12.544983
 20
14.285522
 30
0.0
  9
$EXTMAX
 10
198.306778
 20
203.098694
 30
0.0
  9
$LIMMIN
 10
0.0
 20
0.0
  9
$LIMMAX
 10
12.0
 20
9.0
  9
$ORTHOMODE
 70
     0
  9
$REGENMODE
 70
     1
  9
$FILLMODE
 70
     1
  9
$QTEXTMODE
 70
     0
  9
$MIRRTEXT
 70
     1
  9
$LTSCALE
 40
2.648733
  9
$ATTMODE
 70
     1
  9
$TEXTSIZE
 40
3.2
  9
$TRACEWID
 40
1.0
  9
$TEXTSTYLE
  7
Standard
  9
$CLAYER
  8
0
  9
$CELTYPE
  6
ByLayer
  9
$CECOLOR
 62
   256
  9
$CELTSCALE
 40
1.0
  9
$DISPSILH
 70
     0
  9
$DIMSCALE
 40
1.0
  9
$DIMASZ
 40
2.5
  9
$DIMEXO
 40
0.625
  9
$DIMDLI
 40
3.75
  9
$DIMRND
 40
0.0
  9
$DIMDLE
 40
0.0
  9
$DIMEXE
 40
1.25
  9
$DIMTP
 40
0.0
  9
$DIMTM
 40
0.0
  9
$DIMTXT
 40
2.5
  9
$DIMCEN
 40
0.09
  9
$DIMTSZ
 40
0.0
  9
$DIMTOL
 70
     0
  9
$DIMLIM
 70
     0
  9
$DIMTIH
 70
     0
  9
$DIMTOH
 70
     0
  9
$DIMSE1
 70
     0
  9
$DIMSE2
 70
     0
  9
$DIMTAD
 70
     0
  9
$DIMZIN
 70
     8
  9
$DIMBLK
  1

  9
$DIMASO
 70
     1
  9
$DIMSHO
 70
     0
  9
$DIMPOST
  1

  9
$DIMAPOST
  1

  9
$DIMALT
 70
     0
  9
$DIMALTD
 70
     3
  9
$DIMALTF
 40
0.03937
  9
$DIMLFAC
 40
1.0
  9
$DIMTOFL
 70
     1
  9
$DIMTVP
 40
0.0
  9
$DIMTIX
 70
     0
  9
$DIMSOXD
 70
     0
  9
$DIMSAH
 70
     0
  9
$DIMBLK1
  1

  9
$DIMBLK2
  1

  9
$DIMSTYLE
  2
ISO-25
  9
$DIMCLRD
 70
     0
  9
$DIMCLRE
 70
     0
  9
$DIMCLRT
 70
     0
  9
$DIMTFAC
 40
1.0
  9
$DIMGAP
 40
0.625
  9
$DIMJUST
 70
     0
  9
$DIMSD1
 70
     0
  9
$DIMSD2
 70
     0
  9
$DIMTOLJ
 70
     0
  9
$DIMTZIN
 70
     8
  9
$DIMALTZ
 70
     0
  9
$DIMALTTZ
 70
     0
  9
$DIMUPT
 70
     0
  9
$DIMDEC
 70
     2
  9
$DIMTDEC
 70
     2
  9
$DIMALTU
 70
     2
  9
$DIMALTTD
 70
     3
  9
$DIMTXSTY
  7
Standard
  9
$DIMAUNIT
 70
     0
  9
$DIMADEC
 70
     0
  9
$DIMALTRND
 40
0.0
  9
$DIMAZIN
 70
     0
  9
$DIMDSEP
 70
    44
  9
$DIMATFIT
 70
     3
  9
$DIMFRAC
 70
     0
  9
$DIMLDRBLK
  1

  9
$DIMLUNIT
 70
     2
  9
$DIMLWD
 70
    -2
  9
$DIMLWE
 70
    -2
  9
$DIMTMOVE
 70
     0
  9
$LUNITS
 70
     2
  9
$LUPREC
 70
     4
  9
$SKETCHINC
 40
1.0
  9
$FILLETRAD
 40
0.0
  9
$AUNITS
 70
     0
  9
$AUPREC
 70
     0
  9
$MENU
  1
.
  9
$ELEVATION
 40
0.0
  9
$PELEVATION
 40
0.0
  9
$THICKNESS
 40
0.0
  9
$LIMCHECK
 70
     0
  9
$CHAMFERA
 40
10.0
  9
$CHAMFERB
 40
10.0
  9
$CHAMFERC
 40
20.0
  9
$CHAMFERD
 40
0.0
  9
$SKPOLY
 70
     0
  9
$TDCREATE
 40
2455356.584795463
  9
$TDUCREATE
 40
2455356.209795463
  9
$TDUPDATE
 40
2455356.584795475
  9
$TDUUPDATE
 40
2455356.209795475
  9
$TDINDWG
 40
0.0000000116
  9
$TDUSRTIMER
 40
0.0000000116
  9
$USRTIMER
 70
     1
  9
$ANGBASE
 50
0.0
  9
$ANGDIR
 70
     0
  9
$PDMODE
 70
     0
  9
$PDSIZE
 40
0.0
  9
$PLINEWID
 40
0.0
  9
$SPLFRAME
 70
     0
  9
$SPLINETYPE
 70
     6
  9
$SPLINESEGS
 70
     8
  9
$HANDSEED
  5
54E
  9
$SURFTAB1
 70
     6
  9
$SURFTAB2
 70
     6
  9
$SURFTYPE
 70
     6
  9
$SURFU
 70
     6
  9
$SURFV
 70
     6
  9
$UCSBASE
  2

  9
$UCSNAME
  2

  9
$UCSORG
 10
0.0
 20
0.0
 30
0.0
  9
$UCSXDIR
 10
1.0
 20
0.0
 30
0.0
  9
$UCSYDIR
 10
0.0
 20
1.0
 30
0.0
  9
$UCSORTHOREF
  2

  9
$UCSORTHOVIEW
 70
     0
  9
$UCSORGTOP
 10
0.0
 20
0.0
 30
0.0
  9
$UCSORGBOTTOM
 10
0.0
 20
0.0
 30
0.0
  9
$UCSORGLEFT
 10
0.0
 20
0.0
 30
0.0
  9
$UCSORGRIGHT
 10
0.0
 20
0.0
 30
0.0
  9
$UCSORGFRONT
 10
0.0
 20
0.0
 30
0.0
  9
$UCSORGBACK
 10
0.0
 20
0.0
 30
0.0
  9
$PUCSBASE
  2

  9
$PUCSNAME
  2

  9
$PUCSORG
 10
0.0
 20
0.0
 30
0.0
  9
$PUCSXDIR
 10
1.0
 20
0.0
 30
0.0
  9
$PUCSYDIR
 10
0.0
 20
1.0
 30
0.0
  9
$PUCSORTHOREF
  2

  9
$PUCSORTHOVIEW
 70
     0
  9
$PUCSORGTOP
 10
0.0
 20
0.0
 30
0.0
  9
$PUCSORGBOTTOM
 10
0.0
 20
0.0
 30
0.0
  9
$PUCSORGLEFT
 10
0.0
 20
0.0
 30
0.0
  9
$PUCSORGRIGHT
 10
0.0
 20
0.0
 30
0.0
  9
$PUCSORGFRONT
 10
0.0
 20
0.0
 30
0.0
  9
$PUCSORGBACK
 10
0.0
 20
0.0
 30
0.0
  9
$USERI1
 70
     0
  9
$USERI2
 70
     0
  9
$USERI3
 70
     0
  9
$USERI4
 70
     0
  9
$USERI5
 70
     0
  9
$USERR1
 40
0.0
  9
$USERR2
 40
0.0
  9
$USERR3
 40
0.0
  9
$USERR4
 40
0.0
  9
$USERR5
 40
0.0
  9
$WORLDVIEW
 70
     1
  9
$SHADEDGE
 70
     3
  9
$SHADEDIF
 70
    70
  9
$TILEMODE
 70
     1
  9
$MAXACTVP
 70
    64
  9
$PINSBASE
 10
0.0
 20
0.0
 30
0.0
  9
$PLIMCHECK
 70
     0
  9
$PEXTMIN
 10
1.000000E+20
 20
1.000000E+20
 30
0.0
  9
$PEXTMAX
 10
-1.000000E+20
 20
-1.000000E+20
 30
0.0
  9
$PLIMMIN
 10
0.0
 20
0.0
  9
$PLIMMAX
 10
12.0
 20
9.0
  9
$UNITMODE
 70
     0
  9
$VISRETAIN
 70
     1
  9
$PLINEGEN
 70
     0
  9
$PSLTSCALE
 70
     1
  9
$TREEDEPTH
 70
  3020
  9
$CMLSTYLE
  2
Standard
  9
$CMLJUST
 70
     0
  9
$CMLSCALE
 40
20.0
  9
$PROXYGRAPHICS
 70
     1
  9
$MEASUREMENT
 70
     1
  9
$CELWEIGHT
370
    -1
  9
$ENDCAPS
280
     0
  9
$JOINSTYLE
280
     0
  9
$LWDISPLAY
290
     0
  9
$INSUNITS
 70
     4
  9
$HYPERLINKBASE
  1

  9
$STYLESHEET
  1

  9
$XEDIT
290
     1
  9
$CEPSNTYPE
380
     0
  9
$PSTYLEMODE
290
     1
  9
$FINGERPRINTGUID
  2
{239C9582-AF49-4F72-B707-F77D66F53093}
  9
$VERSIONGUID
  2
{FAEB1C32-E019-11D5-929B-00C0DF256EC4}
  9
$EXTNAMES
290
     1
  9
$PSVPSCALE
 40
0.0
  9
$OLESTARTUP
290
     0
  0
ENDSEC
  0
SECTION
  2
CLASSES
  0
CLASS
  1
ACDBDICTIONARYWDFLT
  2
AcDbDictionaryWithDefault
  3
ObjectDBX Classes
 90
        0
280
     0
281
     0
  0
CLASS
  1
VISUALSTYLE
  2
AcDbVisualStyle
  3
ObjectDBX Classes
 90
     4095
280
     0
281
     0
  0
CLASS
  1
SCALE
  2
AcDbScale
  3
ObjectDBX Classes
 90
     1153
280
     0
281
     0
  0
CLASS
  1
DICTIONARYVAR
  2
AcDbDictionaryVar
  3
ObjectDBX Classes
 90
        0
280
     0
281
     0
  0
CLASS
  1
ACDBPLACEHOLDER
  2
AcDbPlaceHolder
  3
ObjectDBX Classes
 90
        0
280
     0
281
     0
  0
CLASS
  1
LAYOUT
  2
AcDbLayout
  3
ObjectDBX Classes
 90
        0
280
     0
281
     0
  0
ENDSEC
  0
SECTION
  2
TABLES
  0
TABLE
  2
VPORT
  5
8
330
0
100
AcDbSymbolTable
 70
     1
  0
VPORT
  5
29
330
8
100
AcDbSymbolTableRecord
100
AcDbViewportTableRecord
  2
*Active
 70
     0
 10
0.0
 20
0.0
 11
1.0
 21
1.0
 12
105.42588
 22
108.692108
 13
0.0
 23
0.0
 14
1.0
 24
1.0
 15
0.0
 25
0.0
 16
0.0
 26
0.0
 36
1.0
 17
0.0
 27
0.0
 37
0.0
 40
190.701303
 41
1.691288
 42
50.0
 43
0.0
 44
0.0
 50
0.0
 51
0.0
 71
     0
 72
   100
 73
     1
 74
     3
 75
     0
 76
     0
 77
     0
 78
     0
281
     0
 65
     1
110
0.0
120
0.0
130
0.0
111
1.0
121
0.0
131
0.0
112
0.0
122
1.0
132
0.0
 79
     0
146
0.0
  0
ENDTAB
  0
TABLE
  2
LTYPE
  5
5
330
0
100
AcDbSymbolTable
 70
     5
  0
LTYPE
  5
14
330
5
100
AcDbSymbolTableRecord
100
AcDbLinetypeTableRecord
  2
ByBlock
 70
     0
  3

 72
    65
 73
     0
 40
0.0
  0
LTYPE
  5
15
330
5
100
AcDbSymbolTableRecord
100
AcDbLinetypeTableRecord
  2
ByLayer
 70
     0
  3

 72
    65
 73
     0
 40
0.0
  0
LTYPE
  5
16
330
5
100
AcDbSymbolTableRecord
100
AcDbLinetypeTableRecord
  2
Continuous
 70
     0
  3
Solid line
 72
    65
 73
     0
 40
0.0
  0
LTYPE
  5
5D
330
5
100
AcDbSymbolTableRecord
100
AcDbLinetypeTableRecord
  2
DASHED
 70
     0
  3
DASHED
 72
    83
 73
     2
 40
0.75
 49
0.5
 74
     0
 49
-0.25
 74
     0
  0
LTYPE
  5
5E
330
5
100
AcDbSymbolTableRecord
100
AcDbLinetypeTableRecord
  2
HIDDEN
 70
     0
  3
HIDDEN
 72
    83
 73
     2
 40
0.375
 49
0.25
 74
     0
 49
-0.125
 74
     0
  0
LTYPE
  5
5F
330
5
100
AcDbSymbolTableRecord
100
AcDbLinetypeTableRecord
  2
CENTER
 70
     0
  3
CENTER
 72
    83
 73
     4
 40
2.0
 49
1.25
 74
     0
 49
-0.25
 74
     0
 49
0.25
 74
     0
 49
-0.25
 74
     0
  0
LTYPE
  5
60
330
5
100
AcDbSymbolTableRecord
100
AcDbLinetypeTableRecord
  2
PHANTOM
 70
     0
  3
PHANTOM
 72
    83
 73
     6
 40
2.5
 49
1.25
 74
     0
 49
-0.25
 74
     0
 49
0.25
 74
     0
 49
-0.25
 74
     0
 49
0.25
 74
     0
 49
-0.25
 74
     0
  0
ENDTAB
  0
TABLE
  2
LAYER
  5
2
330
0
100
AcDbSymbolTable
 70
     2
  0
LAYER
  5
10
330
2
100
AcDbSymbolTableRecord
100
AcDbLayerTableRecord
  2
0
 70
     0
 62
     7
  6
Continuous
370
    -3
390
F
  0
LAYER
  5
61
330
2
100
AcDbSymbolTableRecord
100
AcDbLayerTableRecord
  2
001
 70
     0
 62
     7
  6
Continuous
370
    -3
390
F
  0
ENDTAB
  0
TABLE
  2
STYLE
  5
3
330
0
100
AcDbSymbolTable
 70
     2
  0
STYLE
  5
11
330
3
100
AcDbSymbolTableRecord
100
AcDbTextStyleTableRecord
  2
Standard
 70
     0
 40
0.0
 41
1.0
 50
0.0
 71
     0
 42
0.2
  3
TXT
  4
BIGFONT
  0
STYLE
  5
62
330
3
100
AcDbSymbolTableRecord
100
AcDbTextStyleTableRecord
  2
TATEGAKI
 70
     4
 40
1.0
 41
1.0
 50
0.0
 71
     0
 42
0.2
  3
TXT
  4
BIGFONT
  0
ENDTAB
  0
TABLE
  2
VIEW
  5
6
330
0
100
AcDbSymbolTable
 70
     0
  0
ENDTAB
  0
TABLE
  2
UCS
  5
7
330
0
100
AcDbSymbolTable
 70
     0
  0
ENDTAB
  0
TABLE
  2
APPID
  5
9
330
0
100
AcDbSymbolTable
 70
     1
  0
APPID
  5
12
330
9
100
AcDbSymbolTableRecord
100
AcDbRegAppTableRecord
  2
ACAD
 70
     0
  0
ENDTAB
  0
TABLE
  2
DIMSTYLE
  5
A
330
0
100
AcDbSymbolTable
 70
     2
100
AcDbDimStyleTable
  0
DIMSTYLE
105
27
330
A
100
AcDbSymbolTableRecord
100
AcDbDimStyleTableRecord
  2
ISO-25
 70
     0
 41
2.5
 42
0.625
 43
3.75
 44
1.25
 73
     0
 74
     0
 77
     1
 78
     8
140
2.5
141
2.5
143
0.03937
147
0.625
171
     3
172
     1
271
     2
272
     2
274
     3
278
    44
283
     0
284
     8
340
11
  0
DIMSTYLE
105
63
102
{ACAD_REACTORS
330
B4
330
B5
330
B6
330
B7
102
}
330
A
100
AcDbSymbolTableRecord
100
AcDbDimStyleTableRecord
  2
Standard
 70
     0
 41
1.5
 42
0.0
 44
2.75
 73
     0
 74
     0
 77
     1
 78
     8
 79
     2
140
4.0
146
0.8
147
1.0
172
     1
179
     1
271
     1
340
11
  0
ENDTAB
  0
TABLE
  2
BLOCK_RECORD
  5
1
330
0
100
AcDbSymbolTable
 70
     5
  0
BLOCK_RECORD
  5
1F
330
1
100
AcDbSymbolTableRecord
100
AcDbBlockTableRecord
  2
*Model_Space
340
22
  0
BLOCK_RECORD
  5
1B
330
1
100
AcDbSymbolTableRecord
100
AcDbBlockTableRecord
  2
*Paper_Space
340
1E
  0
BLOCK_RECORD
  5
23
330
1
100
AcDbSymbolTableRecord
100
AcDbBlockTableRecord
  2
*Paper_Space0
340
26
  0
BLOCK_RECORD
  5
64
330
1
100
AcDbSymbolTableRecord
100
AcDbBlockTableRecord
  2
*D1
340
0
  0
BLOCK_RECORD
  5
78
330
1
100
AcDbSymbolTableRecord
100
AcDbBlockTableRecord
  2
*D2
340
0
  0
BLOCK_RECORD
  5
8C
330
1
100
AcDbSymbolTableRecord
100
AcDbBlockTableRecord
  2
*D3
340
0
  0
BLOCK_RECORD
  5
A0
330
1
100
AcDbSymbolTableRecord
100
AcDbBlockTableRecord
  2
*D4
340
0
  0
ENDTAB
  0
ENDSEC
  0
SECTION
  2
BLOCKS
  0
BLOCK
  5
20
330
1F
100
AcDbEntity
  8
0
100
AcDbBlockBegin
  2
*Model_Space
 70
     0
 10
0.0
 20
0.0
 30
0.0
  3
*Model_Space
  1

  0
ENDBLK
  5
21
330
1F
100
AcDbEntity
  8
0
100
AcDbBlockEnd
  0
BLOCK
  5
1C
330
1B
100
AcDbEntity
 67
     1
  8
0
100
AcDbBlockBegin
  2
*Paper_Space
 70
     0
 10
0.0
 20
0.0
 30
0.0
  3
*Paper_Space
  1

  0
ENDBLK
  5
1D
330
1B
100
AcDbEntity
 67
     1
  8
0
100
AcDbBlockEnd
  0
BLOCK
  5
24
330
23
100
AcDbEntity
  8
0
100
AcDbBlockBegin
  2
*Paper_Space0
 70
     0
 10
0.0
 20
0.0
 30
0.0
  3
*Paper_Space0
  1

  0
ENDBLK
  5
25
330
23
100
AcDbEntity
  8
0
100
AcDbBlockEnd
  0
BLOCK
  5
65
330
64
100
AcDbEntity
  8
0
100
AcDbBlockBegin
  2
*D1
 70
     1
 10
0.0
 20
0.0
 30
0.0
  3
*D1
  1

  0
LINE
  5
67
330
64
100
AcDbEntity
  8
001
370
     9
100
AcDbLine
 10
48.708382
 20
43.810778
 30
0.0
 11
48.708382
 21
25.250679
 31
0.0
  0
LINE
  5
68
330
64
100
AcDbEntity
  8
001
370
     9
100
AcDbLine
 10
92.207786
 20
69.036304
 30
0.0
 11
92.207786
 21
25.250679
 31
0.0
  0
LINE
  5
69
330
64
100
AcDbEntity
  8
001
370
     9
100
AcDbLine
 10
48.708382
 20
28.000679
 30
0.0
 11
92.207786
 21
28.000679
 31
0.0
  0
POLYLINE
  5
6A
330
64
100
AcDbEntity
  8
001
370
     9
100
AcDb2dPolyline
 66
     1
 10
0.0
 20
0.0
 30
0.0
  0
VERTEX
  5
6C
330
6A
100
AcDbEntity
  8
001
370
     9
100
AcDbVertex
100
AcDb2dVertex
 10
50.208382
 20
27.598755
 30
0.0
  0
VERTEX
  5
6D
330
6A
100
AcDbEntity
  8
001
370
     9
100
AcDbVertex
100
AcDb2dVertex
 10
48.708382
 20
28.000679
 30
0.0
  0
VERTEX
  5
6E
330
6A
100
AcDbEntity
  8
001
370
     9
100
AcDbVertex
100
AcDb2dVertex
 10
50.208382
 20
28.402603
 30
0.0
  0
SEQEND
  5
6B
330
6A
100
AcDbEntity
  8
001
370
     9
  0
POLYLINE
  5
6F
330
64
100
AcDbEntity
  8
001
370
     9
100
AcDb2dPolyline
 66
     1
 10
0.0
 20
0.0
 30
0.0
  0
VERTEX
  5
71
330
6F
100
AcDbEntity
  8
001
370
     9
100
AcDbVertex
100
AcDb2dVertex
 10
90.707786
 20
28.402603
 30
0.0
  0
VERTEX
  5
72
330
6F
100
AcDbEntity
  8
001
370
     9
100
AcDbVertex
100
AcDb2dVertex
 10
92.207786
 20
28.000679
 30
0.0
  0
VERTEX
  5
73
330
6F
100
AcDbEntity
  8
001
370
     9
100
AcDbVertex
100
AcDb2dVertex
 10
90.707786
 20
27.598755
 30
0.0
  0
SEQEND
  5
70
330
6F
100
AcDbEntity
  8
001
370
     9
  0
TEXT
  5
74
330
64
100
AcDbEntity
  8
001
370
    30
100
AcDbText
 10
62.458084
 20
29.000679
 30
0.0
 40
4.0
  1
４３．５
 41
0.833333
100
AcDbText
  0
POINT
  5
75
330
64
100
AcDbEntity
  8
001
370
     9
100
AcDbPoint
 10
48.708382
 20
43.810778
 30
0.0
  0
POINT
  5
76
330
64
100
AcDbEntity
  8
001
370
     9
100
AcDbPoint
 10
92.207786
 20
69.036304
 30
0.0
  0
POINT
  5
77
330
64
100
AcDbEntity
  8
001
370
     9
100
AcDbPoint
 10
92.207786
 20
28.000679
 30
0.0
  0
ENDBLK
  5
66
330
64
100
AcDbEntity
  8
0
100
AcDbBlockEnd
  0
BLOCK
  5
79
330
78
100
AcDbEntity
  8
0
100
AcDbBlockBegin
  2
*D2
 70
     1
 10
0.0
 20
0.0
 30
0.0
  3
*D2
  1

  0
LINE
  5
7B
330
78
100
AcDbEntity
  8
001
370
     9
100
AcDbLine
 10
92.207786
 20
69.036304
 30
0.0
 11
92.207786
 21
25.250679
 31
0.0
  0
LINE
  5
7C
330
78
100
AcDbEntity
  8
001
370
     9
100
AcDbLine
 10
172.207786
 20
105.036304
 30
0.0
 11
172.207786
 21
25.250679
 31
0.0
  0
LINE
  5
7D
330
78
100
AcDbEntity
  8
001
370
     9
100
AcDbLine
 10
92.207786
 20
28.000679
 30
0.0
 11
172.207786
 21
28.000679
 31
0.0
  0
POLYLINE
  5
7E
330
78
100
AcDbEntity
  8
001
370
     9
100
AcDb2dPolyline
 66
     1
 10
0.0
 20
0.0
 30
0.0
  0
VERTEX
  5
80
330
7E
100
AcDbEntity
  8
001
370
     9
100
AcDbVertex
100
AcDb2dVertex
 10
93.707786
 20
27.598755
 30
0.0
  0
VERTEX
  5
81
330
7E
100
AcDbEntity
  8
001
370
     9
100
AcDbVertex
100
AcDb2dVertex
 10
92.207786
 20
28.000679
 30
0.0
  0
VERTEX
  5
82
330
7E
100
AcDbEntity
  8
001
370
     9
100
AcDbVertex
100
AcDb2dVertex
 10
93.707786
 20
28.402603
 30
0.0
  0
SEQEND
  5
7F
330
7E
100
AcDbEntity
  8
001
370
     9
  0
POLYLINE
  5
83
330
78
100
AcDbEntity
  8
001
370
     9
100
AcDb2dPolyline
 66
     1
 10
0.0
 20
0.0
 30
0.0
  0
VERTEX
  5
85
330
83
100
AcDbEntity
  8
001
370
     9
100
AcDbVertex
100
AcDb2dVertex
 10
170.707786
 20
28.402603
 30
0.0
  0
VERTEX
  5
86
330
83
100
AcDbEntity
  8
001
370
     9
100
AcDbVertex
100
AcDb2dVertex
 10
172.207786
 20
28.000679
 30
0.0
  0
VERTEX
  5
87
330
83
100
AcDbEntity
  8
001
370
     9
100
AcDbVertex
100
AcDb2dVertex
 10
170.707786
 20
27.598755
 30
0.0
  0
SEQEND
  5
84
330
83
100
AcDbEntity
  8
001
370
     9
  0
TEXT
  5
88
330
78
100
AcDbEntity
  8
001
370
    30
100
AcDbText
 10
128.207786
 20
29.000679
 30
0.0
 40
4.0
  1
８０
 41
0.833333
100
AcDbText
  0
POINT
  5
89
330
78
100
AcDbEntity
  8
001
370
     9
100
AcDbPoint
 10
92.207786
 20
69.036304
 30
0.0
  0
POINT
  5
8A
330
78
100
AcDbEntity
  8
001
370
     9
100
AcDbPoint
 10
172.207786
 20
105.036304
 30
0.0
  0
POINT
  5
8B
330
78
100
AcDbEntity
  8
001
370
     9
100
AcDbPoint
 10
172.207786
 20
28.000679
 30
0.0
  0
ENDBLK
  5
7A
330
78
100
AcDbEntity
  8
0
100
AcDbBlockEnd
  0
BLOCK
  5
8D
330
8C
100
AcDbEntity
  8
0
100
AcDbBlockBegin
  2
*D3
 70
     1
 10
0.0
 20
0.0
 30
0.0
  3
*D3
  1

  0
LINE
  5
8F
330
8C
100
AcDbEntity
  8
001
370
     9
100
AcDbLine
 10
48.708382
 20
28.000679
 30
0.0
 11
48.708382
 21
14.28552
 31
0.0
  0
LINE
  5
90
330
8C
100
AcDbEntity
  8
001
370
     9
100
AcDbLine
 10
172.207786
 20
105.036304
 30
0.0
 11
172.207786
 21
14.28552
 31
0.0
  0
LINE
  5
91
330
8C
100
AcDbEntity
  8
001
370
     9
100
AcDbLine
 10
48.708382
 20
17.03552
 30
0.0
 11
172.207786
 21
17.03552
 31
0.0
  0
POLYLINE
  5
92
330
8C
100
AcDbEntity
  8
001
370
     9
100
AcDb2dPolyline
 66
     1
 10
0.0
 20
0.0
 30
0.0
  0
VERTEX
  5
94
330
92
100
AcDbEntity
  8
001
370
     9
100
AcDbVertex
100
AcDb2dVertex
 10
50.208382
 20
16.633597
 30
0.0
  0
VERTEX
  5
95
330
92
100
AcDbEntity
  8
001
370
     9
100
AcDbVertex
100
AcDb2dVertex
 10
48.708382
 20
17.03552
 30
0.0
  0
VERTEX
  5
96
330
92
100
AcDbEntity
  8
001
370
     9
100
AcDbVertex
100
AcDb2dVertex
 10
50.208382
 20
17.437444
 30
0.0
  0
SEQEND
  5
93
330
92
100
AcDbEntity
  8
001
370
     9
  0
POLYLINE
  5
97
330
8C
100
AcDbEntity
  8
001
370
     9
100
AcDb2dPolyline
 66
     1
 10
0.0
 20
0.0
 30
0.0
  0
VERTEX
  5
99
330
97
100
AcDbEntity
  8
001
370
     9
100
AcDbVertex
100
AcDb2dVertex
 10
170.707786
 20
17.437444
 30
0.0
  0
VERTEX
  5
9A
330
97
100
AcDbEntity
  8
001
370
     9
100
AcDbVertex
100
AcDb2dVertex
 10
172.207786
 20
17.03552
 30
0.0
  0
VERTEX
  5
9B
330
97
100
AcDbEntity
  8
001
370
     9
100
AcDbVertex
100
AcDb2dVertex
 10
170.707786
 20
16.633597
 30
0.0
  0
SEQEND
  5
98
330
97
100
AcDbEntity
  8
001
370
     9
  0
TEXT
  5
9C
330
8C
100
AcDbEntity
  8
001
370
    30
100
AcDbText
 10
100.458084
 20
18.03552
 30
0.0
 40
4.0
  1
１２３．５
 41
0.833333
100
AcDbText
  0
POINT
  5
9D
330
8C
100
AcDbEntity
  8
001
370
     9
100
AcDbPoint
 10
48.708382
 20
28.000679
 30
0.0
  0
POINT
  5
9E
330
8C
100
AcDbEntity
  8
001
370
     9
100
AcDbPoint
 10
172.207786
 20
105.036304
 30
0.0
  0
POINT
  5
9F
330
8C
100
AcDbEntity
  8
001
370
     9
100
AcDbPoint
 10
172.207786
 20
17.03552
 30
0.0
  0
ENDBLK
  5
8E
330
8C
100
AcDbEntity
  8
0
100
AcDbBlockEnd
  0
BLOCK
  5
A1
330
A0
100
AcDbEntity
  8
0
100
AcDbBlockBegin
  2
*D4
 70
     1
 10
0.0
 20
0.0
 30
0.0
  3
*D4
  1

  0
LINE
  5
A3
330
A0
100
AcDbEntity
  8
001
370
     9
100
AcDbLine
 10
164.207786
 20
129.036304
 30
0.0
 11
198.306778
 21
129.036304
 31
0.0
  0
LINE
  5
A4
330
A0
100
AcDbEntity
  8
001
370
     9
100
AcDbLine
 10
164.207786
 20
97.036304
 30
0.0
 11
198.306778
 21
97.036304
 31
0.0
  0
LINE
  5
A5
330
A0
100
AcDbEntity
  8
001
370
     9
100
AcDbLine
 10
195.556778
 20
129.036304
 30
0.0
 11
195.556778
 21
97.036304
 31
0.0
  0
POLYLINE
  5
A6
330
A0
100
AcDbEntity
  8
001
370
     9
100
AcDb2dPolyline
 66
     1
 10
0.0
 20
0.0
 30
0.0
  0
VERTEX
  5
A8
330
A6
100
AcDbEntity
  8
001
370
     9
100
AcDbVertex
100
AcDb2dVertex
 10
195.154854
 20
127.536304
 30
0.0
  0
VERTEX
  5
A9
330
A6
100
AcDbEntity
  8
001
370
     9
100
AcDbVertex
100
AcDb2dVertex
 10
195.556778
 20
129.036304
 30
0.0
  0
VERTEX
  5
AA
330
A6
100
AcDbEntity
  8
001
370
     9
100
AcDbVertex
100
AcDb2dVertex
 10
195.958702
 20
127.536304
 30
0.0
  0
SEQEND
  5
A7
330
A6
100
AcDbEntity
  8
001
370
     9
  0
POLYLINE
  5
AB
330
A0
100
AcDbEntity
  8
001
370
     9
100
AcDb2dPolyline
 66
     1
 10
0.0
 20
0.0
 30
0.0
  0
VERTEX
  5
AD
330
AB
100
AcDbEntity
  8
001
370
     9
100
AcDbVertex
100
AcDb2dVertex
 10
195.958702
 20
98.536304
 30
0.0
  0
VERTEX
  5
AE
330
AB
100
AcDbEntity
  8
001
370
     9
100
AcDbVertex
100
AcDb2dVertex
 10
195.556778
 20
97.036304
 30
0.0
  0
VERTEX
  5
AF
330
AB
100
AcDbEntity
  8
001
370
     9
100
AcDbVertex
100
AcDb2dVertex
 10
195.154854
 20
98.536304
 30
0.0
  0
SEQEND
  5
AC
330
AB
100
AcDbEntity
  8
001
370
     9
  0
TEXT
  5
B0
330
A0
100
AcDbEntity
  8
001
370
    30
100
AcDbText
 10
194.556778
 20
107.036304
 30
0.0
 40
4.0
  1
%%c３２
 50
90.000003
 41
0.882353
100
AcDbText
  0
POINT
  5
B1
330
A0
100
AcDbEntity
  8
001
370
     9
100
AcDbPoint
 10
164.207786
 20
129.036304
 30
0.0
  0
POINT
  5
B2
330
A0
100
AcDbEntity
  8
001
370
     9
100
AcDbPoint
 10
164.207786
 20
97.036304
 30
0.0
  0
POINT
  5
B3
330
A0
100
AcDbEntity
  8
001
370
     9
100
AcDbPoint
 10
195.556778
 20
97.036304
 30
0.0
  0
ENDBLK
  5
A2
330
A0
100
AcDbEntity
  8
0
100
AcDbBlockEnd
  0
ENDSEC
  0
SECTION
  2
ENTITIES
  0
DIMENSION
  5
B4
330
1F
100
AcDbEntity
  8
001
370
     9
100
AcDbDimension
  2
*D1
 10
92.207786
 20
28.000679
 30
0.0
 11
70.458084
 21
31.000679
 31
0.0
 70
   160
 71
     5
 42
-1.0
  3
Standard
100
AcDbAlignedDimension
 13
48.708382
 23
43.810778
 33
0.0
 14
92.207786
 24
69.036304
 34
0.0
100
AcDbRotatedDimension
  0
DIMENSION
  5
B5
330
1F
100
AcDbEntity
  8
001
370
     9
100
AcDbDimension
  2
*D2
 10
172.207786
 20
28.000679
 30
0.0
 11
132.207786
 21
31.000679
 31
0.0
 70
   160
 71
     5
 42
-1.0
  3
Standard
100
AcDbAlignedDimension
 13
92.207786
 23
69.036304
 33
0.0
 14
172.207786
 24
105.036304
 34
0.0
100
AcDbRotatedDimension
  0
DIMENSION
  5
B6
330
1F
100
AcDbEntity
  8
001
370
     9
100
AcDbDimension
  2
*D3
 10
172.207786
 20
17.03552
 30
0.0
 11
110.458084
 21
20.03552
 31
0.0
 70
   160
 71
     5
 42
-1.0
  3
Standard
100
AcDbAlignedDimension
 13
48.708382
 23
28.000679
 33
0.0
 14
172.207786
 24
105.036304
 34
0.0
 50
360.0
100
AcDbRotatedDimension
  0
DIMENSION
  5
B7
330
1F
100
AcDbEntity
  8
001
370
     9
100
AcDbDimension
  2
*D4
 10
195.556778
 20
97.036304
 30
0.0
 11
192.556778
 21
113.036304
 31
0.0
 70
   160
 71
     5
 42
-1.0
  3
Standard
100
AcDbAlignedDimension
 13
164.207786
 23
129.036304
 33
0.0
 14
164.207786
 24
97.036304
 34
0.0
 50
270.0
100
AcDbRotatedDimension
  0
TEXT
  5
B8
330
1F
100
AcDbEntity
  8
001
370
    30
100
AcDbText
 10
16.544987
 20
105.036304
 30
0.0
 40
4.0
  1
%%c１４０
 50
90.000003
 41
0.869565
100
AcDbText
  0
POLYLINE
  5
B9
330
1F
100
AcDbEntity
  8
001
370
     9
100
AcDb2dPolyline
 66
     1
 10
0.0
 20
0.0
 30
0.0
  0
VERTEX
  5
BB
330
B9
100
AcDbEntity
  8
001
370
     9
100
AcDbVertex
100
AcDb2dVertex
 10
17.946911
 20
44.536304
 30
0.0
  0
VERTEX
  5
BC
330
B9
100
AcDbEntity
  8
001
370
     9
100
AcDbVertex
100
AcDb2dVertex
 10
17.544987
 20
43.036304
 30
0.0
  0
VERTEX
  5
BD
330
B9
100
AcDbEntity
  8
001
370
     9
100
AcDbVertex
100
AcDb2dVertex
 10
17.143063
 20
44.536304
 30
0.0
  0
SEQEND
  5
BA
330
B9
100
AcDbEntity
  8
001
370
     9
  0
LINE
  5
BE
330
1F
100
AcDbEntity
  8
001
370
     9
100
AcDbLine
 10
17.544987
 20
43.036304
 30
0.0
 11
17.544987
 21
183.036304
 31
0.0
  0
POLYLINE
  5
BF
330
1F
100
AcDbEntity
  8
001
370
     9
100
AcDb2dPolyline
 66
     1
 10
0.0
 20
0.0
 30
0.0
  0
VERTEX
  5
C1
330
BF
100
AcDbEntity
  8
001
370
     9
100
AcDbVertex
100
AcDb2dVertex
 10
48.708382
 20
43.036304
 30
0.0
  0
VERTEX
  5
C2
330
BF
100
AcDbEntity
  8
001
370
     9
100
AcDbVertex
100
AcDb2dVertex
 10
17.544987
 20
43.036304
 30
0.0
  0
VERTEX
  5
C3
330
BF
100
AcDbEntity
  8
001
370
     9
100
AcDbVertex
100
AcDb2dVertex
 10
14.794987
 20
43.036304
 30
0.0
  0
SEQEND
  5
C0
330
BF
100
AcDbEntity
  8
001
370
     9
  0
LINE
  5
C4
330
1F
100
AcDbEntity
  8
001
 62
   140
370
    50
100
AcDbLine
 10
67.207786
 20
58.98735
 30
0.0
 11
52.207786
 21
58.98735
 31
0.0
  0
POLYLINE
  5
C5
330
1F
100
AcDbEntity
  8
001
 62
   140
370
    50
100
AcDb2dPolyline
 66
     1
 10
0.0
 20
0.0
 30
0.0
  0
VERTEX
  5
C7
330
C5
100
AcDbEntity
  8
001
 62
   140
370
    50
100
AcDbVertex
100
AcDb2dVertex
 10
58.805397
 20
53.179039
 30
0.0
  0
VERTEX
  5
C8
330
C5
100
AcDbEntity
  8
001
 62
   140
370
    50
100
AcDbVertex
100
AcDb2dVertex
 10
58.849057
 20
53.243112
 30
0.0
  0
VERTEX
  5
C9
330
C5
100
AcDbEntity
  8
001
 62
   140
370
    50
100
AcDbVertex
100
AcDb2dVertex
 10
58.910124
 20
53.338482
 30
0.0
  0
VERTEX
  5
CA
330
C5
100
AcDbEntity
  8
001
 62
   140
370
    50
100
AcDbVertex
100
AcDb2dVertex
 10
59.05815
 20
53.61289
 30
0.0
  0
VERTEX
  5
CB
330
C5
100
AcDbEntity
  8
001
 62
   140
370
    50
100
AcDbVertex
100
AcDb2dVertex
 10
59.144586
 20
53.808481
 30
0.0
  0
SEQEND
  5
C6
330
C5
100
AcDbEntity
  8
001
370
    50
  0
LINE
  5
CC
330
1F
100
AcDbEntity
  8
001
 62
   140
370
    50
100
AcDbLine
 10
49.207786
 20
44.92629
 30
0.0
 11
53.910241
 21
53.153408
 31
0.0
  0
LINE
  5
CD
330
1F
100
AcDbEntity
  8
001
 62
   140
370
    50
100
AcDbLine
 10
49.207786
 20
44.92629
 30
0.0
 11
49.207786
 21
52.993556
 31
0.0
  0
LINE
  5
CE
330
1F
100
AcDbEntity
  8
001
 62
   140
370
    50
100
AcDbLine
 10
52.207786
 20
58.189708
 30
0.0
 11
49.207786
 21
52.993556
 31
0.0
  0
LINE
  5
CF
330
1F
100
AcDbEntity
  8
001
 62
   140
370
    50
100
AcDbLine
 10
52.207786
 20
60.036304
 30
0.0
 11
52.207786
 21
58.189708
 31
0.0
  0
LINE
  5
D0
330
1F
100
AcDbEntity
  8
001
 62
   140
370
    50
100
AcDbLine
 10
67.207786
 20
46.742241
 30
0.0
 11
67.207786
 21
59.036304
 31
0.0
  0
LINE
  5
D1
330
1F
100
AcDbEntity
  8
001
 62
   140
370
    50
100
AcDbLine
 10
58.805397
 20
53.179039
 30
0.0
 11
64.249323
 21
43.783778
 31
0.0
  0
POLYLINE
  5
D2
330
1F
100
AcDbEntity
  8
001
 62
   140
370
    50
100
AcDb2dPolyline
 66
     1
 10
0.0
 20
0.0
 30
0.0
  0
VERTEX
  5
D4
330
D2
100
AcDbEntity
  8
001
 62
   140
370
    50
100
AcDbVertex
100
AcDb2dVertex
 10
53.62717
 20
56.160526
 30
0.0
  0
VERTEX
  5
D5
330
D2
100
AcDbEntity
  8
001
 62
   140
370
    50
100
AcDbVertex
100
AcDb2dVertex
 10
53.584708
 20
56.016378
 30
0.0
  0
VERTEX
  5
D6
330
D2
100
AcDbEntity
  8
001
 62
   140
370
    50
100
AcDbVertex
100
AcDb2dVertex
 10
53.534292
 20
55.812905
 30
0.0
  0
VERTEX
  5
D7
330
D2
100
AcDbEntity
  8
001
 62
   140
370
    50
100
AcDbVertex
100
AcDb2dVertex
 10
53.490448
 20
55.541504
 30
0.0
  0
VERTEX
  5
D8
330
D2
100
AcDbEntity
  8
001
 62
   140
370
    50
100
AcDbVertex
100
AcDb2dVertex
 10
53.475599
 20
55.295441
 30
0.0
  0
VERTEX
  5
D9
330
D2
100
AcDbEntity
  8
001
 62
   140
370
    50
100
AcDbVertex
100
AcDb2dVertex
 10
53.47788
 20
55.044861
 30
0.0
  0
VERTEX
  5
DA
330
D2
100
AcDbEntity
  8
001
 62
   140
370
    50
100
AcDbVertex
100
AcDb2dVertex
 10
53.507977
 20
54.775408
 30
0.0
  0
VERTEX
  5
DB
330
D2
100
AcDbEntity
  8
001
 62
   140
370
    50
100
AcDbVertex
100
AcDb2dVertex
 10
53.674556
 20
54.18114
 30
0.0
  0
VERTEX
  5
DC
330
D2
100
AcDbEntity
  8
001
 62
   140
370
    50
100
AcDbVertex
100
AcDb2dVertex
 10
53.855742
 20
53.760617
 30
0.0
  0
SEQEND
  5
D3
330
D2
100
AcDbEntity
  8
001
370
    50
  0
POLYLINE
  5
DD
330
1F
100
AcDbEntity
  8
001
 62
   140
370
    50
100
AcDb2dPolyline
 66
     1
 10
0.0
 20
0.0
 30
0.0
  0
VERTEX
  5
DF
330
DD
100
AcDbEntity
  8
001
 62
   140
370
    50
100
AcDbVertex
100
AcDb2dVertex
 10
53.563407
 20
56.010853
 30
0.0
  0
VERTEX
  5
E0
330
DD
100
AcDbEntity
  8
001
 62
   140
370
    50
100
AcDbVertex
100
AcDb2dVertex
 10
53.494662
 20
55.802733
 30
0.0
  0
VERTEX
  5
E1
330
DD
100
AcDbEntity
  8
001
 62
   140
370
    50
100
AcDbVertex
100
AcDb2dVertex
 10
53.413736
 20
55.507396
 30
0.0
  0
VERTEX
  5
E2
330
DD
100
AcDbEntity
  8
001
 62
   140
370
    50
100
AcDbVertex
100
AcDb2dVertex
 10
53.332595
 20
54.97329
 30
0.0
  0
VERTEX
  5
E3
330
DD
100
AcDbEntity
  8
001
 62
   140
370
    50
100
AcDbVertex
100
AcDb2dVertex
 10
53.384242
 20
54.461844
 30
0.0
  0
VERTEX
  5
E4
330
DD
100
AcDbEntity
  8
001
 62
   140
370
    50
100
AcDbVertex
100
AcDb2dVertex
 10
53.636904
 20
53.695609
 30
0.0
  0
VERTEX
  5
E5
330
DD
100
AcDbEntity
  8
001
 62
   140
370
    50
100
AcDbVertex
100
AcDb2dVertex
 10
53.910241
 20
53.153408
 30
0.0
  0
SEQEND
  5
DE
330
DD
100
AcDbEntity
  8
001
370
    50
  0
POLYLINE
  5
E6
330
1F
100
AcDbEntity
  8
001
 62
   140
370
    50
100
AcDb2dPolyline
 66
     1
 10
0.0
 20
0.0
 30
0.0
  0
VERTEX
  5
E8
330
E6
100
AcDbEntity
  8
001
 62
   140
370
    50
100
AcDbVertex
100
AcDb2dVertex
 10
59.144586
 20
53.808481
 30
0.0
  0
VERTEX
  5
E9
330
E6
100
AcDbEntity
  8
001
 62
   140
370
    50
100
AcDbVertex
100
AcDb2dVertex
 10
59.214021
 20
54.015563
 30
0.0
  0
VERTEX
  5
EA
330
E6
100
AcDbEntity
  8
001
 62
   140
370
    50
100
AcDbVertex
100
AcDb2dVertex
 10
59.294257
 20
54.311939
 30
0.0
  0
VERTEX
  5
EB
330
E6
100
AcDbEntity
  8
001
 62
   140
370
    50
100
AcDbVertex
100
AcDb2dVertex
 10
59.36581
 20
54.860489
 30
0.0
  0
VERTEX
  5
EC
330
E6
100
AcDbEntity
  8
001
 62
   140
370
    50
100
AcDbVertex
100
AcDb2dVertex
 10
59.323751
 20
55.35749
 30
0.0
  0
VERTEX
  5
ED
330
E6
100
AcDbEntity
  8
001
 62
   140
370
    50
100
AcDbVertex
100
AcDb2dVertex
 10
59.10303
 20
56.101657
 30
0.0
  0
VERTEX
  5
EE
330
E6
100
AcDbEntity
  8
001
 62
   140
370
    50
100
AcDbVertex
100
AcDb2dVertex
 10
58.707173
 20
56.786506
 30
0.0
  0
VERTEX
  5
EF
330
E6
100
AcDbEntity
  8
001
 62
   140
370
    50
100
AcDbVertex
100
AcDb2dVertex
 10
58.536018
 20
56.985454
 30
0.0
  0
VERTEX
  5
F0
330
E6
100
AcDbEntity
  8
001
 62
   140
370
    50
100
AcDbVertex
100
AcDb2dVertex
 10
58.347797
 20
57.166957
 30
0.0
  0
VERTEX
  5
F1
330
E6
100
AcDbEntity
  8
001
 62
   140
370
    50
100
AcDbVertex
100
AcDb2dVertex
 10
58.144594
 20
57.33186
 30
0.0
  0
VERTEX
  5
F2
330
E6
100
AcDbEntity
  8
001
 62
   140
370
    50
100
AcDbVertex
100
AcDb2dVertex
 10
57.92784
 20
57.478822
 30
0.0
  0
VERTEX
  5
F3
330
E6
100
AcDbEntity
  8
001
 62
   140
370
    50
100
AcDbVertex
100
AcDb2dVertex
 10
57.699081
 20
57.606019
 30
0.0
  0
VERTEX
  5
F4
330
E6
100
AcDbEntity
  8
001
 62
   140
370
    50
100
AcDbVertex
100
AcDb2dVertex
 10
57.460063
 20
57.712624
 30
0.0
  0
VERTEX
  5
F5
330
E6
100
AcDbEntity
  8
001
 62
   140
370
    50
100
AcDbVertex
100
AcDb2dVertex
 10
57.212655
 20
57.797966
 30
0.0
  0
VERTEX
  5
F6
330
E6
100
AcDbEntity
  8
001
 62
   140
370
    50
100
AcDbVertex
100
AcDb2dVertex
 10
56.958679
 20
57.861259
 30
0.0
  0
VERTEX
  5
F7
330
E6
100
AcDbEntity
  8
001
 62
   140
370
    50
100
AcDbVertex
100
AcDb2dVertex
 10
56.699976
 20
57.901916
 30
0.0
  0
VERTEX
  5
F8
330
E6
100
AcDbEntity
  8
001
 62
   140
370
    50
100
AcDbVertex
100
AcDb2dVertex
 10
56.438921
 20
57.920213
 30
0.0
  0
VERTEX
  5
F9
330
E6
100
AcDbEntity
  8
001
 62
   140
370
    50
100
AcDbVertex
100
AcDb2dVertex
 10
56.177475
 20
57.916151
 30
0.0
  0
VERTEX
  5
FA
330
E6
100
AcDbEntity
  8
001
 62
   140
370
    50
100
AcDbVertex
100
AcDb2dVertex
 10
55.916583
 20
57.887692
 30
0.0
  0
VERTEX
  5
FB
330
E6
100
AcDbEntity
  8
001
 62
   140
370
    50
100
AcDbVertex
100
AcDb2dVertex
 10
55.159728
 20
57.657712
 30
0.0
  0
VERTEX
  5
FC
330
E6
100
AcDbEntity
  8
001
 62
   140
370
    50
100
AcDbVertex
100
AcDb2dVertex
 10
54.490309
 20
57.264801
 30
0.0
  0
VERTEX
  5
FD
330
E6
100
AcDbEntity
  8
001
 62
   140
370
    50
100
AcDbVertex
100
AcDb2dVertex
 10
54.120191
 20
56.930447
 30
0.0
  0
VERTEX
  5
FE
330
E6
100
AcDbEntity
  8
001
 62
   140
370
    50
100
AcDbVertex
100
AcDb2dVertex
 10
53.797869
 20
56.480852
 30
0.0
  0
VERTEX
  5
FF
330
E6
100
AcDbEntity
  8
001
 62
   140
370
    50
100
AcDbVertex
100
AcDb2dVertex
 10
53.654095
 20
56.209548
 30
0.0
  0
VERTEX
  5
100
330
E6
100
AcDbEntity
  8
001
 62
   140
370
    50
100
AcDbVertex
100
AcDb2dVertex
 10
53.563407
 20
56.010853
 30
0.0
  0
SEQEND
  5
E7
330
E6
100
AcDbEntity
  8
001
370
    50
  0
POLYLINE
  5
101
330
1F
100
AcDbEntity
  8
001
 62
   140
370
    50
100
AcDb2dPolyline
 66
     1
 10
0.0
 20
0.0
 30
0.0
  0
VERTEX
  5
103
330
101
100
AcDbEntity
  8
001
 62
   140
370
    50
100
AcDbVertex
100
AcDb2dVertex
 10
59.104938
 20
53.771815
 30
0.0
  0
VERTEX
  5
104
330
101
100
AcDbEntity
  8
001
 62
   140
370
    50
100
AcDbVertex
100
AcDb2dVertex
 10
59.125346
 20
53.809782
 30
0.0
  0
VERTEX
  5
105
330
101
100
AcDbEntity
  8
001
 62
   140
370
    50
100
AcDbVertex
100
AcDb2dVertex
 10
59.154268
 20
53.865741
 30
0.0
  0
VERTEX
  5
106
330
101
100
AcDbEntity
  8
001
 62
   140
370
    50
100
AcDbVertex
100
AcDb2dVertex
 10
59.18192
 20
53.922335
 30
0.0
  0
VERTEX
  5
107
330
101
100
AcDbEntity
  8
001
 62
   140
370
    50
100
AcDbVertex
100
AcDb2dVertex
 10
59.200214
 20
53.961364
 30
0.0
  0
SEQEND
  5
102
330
101
100
AcDbEntity
  8
001
370
    50
  0
LINE
  5
108
330
1F
100
AcDbEntity
  8
001
 62
   140
370
    50
100
AcDbLine
 10
53.855742
 20
53.760617
 30
0.0
 11
53.7872
 21
53.586923
 31
0.0
  0
POLYLINE
  5
109
330
1F
100
AcDbEntity
  8
001
 62
   140
370
    50
100
AcDb2dPolyline
 66
     1
 10
0.0
 20
0.0
 30
0.0
  0
VERTEX
  5
10B
330
109
100
AcDbEntity
  8
001
 62
   140
370
    50
100
AcDbVertex
100
AcDb2dVertex
 10
53.7872
 20
53.586923
 30
0.0
  0
VERTEX
  5
10C
330
109
100
AcDbEntity
  8
001
 62
   140
370
    50
100
AcDbVertex
100
AcDb2dVertex
 10
53.821548
 20
53.527403
 30
0.0
  0
VERTEX
  5
10D
330
109
100
AcDbEntity
  8
001
 62
   140
370
    50
100
AcDbVertex
100
AcDb2dVertex
 10
53.873939
 20
53.44175
 30
0.0
  0
VERTEX
  5
10E
330
109
100
AcDbEntity
  8
001
 62
   140
370
    50
100
AcDbVertex
100
AcDb2dVertex
 10
53.929359
 20
53.357998
 30
0.0
  0
VERTEX
  5
10F
330
109
100
AcDbEntity
  8
001
 62
   140
370
    50
100
AcDbVertex
100
AcDb2dVertex
 10
53.968744
 20
53.301664
 30
0.0
  0
SEQEND
  5
10A
330
109
100
AcDbEntity
  8
001
370
    50
  0
POLYLINE
  5
110
330
1F
100
AcDbEntity
  8
001
 62
   140
370
    50
100
AcDb2dPolyline
 66
     1
 10
0.0
 20
0.0
 30
0.0
  0
VERTEX
  5
112
330
110
100
AcDbEntity
  8
001
 62
   140
370
    50
100
AcDbVertex
100
AcDb2dVertex
 10
58.858016
 20
53.312384
 30
0.0
  0
VERTEX
  5
113
330
110
100
AcDbEntity
  8
001
 62
   140
370
    50
100
AcDbVertex
100
AcDb2dVertex
 10
58.901422
 20
53.375823
 30
0.0
  0
VERTEX
  5
114
330
110
100
AcDbEntity
  8
001
 62
   140
370
    50
100
AcDbVertex
100
AcDb2dVertex
 10
58.962139
 20
53.470297
 30
0.0
  0
VERTEX
  5
115
330
110
100
AcDbEntity
  8
001
 62
   140
370
    50
100
AcDbVertex
100
AcDb2dVertex
 10
59.006921
 20
53.545782
 30
0.0
  0
VERTEX
  5
116
330
110
100
AcDbEntity
  8
001
 62
   140
370
    50
100
AcDbVertex
100
AcDb2dVertex
 10
59.036397
 20
53.59812
 30
0.0
  0
SEQEND
  5
111
330
110
100
AcDbEntity
  8
001
370
    50
  0
LINE
  5
117
330
1F
100
AcDbEntity
  8
001
 62
   140
370
    50
100
AcDbLine
 10
59.036397
 20
53.59812
 30
0.0
 11
59.104938
 21
53.771815
 31
0.0
  0
LINE
  5
118
330
1F
100
AcDbEntity
  8
001
 62
   140
370
    50
100
AcDbLine
 10
58.805397
 20
53.179039
 30
0.0
 11
58.858016
 21
53.312384
 31
0.0
  0
LINE
  5
119
330
1F
100
AcDbEntity
  8
001
 62
   140
370
    50
100
AcDbLine
 10
53.968744
 20
53.301664
 30
0.0
 11
53.910241
 21
53.153408
 31
0.0
  0
LINE
  5
11A
330
1F
100
AcDbEntity
  8
001
 62
   140
370
    50
100
AcDbLine
 10
64.149887
 20
43.684342
 30
0.0
 11
64.01397
 21
43.684044
 31
0.0
  0
LINE
  5
11B
330
1F
100
AcDbEntity
  8
001
 62
   140
370
    50
100
AcDbLine
 10
67.207786
 20
46.742241
 30
0.0
 11
64.149887
 21
43.684342
 31
0.0
  0
POLYLINE
  5
11C
330
1F
100
AcDbEntity
  8
001
 62
   200
370
    50
100
AcDb2dPolyline
 66
     1
 10
0.0
 20
0.0
 30
0.0
  0
VERTEX
  5
11E
330
11C
100
AcDbEntity
  8
001
 62
   200
370
    50
100
AcDbVertex
100
AcDb2dVertex
 10
48.812653
 20
44.231795
 30
0.0
  0
VERTEX
  5
11F
330
11C
100
AcDbEntity
  8
001
 62
   200
370
    50
100
AcDbVertex
100
AcDb2dVertex
 10
48.8014
 20
44.211382
 30
0.0
  0
VERTEX
  5
120
330
11C
100
AcDbEntity
  8
001
 62
   200
370
    50
100
AcDbVertex
100
AcDb2dVertex
 10
48.785948
 20
44.18104
 30
0.0
  0
VERTEX
  5
121
330
11C
100
AcDbEntity
  8
001
 62
   200
370
    50
100
AcDbVertex
100
AcDb2dVertex
 10
48.771898
 20
44.150026
 30
0.0
  0
VERTEX
  5
122
330
11C
100
AcDbEntity
  8
001
 62
   200
370
    50
100
AcDbVertex
100
AcDb2dVertex
 10
48.762982
 20
44.128491
 30
0.0
  0
SEQEND
  5
11D
330
11C
100
AcDbEntity
  8
001
370
    50
  0
LINE
  5
123
330
1F
100
AcDbEntity
  8
001
 62
   200
370
    50
100
AcDbLine
 10
55.609733
 20
56.088936
 30
0.0
 11
48.812653
 21
44.231795
 31
0.0
  0
POLYLINE
  5
124
330
1F
100
AcDbEntity
  8
001
 62
   200
370
    50
100
AcDb2dPolyline
 66
     1
 10
0.0
 20
0.0
 30
0.0
  0
VERTEX
  5
126
330
124
100
AcDbEntity
  8
001
 62
   200
370
    50
100
AcDbVertex
100
AcDb2dVertex
 10
56.994532
 20
56.091972
 30
0.0
  0
VERTEX
  5
127
330
124
100
AcDbEntity
  8
001
 62
   200
370
    50
100
AcDbVertex
100
AcDb2dVertex
 10
56.968688
 20
56.132061
 30
0.0
  0
VERTEX
  5
128
330
124
100
AcDbEntity
  8
001
 62
   200
370
    50
100
AcDbVertex
100
AcDb2dVertex
 10
56.929483
 20
56.186772
 30
0.0
  0
VERTEX
  5
129
330
124
100
AcDbEntity
  8
001
 62
   200
370
    50
100
AcDbVertex
100
AcDb2dVertex
 10
56.82961
 20
56.294123
 30
0.0
  0
VERTEX
  5
12A
330
124
100
AcDbEntity
  8
001
 62
   200
370
    50
100
AcDbVertex
100
AcDb2dVertex
 10
56.721353
 20
56.370608
 30
0.0
  0
VERTEX
  5
12B
330
124
100
AcDbEntity
  8
001
 62
   200
370
    50
100
AcDbVertex
100
AcDb2dVertex
 10
56.660658
 20
56.403833
 30
0.0
  0
VERTEX
  5
12C
330
124
100
AcDbEntity
  8
001
 62
   200
370
    50
100
AcDbVertex
100
AcDb2dVertex
 10
56.596573
 20
56.432855
 30
0.0
  0
VERTEX
  5
12D
330
124
100
AcDbEntity
  8
001
 62
   200
370
    50
100
AcDbVertex
100
AcDb2dVertex
 10
56.530528
 20
56.455813
 30
0.0
  0
VERTEX
  5
12E
330
124
100
AcDbEntity
  8
001
 62
   200
370
    50
100
AcDbVertex
100
AcDb2dVertex
 10
56.46291
 20
56.472591
 30
0.0
  0
VERTEX
  5
12F
330
124
100
AcDbEntity
  8
001
 62
   200
370
    50
100
AcDbVertex
100
AcDb2dVertex
 10
56.324668
 20
56.488365
 30
0.0
  0
VERTEX
  5
130
330
124
100
AcDbEntity
  8
001
 62
   200
370
    50
100
AcDbVertex
100
AcDb2dVertex
 10
56.185326
 20
56.480422
 30
0.0
  0
VERTEX
  5
131
330
124
100
AcDbEntity
  8
001
 62
   200
370
    50
100
AcDbVertex
100
AcDb2dVertex
 10
55.985483
 20
56.424288
 30
0.0
  0
VERTEX
  5
132
330
124
100
AcDbEntity
  8
001
 62
   200
370
    50
100
AcDbVertex
100
AcDb2dVertex
 10
55.805937
 20
56.316726
 30
0.0
  0
VERTEX
  5
133
330
124
100
AcDbEntity
  8
001
 62
   200
370
    50
100
AcDbVertex
100
AcDb2dVertex
 10
55.75256
 20
56.269975
 30
0.0
  0
VERTEX
  5
134
330
124
100
AcDbEntity
  8
001
 62
   200
370
    50
100
AcDbVertex
100
AcDb2dVertex
 10
55.704931
 20
56.221316
 30
0.0
  0
VERTEX
  5
135
330
124
100
AcDbEntity
  8
001
 62
   200
370
    50
100
AcDbVertex
100
AcDb2dVertex
 10
55.663489
 20
56.17154
 30
0.0
  0
VERTEX
  5
136
330
124
100
AcDbEntity
  8
001
 62
   200
370
    50
100
AcDbVertex
100
AcDb2dVertex
 10
55.622134
 20
56.109821
 30
0.0
  0
VERTEX
  5
137
330
124
100
AcDbEntity
  8
001
 62
   200
370
    50
100
AcDbVertex
100
AcDb2dVertex
 10
55.61477
 20
56.097536
 30
0.0
  0
VERTEX
  5
138
330
124
100
AcDbEntity
  8
001
 62
   200
370
    50
100
AcDbVertex
100
AcDb2dVertex
 10
55.609733
 20
56.088936
 30
0.0
  0
SEQEND
  5
125
330
124
100
AcDbEntity
  8
001
370
    50
  0
LINE
  5
139
330
1F
100
AcDbEntity
  8
001
 62
   200
370
    50
100
AcDbLine
 10
63.915624
 20
44.264908
 30
0.0
 11
56.994532
 21
56.091972
 31
0.0
  0
POLYLINE
  5
13A
330
1F
100
AcDbEntity
  8
001
 62
   200
370
    50
100
AcDb2dPolyline
 66
     1
 10
0.0
 20
0.0
 30
0.0
  0
VERTEX
  5
13C
330
13A
100
AcDbEntity
  8
001
 62
   200
370
    50
100
AcDbVertex
100
AcDb2dVertex
 10
63.229483
 20
43.067973
 30
0.0
  0
VERTEX
  5
13D
330
13A
100
AcDbEntity
  8
001
 62
   200
370
    50
100
AcDbVertex
100
AcDb2dVertex
 10
63.276906
 20
43.070133
 30
0.0
  0
VERTEX
  5
13E
330
13A
100
AcDbEntity
  8
001
 62
   200
370
    50
100
AcDbVertex
100
AcDb2dVertex
 10
63.344203
 20
43.076477
 30
0.0
  0
VERTEX
  5
13F
330
13A
100
AcDbEntity
  8
001
 62
   200
370
    50
100
AcDbVertex
100
AcDb2dVertex
 10
63.555815
 20
43.133109
 30
0.0
  0
VERTEX
  5
140
330
13A
100
AcDbEntity
  8
001
 62
   200
370
    50
100
AcDbVertex
100
AcDb2dVertex
 10
63.723592
 20
43.240173
 30
0.0
  0
VERTEX
  5
141
330
13A
100
AcDbEntity
  8
001
 62
   200
370
    50
100
AcDbVertex
100
AcDb2dVertex
 10
63.775989
 20
43.286505
 30
0.0
  0
VERTEX
  5
142
330
13A
100
AcDbEntity
  8
001
 62
   200
370
    50
100
AcDbVertex
100
AcDb2dVertex
 10
63.824598
 20
43.335583
 30
0.0
  0
VERTEX
  5
143
330
13A
100
AcDbEntity
  8
001
 62
   200
370
    50
100
AcDbVertex
100
AcDb2dVertex
 10
63.867481
 20
43.386741
 30
0.0
  0
VERTEX
  5
144
330
13A
100
AcDbEntity
  8
001
 62
   200
370
    50
100
AcDbVertex
100
AcDb2dVertex
 10
63.907395
 20
43.447078
 30
0.0
  0
VERTEX
  5
145
330
13A
100
AcDbEntity
  8
001
 62
   200
370
    50
100
AcDbVertex
100
AcDb2dVertex
 10
63.945176
 20
43.518079
 30
0.0
  0
VERTEX
  5
146
330
13A
100
AcDbEntity
  8
001
 62
   200
370
    50
100
AcDbVertex
100
AcDb2dVertex
 10
63.969467
 20
43.571267
 30
0.0
  0
SEQEND
  5
13B
330
13A
100
AcDbEntity
  8
001
370
    50
  0
LINE
  5
147
330
1F
100
AcDbEntity
  8
001
 62
   200
370
    50
100
AcDbLine
 10
49.511312
 20
43.037896
 30
0.0
 11
63.229483
 21
43.067973
 31
0.0
  0
POLYLINE
  5
148
330
1F
100
AcDbEntity
  8
001
 62
   200
370
    50
100
AcDb2dPolyline
 66
     1
 10
0.0
 20
0.0
 30
0.0
  0
VERTEX
  5
14A
330
148
100
AcDbEntity
  8
001
 62
   200
370
    50
100
AcDbVertex
100
AcDb2dVertex
 10
56.345556
 20
49.689987
 30
0.0
  0
VERTEX
  5
14B
330
148
100
AcDbEntity
  8
001
 62
   200
370
    50
100
AcDbVertex
100
AcDb2dVertex
 10
56.228776
 20
49.685095
 30
0.0
  0
VERTEX
  5
14C
330
148
100
AcDbEntity
  8
001
 62
   200
370
    50
100
AcDbVertex
100
AcDb2dVertex
 10
56.063186
 20
49.669792
 30
0.0
  0
VERTEX
  5
14D
330
148
100
AcDbEntity
  8
001
 62
   200
370
    50
100
AcDbVertex
100
AcDb2dVertex
 10
55.560795
 20
49.535432
 30
0.0
  0
VERTEX
  5
14E
330
148
100
AcDbEntity
  8
001
 62
   200
370
    50
100
AcDbVertex
100
AcDb2dVertex
 10
55.162136
 20
49.281016
 30
0.0
  0
VERTEX
  5
14F
330
148
100
AcDbEntity
  8
001
 62
   200
370
    50
100
AcDbVertex
100
AcDb2dVertex
 10
55.037684
 20
49.17097
 30
0.0
  0
VERTEX
  5
150
330
148
100
AcDbEntity
  8
001
 62
   200
370
    50
100
AcDbVertex
100
AcDb2dVertex
 10
54.922247
 20
49.054415
 30
0.0
  0
VERTEX
  5
151
330
148
100
AcDbEntity
  8
001
 62
   200
370
    50
100
AcDbVertex
100
AcDb2dVertex
 10
54.820404
 20
48.932918
 30
0.0
  0
VERTEX
  5
152
330
148
100
AcDbEntity
  8
001
 62
   200
370
    50
100
AcDbVertex
100
AcDb2dVertex
 10
54.725604
 20
48.789616
 30
0.0
  0
VERTEX
  5
153
330
148
100
AcDbEntity
  8
001
 62
   200
370
    50
100
AcDbVertex
100
AcDb2dVertex
 10
54.635874
 20
48.620988
 30
0.0
  0
VERTEX
  5
154
330
148
100
AcDbEntity
  8
001
 62
   200
370
    50
100
AcDbVertex
100
AcDb2dVertex
 10
54.578183
 20
48.494664
 30
0.0
  0
SEQEND
  5
149
330
148
100
AcDbEntity
  8
001
370
    50
  0
POLYLINE
  5
155
330
1F
100
AcDbEntity
  8
001
 62
   200
370
    50
100
AcDb2dPolyline
 66
     1
 10
0.0
 20
0.0
 30
0.0
  0
VERTEX
  5
157
330
155
100
AcDbEntity
  8
001
 62
   200
370
    50
100
AcDbVertex
100
AcDb2dVertex
 10
57.158481
 20
56.507445
 30
0.0
  0
VERTEX
  5
158
330
155
100
AcDbEntity
  8
001
 62
   200
370
    50
100
AcDbVertex
100
AcDb2dVertex
 10
57.132637
 20
56.547533
 30
0.0
  0
VERTEX
  5
159
330
155
100
AcDbEntity
  8
001
 62
   200
370
    50
100
AcDbVertex
100
AcDb2dVertex
 10
57.093432
 20
56.602245
 30
0.0
  0
VERTEX
  5
15A
330
155
100
AcDbEntity
  8
001
 62
   200
370
    50
100
AcDbVertex
100
AcDb2dVertex
 10
56.993559
 20
56.709596
 30
0.0
  0
VERTEX
  5
15B
330
155
100
AcDbEntity
  8
001
 62
   200
370
    50
100
AcDbVertex
100
AcDb2dVertex
 10
56.885301
 20
56.786081
 30
0.0
  0
VERTEX
  5
15C
330
155
100
AcDbEntity
  8
001
 62
   200
370
    50
100
AcDbVertex
100
AcDb2dVertex
 10
56.824606
 20
56.819306
 30
0.0
  0
VERTEX
  5
15D
330
155
100
AcDbEntity
  8
001
 62
   200
370
    50
100
AcDbVertex
100
AcDb2dVertex
 10
56.760521
 20
56.848328
 30
0.0
  0
VERTEX
  5
15E
330
155
100
AcDbEntity
  8
001
 62
   200
370
    50
100
AcDbVertex
100
AcDb2dVertex
 10
56.694477
 20
56.871286
 30
0.0
  0
VERTEX
  5
15F
330
155
100
AcDbEntity
  8
001
 62
   200
370
    50
100
AcDbVertex
100
AcDb2dVertex
 10
56.626858
 20
56.888064
 30
0.0
  0
VERTEX
  5
160
330
155
100
AcDbEntity
  8
001
 62
   200
370
    50
100
AcDbVertex
100
AcDb2dVertex
 10
56.488616
 20
56.903838
 30
0.0
  0
VERTEX
  5
161
330
155
100
AcDbEntity
  8
001
 62
   200
370
    50
100
AcDbVertex
100
AcDb2dVertex
 10
56.349275
 20
56.895894
 30
0.0
  0
VERTEX
  5
162
330
155
100
AcDbEntity
  8
001
 62
   200
370
    50
100
AcDbVertex
100
AcDb2dVertex
 10
56.149431
 20
56.839761
 30
0.0
  0
VERTEX
  5
163
330
155
100
AcDbEntity
  8
001
 62
   200
370
    50
100
AcDbVertex
100
AcDb2dVertex
 10
55.969885
 20
56.732199
 30
0.0
  0
VERTEX
  5
164
330
155
100
AcDbEntity
  8
001
 62
   200
370
    50
100
AcDbVertex
100
AcDb2dVertex
 10
55.916509
 20
56.685448
 30
0.0
  0
VERTEX
  5
165
330
155
100
AcDbEntity
  8
001
 62
   200
370
    50
100
AcDbVertex
100
AcDb2dVertex
 10
55.868879
 20
56.636788
 30
0.0
  0
VERTEX
  5
166
330
155
100
AcDbEntity
  8
001
 62
   200
370
    50
100
AcDbVertex
100
AcDb2dVertex
 10
55.827437
 20
56.587013
 30
0.0
  0
VERTEX
  5
167
330
155
100
AcDbEntity
  8
001
 62
   200
370
    50
100
AcDbVertex
100
AcDb2dVertex
 10
55.786082
 20
56.525294
 30
0.0
  0
VERTEX
  5
168
330
155
100
AcDbEntity
  8
001
 62
   200
370
    50
100
AcDbVertex
100
AcDb2dVertex
 10
55.778718
 20
56.513009
 30
0.0
  0
VERTEX
  5
169
330
155
100
AcDbEntity
  8
001
 62
   200
370
    50
100
AcDbVertex
100
AcDb2dVertex
 10
55.773681
 20
56.504408
 30
0.0
  0
SEQEND
  5
156
330
155
100
AcDbEntity
  8
001
370
    50
  0
LINE
  5
16A
330
1F
100
AcDbEntity
  8
001
 62
   200
370
    50
100
AcDbLine
 10
58.948578
 20
53.448447
 30
0.0
 11
57.158481
 21
56.507445
 31
0.0
  0
LINE
  5
16B
330
1F
100
AcDbEntity
  8
001
 62
   200
370
    50
100
AcDbLine
 10
55.773681
 20
56.504408
 30
0.0
 11
53.951563
 21
53.325821
 31
0.0
  0
LINE
  5
16C
330
1F
100
AcDbEntity
  8
001
 62
   200
370
    50
100
AcDbLine
 10
49.207786
 20
45.050557
 30
0.0
 11
48.976601
 21
44.647268
 31
0.0
  0
POLYLINE
  5
16D
330
1F
100
AcDbEntity
  8
001
 62
   200
370
    50
100
AcDb2dPolyline
 66
     1
 10
0.0
 20
0.0
 30
0.0
  0
VERTEX
  5
16F
330
16D
100
AcDbEntity
  8
001
 62
   200
370
    50
100
AcDbVertex
100
AcDb2dVertex
 10
54.672517
 20
48.697523
 30
0.0
  0
VERTEX
  5
170
330
16D
100
AcDbEntity
  8
001
 62
   200
370
    50
100
AcDbVertex
100
AcDb2dVertex
 10
54.662083
 20
48.654876
 30
0.0
  0
VERTEX
  5
171
330
16D
100
AcDbEntity
  8
001
 62
   200
370
    50
100
AcDbVertex
100
AcDb2dVertex
 10
54.648411
 20
48.593995
 30
0.0
  0
VERTEX
  5
172
330
16D
100
AcDbEntity
  8
001
 62
   200
370
    50
100
AcDbVertex
100
AcDb2dVertex
 10
54.620068
 20
48.420999
 30
0.0
  0
VERTEX
  5
173
330
16D
100
AcDbEntity
  8
001
 62
   200
370
    50
100
AcDbVertex
100
AcDb2dVertex
 10
54.611238
 20
48.266268
 30
0.0
  0
VERTEX
  5
174
330
16D
100
AcDbEntity
  8
001
 62
   200
370
    50
100
AcDbVertex
100
AcDb2dVertex
 10
54.61495
 20
48.104246
 30
0.0
  0
VERTEX
  5
175
330
16D
100
AcDbEntity
  8
001
 62
   200
370
    50
100
AcDbVertex
100
AcDb2dVertex
 10
54.631744
 20
47.936913
 30
0.0
  0
VERTEX
  5
176
330
16D
100
AcDbEntity
  8
001
 62
   200
370
    50
100
AcDbVertex
100
AcDb2dVertex
 10
54.76894
 20
47.459485
 30
0.0
  0
VERTEX
  5
177
330
16D
100
AcDbEntity
  8
001
 62
   200
370
    50
100
AcDbVertex
100
AcDb2dVertex
 10
55.024501
 20
47.037591
 30
0.0
  0
VERTEX
  5
178
330
16D
100
AcDbEntity
  8
001
 62
   200
370
    50
100
AcDbVertex
100
AcDb2dVertex
 10
55.253053
 20
46.797672
 30
0.0
  0
VERTEX
  5
179
330
16D
100
AcDbEntity
  8
001
 62
   200
370
    50
100
AcDbVertex
100
AcDb2dVertex
 10
55.518811
 20
46.600981
 30
0.0
  0
VERTEX
  5
17A
330
16D
100
AcDbEntity
  8
001
 62
   200
370
    50
100
AcDbVertex
100
AcDb2dVertex
 10
55.66382
 20
46.520577
 30
0.0
  0
VERTEX
  5
17B
330
16D
100
AcDbEntity
  8
001
 62
   200
370
    50
100
AcDbVertex
100
AcDb2dVertex
 10
55.815164
 20
46.453144
 30
0.0
  0
VERTEX
  5
17C
330
16D
100
AcDbEntity
  8
001
 62
   200
370
    50
100
AcDbVertex
100
AcDb2dVertex
 10
55.971773
 20
46.399056
 30
0.0
  0
VERTEX
  5
17D
330
16D
100
AcDbEntity
  8
001
 62
   200
370
    50
100
AcDbVertex
100
AcDb2dVertex
 10
56.132613
 20
46.358771
 30
0.0
  0
VERTEX
  5
17E
330
16D
100
AcDbEntity
  8
001
 62
   200
370
    50
100
AcDbVertex
100
AcDb2dVertex
 10
56.461074
 20
46.320979
 30
0.0
  0
VERTEX
  5
17F
330
16D
100
AcDbEntity
  8
001
 62
   200
370
    50
100
AcDbVertex
100
AcDb2dVertex
 10
56.791874
 20
46.340173
 30
0.0
  0
VERTEX
  5
180
330
16D
100
AcDbEntity
  8
001
 62
   200
370
    50
100
AcDbVertex
100
AcDb2dVertex
 10
57.266672
 20
46.473862
 30
0.0
  0
VERTEX
  5
181
330
16D
100
AcDbEntity
  8
001
 62
   200
370
    50
100
AcDbVertex
100
AcDb2dVertex
 10
57.692924
 20
46.72895
 30
0.0
  0
VERTEX
  5
182
330
16D
100
AcDbEntity
  8
001
 62
   200
370
    50
100
AcDbVertex
100
AcDb2dVertex
 10
57.819461
 20
46.839723
 30
0.0
  0
VERTEX
  5
183
330
16D
100
AcDbEntity
  8
001
 62
   200
370
    50
100
AcDbVertex
100
AcDb2dVertex
 10
57.932814
 20
46.955551
 30
0.0
  0
VERTEX
  5
184
330
16D
100
AcDbEntity
  8
001
 62
   200
370
    50
100
AcDbVertex
100
AcDb2dVertex
 10
58.032026
 20
47.074616
 30
0.0
  0
VERTEX
  5
185
330
16D
100
AcDbEntity
  8
001
 62
   200
370
    50
100
AcDbVertex
100
AcDb2dVertex
 10
58.129456
 20
47.22035
 30
0.0
  0
VERTEX
  5
186
330
16D
100
AcDbEntity
  8
001
 62
   200
370
    50
100
AcDbVertex
100
AcDb2dVertex
 10
58.161043
 20
47.274162
 30
0.0
  0
VERTEX
  5
187
330
16D
100
AcDbEntity
  8
001
 62
   200
370
    50
100
AcDbVertex
100
AcDb2dVertex
 10
58.182543
 20
47.312443
 30
0.0
  0
SEQEND
  5
16E
330
16D
100
AcDbEntity
  8
001
370
    50
  0
POLYLINE
  5
188
330
1F
100
AcDbEntity
  8
001
 62
   200
370
    50
100
AcDb2dPolyline
 66
     1
 10
0.0
 20
0.0
 30
0.0
  0
VERTEX
  5
18A
330
188
100
AcDbEntity
  8
001
 62
   200
370
    50
100
AcDbVertex
100
AcDb2dVertex
 10
58.112929
 20
47.099828
 30
0.0
  0
VERTEX
  5
18B
330
188
100
AcDbEntity
  8
001
 62
   200
370
    50
100
AcDbVertex
100
AcDb2dVertex
 10
58.157103
 20
47.231458
 30
0.0
  0
VERTEX
  5
18C
330
188
100
AcDbEntity
  8
001
 62
   200
370
    50
100
AcDbVertex
100
AcDb2dVertex
 10
58.20665
 20
47.415971
 30
0.0
  0
VERTEX
  5
18D
330
188
100
AcDbEntity
  8
001
 62
   200
370
    50
100
AcDbVertex
100
AcDb2dVertex
 10
58.234976
 20
47.585647
 30
0.0
  0
VERTEX
  5
18E
330
188
100
AcDbEntity
  8
001
 62
   200
370
    50
100
AcDbVertex
100
AcDb2dVertex
 10
58.243822
 20
47.743698
 30
0.0
  0
VERTEX
  5
18F
330
188
100
AcDbEntity
  8
001
 62
   200
370
    50
100
AcDbVertex
100
AcDb2dVertex
 10
58.240141
 20
47.906717
 30
0.0
  0
VERTEX
  5
190
330
188
100
AcDbEntity
  8
001
 62
   200
370
    50
100
AcDbVertex
100
AcDb2dVertex
 10
58.223317
 20
48.073053
 30
0.0
  0
VERTEX
  5
191
330
188
100
AcDbEntity
  8
001
 62
   200
370
    50
100
AcDbVertex
100
AcDb2dVertex
 10
58.085599
 20
48.549486
 30
0.0
  0
VERTEX
  5
192
330
188
100
AcDbEntity
  8
001
 62
   200
370
    50
100
AcDbVertex
100
AcDb2dVertex
 10
57.830559
 20
48.972375
 30
0.0
  0
VERTEX
  5
193
330
188
100
AcDbEntity
  8
001
 62
   200
370
    50
100
AcDbVertex
100
AcDb2dVertex
 10
57.603307
 20
49.212425
 30
0.0
  0
VERTEX
  5
194
330
188
100
AcDbEntity
  8
001
 62
   200
370
    50
100
AcDbVertex
100
AcDb2dVertex
 10
57.336249
 20
49.408985
 30
0.0
  0
VERTEX
  5
195
330
188
100
AcDbEntity
  8
001
 62
   200
370
    50
100
AcDbVertex
100
AcDb2dVertex
 10
57.18932
 20
49.489387
 30
0.0
  0
VERTEX
  5
196
330
188
100
AcDbEntity
  8
001
 62
   200
370
    50
100
AcDbVertex
100
AcDb2dVertex
 10
57.039897
 20
49.556822
 30
0.0
  0
VERTEX
  5
197
330
188
100
AcDbEntity
  8
001
 62
   200
370
    50
100
AcDbVertex
100
AcDb2dVertex
 10
56.889897
 20
49.610873
 30
0.0
  0
VERTEX
  5
198
330
188
100
AcDbEntity
  8
001
 62
   200
370
    50
100
AcDbVertex
100
AcDb2dVertex
 10
56.722447
 20
49.651195
 30
0.0
  0
VERTEX
  5
199
330
188
100
AcDbEntity
  8
001
 62
   200
370
    50
100
AcDbVertex
100
AcDb2dVertex
 10
56.505238
 20
49.680057
 30
0.0
  0
VERTEX
  5
19A
330
188
100
AcDbEntity
  8
001
 62
   200
370
    50
100
AcDbVertex
100
AcDb2dVertex
 10
56.345556
 20
49.689987
 30
0.0
  0
SEQEND
  5
189
330
188
100
AcDbEntity
  8
001
370
    50
  0
POLYLINE
  5
19B
330
1F
100
AcDbEntity
  8
001
 62
   200
370
    50
100
AcDb2dPolyline
 66
     1
 10
0.0
 20
0.0
 30
0.0
  0
VERTEX
  5
19D
330
19B
100
AcDbEntity
  8
001
 62
   200
370
    50
100
AcDbVertex
100
AcDb2dVertex
 10
54.578183
 20
48.494664
 30
0.0
  0
VERTEX
  5
19E
330
19B
100
AcDbEntity
  8
001
 62
   200
370
    50
100
AcDbVertex
100
AcDb2dVertex
 10
54.53401
 20
48.363035
 30
0.0
  0
VERTEX
  5
19F
330
19B
100
AcDbEntity
  8
001
 62
   200
370
    50
100
AcDbVertex
100
AcDb2dVertex
 10
54.484462
 20
48.178522
 30
0.0
  0
VERTEX
  5
1A0
330
19B
100
AcDbEntity
  8
001
 62
   200
370
    50
100
AcDbVertex
100
AcDb2dVertex
 10
54.456129
 20
48.008846
 30
0.0
  0
VERTEX
  5
1A1
330
19B
100
AcDbEntity
  8
001
 62
   200
370
    50
100
AcDbVertex
100
AcDb2dVertex
 10
54.44729
 20
47.850795
 30
0.0
  0
VERTEX
  5
1A2
330
19B
100
AcDbEntity
  8
001
 62
   200
370
    50
100
AcDbVertex
100
AcDb2dVertex
 10
54.450999
 20
47.687776
 30
0.0
  0
VERTEX
  5
1A3
330
19B
100
AcDbEntity
  8
001
 62
   200
370
    50
100
AcDbVertex
100
AcDb2dVertex
 10
54.467795
 20
47.521441
 30
0.0
  0
VERTEX
  5
1A4
330
19B
100
AcDbEntity
  8
001
 62
   200
370
    50
100
AcDbVertex
100
AcDb2dVertex
 10
54.604994
 20
47.045009
 30
0.0
  0
VERTEX
  5
1A5
330
19B
100
AcDbEntity
  8
001
 62
   200
370
    50
100
AcDbVertex
100
AcDb2dVertex
 10
54.860553
 20
46.622119
 30
0.0
  0
VERTEX
  5
1A6
330
19B
100
AcDbEntity
  8
001
 62
   200
370
    50
100
AcDbVertex
100
AcDb2dVertex
 10
55.089106
 20
46.382062
 30
0.0
  0
VERTEX
  5
1A7
330
19B
100
AcDbEntity
  8
001
 62
   200
370
    50
100
AcDbVertex
100
AcDb2dVertex
 10
55.354863
 20
46.185508
 30
0.0
  0
VERTEX
  5
1A8
330
19B
100
AcDbEntity
  8
001
 62
   200
370
    50
100
AcDbVertex
100
AcDb2dVertex
 10
55.499869
 20
46.105115
 30
0.0
  0
VERTEX
  5
1A9
330
19B
100
AcDbEntity
  8
001
 62
   200
370
    50
100
AcDbVertex
100
AcDb2dVertex
 10
55.651215
 20
46.037671
 30
0.0
  0
VERTEX
  5
1AA
330
19B
100
AcDbEntity
  8
001
 62
   200
370
    50
100
AcDbVertex
100
AcDb2dVertex
 10
55.807834
 20
45.98359
 30
0.0
  0
VERTEX
  5
1AB
330
19B
100
AcDbEntity
  8
001
 62
   200
370
    50
100
AcDbVertex
100
AcDb2dVertex
 10
55.968665
 20
45.943298
 30
0.0
  0
VERTEX
  5
1AC
330
19B
100
AcDbEntity
  8
001
 62
   200
370
    50
100
AcDbVertex
100
AcDb2dVertex
 10
56.297031
 20
45.905406
 30
0.0
  0
VERTEX
  5
1AD
330
19B
100
AcDbEntity
  8
001
 62
   200
370
    50
100
AcDbVertex
100
AcDb2dVertex
 10
56.627926
 20
45.924701
 30
0.0
  0
VERTEX
  5
1AE
330
19B
100
AcDbEntity
  8
001
 62
   200
370
    50
100
AcDbVertex
100
AcDb2dVertex
 10
57.103403
 20
46.05912
 30
0.0
  0
VERTEX
  5
1AF
330
19B
100
AcDbEntity
  8
001
 62
   200
370
    50
100
AcDbVertex
100
AcDb2dVertex
 10
57.528976
 20
46.313477
 30
0.0
  0
VERTEX
  5
1B0
330
19B
100
AcDbEntity
  8
001
 62
   200
370
    50
100
AcDbVertex
100
AcDb2dVertex
 10
57.654834
 20
46.42352
 30
0.0
  0
VERTEX
  5
1B1
330
19B
100
AcDbEntity
  8
001
 62
   200
370
    50
100
AcDbVertex
100
AcDb2dVertex
 10
57.768865
 20
46.540078
 30
0.0
  0
VERTEX
  5
1B2
330
19B
100
AcDbEntity
  8
001
 62
   200
370
    50
100
AcDbVertex
100
AcDb2dVertex
 10
57.870338
 20
46.661576
 30
0.0
  0
VERTEX
  5
1B3
330
19B
100
AcDbEntity
  8
001
 62
   200
370
    50
100
AcDbVertex
100
AcDb2dVertex
 10
57.965508
 20
46.804877
 30
0.0
  0
VERTEX
  5
1B4
330
19B
100
AcDbEntity
  8
001
 62
   200
370
    50
100
AcDbVertex
100
AcDb2dVertex
 10
58.055312
 20
46.973505
 30
0.0
  0
VERTEX
  5
1B5
330
19B
100
AcDbEntity
  8
001
 62
   200
370
    50
100
AcDbVertex
100
AcDb2dVertex
 10
58.112929
 20
47.099828
 30
0.0
  0
SEQEND
  5
19C
330
19B
100
AcDbEntity
  8
001
370
    50
  0
POLYLINE
  5
1B6
330
1F
100
AcDbEntity
  8
001
 62
   200
370
    50
100
AcDb2dPolyline
 66
     1
 10
0.0
 20
0.0
 30
0.0
  0
VERTEX
  5
1B8
330
1B6
100
AcDbEntity
  8
001
 62
   200
370
    50
100
AcDbVertex
100
AcDb2dVertex
 10
63.969467
 20
43.571267
 30
0.0
  0
VERTEX
  5
1B9
330
1B6
100
AcDbEntity
  8
001
 62
   200
370
    50
100
AcDbVertex
100
AcDb2dVertex
 10
63.988117
 20
43.626606
 30
0.0
  0
VERTEX
  5
1BA
330
1B6
100
AcDbEntity
  8
001
 62
   200
370
    50
100
AcDbVertex
100
AcDb2dVertex
 10
64.008929
 20
43.70438
 30
0.0
  0
VERTEX
  5
1BB
330
1B6
100
AcDbEntity
  8
001
 62
   200
370
    50
100
AcDbVertex
100
AcDb2dVertex
 10
64.020606
 20
43.776247
 30
0.0
  0
VERTEX
  5
1BC
330
1B6
100
AcDbEntity
  8
001
 62
   200
370
    50
100
AcDbVertex
100
AcDb2dVertex
 10
64.02458
 20
43.842371
 30
0.0
  0
VERTEX
  5
1BD
330
1B6
100
AcDbEntity
  8
001
 62
   200
370
    50
100
AcDbVertex
100
AcDb2dVertex
 10
64.023978
 20
43.909398
 30
0.0
  0
VERTEX
  5
1BE
330
1B6
100
AcDbEntity
  8
001
 62
   200
370
    50
100
AcDbVertex
100
AcDb2dVertex
 10
64.015946
 20
43.981046
 30
0.0
  0
VERTEX
  5
1BF
330
1B6
100
AcDbEntity
  8
001
 62
   200
370
    50
100
AcDbVertex
100
AcDb2dVertex
 10
63.968141
 20
44.147348
 30
0.0
  0
VERTEX
  5
1C0
330
1B6
100
AcDbEntity
  8
001
 62
   200
370
    50
100
AcDbVertex
100
AcDb2dVertex
 10
63.915624
 20
44.264908
 30
0.0
  0
SEQEND
  5
1B7
330
1B6
100
AcDbEntity
  8
001
370
    50
  0
LINE
  5
1C1
330
1F
100
AcDbEntity
  8
001
 62
   200
370
    50
100
AcDbLine
 10
63.969467
 20
43.571268
 30
0.0
 11
64.132729
 21
43.984999
 31
0.0
  0
POLYLINE
  5
1C2
330
1F
100
AcDbEntity
  8
001
 62
   200
370
    50
100
AcDb2dPolyline
 66
     1
 10
0.0
 20
0.0
 30
0.0
  0
VERTEX
  5
1C4
330
1C2
100
AcDbEntity
  8
001
 62
   200
370
    50
100
AcDbVertex
100
AcDb2dVertex
 10
48.762982
 20
44.128491
 30
0.0
  0
VERTEX
  5
1C5
330
1C2
100
AcDbEntity
  8
001
 62
   200
370
    50
100
AcDbVertex
100
AcDb2dVertex
 10
48.744382
 20
44.073068
 30
0.0
  0
VERTEX
  5
1C6
330
1C2
100
AcDbEntity
  8
001
 62
   200
370
    50
100
AcDbVertex
100
AcDb2dVertex
 10
48.72352
 20
43.995378
 30
0.0
  0
VERTEX
  5
1C7
330
1C2
100
AcDbEntity
  8
001
 62
   200
370
    50
100
AcDbVertex
100
AcDb2dVertex
 10
48.711594
 20
43.923936
 30
0.0
  0
VERTEX
  5
1C8
330
1C2
100
AcDbEntity
  8
001
 62
   200
370
    50
100
AcDbVertex
100
AcDb2dVertex
 10
48.707869
 20
43.857388
 30
0.0
  0
VERTEX
  5
1C9
330
1C2
100
AcDbEntity
  8
001
 62
   200
370
    50
100
AcDbVertex
100
AcDb2dVertex
 10
48.709419
 20
43.788748
 30
0.0
  0
VERTEX
  5
1CA
330
1C2
100
AcDbEntity
  8
001
 62
   200
370
    50
100
AcDbVertex
100
AcDb2dVertex
 10
48.716503
 20
43.718712
 30
0.0
  0
VERTEX
  5
1CB
330
1C2
100
AcDbEntity
  8
001
 62
   200
370
    50
100
AcDbVertex
100
AcDb2dVertex
 10
48.774486
 20
43.51811
 30
0.0
  0
VERTEX
  5
1CC
330
1C2
100
AcDbEntity
  8
001
 62
   200
370
    50
100
AcDbVertex
100
AcDb2dVertex
 10
48.881874
 20
43.34005
 30
0.0
  0
VERTEX
  5
1CD
330
1C2
100
AcDbEntity
  8
001
 62
   200
370
    50
100
AcDbVertex
100
AcDb2dVertex
 10
48.977566
 20
43.238973
 30
0.0
  0
VERTEX
  5
1CE
330
1C2
100
AcDbEntity
  8
001
 62
   200
370
    50
100
AcDbVertex
100
AcDb2dVertex
 10
49.090005
 20
43.156214
 30
0.0
  0
VERTEX
  5
1CF
330
1C2
100
AcDbEntity
  8
001
 62
   200
370
    50
100
AcDbVertex
100
AcDb2dVertex
 10
49.15186
 20
43.122365
 30
0.0
  0
VERTEX
  5
1D0
330
1C2
100
AcDbEntity
  8
001
 62
   200
370
    50
100
AcDbVertex
100
AcDb2dVertex
 10
49.214785
 20
43.093967
 30
0.0
  0
VERTEX
  5
1D1
330
1C2
100
AcDbEntity
  8
001
 62
   200
370
    50
100
AcDbVertex
100
AcDb2dVertex
 10
49.277977
 20
43.071194
 30
0.0
  0
VERTEX
  5
1D2
330
1C2
100
AcDbEntity
  8
001
 62
   200
370
    50
100
AcDbVertex
100
AcDb2dVertex
 10
49.348448
 20
43.054231
 30
0.0
  0
VERTEX
  5
1D3
330
1C2
100
AcDbEntity
  8
001
 62
   200
370
    50
100
AcDbVertex
100
AcDb2dVertex
 10
49.442274
 20
43.041934
 30
0.0
  0
VERTEX
  5
1D4
330
1C2
100
AcDbEntity
  8
001
 62
   200
370
    50
100
AcDbVertex
100
AcDb2dVertex
 10
49.511312
 20
43.037896
 30
0.0
  0
SEQEND
  5
1C3
330
1C2
100
AcDbEntity
  8
001
370
    50
  0
LINE
  5
1D5
330
1F
100
AcDbEntity
  8
001
 62
   200
370
    50
100
AcDbLine
 10
48.92693
 20
44.543963
 30
0.0
 11
48.762982
 21
44.128491
 31
0.0
  0
POLYLINE
  5
1D6
330
1F
100
AcDbEntity
  8
001
 62
   200
370
    50
100
AcDb2dPolyline
 66
     1
 10
0.0
 20
0.0
 30
0.0
  0
VERTEX
  5
1D8
330
1D6
100
AcDbEntity
  8
001
 62
   200
370
    50
100
AcDbVertex
100
AcDb2dVertex
 10
48.976601
 20
44.647268
 30
0.0
  0
VERTEX
  5
1D9
330
1D6
100
AcDbEntity
  8
001
 62
   200
370
    50
100
AcDbVertex
100
AcDb2dVertex
 10
48.965348
 20
44.626855
 30
0.0
  0
VERTEX
  5
1DA
330
1D6
100
AcDbEntity
  8
001
 62
   200
370
    50
100
AcDbVertex
100
AcDb2dVertex
 10
48.949896
 20
44.596513
 30
0.0
  0
VERTEX
  5
1DB
330
1D6
100
AcDbEntity
  8
001
 62
   200
370
    50
100
AcDbVertex
100
AcDb2dVertex
 10
48.935847
 20
44.565499
 30
0.0
  0
VERTEX
  5
1DC
330
1D6
100
AcDbEntity
  8
001
 62
   200
370
    50
100
AcDbVertex
100
AcDb2dVertex
 10
48.92693
 20
44.543963
 30
0.0
  0
SEQEND
  5
1D7
330
1D6
100
AcDbEntity
  8
001
370
    50
  0
LINE
  5
1DD
330
1F
100
AcDbEntity
  8
001
 62
   140
370
    50
100
AcDbLine
 10
49.207786
 20
96.624637
 30
0.0
 11
52.207786
 21
100.513068
 31
0.0
  0
POLYLINE
  5
1DE
330
1F
100
AcDbEntity
  8
001
 62
   200
370
    50
100
AcDb2dPolyline
 66
     1
 10
0.0
 20
0.0
 30
0.0
  0
VERTEX
  5
1E0
330
1DE
100
AcDbEntity
  8
001
 62
   200
370
    50
100
AcDbVertex
100
AcDb2dVertex
 10
48.711735
 20
78.402099
 30
0.0
  0
VERTEX
  5
1E1
330
1DE
100
AcDbEntity
  8
001
 62
   200
370
    50
100
AcDbVertex
100
AcDb2dVertex
 10
48.710466
 20
78.396308
 30
0.0
  0
VERTEX
  5
1E2
330
1DE
100
AcDbEntity
  8
001
 62
   200
370
    50
100
AcDbVertex
100
AcDb2dVertex
 10
48.708996
 20
78.387778
 30
0.0
  0
VERTEX
  5
1E3
330
1DE
100
AcDbEntity
  8
001
 62
   200
370
    50
100
AcDbVertex
100
AcDb2dVertex
 10
48.708078
 20
78.379244
 30
0.0
  0
VERTEX
  5
1E4
330
1DE
100
AcDbEntity
  8
001
 62
   200
370
    50
100
AcDbVertex
100
AcDb2dVertex
 10
48.707717
 20
78.373376
 30
0.0
  0
SEQEND
  5
1DF
330
1DE
100
AcDbEntity
  8
001
370
    50
  0
LINE
  5
1E5
330
1F
100
AcDbEntity
  8
001
 62
   200
370
    50
100
AcDbLine
 10
49.207786
 20
83.008052
 30
0.0
 11
48.976601
 21
82.843954
 31
0.0
  0
POLYLINE
  5
1E6
330
1F
100
AcDbEntity
  8
001
 62
   200
370
    50
100
AcDb2dPolyline
 66
     1
 10
0.0
 20
0.0
 30
0.0
  0
VERTEX
  5
1E8
330
1E6
100
AcDbEntity
  8
001
 62
   200
370
    50
100
AcDbVertex
100
AcDb2dVertex
 10
48.707717
 20
78.373376
 30
0.0
  0
VERTEX
  5
1E9
330
1E6
100
AcDbEntity
  8
001
 62
   200
370
    50
100
AcDbVertex
100
AcDb2dVertex
 10
48.70777
 20
78.362801
 30
0.0
  0
VERTEX
  5
1EA
330
1E6
100
AcDbEntity
  8
001
 62
   200
370
    50
100
AcDbVertex
100
AcDb2dVertex
 10
48.70908
 20
78.347449
 30
0.0
  0
VERTEX
  5
1EB
330
1E6
100
AcDbEntity
  8
001
 62
   200
370
    50
100
AcDbVertex
100
AcDb2dVertex
 10
48.712173
 20
78.33194
 30
0.0
  0
VERTEX
  5
1EC
330
1E6
100
AcDbEntity
  8
001
 62
   200
370
    50
100
AcDbVertex
100
AcDb2dVertex
 10
48.715127
 20
78.321495
 30
0.0
  0
SEQEND
  5
1E7
330
1E6
100
AcDbEntity
  8
001
370
    50
  0
LINE
  5
1ED
330
1F
100
AcDbEntity
  8
001
 62
   200
370
    50
100
AcDbLine
 10
48.871665
 20
82.685205
 30
0.0
 11
48.715141
 21
78.568644
 31
0.0
  0
LINE
  5
1EE
330
1F
100
AcDbEntity
  8
001
 62
   200
370
    50
100
AcDbLine
 10
48.710198
 20
78.438639
 30
0.0
 11
48.707717
 21
78.373376
 31
0.0
  0
POLYLINE
  5
1EF
330
1F
100
AcDbEntity
  8
001
 62
   200
370
    50
100
AcDb2dPolyline
 66
     1
 10
0.0
 20
0.0
 30
0.0
  0
VERTEX
  5
1F1
330
1EF
100
AcDbEntity
  8
001
 62
   200
370
    50
100
AcDbVertex
100
AcDb2dVertex
 10
48.976601
 20
82.843954
 30
0.0
  0
VERTEX
  5
1F2
330
1EF
100
AcDbEntity
  8
001
 62
   200
370
    50
100
AcDbVertex
100
AcDb2dVertex
 10
48.953734
 20
82.825576
 30
0.0
  0
VERTEX
  5
1F3
330
1EF
100
AcDbEntity
  8
001
 62
   200
370
    50
100
AcDbVertex
100
AcDb2dVertex
 10
48.924265
 20
82.79881
 30
0.0
  0
VERTEX
  5
1F4
330
1EF
100
AcDbEntity
  8
001
 62
   200
370
    50
100
AcDbVertex
100
AcDb2dVertex
 10
48.901873
 20
82.773292
 30
0.0
  0
VERTEX
  5
1F5
330
1EF
100
AcDbEntity
  8
001
 62
   200
370
    50
100
AcDbVertex
100
AcDb2dVertex
 10
48.886038
 20
82.743353
 30
0.0
  0
VERTEX
  5
1F6
330
1EF
100
AcDbEntity
  8
001
 62
   200
370
    50
100
AcDbVertex
100
AcDb2dVertex
 10
48.875997
 20
82.710252
 30
0.0
  0
VERTEX
  5
1F7
330
1EF
100
AcDbEntity
  8
001
 62
   200
370
    50
100
AcDbVertex
100
AcDb2dVertex
 10
48.871665
 20
82.685205
 30
0.0
  0
SEQEND
  5
1F0
330
1EF
100
AcDbEntity
  8
001
370
    50
  0
LINE
  5
1F8
330
1F
100
AcDbEntity
  8
001
 62
   140
370
    50
100
AcDbLine
 10
49.207786
 20
156.667385
 30
0.0
 11
52.207786
 21
155.359663
 31
0.0
  0
LINE
  5
1F9
330
1F
100
AcDbEntity
  8
001
 62
   140
370
    50
100
AcDbLine
 10
49.507786
 20
158.412928
 30
0.0
 11
49.207786
 21
158.31896
 31
0.0
  0
LINE
  5
1FA
330
1F
100
AcDbEntity
  8
001
 62
   140
370
    50
100
AcDbLine
 10
52.207786
 20
158.412928
 30
0.0
 11
49.507786
 21
158.412928
 31
0.0
  0
LINE
  5
1FB
330
1F
100
AcDbEntity
  8
001
 62
   140
370
    50
100
AcDbLine
 10
49.207786
 20
148.033658
 30
0.0
 11
49.207786
 21
158.31896
 31
0.0
  0
LINE
  5
1FC
330
1F
100
AcDbEntity
  8
001
 62
   200
370
    50
100
AcDbLine
 10
49.207786
 20
150.993799
 30
0.0
 11
48.976601
 21
151.23299
 31
0.0
  0
POLYLINE
  5
1FD
330
1F
100
AcDbEntity
  8
001
 62
   200
370
    50
100
AcDb2dPolyline
 66
     1
 10
0.0
 20
0.0
 30
0.0
  0
VERTEX
  5
1FF
330
1FD
100
AcDbEntity
  8
001
 62
   200
370
    50
100
AcDbVertex
100
AcDb2dVertex
 10
48.871795
 20
151.474431
 30
0.0
  0
VERTEX
  5
200
330
1FD
100
AcDbEntity
  8
001
 62
   200
370
    50
100
AcDbVertex
100
AcDb2dVertex
 10
48.873384
 20
151.44062
 30
0.0
  0
VERTEX
  5
201
330
1FD
100
AcDbEntity
  8
001
 62
   200
370
    50
100
AcDbVertex
100
AcDb2dVertex
 10
48.880589
 20
151.394337
 30
0.0
  0
VERTEX
  5
202
330
1FD
100
AcDbEntity
  8
001
 62
   200
370
    50
100
AcDbVertex
100
AcDb2dVertex
 10
48.894813
 20
151.351498
 30
0.0
  0
VERTEX
  5
203
330
1FD
100
AcDbEntity
  8
001
 62
   200
370
    50
100
AcDbVertex
100
AcDb2dVertex
 10
48.913402
 20
151.315654
 30
0.0
  0
VERTEX
  5
204
330
1FD
100
AcDbEntity
  8
001
 62
   200
370
    50
100
AcDbVertex
100
AcDb2dVertex
 10
48.936944
 20
151.279484
 30
0.0
  0
VERTEX
  5
205
330
1FD
100
AcDbEntity
  8
001
 62
   200
370
    50
100
AcDbVertex
100
AcDb2dVertex
 10
48.969237
 20
151.240774
 30
0.0
  0
VERTEX
  5
206
330
1FD
100
AcDbEntity
  8
001
 62
   200
370
    50
100
AcDbVertex
100
AcDb2dVertex
 10
48.973575
 20
151.236159
 30
0.0
  0
VERTEX
  5
207
330
1FD
100
AcDbEntity
  8
001
 62
   200
370
    50
100
AcDbVertex
100
AcDb2dVertex
 10
48.976601
 20
151.23299
 30
0.0
  0
SEQEND
  5
1FE
330
1FD
100
AcDbEntity
  8
001
370
    50
  0
POLYLINE
  5
208
330
1F
100
AcDbEntity
  8
001
 62
   200
370
    50
100
AcDb2dPolyline
 66
     1
 10
0.0
 20
0.0
 30
0.0
  0
VERTEX
  5
20A
330
208
100
AcDbEntity
  8
001
 62
   200
370
    50
100
AcDbVertex
100
AcDb2dVertex
 10
49.207786
 20
151.827942
 30
0.0
  0
VERTEX
  5
20B
330
208
100
AcDbEntity
  8
001
 62
   200
370
    50
100
AcDbVertex
100
AcDb2dVertex
 10
49.109038
 20
151.780678
 30
0.0
  0
VERTEX
  5
20C
330
208
100
AcDbEntity
  8
001
 62
   200
370
    50
100
AcDbVertex
100
AcDb2dVertex
 10
48.988522
 20
151.699076
 30
0.0
  0
VERTEX
  5
20D
330
208
100
AcDbEntity
  8
001
 62
   200
370
    50
100
AcDbVertex
100
AcDb2dVertex
 10
48.954558
 20
151.664801
 30
0.0
  0
VERTEX
  5
20E
330
208
100
AcDbEntity
  8
001
 62
   200
370
    50
100
AcDbVertex
100
AcDb2dVertex
 10
48.926593
 20
151.629151
 30
0.0
  0
VERTEX
  5
20F
330
208
100
AcDbEntity
  8
001
 62
   200
370
    50
100
AcDbVertex
100
AcDb2dVertex
 10
48.904721
 20
151.59463
 30
0.0
  0
VERTEX
  5
210
330
208
100
AcDbEntity
  8
001
 62
   200
370
    50
100
AcDbVertex
100
AcDb2dVertex
 10
48.887286
 20
151.553503
 30
0.0
  0
VERTEX
  5
211
330
208
100
AcDbEntity
  8
001
 62
   200
370
    50
100
AcDbVertex
100
AcDb2dVertex
 10
48.876281
 20
151.508056
 30
0.0
  0
VERTEX
  5
212
330
208
100
AcDbEntity
  8
001
 62
   200
370
    50
100
AcDbVertex
100
AcDb2dVertex
 10
48.871795
 20
151.474431
 30
0.0
  0
SEQEND
  5
209
330
208
100
AcDbEntity
  8
001
370
    50
  0
LINE
  5
213
330
1F
100
AcDbEntity
  8
001
 62
   200
370
    50
100
AcDbLine
 10
48.871795
 20
151.474431
 30
0.0
 11
48.715127
 21
147.751113
 31
0.0
  0
LINE
  5
214
330
1F
100
AcDbEntity
  8
001
 62
   200
370
    50
100
AcDbLine
 10
48.710198
 20
147.633969
 30
0.0
 11
48.707846
 21
147.578074
 31
0.0
  0
POLYLINE
  5
215
330
1F
100
AcDbEntity
  8
001
 62
   200
370
    50
100
AcDb2dPolyline
 66
     1
 10
0.0
 20
0.0
 30
0.0
  0
VERTEX
  5
217
330
215
100
AcDbEntity
  8
001
 62
   200
370
    50
100
AcDbVertex
100
AcDb2dVertex
 10
48.707846
 20
147.578074
 30
0.0
  0
VERTEX
  5
218
330
215
100
AcDbEntity
  8
001
 62
   200
370
    50
100
AcDbVertex
100
AcDb2dVertex
 10
48.707709
 20
147.562986
 30
0.0
  0
VERTEX
  5
219
330
215
100
AcDbEntity
  8
001
 62
   200
370
    50
100
AcDbVertex
100
AcDb2dVertex
 10
48.708894
 20
147.541008
 30
0.0
  0
VERTEX
  5
21A
330
215
100
AcDbEntity
  8
001
 62
   200
370
    50
100
AcDbVertex
100
AcDb2dVertex
 10
48.712043
 20
147.518933
 30
0.0
  0
VERTEX
  5
21B
330
215
100
AcDbEntity
  8
001
 62
   200
370
    50
100
AcDbVertex
100
AcDb2dVertex
 10
48.715141
 20
147.503964
 30
0.0
  0
SEQEND
  5
216
330
215
100
AcDbEntity
  8
001
370
    50
  0
POLYLINE
  5
21C
330
1F
100
AcDbEntity
  8
001
 62
   140
370
    50
100
AcDb2dPolyline
 66
     1
 10
0.0
 20
0.0
 30
0.0
  0
VERTEX
  5
21E
330
21C
100
AcDbEntity
  8
001
 62
   140
370
    50
100
AcDbVertex
100
AcDb2dVertex
 10
64.386171
 20
141.646843
 30
0.0
  0
VERTEX
  5
21F
330
21C
100
AcDbEntity
  8
001
 62
   140
370
    50
100
AcDbVertex
100
AcDb2dVertex
 10
64.715043
 20
140.230799
 30
0.0
  0
VERTEX
  5
220
330
21C
100
AcDbEntity
  8
001
 62
   140
370
    50
100
AcDbVertex
100
AcDb2dVertex
 10
65.27726
 20
138.183387
 30
0.0
  0
VERTEX
  5
221
330
21C
100
AcDbEntity
  8
001
 62
   140
370
    50
100
AcDbVertex
100
AcDb2dVertex
 10
65.984051
 20
136.06745
 30
0.0
  0
VERTEX
  5
222
330
21C
100
AcDbEntity
  8
001
 62
   140
370
    50
100
AcDbVertex
100
AcDb2dVertex
 10
66.523294
 20
134.638235
 30
0.0
  0
SEQEND
  5
21D
330
21C
100
AcDbEntity
  8
001
370
    50
  0
LINE
  5
223
330
1F
100
AcDbEntity
  8
001
 62
   140
370
    50
100
AcDbLine
 10
66.523294
 20
134.638235
 30
0.0
 11
57.054461
 21
134.638235
 31
0.0
  0
POLYLINE
  5
224
330
1F
100
AcDbEntity
  8
001
 62
   140
370
    50
100
AcDb2dPolyline
 66
     1
 10
0.0
 20
0.0
 30
0.0
  0
VERTEX
  5
226
330
224
100
AcDbEntity
  8
001
 62
   140
370
    50
100
AcDbVertex
100
AcDb2dVertex
 10
57.054461
 20
134.638235
 30
0.0
  0
VERTEX
  5
227
330
224
100
AcDbEntity
  8
001
 62
   140
370
    50
100
AcDbVertex
100
AcDb2dVertex
 10
57.033424
 20
134.642757
 30
0.0
  0
VERTEX
  5
228
330
224
100
AcDbEntity
  8
001
 62
   140
370
    50
100
AcDbVertex
100
AcDb2dVertex
 10
57.012334
 20
134.647028
 30
0.0
  0
VERTEX
  5
229
330
224
100
AcDbEntity
  8
001
 62
   140
370
    50
100
AcDbVertex
100
AcDb2dVertex
 10
56.922691
 20
134.659694
 30
0.0
  0
VERTEX
  5
22A
330
224
100
AcDbEntity
  8
001
 62
   140
370
    50
100
AcDbVertex
100
AcDb2dVertex
 10
56.832125
 20
134.66369
 30
0.0
  0
VERTEX
  5
22B
330
224
100
AcDbEntity
  8
001
 62
   140
370
    50
100
AcDbVertex
100
AcDb2dVertex
 10
56.738088
 20
134.658824
 30
0.0
  0
VERTEX
  5
22C
330
224
100
AcDbEntity
  8
001
 62
   140
370
    50
100
AcDbVertex
100
AcDb2dVertex
 10
56.645138
 20
134.644575
 30
0.0
  0
VERTEX
  5
22D
330
224
100
AcDbEntity
  8
001
 62
   140
370
    50
100
AcDbVertex
100
AcDb2dVertex
 10
56.630613
 20
134.641465
 30
0.0
  0
VERTEX
  5
22E
330
224
100
AcDbEntity
  8
001
 62
   140
370
    50
100
AcDbVertex
100
AcDb2dVertex
 10
56.616114
 20
134.638235
 30
0.0
  0
SEQEND
  5
225
330
224
100
AcDbEntity
  8
001
370
    50
  0
LINE
  5
22F
330
1F
100
AcDbEntity
  8
001
 62
   140
370
    50
100
AcDbLine
 10
56.616114
 20
134.638235
 30
0.0
 11
49.507786
 21
134.638235
 31
0.0
  0
POLYLINE
  5
230
330
1F
100
AcDbEntity
  8
001
 62
   140
370
    50
100
AcDb2dPolyline
 66
     1
 10
0.0
 20
0.0
 30
0.0
  0
VERTEX
  5
232
330
230
100
AcDbEntity
  8
001
 62
   140
370
    50
100
AcDbVertex
100
AcDb2dVertex
 10
49.507782
 20
142.379038
 30
0.0
  0
VERTEX
  5
233
330
230
100
AcDbEntity
  8
001
 62
   140
370
    50
100
AcDbVertex
100
AcDb2dVertex
 10
51.1993
 20
142.287754
 30
0.0
  0
VERTEX
  5
234
330
230
100
AcDbEntity
  8
001
 62
   140
370
    50
100
AcDbVertex
100
AcDb2dVertex
 10
53.67173
 20
142.15831
 30
0.0
  0
VERTEX
  5
235
330
230
100
AcDbEntity
  8
001
 62
   140
370
    50
100
AcDbVertex
100
AcDb2dVertex
 10
56.534805
 20
142.013653
 30
0.0
  0
VERTEX
  5
236
330
230
100
AcDbEntity
  8
001
 62
   140
370
    50
100
AcDbVertex
100
AcDb2dVertex
 10
59.733292
 20
141.859694
 30
0.0
  0
VERTEX
  5
237
330
230
100
AcDbEntity
  8
001
 62
   140
370
    50
100
AcDbVertex
100
AcDb2dVertex
 10
62.495874
 20
141.731913
 30
0.0
  0
VERTEX
  5
238
330
230
100
AcDbEntity
  8
001
 62
   140
370
    50
100
AcDbVertex
100
AcDb2dVertex
 10
64.386171
 20
141.646843
 30
0.0
  0
SEQEND
  5
231
330
230
100
AcDbEntity
  8
001
370
    50
  0
POLYLINE
  5
239
330
1F
100
AcDbEntity
  8
001
 62
   140
370
    50
100
AcDb2dPolyline
 66
     1
 10
0.0
 20
0.0
 30
0.0
  0
VERTEX
  5
23B
330
239
100
AcDbEntity
  8
001
 62
   140
370
    50
100
AcDbVertex
100
AcDb2dVertex
 10
59.875648
 20
132.369799
 30
0.0
  0
VERTEX
  5
23C
330
239
100
AcDbEntity
  8
001
 62
   140
370
    50
100
AcDbVertex
100
AcDb2dVertex
 10
59.865047
 20
132.491608
 30
0.0
  0
VERTEX
  5
23D
330
239
100
AcDbEntity
  8
001
 62
   140
370
    50
100
AcDbVertex
100
AcDb2dVertex
 10
59.840813
 20
132.659982
 30
0.0
  0
VERTEX
  5
23E
330
239
100
AcDbEntity
  8
001
 62
   140
370
    50
100
AcDbVertex
100
AcDb2dVertex
 10
59.788067
 20
132.869816
 30
0.0
  0
VERTEX
  5
23F
330
239
100
AcDbEntity
  8
001
 62
   140
370
    50
100
AcDbVertex
100
AcDb2dVertex
 10
59.71513
 20
133.052391
 30
0.0
  0
VERTEX
  5
240
330
239
100
AcDbEntity
  8
001
 62
   140
370
    50
100
AcDbVertex
100
AcDb2dVertex
 10
59.619165
 20
133.239712
 30
0.0
  0
VERTEX
  5
241
330
239
100
AcDbEntity
  8
001
 62
   140
370
    50
100
AcDbVertex
100
AcDb2dVertex
 10
59.503147
 20
133.422932
 30
0.0
  0
VERTEX
  5
242
330
239
100
AcDbEntity
  8
001
 62
   140
370
    50
100
AcDbVertex
100
AcDb2dVertex
 10
59.010722
 20
133.929815
 30
0.0
  0
VERTEX
  5
243
330
239
100
AcDbEntity
  8
001
 62
   140
370
    50
100
AcDbVertex
100
AcDb2dVertex
 10
58.425676
 20
134.296107
 30
0.0
  0
VERTEX
  5
244
330
239
100
AcDbEntity
  8
001
 62
   140
370
    50
100
AcDbVertex
100
AcDb2dVertex
 10
57.979824
 20
134.478469
 30
0.0
  0
VERTEX
  5
245
330
239
100
AcDbEntity
  8
001
 62
   140
370
    50
100
AcDbVertex
100
AcDb2dVertex
 10
57.452999
 20
134.59505
 30
0.0
  0
VERTEX
  5
246
330
239
100
AcDbEntity
  8
001
 62
   140
370
    50
100
AcDbVertex
100
AcDb2dVertex
 10
57.219871
 20
134.623744
 30
0.0
  0
VERTEX
  5
247
330
239
100
AcDbEntity
  8
001
 62
   140
370
    50
100
AcDbVertex
100
AcDb2dVertex
 10
57.054461
 20
134.638235
 30
0.0
  0
SEQEND
  5
23A
330
239
100
AcDbEntity
  8
001
370
    50
  0
POLYLINE
  5
248
330
1F
100
AcDbEntity
  8
001
 62
   140
370
    50
100
AcDb2dPolyline
 66
     1
 10
0.0
 20
0.0
 30
0.0
  0
VERTEX
  5
24A
330
248
100
AcDbEntity
  8
001
 62
   140
370
    50
100
AcDbVertex
100
AcDb2dVertex
 10
53.874134
 20
132.295587
 30
0.0
  0
VERTEX
  5
24B
330
248
100
AcDbEntity
  8
001
 62
   140
370
    50
100
AcDbVertex
100
AcDb2dVertex
 10
53.884749
 20
132.173777
 30
0.0
  0
VERTEX
  5
24C
330
248
100
AcDbEntity
  8
001
 62
   140
370
    50
100
AcDbVertex
100
AcDb2dVertex
 10
53.908969
 20
132.005403
 30
0.0
  0
VERTEX
  5
24D
330
248
100
AcDbEntity
  8
001
 62
   140
370
    50
100
AcDbVertex
100
AcDb2dVertex
 10
53.961598
 20
131.795576
 30
0.0
  0
VERTEX
  5
24E
330
248
100
AcDbEntity
  8
001
 62
   140
370
    50
100
AcDbVertex
100
AcDb2dVertex
 10
54.034652
 20
131.612995
 30
0.0
  0
VERTEX
  5
24F
330
248
100
AcDbEntity
  8
001
 62
   140
370
    50
100
AcDbVertex
100
AcDb2dVertex
 10
54.131103
 20
131.425647
 30
0.0
  0
VERTEX
  5
250
330
248
100
AcDbEntity
  8
001
 62
   140
370
    50
100
AcDbVertex
100
AcDb2dVertex
 10
54.246635
 20
131.242453
 30
0.0
  0
VERTEX
  5
251
330
248
100
AcDbEntity
  8
001
 62
   140
370
    50
100
AcDbVertex
100
AcDb2dVertex
 10
54.728201
 20
130.736176
 30
0.0
  0
VERTEX
  5
252
330
248
100
AcDbEntity
  8
001
 62
   140
370
    50
100
AcDbVertex
100
AcDb2dVertex
 10
55.324106
 20
130.369279
 30
0.0
  0
VERTEX
  5
253
330
248
100
AcDbEntity
  8
001
 62
   140
370
    50
100
AcDbVertex
100
AcDb2dVertex
 10
55.800767
 20
130.1852
 30
0.0
  0
VERTEX
  5
254
330
248
100
AcDbEntity
  8
001
 62
   140
370
    50
100
AcDbVertex
100
AcDb2dVertex
 10
56.296783
 20
130.070336
 30
0.0
  0
VERTEX
  5
255
330
248
100
AcDbEntity
  8
001
 62
   140
370
    50
100
AcDbVertex
100
AcDb2dVertex
 10
56.556142
 20
130.037471
 30
0.0
  0
VERTEX
  5
256
330
248
100
AcDbEntity
  8
001
 62
   140
370
    50
100
AcDbVertex
100
AcDb2dVertex
 10
56.817108
 20
130.0222
 30
0.0
  0
VERTEX
  5
257
330
248
100
AcDbEntity
  8
001
 62
   140
370
    50
100
AcDbVertex
100
AcDb2dVertex
 10
57.078515
 20
130.024511
 30
0.0
  0
VERTEX
  5
258
330
248
100
AcDbEntity
  8
001
 62
   140
370
    50
100
AcDbVertex
100
AcDb2dVertex
 10
57.339189
 20
130.044267
 30
0.0
  0
VERTEX
  5
259
330
248
100
AcDbEntity
  8
001
 62
   140
370
    50
100
AcDbVertex
100
AcDb2dVertex
 10
57.840284
 20
130.133399
 30
0.0
  0
VERTEX
  5
25A
330
248
100
AcDbEntity
  8
001
 62
   140
370
    50
100
AcDbVertex
100
AcDb2dVertex
 10
58.325593
 20
130.294215
 30
0.0
  0
VERTEX
  5
25B
330
248
100
AcDbEntity
  8
001
 62
   140
370
    50
100
AcDbVertex
100
AcDb2dVertex
 10
58.939366
 20
130.635766
 30
0.0
  0
VERTEX
  5
25C
330
248
100
AcDbEntity
  8
001
 62
   140
370
    50
100
AcDbVertex
100
AcDb2dVertex
 10
59.445364
 20
131.112439
 30
0.0
  0
VERTEX
  5
25D
330
248
100
AcDbEntity
  8
001
 62
   140
370
    50
100
AcDbVertex
100
AcDb2dVertex
 10
59.569665
 20
131.285262
 30
0.0
  0
VERTEX
  5
25E
330
248
100
AcDbEntity
  8
001
 62
   140
370
    50
100
AcDbVertex
100
AcDb2dVertex
 10
59.675604
 20
131.471921
 30
0.0
  0
VERTEX
  5
25F
330
248
100
AcDbEntity
  8
001
 62
   140
370
    50
100
AcDbVertex
100
AcDb2dVertex
 10
59.758462
 20
131.664398
 30
0.0
  0
VERTEX
  5
260
330
248
100
AcDbEntity
  8
001
 62
   140
370
    50
100
AcDbVertex
100
AcDb2dVertex
 10
59.820745
 20
131.857556
 30
0.0
  0
VERTEX
  5
261
330
248
100
AcDbEntity
  8
001
 62
   140
370
    50
100
AcDbVertex
100
AcDb2dVertex
 10
59.860306
 20
132.043193
 30
0.0
  0
VERTEX
  5
262
330
248
100
AcDbEntity
  8
001
 62
   140
370
    50
100
AcDbVertex
100
AcDb2dVertex
 10
59.876379
 20
132.257629
 30
0.0
  0
VERTEX
  5
263
330
248
100
AcDbEntity
  8
001
 62
   140
370
    50
100
AcDbVertex
100
AcDb2dVertex
 10
59.876525
 20
132.323559
 30
0.0
  0
VERTEX
  5
264
330
248
100
AcDbEntity
  8
001
 62
   140
370
    50
100
AcDbVertex
100
AcDb2dVertex
 10
59.875648
 20
132.369799
 30
0.0
  0
SEQEND
  5
249
330
248
100
AcDbEntity
  8
001
370
    50
  0
POLYLINE
  5
265
330
1F
100
AcDbEntity
  8
001
 62
   140
370
    50
100
AcDb2dPolyline
 66
     1
 10
0.0
 20
0.0
 30
0.0
  0
VERTEX
  5
267
330
265
100
AcDbEntity
  8
001
 62
   140
370
    50
100
AcDbVertex
100
AcDb2dVertex
 10
56.616114
 20
134.638235
 30
0.0
  0
VERTEX
  5
268
330
265
100
AcDbEntity
  8
001
 62
   140
370
    50
100
AcDbVertex
100
AcDb2dVertex
 10
56.531603
 20
134.632078
 30
0.0
  0
VERTEX
  5
269
330
265
100
AcDbEntity
  8
001
 62
   140
370
    50
100
AcDbVertex
100
AcDb2dVertex
 10
56.410593
 20
134.621119
 30
0.0
  0
VERTEX
  5
26A
330
265
100
AcDbEntity
  8
001
 62
   140
370
    50
100
AcDbVertex
100
AcDb2dVertex
 10
55.87448
 20
134.529924
 30
0.0
  0
VERTEX
  5
26B
330
265
100
AcDbEntity
  8
001
 62
   140
370
    50
100
AcDbVertex
100
AcDb2dVertex
 10
55.424189
 20
134.371171
 30
0.0
  0
VERTEX
  5
26C
330
265
100
AcDbEntity
  8
001
 62
   140
370
    50
100
AcDbVertex
100
AcDb2dVertex
 10
54.822762
 20
134.030347
 30
0.0
  0
VERTEX
  5
26D
330
265
100
AcDbEntity
  8
001
 62
   140
370
    50
100
AcDbVertex
100
AcDb2dVertex
 10
54.304418
 20
133.552947
 30
0.0
  0
VERTEX
  5
26E
330
265
100
AcDbEntity
  8
001
 62
   140
370
    50
100
AcDbVertex
100
AcDb2dVertex
 10
54.179562
 20
133.380092
 30
0.0
  0
VERTEX
  5
26F
330
265
100
AcDbEntity
  8
001
 62
   140
370
    50
100
AcDbVertex
100
AcDb2dVertex
 10
54.074178
 20
133.193465
 30
0.0
  0
VERTEX
  5
270
330
265
100
AcDbEntity
  8
001
 62
   140
370
    50
100
AcDbVertex
100
AcDb2dVertex
 10
53.99146
 20
133.000996
 30
0.0
  0
VERTEX
  5
271
330
265
100
AcDbEntity
  8
001
 62
   140
370
    50
100
AcDbVertex
100
AcDb2dVertex
 10
53.929037
 20
132.807829
 30
0.0
  0
VERTEX
  5
272
330
265
100
AcDbEntity
  8
001
 62
   140
370
    50
100
AcDbVertex
100
AcDb2dVertex
 10
53.889445
 20
132.622191
 30
0.0
  0
VERTEX
  5
273
330
265
100
AcDbEntity
  8
001
 62
   140
370
    50
100
AcDbVertex
100
AcDb2dVertex
 10
53.873403
 20
132.407757
 30
0.0
  0
VERTEX
  5
274
330
265
100
AcDbEntity
  8
001
 62
   140
370
    50
100
AcDbVertex
100
AcDb2dVertex
 10
53.873258
 20
132.341827
 30
0.0
  0
VERTEX
  5
275
330
265
100
AcDbEntity
  8
001
 62
   140
370
    50
100
AcDbVertex
100
AcDb2dVertex
 10
53.874134
 20
132.295587
 30
0.0
  0
SEQEND
  5
266
330
265
100
AcDbEntity
  8
001
370
    50
  0
LINE
  5
276
330
1F
100
AcDbEntity
  8
001
 62
   140
370
    50
100
AcDbLine
 10
67.207786
 20
134.12601
 30
0.0
 11
66.523294
 21
134.638235
 31
0.0
  0
LINE
  5
277
330
1F
100
AcDbEntity
  8
001
 62
   140
370
    50
100
AcDbLine
 10
67.207786
 20
123.118537
 30
0.0
 11
52.207786
 21
123.118537
 31
0.0
  0
LINE
  5
278
330
1F
100
AcDbEntity
  8
001
 62
   140
370
    50
100
AcDbLine
 10
49.207786
 20
129.447971
 30
0.0
 11
52.207786
 21
125.55954
 31
0.0
  0
LINE
  5
279
330
1F
100
AcDbEntity
  8
001
 62
   140
370
    50
100
AcDbLine
 10
49.507786
 20
134.638235
 30
0.0
 11
49.207786
 21
134.358827
 31
0.0
  0
LINE
  5
27A
330
1F
100
AcDbEntity
  8
001
 62
   140
370
    50
100
AcDbLine
 10
64.365869
 20
145.737505
 30
0.0
 11
64.249323
 21
147.662567
 31
0.0
  0
LINE
  5
27B
330
1F
100
AcDbEntity
  8
001
 62
   140
370
    50
100
AcDbLine
 10
64.249323
 20
147.662567
 30
0.0
 11
67.207786
 21
146.183336
 31
0.0
  0
LINE
  5
27C
330
1F
100
AcDbEntity
  8
001
 62
   140
370
    50
100
AcDbLine
 10
64.386171
 20
141.646843
 30
0.0
 11
64.149887
 21
144.091608
 31
0.0
  0
LINE
  5
27D
330
1F
100
AcDbEntity
  8
001
 62
   140
370
    50
100
AcDbLine
 10
64.691241
 20
143.878253
 30
0.0
 11
64.149887
 21
144.091608
 31
0.0
  0
LINE
  5
27E
330
1F
100
AcDbEntity
  8
001
 62
   140
370
    50
100
AcDbLine
 10
64.583881
 20
145.651583
 30
0.0
 11
64.691241
 21
143.878253
 31
0.0
  0
LINE
  5
27F
330
1F
100
AcDbEntity
  8
001
 62
   140
370
    50
100
AcDbLine
 10
64.583881
 20
145.651583
 30
0.0
 11
64.365869
 21
145.737505
 31
0.0
  0
LINE
  5
280
330
1F
100
AcDbEntity
  8
001
 62
   140
370
    50
100
AcDbLine
 10
49.207786
 20
142.280913
 30
0.0
 11
49.507782
 21
142.379079
 31
0.0
  0
LINE
  5
281
330
1F
100
AcDbEntity
  8
001
 62
   140
370
    50
100
AcDbLine
 10
49.507782
 20
143.666534
 30
0.0
 11
49.507782
 21
134.638235
 31
0.0
  0
LINE
  5
282
330
1F
100
AcDbEntity
  8
001
 62
   140
370
    50
100
AcDbLine
 10
64.149887
 20
144.091608
 30
0.0
 11
49.507782
 21
143.666534
 31
0.0
  0
LINE
  5
283
330
1F
100
AcDbEntity
  8
001
 62
   140
370
    50
100
AcDbLine
 10
49.207786
 20
143.531089
 30
0.0
 11
49.507782
 21
143.666534
 31
0.0
  0
LINE
  5
284
330
1F
100
AcDbEntity
  8
001
 62
   140
370
    50
100
AcDbLine
 10
49.207786
 20
129.447971
 30
0.0
 11
49.207786
 21
143.531089
 31
0.0
  0
LINE
  5
285
330
1F
100
AcDbEntity
  8
001
 62
   140
370
    50
100
AcDbLine
 10
64.583881
 20
145.651583
 30
0.0
 11
64.132982
 21
145.311318
 31
0.0
  0
LINE
  5
286
330
1F
100
AcDbEntity
  8
001
 62
   140
370
    50
100
AcDbLine
 10
64.365869
 20
145.737505
 30
0.0
 11
64.123725
 21
145.554775
 31
0.0
  0
LINE
  5
287
330
1F
100
AcDbEntity
  8
001
 62
   140
370
    50
100
AcDbLine
 10
64.050117
 20
147.490669
 30
0.0
 11
64.249323
 21
147.662567
 31
0.0
  0
LINE
  5
288
330
1F
100
AcDbEntity
  8
001
 62
   140
370
    50
100
AcDbLine
 10
52.207786
 20
125.55954
 30
0.0
 11
52.207786
 21
122.826551
 31
0.0
  0
LINE
  5
289
330
1F
100
AcDbEntity
  8
001
 62
   140
370
    50
100
AcDbLine
 10
67.207786
 20
123.00021
 30
0.0
 11
67.207786
 21
146.183336
 31
0.0
  0
POLYLINE
  5
28A
330
1F
100
AcDbEntity
  8
001
 62
   200
370
    50
100
AcDb2dPolyline
 66
     1
 10
0.0
 20
0.0
 30
0.0
  0
VERTEX
  5
28C
330
28A
100
AcDbEntity
  8
001
 62
   200
370
    50
100
AcDbVertex
100
AcDb2dVertex
 10
49.67526
 20
143.755888
 30
0.0
  0
VERTEX
  5
28D
330
28A
100
AcDbEntity
  8
001
 62
   200
370
    50
100
AcDbVertex
100
AcDb2dVertex
 10
49.668302
 20
143.755667
 30
0.0
  0
VERTEX
  5
28E
330
28A
100
AcDbEntity
  8
001
 62
   200
370
    50
100
AcDbVertex
100
AcDb2dVertex
 10
49.658254
 20
143.755318
 30
0.0
  0
VERTEX
  5
28F
330
28A
100
AcDbEntity
  8
001
 62
   200
370
    50
100
AcDbVertex
100
AcDb2dVertex
 10
49.583528
 20
143.751267
 30
0.0
  0
VERTEX
  5
290
330
28A
100
AcDbEntity
  8
001
 62
   200
370
    50
100
AcDbVertex
100
AcDb2dVertex
 10
49.519631
 20
143.744912
 30
0.0
  0
VERTEX
  5
291
330
28A
100
AcDbEntity
  8
001
 62
   200
370
    50
100
AcDbVertex
100
AcDb2dVertex
 10
49.392581
 20
143.72508
 30
0.0
  0
VERTEX
  5
292
330
28A
100
AcDbEntity
  8
001
 62
   200
370
    50
100
AcDbVertex
100
AcDb2dVertex
 10
49.260262
 20
143.694901
 30
0.0
  0
VERTEX
  5
293
330
28A
100
AcDbEntity
  8
001
 62
   200
370
    50
100
AcDbVertex
100
AcDb2dVertex
 10
49.107742
 20
143.642471
 30
0.0
  0
VERTEX
  5
294
330
28A
100
AcDbEntity
  8
001
 62
   200
370
    50
100
AcDbVertex
100
AcDb2dVertex
 10
48.972351
 20
143.560235
 30
0.0
  0
VERTEX
  5
295
330
28A
100
AcDbEntity
  8
001
 62
   200
370
    50
100
AcDbVertex
100
AcDb2dVertex
 10
48.94243
 20
143.533433
 30
0.0
  0
VERTEX
  5
296
330
28A
100
AcDbEntity
  8
001
 62
   200
370
    50
100
AcDbVertex
100
AcDb2dVertex
 10
48.915487
 20
143.504674
 30
0.0
  0
VERTEX
  5
297
330
28A
100
AcDbEntity
  8
001
 62
   200
370
    50
100
AcDbVertex
100
AcDb2dVertex
 10
48.896132
 20
143.478483
 30
0.0
  0
VERTEX
  5
298
330
28A
100
AcDbEntity
  8
001
 62
   200
370
    50
100
AcDbVertex
100
AcDb2dVertex
 10
48.881581
 20
143.446474
 30
0.0
  0
VERTEX
  5
299
330
28A
100
AcDbEntity
  8
001
 62
   200
370
    50
100
AcDbVertex
100
AcDb2dVertex
 10
48.873907
 20
143.412545
 30
0.0
  0
VERTEX
  5
29A
330
28A
100
AcDbEntity
  8
001
 62
   200
370
    50
100
AcDbVertex
100
AcDb2dVertex
 10
48.871665
 20
143.387403
 30
0.0
  0
SEQEND
  5
28B
330
28A
100
AcDbEntity
  8
001
370
    50
  0
POLYLINE
  5
29B
330
1F
100
AcDbEntity
  8
001
 62
   200
370
    50
100
AcDb2dPolyline
 66
     1
 10
0.0
 20
0.0
 30
0.0
  0
VERTEX
  5
29D
330
29B
100
AcDbEntity
  8
001
 62
   200
370
    50
100
AcDbVertex
100
AcDb2dVertex
 10
49.511312
 20
148.067718
 30
0.0
  0
VERTEX
  5
29E
330
29B
100
AcDbEntity
  8
001
 62
   200
370
    50
100
AcDbVertex
100
AcDb2dVertex
 10
49.504354
 20
148.067496
 30
0.0
  0
VERTEX
  5
29F
330
29B
100
AcDbEntity
  8
001
 62
   200
370
    50
100
AcDbVertex
100
AcDb2dVertex
 10
49.494305
 20
148.067147
 30
0.0
  0
VERTEX
  5
2A0
330
29B
100
AcDbEntity
  8
001
 62
   200
370
    50
100
AcDbVertex
100
AcDb2dVertex
 10
49.41958
 20
148.063096
 30
0.0
  0
VERTEX
  5
2A1
330
29B
100
AcDbEntity
  8
001
 62
   200
370
    50
100
AcDbVertex
100
AcDb2dVertex
 10
49.355682
 20
148.056742
 30
0.0
  0
VERTEX
  5
2A2
330
29B
100
AcDbEntity
  8
001
 62
   200
370
    50
100
AcDbVertex
100
AcDb2dVertex
 10
49.228633
 20
148.036909
 30
0.0
  0
VERTEX
  5
2A3
330
29B
100
AcDbEntity
  8
001
 62
   200
370
    50
100
AcDbVertex
100
AcDb2dVertex
 10
49.096314
 20
148.00673
 30
0.0
  0
VERTEX
  5
2A4
330
29B
100
AcDbEntity
  8
001
 62
   200
370
    50
100
AcDbVertex
100
AcDb2dVertex
 10
48.943793
 20
147.954301
 30
0.0
  0
VERTEX
  5
2A5
330
29B
100
AcDbEntity
  8
001
 62
   200
370
    50
100
AcDbVertex
100
AcDb2dVertex
 10
48.808402
 20
147.872064
 30
0.0
  0
VERTEX
  5
2A6
330
29B
100
AcDbEntity
  8
001
 62
   200
370
    50
100
AcDbVertex
100
AcDb2dVertex
 10
48.778481
 20
147.845262
 30
0.0
  0
VERTEX
  5
2A7
330
29B
100
AcDbEntity
  8
001
 62
   200
370
    50
100
AcDbVertex
100
AcDb2dVertex
 10
48.751538
 20
147.816504
 30
0.0
  0
VERTEX
  5
2A8
330
29B
100
AcDbEntity
  8
001
 62
   200
370
    50
100
AcDbVertex
100
AcDb2dVertex
 10
48.732183
 20
147.790312
 30
0.0
  0
VERTEX
  5
2A9
330
29B
100
AcDbEntity
  8
001
 62
   200
370
    50
100
AcDbVertex
100
AcDb2dVertex
 10
48.717633
 20
147.758303
 30
0.0
  0
VERTEX
  5
2AA
330
29B
100
AcDbEntity
  8
001
 62
   200
370
    50
100
AcDbVertex
100
AcDb2dVertex
 10
48.709958
 20
147.724374
 30
0.0
  0
VERTEX
  5
2AB
330
29B
100
AcDbEntity
  8
001
 62
   200
370
    50
100
AcDbVertex
100
AcDb2dVertex
 10
48.707717
 20
147.699232
 30
0.0
  0
SEQEND
  5
29C
330
29B
100
AcDbEntity
  8
001
370
    50
  0
LINE
  5
2AC
330
1F
100
AcDbEntity
  8
001
 62
   200
370
    50
100
AcDbLine
 10
48.707717
 20
147.699232
 30
0.0
 11
48.871665
 21
143.387403
 31
0.0
  0
POLYLINE
  5
2AD
330
1F
100
AcDbEntity
  8
001
 62
   200
370
    50
100
AcDb2dPolyline
 66
     1
 10
0.0
 20
0.0
 30
0.0
  0
VERTEX
  5
2AF
330
2AD
100
AcDbEntity
  8
001
 62
   200
370
    50
100
AcDbVertex
100
AcDb2dVertex
 10
48.871665
 20
143.387403
 30
0.0
  0
VERTEX
  5
2B0
330
2AD
100
AcDbEntity
  8
001
 62
   200
370
    50
100
AcDbVertex
100
AcDb2dVertex
 10
48.875997
 20
143.362356
 30
0.0
  0
VERTEX
  5
2B1
330
2AD
100
AcDbEntity
  8
001
 62
   200
370
    50
100
AcDbVertex
100
AcDb2dVertex
 10
48.886038
 20
143.329255
 30
0.0
  0
VERTEX
  5
2B2
330
2AD
100
AcDbEntity
  8
001
 62
   200
370
    50
100
AcDbVertex
100
AcDb2dVertex
 10
48.901873
 20
143.299316
 30
0.0
  0
VERTEX
  5
2B3
330
2AD
100
AcDbEntity
  8
001
 62
   200
370
    50
100
AcDbVertex
100
AcDb2dVertex
 10
48.924265
 20
143.273798
 30
0.0
  0
VERTEX
  5
2B4
330
2AD
100
AcDbEntity
  8
001
 62
   200
370
    50
100
AcDbVertex
100
AcDb2dVertex
 10
48.953734
 20
143.247031
 30
0.0
  0
VERTEX
  5
2B5
330
2AD
100
AcDbEntity
  8
001
 62
   200
370
    50
100
AcDbVertex
100
AcDb2dVertex
 10
48.976601
 20
143.228654
 30
0.0
  0
SEQEND
  5
2AE
330
2AD
100
AcDbEntity
  8
001
370
    50
  0
POLYLINE
  5
2B6
330
1F
100
AcDbEntity
  8
001
 62
   200
370
    50
100
AcDb2dPolyline
 66
     1
 10
0.0
 20
0.0
 30
0.0
  0
VERTEX
  5
2B8
330
2B6
100
AcDbEntity
  8
001
 62
   200
370
    50
100
AcDbVertex
100
AcDb2dVertex
 10
63.921217
 20
144.084969
 30
0.0
  0
VERTEX
  5
2B9
330
2B6
100
AcDbEntity
  8
001
 62
   200
370
    50
100
AcDbVertex
100
AcDb2dVertex
 10
63.861274
 20
144.102559
 30
0.0
  0
VERTEX
  5
2BA
330
2B6
100
AcDbEntity
  8
001
 62
   200
370
    50
100
AcDbVertex
100
AcDb2dVertex
 10
63.777856
 20
144.123548
 30
0.0
  0
VERTEX
  5
2BB
330
2B6
100
AcDbEntity
  8
001
 62
   200
370
    50
100
AcDbVertex
100
AcDb2dVertex
 10
63.648176
 20
144.146312
 30
0.0
  0
VERTEX
  5
2BC
330
2B6
100
AcDbEntity
  8
001
 62
   200
370
    50
100
AcDbVertex
100
AcDb2dVertex
 10
63.515438
 20
144.15372
 30
0.0
  0
VERTEX
  5
2BD
330
2B6
100
AcDbEntity
  8
001
 62
   200
370
    50
100
AcDbVertex
100
AcDb2dVertex
 10
63.444498
 20
144.154492
 30
0.0
  0
VERTEX
  5
2BE
330
2B6
100
AcDbEntity
  8
001
 62
   200
370
    50
100
AcDbVertex
100
AcDb2dVertex
 10
63.393432
 20
144.154139
 30
0.0
  0
SEQEND
  5
2B7
330
2B6
100
AcDbEntity
  8
001
370
    50
  0
LINE
  5
2BF
330
1F
100
AcDbEntity
  8
001
 62
   200
370
    50
100
AcDbLine
 10
49.207786
 20
143.064556
 30
0.0
 11
48.976601
 21
143.228654
 31
0.0
  0
LINE
  5
2C0
330
1F
100
AcDbEntity
  8
001
 62
   200
370
    50
100
AcDbLine
 10
49.67526
 20
143.755888
 30
0.0
 11
63.393432
 21
144.154139
 31
0.0
  0
LINE
  5
2C1
330
1F
100
AcDbEntity
  8
001
 62
   200
370
    50
100
AcDbLine
 10
49.511312
 20
148.067718
 30
0.0
 11
63.229483
 21
148.465968
 31
0.0
  0
LINE
  5
2C2
330
1F
100
AcDbEntity
  8
001
 62
   200
370
    50
100
AcDbLine
 10
64.179808
 20
144.079816
 30
0.0
 11
64.024733
 21
148.158276
 31
0.0
  0
POLYLINE
  5
2C3
330
1F
100
AcDbEntity
  8
001
 62
   200
370
    50
100
AcDb2dPolyline
 66
     1
 10
0.0
 20
0.0
 30
0.0
  0
VERTEX
  5
2C5
330
2C3
100
AcDbEntity
  8
001
 62
   200
370
    50
100
AcDbVertex
100
AcDb2dVertex
 10
64.024733
 20
148.158276
 30
0.0
  0
VERTEX
  5
2C6
330
2C3
100
AcDbEntity
  8
001
 62
   200
370
    50
100
AcDbVertex
100
AcDb2dVertex
 10
64.020591
 20
148.183175
 30
0.0
  0
VERTEX
  5
2C7
330
2C3
100
AcDbEntity
  8
001
 62
   200
370
    50
100
AcDbVertex
100
AcDb2dVertex
 10
64.010359
 20
148.216423
 30
0.0
  0
VERTEX
  5
2C8
330
2C3
100
AcDbEntity
  8
001
 62
   200
370
    50
100
AcDbVertex
100
AcDb2dVertex
 10
63.9934
 20
148.247234
 30
0.0
  0
VERTEX
  5
2C9
330
2C3
100
AcDbEntity
  8
001
 62
   200
370
    50
100
AcDbVertex
100
AcDb2dVertex
 10
63.972132
 20
148.271881
 30
0.0
  0
VERTEX
  5
2CA
330
2C3
100
AcDbEntity
  8
001
 62
   200
370
    50
100
AcDbVertex
100
AcDb2dVertex
 10
63.943182
 20
148.298514
 30
0.0
  0
VERTEX
  5
2CB
330
2C3
100
AcDbEntity
  8
001
 62
   200
370
    50
100
AcDbVertex
100
AcDb2dVertex
 10
63.911214
 20
148.322963
 30
0.0
  0
VERTEX
  5
2CC
330
2C3
100
AcDbEntity
  8
001
 62
   200
370
    50
100
AcDbVertex
100
AcDb2dVertex
 10
63.766791
 20
148.39457
 30
0.0
  0
VERTEX
  5
2CD
330
2C3
100
AcDbEntity
  8
001
 62
   200
370
    50
100
AcDbVertex
100
AcDb2dVertex
 10
63.613907
 20
148.435378
 30
0.0
  0
VERTEX
  5
2CE
330
2C3
100
AcDbEntity
  8
001
 62
   200
370
    50
100
AcDbVertex
100
AcDb2dVertex
 10
63.49054
 20
148.455801
 30
0.0
  0
VERTEX
  5
2CF
330
2C3
100
AcDbEntity
  8
001
 62
   200
370
    50
100
AcDbVertex
100
AcDb2dVertex
 10
63.35149
 20
148.465549
 30
0.0
  0
VERTEX
  5
2D0
330
2C3
100
AcDbEntity
  8
001
 62
   200
370
    50
100
AcDbVertex
100
AcDb2dVertex
 10
63.280151
 20
148.466468
 30
0.0
  0
VERTEX
  5
2D1
330
2C3
100
AcDbEntity
  8
001
 62
   200
370
    50
100
AcDbVertex
100
AcDb2dVertex
 10
63.229483
 20
148.465968
 30
0.0
  0
SEQEND
  5
2C4
330
2C3
100
AcDbEntity
  8
001
370
    50
  0
POLYLINE
  5
2D2
330
1F
100
AcDbEntity
  8
001
 62
   200
370
    50
100
AcDb2dPolyline
 66
     1
 10
0.0
 20
0.0
 30
0.0
  0
VERTEX
  5
2D4
330
2D2
100
AcDbEntity
  8
001
 62
   200
370
    50
100
AcDbVertex
100
AcDb2dVertex
 10
49.67526
 20
182.619239
 30
0.0
  0
VERTEX
  5
2D5
330
2D2
100
AcDbEntity
  8
001
 62
   200
370
    50
100
AcDbVertex
100
AcDb2dVertex
 10
49.606223
 20
182.615201
 30
0.0
  0
VERTEX
  5
2D6
330
2D2
100
AcDbEntity
  8
001
 62
   200
370
    50
100
AcDbVertex
100
AcDb2dVertex
 10
49.512396
 20
182.602904
 30
0.0
  0
VERTEX
  5
2D7
330
2D2
100
AcDbEntity
  8
001
 62
   200
370
    50
100
AcDbVertex
100
AcDb2dVertex
 10
49.441926
 20
182.585941
 30
0.0
  0
VERTEX
  5
2D8
330
2D2
100
AcDbEntity
  8
001
 62
   200
370
    50
100
AcDbVertex
100
AcDb2dVertex
 10
49.378733
 20
182.563168
 30
0.0
  0
VERTEX
  5
2D9
330
2D2
100
AcDbEntity
  8
001
 62
   200
370
    50
100
AcDbVertex
100
AcDb2dVertex
 10
49.315808
 20
182.53477
 30
0.0
  0
VERTEX
  5
2DA
330
2D2
100
AcDbEntity
  8
001
 62
   200
370
    50
100
AcDbVertex
100
AcDb2dVertex
 10
49.253953
 20
182.500921
 30
0.0
  0
VERTEX
  5
2DB
330
2D2
100
AcDbEntity
  8
001
 62
   200
370
    50
100
AcDbVertex
100
AcDb2dVertex
 10
49.141515
 20
182.418162
 30
0.0
  0
VERTEX
  5
2DC
330
2D2
100
AcDbEntity
  8
001
 62
   200
370
    50
100
AcDbVertex
100
AcDb2dVertex
 10
49.045823
 20
182.317085
 30
0.0
  0
VERTEX
  5
2DD
330
2D2
100
AcDbEntity
  8
001
 62
   200
370
    50
100
AcDbVertex
100
AcDb2dVertex
 10
48.938435
 20
182.139025
 30
0.0
  0
VERTEX
  5
2DE
330
2D2
100
AcDbEntity
  8
001
 62
   200
370
    50
100
AcDbVertex
100
AcDb2dVertex
 10
48.880451
 20
181.938423
 30
0.0
  0
VERTEX
  5
2DF
330
2D2
100
AcDbEntity
  8
001
 62
   200
370
    50
100
AcDbVertex
100
AcDb2dVertex
 10
48.873368
 20
181.868387
 30
0.0
  0
VERTEX
  5
2E0
330
2D2
100
AcDbEntity
  8
001
 62
   200
370
    50
100
AcDbVertex
100
AcDb2dVertex
 10
48.871817
 20
181.799747
 30
0.0
  0
VERTEX
  5
2E1
330
2D2
100
AcDbEntity
  8
001
 62
   200
370
    50
100
AcDbVertex
100
AcDb2dVertex
 10
48.875542
 20
181.733199
 30
0.0
  0
VERTEX
  5
2E2
330
2D2
100
AcDbEntity
  8
001
 62
   200
370
    50
100
AcDbVertex
100
AcDb2dVertex
 10
48.887469
 20
181.661757
 30
0.0
  0
VERTEX
  5
2E3
330
2D2
100
AcDbEntity
  8
001
 62
   200
370
    50
100
AcDbVertex
100
AcDb2dVertex
 10
48.908331
 20
181.584067
 30
0.0
  0
VERTEX
  5
2E4
330
2D2
100
AcDbEntity
  8
001
 62
   200
370
    50
100
AcDbVertex
100
AcDb2dVertex
 10
48.92693
 20
181.528644
 30
0.0
  0
SEQEND
  5
2D3
330
2D2
100
AcDbEntity
  8
001
370
    50
  0
POLYLINE
  5
2E5
330
1F
100
AcDbEntity
  8
001
 62
   200
370
    50
100
AcDb2dPolyline
 66
     1
 10
0.0
 20
0.0
 30
0.0
  0
VERTEX
  5
2E7
330
2E5
100
AcDbEntity
  8
001
 62
   200
370
    50
100
AcDbVertex
100
AcDb2dVertex
 10
49.511312
 20
183.034712
 30
0.0
  0
VERTEX
  5
2E8
330
2E5
100
AcDbEntity
  8
001
 62
   200
370
    50
100
AcDbVertex
100
AcDb2dVertex
 10
49.442274
 20
183.030674
 30
0.0
  0
VERTEX
  5
2E9
330
2E5
100
AcDbEntity
  8
001
 62
   200
370
    50
100
AcDbVertex
100
AcDb2dVertex
 10
49.348448
 20
183.018377
 30
0.0
  0
VERTEX
  5
2EA
330
2E5
100
AcDbEntity
  8
001
 62
   200
370
    50
100
AcDbVertex
100
AcDb2dVertex
 10
49.277977
 20
183.001414
 30
0.0
  0
VERTEX
  5
2EB
330
2E5
100
AcDbEntity
  8
001
 62
   200
370
    50
100
AcDbVertex
100
AcDb2dVertex
 10
49.214785
 20
182.978641
 30
0.0
  0
VERTEX
  5
2EC
330
2E5
100
AcDbEntity
  8
001
 62
   200
370
    50
100
AcDbVertex
100
AcDb2dVertex
 10
49.15186
 20
182.950243
 30
0.0
  0
VERTEX
  5
2ED
330
2E5
100
AcDbEntity
  8
001
 62
   200
370
    50
100
AcDbVertex
100
AcDb2dVertex
 10
49.090005
 20
182.916393
 30
0.0
  0
VERTEX
  5
2EE
330
2E5
100
AcDbEntity
  8
001
 62
   200
370
    50
100
AcDbVertex
100
AcDb2dVertex
 10
48.977566
 20
182.833634
 30
0.0
  0
VERTEX
  5
2EF
330
2E5
100
AcDbEntity
  8
001
 62
   200
370
    50
100
AcDbVertex
100
AcDb2dVertex
 10
48.881874
 20
182.732558
 30
0.0
  0
VERTEX
  5
2F0
330
2E5
100
AcDbEntity
  8
001
 62
   200
370
    50
100
AcDbVertex
100
AcDb2dVertex
 10
48.774486
 20
182.554498
 30
0.0
  0
VERTEX
  5
2F1
330
2E5
100
AcDbEntity
  8
001
 62
   200
370
    50
100
AcDbVertex
100
AcDb2dVertex
 10
48.716503
 20
182.353896
 30
0.0
  0
VERTEX
  5
2F2
330
2E5
100
AcDbEntity
  8
001
 62
   200
370
    50
100
AcDbVertex
100
AcDb2dVertex
 10
48.709419
 20
182.28386
 30
0.0
  0
VERTEX
  5
2F3
330
2E5
100
AcDbEntity
  8
001
 62
   200
370
    50
100
AcDbVertex
100
AcDb2dVertex
 10
48.707869
 20
182.21522
 30
0.0
  0
VERTEX
  5
2F4
330
2E5
100
AcDbEntity
  8
001
 62
   200
370
    50
100
AcDbVertex
100
AcDb2dVertex
 10
48.711594
 20
182.148672
 30
0.0
  0
VERTEX
  5
2F5
330
2E5
100
AcDbEntity
  8
001
 62
   200
370
    50
100
AcDbVertex
100
AcDb2dVertex
 10
48.72352
 20
182.07723
 30
0.0
  0
VERTEX
  5
2F6
330
2E5
100
AcDbEntity
  8
001
 62
   200
370
    50
100
AcDbVertex
100
AcDb2dVertex
 10
48.744382
 20
181.99954
 30
0.0
  0
VERTEX
  5
2F7
330
2E5
100
AcDbEntity
  8
001
 62
   200
370
    50
100
AcDbVertex
100
AcDb2dVertex
 10
48.762982
 20
181.944117
 30
0.0
  0
SEQEND
  5
2E6
330
2E5
100
AcDbEntity
  8
001
370
    50
  0
LINE
  5
2F8
330
1F
100
AcDbEntity
  8
001
 62
   200
370
    50
100
AcDbLine
 10
48.762982
 20
181.944117
 30
0.0
 11
48.92693
 21
181.528644
 31
0.0
  0
POLYLINE
  5
2F9
330
1F
100
AcDbEntity
  8
001
 62
   200
370
    50
100
AcDb2dPolyline
 66
     1
 10
0.0
 20
0.0
 30
0.0
  0
VERTEX
  5
2FB
330
2F9
100
AcDbEntity
  8
001
 62
   200
370
    50
100
AcDbVertex
100
AcDb2dVertex
 10
48.92693
 20
181.528644
 30
0.0
  0
VERTEX
  5
2FC
330
2F9
100
AcDbEntity
  8
001
 62
   200
370
    50
100
AcDbVertex
100
AcDb2dVertex
 10
48.935847
 20
181.507109
 30
0.0
  0
VERTEX
  5
2FD
330
2F9
100
AcDbEntity
  8
001
 62
   200
370
    50
100
AcDbVertex
100
AcDb2dVertex
 10
48.949896
 20
181.476095
 30
0.0
  0
VERTEX
  5
2FE
330
2F9
100
AcDbEntity
  8
001
 62
   200
370
    50
100
AcDbVertex
100
AcDb2dVertex
 10
48.965348
 20
181.445753
 30
0.0
  0
VERTEX
  5
2FF
330
2F9
100
AcDbEntity
  8
001
 62
   200
370
    50
100
AcDbVertex
100
AcDb2dVertex
 10
48.976601
 20
181.42534
 30
0.0
  0
SEQEND
  5
2FA
330
2F9
100
AcDbEntity
  8
001
370
    50
  0
POLYLINE
  5
300
330
1F
100
AcDbEntity
  8
001
 62
   200
370
    50
100
AcDb2dPolyline
 66
     1
 10
0.0
 20
0.0
 30
0.0
  0
VERTEX
  5
302
330
300
100
AcDbEntity
  8
001
 62
   200
370
    50
100
AcDbVertex
100
AcDb2dVertex
 10
63.921217
 20
182.388767
 30
0.0
  0
VERTEX
  5
303
330
300
100
AcDbEntity
  8
001
 62
   200
370
    50
100
AcDbVertex
100
AcDb2dVertex
 10
63.90752
 20
182.400449
 30
0.0
  0
VERTEX
  5
304
330
300
100
AcDbEntity
  8
001
 62
   200
370
    50
100
AcDbVertex
100
AcDb2dVertex
 10
63.887541
 20
182.416963
 30
0.0
  0
VERTEX
  5
305
330
300
100
AcDbEntity
  8
001
 62
   200
370
    50
100
AcDbVertex
100
AcDb2dVertex
 10
63.709466
 20
182.531848
 30
0.0
  0
VERTEX
  5
306
330
300
100
AcDbEntity
  8
001
 62
   200
370
    50
100
AcDbVertex
100
AcDb2dVertex
 10
63.508151
 20
182.580658
 30
0.0
  0
VERTEX
  5
307
330
300
100
AcDbEntity
  8
001
 62
   200
370
    50
100
AcDbVertex
100
AcDb2dVertex
 10
63.441136
 20
182.586789
 30
0.0
  0
VERTEX
  5
308
330
300
100
AcDbEntity
  8
001
 62
   200
370
    50
100
AcDbVertex
100
AcDb2dVertex
 10
63.393432
 20
182.589162
 30
0.0
  0
SEQEND
  5
301
330
300
100
AcDbEntity
  8
001
370
    50
  0
LINE
  5
309
330
1F
100
AcDbEntity
  8
001
 62
   200
370
    50
100
AcDbLine
 10
49.207786
 20
181.022051
 30
0.0
 11
48.976601
 21
181.42534
 31
0.0
  0
LINE
  5
30A
330
1F
100
AcDbEntity
  8
001
 62
   200
370
    50
100
AcDbLine
 10
49.67526
 20
182.619239
 30
0.0
 11
63.393432
 21
182.589162
 31
0.0
  0
POLYLINE
  5
30B
330
1F
100
AcDbEntity
  8
001
 62
   200
370
    50
100
AcDb2dPolyline
 66
     1
 10
0.0
 20
0.0
 30
0.0
  0
VERTEX
  5
30D
330
30B
100
AcDbEntity
  8
001
 62
   200
370
    50
100
AcDbVertex
100
AcDb2dVertex
 10
54.742131
 20
177.16247
 30
0.0
  0
VERTEX
  5
30E
330
30B
100
AcDbEntity
  8
001
 62
   200
370
    50
100
AcDbVertex
100
AcDb2dVertex
 10
54.799823
 20
177.036147
 30
0.0
  0
VERTEX
  5
30F
330
30B
100
AcDbEntity
  8
001
 62
   200
370
    50
100
AcDbVertex
100
AcDb2dVertex
 10
54.889553
 20
176.867519
 30
0.0
  0
VERTEX
  5
310
330
30B
100
AcDbEntity
  8
001
 62
   200
370
    50
100
AcDbVertex
100
AcDb2dVertex
 10
54.984353
 20
176.724217
 30
0.0
  0
VERTEX
  5
311
330
30B
100
AcDbEntity
  8
001
 62
   200
370
    50
100
AcDbVertex
100
AcDb2dVertex
 10
55.086195
 20
176.60272
 30
0.0
  0
VERTEX
  5
312
330
30B
100
AcDbEntity
  8
001
 62
   200
370
    50
100
AcDbVertex
100
AcDb2dVertex
 10
55.201632
 20
176.486165
 30
0.0
  0
VERTEX
  5
313
330
30B
100
AcDbEntity
  8
001
 62
   200
370
    50
100
AcDbVertex
100
AcDb2dVertex
 10
55.326085
 20
176.376119
 30
0.0
  0
VERTEX
  5
314
330
30B
100
AcDbEntity
  8
001
 62
   200
370
    50
100
AcDbVertex
100
AcDb2dVertex
 10
55.724744
 20
176.121703
 30
0.0
  0
VERTEX
  5
315
330
30B
100
AcDbEntity
  8
001
 62
   200
370
    50
100
AcDbVertex
100
AcDb2dVertex
 10
56.227135
 20
175.987343
 30
0.0
  0
VERTEX
  5
316
330
30B
100
AcDbEntity
  8
001
 62
   200
370
    50
100
AcDbVertex
100
AcDb2dVertex
 10
56.392725
 20
175.97204
 30
0.0
  0
VERTEX
  5
317
330
30B
100
AcDbEntity
  8
001
 62
   200
370
    50
100
AcDbVertex
100
AcDb2dVertex
 10
56.509504
 20
175.967149
 30
0.0
  0
SEQEND
  5
30C
330
30B
100
AcDbEntity
  8
001
370
    50
  0
LINE
  5
318
330
1F
100
AcDbEntity
  8
001
 62
   200
370
    50
100
AcDbLine
 10
49.511312
 20
183.034712
 30
0.0
 11
63.229483
 21
183.004635
 31
0.0
  0
POLYLINE
  5
319
330
1F
100
AcDbEntity
  8
001
 62
   200
370
    50
100
AcDb2dPolyline
 66
     1
 10
0.0
 20
0.0
 30
0.0
  0
VERTEX
  5
31B
330
319
100
AcDbEntity
  8
001
 62
   200
370
    50
100
AcDbVertex
100
AcDb2dVertex
 10
56.509504
 20
175.967149
 30
0.0
  0
VERTEX
  5
31C
330
319
100
AcDbEntity
  8
001
 62
   200
370
    50
100
AcDbVertex
100
AcDb2dVertex
 10
56.669186
 20
175.977078
 30
0.0
  0
VERTEX
  5
31D
330
319
100
AcDbEntity
  8
001
 62
   200
370
    50
100
AcDbVertex
100
AcDb2dVertex
 10
56.886395
 20
176.00594
 30
0.0
  0
VERTEX
  5
31E
330
319
100
AcDbEntity
  8
001
 62
   200
370
    50
100
AcDbVertex
100
AcDb2dVertex
 10
57.053845
 20
176.046262
 30
0.0
  0
VERTEX
  5
31F
330
319
100
AcDbEntity
  8
001
 62
   200
370
    50
100
AcDbVertex
100
AcDb2dVertex
 10
57.203845
 20
176.100313
 30
0.0
  0
VERTEX
  5
320
330
319
100
AcDbEntity
  8
001
 62
   200
370
    50
100
AcDbVertex
100
AcDb2dVertex
 10
57.353268
 20
176.167748
 30
0.0
  0
VERTEX
  5
321
330
319
100
AcDbEntity
  8
001
 62
   200
370
    50
100
AcDbVertex
100
AcDb2dVertex
 10
57.500198
 20
176.24815
 30
0.0
  0
VERTEX
  5
322
330
319
100
AcDbEntity
  8
001
 62
   200
370
    50
100
AcDbVertex
100
AcDb2dVertex
 10
57.767255
 20
176.44471
 30
0.0
  0
VERTEX
  5
323
330
319
100
AcDbEntity
  8
001
 62
   200
370
    50
100
AcDbVertex
100
AcDb2dVertex
 10
57.994508
 20
176.68476
 30
0.0
  0
VERTEX
  5
324
330
319
100
AcDbEntity
  8
001
 62
   200
370
    50
100
AcDbVertex
100
AcDb2dVertex
 10
58.249548
 20
177.107649
 30
0.0
  0
VERTEX
  5
325
330
319
100
AcDbEntity
  8
001
 62
   200
370
    50
100
AcDbVertex
100
AcDb2dVertex
 10
58.387265
 20
177.584082
 30
0.0
  0
VERTEX
  5
326
330
319
100
AcDbEntity
  8
001
 62
   200
370
    50
100
AcDbVertex
100
AcDb2dVertex
 10
58.404089
 20
177.750418
 30
0.0
  0
VERTEX
  5
327
330
319
100
AcDbEntity
  8
001
 62
   200
370
    50
100
AcDbVertex
100
AcDb2dVertex
 10
58.407771
 20
177.913437
 30
0.0
  0
VERTEX
  5
328
330
319
100
AcDbEntity
  8
001
 62
   200
370
    50
100
AcDbVertex
100
AcDb2dVertex
 10
58.398924
 20
178.071488
 30
0.0
  0
VERTEX
  5
329
330
319
100
AcDbEntity
  8
001
 62
   200
370
    50
100
AcDbVertex
100
AcDb2dVertex
 10
58.370598
 20
178.241164
 30
0.0
  0
VERTEX
  5
32A
330
319
100
AcDbEntity
  8
001
 62
   200
370
    50
100
AcDbVertex
100
AcDb2dVertex
 10
58.321052
 20
178.425677
 30
0.0
  0
VERTEX
  5
32B
330
319
100
AcDbEntity
  8
001
 62
   200
370
    50
100
AcDbVertex
100
AcDb2dVertex
 10
58.276878
 20
178.557306
 30
0.0
  0
SEQEND
  5
31A
330
319
100
AcDbEntity
  8
001
370
    50
  0
POLYLINE
  5
32C
330
1F
100
AcDbEntity
  8
001
 62
   200
370
    50
100
AcDb2dPolyline
 66
     1
 10
0.0
 20
0.0
 30
0.0
  0
VERTEX
  5
32E
330
32C
100
AcDbEntity
  8
001
 62
   200
370
    50
100
AcDbVertex
100
AcDb2dVertex
 10
58.276878
 20
178.557306
 30
0.0
  0
VERTEX
  5
32F
330
32C
100
AcDbEntity
  8
001
 62
   200
370
    50
100
AcDbVertex
100
AcDb2dVertex
 10
58.21926
 20
178.68363
 30
0.0
  0
VERTEX
  5
330
330
32C
100
AcDbEntity
  8
001
 62
   200
370
    50
100
AcDbVertex
100
AcDb2dVertex
 10
58.129456
 20
178.852258
 30
0.0
  0
VERTEX
  5
331
330
32C
100
AcDbEntity
  8
001
 62
   200
370
    50
100
AcDbVertex
100
AcDb2dVertex
 10
58.034287
 20
178.99556
 30
0.0
  0
VERTEX
  5
332
330
32C
100
AcDbEntity
  8
001
 62
   200
370
    50
100
AcDbVertex
100
AcDb2dVertex
 10
57.932814
 20
179.117057
 30
0.0
  0
VERTEX
  5
333
330
32C
100
AcDbEntity
  8
001
 62
   200
370
    50
100
AcDbVertex
100
AcDb2dVertex
 10
57.818782
 20
179.233615
 30
0.0
  0
VERTEX
  5
334
330
32C
100
AcDbEntity
  8
001
 62
   200
370
    50
100
AcDbVertex
100
AcDb2dVertex
 10
57.692924
 20
179.343658
 30
0.0
  0
VERTEX
  5
335
330
32C
100
AcDbEntity
  8
001
 62
   200
370
    50
100
AcDbVertex
100
AcDb2dVertex
 10
57.267352
 20
179.598015
 30
0.0
  0
VERTEX
  5
336
330
32C
100
AcDbEntity
  8
001
 62
   200
370
    50
100
AcDbVertex
100
AcDb2dVertex
 10
56.791874
 20
179.732434
 30
0.0
  0
VERTEX
  5
337
330
32C
100
AcDbEntity
  8
001
 62
   200
370
    50
100
AcDbVertex
100
AcDb2dVertex
 10
56.460979
 20
179.751729
 30
0.0
  0
VERTEX
  5
338
330
32C
100
AcDbEntity
  8
001
 62
   200
370
    50
100
AcDbVertex
100
AcDb2dVertex
 10
56.132613
 20
179.713837
 30
0.0
  0
VERTEX
  5
339
330
32C
100
AcDbEntity
  8
001
 62
   200
370
    50
100
AcDbVertex
100
AcDb2dVertex
 10
55.971782
 20
179.673545
 30
0.0
  0
VERTEX
  5
33A
330
32C
100
AcDbEntity
  8
001
 62
   200
370
    50
100
AcDbVertex
100
AcDb2dVertex
 10
55.815164
 20
179.619464
 30
0.0
  0
VERTEX
  5
33B
330
32C
100
AcDbEntity
  8
001
 62
   200
370
    50
100
AcDbVertex
100
AcDb2dVertex
 10
55.663818
 20
179.55202
 30
0.0
  0
VERTEX
  5
33C
330
32C
100
AcDbEntity
  8
001
 62
   200
370
    50
100
AcDbVertex
100
AcDb2dVertex
 10
55.518811
 20
179.471627
 30
0.0
  0
VERTEX
  5
33D
330
32C
100
AcDbEntity
  8
001
 62
   200
370
    50
100
AcDbVertex
100
AcDb2dVertex
 10
55.253054
 20
179.275073
 30
0.0
  0
VERTEX
  5
33E
330
32C
100
AcDbEntity
  8
001
 62
   200
370
    50
100
AcDbVertex
100
AcDb2dVertex
 10
55.024501
 20
179.035017
 30
0.0
  0
VERTEX
  5
33F
330
32C
100
AcDbEntity
  8
001
 62
   200
370
    50
100
AcDbVertex
100
AcDb2dVertex
 10
54.768942
 20
178.612126
 30
0.0
  0
VERTEX
  5
340
330
32C
100
AcDbEntity
  8
001
 62
   200
370
    50
100
AcDbVertex
100
AcDb2dVertex
 10
54.631744
 20
178.135695
 30
0.0
  0
VERTEX
  5
341
330
32C
100
AcDbEntity
  8
001
 62
   200
370
    50
100
AcDbVertex
100
AcDb2dVertex
 10
54.614947
 20
177.969359
 30
0.0
  0
VERTEX
  5
342
330
32C
100
AcDbEntity
  8
001
 62
   200
370
    50
100
AcDbVertex
100
AcDb2dVertex
 10
54.611238
 20
177.80634
 30
0.0
  0
VERTEX
  5
343
330
32C
100
AcDbEntity
  8
001
 62
   200
370
    50
100
AcDbVertex
100
AcDb2dVertex
 10
54.620077
 20
177.648289
 30
0.0
  0
VERTEX
  5
344
330
32C
100
AcDbEntity
  8
001
 62
   200
370
    50
100
AcDbVertex
100
AcDb2dVertex
 10
54.648411
 20
177.478613
 30
0.0
  0
VERTEX
  5
345
330
32C
100
AcDbEntity
  8
001
 62
   200
370
    50
100
AcDbVertex
100
AcDb2dVertex
 10
54.697959
 20
177.2941
 30
0.0
  0
VERTEX
  5
346
330
32C
100
AcDbEntity
  8
001
 62
   200
370
    50
100
AcDbVertex
100
AcDb2dVertex
 10
54.742131
 20
177.16247
 30
0.0
  0
SEQEND
  5
32D
330
32C
100
AcDbEntity
  8
001
370
    50
  0
POLYLINE
  5
347
330
1F
100
AcDbEntity
  8
001
 62
   200
370
    50
100
AcDb2dPolyline
 66
     1
 10
0.0
 20
0.0
 30
0.0
  0
VERTEX
  5
349
330
347
100
AcDbEntity
  8
001
 62
   200
370
    50
100
AcDbVertex
100
AcDb2dVertex
 10
56.345556
 20
176.382621
 30
0.0
  0
VERTEX
  5
34A
330
347
100
AcDbEntity
  8
001
 62
   200
370
    50
100
AcDbVertex
100
AcDb2dVertex
 10
56.505238
 20
176.39255
 30
0.0
  0
VERTEX
  5
34B
330
347
100
AcDbEntity
  8
001
 62
   200
370
    50
100
AcDbVertex
100
AcDb2dVertex
 10
56.722447
 20
176.421412
 30
0.0
  0
VERTEX
  5
34C
330
347
100
AcDbEntity
  8
001
 62
   200
370
    50
100
AcDbVertex
100
AcDb2dVertex
 10
56.889897
 20
176.461738
 30
0.0
  0
VERTEX
  5
34D
330
347
100
AcDbEntity
  8
001
 62
   200
370
    50
100
AcDbVertex
100
AcDb2dVertex
 10
57.039897
 20
176.515786
 30
0.0
  0
VERTEX
  5
34E
330
347
100
AcDbEntity
  8
001
 62
   200
370
    50
100
AcDbVertex
100
AcDb2dVertex
 10
57.18932
 20
176.583207
 30
0.0
  0
VERTEX
  5
34F
330
347
100
AcDbEntity
  8
001
 62
   200
370
    50
100
AcDbVertex
100
AcDb2dVertex
 10
57.336249
 20
176.663623
 30
0.0
  0
VERTEX
  5
350
330
347
100
AcDbEntity
  8
001
 62
   200
370
    50
100
AcDbVertex
100
AcDb2dVertex
 10
57.603306
 20
176.860322
 30
0.0
  0
VERTEX
  5
351
330
347
100
AcDbEntity
  8
001
 62
   200
370
    50
100
AcDbVertex
100
AcDb2dVertex
 10
57.830559
 20
177.100233
 30
0.0
  0
VERTEX
  5
352
330
347
100
AcDbEntity
  8
001
 62
   200
370
    50
100
AcDbVertex
100
AcDb2dVertex
 10
58.085602
 20
177.522124
 30
0.0
  0
VERTEX
  5
353
330
347
100
AcDbEntity
  8
001
 62
   200
370
    50
100
AcDbVertex
100
AcDb2dVertex
 10
58.223317
 20
177.999555
 30
0.0
  0
VERTEX
  5
354
330
347
100
AcDbEntity
  8
001
 62
   200
370
    50
100
AcDbVertex
100
AcDb2dVertex
 10
58.240138
 20
178.166888
 30
0.0
  0
VERTEX
  5
355
330
347
100
AcDbEntity
  8
001
 62
   200
370
    50
100
AcDbVertex
100
AcDb2dVertex
 10
58.243822
 20
178.328909
 30
0.0
  0
VERTEX
  5
356
330
347
100
AcDbEntity
  8
001
 62
   200
370
    50
100
AcDbVertex
100
AcDb2dVertex
 10
58.234986
 20
178.483641
 30
0.0
  0
VERTEX
  5
357
330
347
100
AcDbEntity
  8
001
 62
   200
370
    50
100
AcDbVertex
100
AcDb2dVertex
 10
58.20665
 20
178.656637
 30
0.0
  0
VERTEX
  5
358
330
347
100
AcDbEntity
  8
001
 62
   200
370
    50
100
AcDbVertex
100
AcDb2dVertex
 10
58.192978
 20
178.717518
 30
0.0
  0
VERTEX
  5
359
330
347
100
AcDbEntity
  8
001
 62
   200
370
    50
100
AcDbVertex
100
AcDb2dVertex
 10
58.182543
 20
178.760165
 30
0.0
  0
SEQEND
  5
348
330
347
100
AcDbEntity
  8
001
370
    50
  0
POLYLINE
  5
35A
330
1F
100
AcDbEntity
  8
001
 62
   200
370
    50
100
AcDb2dPolyline
 66
     1
 10
0.0
 20
0.0
 30
0.0
  0
VERTEX
  5
35C
330
35A
100
AcDbEntity
  8
001
 62
   200
370
    50
100
AcDbVertex
100
AcDb2dVertex
 10
54.672517
 20
177.375084
 30
0.0
  0
VERTEX
  5
35D
330
35A
100
AcDbEntity
  8
001
 62
   200
370
    50
100
AcDbVertex
100
AcDb2dVertex
 10
54.694029
 20
177.336804
 30
0.0
  0
VERTEX
  5
35E
330
35A
100
AcDbEntity
  8
001
 62
   200
370
    50
100
AcDbVertex
100
AcDb2dVertex
 10
54.725604
 20
177.282992
 30
0.0
  0
VERTEX
  5
35F
330
35A
100
AcDbEntity
  8
001
 62
   200
370
    50
100
AcDbVertex
100
AcDb2dVertex
 10
54.822714
 20
177.137258
 30
0.0
  0
VERTEX
  5
360
330
35A
100
AcDbEntity
  8
001
 62
   200
370
    50
100
AcDbVertex
100
AcDb2dVertex
 10
54.922247
 20
177.018193
 30
0.0
  0
VERTEX
  5
361
330
35A
100
AcDbEntity
  8
001
 62
   200
370
    50
100
AcDbVertex
100
AcDb2dVertex
 10
55.036994
 20
176.902364
 30
0.0
  0
VERTEX
  5
362
330
35A
100
AcDbEntity
  8
001
 62
   200
370
    50
100
AcDbVertex
100
AcDb2dVertex
 10
55.162136
 20
176.791592
 30
0.0
  0
VERTEX
  5
363
330
35A
100
AcDbEntity
  8
001
 62
   200
370
    50
100
AcDbVertex
100
AcDb2dVertex
 10
55.561423
 20
176.536515
 30
0.0
  0
VERTEX
  5
364
330
35A
100
AcDbEntity
  8
001
 62
   200
370
    50
100
AcDbVertex
100
AcDb2dVertex
 10
56.063186
 20
176.402815
 30
0.0
  0
VERTEX
  5
365
330
35A
100
AcDbEntity
  8
001
 62
   200
370
    50
100
AcDbVertex
100
AcDb2dVertex
 10
56.228758
 20
176.387532
 30
0.0
  0
VERTEX
  5
366
330
35A
100
AcDbEntity
  8
001
 62
   200
370
    50
100
AcDbVertex
100
AcDb2dVertex
 10
56.345556
 20
176.382621
 30
0.0
  0
SEQEND
  5
35B
330
35A
100
AcDbEntity
  8
001
370
    50
  0
LINE
  5
367
330
1F
100
AcDbEntity
  8
001
 62
   200
370
    50
100
AcDbLine
 10
64.01397
 20
182.388563
 30
0.0
 11
63.969467
 21
182.50134
 31
0.0
  0
POLYLINE
  5
368
330
1F
100
AcDbEntity
  8
001
 62
   200
370
    50
100
AcDb2dPolyline
 66
     1
 10
0.0
 20
0.0
 30
0.0
  0
VERTEX
  5
36A
330
368
100
AcDbEntity
  8
001
 62
   200
370
    50
100
AcDbVertex
100
AcDb2dVertex
 10
63.969467
 20
182.50134
 30
0.0
  0
VERTEX
  5
36B
330
368
100
AcDbEntity
  8
001
 62
   200
370
    50
100
AcDbVertex
100
AcDb2dVertex
 10
63.945176
 20
182.554529
 30
0.0
  0
VERTEX
  5
36C
330
368
100
AcDbEntity
  8
001
 62
   200
370
    50
100
AcDbVertex
100
AcDb2dVertex
 10
63.907395
 20
182.62553
 30
0.0
  0
VERTEX
  5
36D
330
368
100
AcDbEntity
  8
001
 62
   200
370
    50
100
AcDbVertex
100
AcDb2dVertex
 10
63.867481
 20
182.685867
 30
0.0
  0
VERTEX
  5
36E
330
368
100
AcDbEntity
  8
001
 62
   200
370
    50
100
AcDbVertex
100
AcDb2dVertex
 10
63.824598
 20
182.737025
 30
0.0
  0
VERTEX
  5
36F
330
368
100
AcDbEntity
  8
001
 62
   200
370
    50
100
AcDbVertex
100
AcDb2dVertex
 10
63.775989
 20
182.786103
 30
0.0
  0
VERTEX
  5
370
330
368
100
AcDbEntity
  8
001
 62
   200
370
    50
100
AcDbVertex
100
AcDb2dVertex
 10
63.723592
 20
182.832435
 30
0.0
  0
VERTEX
  5
371
330
368
100
AcDbEntity
  8
001
 62
   200
370
    50
100
AcDbVertex
100
AcDb2dVertex
 10
63.555815
 20
182.939498
 30
0.0
  0
VERTEX
  5
372
330
368
100
AcDbEntity
  8
001
 62
   200
370
    50
100
AcDbVertex
100
AcDb2dVertex
 10
63.344203
 20
182.996131
 30
0.0
  0
VERTEX
  5
373
330
368
100
AcDbEntity
  8
001
 62
   200
370
    50
100
AcDbVertex
100
AcDb2dVertex
 10
63.276906
 20
183.002475
 30
0.0
  0
VERTEX
  5
374
330
368
100
AcDbEntity
  8
001
 62
   200
370
    50
100
AcDbVertex
100
AcDb2dVertex
 10
63.229483
 20
183.004635
 30
0.0
  0
SEQEND
  5
369
330
368
100
AcDbEntity
  8
001
370
    50
  0
LINE
  5
375
330
1F
100
AcDbEntity
  8
001
 62
   140
370
    50
100
AcDbLine
 10
67.207786
 20
164.62096
 30
0.0
 11
52.207786
 21
164.62096
 31
0.0
  0
POLYLINE
  5
376
330
1F
100
AcDbEntity
  8
001
 62
   140
370
    50
100
AcDb2dPolyline
 66
     1
 10
0.0
 20
0.0
 30
0.0
  0
VERTEX
  5
378
330
376
100
AcDbEntity
  8
001
 62
   140
370
    50
100
AcDbVertex
100
AcDb2dVertex
 10
56.616114
 20
180.014859
 30
0.0
  0
VERTEX
  5
379
330
376
100
AcDbEntity
  8
001
 62
   140
370
    50
100
AcDbVertex
100
AcDb2dVertex
 10
56.445394
 20
179.994723
 30
0.0
  0
VERTEX
  5
37A
330
376
100
AcDbEntity
  8
001
 62
   140
370
    50
100
AcDbVertex
100
AcDb2dVertex
 10
56.210304
 20
179.955238
 30
0.0
  0
VERTEX
  5
37B
330
376
100
AcDbEntity
  8
001
 62
   140
370
    50
100
AcDbVertex
100
AcDb2dVertex
 10
55.945328
 20
179.886666
 30
0.0
  0
VERTEX
  5
37C
330
376
100
AcDbEntity
  8
001
 62
   140
370
    50
100
AcDbVertex
100
AcDb2dVertex
 10
55.712035
 20
179.797514
 30
0.0
  0
VERTEX
  5
37D
330
376
100
AcDbEntity
  8
001
 62
   140
370
    50
100
AcDbVertex
100
AcDb2dVertex
 10
55.478388
 20
179.685751
 30
0.0
  0
VERTEX
  5
37E
330
376
100
AcDbEntity
  8
001
 62
   140
370
    50
100
AcDbVertex
100
AcDb2dVertex
 10
55.2491
 20
179.552782
 30
0.0
  0
VERTEX
  5
37F
330
376
100
AcDbEntity
  8
001
 62
   140
370
    50
100
AcDbVertex
100
AcDb2dVertex
 10
55.034222
 20
179.399852
 30
0.0
  0
VERTEX
  5
380
330
376
100
AcDbEntity
  8
001
 62
   140
370
    50
100
AcDbVertex
100
AcDb2dVertex
 10
54.835563
 20
179.228477
 30
0.0
  0
VERTEX
  5
381
330
376
100
AcDbEntity
  8
001
 62
   140
370
    50
100
AcDbVertex
100
AcDb2dVertex
 10
54.335206
 20
178.615551
 30
0.0
  0
VERTEX
  5
382
330
376
100
AcDbEntity
  8
001
 62
   140
370
    50
100
AcDbVertex
100
AcDb2dVertex
 10
54.007259
 20
177.886897
 30
0.0
  0
VERTEX
  5
383
330
376
100
AcDbEntity
  8
001
 62
   140
370
    50
100
AcDbVertex
100
AcDb2dVertex
 10
53.899097
 20
177.352304
 30
0.0
  0
VERTEX
  5
384
330
376
100
AcDbEntity
  8
001
 62
   140
370
    50
100
AcDbVertex
100
AcDb2dVertex
 10
53.876406
 20
176.824398
 30
0.0
  0
VERTEX
  5
385
330
376
100
AcDbEntity
  8
001
 62
   140
370
    50
100
AcDbVertex
100
AcDb2dVertex
 10
53.895896
 20
176.56756
 30
0.0
  0
VERTEX
  5
386
330
376
100
AcDbEntity
  8
001
 62
   140
370
    50
100
AcDbVertex
100
AcDb2dVertex
 10
53.947334
 20
176.289971
 30
0.0
  0
VERTEX
  5
387
330
376
100
AcDbEntity
  8
001
 62
   140
370
    50
100
AcDbVertex
100
AcDb2dVertex
 10
54.026699
 20
176.006314
 30
0.0
  0
VERTEX
  5
388
330
376
100
AcDbEntity
  8
001
 62
   140
370
    50
100
AcDbVertex
100
AcDb2dVertex
 10
54.095507
 20
175.804355
 30
0.0
  0
SEQEND
  5
377
330
376
100
AcDbEntity
  8
001
370
    50
  0
LINE
  5
389
330
1F
100
AcDbEntity
  8
001
 62
   140
370
    50
100
AcDbLine
 10
66.523294
 20
180.014859
 30
0.0
 11
57.054461
 21
180.014859
 31
0.0
  0
LINE
  5
38A
330
1F
100
AcDbEntity
  8
001
 62
   140
370
    50
100
AcDbLine
 10
49.207786
 20
173.079052
 30
0.0
 11
52.207786
 21
167.882899
 31
0.0
  0
LINE
  5
38B
330
1F
100
AcDbEntity
  8
001
 62
   140
370
    50
100
AcDbLine
 10
49.507786
 20
180.014859
 30
0.0
 11
49.207786
 21
179.641483
 31
0.0
  0
LINE
  5
38C
330
1F
100
AcDbEntity
  8
001
 62
   140
370
    50
100
AcDbLine
 10
56.616114
 20
180.014859
 30
0.0
 11
49.507786
 21
180.014859
 31
0.0
  0
LINE
  5
38D
330
1F
100
AcDbEntity
  8
001
 62
   140
370
    50
100
AcDbLine
 10
67.207786
 20
163.980638
 30
0.0
 11
67.207786
 21
179.330367
 31
0.0
  0
LINE
  5
38E
330
1F
100
AcDbEntity
  8
001
 62
   140
370
    50
100
AcDbLine
 10
52.207786
 20
167.882899
 30
0.0
 11
52.207786
 21
148.145999
 31
0.0
  0
POLYLINE
  5
38F
330
1F
100
AcDbEntity
  8
001
 62
   140
370
    50
100
AcDb2dPolyline
 66
     1
 10
0.0
 20
0.0
 30
0.0
  0
VERTEX
  5
391
330
38F
100
AcDbEntity
  8
001
 62
   140
370
    50
100
AcDbVertex
100
AcDb2dVertex
 10
53.943915
 20
176.305702
 30
0.0
  0
VERTEX
  5
392
330
38F
100
AcDbEntity
  8
001
 62
   140
370
    50
100
AcDbVertex
100
AcDb2dVertex
 10
53.947073
 20
176.300525
 30
0.0
  0
VERTEX
  5
393
330
38F
100
AcDbEntity
  8
001
 62
   140
370
    50
100
AcDbVertex
100
AcDb2dVertex
 10
53.951686
 20
176.292989
 30
0.0
  0
VERTEX
  5
394
330
38F
100
AcDbEntity
  8
001
 62
   140
370
    50
100
AcDbVertex
100
AcDb2dVertex
 10
54.108306
 20
176.059895
 30
0.0
  0
VERTEX
  5
395
330
38F
100
AcDbEntity
  8
001
 62
   140
370
    50
100
AcDbVertex
100
AcDb2dVertex
 10
54.262174
 20
175.874885
 30
0.0
  0
VERTEX
  5
396
330
38F
100
AcDbEntity
  8
001
 62
   140
370
    50
100
AcDbVertex
100
AcDb2dVertex
 10
54.440317
 20
175.692897
 30
0.0
  0
VERTEX
  5
397
330
38F
100
AcDbEntity
  8
001
 62
   140
370
    50
100
AcDbVertex
100
AcDb2dVertex
 10
54.640947
 20
175.517095
 30
0.0
  0
VERTEX
  5
398
330
38F
100
AcDbEntity
  8
001
 62
   140
370
    50
100
AcDbVertex
100
AcDb2dVertex
 10
55.314813
 20
175.113428
 30
0.0
  0
VERTEX
  5
399
330
38F
100
AcDbEntity
  8
001
 62
   140
370
    50
100
AcDbVertex
100
AcDb2dVertex
 10
56.063657
 20
174.903237
 30
0.0
  0
VERTEX
  5
39A
330
38F
100
AcDbEntity
  8
001
 62
   140
370
    50
100
AcDbVertex
100
AcDb2dVertex
 10
56.585857
 20
174.873052
 30
0.0
  0
VERTEX
  5
39B
330
38F
100
AcDbEntity
  8
001
 62
   140
370
    50
100
AcDbVertex
100
AcDb2dVertex
 10
57.104596
 20
174.932601
 30
0.0
  0
VERTEX
  5
39C
330
38F
100
AcDbEntity
  8
001
 62
   140
370
    50
100
AcDbVertex
100
AcDb2dVertex
 10
57.358566
 20
174.996201
 30
0.0
  0
VERTEX
  5
39D
330
38F
100
AcDbEntity
  8
001
 62
   140
370
    50
100
AcDbVertex
100
AcDb2dVertex
 10
57.605832
 20
175.081612
 30
0.0
  0
VERTEX
  5
39E
330
38F
100
AcDbEntity
  8
001
 62
   140
370
    50
100
AcDbVertex
100
AcDb2dVertex
 10
57.844792
 20
175.188075
 30
0.0
  0
VERTEX
  5
39F
330
38F
100
AcDbEntity
  8
001
 62
   140
370
    50
100
AcDbVertex
100
AcDb2dVertex
 10
58.073757
 20
175.315039
 30
0.0
  0
VERTEX
  5
3A0
330
38F
100
AcDbEntity
  8
001
 62
   140
370
    50
100
AcDbVertex
100
AcDb2dVertex
 10
58.493377
 20
175.625732
 30
0.0
  0
VERTEX
  5
3A1
330
38F
100
AcDbEntity
  8
001
 62
   140
370
    50
100
AcDbVertex
100
AcDb2dVertex
 10
58.854247
 20
176.004423
 30
0.0
  0
VERTEX
  5
3A2
330
38F
100
AcDbEntity
  8
001
 62
   140
370
    50
100
AcDbVertex
100
AcDb2dVertex
 10
59.257765
 20
176.66963
 30
0.0
  0
VERTEX
  5
3A3
330
38F
100
AcDbEntity
  8
001
 62
   140
370
    50
100
AcDbVertex
100
AcDb2dVertex
 10
59.474389
 20
177.424405
 30
0.0
  0
VERTEX
  5
3A4
330
38F
100
AcDbEntity
  8
001
 62
   140
370
    50
100
AcDbVertex
100
AcDb2dVertex
 10
59.500905
 20
177.689555
 30
0.0
  0
VERTEX
  5
3A5
330
38F
100
AcDbEntity
  8
001
 62
   140
370
    50
100
AcDbVertex
100
AcDb2dVertex
 10
59.506767
 20
177.944438
 30
0.0
  0
VERTEX
  5
3A6
330
38F
100
AcDbEntity
  8
001
 62
   140
370
    50
100
AcDbVertex
100
AcDb2dVertex
 10
59.492831
 20
178.185618
 30
0.0
  0
VERTEX
  5
3A7
330
38F
100
AcDbEntity
  8
001
 62
   140
370
    50
100
AcDbVertex
100
AcDb2dVertex
 10
59.448074
 20
178.461902
 30
0.0
  0
VERTEX
  5
3A8
330
38F
100
AcDbEntity
  8
001
 62
   140
370
    50
100
AcDbVertex
100
AcDb2dVertex
 10
59.442638
 20
178.487907
 30
0.0
  0
VERTEX
  5
3A9
330
38F
100
AcDbEntity
  8
001
 62
   140
370
    50
100
AcDbVertex
100
AcDb2dVertex
 10
59.438796
 20
178.50584
 30
0.0
  0
SEQEND
  5
390
330
38F
100
AcDbEntity
  8
001
370
    50
  0
POLYLINE
  5
3AA
330
1F
100
AcDbEntity
  8
001
 62
   140
370
    50
100
AcDb2dPolyline
 66
     1
 10
0.0
 20
0.0
 30
0.0
  0
VERTEX
  5
3AC
330
3AA
100
AcDbEntity
  8
001
 62
   140
370
    50
100
AcDbVertex
100
AcDb2dVertex
 10
59.654275
 20
178.063521
 30
0.0
  0
VERTEX
  5
3AD
330
3AA
100
AcDbEntity
  8
001
 62
   140
370
    50
100
AcDbVertex
100
AcDb2dVertex
 10
59.649532
 20
178.075432
 30
0.0
  0
VERTEX
  5
3AE
330
3AA
100
AcDbEntity
  8
001
 62
   140
370
    50
100
AcDbVertex
100
AcDb2dVertex
 10
59.642568
 20
178.092765
 30
0.0
  0
VERTEX
  5
3AF
330
3AA
100
AcDbEntity
  8
001
 62
   140
370
    50
100
AcDbVertex
100
AcDb2dVertex
 10
59.386267
 20
178.61018
 30
0.0
  0
VERTEX
  5
3B0
330
3AA
100
AcDbEntity
  8
001
 62
   140
370
    50
100
AcDbVertex
100
AcDb2dVertex
 10
59.077936
 20
179.00228
 30
0.0
  0
VERTEX
  5
3B1
330
3AA
100
AcDbEntity
  8
001
 62
   140
370
    50
100
AcDbVertex
100
AcDb2dVertex
 10
58.464346
 20
179.508999
 30
0.0
  0
VERTEX
  5
3B2
330
3AA
100
AcDbEntity
  8
001
 62
   140
370
    50
100
AcDbVertex
100
AcDb2dVertex
 10
57.76312
 20
179.872444
 30
0.0
  0
VERTEX
  5
3B3
330
3AA
100
AcDbEntity
  8
001
 62
   140
370
    50
100
AcDbVertex
100
AcDb2dVertex
 10
57.526991
 20
179.943801
 30
0.0
  0
VERTEX
  5
3B4
330
3AA
100
AcDbEntity
  8
001
 62
   140
370
    50
100
AcDbVertex
100
AcDb2dVertex
 10
57.251667
 20
179.993281
 30
0.0
  0
VERTEX
  5
3B5
330
3AA
100
AcDbEntity
  8
001
 62
   140
370
    50
100
AcDbVertex
100
AcDb2dVertex
 10
57.136151
 20
180.006989
 30
0.0
  0
VERTEX
  5
3B6
330
3AA
100
AcDbEntity
  8
001
 62
   140
370
    50
100
AcDbVertex
100
AcDb2dVertex
 10
57.054461
 20
180.014859
 30
0.0
  0
SEQEND
  5
3AB
330
3AA
100
AcDbEntity
  8
001
370
    50
  0
POLYLINE
  5
3B7
330
1F
100
AcDbEntity
  8
001
 62
   140
370
    50
100
AcDb2dPolyline
 66
     1
 10
0.0
 20
0.0
 30
0.0
  0
VERTEX
  5
3B9
330
3B7
100
AcDbEntity
  8
001
 62
   140
370
    50
100
AcDbVertex
100
AcDb2dVertex
 10
54.095507
 20
175.804355
 30
0.0
  0
VERTEX
  5
3BA
330
3B7
100
AcDbEntity
  8
001
 62
   140
370
    50
100
AcDbVertex
100
AcDb2dVertex
 10
54.100249
 20
175.792444
 30
0.0
  0
VERTEX
  5
3BB
330
3B7
100
AcDbEntity
  8
001
 62
   140
370
    50
100
AcDbVertex
100
AcDb2dVertex
 10
54.107215
 20
175.775111
 30
0.0
  0
VERTEX
  5
3BC
330
3B7
100
AcDbEntity
  8
001
 62
   140
370
    50
100
AcDbVertex
100
AcDb2dVertex
 10
54.365541
 20
175.257526
 30
0.0
  0
VERTEX
  5
3BD
330
3B7
100
AcDbEntity
  8
001
 62
   140
370
    50
100
AcDbVertex
100
AcDb2dVertex
 10
54.671846
 20
174.865596
 30
0.0
  0
VERTEX
  5
3BE
330
3B7
100
AcDbEntity
  8
001
 62
   140
370
    50
100
AcDbVertex
100
AcDb2dVertex
 10
55.268009
 20
174.360336
 30
0.0
  0
VERTEX
  5
3BF
330
3B7
100
AcDbEntity
  8
001
 62
   140
370
    50
100
AcDbVertex
100
AcDb2dVertex
 10
55.986662
 20
173.995431
 30
0.0
  0
VERTEX
  5
3C0
330
3B7
100
AcDbEntity
  8
001
 62
   140
370
    50
100
AcDbVertex
100
AcDb2dVertex
 10
56.240168
 20
173.922619
 30
0.0
  0
VERTEX
  5
3C1
330
3B7
100
AcDbEntity
  8
001
 62
   140
370
    50
100
AcDbVertex
100
AcDb2dVertex
 10
56.498115
 20
173.874594
 30
0.0
  0
VERTEX
  5
3C2
330
3B7
100
AcDbEntity
  8
001
 62
   140
370
    50
100
AcDbVertex
100
AcDb2dVertex
 10
56.758816
 20
173.849203
 30
0.0
  0
VERTEX
  5
3C3
330
3B7
100
AcDbEntity
  8
001
 62
   140
370
    50
100
AcDbVertex
100
AcDb2dVertex
 10
57.021017
 20
173.846714
 30
0.0
  0
VERTEX
  5
3C4
330
3B7
100
AcDbEntity
  8
001
 62
   140
370
    50
100
AcDbVertex
100
AcDb2dVertex
 10
57.281767
 20
173.86794
 30
0.0
  0
VERTEX
  5
3C5
330
3B7
100
AcDbEntity
  8
001
 62
   140
370
    50
100
AcDbVertex
100
AcDb2dVertex
 10
57.539478
 20
173.912637
 30
0.0
  0
VERTEX
  5
3C6
330
3B7
100
AcDbEntity
  8
001
 62
   140
370
    50
100
AcDbVertex
100
AcDb2dVertex
 10
57.792144
 20
173.980301
 30
0.0
  0
VERTEX
  5
3C7
330
3B7
100
AcDbEntity
  8
001
 62
   140
370
    50
100
AcDbVertex
100
AcDb2dVertex
 10
58.037747
 20
174.070361
 30
0.0
  0
VERTEX
  5
3C8
330
3B7
100
AcDbEntity
  8
001
 62
   140
370
    50
100
AcDbVertex
100
AcDb2dVertex
 10
58.274732
 20
174.182371
 30
0.0
  0
VERTEX
  5
3C9
330
3B7
100
AcDbEntity
  8
001
 62
   140
370
    50
100
AcDbVertex
100
AcDb2dVertex
 10
58.500682
 20
174.315094
 30
0.0
  0
VERTEX
  5
3CA
330
3B7
100
AcDbEntity
  8
001
 62
   140
370
    50
100
AcDbVertex
100
AcDb2dVertex
 10
58.714554
 20
174.467949
 30
0.0
  0
VERTEX
  5
3CB
330
3B7
100
AcDbEntity
  8
001
 62
   140
370
    50
100
AcDbVertex
100
AcDb2dVertex
 10
58.914219
 20
174.639398
 30
0.0
  0
VERTEX
  5
3CC
330
3B7
100
AcDbEntity
  8
001
 62
   140
370
    50
100
AcDbVertex
100
AcDb2dVertex
 10
59.415595
 20
175.2524
 30
0.0
  0
VERTEX
  5
3CD
330
3B7
100
AcDbEntity
  8
001
 62
   140
370
    50
100
AcDbVertex
100
AcDb2dVertex
 10
59.742523
 20
175.980979
 30
0.0
  0
VERTEX
  5
3CE
330
3B7
100
AcDbEntity
  8
001
 62
   140
370
    50
100
AcDbVertex
100
AcDb2dVertex
 10
59.850541
 20
176.515561
 30
0.0
  0
VERTEX
  5
3CF
330
3B7
100
AcDbEntity
  8
001
 62
   140
370
    50
100
AcDbVertex
100
AcDb2dVertex
 10
59.873376
 20
177.043478
 30
0.0
  0
VERTEX
  5
3D0
330
3B7
100
AcDbEntity
  8
001
 62
   140
370
    50
100
AcDbVertex
100
AcDb2dVertex
 10
59.8539
 20
177.300317
 30
0.0
  0
VERTEX
  5
3D1
330
3B7
100
AcDbEntity
  8
001
 62
   140
370
    50
100
AcDbVertex
100
AcDb2dVertex
 10
59.802448
 20
177.577905
 30
0.0
  0
VERTEX
  5
3D2
330
3B7
100
AcDbEntity
  8
001
 62
   140
370
    50
100
AcDbVertex
100
AcDb2dVertex
 10
59.72308
 20
177.861562
 30
0.0
  0
VERTEX
  5
3D3
330
3B7
100
AcDbEntity
  8
001
 62
   140
370
    50
100
AcDbVertex
100
AcDb2dVertex
 10
59.654275
 20
178.063521
 30
0.0
  0
SEQEND
  5
3B8
330
3B7
100
AcDbEntity
  8
001
370
    50
  0
POLYLINE
  5
3D4
330
1F
100
AcDbEntity
  8
001
 62
   140
370
    50
100
AcDb2dPolyline
 66
     1
 10
0.0
 20
0.0
 30
0.0
  0
VERTEX
  5
3D6
330
3D4
100
AcDbEntity
  8
001
 62
   140
370
    50
100
AcDbVertex
100
AcDb2dVertex
 10
57.054461
 20
180.014859
 30
0.0
  0
VERTEX
  5
3D7
330
3D4
100
AcDbEntity
  8
001
 62
   140
370
    50
100
AcDbVertex
100
AcDb2dVertex
 10
57.033402
 20
180.016656
 30
0.0
  0
VERTEX
  5
3D8
330
3D4
100
AcDbEntity
  8
001
 62
   140
370
    50
100
AcDbVertex
100
AcDb2dVertex
 10
57.012334
 20
180.018351
 30
0.0
  0
VERTEX
  5
3D9
330
3D4
100
AcDbEntity
  8
001
 62
   140
370
    50
100
AcDbVertex
100
AcDb2dVertex
 10
56.922305
 20
180.023398
 30
0.0
  0
VERTEX
  5
3DA
330
3D4
100
AcDbEntity
  8
001
 62
   140
370
    50
100
AcDbVertex
100
AcDb2dVertex
 10
56.832125
 20
180.024962
 30
0.0
  0
VERTEX
  5
3DB
330
3D4
100
AcDbEntity
  8
001
 62
   140
370
    50
100
AcDbVertex
100
AcDb2dVertex
 10
56.738543
 20
180.023059
 30
0.0
  0
VERTEX
  5
3DC
330
3D4
100
AcDbEntity
  8
001
 62
   140
370
    50
100
AcDbVertex
100
AcDb2dVertex
 10
56.645138
 20
180.017377
 30
0.0
  0
VERTEX
  5
3DD
330
3D4
100
AcDbEntity
  8
001
 62
   140
370
    50
100
AcDbVertex
100
AcDb2dVertex
 10
56.630624
 20
180.016142
 30
0.0
  0
VERTEX
  5
3DE
330
3D4
100
AcDbEntity
  8
001
 62
   140
370
    50
100
AcDbVertex
100
AcDb2dVertex
 10
56.616114
 20
180.014859
 30
0.0
  0
SEQEND
  5
3D5
330
3D4
100
AcDbEntity
  8
001
370
    50
  0
LINE
  5
3DF
330
1F
100
AcDbEntity
  8
001
 62
   140
370
    50
100
AcDbLine
 10
49.207786
 20
182.001946
 30
0.0
 11
49.507782
 21
182.296557
 31
0.0
  0
POLYLINE
  5
3E0
330
1F
100
AcDbEntity
  8
001
 62
   140
370
    50
100
AcDb2dPolyline
 66
     1
 10
0.0
 20
0.0
 30
0.0
  0
VERTEX
  5
3E2
330
3E0
100
AcDbEntity
  8
001
 62
   140
370
    50
100
AcDbVertex
100
AcDb2dVertex
 10
49.507782
 20
182.296553
 30
0.0
  0
VERTEX
  5
3E3
330
3E0
100
AcDbEntity
  8
001
 62
   140
370
    50
100
AcDbVertex
100
AcDb2dVertex
 10
51.199469
 20
182.279342
 30
0.0
  0
VERTEX
  5
3E4
330
3E0
100
AcDbEntity
  8
001
 62
   140
370
    50
100
AcDbVertex
100
AcDb2dVertex
 10
53.67194
 20
182.25457
 30
0.0
  0
VERTEX
  5
3E5
330
3E0
100
AcDbEntity
  8
001
 62
   140
370
    50
100
AcDbVertex
100
AcDb2dVertex
 10
56.534805
 20
182.22639
 30
0.0
  0
VERTEX
  5
3E6
330
3E0
100
AcDbEntity
  8
001
 62
   140
370
    50
100
AcDbVertex
100
AcDb2dVertex
 10
59.733506
 20
182.19564
 30
0.0
  0
VERTEX
  5
3E7
330
3E0
100
AcDbEntity
  8
001
 62
   140
370
    50
100
AcDbVertex
100
AcDb2dVertex
 10
62.496024
 20
182.169583
 30
0.0
  0
VERTEX
  5
3E8
330
3E0
100
AcDbEntity
  8
001
 62
   140
370
    50
100
AcDbVertex
100
AcDb2dVertex
 10
64.386171
 20
182.151982
 30
0.0
  0
SEQEND
  5
3E1
330
3E0
100
AcDbEntity
  8
001
370
    50
  0
LINE
  5
3E9
330
1F
100
AcDbEntity
  8
001
 62
   140
370
    50
100
AcDbLine
 10
49.507782
 20
182.420368
 30
0.0
 11
49.507782
 21
180.014859
 31
0.0
  0
LINE
  5
3EA
330
1F
100
AcDbEntity
  8
001
 62
   140
370
    50
100
AcDbLine
 10
64.149887
 20
182.388265
 30
0.0
 11
49.507782
 21
182.420368
 31
0.0
  0
LINE
  5
3EB
330
1F
100
AcDbEntity
  8
001
 62
   140
370
    50
100
AcDbLine
 10
67.207786
 20
179.330367
 30
0.0
 11
64.149887
 21
182.388265
 31
0.0
  0
LINE
  5
3EC
330
1F
100
AcDbEntity
  8
001
 62
   140
370
    50
100
AcDbLine
 10
49.207786
 20
182.122172
 30
0.0
 11
49.507782
 21
182.420368
 31
0.0
  0
LINE
  5
3ED
330
1F
100
AcDbEntity
  8
001
 62
   140
370
    50
100
AcDbLine
 10
49.207786
 20
173.079052
 30
0.0
 11
49.207786
 21
182.122172
 31
0.0
  0
POLYLINE
  5
3EE
330
1F
100
AcDbEntity
  8
001
 62
   200
370
    50
100
AcDb2dPolyline
 66
     1
 10
0.0
 20
0.0
 30
0.0
  0
VERTEX
  5
3F0
330
3EE
100
AcDbEntity
  8
001
 62
   200
370
    50
100
AcDbVertex
100
AcDb2dVertex
 10
64.024603
 20
78.990125
 30
0.0
  0
VERTEX
  5
3F1
330
3EE
100
AcDbEntity
  8
001
 62
   200
370
    50
100
AcDbVertex
100
AcDb2dVertex
 10
64.019833
 20
79.02401
 30
0.0
  0
VERTEX
  5
3F2
330
3EE
100
AcDbEntity
  8
001
 62
   200
370
    50
100
AcDbVertex
100
AcDb2dVertex
 10
64.009111
 20
79.069197
 30
0.0
  0
VERTEX
  5
3F3
330
3EE
100
AcDbEntity
  8
001
 62
   200
370
    50
100
AcDbVertex
100
AcDb2dVertex
 10
63.993209
 20
79.108918
 30
0.0
  0
VERTEX
  5
3F4
330
3EE
100
AcDbEntity
  8
001
 62
   200
370
    50
100
AcDbVertex
100
AcDb2dVertex
 10
63.969804
 20
79.144845
 30
0.0
  0
VERTEX
  5
3F5
330
3EE
100
AcDbEntity
  8
001
 62
   200
370
    50
100
AcDbVertex
100
AcDb2dVertex
 10
63.939536
 20
79.18176
 30
0.0
  0
VERTEX
  5
3F6
330
3EE
100
AcDbEntity
  8
001
 62
   200
370
    50
100
AcDbVertex
100
AcDb2dVertex
 10
63.915624
 20
79.20754
 30
0.0
  0
SEQEND
  5
3EF
330
3EE
100
AcDbEntity
  8
001
370
    50
  0
LINE
  5
3F7
330
1F
100
AcDbEntity
  8
001
 62
   200
370
    50
100
AcDbLine
 10
64.188551
 20
75.093769
 30
0.0
 11
64.024603
 21
78.990125
 31
0.0
  0
POLYLINE
  5
3F8
330
1F
100
AcDbEntity
  8
001
 62
   200
370
    50
100
AcDb2dPolyline
 66
     1
 10
0.0
 20
0.0
 30
0.0
  0
VERTEX
  5
3FA
330
3F8
100
AcDbEntity
  8
001
 62
   200
370
    50
100
AcDbVertex
100
AcDb2dVertex
 10
63.393432
 20
74.601281
 30
0.0
  0
VERTEX
  5
3FB
330
3F8
100
AcDbEntity
  8
001
 62
   200
370
    50
100
AcDbVertex
100
AcDb2dVertex
 10
63.39961
 20
74.601494
 30
0.0
  0
VERTEX
  5
3FC
330
3F8
100
AcDbEntity
  8
001
 62
   200
370
    50
100
AcDbVertex
100
AcDb2dVertex
 10
63.408543
 20
74.601835
 30
0.0
  0
VERTEX
  5
3FD
330
3F8
100
AcDbEntity
  8
001
 62
   200
370
    50
100
AcDbVertex
100
AcDb2dVertex
 10
63.483326
 20
74.606655
 30
0.0
  0
VERTEX
  5
3FE
330
3F8
100
AcDbEntity
  8
001
 62
   200
370
    50
100
AcDbVertex
100
AcDb2dVertex
 10
63.547046
 20
74.614637
 30
0.0
  0
VERTEX
  5
3FF
330
3F8
100
AcDbEntity
  8
001
 62
   200
370
    50
100
AcDbVertex
100
AcDb2dVertex
 10
63.674365
 20
74.640232
 30
0.0
  0
VERTEX
  5
400
330
3F8
100
AcDbEntity
  8
001
 62
   200
370
    50
100
AcDbVertex
100
AcDb2dVertex
 10
63.805606
 20
74.680051
 30
0.0
  0
VERTEX
  5
401
330
3F8
100
AcDbEntity
  8
001
 62
   200
370
    50
100
AcDbVertex
100
AcDb2dVertex
 10
63.96077
 20
74.753234
 30
0.0
  0
VERTEX
  5
402
330
3F8
100
AcDbEntity
  8
001
 62
   200
370
    50
100
AcDbVertex
100
AcDb2dVertex
 10
64.091109
 20
74.860112
 30
0.0
  0
VERTEX
  5
403
330
3F8
100
AcDbEntity
  8
001
 62
   200
370
    50
100
AcDbVertex
100
AcDb2dVertex
 10
64.121022
 20
74.896674
 30
0.0
  0
VERTEX
  5
404
330
3F8
100
AcDbEntity
  8
001
 62
   200
370
    50
100
AcDbVertex
100
AcDb2dVertex
 10
64.146944
 20
74.934992
 30
0.0
  0
VERTEX
  5
405
330
3F8
100
AcDbEntity
  8
001
 62
   200
370
    50
100
AcDbVertex
100
AcDb2dVertex
 10
64.166081
 20
74.971331
 30
0.0
  0
VERTEX
  5
406
330
3F8
100
AcDbEntity
  8
001
 62
   200
370
    50
100
AcDbVertex
100
AcDb2dVertex
 10
64.179757
 20
75.013674
 30
0.0
  0
VERTEX
  5
407
330
3F8
100
AcDbEntity
  8
001
 62
   200
370
    50
100
AcDbVertex
100
AcDb2dVertex
 10
64.186861
 20
75.059867
 30
0.0
  0
VERTEX
  5
408
330
3F8
100
AcDbEntity
  8
001
 62
   200
370
    50
100
AcDbVertex
100
AcDb2dVertex
 10
64.188551
 20
75.093769
 30
0.0
  0
SEQEND
  5
3F9
330
3F8
100
AcDbEntity
  8
001
370
    50
  0
POLYLINE
  5
409
330
1F
100
AcDbEntity
  8
001
 62
   200
370
    50
100
AcDb2dPolyline
 66
     1
 10
0.0
 20
0.0
 30
0.0
  0
VERTEX
  5
40B
330
409
100
AcDbEntity
  8
001
 62
   200
370
    50
100
AcDbVertex
100
AcDb2dVertex
 10
63.229483
 20
78.497637
 30
0.0
  0
VERTEX
  5
40C
330
409
100
AcDbEntity
  8
001
 62
   200
370
    50
100
AcDbVertex
100
AcDb2dVertex
 10
63.235661
 20
78.497851
 30
0.0
  0
VERTEX
  5
40D
330
409
100
AcDbEntity
  8
001
 62
   200
370
    50
100
AcDbVertex
100
AcDb2dVertex
 10
63.244594
 20
78.498191
 30
0.0
  0
VERTEX
  5
40E
330
409
100
AcDbEntity
  8
001
 62
   200
370
    50
100
AcDbVertex
100
AcDb2dVertex
 10
63.319377
 20
78.503011
 30
0.0
  0
VERTEX
  5
40F
330
409
100
AcDbEntity
  8
001
 62
   200
370
    50
100
AcDbVertex
100
AcDb2dVertex
 10
63.383097
 20
78.510994
 30
0.0
  0
VERTEX
  5
410
330
409
100
AcDbEntity
  8
001
 62
   200
370
    50
100
AcDbVertex
100
AcDb2dVertex
 10
63.510417
 20
78.536589
 30
0.0
  0
VERTEX
  5
411
330
409
100
AcDbEntity
  8
001
 62
   200
370
    50
100
AcDbVertex
100
AcDb2dVertex
 10
63.641657
 20
78.576408
 30
0.0
  0
VERTEX
  5
412
330
409
100
AcDbEntity
  8
001
 62
   200
370
    50
100
AcDbVertex
100
AcDb2dVertex
 10
63.796822
 20
78.64959
 30
0.0
  0
VERTEX
  5
413
330
409
100
AcDbEntity
  8
001
 62
   200
370
    50
100
AcDbVertex
100
AcDb2dVertex
 10
63.92716
 20
78.756468
 30
0.0
  0
VERTEX
  5
414
330
409
100
AcDbEntity
  8
001
 62
   200
370
    50
100
AcDbVertex
100
AcDb2dVertex
 10
63.957074
 20
78.79303
 30
0.0
  0
VERTEX
  5
415
330
409
100
AcDbEntity
  8
001
 62
   200
370
    50
100
AcDbVertex
100
AcDb2dVertex
 10
63.982995
 20
78.831348
 30
0.0
  0
VERTEX
  5
416
330
409
100
AcDbEntity
  8
001
 62
   200
370
    50
100
AcDbVertex
100
AcDb2dVertex
 10
64.002133
 20
78.867687
 30
0.0
  0
VERTEX
  5
417
330
409
100
AcDbEntity
  8
001
 62
   200
370
    50
100
AcDbVertex
100
AcDb2dVertex
 10
64.015809
 20
78.910031
 30
0.0
  0
VERTEX
  5
418
330
409
100
AcDbEntity
  8
001
 62
   200
370
    50
100
AcDbVertex
100
AcDb2dVertex
 10
64.022912
 20
78.956223
 30
0.0
  0
VERTEX
  5
419
330
409
100
AcDbEntity
  8
001
 62
   200
370
    50
100
AcDbVertex
100
AcDb2dVertex
 10
64.024603
 20
78.990125
 30
0.0
  0
SEQEND
  5
40A
330
409
100
AcDbEntity
  8
001
370
    50
  0
POLYLINE
  5
41A
330
1F
100
AcDbEntity
  8
001
 62
   200
370
    50
100
AcDb2dPolyline
 66
     1
 10
0.0
 20
0.0
 30
0.0
  0
VERTEX
  5
41C
330
41A
100
AcDbEntity
  8
001
 62
   200
370
    50
100
AcDbVertex
100
AcDb2dVertex
 10
48.812653
 20
78.735974
 30
0.0
  0
VERTEX
  5
41D
330
41A
100
AcDbEntity
  8
001
 62
   200
370
    50
100
AcDbVertex
100
AcDb2dVertex
 10
48.809627
 20
78.732805
 30
0.0
  0
VERTEX
  5
41E
330
41A
100
AcDbEntity
  8
001
 62
   200
370
    50
100
AcDbVertex
100
AcDb2dVertex
 10
48.805289
 20
78.72819
 30
0.0
  0
VERTEX
  5
41F
330
41A
100
AcDbEntity
  8
001
 62
   200
370
    50
100
AcDbVertex
100
AcDb2dVertex
 10
48.772996
 20
78.68948
 30
0.0
  0
VERTEX
  5
420
330
41A
100
AcDbEntity
  8
001
 62
   200
370
    50
100
AcDbVertex
100
AcDb2dVertex
 10
48.749454
 20
78.65331
 30
0.0
  0
VERTEX
  5
421
330
41A
100
AcDbEntity
  8
001
 62
   200
370
    50
100
AcDbVertex
100
AcDb2dVertex
 10
48.730864
 20
78.617466
 30
0.0
  0
VERTEX
  5
422
330
41A
100
AcDbEntity
  8
001
 62
   200
370
    50
100
AcDbVertex
100
AcDb2dVertex
 10
48.71664
 20
78.574628
 30
0.0
  0
VERTEX
  5
423
330
41A
100
AcDbEntity
  8
001
 62
   200
370
    50
100
AcDbVertex
100
AcDb2dVertex
 10
48.709436
 20
78.528344
 30
0.0
  0
VERTEX
  5
424
330
41A
100
AcDbEntity
  8
001
 62
   200
370
    50
100
AcDbVertex
100
AcDb2dVertex
 10
48.707846
 20
78.494533
 30
0.0
  0
SEQEND
  5
41B
330
41A
100
AcDbEntity
  8
001
370
    50
  0
LINE
  5
425
330
1F
100
AcDbEntity
  8
001
 62
   200
370
    50
100
AcDbLine
 10
55.609733
 20
85.768447
 30
0.0
 11
48.812653
 21
78.735974
 31
0.0
  0
POLYLINE
  5
426
330
1F
100
AcDbEntity
  8
001
 62
   200
370
    50
100
AcDb2dPolyline
 66
     1
 10
0.0
 20
0.0
 30
0.0
  0
VERTEX
  5
428
330
426
100
AcDbEntity
  8
001
 62
   200
370
    50
100
AcDbVertex
100
AcDb2dVertex
 10
56.994532
 20
85.811685
 30
0.0
  0
VERTEX
  5
429
330
426
100
AcDbEntity
  8
001
 62
   200
370
    50
100
AcDbVertex
100
AcDb2dVertex
 10
56.99139
 20
85.814641
 30
0.0
  0
VERTEX
  5
42A
330
426
100
AcDbEntity
  8
001
 62
   200
370
    50
100
AcDbVertex
100
AcDb2dVertex
 10
56.986785
 20
85.818915
 30
0.0
  0
VERTEX
  5
42B
330
426
100
AcDbEntity
  8
001
 62
   200
370
    50
100
AcDbVertex
100
AcDb2dVertex
 10
56.837734
 20
85.922185
 30
0.0
  0
VERTEX
  5
42C
330
426
100
AcDbEntity
  8
001
 62
   200
370
    50
100
AcDbVertex
100
AcDb2dVertex
 10
56.687165
 20
85.974355
 30
0.0
  0
VERTEX
  5
42D
330
426
100
AcDbEntity
  8
001
 62
   200
370
    50
100
AcDbVertex
100
AcDb2dVertex
 10
56.557988
 20
86.001744
 30
0.0
  0
VERTEX
  5
42E
330
426
100
AcDbEntity
  8
001
 62
   200
370
    50
100
AcDbVertex
100
AcDb2dVertex
 10
56.424023
 20
86.017817
 30
0.0
  0
VERTEX
  5
42F
330
426
100
AcDbEntity
  8
001
 62
   200
370
    50
100
AcDbVertex
100
AcDb2dVertex
 10
56.354446
 20
86.020388
 30
0.0
  0
VERTEX
  5
430
330
426
100
AcDbEntity
  8
001
 62
   200
370
    50
100
AcDbVertex
100
AcDb2dVertex
 10
56.284935
 20
86.01894
 30
0.0
  0
VERTEX
  5
431
330
426
100
AcDbEntity
  8
001
 62
   200
370
    50
100
AcDbVertex
100
AcDb2dVertex
 10
56.215208
 20
86.013871
 30
0.0
  0
VERTEX
  5
432
330
426
100
AcDbEntity
  8
001
 62
   200
370
    50
100
AcDbVertex
100
AcDb2dVertex
 10
56.146432
 20
86.006137
 30
0.0
  0
VERTEX
  5
433
330
426
100
AcDbEntity
  8
001
 62
   200
370
    50
100
AcDbVertex
100
AcDb2dVertex
 10
56.018903
 20
85.984
 30
0.0
  0
VERTEX
  5
434
330
426
100
AcDbEntity
  8
001
 62
   200
370
    50
100
AcDbVertex
100
AcDb2dVertex
 10
55.887872
 20
85.940723
 30
0.0
  0
VERTEX
  5
435
330
426
100
AcDbEntity
  8
001
 62
   200
370
    50
100
AcDbVertex
100
AcDb2dVertex
 10
55.721001
 20
85.851204
 30
0.0
  0
VERTEX
  5
436
330
426
100
AcDbEntity
  8
001
 62
   200
370
    50
100
AcDbVertex
100
AcDb2dVertex
 10
55.609733
 20
85.768447
 30
0.0
  0
SEQEND
  5
427
330
426
100
AcDbEntity
  8
001
370
    50
  0
LINE
  5
437
330
1F
100
AcDbEntity
  8
001
 62
   200
370
    50
100
AcDbLine
 10
63.915624
 20
79.20754
 30
0.0
 11
56.994532
 21
85.811685
 31
0.0
  0
LINE
  5
438
330
1F
100
AcDbEntity
  8
001
 62
   200
370
    50
100
AcDbLine
 10
49.511312
 20
78.06931
 30
0.0
 11
63.229483
 21
78.497637
 31
0.0
  0
POLYLINE
  5
439
330
1F
100
AcDbEntity
  8
001
 62
   200
370
    50
100
AcDb2dPolyline
 66
     1
 10
0.0
 20
0.0
 30
0.0
  0
VERTEX
  5
43B
330
439
100
AcDbEntity
  8
001
 62
   200
370
    50
100
AcDbVertex
100
AcDb2dVertex
 10
56.345556
 20
82.105176
 30
0.0
  0
VERTEX
  5
43C
330
439
100
AcDbEntity
  8
001
 62
   200
370
    50
100
AcDbVertex
100
AcDb2dVertex
 10
56.326801
 20
82.104567
 30
0.0
  0
VERTEX
  5
43D
330
439
100
AcDbEntity
  8
001
 62
   200
370
    50
100
AcDbVertex
100
AcDb2dVertex
 10
56.299756
 20
82.103566
 30
0.0
  0
VERTEX
  5
43E
330
439
100
AcDbEntity
  8
001
 62
   200
370
    50
100
AcDbVertex
100
AcDb2dVertex
 10
56.122429
 20
82.092163
 30
0.0
  0
VERTEX
  5
43F
330
439
100
AcDbEntity
  8
001
 62
   200
370
    50
100
AcDbVertex
100
AcDb2dVertex
 10
55.970812
 20
82.073159
 30
0.0
  0
VERTEX
  5
440
330
439
100
AcDbEntity
  8
001
 62
   200
370
    50
100
AcDbVertex
100
AcDb2dVertex
 10
55.668249
 20
82.012341
 30
0.0
  0
VERTEX
  5
441
330
439
100
AcDbEntity
  8
001
 62
   200
370
    50
100
AcDbVertex
100
AcDb2dVertex
 10
55.356732
 20
81.917801
 30
0.0
  0
VERTEX
  5
442
330
439
100
AcDbEntity
  8
001
 62
   200
370
    50
100
AcDbVertex
100
AcDb2dVertex
 10
54.988272
 20
81.744002
 30
0.0
  0
VERTEX
  5
443
330
439
100
AcDbEntity
  8
001
 62
   200
370
    50
100
AcDbVertex
100
AcDb2dVertex
 10
54.678663
 20
81.490157
 30
0.0
  0
VERTEX
  5
444
330
439
100
AcDbEntity
  8
001
 62
   200
370
    50
100
AcDbVertex
100
AcDb2dVertex
 10
54.607615
 20
81.403322
 30
0.0
  0
VERTEX
  5
445
330
439
100
AcDbEntity
  8
001
 62
   200
370
    50
100
AcDbVertex
100
AcDb2dVertex
 10
54.546054
 20
81.312317
 30
0.0
  0
VERTEX
  5
446
330
439
100
AcDbEntity
  8
001
 62
   200
370
    50
100
AcDbVertex
100
AcDb2dVertex
 10
54.500603
 20
81.226012
 30
0.0
  0
VERTEX
  5
447
330
439
100
AcDbEntity
  8
001
 62
   200
370
    50
100
AcDbVertex
100
AcDb2dVertex
 10
54.468122
 20
81.125446
 30
0.0
  0
VERTEX
  5
448
330
439
100
AcDbEntity
  8
001
 62
   200
370
    50
100
AcDbVertex
100
AcDb2dVertex
 10
54.451252
 20
81.01574
 30
0.0
  0
VERTEX
  5
449
330
439
100
AcDbEntity
  8
001
 62
   200
370
    50
100
AcDbVertex
100
AcDb2dVertex
 10
54.447236
 20
80.935222
 30
0.0
  0
SEQEND
  5
43A
330
439
100
AcDbEntity
  8
001
370
    50
  0
LINE
  5
44A
330
1F
100
AcDbEntity
  8
001
 62
   200
370
    50
100
AcDbLine
 10
49.67526
 20
74.172953
 30
0.0
 11
63.393432
 21
74.601281
 31
0.0
  0
POLYLINE
  5
44B
330
1F
100
AcDbEntity
  8
001
 62
   200
370
    50
100
AcDb2dPolyline
 66
     1
 10
0.0
 20
0.0
 30
0.0
  0
VERTEX
  5
44D
330
44B
100
AcDbEntity
  8
001
 62
   200
370
    50
100
AcDbVertex
100
AcDb2dVertex
 10
48.871795
 20
74.598177
 30
0.0
  0
VERTEX
  5
44E
330
44B
100
AcDbEntity
  8
001
 62
   200
370
    50
100
AcDbVertex
100
AcDb2dVertex
 10
48.876322
 20
74.564537
 30
0.0
  0
VERTEX
  5
44F
330
44B
100
AcDbEntity
  8
001
 62
   200
370
    50
100
AcDbVertex
100
AcDb2dVertex
 10
48.887286
 20
74.519105
 30
0.0
  0
VERTEX
  5
450
330
44B
100
AcDbEntity
  8
001
 62
   200
370
    50
100
AcDbVertex
100
AcDb2dVertex
 10
48.904501
 20
74.478061
 30
0.0
  0
VERTEX
  5
451
330
44B
100
AcDbEntity
  8
001
 62
   200
370
    50
100
AcDbVertex
100
AcDb2dVertex
 10
48.926593
 20
74.443457
 30
0.0
  0
VERTEX
  5
452
330
44B
100
AcDbEntity
  8
001
 62
   200
370
    50
100
AcDbVertex
100
AcDb2dVertex
 10
48.955512
 20
74.407447
 30
0.0
  0
VERTEX
  5
453
330
44B
100
AcDbEntity
  8
001
 62
   200
370
    50
100
AcDbVertex
100
AcDb2dVertex
 10
48.988522
 20
74.373532
 30
0.0
  0
VERTEX
  5
454
330
44B
100
AcDbEntity
  8
001
 62
   200
370
    50
100
AcDbVertex
100
AcDb2dVertex
 10
49.130875
 20
74.278114
 30
0.0
  0
VERTEX
  5
455
330
44B
100
AcDbEntity
  8
001
 62
   200
370
    50
100
AcDbVertex
100
AcDb2dVertex
 10
49.288141
 20
74.218092
 30
0.0
  0
VERTEX
  5
456
330
44B
100
AcDbEntity
  8
001
 62
   200
370
    50
100
AcDbVertex
100
AcDb2dVertex
 10
49.411199
 20
74.189018
 30
0.0
  0
VERTEX
  5
457
330
44B
100
AcDbEntity
  8
001
 62
   200
370
    50
100
AcDbVertex
100
AcDb2dVertex
 10
49.551283
 20
74.17463
 30
0.0
  0
VERTEX
  5
458
330
44B
100
AcDbEntity
  8
001
 62
   200
370
    50
100
AcDbVertex
100
AcDb2dVertex
 10
49.623764
 20
74.172723
 30
0.0
  0
VERTEX
  5
459
330
44B
100
AcDbEntity
  8
001
 62
   200
370
    50
100
AcDbVertex
100
AcDb2dVertex
 10
49.67526
 20
74.172953
 30
0.0
  0
SEQEND
  5
44C
330
44B
100
AcDbEntity
  8
001
370
    50
  0
POLYLINE
  5
45A
330
1F
100
AcDbEntity
  8
001
 62
   200
370
    50
100
AcDb2dPolyline
 66
     1
 10
0.0
 20
0.0
 30
0.0
  0
VERTEX
  5
45C
330
45A
100
AcDbEntity
  8
001
 62
   200
370
    50
100
AcDbVertex
100
AcDb2dVertex
 10
48.707846
 20
78.494533
 30
0.0
  0
VERTEX
  5
45D
330
45A
100
AcDbEntity
  8
001
 62
   200
370
    50
100
AcDbVertex
100
AcDb2dVertex
 10
48.712373
 20
78.460893
 30
0.0
  0
VERTEX
  5
45E
330
45A
100
AcDbEntity
  8
001
 62
   200
370
    50
100
AcDbVertex
100
AcDb2dVertex
 10
48.723338
 20
78.415461
 30
0.0
  0
VERTEX
  5
45F
330
45A
100
AcDbEntity
  8
001
 62
   200
370
    50
100
AcDbVertex
100
AcDb2dVertex
 10
48.740552
 20
78.374417
 30
0.0
  0
VERTEX
  5
460
330
45A
100
AcDbEntity
  8
001
 62
   200
370
    50
100
AcDbVertex
100
AcDb2dVertex
 10
48.762645
 20
78.339813
 30
0.0
  0
VERTEX
  5
461
330
45A
100
AcDbEntity
  8
001
 62
   200
370
    50
100
AcDbVertex
100
AcDb2dVertex
 10
48.791563
 20
78.303803
 30
0.0
  0
VERTEX
  5
462
330
45A
100
AcDbEntity
  8
001
 62
   200
370
    50
100
AcDbVertex
100
AcDb2dVertex
 10
48.824573
 20
78.269888
 30
0.0
  0
VERTEX
  5
463
330
45A
100
AcDbEntity
  8
001
 62
   200
370
    50
100
AcDbVertex
100
AcDb2dVertex
 10
48.966927
 20
78.17447
 30
0.0
  0
VERTEX
  5
464
330
45A
100
AcDbEntity
  8
001
 62
   200
370
    50
100
AcDbVertex
100
AcDb2dVertex
 10
49.124193
 20
78.114448
 30
0.0
  0
VERTEX
  5
465
330
45A
100
AcDbEntity
  8
001
 62
   200
370
    50
100
AcDbVertex
100
AcDb2dVertex
 10
49.24725
 20
78.085374
 30
0.0
  0
VERTEX
  5
466
330
45A
100
AcDbEntity
  8
001
 62
   200
370
    50
100
AcDbVertex
100
AcDb2dVertex
 10
49.387334
 20
78.070986
 30
0.0
  0
VERTEX
  5
467
330
45A
100
AcDbEntity
  8
001
 62
   200
370
    50
100
AcDbVertex
100
AcDb2dVertex
 10
49.459816
 20
78.06908
 30
0.0
  0
VERTEX
  5
468
330
45A
100
AcDbEntity
  8
001
 62
   200
370
    50
100
AcDbVertex
100
AcDb2dVertex
 10
49.511312
 20
78.06931
 30
0.0
  0
SEQEND
  5
45B
330
45A
100
AcDbEntity
  8
001
370
    50
  0
LINE
  5
469
330
1F
100
AcDbEntity
  8
001
 62
   200
370
    50
100
AcDbLine
 10
48.707846
 20
78.494533
 30
0.0
 11
48.871795
 21
74.598177
 31
0.0
  0
POLYLINE
  5
46A
330
1F
100
AcDbEntity
  8
001
 62
   200
370
    50
100
AcDb2dPolyline
 66
     1
 10
0.0
 20
0.0
 30
0.0
  0
VERTEX
  5
46C
330
46A
100
AcDbEntity
  8
001
 62
   200
370
    50
100
AcDbVertex
100
AcDb2dVertex
 10
58.243876
 20
81.094975
 30
0.0
  0
VERTEX
  5
46D
330
46A
100
AcDbEntity
  8
001
 62
   200
370
    50
100
AcDbVertex
100
AcDb2dVertex
 10
58.233124
 20
81.174871
 30
0.0
  0
VERTEX
  5
46E
330
46A
100
AcDbEntity
  8
001
 62
   200
370
    50
100
AcDbVertex
100
AcDb2dVertex
 10
58.207083
 20
81.282772
 30
0.0
  0
VERTEX
  5
46F
330
46A
100
AcDbEntity
  8
001
 62
   200
370
    50
100
AcDbVertex
100
AcDb2dVertex
 10
58.166198
 20
81.380251
 30
0.0
  0
VERTEX
  5
470
330
46A
100
AcDbEntity
  8
001
 62
   200
370
    50
100
AcDbVertex
100
AcDb2dVertex
 10
58.113729
 20
81.462436
 30
0.0
  0
VERTEX
  5
471
330
46A
100
AcDbEntity
  8
001
 62
   200
370
    50
100
AcDbVertex
100
AcDb2dVertex
 10
58.045051
 20
81.547958
 30
0.0
  0
VERTEX
  5
472
330
46A
100
AcDbEntity
  8
001
 62
   200
370
    50
100
AcDbVertex
100
AcDb2dVertex
 10
57.96665
 20
81.628507
 30
0.0
  0
VERTEX
  5
473
330
46A
100
AcDbEntity
  8
001
 62
   200
370
    50
100
AcDbVertex
100
AcDb2dVertex
 10
57.628503
 20
81.855141
 30
0.0
  0
VERTEX
  5
474
330
46A
100
AcDbEntity
  8
001
 62
   200
370
    50
100
AcDbVertex
100
AcDb2dVertex
 10
57.255052
 20
81.997677
 30
0.0
  0
VERTEX
  5
475
330
46A
100
AcDbEntity
  8
001
 62
   200
370
    50
100
AcDbVertex
100
AcDb2dVertex
 10
56.962969
 20
82.06668
 30
0.0
  0
VERTEX
  5
476
330
46A
100
AcDbEntity
  8
001
 62
   200
370
    50
100
AcDbVertex
100
AcDb2dVertex
 10
56.630092
 20
82.1009
 30
0.0
  0
VERTEX
  5
477
330
46A
100
AcDbEntity
  8
001
 62
   200
370
    50
100
AcDbVertex
100
AcDb2dVertex
 10
56.463682
 20
82.105454
 30
0.0
  0
VERTEX
  5
478
330
46A
100
AcDbEntity
  8
001
 62
   200
370
    50
100
AcDbVertex
100
AcDb2dVertex
 10
56.345556
 20
82.105176
 30
0.0
  0
SEQEND
  5
46B
330
46A
100
AcDbEntity
  8
001
370
    50
  0
POLYLINE
  5
479
330
1F
100
AcDbEntity
  8
001
 62
   200
370
    50
100
AcDb2dPolyline
 66
     1
 10
0.0
 20
0.0
 30
0.0
  0
VERTEX
  5
47B
330
479
100
AcDbEntity
  8
001
 62
   200
370
    50
100
AcDbVertex
100
AcDb2dVertex
 10
54.447236
 20
80.935222
 30
0.0
  0
VERTEX
  5
47C
330
479
100
AcDbEntity
  8
001
 62
   200
370
    50
100
AcDbVertex
100
AcDb2dVertex
 10
54.457997
 20
80.855327
 30
0.0
  0
VERTEX
  5
47D
330
479
100
AcDbEntity
  8
001
 62
   200
370
    50
100
AcDbVertex
100
AcDb2dVertex
 10
54.484029
 20
80.747426
 30
0.0
  0
VERTEX
  5
47E
330
479
100
AcDbEntity
  8
001
 62
   200
370
    50
100
AcDbVertex
100
AcDb2dVertex
 10
54.524864
 20
80.649945
 30
0.0
  0
VERTEX
  5
47F
330
479
100
AcDbEntity
  8
001
 62
   200
370
    50
100
AcDbVertex
100
AcDb2dVertex
 10
54.577383
 20
80.567762
 30
0.0
  0
VERTEX
  5
480
330
479
100
AcDbEntity
  8
001
 62
   200
370
    50
100
AcDbVertex
100
AcDb2dVertex
 10
54.646279
 20
80.482245
 30
0.0
  0
VERTEX
  5
481
330
479
100
AcDbEntity
  8
001
 62
   200
370
    50
100
AcDbVertex
100
AcDb2dVertex
 10
54.724462
 20
80.40169
 30
0.0
  0
VERTEX
  5
482
330
479
100
AcDbEntity
  8
001
 62
   200
370
    50
100
AcDbVertex
100
AcDb2dVertex
 10
55.056786
 20
80.174891
 30
0.0
  0
VERTEX
  5
483
330
479
100
AcDbEntity
  8
001
 62
   200
370
    50
100
AcDbVertex
100
AcDb2dVertex
 10
55.43606
 20
80.032521
 30
0.0
  0
VERTEX
  5
484
330
479
100
AcDbEntity
  8
001
 62
   200
370
    50
100
AcDbVertex
100
AcDb2dVertex
 10
55.746561
 20
79.964043
 30
0.0
  0
VERTEX
  5
485
330
479
100
AcDbEntity
  8
001
 62
   200
370
    50
100
AcDbVertex
100
AcDb2dVertex
 10
56.06102
 20
79.929298
 30
0.0
  0
VERTEX
  5
486
330
479
100
AcDbEntity
  8
001
 62
   200
370
    50
100
AcDbVertex
100
AcDb2dVertex
 10
56.226094
 20
79.923793
 30
0.0
  0
VERTEX
  5
487
330
479
100
AcDbEntity
  8
001
 62
   200
370
    50
100
AcDbVertex
100
AcDb2dVertex
 10
56.391356
 20
79.926632
 30
0.0
  0
VERTEX
  5
488
330
479
100
AcDbEntity
  8
001
 62
   200
370
    50
100
AcDbVertex
100
AcDb2dVertex
 10
56.556272
 20
79.937686
 30
0.0
  0
VERTEX
  5
489
330
479
100
AcDbEntity
  8
001
 62
   200
370
    50
100
AcDbVertex
100
AcDb2dVertex
 10
56.7203
 20
79.957039
 30
0.0
  0
VERTEX
  5
48A
330
479
100
AcDbEntity
  8
001
 62
   200
370
    50
100
AcDbVertex
100
AcDb2dVertex
 10
57.030729
 20
80.018077
 30
0.0
  0
VERTEX
  5
48B
330
479
100
AcDbEntity
  8
001
 62
   200
370
    50
100
AcDbVertex
100
AcDb2dVertex
 10
57.33438
 20
80.112397
 30
0.0
  0
VERTEX
  5
48C
330
479
100
AcDbEntity
  8
001
 62
   200
370
    50
100
AcDbVertex
100
AcDb2dVertex
 10
57.700353
 20
80.286125
 30
0.0
  0
VERTEX
  5
48D
330
479
100
AcDbEntity
  8
001
 62
   200
370
    50
100
AcDbVertex
100
AcDb2dVertex
 10
58.012449
 20
80.54004
 30
0.0
  0
VERTEX
  5
48E
330
479
100
AcDbEntity
  8
001
 62
   200
370
    50
100
AcDbVertex
100
AcDb2dVertex
 10
58.08359
 20
80.626878
 30
0.0
  0
VERTEX
  5
48F
330
479
100
AcDbEntity
  8
001
 62
   200
370
    50
100
AcDbVertex
100
AcDb2dVertex
 10
58.145058
 20
80.71788
 30
0.0
  0
VERTEX
  5
490
330
479
100
AcDbEntity
  8
001
 62
   200
370
    50
100
AcDbVertex
100
AcDb2dVertex
 10
58.190488
 20
80.804185
 30
0.0
  0
VERTEX
  5
491
330
479
100
AcDbEntity
  8
001
 62
   200
370
    50
100
AcDbVertex
100
AcDb2dVertex
 10
58.22299
 20
80.904751
 30
0.0
  0
VERTEX
  5
492
330
479
100
AcDbEntity
  8
001
 62
   200
370
    50
100
AcDbVertex
100
AcDb2dVertex
 10
58.239864
 20
81.014458
 30
0.0
  0
VERTEX
  5
493
330
479
100
AcDbEntity
  8
001
 62
   200
370
    50
100
AcDbVertex
100
AcDb2dVertex
 10
58.243876
 20
81.094975
 30
0.0
  0
SEQEND
  5
47A
330
479
100
AcDbEntity
  8
001
370
    50
  0
LINE
  5
494
330
1F
100
AcDbEntity
  8
001
 62
   140
370
    50
100
AcDbLine
 10
64.365869
 20
76.601525
 30
0.0
 11
64.249323
 21
78.410041
 31
0.0
  0
LINE
  5
495
330
1F
100
AcDbEntity
  8
001
 62
   140
370
    50
100
AcDbLine
 10
64.249323
 20
78.410041
 30
0.0
 11
67.207786
 21
79.889272
 31
0.0
  0
LINE
  5
496
330
1F
100
AcDbEntity
  8
001
 62
   140
370
    50
100
AcDbLine
 10
67.207786
 20
67.831947
 30
0.0
 11
66.523294
 21
67.65968
 31
0.0
  0
POLYLINE
  5
497
330
1F
100
AcDbEntity
  8
001
 62
   140
370
    50
100
AcDb2dPolyline
 66
     1
 10
0.0
 20
0.0
 30
0.0
  0
VERTEX
  5
499
330
497
100
AcDbEntity
  8
001
 62
   140
370
    50
100
AcDbVertex
100
AcDb2dVertex
 10
64.386171
 20
72.531165
 30
0.0
  0
VERTEX
  5
49A
330
497
100
AcDbEntity
  8
001
 62
   140
370
    50
100
AcDbVertex
100
AcDb2dVertex
 10
64.867703
 20
71.007118
 30
0.0
  0
VERTEX
  5
49B
330
497
100
AcDbEntity
  8
001
 62
   140
370
    50
100
AcDbVertex
100
AcDb2dVertex
 10
65.800546
 20
68.877957
 30
0.0
  0
VERTEX
  5
49C
330
497
100
AcDbEntity
  8
001
 62
   140
370
    50
100
AcDbVertex
100
AcDb2dVertex
 10
66.217321
 20
68.14772
 30
0.0
  0
VERTEX
  5
49D
330
497
100
AcDbEntity
  8
001
 62
   140
370
    50
100
AcDbVertex
100
AcDb2dVertex
 10
66.523294
 20
67.65968
 30
0.0
  0
SEQEND
  5
498
330
497
100
AcDbEntity
  8
001
370
    50
  0
LINE
  5
49E
330
1F
100
AcDbEntity
  8
001
 62
   140
370
    50
100
AcDbLine
 10
64.386171
 20
72.531165
 30
0.0
 11
64.149887
 21
74.739646
 31
0.0
  0
LINE
  5
49F
330
1F
100
AcDbEntity
  8
001
 62
   140
370
    50
100
AcDbLine
 10
64.691241
 20
75.067645
 30
0.0
 11
64.149887
 21
74.739646
 31
0.0
  0
LINE
  5
4A0
330
1F
100
AcDbEntity
  8
001
 62
   140
370
    50
100
AcDbLine
 10
64.583881
 20
76.733616
 30
0.0
 11
64.691241
 21
75.067645
 31
0.0
  0
LINE
  5
4A1
330
1F
100
AcDbEntity
  8
001
 62
   140
370
    50
100
AcDbLine
 10
64.583881
 20
76.733616
 30
0.0
 11
64.365869
 21
76.601525
 31
0.0
  0
LINE
  5
4A2
330
1F
100
AcDbEntity
  8
001
 62
   140
370
    50
100
AcDbLine
 10
64.041464
 20
78.589405
 30
0.0
 11
64.249323
 21
78.410041
 31
0.0
  0
LINE
  5
4A3
330
1F
100
AcDbEntity
  8
001
 62
   140
370
    50
100
AcDbLine
 10
64.365869
 20
76.601525
 30
0.0
 11
64.115038
 21
76.840869
 31
0.0
  0
POLYLINE
  5
4A4
330
1F
100
AcDbEntity
  8
001
 62
   140
370
    50
100
AcDb2dPolyline
 66
     1
 10
0.0
 20
0.0
 30
0.0
  0
VERTEX
  5
4A6
330
4A4
100
AcDbEntity
  8
001
 62
   140
370
    50
100
AcDbVertex
100
AcDb2dVertex
 10
59.276695
 20
83.634032
 30
0.0
  0
VERTEX
  5
4A7
330
4A4
100
AcDbEntity
  8
001
 62
   140
370
    50
100
AcDbVertex
100
AcDb2dVertex
 10
59.291465
 20
83.66861
 30
0.0
  0
VERTEX
  5
4A8
330
4A4
100
AcDbEntity
  8
001
 62
   140
370
    50
100
AcDbVertex
100
AcDb2dVertex
 10
59.310715
 20
83.7175
 30
0.0
  0
VERTEX
  5
4A9
330
4A4
100
AcDbEntity
  8
001
 62
   140
370
    50
100
AcDbVertex
100
AcDb2dVertex
 10
59.347366
 20
83.843989
 30
0.0
  0
VERTEX
  5
4AA
330
4A4
100
AcDbEntity
  8
001
 62
   140
370
    50
100
AcDbVertex
100
AcDb2dVertex
 10
59.35579
 20
83.979061
 30
0.0
  0
VERTEX
  5
4AB
330
4A4
100
AcDbEntity
  8
001
 62
   140
370
    50
100
AcDbVertex
100
AcDb2dVertex
 10
59.355479
 20
83.996897
 30
0.0
  0
VERTEX
  5
4AC
330
4A4
100
AcDbEntity
  8
001
 62
   140
370
    50
100
AcDbVertex
100
AcDb2dVertex
 10
59.355123
 20
84.009304
 30
0.0
  0
SEQEND
  5
4A5
330
4A4
100
AcDbEntity
  8
001
370
    50
  0
LINE
  5
4AD
330
1F
100
AcDbEntity
  8
001
 62
   140
370
    50
100
AcDbLine
 10
49.207786
 20
79.144791
 30
0.0
 11
49.207786
 21
96.624637
 31
0.0
  0
LINE
  5
4AE
330
1F
100
AcDbEntity
  8
001
 62
   140
370
    50
100
AcDbLine
 10
52.207786
 20
85.613006
 30
0.0
 11
49.207786
 21
83.01493
 31
0.0
  0
LINE
  5
4AF
330
1F
100
AcDbEntity
  8
001
 62
   140
370
    50
100
AcDbLine
 10
67.207786
 20
86.011827
 30
0.0
 11
56.494269
 21
86.011827
 31
0.0
  0
LINE
  5
4B0
330
1F
100
AcDbEntity
  8
001
 62
   140
370
    50
100
AcDbLine
 10
56.191274
 20
86.011827
 30
0.0
 11
52.207786
 21
86.011827
 31
0.0
  0
LINE
  5
4B1
330
1F
100
AcDbEntity
  8
001
 62
   140
370
    50
100
AcDbLine
 10
64.691241
 20
75.067645
 30
0.0
 11
64.168669
 21
75.566286
 31
0.0
  0
LINE
  5
4B2
330
1F
100
AcDbEntity
  8
001
 62
   140
370
    50
100
AcDbLine
 10
64.149887
 20
74.739646
 30
0.0
 11
63.921217
 21
74.732507
 31
0.0
  0
POLYLINE
  5
4B3
330
1F
100
AcDbEntity
  8
001
 62
   140
370
    50
100
AcDb2dPolyline
 66
     1
 10
0.0
 20
0.0
 30
0.0
  0
VERTEX
  5
4B5
330
4B3
100
AcDbEntity
  8
001
 62
   140
370
    50
100
AcDbVertex
100
AcDb2dVertex
 10
49.507782
 20
73.118789
 30
0.0
  0
VERTEX
  5
4B6
330
4B3
100
AcDbEntity
  8
001
 62
   140
370
    50
100
AcDbVertex
100
AcDb2dVertex
 10
51.199347
 20
73.044712
 30
0.0
  0
VERTEX
  5
4B7
330
4B3
100
AcDbEntity
  8
001
 62
   140
370
    50
100
AcDbVertex
100
AcDb2dVertex
 10
53.671788
 20
72.94004
 30
0.0
  0
VERTEX
  5
4B8
330
4B3
100
AcDbEntity
  8
001
 62
   140
370
    50
100
AcDbVertex
100
AcDb2dVertex
 10
56.534805
 20
72.823567
 30
0.0
  0
VERTEX
  5
4B9
330
4B3
100
AcDbEntity
  8
001
 62
   140
370
    50
100
AcDbVertex
100
AcDb2dVertex
 10
59.733352
 20
72.700353
 30
0.0
  0
VERTEX
  5
4BA
330
4B3
100
AcDbEntity
  8
001
 62
   140
370
    50
100
AcDbVertex
100
AcDb2dVertex
 10
62.495916
 20
72.598631
 30
0.0
  0
VERTEX
  5
4BB
330
4B3
100
AcDbEntity
  8
001
 62
   140
370
    50
100
AcDbVertex
100
AcDb2dVertex
 10
64.386171
 20
72.531165
 30
0.0
  0
SEQEND
  5
4B4
330
4B3
100
AcDbEntity
  8
001
370
    50
  0
LINE
  5
4BC
330
1F
100
AcDbEntity
  8
001
 62
   140
370
    50
100
AcDbLine
 10
49.207786
 20
73.315271
 30
0.0
 11
49.507782
 21
73.118826
 31
0.0
  0
LINE
  5
4BD
330
1F
100
AcDbEntity
  8
001
 62
   140
370
    50
100
AcDbLine
 10
49.507782
 20
74.177896
 30
0.0
 11
49.507786
 21
67.65968
 31
0.0
  0
LINE
  5
4BE
330
1F
100
AcDbEntity
  8
001
 62
   140
370
    50
100
AcDbLine
 10
49.507786
 20
67.65968
 30
0.0
 11
49.207786
 21
67.753648
 31
0.0
  0
LINE
  5
4BF
330
1F
100
AcDbEntity
  8
001
 62
   140
370
    50
100
AcDbLine
 10
49.207786
 20
67.753648
 30
0.0
 11
49.207786
 21
74.244666
 31
0.0
  0
LINE
  5
4C0
330
1F
100
AcDbEntity
  8
001
 62
   140
370
    50
100
AcDbLine
 10
66.523294
 20
67.65968
 30
0.0
 11
57.054461
 21
67.65968
 31
0.0
  0
POLYLINE
  5
4C1
330
1F
100
AcDbEntity
  8
001
 62
   140
370
    50
100
AcDb2dPolyline
 66
     1
 10
0.0
 20
0.0
 30
0.0
  0
VERTEX
  5
4C3
330
4C1
100
AcDbEntity
  8
001
 62
   140
370
    50
100
AcDbVertex
100
AcDb2dVertex
 10
57.054461
 20
67.65968
 30
0.0
  0
VERTEX
  5
4C4
330
4C1
100
AcDbEntity
  8
001
 62
   140
370
    50
100
AcDbVertex
100
AcDb2dVertex
 10
57.033407
 20
67.662407
 30
0.0
  0
VERTEX
  5
4C5
330
4C1
100
AcDbEntity
  8
001
 62
   140
370
    50
100
AcDbVertex
100
AcDb2dVertex
 10
57.012334
 20
67.664981
 30
0.0
  0
VERTEX
  5
4C6
330
4C1
100
AcDbEntity
  8
001
 62
   140
370
    50
100
AcDbVertex
100
AcDb2dVertex
 10
56.922401
 20
67.672645
 30
0.0
  0
VERTEX
  5
4C7
330
4C1
100
AcDbEntity
  8
001
 62
   140
370
    50
100
AcDbVertex
100
AcDb2dVertex
 10
56.832125
 20
67.675032
 30
0.0
  0
VERTEX
  5
4C8
330
4C1
100
AcDbEntity
  8
001
 62
   140
370
    50
100
AcDbVertex
100
AcDb2dVertex
 10
56.738429
 20
67.672126
 30
0.0
  0
VERTEX
  5
4C9
330
4C1
100
AcDbEntity
  8
001
 62
   140
370
    50
100
AcDbVertex
100
AcDb2dVertex
 10
56.645138
 20
67.663502
 30
0.0
  0
VERTEX
  5
4CA
330
4C1
100
AcDbEntity
  8
001
 62
   140
370
    50
100
AcDbVertex
100
AcDb2dVertex
 10
56.630621
 20
67.661628
 30
0.0
  0
VERTEX
  5
4CB
330
4C1
100
AcDbEntity
  8
001
 62
   140
370
    50
100
AcDbVertex
100
AcDb2dVertex
 10
56.616114
 20
67.65968
 30
0.0
  0
SEQEND
  5
4C2
330
4C1
100
AcDbEntity
  8
001
370
    50
  0
LINE
  5
4CC
330
1F
100
AcDbEntity
  8
001
 62
   140
370
    50
100
AcDbLine
 10
56.616114
 20
67.65968
 30
0.0
 11
49.507786
 21
67.65968
 31
0.0
  0
POLYLINE
  5
4CD
330
1F
100
AcDbEntity
  8
001
 62
   140
370
    50
100
AcDb2dPolyline
 66
     1
 10
0.0
 20
0.0
 30
0.0
  0
VERTEX
  5
4CF
330
4CD
100
AcDbEntity
  8
001
 62
   140
370
    50
100
AcDbVertex
100
AcDb2dVertex
 10
53.35287
 20
83.936668
 30
0.0
  0
VERTEX
  5
4D0
330
4CD
100
AcDbEntity
  8
001
 62
   140
370
    50
100
AcDbVertex
100
AcDb2dVertex
 10
53.364125
 20
83.841046
 30
0.0
  0
VERTEX
  5
4D1
330
4CD
100
AcDbEntity
  8
001
 62
   140
370
    50
100
AcDbVertex
100
AcDb2dVertex
 10
53.398337
 20
83.705533
 30
0.0
  0
VERTEX
  5
4D2
330
4CD
100
AcDbEntity
  8
001
 62
   140
370
    50
100
AcDbVertex
100
AcDb2dVertex
 10
53.436912
 20
83.613808
 30
0.0
  0
VERTEX
  5
4D3
330
4CD
100
AcDbEntity
  8
001
 62
   140
370
    50
100
AcDbVertex
100
AcDb2dVertex
 10
53.468676
 20
83.553243
 30
0.0
  0
SEQEND
  5
4CE
330
4CD
100
AcDbEntity
  8
001
370
    50
  0
POLYLINE
  5
4D4
330
1F
100
AcDbEntity
  8
001
 62
   140
370
    50
100
AcDb2dPolyline
 66
     1
 10
0.0
 20
0.0
 30
0.0
  0
VERTEX
  5
4D6
330
4D4
100
AcDbEntity
  8
001
 62
   140
370
    50
100
AcDbVertex
100
AcDb2dVertex
 10
59.355123
 20
84.009304
 30
0.0
  0
VERTEX
  5
4D7
330
4D4
100
AcDbEntity
  8
001
 62
   140
370
    50
100
AcDbVertex
100
AcDb2dVertex
 10
59.341752
 20
84.107371
 30
0.0
  0
VERTEX
  5
4D8
330
4D4
100
AcDbEntity
  8
001
 62
   140
370
    50
100
AcDbVertex
100
AcDb2dVertex
 10
59.309657
 20
84.240438
 30
0.0
  0
VERTEX
  5
4D9
330
4D4
100
AcDbEntity
  8
001
 62
   140
370
    50
100
AcDbVertex
100
AcDb2dVertex
 10
59.25087
 20
84.378762
 30
0.0
  0
VERTEX
  5
4DA
330
4D4
100
AcDbEntity
  8
001
 62
   140
370
    50
100
AcDbVertex
100
AcDb2dVertex
 10
59.173717
 20
84.493689
 30
0.0
  0
VERTEX
  5
4DB
330
4D4
100
AcDbEntity
  8
001
 62
   140
370
    50
100
AcDbVertex
100
AcDb2dVertex
 10
59.068588
 20
84.616347
 30
0.0
  0
VERTEX
  5
4DC
330
4D4
100
AcDbEntity
  8
001
 62
   140
370
    50
100
AcDbVertex
100
AcDb2dVertex
 10
58.952102
 20
84.731118
 30
0.0
  0
VERTEX
  5
4DD
330
4D4
100
AcDbEntity
  8
001
 62
   140
370
    50
100
AcDbVertex
100
AcDb2dVertex
 10
58.46655
 20
85.061072
 30
0.0
  0
VERTEX
  5
4DE
330
4D4
100
AcDbEntity
  8
001
 62
   140
370
    50
100
AcDbVertex
100
AcDb2dVertex
 10
57.852254
 20
85.280034
 30
0.0
  0
VERTEX
  5
4DF
330
4D4
100
AcDbEntity
  8
001
 62
   140
370
    50
100
AcDbVertex
100
AcDb2dVertex
 10
57.617354
 20
85.3392
 30
0.0
  0
VERTEX
  5
4E0
330
4D4
100
AcDbEntity
  8
001
 62
   140
370
    50
100
AcDbVertex
100
AcDb2dVertex
 10
57.450838
 20
85.376275
 30
0.0
  0
SEQEND
  5
4D5
330
4D4
100
AcDbEntity
  8
001
370
    50
  0
POLYLINE
  5
4E1
330
1F
100
AcDbEntity
  8
001
 62
   140
370
    50
100
AcDb2dPolyline
 66
     1
 10
0.0
 20
0.0
 30
0.0
  0
VERTEX
  5
4E3
330
4E1
100
AcDbEntity
  8
001
 62
   140
370
    50
100
AcDbVertex
100
AcDb2dVertex
 10
55.220264
 20
85.365491
 30
0.0
  0
VERTEX
  5
4E4
330
4E1
100
AcDbEntity
  8
001
 62
   140
370
    50
100
AcDbVertex
100
AcDb2dVertex
 10
55.067047
 20
85.330135
 30
0.0
  0
VERTEX
  5
4E5
330
4E1
100
AcDbEntity
  8
001
 62
   140
370
    50
100
AcDbVertex
100
AcDb2dVertex
 10
54.850461
 20
85.273958
 30
0.0
  0
VERTEX
  5
4E6
330
4E1
100
AcDbEntity
  8
001
 62
   140
370
    50
100
AcDbVertex
100
AcDb2dVertex
 10
54.236488
 20
85.047937
 30
0.0
  0
VERTEX
  5
4E7
330
4E1
100
AcDbEntity
  8
001
 62
   140
370
    50
100
AcDbVertex
100
AcDb2dVertex
 10
53.752844
 20
84.720595
 30
0.0
  0
VERTEX
  5
4E8
330
4E1
100
AcDbEntity
  8
001
 62
   140
370
    50
100
AcDbVertex
100
AcDb2dVertex
 10
53.636898
 20
84.608856
 30
0.0
  0
VERTEX
  5
4E9
330
4E1
100
AcDbEntity
  8
001
 62
   140
370
    50
100
AcDbVertex
100
AcDb2dVertex
 10
53.532191
 20
84.48227
 30
0.0
  0
VERTEX
  5
4EA
330
4E1
100
AcDbEntity
  8
001
 62
   140
370
    50
100
AcDbVertex
100
AcDb2dVertex
 10
53.455342
 20
84.357287
 30
0.0
  0
VERTEX
  5
4EB
330
4E1
100
AcDbEntity
  8
001
 62
   140
370
    50
100
AcDbVertex
100
AcDb2dVertex
 10
53.397278
 20
84.228472
 30
0.0
  0
VERTEX
  5
4EC
330
4E1
100
AcDbEntity
  8
001
 62
   140
370
    50
100
AcDbVertex
100
AcDb2dVertex
 10
53.363386
 20
84.109053
 30
0.0
  0
VERTEX
  5
4ED
330
4E1
100
AcDbEntity
  8
001
 62
   140
370
    50
100
AcDbVertex
100
AcDb2dVertex
 10
53.352203
 20
83.96691
 30
0.0
  0
VERTEX
  5
4EE
330
4E1
100
AcDbEntity
  8
001
 62
   140
370
    50
100
AcDbVertex
100
AcDb2dVertex
 10
53.352499
 20
83.949035
 30
0.0
  0
VERTEX
  5
4EF
330
4E1
100
AcDbEntity
  8
001
 62
   140
370
    50
100
AcDbVertex
100
AcDb2dVertex
 10
53.35287
 20
83.936668
 30
0.0
  0
SEQEND
  5
4E2
330
4E1
100
AcDbEntity
  8
001
370
    50
  0
LINE
  5
4F0
330
1F
100
AcDbEntity
  8
001
 62
   140
370
    50
100
AcDbLine
 10
52.207786
 20
86.456861
 30
0.0
 11
52.207786
 21
85.613006
 31
0.0
  0
LINE
  5
4F1
330
1F
100
AcDbEntity
  8
001
 62
   140
370
    50
100
AcDbLine
 10
67.207786
 20
67.831947
 30
0.0
 11
67.207786
 21
86.032595
 31
0.0
  0
LINE
  5
4F2
330
1F
100
AcDbEntity
  8
001
 62
   134
370
    50
100
AcDbLine
 10
76.207786
 20
167.036304
 30
0.0
 11
67.207786
 21
167.036304
 31
0.0
  0
LINE
  5
4F3
330
1F
100
AcDbEntity
  8
001
 62
   134
370
    50
100
AcDbLine
 10
53.207786
 20
59.036304
 30
0.0
 11
76.207786
 21
59.036304
 31
0.0
  0
LINE
  5
4F4
330
1F
100
AcDbEntity
  8
001
 62
   134
370
    50
100
AcDbLine
 10
67.207786
 20
86.032595
 30
0.0
 11
53.207786
 21
86.032595
 31
0.0
  0
LINE
  5
4F5
330
1F
100
AcDbEntity
  8
001
 62
   134
370
    50
100
AcDbLine
 10
53.207786
 20
123.00021
 30
0.0
 11
67.207786
 21
123.00021
 31
0.0
  0
LINE
  5
4F6
330
1F
100
AcDbEntity
  8
001
 62
   134
370
    50
100
AcDbLine
 10
53.207786
 20
163.980638
 30
0.0
 11
67.207786
 21
163.980638
 31
0.0
  0
ARC
  5
4F7
330
1F
100
AcDbEntity
  8
001
 62
   134
370
    50
100
AcDbCircle
 10
76.207786
 20
166.036304
 30
0.0
 40
0.9999999999999929
100
AcDbArc
 50
0.0
 51
90.0
  0
ARC
  5
4F8
330
1F
100
AcDbEntity
  8
001
 62
   134
370
    50
100
AcDbCircle
 10
76.207786
 20
60.036304
 30
0.0
 40
0.9999999999999929
100
AcDbArc
 50
270.0
 51
0.0
  0
LINE
  5
4F9
330
1F
100
AcDbEntity
  8
001
 62
   134
370
    50
100
AcDbLine
 10
77.207786
 20
60.036304
 30
0.0
 11
77.207786
 21
166.036304
 31
0.0
  0
POLYLINE
  5
4FA
330
1F
100
AcDbEntity
  8
001
 62
   134
370
    50
100
AcDb2dPolyline
 66
     1
 10
0.0
 20
0.0
 30
0.0
  0
VERTEX
  5
4FC
330
4FA
100
AcDbEntity
  8
001
 62
   134
370
    50
100
AcDbVertex
100
AcDb2dVertex
 10
53.207786
 20
86.032595
 30
0.0
  0
VERTEX
  5
4FD
330
4FA
100
AcDbEntity
  8
001
 62
   134
370
    50
100
AcDbVertex
100
AcDb2dVertex
 10
53.042554
 20
86.040428
 30
0.0
  0
VERTEX
  5
4FE
330
4FA
100
AcDbEntity
  8
001
 62
   134
370
    50
100
AcDbVertex
100
AcDb2dVertex
 10
52.87792
 20
86.05634
 30
0.0
  0
VERTEX
  5
4FF
330
4FA
100
AcDbEntity
  8
001
 62
   134
370
    50
100
AcDbVertex
100
AcDb2dVertex
 10
52.729598
 20
86.083697
 30
0.0
  0
VERTEX
  5
500
330
4FA
100
AcDbEntity
  8
001
 62
   134
370
    50
100
AcDbVertex
100
AcDb2dVertex
 10
52.58505
 20
86.124896
 30
0.0
  0
VERTEX
  5
501
330
4FA
100
AcDbEntity
  8
001
 62
   134
370
    50
100
AcDbVertex
100
AcDb2dVertex
 10
52.470938
 20
86.170272
 30
0.0
  0
VERTEX
  5
502
330
4FA
100
AcDbEntity
  8
001
 62
   134
370
    50
100
AcDbVertex
100
AcDb2dVertex
 10
52.361775
 20
86.230649
 30
0.0
  0
VERTEX
  5
503
330
4FA
100
AcDbEntity
  8
001
 62
   134
370
    50
100
AcDbVertex
100
AcDb2dVertex
 10
52.286958
 20
86.2888
 30
0.0
  0
VERTEX
  5
504
330
4FA
100
AcDbEntity
  8
001
 62
   134
370
    50
100
AcDbVertex
100
AcDb2dVertex
 10
52.233055
 20
86.362082
 30
0.0
  0
VERTEX
  5
505
330
4FA
100
AcDbEntity
  8
001
 62
   134
370
    50
100
AcDbVertex
100
AcDb2dVertex
 10
52.217663
 20
86.408122
 30
0.0
  0
VERTEX
  5
506
330
4FA
100
AcDbEntity
  8
001
 62
   134
370
    50
100
AcDbVertex
100
AcDb2dVertex
 10
52.207786
 20
86.456861
 30
0.0
  0
SEQEND
  5
4FB
330
4FA
100
AcDbEntity
  8
001
370
    50
  0
LINE
  5
507
330
1F
100
AcDbEntity
  8
001
 62
   134
370
    50
100
AcDbLine
 10
52.207786
 20
86.456861
 30
0.0
 11
52.207786
 21
122.826551
 31
0.0
  0
POLYLINE
  5
508
330
1F
100
AcDbEntity
  8
001
 62
   134
370
    50
100
AcDb2dPolyline
 66
     1
 10
0.0
 20
0.0
 30
0.0
  0
VERTEX
  5
50A
330
508
100
AcDbEntity
  8
001
 62
   134
370
    50
100
AcDbVertex
100
AcDb2dVertex
 10
52.207786
 20
122.826551
 30
0.0
  0
VERTEX
  5
50B
330
508
100
AcDbEntity
  8
001
 62
   134
370
    50
100
AcDbVertex
100
AcDb2dVertex
 10
52.21077
 20
122.836855
 30
0.0
  0
VERTEX
  5
50C
330
508
100
AcDbEntity
  8
001
 62
   134
370
    50
100
AcDbVertex
100
AcDb2dVertex
 10
52.214483
 20
122.846616
 30
0.0
  0
VERTEX
  5
50D
330
508
100
AcDbEntity
  8
001
 62
   134
370
    50
100
AcDbVertex
100
AcDb2dVertex
 10
52.252841
 20
122.882486
 30
0.0
  0
VERTEX
  5
50E
330
508
100
AcDbEntity
  8
001
 62
   134
370
    50
100
AcDbVertex
100
AcDb2dVertex
 10
52.308731
 20
122.902585
 30
0.0
  0
VERTEX
  5
50F
330
508
100
AcDbEntity
  8
001
 62
   134
370
    50
100
AcDbVertex
100
AcDb2dVertex
 10
52.408868
 20
122.929523
 30
0.0
  0
VERTEX
  5
510
330
508
100
AcDbEntity
  8
001
 62
   134
370
    50
100
AcDbVertex
100
AcDb2dVertex
 10
52.504354
 20
122.949982
 30
0.0
  0
VERTEX
  5
511
330
508
100
AcDbEntity
  8
001
 62
   134
370
    50
100
AcDbVertex
100
AcDb2dVertex
 10
52.640102
 20
122.970026
 30
0.0
  0
VERTEX
  5
512
330
508
100
AcDbEntity
  8
001
 62
   134
370
    50
100
AcDbVertex
100
AcDb2dVertex
 10
52.779287
 20
122.983459
 30
0.0
  0
VERTEX
  5
513
330
508
100
AcDbEntity
  8
001
 62
   134
370
    50
100
AcDbVertex
100
AcDb2dVertex
 10
52.941181
 20
122.993938
 30
0.0
  0
VERTEX
  5
514
330
508
100
AcDbEntity
  8
001
 62
   134
370
    50
100
AcDbVertex
100
AcDb2dVertex
 10
53.102518
 20
122.999245
 30
0.0
  0
VERTEX
  5
515
330
508
100
AcDbEntity
  8
001
 62
   134
370
    50
100
AcDbVertex
100
AcDb2dVertex
 10
53.155125
 20
122.99987
 30
0.0
  0
VERTEX
  5
516
330
508
100
AcDbEntity
  8
001
 62
   134
370
    50
100
AcDbVertex
100
AcDb2dVertex
 10
53.207786
 20
123.00021
 30
0.0
  0
SEQEND
  5
509
330
508
100
AcDbEntity
  8
001
370
    50
  0
ARC
  5
517
330
1F
100
AcDbEntity
  8
001
 62
   134
370
    50
100
AcDbCircle
 10
85.207786
 20
166.036304
 30
0.0
 40
8.000000000000007
100
AcDbArc
 50
180.0
 51
270.0
  0
ARC
  5
518
330
1F
100
AcDbEntity
  8
001
 62
   134
370
    50
100
AcDbCircle
 10
85.207786
 20
60.036304
 30
0.0
 40
8.000000000000007
100
AcDbArc
 50
90.0
 51
180.0
  0
POLYLINE
  5
519
330
1F
100
AcDbEntity
  8
001
 62
   134
370
    50
100
AcDb2dPolyline
 66
     1
 10
0.0
 20
0.0
 30
0.0
  0
VERTEX
  5
51B
330
519
100
AcDbEntity
  8
001
 62
   134
370
    50
100
AcDbVertex
100
AcDb2dVertex
 10
52.207786
 20
163.040887
 30
0.0
  0
VERTEX
  5
51C
330
519
100
AcDbEntity
  8
001
 62
   134
370
    50
100
AcDbVertex
100
AcDb2dVertex
 10
52.210168
 20
163.095256
 30
0.0
  0
VERTEX
  5
51D
330
519
100
AcDbEntity
  8
001
 62
   134
370
    50
100
AcDbVertex
100
AcDb2dVertex
 10
52.214483
 20
163.149465
 30
0.0
  0
VERTEX
  5
51E
330
519
100
AcDbEntity
  8
001
 62
   134
370
    50
100
AcDbVertex
100
AcDb2dVertex
 10
52.247441
 20
163.304896
 30
0.0
  0
VERTEX
  5
51F
330
519
100
AcDbEntity
  8
001
 62
   134
370
    50
100
AcDbVertex
100
AcDb2dVertex
 10
52.308731
 20
163.452344
 30
0.0
  0
VERTEX
  5
520
330
519
100
AcDbEntity
  8
001
 62
   134
370
    50
100
AcDbVertex
100
AcDb2dVertex
 10
52.395732
 20
163.589063
 30
0.0
  0
VERTEX
  5
521
330
519
100
AcDbEntity
  8
001
 62
   134
370
    50
100
AcDbVertex
100
AcDb2dVertex
 10
52.504354
 20
163.708827
 30
0.0
  0
VERTEX
  5
522
330
519
100
AcDbEntity
  8
001
 62
   134
370
    50
100
AcDbVertex
100
AcDb2dVertex
 10
52.634245
 20
163.810564
 30
0.0
  0
VERTEX
  5
523
330
519
100
AcDbEntity
  8
001
 62
   134
370
    50
100
AcDbVertex
100
AcDb2dVertex
 10
52.779287
 20
163.889992
 30
0.0
  0
VERTEX
  5
524
330
519
100
AcDbEntity
  8
001
 62
   134
370
    50
100
AcDbVertex
100
AcDb2dVertex
 10
52.93764
 20
163.946282
 30
0.0
  0
VERTEX
  5
525
330
519
100
AcDbEntity
  8
001
 62
   134
370
    50
100
AcDbVertex
100
AcDb2dVertex
 10
53.102518
 20
163.975416
 30
0.0
  0
VERTEX
  5
526
330
519
100
AcDbEntity
  8
001
 62
   134
370
    50
100
AcDbVertex
100
AcDb2dVertex
 10
53.155107
 20
163.978773
 30
0.0
  0
VERTEX
  5
527
330
519
100
AcDbEntity
  8
001
 62
   134
370
    50
100
AcDbVertex
100
AcDb2dVertex
 10
53.207786
 20
163.980638
 30
0.0
  0
SEQEND
  5
51A
330
519
100
AcDbEntity
  8
001
370
    50
  0
LINE
  5
528
330
1F
100
AcDbEntity
  8
001
 62
   134
370
    50
100
AcDbLine
 10
91.207786
 20
158.036304
 30
0.0
 11
85.207786
 21
158.036304
 31
0.0
  0
LINE
  5
529
330
1F
100
AcDbEntity
  8
001
 62
   134
370
    50
100
AcDbLine
 10
85.207786
 20
68.036304
 30
0.0
 11
91.207786
 21
68.036304
 31
0.0
  0
ARC
  5
52A
330
1F
100
AcDbEntity
  8
001
 62
   134
370
    50
100
AcDbCircle
 10
91.207786
 20
157.036304
 30
0.0
 40
1.0
100
AcDbArc
 50
0.0
 51
90.0
  0
ARC
  5
52B
330
1F
100
AcDbEntity
  8
001
 62
   134
370
    50
100
AcDbCircle
 10
91.207786
 20
69.036304
 30
0.0
 40
1.0
100
AcDbArc
 50
270.0
 51
0.0
  0
LINE
  5
52C
330
1F
100
AcDbEntity
  8
001
 62
   134
370
    50
100
AcDbLine
 10
92.207786
 20
157.036304
 30
0.0
 11
92.207786
 21
69.036304
 31
0.0
  0
LINE
  5
52D
330
1F
100
AcDbEntity
  8
001
 62
   134
370
    50
100
AcDbLine
 10
52.207786
 20
60.036304
 30
0.0
 11
52.207786
 21
67.65968
 31
0.0
  0
ARC
  5
52E
330
1F
100
AcDbEntity
  8
001
 62
   134
370
    50
100
AcDbCircle
 10
53.207786
 20
60.036304
 30
0.0
 40
1.0
100
AcDbArc
 50
180.0
 51
229.689594
  0
POLYLINE
  5
52F
330
1F
100
AcDbEntity
  8
001
 62
   134
370
    50
100
AcDb2dPolyline
 66
     1
 10
0.0
 20
0.0
 30
0.0
  0
VERTEX
  5
531
330
52F
100
AcDbEntity
  8
001
 62
   134
370
    50
100
AcDbVertex
100
AcDb2dVertex
 10
53.207786
 20
59.036304
 30
0.0
  0
VERTEX
  5
532
330
52F
100
AcDbEntity
  8
001
 62
   134
370
    50
100
AcDbVertex
100
AcDb2dVertex
 10
53.040612
 20
59.055563
 30
0.0
  0
VERTEX
  5
533
330
52F
100
AcDbEntity
  8
001
 62
   134
370
    50
100
AcDbVertex
100
AcDb2dVertex
 10
52.87792
 20
59.092277
 30
0.0
  0
VERTEX
  5
534
330
52F
100
AcDbEntity
  8
001
 62
   134
370
    50
100
AcDbVertex
100
AcDb2dVertex
 10
52.724362
 20
59.159634
 30
0.0
  0
VERTEX
  5
535
330
52F
100
AcDbEntity
  8
001
 62
   134
370
    50
100
AcDbVertex
100
AcDb2dVertex
 10
52.58505
 20
59.253877
 30
0.0
  0
VERTEX
  5
536
330
52F
100
AcDbEntity
  8
001
 62
   134
370
    50
100
AcDbVertex
100
AcDb2dVertex
 10
52.572845
 20
59.263831
 30
0.0
  0
VERTEX
  5
537
330
52F
100
AcDbEntity
  8
001
 62
   134
370
    50
100
AcDbVertex
100
AcDb2dVertex
 10
52.560727
 20
59.273869
 30
0.0
  0
SEQEND
  5
530
330
52F
100
AcDbEntity
  8
001
370
    50
  0
LINE
  5
538
330
1F
100
AcDbEntity
  8
001
 62
   134
370
    50
100
AcDbLine
 10
172.207786
 20
105.036304
 30
0.0
 11
172.207786
 21
121.036304
 31
0.0
  0
LINE
  5
539
330
1F
100
AcDbEntity
  8
001
 62
   134
370
    50
100
AcDbLine
 10
164.207786
 20
129.036304
 30
0.0
 11
95.207786
 21
129.036304
 31
0.0
  0
LINE
  5
53A
330
1F
100
AcDbEntity
  8
001
 62
   134
370
    50
100
AcDbLine
 10
164.207786
 20
97.036304
 30
0.0
 11
95.207786
 21
97.036304
 31
0.0
  0
LINE
  5
53B
330
1F
100
AcDbEntity
  8
001
 62
   134
370
    50
100
AcDbLine
 10
95.207786
 20
129.036304
 30
0.0
 11
95.207786
 21
97.036304
 31
0.0
  0
LINE
  5
53C
330
1F
100
AcDbEntity
  8
001
 62
   134
370
    50
100
AcDbLine
 10
95.207786
 20
128.536304
 30
0.0
 11
92.207786
 21
128.536304
 31
0.0
  0
LINE
  5
53D
330
1F
100
AcDbEntity
  8
001
 62
   134
370
    50
100
AcDbLine
 10
92.207786
 20
97.536304
 30
0.0
 11
95.207786
 21
97.536304
 31
0.0
  0
LINE
  5
53E
330
1F
100
AcDbEntity
  8
001
  6
CENTER
370
     9
100
AcDbLine
 10
41.46234
 20
113.036304
 30
0.0
 11
179.526036
 21
113.036304
 31
0.0
  0
LINE
  5
53F
330
1F
100
AcDbEntity
  8
001
370
    50
100
AcDbLine
 10
52.207786
 20
113.036304
 30
0.0
 11
46.540324
 21
116.308414
 31
0.0
  0
LINE
  5
540
330
1F
100
AcDbEntity
  8
001
370
    50
100
AcDbLine
 10
52.207786
 20
113.036304
 30
0.0
 11
46.540324
 21
109.764194
 31
0.0
  0
LINE
  5
541
330
1F
100
AcDbEntity
  8
001
  6
DASHED
 62
   134
370
    50
100
AcDbLine
 10
55.207786
 20
87.536304
 30
0.0
 11
52.207786
 21
84.536304
 31
0.0
  0
LINE
  5
542
330
1F
100
AcDbEntity
  8
001
  6
DASHED
 62
   134
370
    50
100
AcDbLine
 10
55.207786
 20
87.536304
 30
0.0
 11
55.207786
 21
123.00021
 31
0.0
  0
LINE
  5
543
330
1F
100
AcDbEntity
  8
001
370
    50
100
AcDbLine
 10
172.207786
 20
113.036304
 30
0.0
 11
177.875247
 21
109.764194
 31
0.0
  0
LINE
  5
544
330
1F
100
AcDbEntity
  8
001
370
    50
100
AcDbLine
 10
172.207786
 20
113.036304
 30
0.0
 11
177.875247
 21
116.308414
 31
0.0
  0
ARC
  5
545
330
1F
100
AcDbEntity
  8
001
 62
   134
370
    50
100
AcDbCircle
 10
164.207786
 20
121.036304
 30
0.0
 40
8.0
100
AcDbArc
 50
0.0
 51
90.0
  0
ARC
  5
546
330
1F
100
AcDbEntity
  8
001
 62
   134
370
    50
100
AcDbCircle
 10
164.207786
 20
105.036304
 30
0.0
 40
8.0
100
AcDbArc
 50
270.0
 51
0.0
  0
TEXT
  5
547
330
1F
100
AcDbEntity
  8
001
370
    30
100
AcDbText
 10
47.219763
 20
195.098695
 30
0.0
 40
8.0
  1
ＮＫＮ３２－１４０Ｔー０６
 41
0.833333
100
AcDbText
  0
ENDSEC
  0
SECTION
  2
OBJECTS
  0
DICTIONARY
  5
C
330
0
100
AcDbDictionary
281
     1
  3
ACAD_GROUP
350
D
  3
ACAD_LAYOUT
350
1A
  3
ACAD_MLEADERSTYLE
350
54B
  3
ACAD_MLINESTYLE
350
17
  3
ACAD_PLOTSETTINGS
350
19
  3
ACAD_PLOTSTYLENAME
350
E
  3
ACAD_SCALELIST
350
3B
  3
ACAD_TABLESTYLE
350
54A
  3
ACAD_VISUALSTYLE
350
2A
  3
AcDbVariableDictionary
350
548
  0
DICTIONARY
  5
D
102
{ACAD_REACTORS
330
C
102
}
330
C
100
AcDbDictionary
281
     1
  0
DICTIONARY
  5
1A
102
{ACAD_REACTORS
330
C
102
}
330
C
100
AcDbDictionary
281
     1
  3
Layout1
350
1E
  3
Layout2
350
26
  3
Model
350
22
  0
DICTIONARY
  5
54B
102
{ACAD_REACTORS
330
C
102
}
330
C
100
AcDbDictionary
281
     1
  0
DICTIONARY
  5
17
102
{ACAD_REACTORS
330
C
102
}
330
C
100
AcDbDictionary
281
     1
  3
Standard
350
18
  0
DICTIONARY
  5
19
102
{ACAD_REACTORS
330
C
102
}
330
C
100
AcDbDictionary
281
     1
  0
ACDBDICTIONARYWDFLT
  5
E
102
{ACAD_REACTORS
330
C
102
}
330
C
100
AcDbDictionary
281
     1
  3
Normal
350
F
100
AcDbDictionaryWithDefault
340
F
  0
DICTIONARY
  5
3B
102
{ACAD_REACTORS
330
C
102
}
330
C
100
AcDbDictionary
281
     1
  3
A0
350
3C
  3
A1
350
3D
  3
A2
350
3E
  3
A3
350
3F
  3
A4
350
40
  3
A5
350
41
  3
A6
350
42
  3
A7
350
43
  3
A8
350
44
  3
A9
350
45
  3
B0
350
46
  3
B1
350
47
  3
B2
350
48
  3
B3
350
49
  3
B4
350
4A
  3
B5
350
4B
  3
B6
350
4C
  3
B7
350
4D
  3
B8
350
4E
  3
B9
350
4F
  3
C0
350
50
  3
C1
350
51
  3
C2
350
52
  3
C3
350
53
  3
C4
350
54
  3
C5
350
55
  3
C6
350
56
  3
C7
350
57
  3
C8
350
58
  3
C9
350
59
  3
D0
350
5A
  3
D1
350
5B
  3
D2
350
5C
  0
DICTIONARY
  5
54A
102
{ACAD_REACTORS
330
C
102
}
330
C
100
AcDbDictionary
281
     1
  0
DICTIONARY
  5
2A
102
{ACAD_REACTORS
330
C
102
}
330
C
100
AcDbDictionary
281
     1
  3
2dWireframe
350
2F
  3
3D Hidden
350
31
  3
3dWireframe
350
30
  3
Basic
350
32
  3
Brighten
350
36
  3
ColorChange
350
3A
  3
Conceptual
350
34
  3
Dim
350
35
  3
Facepattern
350
39
  3
Flat
350
2B
  3
FlatWithEdges
350
2C
  3
Gouraud
350
2D
  3
GouraudWithEdges
350
2E
  3
Linepattern
350
38
  3
Realistic
350
33
  3
Thicken
350
37
  0
DICTIONARY
  5
548
102
{ACAD_REACTORS
330
C
102
}
330
C
100
AcDbDictionary
281
     1
  3
CANNOSCALE
350
549
  3
PSOLHEIGHT
350
54D
  3
PSOLWIDTH
350
54C
  0
LAYOUT
  5
1E
102
{ACAD_REACTORS
330
1A
102
}
330
1A
100
AcDbPlotSettings
  1

  2
none_device
  4

  6

 40
0.0
 41
0.0
 42
0.0
 43
0.0
 44
0.0
 45
0.0
 46
0.0
 47
0.0
 48
0.0
 49
0.0
140
0.0
141
0.0
142
1.0
143
1.0
 70
   688
 72
     0
 73
     0
 74
     5
  7

 75
    16
147
1.0
148
0.0
149
0.0
100
AcDbLayout
  1
Layout1
 70
     1
 71
     1
 10
0.0
 20
0.0
 11
12.0
 21
9.0
 12
0.0
 22
0.0
 32
0.0
 14
1.000000E+20
 24
1.000000E+20
 34
0.0
 15
-1.000000E+20
 25
-1.000000E+20
 35
0.0
146
0.0
 13
0.0
 23
0.0
 33
0.0
 16
1.0
 26
0.0
 36
0.0
 17
0.0
 27
1.0
 37
0.0
 76
     0
330
1B
  0
LAYOUT
  5
26
102
{ACAD_REACTORS
330
1A
102
}
330
1A
100
AcDbPlotSettings
  1

  2
none_device
  4

  6

 40
0.0
 41
0.0
 42
0.0
 43
0.0
 44
0.0
 45
0.0
 46
0.0
 47
0.0
 48
0.0
 49
0.0
140
0.0
141
0.0
142
1.0
143
1.0
 70
   688
 72
     0
 73
     0
 74
     5
  7

 75
    16
147
1.0
148
0.0
149
0.0
100
AcDbLayout
  1
Layout2
 70
     1
 71
     2
 10
0.0
 20
0.0
 11
0.0
 21
0.0
 12
0.0
 22
0.0
 32
0.0
 14
0.0
 24
0.0
 34
0.0
 15
0.0
 25
0.0
 35
0.0
146
0.0
 13
0.0
 23
0.0
 33
0.0
 16
1.0
 26
0.0
 36
0.0
 17
0.0
 27
1.0
 37
0.0
 76
     0
330
23
  0
LAYOUT
  5
22
102
{ACAD_REACTORS
330
1A
102
}
330
1A
100
AcDbPlotSettings
  1

  2
none_device
  4

  6

 40
0.0
 41
0.0
 42
0.0
 43
0.0
 44
0.0
 45
0.0
 46
0.0
 47
0.0
 48
0.0
 49
0.0
140
0.0
141
0.0
142
1.0
143
1.0
 70
  1712
 72
     0
 73
     0
 74
     0
  7

 75
     0
147
1.0
148
0.0
149
0.0
100
AcDbLayout
  1
Model
 70
     1
 71
     0
 10
0.0
 20
0.0
 11
12.0
 21
9.0
 12
0.0
 22
0.0
 32
0.0
 14
12.544983
 24
14.285522
 34
0.0
 15
198.306778
 25
203.098694
 35
0.0
146
0.0
 13
0.0
 23
0.0
 33
0.0
 16
1.0
 26
0.0
 36
0.0
 17
0.0
 27
1.0
 37
0.0
 76
     0
330
1F
331
29
  0
MLINESTYLE
  5
18
102
{ACAD_REACTORS
330
17
102
}
330
17
100
AcDbMlineStyle
  2
Standard
 70
     0
  3

 62
   256
 51
90.0
 52
90.0
 71
     2
 49
0.5
 62
   256
  6
BYLAYER
 49
-0.5
 62
   256
  6
BYLAYER
  0
ACDBPLACEHOLDER
  5
F
102
{ACAD_REACTORS
330
E
102
}
330
E
  0
SCALE
  5
3C
102
{ACAD_REACTORS
330
3B
102
}
330
3B
100
AcDbScale
 70
     0
300
1:1
140
1.0
141
1.0
290
     1
  0
SCALE
  5
3D
102
{ACAD_REACTORS
330
3B
102
}
330
3B
100
AcDbScale
 70
     0
300
1:2
140
1.0
141
2.0
290
     0
  0
SCALE
  5
3E
102
{ACAD_REACTORS
330
3B
102
}
330
3B
100
AcDbScale
 70
     0
300
1:4
140
1.0
141
4.0
290
     0
  0
SCALE
  5
3F
102
{ACAD_REACTORS
330
3B
102
}
330
3B
100
AcDbScale
 70
     0
300
1:5
140
1.0
141
5.0
290
     0
  0
SCALE
  5
40
102
{ACAD_REACTORS
330
3B
102
}
330
3B
100
AcDbScale
 70
     0
300
1:8
140
1.0
141
8.0
290
     0
  0
SCALE
  5
41
102
{ACAD_REACTORS
330
3B
102
}
330
3B
100
AcDbScale
 70
     0
300
1:10
140
1.0
141
10.0
290
     0
  0
SCALE
  5
42
102
{ACAD_REACTORS
330
3B
102
}
330
3B
100
AcDbScale
 70
     0
300
1:16
140
1.0
141
16.0
290
     0
  0
SCALE
  5
43
102
{ACAD_REACTORS
330
3B
102
}
330
3B
100
AcDbScale
 70
     0
300
1:20
140
1.0
141
20.0
290
     0
  0
SCALE
  5
44
102
{ACAD_REACTORS
330
3B
102
}
330
3B
100
AcDbScale
 70
     0
300
1:30
140
1.0
141
30.0
290
     0
  0
SCALE
  5
45
102
{ACAD_REACTORS
330
3B
102
}
330
3B
100
AcDbScale
 70
     0
300
1:40
140
1.0
141
40.0
290
     0
  0
SCALE
  5
46
102
{ACAD_REACTORS
330
3B
102
}
330
3B
100
AcDbScale
 70
     0
300
1:50
140
1.0
141
50.0
290
     0
  0
SCALE
  5
47
102
{ACAD_REACTORS
330
3B
102
}
330
3B
100
AcDbScale
 70
     0
300
1:100
140
1.0
141
100.0
290
     0
  0
SCALE
  5
48
102
{ACAD_REACTORS
330
3B
102
}
330
3B
100
AcDbScale
 70
     0
300
2:1
140
2.0
141
1.0
290
     0
  0
SCALE
  5
49
102
{ACAD_REACTORS
330
3B
102
}
330
3B
100
AcDbScale
 70
     0
300
4:1
140
4.0
141
1.0
290
     0
  0
SCALE
  5
4A
102
{ACAD_REACTORS
330
3B
102
}
330
3B
100
AcDbScale
 70
     0
300
8:1
140
8.0
141
1.0
290
     0
  0
SCALE
  5
4B
102
{ACAD_REACTORS
330
3B
102
}
330
3B
100
AcDbScale
 70
     0
300
10:1
140
10.0
141
1.0
290
     0
  0
SCALE
  5
4C
102
{ACAD_REACTORS
330
3B
102
}
330
3B
100
AcDbScale
 70
     0
300
100:1
140
100.0
141
1.0
290
     0
  0
SCALE
  5
4D
102
{ACAD_REACTORS
330
3B
102
}
330
3B
100
AcDbScale
 70
     0
300
1/128" = 1'-0"
140
0.007812
141
12.0
290
     0
  0
SCALE
  5
4E
102
{ACAD_REACTORS
330
3B
102
}
330
3B
100
AcDbScale
 70
     0
300
1/64" = 1'-0"
140
0.015625
141
12.0
290
     0
  0
SCALE
  5
4F
102
{ACAD_REACTORS
330
3B
102
}
330
3B
100
AcDbScale
 70
     0
300
1/32" = 1'-0"
140
0.03125
141
12.0
290
     0
  0
SCALE
  5
50
102
{ACAD_REACTORS
330
3B
102
}
330
3B
100
AcDbScale
 70
     0
300
1/16" = 1'-0"
140
0.0625
141
12.0
290
     0
  0
SCALE
  5
51
102
{ACAD_REACTORS
330
3B
102
}
330
3B
100
AcDbScale
 70
     0
300
3/32" = 1'-0"
140
0.09375
141
12.0
290
     0
  0
SCALE
  5
52
102
{ACAD_REACTORS
330
3B
102
}
330
3B
100
AcDbScale
 70
     0
300
1/8" = 1'-0"
140
0.125
141
12.0
290
     0
  0
SCALE
  5
53
102
{ACAD_REACTORS
330
3B
102
}
330
3B
100
AcDbScale
 70
     0
300
3/16" = 1'-0"
140
0.1875
141
12.0
290
     0
  0
SCALE
  5
54
102
{ACAD_REACTORS
330
3B
102
}
330
3B
100
AcDbScale
 70
     0
300
1/4" = 1'-0"
140
0.25
141
12.0
290
     0
  0
SCALE
  5
55
102
{ACAD_REACTORS
330
3B
102
}
330
3B
100
AcDbScale
 70
     0
300
3/8" = 1'-0"
140
0.375
141
12.0
290
     0
  0
SCALE
  5
56
102
{ACAD_REACTORS
330
3B
102
}
330
3B
100
AcDbScale
 70
     0
300
1/2" = 1'-0"
140
0.5
141
12.0
290
     0
  0
SCALE
  5
57
102
{ACAD_REACTORS
330
3B
102
}
330
3B
100
AcDbScale
 70
     0
300
3/4" = 1'-0"
140
0.75
141
12.0
290
     0
  0
SCALE
  5
58
102
{ACAD_REACTORS
330
3B
102
}
330
3B
100
AcDbScale
 70
     0
300
1" = 1'-0"
140
1.0
141
12.0
290
     0
  0
SCALE
  5
59
102
{ACAD_REACTORS
330
3B
102
}
330
3B
100
AcDbScale
 70
     0
300
1-1/2" = 1'-0"
140
1.5
141
12.0
290
     0
  0
SCALE
  5
5A
102
{ACAD_REACTORS
330
3B
102
}
330
3B
100
AcDbScale
 70
     0
300
3" = 1'-0"
140
3.0
141
12.0
290
     0
  0
SCALE
  5
5B
102
{ACAD_REACTORS
330
3B
102
}
330
3B
100
AcDbScale
 70
     0
300
6" = 1'-0"
140
6.0
141
12.0
290
     0
  0
SCALE
  5
5C
102
{ACAD_REACTORS
330
3B
102
}
330
3B
100
AcDbScale
 70
     0
300
1'-0" = 1'-0"
140
12.0
141
12.0
290
     0
  0
VISUALSTYLE
  5
2F
102
{ACAD_REACTORS
330
2A
102
}
330
2A
100
AcDbVisualStyle
  2
2dWireframe
 70
     4
 71
     0
 72
     2
 73
     0
 90
        0
 40
-0.6
 41
-30.0
 62
     5
 63
     7
 74
     1
 91
        4
 64
     7
 65
   257
 75
     1
175
     1
 42
1.0
 92
        0
 66
   257
 43
1.0
 76
     1
 77
     6
 78
     2
 67
     7
 79
     5
170
     0
171
     0
290
     0
174
     0
 93
        1
 44
0.0
173
     0
291
     0
 45
0.0
1001
ACAD
1000
AcDbSavedByObjectVersion
1070
     0
  0
VISUALSTYLE
  5
31
102
{ACAD_REACTORS
330
2A
102
}
330
2A
100
AcDbVisualStyle
  2
3D Hidden
 70
     6
 71
     1
 72
     2
 73
     2
 90
        0
 40
-0.6
 41
-30.0
 62
     5
 63
     7
 74
     2
 91
        2
 64
     7
 65
   257
 75
     2
175
     1
 42
40.0
 92
        0
 66
   257
 43
1.0
 76
     1
 77
     6
 78
     2
 67
     7
 79
     3
170
     0
171
     0
290
     0
174
     0
 93
        1
 44
0.0
173
     0
291
     0
 45
0.0
1001
ACAD
1000
AcDbSavedByObjectVersion
1070
     0
  0
VISUALSTYLE
  5
30
102
{ACAD_REACTORS
330
2A
102
}
330
2A
100
AcDbVisualStyle
  2
3dWireframe
 70
     5
 71
     0
 72
     2
 73
     0
 90
        0
 40
-0.6
 41
-30.0
 62
     5
 63
     7
 74
     1
 91
        4
 64
     7
 65
   257
 75
     1
175
     1
 42
1.0
 92
        0
 66
   257
 43
1.0
 76
     1
 77
     6
 78
     2
 67
     7
 79
     5
170
     0
171
     0
290
     0
174
     0
 93
        1
 44
0.0
173
     0
291
     0
 45
0.0
1001
ACAD
1000
AcDbSavedByObjectVersion
1070
     0
  0
VISUALSTYLE
  5
32
102
{ACAD_REACTORS
330
2A
102
}
330
2A
100
AcDbVisualStyle
  2
Basic
 70
     7
 71
     1
 72
     0
 73
     1
 90
        0
 40
-0.6
 41
-30.0
 62
     5
 63
     7
 74
     0
 91
        4
 64
     7
 65
   257
 75
     1
175
     1
 42
1.0
 92
        8
 66
     7
 43
1.0
 76
     1
 77
     6
 78
     2
 67
     7
 79
     5
170
     0
171
     0
290
     0
174
     0
 93
        1
 44
0.0
173
     0
291
     1
 45
0.0
1001
ACAD
1000
AcDbSavedByObjectVersion
1070
     0
  0
VISUALSTYLE
  5
36
102
{ACAD_REACTORS
330
2A
102
}
330
2A
100
AcDbVisualStyle
  2
Brighten
 70
    12
 71
     2
 72
     2
 73
     0
 90
        0
 40
-0.6
 41
-30.0
 62
     5
 63
     7
 74
     1
 91
        4
 64
     7
 65
   257
 75
     1
175
     1
 42
1.0
 92
        8
 66
     7
 43
1.0
 76
     1
 77
     6
 78
     2
 67
     7
 79
     5
170
     0
171
     0
290
     0
174
     0
 93
        1
 44
50.0
173
     0
291
     1
 45
0.0
1001
ACAD
1000
AcDbSavedByObjectVersion
1070
     0
  0
VISUALSTYLE
  5
3A
102
{ACAD_REACTORS
330
2A
102
}
330
2A
100
AcDbVisualStyle
  2
ColorChange
 70
    16
 71
     2
 72
     2
 73
     3
 90
        0
 40
-0.6
 41
-30.0
 62
     5
 63
     8
 74
     1
 91
        4
 64
     7
 65
   257
 75
     1
175
     1
 42
1.0
 92
        8
 66
     8
 43
1.0
 76
     1
 77
     6
 78
     2
 67
     7
 79
     5
170
     0
171
     0
290
     0
174
     0
 93
        1
 44
0.0
173
     0
291
     1
 45
0.0
1001
ACAD
1000
AcDbSavedByObjectVersion
1070
     0
  0
VISUALSTYLE
  5
34
102
{ACAD_REACTORS
330
2A
102
}
330
2A
100
AcDbVisualStyle
  2
Conceptual
 70
     9
 71
     3
 72
     2
 73
     0
 90
        0
 40
-0.6
 41
-30.0
 62
     5
 63
     7
 74
     2
 91
        2
 64
     7
 65
   257
 75
     1
175
     1
 42
40.0
 92
        8
 66
     7
 43
1.0
 76
     1
 77
     6
 78
     2
 67
     7
 79
     3
170
     0
171
     0
290
     0
174
     0
 93
        1
 44
0.0
173
     0
291
     0
 45
0.0
1001
ACAD
1000
AcDbSavedByObjectVersion
1070
     0
  0
VISUALSTYLE
  5
35
102
{ACAD_REACTORS
330
2A
102
}
330
2A
100
AcDbVisualStyle
  2
Dim
 70
    11
 71
     2
 72
     2
 73
     0
 90
        0
 40
-0.6
 41
-30.0
 62
     5
 63
     7
 74
     1
 91
        4
 64
     7
 65
   257
 75
     1
175
     1
 42
1.0
 92
        8
 66
     7
 43
1.0
 76
     1
 77
     6
 78
     2
 67
     7
 79
     5
170
     0
171
     0
290
     0
174
     0
 93
        1
 44
-50.0
173
     0
291
     1
 45
0.0
1001
ACAD
1000
AcDbSavedByObjectVersion
1070
     0
  0
VISUALSTYLE
  5
39
102
{ACAD_REACTORS
330
2A
102
}
330
2A
100
AcDbVisualStyle
  2
Facepattern
 70
    15
 71
     2
 72
     2
 73
     0
 90
        0
 40
-0.6
 41
-30.0
 62
     5
 63
     7
 74
     1
 91
        4
 64
     7
 65
   257
 75
     1
175
     1
 42
1.0
 92
        8
 66
     7
 43
1.0
 76
     1
 77
     6
 78
     2
 67
     7
 79
     5
170
     0
171
     0
290
     0
174
     0
 93
        1
 44
0.0
173
     0
291
     1
 45
0.0
1001
ACAD
1000
AcDbSavedByObjectVersion
1070
     0
  0
VISUALSTYLE
  5
2B
102
{ACAD_REACTORS
330
2A
102
}
330
2A
100
AcDbVisualStyle
  2
Flat
 70
     0
 71
     2
 72
     1
 73
     1
 90
        2
 40
-0.6
 41
30.0
 62
     5
 63
     7
 74
     0
 91
        4
 64
     7
 65
   257
 75
     1
175
     1
 42
1.0
 92
        8
 66
     7
 43
1.0
 76
     1
 77
     6
 78
     2
 67
     7
 79
     5
170
     0
171
     0
290
     0
174
     0
 93
       13
 44
0.0
173
     0
291
     1
 45
0.0
1001
ACAD
1000
AcDbSavedByObjectVersion
1070
     0
  0
VISUALSTYLE
  5
2C
102
{ACAD_REACTORS
330
2A
102
}
330
2A
100
AcDbVisualStyle
  2
FlatWithEdges
 70
     1
 71
     2
 72
     1
 73
     1
 90
        2
 40
-0.6
 41
30.0
 62
     5
 63
     7
 74
     1
 91
        4
 64
     7
 65
   257
 75
     1
175
     1
 42
1.0
 92
        0
 66
   257
 43
1.0
 76
     1
 77
     6
 78
     2
 67
     7
 79
     5
170
     0
171
     0
290
     0
174
     0
 93
       13
 44
0.0
173
     0
291
     1
 45
0.0
1001
ACAD
1000
AcDbSavedByObjectVersion
1070
     0
  0
VISUALSTYLE
  5
2D
102
{ACAD_REACTORS
330
2A
102
}
330
2A
100
AcDbVisualStyle
  2
Gouraud
 70
     2
 71
     2
 72
     2
 73
     1
 90
        2
 40
-0.6
 41
30.0
 62
     5
 63
     7
 74
     0
 91
        4
 64
     7
 65
   257
 75
     1
175
     1
 42
1.0
 92
        0
 66
     7
 43
1.0
 76
     1
 77
     6
 78
     2
 67
     7
 79
     5
170
     0
171
     0
290
     0
174
     0
 93
       13
 44
0.0
173
     0
291
     1
 45
0.0
1001
ACAD
1000
AcDbSavedByObjectVersion
1070
     0
  0
VISUALSTYLE
  5
2E
102
{ACAD_REACTORS
330
2A
102
}
330
2A
100
AcDbVisualStyle
  2
GouraudWithEdges
 70
     3
 71
     2
 72
     2
 73
     1
 90
        2
 40
-0.6
 41
30.0
 62
     5
 63
     7
 74
     1
 91
        4
 64
     7
 65
   257
 75
     1
175
     1
 42
1.0
 92
        0
 66
   257
 43
1.0
 76
     1
 77
     6
 78
     2
 67
     7
 79
     5
170
     0
171
     0
290
     0
174
     0
 93
       13
 44
0.0
173
     0
291
     1
 45
0.0
1001
ACAD
1000
AcDbSavedByObjectVersion
1070
     0
  0
VISUALSTYLE
  5
38
102
{ACAD_REACTORS
330
2A
102
}
330
2A
100
AcDbVisualStyle
  2
Linepattern
 70
    14
 71
     2
 72
     2
 73
     0
 90
        0
 40
-0.6
 41
-30.0
 62
     5
 63
     7
 74
     1
 91
        4
 64
     7
 65
   257
 75
     7
175
     7
 42
1.0
 92
        8
 66
     7
 43
1.0
 76
     1
 77
     6
 78
     2
 67
     7
 79
     5
170
     0
171
     0
290
     0
174
     0
 93
        1
 44
0.0
173
     0
291
     1
 45
0.0
1001
ACAD
1000
AcDbSavedByObjectVersion
1070
     0
  0
VISUALSTYLE
  5
33
102
{ACAD_REACTORS
330
2A
102
}
330
2A
100
AcDbVisualStyle
  2
Realistic
 70
     8
 71
     2
 72
     2
 73
     0
 90
        0
 40
-0.6
 41
-30.0
 62
     5
 63
     7
 74
     1
 91
        0
 64
     7
 65
   257
 75
     1
175
     1
 42
1.0
 92
        8
 66
     8
 43
1.0
 76
     1
 77
     6
 78
     2
 67
     7
 79
     5
170
     0
171
     0
290
     0
174
     0
 93
       13
 44
0.0
173
     0
291
     0
 45
0.0
1001
ACAD
1000
AcDbSavedByObjectVersion
1070
     0
  0
VISUALSTYLE
  5
37
102
{ACAD_REACTORS
330
2A
102
}
330
2A
100
AcDbVisualStyle
  2
Thicken
 70
    13
 71
     2
 72
     2
 73
     0
 90
        0
 40
-0.6
 41
-30.0
 62
     5
 63
     7
 74
     1
 91
        4
 64
     7
 65
   257
 75
     1
175
     1
 42
1.0
 92
       12
 66
     7
 43
1.0
 76
     1
 77
     6
 78
     2
 67
     7
 79
     5
170
     0
171
     0
290
     0
174
     0
 93
        1
 44
0.0
173
     0
291
     1
 45
0.0
1001
ACAD
1000
AcDbSavedByObjectVersion
1070
     0
  0
DICTIONARYVAR
  5
549
102
{ACAD_REACTORS
330
548
102
}
330
548
100
DictionaryVariables
280
     0
  1
1:1
  0
DICTIONARYVAR
  5
54D
102
{ACAD_REACTORS
330
548
102
}
330
548
100
DictionaryVariables
280
     0
  1
80.000000
  0
DICTIONARYVAR
  5
54C
102
{ACAD_REACTORS
330
548
102
}
330
548
100
DictionaryVariables
280
     0
  1
5.000000
  0
ENDSEC
  0
EOF
