  0
SECTION
  2
HEADER
  9
$ACADVER
  1
AC1015
  9
$ACADMAINTVER
 70
     6
  9
$DWGCODEPAGE
  3
ANSI_932
  9
$INSBASE
 10
0.0
 20
0.0
 30
0.0
  9
$EXTMIN
 10
25.516495
 20
13.702377
 30
0.0
  9
$EXTMAX
 10
210.794846
 20
185.03154
 30
0.0
  9
$LIMMIN
 10
0.0
 20
0.0
  9
$LIMMAX
 10
12.0
 20
9.0
  9
$ORTHOMODE
 70
     0
  9
$REGENMODE
 70
     1
  9
$FILLMODE
 70
     1
  9
$QTEXTMODE
 70
     0
  9
$MIRRTEXT
 70
     1
  9
$LTSCALE
 40
2.523524
  9
$ATTMODE
 70
     1
  9
$TEXTSIZE
 40
3.2
  9
$TRACEWID
 40
1.0
  9
$TEXTSTYLE
  7
Standard
  9
$CLAYER
  8
0
  9
$CELTYPE
  6
ByLayer
  9
$CECOLOR
 62
   256
  9
$CELTSCALE
 40
1.0
  9
$DISPSILH
 70
     0
  9
$DIMSCALE
 40
1.0
  9
$DIMASZ
 40
2.5
  9
$DIMEXO
 40
0.625
  9
$DIMDLI
 40
3.75
  9
$DIMRND
 40
0.0
  9
$DIMDLE
 40
0.0
  9
$DIMEXE
 40
1.25
  9
$DIMTP
 40
0.0
  9
$DIMTM
 40
0.0
  9
$DIMTXT
 40
2.5
  9
$DIMCEN
 40
0.09
  9
$DIMTSZ
 40
0.0
  9
$DIMTOL
 70
     0
  9
$DIMLIM
 70
     0
  9
$DIMTIH
 70
     0
  9
$DIMTOH
 70
     0
  9
$DIMSE1
 70
     0
  9
$DIMSE2
 70
     0
  9
$DIMTAD
 70
     0
  9
$DIMZIN
 70
     8
  9
$DIMBLK
  1

  9
$DIMASO
 70
     1
  9
$DIMSHO
 70
     0
  9
$DIMPOST
  1

  9
$DIMAPOST
  1

  9
$DIMALT
 70
     0
  9
$DIMALTD
 70
     3
  9
$DIMALTF
 40
0.03937
  9
$DIMLFAC
 40
1.0
  9
$DIMTOFL
 70
     1
  9
$DIMTVP
 40
0.0
  9
$DIMTIX
 70
     0
  9
$DIMSOXD
 70
     0
  9
$DIMSAH
 70
     0
  9
$DIMBLK1
  1

  9
$DIMBLK2
  1

  9
$DIMSTYLE
  2
ISO-25
  9
$DIMCLRD
 70
     0
  9
$DIMCLRE
 70
     0
  9
$DIMCLRT
 70
     0
  9
$DIMTFAC
 40
1.0
  9
$DIMGAP
 40
0.625
  9
$DIMJUST
 70
     0
  9
$DIMSD1
 70
     0
  9
$DIMSD2
 70
     0
  9
$DIMTOLJ
 70
     0
  9
$DIMTZIN
 70
     8
  9
$DIMALTZ
 70
     0
  9
$DIMALTTZ
 70
     0
  9
$DIMUPT
 70
     0
  9
$DIMDEC
 70
     2
  9
$DIMTDEC
 70
     2
  9
$DIMALTU
 70
     2
  9
$DIMALTTD
 70
     3
  9
$DIMTXSTY
  7
Standard
  9
$DIMAUNIT
 70
     0
  9
$DIMADEC
 70
     0
  9
$DIMALTRND
 40
0.0
  9
$DIMAZIN
 70
     0
  9
$DIMDSEP
 70
    44
  9
$DIMATFIT
 70
     3
  9
$DIMFRAC
 70
     0
  9
$DIMLDRBLK
  1

  9
$DIMLUNIT
 70
     2
  9
$DIMLWD
 70
    -2
  9
$DIMLWE
 70
    -2
  9
$DIMTMOVE
 70
     0
  9
$LUNITS
 70
     2
  9
$LUPREC
 70
     4
  9
$SKETCHINC
 40
1.0
  9
$FILLETRAD
 40
0.0
  9
$AUNITS
 70
     0
  9
$AUPREC
 70
     0
  9
$MENU
  1
.
  9
$ELEVATION
 40
0.0
  9
$PELEVATION
 40
0.0
  9
$THICKNESS
 40
0.0
  9
$LIMCHECK
 70
     0
  9
$CHAMFERA
 40
10.0
  9
$CHAMFERB
 40
10.0
  9
$CHAMFERC
 40
20.0
  9
$CHAMFERD
 40
0.0
  9
$SKPOLY
 70
     0
  9
$TDCREATE
 40
2455356.58905816
  9
$TDUCREATE
 40
2455356.21405816
  9
$TDUPDATE
 40
2455356.589058171
  9
$TDUUPDATE
 40
2455356.214058171
  9
$TDINDWG
 40
0.0000000116
  9
$TDUSRTIMER
 40
0.0000000116
  9
$USRTIMER
 70
     1
  9
$ANGBASE
 50
0.0
  9
$ANGDIR
 70
     0
  9
$PDMODE
 70
     0
  9
$PDSIZE
 40
0.0
  9
$PLINEWID
 40
0.0
  9
$SPLFRAME
 70
     0
  9
$SPLINETYPE
 70
     6
  9
$SPLINESEGS
 70
     8
  9
$HANDSEED
  5
2E2
  9
$SURFTAB1
 70
     6
  9
$SURFTAB2
 70
     6
  9
$SURFTYPE
 70
     6
  9
$SURFU
 70
     6
  9
$SURFV
 70
     6
  9
$UCSBASE
  2

  9
$UCSNAME
  2

  9
$UCSORG
 10
0.0
 20
0.0
 30
0.0
  9
$UCSXDIR
 10
1.0
 20
0.0
 30
0.0
  9
$UCSYDIR
 10
0.0
 20
1.0
 30
0.0
  9
$UCSORTHOREF
  2

  9
$UCSORTHOVIEW
 70
     0
  9
$UCSORGTOP
 10
0.0
 20
0.0
 30
0.0
  9
$UCSORGBOTTOM
 10
0.0
 20
0.0
 30
0.0
  9
$UCSORGLEFT
 10
0.0
 20
0.0
 30
0.0
  9
$UCSORGRIGHT
 10
0.0
 20
0.0
 30
0.0
  9
$UCSORGFRONT
 10
0.0
 20
0.0
 30
0.0
  9
$UCSORGBACK
 10
0.0
 20
0.0
 30
0.0
  9
$PUCSBASE
  2

  9
$PUCSNAME
  2

  9
$PUCSORG
 10
0.0
 20
0.0
 30
0.0
  9
$PUCSXDIR
 10
1.0
 20
0.0
 30
0.0
  9
$PUCSYDIR
 10
0.0
 20
1.0
 30
0.0
  9
$PUCSORTHOREF
  2

  9
$PUCSORTHOVIEW
 70
     0
  9
$PUCSORGTOP
 10
0.0
 20
0.0
 30
0.0
  9
$PUCSORGBOTTOM
 10
0.0
 20
0.0
 30
0.0
  9
$PUCSORGLEFT
 10
0.0
 20
0.0
 30
0.0
  9
$PUCSORGRIGHT
 10
0.0
 20
0.0
 30
0.0
  9
$PUCSORGFRONT
 10
0.0
 20
0.0
 30
0.0
  9
$PUCSORGBACK
 10
0.0
 20
0.0
 30
0.0
  9
$USERI1
 70
     0
  9
$USERI2
 70
     0
  9
$USERI3
 70
     0
  9
$USERI4
 70
     0
  9
$USERI5
 70
     0
  9
$USERR1
 40
0.0
  9
$USERR2
 40
0.0
  9
$USERR3
 40
0.0
  9
$USERR4
 40
0.0
  9
$USERR5
 40
0.0
  9
$WORLDVIEW
 70
     1
  9
$SHADEDGE
 70
     3
  9
$SHADEDIF
 70
    70
  9
$TILEMODE
 70
     1
  9
$MAXACTVP
 70
    64
  9
$PINSBASE
 10
0.0
 20
0.0
 30
0.0
  9
$PLIMCHECK
 70
     0
  9
$PEXTMIN
 10
1.000000E+20
 20
1.000000E+20
 30
0.0
  9
$PEXTMAX
 10
-1.000000E+20
 20
-1.000000E+20
 30
0.0
  9
$PLIMMIN
 10
0.0
 20
0.0
  9
$PLIMMAX
 10
12.0
 20
9.0
  9
$UNITMODE
 70
     0
  9
$VISRETAIN
 70
     1
  9
$PLINEGEN
 70
     0
  9
$PSLTSCALE
 70
     1
  9
$TREEDEPTH
 70
  3020
  9
$CMLSTYLE
  2
Standard
  9
$CMLJUST
 70
     0
  9
$CMLSCALE
 40
20.0
  9
$PROXYGRAPHICS
 70
     1
  9
$MEASUREMENT
 70
     1
  9
$CELWEIGHT
370
    -1
  9
$ENDCAPS
280
     0
  9
$JOINSTYLE
280
     0
  9
$LWDISPLAY
290
     0
  9
$INSUNITS
 70
     4
  9
$HYPERLINKBASE
  1

  9
$STYLESHEET
  1

  9
$XEDIT
290
     1
  9
$CEPSNTYPE
380
     0
  9
$PSTYLEMODE
290
     1
  9
$FINGERPRINTGUID
  2
{CA7A610D-807F-4B01-9B99-DFA84011E3E0}
  9
$VERSIONGUID
  2
{FAEB1C32-E019-11D5-929B-00C0DF256EC4}
  9
$EXTNAMES
290
     1
  9
$PSVPSCALE
 40
0.0
  9
$OLESTARTUP
290
     0
  0
ENDSEC
  0
SECTION
  2
CLASSES
  0
CLASS
  1
ACDBDICTIONARYWDFLT
  2
AcDbDictionaryWithDefault
  3
ObjectDBX Classes
 90
        0
280
     0
281
     0
  0
CLASS
  1
VISUALSTYLE
  2
AcDbVisualStyle
  3
ObjectDBX Classes
 90
     4095
280
     0
281
     0
  0
CLASS
  1
SCALE
  2
AcDbScale
  3
ObjectDBX Classes
 90
     1153
280
     0
281
     0
  0
CLASS
  1
DICTIONARYVAR
  2
AcDbDictionaryVar
  3
ObjectDBX Classes
 90
        0
280
     0
281
     0
  0
CLASS
  1
ACDBPLACEHOLDER
  2
AcDbPlaceHolder
  3
ObjectDBX Classes
 90
        0
280
     0
281
     0
  0
CLASS
  1
LAYOUT
  2
AcDbLayout
  3
ObjectDBX Classes
 90
        0
280
     0
281
     0
  0
ENDSEC
  0
SECTION
  2
TABLES
  0
TABLE
  2
VPORT
  5
8
330
0
100
AcDbSymbolTable
 70
     1
  0
VPORT
  5
29
330
8
100
AcDbSymbolTableRecord
100
AcDbViewportTableRecord
  2
*Active
 70
     0
 10
0.0
 20
0.0
 11
1.0
 21
1.0
 12
118.15567
 22
99.366959
 13
0.0
 23
0.0
 14
1.0
 24
1.0
 15
0.0
 25
0.0
 16
0.0
 26
0.0
 36
1.0
 17
0.0
 27
0.0
 37
0.0
 40
173.042454
 41
1.691288
 42
50.0
 43
0.0
 44
0.0
 50
0.0
 51
0.0
 71
     0
 72
   100
 73
     1
 74
     3
 75
     0
 76
     0
 77
     0
 78
     0
281
     0
 65
     1
110
0.0
120
0.0
130
0.0
111
1.0
121
0.0
131
0.0
112
0.0
122
1.0
132
0.0
 79
     0
146
0.0
  0
ENDTAB
  0
TABLE
  2
LTYPE
  5
5
330
0
100
AcDbSymbolTable
 70
     5
  0
LTYPE
  5
14
330
5
100
AcDbSymbolTableRecord
100
AcDbLinetypeTableRecord
  2
ByBlock
 70
     0
  3

 72
    65
 73
     0
 40
0.0
  0
LTYPE
  5
15
330
5
100
AcDbSymbolTableRecord
100
AcDbLinetypeTableRecord
  2
ByLayer
 70
     0
  3

 72
    65
 73
     0
 40
0.0
  0
LTYPE
  5
16
330
5
100
AcDbSymbolTableRecord
100
AcDbLinetypeTableRecord
  2
Continuous
 70
     0
  3
Solid line
 72
    65
 73
     0
 40
0.0
  0
LTYPE
  5
5D
330
5
100
AcDbSymbolTableRecord
100
AcDbLinetypeTableRecord
  2
DASHED
 70
     0
  3
DASHED
 72
    83
 73
     2
 40
0.75
 49
0.5
 74
     0
 49
-0.25
 74
     0
  0
LTYPE
  5
5E
330
5
100
AcDbSymbolTableRecord
100
AcDbLinetypeTableRecord
  2
HIDDEN
 70
     0
  3
HIDDEN
 72
    83
 73
     2
 40
0.375
 49
0.25
 74
     0
 49
-0.125
 74
     0
  0
LTYPE
  5
5F
330
5
100
AcDbSymbolTableRecord
100
AcDbLinetypeTableRecord
  2
CENTER
 70
     0
  3
CENTER
 72
    83
 73
     4
 40
2.0
 49
1.25
 74
     0
 49
-0.25
 74
     0
 49
0.25
 74
     0
 49
-0.25
 74
     0
  0
LTYPE
  5
60
330
5
100
AcDbSymbolTableRecord
100
AcDbLinetypeTableRecord
  2
PHANTOM
 70
     0
  3
PHANTOM
 72
    83
 73
     6
 40
2.5
 49
1.25
 74
     0
 49
-0.25
 74
     0
 49
0.25
 74
     0
 49
-0.25
 74
     0
 49
0.25
 74
     0
 49
-0.25
 74
     0
  0
ENDTAB
  0
TABLE
  2
LAYER
  5
2
330
0
100
AcDbSymbolTable
 70
     2
  0
LAYER
  5
10
330
2
100
AcDbSymbolTableRecord
100
AcDbLayerTableRecord
  2
0
 70
     0
 62
     7
  6
Continuous
370
    -3
390
F
  0
LAYER
  5
61
330
2
100
AcDbSymbolTableRecord
100
AcDbLayerTableRecord
  2
001
 70
     0
 62
     7
  6
Continuous
370
    -3
390
F
  0
ENDTAB
  0
TABLE
  2
STYLE
  5
3
330
0
100
AcDbSymbolTable
 70
     2
  0
STYLE
  5
11
330
3
100
AcDbSymbolTableRecord
100
AcDbTextStyleTableRecord
  2
Standard
 70
     0
 40
0.0
 41
1.0
 50
0.0
 71
     0
 42
0.2
  3
TXT
  4
BIGFONT
  0
STYLE
  5
62
330
3
100
AcDbSymbolTableRecord
100
AcDbTextStyleTableRecord
  2
TATEGAKI
 70
     4
 40
1.0
 41
1.0
 50
0.0
 71
     0
 42
0.2
  3
TXT
  4
BIGFONT
  0
ENDTAB
  0
TABLE
  2
VIEW
  5
6
330
0
100
AcDbSymbolTable
 70
     0
  0
ENDTAB
  0
TABLE
  2
UCS
  5
7
330
0
100
AcDbSymbolTable
 70
     0
  0
ENDTAB
  0
TABLE
  2
APPID
  5
9
330
0
100
AcDbSymbolTable
 70
     1
  0
APPID
  5
12
330
9
100
AcDbSymbolTableRecord
100
AcDbRegAppTableRecord
  2
ACAD
 70
     0
  0
ENDTAB
  0
TABLE
  2
DIMSTYLE
  5
A
330
0
100
AcDbSymbolTable
 70
     2
100
AcDbDimStyleTable
  0
DIMSTYLE
105
27
330
A
100
AcDbSymbolTableRecord
100
AcDbDimStyleTableRecord
  2
ISO-25
 70
     0
 41
2.5
 42
0.625
 43
3.75
 44
1.25
 73
     0
 74
     0
 77
     1
 78
     8
140
2.5
141
2.5
143
0.03937
147
0.625
171
     3
172
     1
271
     2
272
     2
274
     3
278
    44
283
     0
284
     8
340
11
  0
DIMSTYLE
105
63
102
{ACAD_REACTORS
330
C0
330
C1
330
C2
330
C3
102
}
330
A
100
AcDbSymbolTableRecord
100
AcDbDimStyleTableRecord
  2
Standard
 70
     0
 41
1.5
 42
0.0
 44
2.75
 73
     0
 74
     0
 77
     1
 78
     8
 79
     2
140
4.0
146
0.8
147
1.0
172
     1
179
     1
271
     1
340
11
  0
ENDTAB
  0
TABLE
  2
BLOCK_RECORD
  5
1
330
0
100
AcDbSymbolTable
 70
     5
  0
BLOCK_RECORD
  5
1F
330
1
100
AcDbSymbolTableRecord
100
AcDbBlockTableRecord
  2
*Model_Space
340
22
  0
BLOCK_RECORD
  5
1B
330
1
100
AcDbSymbolTableRecord
100
AcDbBlockTableRecord
  2
*Paper_Space
340
1E
  0
BLOCK_RECORD
  5
23
330
1
100
AcDbSymbolTableRecord
100
AcDbBlockTableRecord
  2
*Paper_Space0
340
26
  0
BLOCK_RECORD
  5
64
330
1
100
AcDbSymbolTableRecord
100
AcDbBlockTableRecord
  2
*D1
340
0
  0
BLOCK_RECORD
  5
78
330
1
100
AcDbSymbolTableRecord
100
AcDbBlockTableRecord
  2
*D2
340
0
  0
BLOCK_RECORD
  5
8C
330
1
100
AcDbSymbolTableRecord
100
AcDbBlockTableRecord
  2
*D3
340
0
  0
BLOCK_RECORD
  5
A0
330
1
100
AcDbSymbolTableRecord
100
AcDbBlockTableRecord
  2
*D4
340
0
  0
ENDTAB
  0
ENDSEC
  0
SECTION
  2
BLOCKS
  0
BLOCK
  5
20
330
1F
100
AcDbEntity
  8
0
100
AcDbBlockBegin
  2
*Model_Space
 70
     0
 10
0.0
 20
0.0
 30
0.0
  3
*Model_Space
  1

  0
ENDBLK
  5
21
330
1F
100
AcDbEntity
  8
0
100
AcDbBlockEnd
  0
BLOCK
  5
1C
330
1B
100
AcDbEntity
 67
     1
  8
0
100
AcDbBlockBegin
  2
*Paper_Space
 70
     0
 10
0.0
 20
0.0
 30
0.0
  3
*Paper_Space
  1

  0
ENDBLK
  5
1D
330
1B
100
AcDbEntity
 67
     1
  8
0
100
AcDbBlockEnd
  0
BLOCK
  5
24
330
23
100
AcDbEntity
  8
0
100
AcDbBlockBegin
  2
*Paper_Space0
 70
     0
 10
0.0
 20
0.0
 30
0.0
  3
*Paper_Space0
  1

  0
ENDBLK
  5
25
330
23
100
AcDbEntity
  8
0
100
AcDbBlockEnd
  0
BLOCK
  5
65
330
64
100
AcDbEntity
  8
0
100
AcDbBlockBegin
  2
*D1
 70
     1
 10
0.0
 20
0.0
 30
0.0
  3
*D1
  1

  0
LINE
  5
67
330
64
100
AcDbEntity
  8
001
370
     9
100
AcDbLine
 10
99.9279
 20
76.445109
 30
0.0
 11
99.9279
 21
27.947545
 31
0.0
  0
LINE
  5
68
330
64
100
AcDbEntity
  8
001
370
     9
100
AcDbLine
 10
56.4279
 20
54.432285
 30
0.0
 11
56.4279
 21
27.947545
 31
0.0
  0
LINE
  5
69
330
64
100
AcDbEntity
  8
001
370
     9
100
AcDbLine
 10
99.9279
 20
30.697545
 30
0.0
 11
56.4279
 21
30.697545
 31
0.0
  0
POLYLINE
  5
6A
330
64
100
AcDbEntity
  8
001
370
     9
100
AcDb2dPolyline
 66
     1
 10
0.0
 20
0.0
 30
0.0
  0
VERTEX
  5
6C
330
6A
100
AcDbEntity
  8
001
370
     9
100
AcDbVertex
100
AcDb2dVertex
 10
98.4279
 20
31.099469
 30
0.0
  0
VERTEX
  5
6D
330
6A
100
AcDbEntity
  8
001
370
     9
100
AcDbVertex
100
AcDb2dVertex
 10
99.9279
 20
30.697545
 30
0.0
  0
VERTEX
  5
6E
330
6A
100
AcDbEntity
  8
001
370
     9
100
AcDbVertex
100
AcDb2dVertex
 10
98.4279
 20
30.295622
 30
0.0
  0
SEQEND
  5
6B
330
6A
100
AcDbEntity
  8
001
370
     9
  0
POLYLINE
  5
6F
330
64
100
AcDbEntity
  8
001
370
     9
100
AcDb2dPolyline
 66
     1
 10
0.0
 20
0.0
 30
0.0
  0
VERTEX
  5
71
330
6F
100
AcDbEntity
  8
001
370
     9
100
AcDbVertex
100
AcDb2dVertex
 10
57.9279
 20
30.295622
 30
0.0
  0
VERTEX
  5
72
330
6F
100
AcDbEntity
  8
001
370
     9
100
AcDbVertex
100
AcDb2dVertex
 10
56.4279
 20
30.697545
 30
0.0
  0
VERTEX
  5
73
330
6F
100
AcDbEntity
  8
001
370
     9
100
AcDbVertex
100
AcDb2dVertex
 10
57.9279
 20
31.099469
 30
0.0
  0
SEQEND
  5
70
330
6F
100
AcDbEntity
  8
001
370
     9
  0
TEXT
  5
74
330
64
100
AcDbEntity
  8
001
370
    30
100
AcDbText
 10
70.1779
 20
31.697545
 30
0.0
 40
4.0
  1
４３．５
 41
0.833333
100
AcDbText
  0
POINT
  5
75
330
64
100
AcDbEntity
  8
001
370
     9
100
AcDbPoint
 10
99.9279
 20
76.445109
 30
0.0
  0
POINT
  5
76
330
64
100
AcDbEntity
  8
001
370
     9
100
AcDbPoint
 10
56.4279
 20
54.432285
 30
0.0
  0
POINT
  5
77
330
64
100
AcDbEntity
  8
001
370
     9
100
AcDbPoint
 10
56.4279
 20
30.697545
 30
0.0
  0
ENDBLK
  5
66
330
64
100
AcDbEntity
  8
0
100
AcDbBlockEnd
  0
BLOCK
  5
79
330
78
100
AcDbEntity
  8
0
100
AcDbBlockBegin
  2
*D2
 70
     1
 10
0.0
 20
0.0
 30
0.0
  3
*D2
  1

  0
LINE
  5
7B
330
78
100
AcDbEntity
  8
001
370
     9
100
AcDbLine
 10
179.9279
 20
95.445109
 30
0.0
 11
179.9279
 21
27.947545
 31
0.0
  0
LINE
  5
7C
330
78
100
AcDbEntity
  8
001
370
     9
100
AcDbLine
 10
99.9279
 20
76.445109
 30
0.0
 11
99.9279
 21
27.947545
 31
0.0
  0
LINE
  5
7D
330
78
100
AcDbEntity
  8
001
370
     9
100
AcDbLine
 10
179.9279
 20
30.697545
 30
0.0
 11
99.9279
 21
30.697545
 31
0.0
  0
POLYLINE
  5
7E
330
78
100
AcDbEntity
  8
001
370
     9
100
AcDb2dPolyline
 66
     1
 10
0.0
 20
0.0
 30
0.0
  0
VERTEX
  5
80
330
7E
100
AcDbEntity
  8
001
370
     9
100
AcDbVertex
100
AcDb2dVertex
 10
178.4279
 20
31.099469
 30
0.0
  0
VERTEX
  5
81
330
7E
100
AcDbEntity
  8
001
370
     9
100
AcDbVertex
100
AcDb2dVertex
 10
179.9279
 20
30.697545
 30
0.0
  0
VERTEX
  5
82
330
7E
100
AcDbEntity
  8
001
370
     9
100
AcDbVertex
100
AcDb2dVertex
 10
178.4279
 20
30.295622
 30
0.0
  0
SEQEND
  5
7F
330
7E
100
AcDbEntity
  8
001
370
     9
  0
POLYLINE
  5
83
330
78
100
AcDbEntity
  8
001
370
     9
100
AcDb2dPolyline
 66
     1
 10
0.0
 20
0.0
 30
0.0
  0
VERTEX
  5
85
330
83
100
AcDbEntity
  8
001
370
     9
100
AcDbVertex
100
AcDb2dVertex
 10
101.4279
 20
30.295622
 30
0.0
  0
VERTEX
  5
86
330
83
100
AcDbEntity
  8
001
370
     9
100
AcDbVertex
100
AcDb2dVertex
 10
99.9279
 20
30.697545
 30
0.0
  0
VERTEX
  5
87
330
83
100
AcDbEntity
  8
001
370
     9
100
AcDbVertex
100
AcDb2dVertex
 10
101.4279
 20
31.099469
 30
0.0
  0
SEQEND
  5
84
330
83
100
AcDbEntity
  8
001
370
     9
  0
TEXT
  5
88
330
78
100
AcDbEntity
  8
001
370
    30
100
AcDbText
 10
135.9279
 20
31.697545
 30
0.0
 40
4.0
  1
８０
 41
0.833333
100
AcDbText
  0
POINT
  5
89
330
78
100
AcDbEntity
  8
001
370
     9
100
AcDbPoint
 10
179.9279
 20
95.445109
 30
0.0
  0
POINT
  5
8A
330
78
100
AcDbEntity
  8
001
370
     9
100
AcDbPoint
 10
99.9279
 20
76.445109
 30
0.0
  0
POINT
  5
8B
330
78
100
AcDbEntity
  8
001
370
     9
100
AcDbPoint
 10
99.9279
 20
30.697545
 30
0.0
  0
ENDBLK
  5
7A
330
78
100
AcDbEntity
  8
0
100
AcDbBlockEnd
  0
BLOCK
  5
8D
330
8C
100
AcDbEntity
  8
0
100
AcDbBlockBegin
  2
*D3
 70
     1
 10
0.0
 20
0.0
 30
0.0
  3
*D3
  1

  0
LINE
  5
8F
330
8C
100
AcDbEntity
  8
001
370
     9
100
AcDbLine
 10
171.9279
 20
121.445109
 30
0.0
 11
210.794848
 21
121.445109
 31
0.0
  0
LINE
  5
90
330
8C
100
AcDbEntity
  8
001
370
     9
100
AcDbLine
 10
171.9279
 20
89.445109
 30
0.0
 11
210.794848
 21
89.445109
 31
0.0
  0
LINE
  5
91
330
8C
100
AcDbEntity
  8
001
370
     9
100
AcDbLine
 10
208.044848
 20
121.445109
 30
0.0
 11
208.044848
 21
89.445109
 31
0.0
  0
POLYLINE
  5
92
330
8C
100
AcDbEntity
  8
001
370
     9
100
AcDb2dPolyline
 66
     1
 10
0.0
 20
0.0
 30
0.0
  0
VERTEX
  5
94
330
92
100
AcDbEntity
  8
001
370
     9
100
AcDbVertex
100
AcDb2dVertex
 10
207.642924
 20
119.945109
 30
0.0
  0
VERTEX
  5
95
330
92
100
AcDbEntity
  8
001
370
     9
100
AcDbVertex
100
AcDb2dVertex
 10
208.044848
 20
121.445109
 30
0.0
  0
VERTEX
  5
96
330
92
100
AcDbEntity
  8
001
370
     9
100
AcDbVertex
100
AcDb2dVertex
 10
208.446771
 20
119.945109
 30
0.0
  0
SEQEND
  5
93
330
92
100
AcDbEntity
  8
001
370
     9
  0
POLYLINE
  5
97
330
8C
100
AcDbEntity
  8
001
370
     9
100
AcDb2dPolyline
 66
     1
 10
0.0
 20
0.0
 30
0.0
  0
VERTEX
  5
99
330
97
100
AcDbEntity
  8
001
370
     9
100
AcDbVertex
100
AcDb2dVertex
 10
208.446771
 20
90.945109
 30
0.0
  0
VERTEX
  5
9A
330
97
100
AcDbEntity
  8
001
370
     9
100
AcDbVertex
100
AcDb2dVertex
 10
208.044848
 20
89.445109
 30
0.0
  0
VERTEX
  5
9B
330
97
100
AcDbEntity
  8
001
370
     9
100
AcDbVertex
100
AcDb2dVertex
 10
207.642924
 20
90.945109
 30
0.0
  0
SEQEND
  5
98
330
97
100
AcDbEntity
  8
001
370
     9
  0
TEXT
  5
9C
330
8C
100
AcDbEntity
  8
001
370
    30
100
AcDbText
 10
207.044848
 20
99.445109
 30
0.0
 40
4.0
  1
%%c３２
 50
90.000003
 41
0.882353
100
AcDbText
  0
POINT
  5
9D
330
8C
100
AcDbEntity
  8
001
370
     9
100
AcDbPoint
 10
171.9279
 20
121.445109
 30
0.0
  0
POINT
  5
9E
330
8C
100
AcDbEntity
  8
001
370
     9
100
AcDbPoint
 10
171.9279
 20
89.445109
 30
0.0
  0
POINT
  5
9F
330
8C
100
AcDbEntity
  8
001
370
     9
100
AcDbPoint
 10
208.044848
 20
89.445109
 30
0.0
  0
ENDBLK
  5
8E
330
8C
100
AcDbEntity
  8
0
100
AcDbBlockEnd
  0
BLOCK
  5
A1
330
A0
100
AcDbEntity
  8
0
100
AcDbBlockBegin
  2
*D4
 70
     1
 10
0.0
 20
0.0
 30
0.0
  3
*D4
  1

  0
LINE
  5
A3
330
A0
100
AcDbEntity
  8
001
370
     9
100
AcDbLine
 10
56.4279
 20
55.445109
 30
0.0
 11
56.4279
 21
13.70237
 31
0.0
  0
LINE
  5
A4
330
A0
100
AcDbEntity
  8
001
370
     9
100
AcDbLine
 10
179.9279
 20
97.445109
 30
0.0
 11
179.9279
 21
13.70237
 31
0.0
  0
LINE
  5
A5
330
A0
100
AcDbEntity
  8
001
370
     9
100
AcDbLine
 10
56.4279
 20
16.45237
 30
0.0
 11
179.9279
 21
16.45237
 31
0.0
  0
POLYLINE
  5
A6
330
A0
100
AcDbEntity
  8
001
370
     9
100
AcDb2dPolyline
 66
     1
 10
0.0
 20
0.0
 30
0.0
  0
VERTEX
  5
A8
330
A6
100
AcDbEntity
  8
001
370
     9
100
AcDbVertex
100
AcDb2dVertex
 10
57.9279
 20
16.050446
 30
0.0
  0
VERTEX
  5
A9
330
A6
100
AcDbEntity
  8
001
370
     9
100
AcDbVertex
100
AcDb2dVertex
 10
56.4279
 20
16.45237
 30
0.0
  0
VERTEX
  5
AA
330
A6
100
AcDbEntity
  8
001
370
     9
100
AcDbVertex
100
AcDb2dVertex
 10
57.9279
 20
16.854294
 30
0.0
  0
SEQEND
  5
A7
330
A6
100
AcDbEntity
  8
001
370
     9
  0
POLYLINE
  5
AB
330
A0
100
AcDbEntity
  8
001
370
     9
100
AcDb2dPolyline
 66
     1
 10
0.0
 20
0.0
 30
0.0
  0
VERTEX
  5
AD
330
AB
100
AcDbEntity
  8
001
370
     9
100
AcDbVertex
100
AcDb2dVertex
 10
178.4279
 20
16.854294
 30
0.0
  0
VERTEX
  5
AE
330
AB
100
AcDbEntity
  8
001
370
     9
100
AcDbVertex
100
AcDb2dVertex
 10
179.9279
 20
16.45237
 30
0.0
  0
VERTEX
  5
AF
330
AB
100
AcDbEntity
  8
001
370
     9
100
AcDbVertex
100
AcDb2dVertex
 10
178.4279
 20
16.050446
 30
0.0
  0
SEQEND
  5
AC
330
AB
100
AcDbEntity
  8
001
370
     9
  0
TEXT
  5
B0
330
A0
100
AcDbEntity
  8
001
370
    30
100
AcDbText
 10
108.1779
 20
17.45237
 30
0.0
 40
4.0
  1
１２３．５
 41
0.833333
100
AcDbText
  0
POINT
  5
B1
330
A0
100
AcDbEntity
  8
001
370
     9
100
AcDbPoint
 10
56.4279
 20
55.445109
 30
0.0
  0
POINT
  5
B2
330
A0
100
AcDbEntity
  8
001
370
     9
100
AcDbPoint
 10
179.9279
 20
97.445109
 30
0.0
  0
POINT
  5
B3
330
A0
100
AcDbEntity
  8
001
370
     9
100
AcDbPoint
 10
179.9279
 20
16.45237
 30
0.0
  0
ENDBLK
  5
A2
330
A0
100
AcDbEntity
  8
0
100
AcDbBlockEnd
  0
ENDSEC
  0
SECTION
  2
ENTITIES
  0
TEXT
  5
B4
330
1F
100
AcDbEntity
  8
001
370
    30
100
AcDbText
 10
29.5165
 20
97.445109
 30
0.0
 40
4.0
  1
%%c１００
 50
90.000003
 41
0.869565
100
AcDbText
  0
POLYLINE
  5
B5
330
1F
100
AcDbEntity
  8
001
370
     9
100
AcDb2dPolyline
 66
     1
 10
0.0
 20
0.0
 30
0.0
  0
VERTEX
  5
B7
330
B5
100
AcDbEntity
  8
001
370
     9
100
AcDbVertex
100
AcDb2dVertex
 10
30.918424
 20
56.945109
 30
0.0
  0
VERTEX
  5
B8
330
B5
100
AcDbEntity
  8
001
370
     9
100
AcDbVertex
100
AcDb2dVertex
 10
30.5165
 20
55.445109
 30
0.0
  0
VERTEX
  5
B9
330
B5
100
AcDbEntity
  8
001
370
     9
100
AcDbVertex
100
AcDb2dVertex
 10
30.114577
 20
56.945109
 30
0.0
  0
SEQEND
  5
B6
330
B5
100
AcDbEntity
  8
001
370
     9
  0
LINE
  5
BA
330
1F
100
AcDbEntity
  8
001
370
     9
100
AcDbLine
 10
30.5165
 20
155.445109
 30
0.0
 11
30.5165
 21
55.445109
 31
0.0
  0
POLYLINE
  5
BB
330
1F
100
AcDbEntity
  8
001
370
     9
100
AcDb2dPolyline
 66
     1
 10
0.0
 20
0.0
 30
0.0
  0
VERTEX
  5
BD
330
BB
100
AcDbEntity
  8
001
370
     9
100
AcDbVertex
100
AcDb2dVertex
 10
56.4279
 20
55.445109
 30
0.0
  0
VERTEX
  5
BE
330
BB
100
AcDbEntity
  8
001
370
     9
100
AcDbVertex
100
AcDb2dVertex
 10
30.5165
 20
55.445109
 30
0.0
  0
VERTEX
  5
BF
330
BB
100
AcDbEntity
  8
001
370
     9
100
AcDbVertex
100
AcDb2dVertex
 10
27.7665
 20
55.445109
 30
0.0
  0
SEQEND
  5
BC
330
BB
100
AcDbEntity
  8
001
370
     9
  0
DIMENSION
  5
C0
330
1F
100
AcDbEntity
  8
001
370
     9
100
AcDbDimension
  2
*D1
 10
56.4279
 20
30.697545
 30
0.0
 11
78.1779
 21
33.697545
 31
0.0
 70
   160
 71
     5
 42
-1.0
  3
Standard
100
AcDbAlignedDimension
 13
99.9279
 23
76.445109
 33
0.0
 14
56.4279
 24
54.432285
 34
0.0
 50
180.0
100
AcDbRotatedDimension
  0
DIMENSION
  5
C1
330
1F
100
AcDbEntity
  8
001
370
     9
100
AcDbDimension
  2
*D2
 10
99.9279
 20
30.697545
 30
0.0
 11
139.9279
 21
33.697545
 31
0.0
 70
   160
 71
     5
 42
-1.0
  3
Standard
100
AcDbAlignedDimension
 13
179.9279
 23
95.445109
 33
0.0
 14
99.9279
 24
76.445109
 34
0.0
 50
180.0
100
AcDbRotatedDimension
  0
DIMENSION
  5
C2
330
1F
100
AcDbEntity
  8
001
370
     9
100
AcDbDimension
  2
*D3
 10
208.044848
 20
89.445109
 30
0.0
 11
205.044847
 21
105.445109
 31
0.0
 70
   160
 71
     5
 42
-1.0
  3
Standard
100
AcDbAlignedDimension
 13
171.9279
 23
121.445109
 33
0.0
 14
171.9279
 24
89.445109
 34
0.0
 50
270.0
100
AcDbRotatedDimension
  0
DIMENSION
  5
C3
330
1F
100
AcDbEntity
  8
001
370
     9
100
AcDbDimension
  2
*D4
 10
179.9279
 20
16.45237
 30
0.0
 11
118.1779
 21
19.45237
 31
0.0
 70
   160
 71
     5
 42
-1.0
  3
Standard
100
AcDbAlignedDimension
 13
56.4279
 23
55.445109
 33
0.0
 14
179.9279
 24
97.445109
 34
0.0
100
AcDbRotatedDimension
  0
LINE
  5
C4
330
1F
100
AcDbEntity
  8
001
370
    50
100
AcDbLine
 10
179.9279
 20
105.445109
 30
0.0
 11
184.308812
 21
107.97443
 31
0.0
  0
LINE
  5
C5
330
1F
100
AcDbEntity
  8
001
370
    50
100
AcDbLine
 10
179.9279
 20
105.445109
 30
0.0
 11
184.308812
 21
102.915788
 31
0.0
  0
LINE
  5
C6
330
1F
100
AcDbEntity
  8
001
370
    50
100
AcDbLine
 10
59.9279
 20
105.445109
 30
0.0
 11
55.546988
 21
107.97443
 31
0.0
  0
LINE
  5
C7
330
1F
100
AcDbEntity
  8
001
370
    50
100
AcDbLine
 10
59.9279
 20
105.445109
 30
0.0
 11
55.546988
 21
102.915788
 31
0.0
  0
LINE
  5
C8
330
1F
100
AcDbEntity
  8
001
  6
CENTER
370
     9
100
AcDbLine
 10
52.146863
 20
105.445109
 30
0.0
 11
186.632578
 21
105.445109
 31
0.0
  0
LINE
  5
C9
330
1F
100
AcDbEntity
  8
001
 62
   200
370
    50
100
AcDbLine
 10
74.9279
 20
149.407885
 30
0.0
 11
59.9279
 21
149.407885
 31
0.0
  0
POLYLINE
  5
CA
330
1F
100
AcDbEntity
  8
001
 62
   200
370
    50
100
AcDb2dPolyline
 66
     1
 10
0.0
 20
0.0
 30
0.0
  0
VERTEX
  5
CC
330
CA
100
AcDbEntity
  8
001
 62
   200
370
    50
100
AcDbVertex
100
AcDb2dVertex
 10
64.018285
 20
160.212217
 30
0.0
  0
VERTEX
  5
CD
330
CA
100
AcDbEntity
  8
001
 62
   200
370
    50
100
AcDbVertex
100
AcDb2dVertex
 10
63.496697
 20
160.269176
 30
0.0
  0
VERTEX
  5
CE
330
CA
100
AcDbEntity
  8
001
 62
   200
370
    50
100
AcDbVertex
100
AcDb2dVertex
 10
62.734258
 20
160.351329
 30
0.0
  0
VERTEX
  5
CF
330
CA
100
AcDbEntity
  8
001
 62
   200
370
    50
100
AcDbVertex
100
AcDb2dVertex
 10
61.969089
 20
160.43223
 30
0.0
  0
VERTEX
  5
D0
330
CA
100
AcDbEntity
  8
001
 62
   200
370
    50
100
AcDbVertex
100
AcDb2dVertex
 10
61.445474
 20
160.486834
 30
0.0
  0
SEQEND
  5
CB
330
CA
100
AcDbEntity
  8
001
370
    50
  0
POLYLINE
  5
D1
330
1F
100
AcDbEntity
  8
001
 62
   200
370
    50
100
AcDb2dPolyline
 66
     1
 10
0.0
 20
0.0
 30
0.0
  0
VERTEX
  5
D3
330
D1
100
AcDbEntity
  8
001
 62
   200
370
    50
100
AcDbVertex
100
AcDb2dVertex
 10
64.239397
 20
160.486834
 30
0.0
  0
VERTEX
  5
D4
330
D1
100
AcDbEntity
  8
001
 62
   200
370
    50
100
AcDbVertex
100
AcDb2dVertex
 10
64.192906
 20
160.432222
 30
0.0
  0
VERTEX
  5
D5
330
D1
100
AcDbEntity
  8
001
 62
   200
370
    50
100
AcDbVertex
100
AcDb2dVertex
 10
64.126262
 20
160.351329
 30
0.0
  0
VERTEX
  5
D6
330
D1
100
AcDbEntity
  8
001
 62
   200
370
    50
100
AcDbVertex
100
AcDb2dVertex
 10
64.061611
 20
160.269156
 30
0.0
  0
VERTEX
  5
D7
330
D1
100
AcDbEntity
  8
001
 62
   200
370
    50
100
AcDbVertex
100
AcDb2dVertex
 10
64.018285
 20
160.212217
 30
0.0
  0
SEQEND
  5
D2
330
D1
100
AcDbEntity
  8
001
370
    50
  0
LINE
  5
D8
330
1F
100
AcDbEntity
  8
001
 62
   200
370
    50
100
AcDbLine
 10
71.9279
 20
160.486834
 30
0.0
 11
64.239397
 21
160.486834
 31
0.0
  0
LINE
  5
D9
330
1F
100
AcDbEntity
  8
001
 62
   200
370
    50
100
AcDbLine
 10
74.9279
 20
157.486834
 30
0.0
 11
71.9279
 21
160.486834
 31
0.0
  0
LINE
  5
DA
330
1F
100
AcDbEntity
  8
001
 62
   200
370
    50
100
AcDbLine
 10
74.9279
 20
140.294008
 30
0.0
 11
74.9279
 21
157.486834
 31
0.0
  0
POLYLINE
  5
DB
330
1F
100
AcDbEntity
  8
001
 62
   200
370
    50
100
AcDb2dPolyline
 66
     1
 10
0.0
 20
0.0
 30
0.0
  0
VERTEX
  5
DD
330
DB
100
AcDbEntity
  8
001
 62
   200
370
    50
100
AcDbVertex
100
AcDb2dVertex
 10
61.381028
 20
160.486834
 30
0.0
  0
VERTEX
  5
DE
330
DB
100
AcDbEntity
  8
001
 62
   200
370
    50
100
AcDbVertex
100
AcDb2dVertex
 10
61.135234
 20
159.979963
 30
0.0
  0
VERTEX
  5
DF
330
DB
100
AcDbEntity
  8
001
 62
   200
370
    50
100
AcDbVertex
100
AcDb2dVertex
 10
60.897668
 20
159.469363
 30
0.0
  0
VERTEX
  5
E0
330
DB
100
AcDbEntity
  8
001
 62
   200
370
    50
100
AcDbVertex
100
AcDb2dVertex
 10
60.644406
 20
158.879497
 30
0.0
  0
VERTEX
  5
E1
330
DB
100
AcDbEntity
  8
001
 62
   200
370
    50
100
AcDbVertex
100
AcDb2dVertex
 10
60.406616
 20
158.28303
 30
0.0
  0
VERTEX
  5
E2
330
DB
100
AcDbEntity
  8
001
 62
   200
370
    50
100
AcDbVertex
100
AcDb2dVertex
 10
60.146956
 20
157.594838
 30
0.0
  0
VERTEX
  5
E3
330
DB
100
AcDbEntity
  8
001
 62
   200
370
    50
100
AcDbVertex
100
AcDb2dVertex
 10
59.899151
 20
156.902382
 30
0.0
  0
VERTEX
  5
E4
330
DB
100
AcDbEntity
  8
001
 62
   200
370
    50
100
AcDbVertex
100
AcDb2dVertex
 10
59.638197
 20
156.133124
 30
0.0
  0
VERTEX
  5
E5
330
DB
100
AcDbEntity
  8
001
 62
   200
370
    50
100
AcDbVertex
100
AcDb2dVertex
 10
59.388697
 20
155.36003
 30
0.0
  0
VERTEX
  5
E6
330
DB
100
AcDbEntity
  8
001
 62
   200
370
    50
100
AcDbVertex
100
AcDb2dVertex
 10
59.189171
 20
154.716516
 30
0.0
  0
VERTEX
  5
E7
330
DB
100
AcDbEntity
  8
001
 62
   200
370
    50
100
AcDbVertex
100
AcDb2dVertex
 10
58.996377
 20
154.07098
 30
0.0
  0
VERTEX
  5
E8
330
DB
100
AcDbEntity
  8
001
 62
   200
370
    50
100
AcDbVertex
100
AcDb2dVertex
 10
58.798145
 20
153.381595
 30
0.0
  0
VERTEX
  5
E9
330
DB
100
AcDbEntity
  8
001
 62
   200
370
    50
100
AcDbVertex
100
AcDb2dVertex
 10
58.603921
 20
152.691045
 30
0.0
  0
SEQEND
  5
DC
330
DB
100
AcDbEntity
  8
001
370
    50
  0
LINE
  5
EA
330
1F
100
AcDbEntity
  8
001
 62
   200
370
    50
100
AcDbLine
 10
59.9279
 20
151.303673
 30
0.0
 11
59.9279
 21
131.714966
 31
0.0
  0
LINE
  5
EB
330
1F
100
AcDbEntity
  8
001
 62
   200
370
    50
100
AcDbLine
 10
57.270938
 20
154.087853
 30
0.0
 11
57.270938
 21
156.29923
 31
0.0
  0
LINE
  5
EC
330
1F
100
AcDbEntity
  8
001
 62
   200
370
    50
100
AcDbLine
 10
57.270938
 20
156.29923
 30
0.0
 11
61.378068
 21
160.486834
 31
0.0
  0
LINE
  5
ED
330
1F
100
AcDbEntity
  8
001
 62
   200
370
    50
100
AcDbLine
 10
61.378068
 20
160.486834
 30
0.0
 11
61.445474
 21
160.486834
 31
0.0
  0
LINE
  5
EE
330
1F
100
AcDbEntity
  8
001
 62
   200
370
    50
100
AcDbLine
 10
59.9279
 20
151.303673
 30
0.0
 11
57.270938
 21
154.087853
 31
0.0
  0
LINE
  5
EF
330
1F
100
AcDbEntity
  8
001
 62
     4
370
    50
100
AcDbLine
 10
64.559849
 20
162.725524
 30
0.0
 11
66.696247
 21
160.486834
 31
0.0
  0
LINE
  5
F0
330
1F
100
AcDbEntity
  8
001
 62
     4
370
    50
100
AcDbLine
 10
63.792376
 20
160.448943
 30
0.0
 11
64.018285
 21
160.212217
 31
0.0
  0
LINE
  5
F1
330
1F
100
AcDbEntity
  8
001
 62
     4
370
    50
100
AcDbLine
 10
64.559849
 20
162.725524
 30
0.0
 11
63.792376
 21
160.448943
 31
0.0
  0
LINE
  5
F2
330
1F
100
AcDbEntity
  8
001
 62
     4
370
    50
100
AcDbLine
 10
59.9279
 20
151.01398
 30
0.0
 11
57.270938
 21
153.798159
 31
0.0
  0
LINE
  5
F3
330
1F
100
AcDbEntity
  8
001
 62
     4
370
    50
100
AcDbLine
 10
57.270938
 20
153.798159
 30
0.0
 11
57.270938
 21
154.087853
 31
0.0
  0
LINE
  5
F4
330
1F
100
AcDbEntity
  8
001
 62
     4
370
    50
100
AcDbLine
 10
57.270938
 20
156.29923
 30
0.0
 11
57.270938
 21
156.591611
 31
0.0
  0
LINE
  5
F5
330
1F
100
AcDbEntity
  8
001
 62
     4
370
    50
100
AcDbLine
 10
57.270938
 20
156.591611
 30
0.0
 11
61.090405
 21
160.486834
 31
0.0
  0
LINE
  5
F6
330
1F
100
AcDbEntity
  8
001
 62
     4
370
    50
100
AcDbLine
 10
61.090405
 20
160.486834
 30
0.0
 11
61.374166
 21
160.482854
 31
0.0
  0
LINE
  5
F7
330
1F
100
AcDbEntity
  8
001
 62
     4
370
    50
100
AcDbLine
 10
61.501049
 20
160.481075
 30
0.0
 11
63.792376
 21
160.448943
 31
0.0
  0
LINE
  5
F8
330
1F
100
AcDbEntity
  8
001
 62
     4
370
    50
100
AcDbLine
 10
62.600539
 20
162.753
 30
0.0
 11
64.559849
 21
162.725524
 31
0.0
  0
LINE
  5
F9
330
1F
100
AcDbEntity
  8
001
 62
     4
370
    50
100
AcDbLine
 10
62.600539
 20
162.753
 30
0.0
 11
61.090405
 21
160.486834
 31
0.0
  0
LINE
  5
FA
330
1F
100
AcDbEntity
  8
001
 62
     4
370
    50
100
AcDbLine
 10
56.4279
 20
156.457933
 30
0.0
 11
62.600539
 21
162.753
 31
0.0
  0
LINE
  5
FB
330
1F
100
AcDbEntity
  8
001
 62
     4
370
    50
100
AcDbLine
 10
56.4279
 20
156.457933
 30
0.0
 11
57.270938
 21
156.591611
 31
0.0
  0
LINE
  5
FC
330
1F
100
AcDbEntity
  8
001
 62
     4
370
    50
100
AcDbLine
 10
59.9279
 20
150.764703
 30
0.0
 11
56.4279
 21
154.432285
 31
0.0
  0
LINE
  5
FD
330
1F
100
AcDbEntity
  8
001
 62
     4
370
    50
100
AcDbLine
 10
56.4279
 20
154.432285
 30
0.0
 11
57.270938
 21
153.798159
 31
0.0
  0
LINE
  5
FE
330
1F
100
AcDbEntity
  8
001
 62
     4
370
    50
100
AcDbLine
 10
56.4279
 20
154.432285
 30
0.0
 11
56.4279
 21
156.457933
 31
0.0
  0
POLYLINE
  5
FF
330
1F
100
AcDbEntity
  8
001
 62
   200
370
    50
100
AcDb2dPolyline
 66
     1
 10
0.0
 20
0.0
 30
0.0
  0
VERTEX
  5
101
330
FF
100
AcDbEntity
  8
001
 62
   200
370
    50
100
AcDbVertex
100
AcDb2dVertex
 10
58.603921
 20
113.500916
 30
0.0
  0
VERTEX
  5
102
330
FF
100
AcDbEntity
  8
001
 62
   200
370
    50
100
AcDbVertex
100
AcDb2dVertex
 10
58.234818
 20
114.870378
 30
0.0
  0
VERTEX
  5
103
330
FF
100
AcDbEntity
  8
001
 62
   200
370
    50
100
AcDbVertex
100
AcDb2dVertex
 10
57.884572
 20
116.24442
 30
0.0
  0
VERTEX
  5
104
330
FF
100
AcDbEntity
  8
001
 62
   200
370
    50
100
AcDbVertex
100
AcDb2dVertex
 10
57.568496
 20
117.613586
 30
0.0
  0
VERTEX
  5
105
330
FF
100
AcDbEntity
  8
001
 62
   200
370
    50
100
AcDbVertex
100
AcDb2dVertex
 10
57.270938
 20
118.98725
 30
0.0
  0
SEQEND
  5
100
330
FF
100
AcDbEntity
  8
001
370
    50
  0
LINE
  5
106
330
1F
100
AcDbEntity
  8
001
 62
   200
370
    50
100
AcDbLine
 10
57.270938
 20
118.98725
 30
0.0
 11
57.270938
 21
126.687162
 31
0.0
  0
LINE
  5
107
330
1F
100
AcDbEntity
  8
001
 62
   200
370
    50
100
AcDbLine
 10
57.270938
 20
126.687162
 30
0.0
 11
61.378068
 21
127.636532
 31
0.0
  0
LINE
  5
108
330
1F
100
AcDbEntity
  8
001
 62
   200
370
    50
100
AcDbLine
 10
61.378068
 20
127.636532
 30
0.0
 11
61.381028
 21
127.62087
 31
0.0
  0
POLYLINE
  5
109
330
1F
100
AcDbEntity
  8
001
 62
   200
370
    50
100
AcDb2dPolyline
 66
     1
 10
0.0
 20
0.0
 30
0.0
  0
VERTEX
  5
10B
330
109
100
AcDbEntity
  8
001
 62
   200
370
    50
100
AcDbVertex
100
AcDb2dVertex
 10
61.381028
 20
127.62087
 30
0.0
  0
VERTEX
  5
10C
330
109
100
AcDbEntity
  8
001
 62
   200
370
    50
100
AcDbVertex
100
AcDb2dVertex
 10
61.139745
 20
126.359432
 30
0.0
  0
VERTEX
  5
10D
330
109
100
AcDbEntity
  8
001
 62
   200
370
    50
100
AcDbVertex
100
AcDb2dVertex
 10
60.897668
 20
125.098146
 30
0.0
  0
VERTEX
  5
10E
330
109
100
AcDbEntity
  8
001
 62
   200
370
    50
100
AcDbVertex
100
AcDb2dVertex
 10
60.652859
 20
123.830413
 30
0.0
  0
VERTEX
  5
10F
330
109
100
AcDbEntity
  8
001
 62
   200
370
    50
100
AcDbVertex
100
AcDb2dVertex
 10
60.406616
 20
122.562958
 30
0.0
  0
VERTEX
  5
110
330
109
100
AcDbEntity
  8
001
 62
   200
370
    50
100
AcDbVertex
100
AcDb2dVertex
 10
60.15359
 20
121.26781
 30
0.0
  0
VERTEX
  5
111
330
109
100
AcDbEntity
  8
001
 62
   200
370
    50
100
AcDbVertex
100
AcDb2dVertex
 10
59.899151
 20
119.97294
 30
0.0
  0
VERTEX
  5
112
330
109
100
AcDbEntity
  8
001
 62
   200
370
    50
100
AcDbVertex
100
AcDb2dVertex
 10
59.644649
 20
118.685533
 30
0.0
  0
VERTEX
  5
113
330
109
100
AcDbEntity
  8
001
 62
   200
370
    50
100
AcDbVertex
100
AcDb2dVertex
 10
59.388697
 20
117.398413
 30
0.0
  0
VERTEX
  5
114
330
109
100
AcDbEntity
  8
001
 62
   200
370
    50
100
AcDbVertex
100
AcDb2dVertex
 10
59.193025
 20
116.419528
 30
0.0
  0
VERTEX
  5
115
330
109
100
AcDbEntity
  8
001
 62
   200
370
    50
100
AcDbVertex
100
AcDb2dVertex
 10
58.996377
 20
115.440839
 30
0.0
  0
VERTEX
  5
116
330
109
100
AcDbEntity
  8
001
 62
   200
370
    50
100
AcDbVertex
100
AcDb2dVertex
 10
58.800428
 20
114.470821
 30
0.0
  0
VERTEX
  5
117
330
109
100
AcDbEntity
  8
001
 62
   200
370
    50
100
AcDbVertex
100
AcDb2dVertex
 10
58.603921
 20
113.500916
 30
0.0
  0
SEQEND
  5
10A
330
109
100
AcDbEntity
  8
001
370
    50
  0
POLYLINE
  5
118
330
1F
100
AcDbEntity
  8
001
 62
   200
370
    50
100
AcDb2dPolyline
 66
     1
 10
0.0
 20
0.0
 30
0.0
  0
VERTEX
  5
11A
330
118
100
AcDbEntity
  8
001
 62
   200
370
    50
100
AcDbVertex
100
AcDb2dVertex
 10
71.9279
 20
127.62087
 30
0.0
  0
VERTEX
  5
11B
330
118
100
AcDbEntity
  8
001
 62
   200
370
    50
100
AcDbVertex
100
AcDb2dVertex
 10
72.763338
 20
125.54221
 30
0.0
  0
VERTEX
  5
11C
330
118
100
AcDbEntity
  8
001
 62
   200
370
    50
100
AcDbVertex
100
AcDb2dVertex
 10
74.128638
 20
122.56909
 30
0.0
  0
VERTEX
  5
11D
330
118
100
AcDbEntity
  8
001
 62
   200
370
    50
100
AcDbVertex
100
AcDb2dVertex
 10
74.597861
 20
121.652898
 30
0.0
  0
VERTEX
  5
11E
330
118
100
AcDbEntity
  8
001
 62
   200
370
    50
100
AcDbVertex
100
AcDb2dVertex
 10
74.9279
 20
121.030579
 30
0.0
  0
SEQEND
  5
119
330
118
100
AcDbEntity
  8
001
370
    50
  0
LINE
  5
11F
330
1F
100
AcDbEntity
  8
001
 62
   200
370
    50
100
AcDbLine
 10
71.9279
 20
128.955861
 30
0.0
 11
71.9279
 21
127.62087
 31
0.0
  0
LINE
  5
120
330
1F
100
AcDbEntity
  8
001
 62
   200
370
    50
100
AcDbLine
 10
74.9279
 20
126.894912
 30
0.0
 11
71.9279
 21
128.955861
 31
0.0
  0
POLYLINE
  5
121
330
1F
100
AcDbEntity
  8
001
 62
   200
370
    50
100
AcDb2dPolyline
 66
     1
 10
0.0
 20
0.0
 30
0.0
  0
VERTEX
  5
123
330
121
100
AcDbEntity
  8
001
 62
   200
370
    50
100
AcDbVertex
100
AcDb2dVertex
 10
64.018285
 20
126.898183
 30
0.0
  0
VERTEX
  5
124
330
121
100
AcDbEntity
  8
001
 62
   200
370
    50
100
AcDbVertex
100
AcDb2dVertex
 10
63.496702
 20
127.045277
 30
0.0
  0
VERTEX
  5
125
330
121
100
AcDbEntity
  8
001
 62
   200
370
    50
100
AcDbVertex
100
AcDb2dVertex
 10
62.734258
 20
127.259794
 30
0.0
  0
VERTEX
  5
126
330
121
100
AcDbEntity
  8
001
 62
   200
370
    50
100
AcDbVertex
100
AcDb2dVertex
 10
61.969096
 20
127.474372
 30
0.0
  0
VERTEX
  5
127
330
121
100
AcDbEntity
  8
001
 62
   200
370
    50
100
AcDbVertex
100
AcDb2dVertex
 10
61.445474
 20
127.62087
 30
0.0
  0
SEQEND
  5
122
330
121
100
AcDbEntity
  8
001
370
    50
  0
POLYLINE
  5
128
330
1F
100
AcDbEntity
  8
001
 62
   200
370
    50
100
AcDb2dPolyline
 66
     1
 10
0.0
 20
0.0
 30
0.0
  0
VERTEX
  5
12A
330
128
100
AcDbEntity
  8
001
 62
   200
370
    50
100
AcDbVertex
100
AcDb2dVertex
 10
64.239397
 20
127.62087
 30
0.0
  0
VERTEX
  5
12B
330
128
100
AcDbEntity
  8
001
 62
   200
370
    50
100
AcDbVertex
100
AcDb2dVertex
 10
64.192904
 20
127.474348
 30
0.0
  0
VERTEX
  5
12C
330
128
100
AcDbEntity
  8
001
 62
   200
370
    50
100
AcDbVertex
100
AcDb2dVertex
 10
64.126262
 20
127.259794
 30
0.0
  0
VERTEX
  5
12D
330
128
100
AcDbEntity
  8
001
 62
   200
370
    50
100
AcDbVertex
100
AcDb2dVertex
 10
64.061618
 20
127.045248
 30
0.0
  0
VERTEX
  5
12E
330
128
100
AcDbEntity
  8
001
 62
   200
370
    50
100
AcDbVertex
100
AcDb2dVertex
 10
64.018285
 20
126.898183
 30
0.0
  0
SEQEND
  5
129
330
128
100
AcDbEntity
  8
001
370
    50
  0
LINE
  5
12F
330
1F
100
AcDbEntity
  8
001
 62
   200
370
    50
100
AcDbLine
 10
71.9279
 20
127.62087
 30
0.0
 11
64.239397
 21
127.62087
 31
0.0
  0
LINE
  5
130
330
1F
100
AcDbEntity
  8
001
 62
   200
370
    50
100
AcDbLine
 10
74.9279
 20
109.390764
 30
0.0
 11
59.9279
 21
109.390764
 31
0.0
  0
POLYLINE
  5
131
330
1F
100
AcDbEntity
  8
001
 62
   200
370
    50
100
AcDb2dPolyline
 66
     1
 10
0.0
 20
0.0
 30
0.0
  0
VERTEX
  5
133
330
131
100
AcDbEntity
  8
001
 62
   200
370
    50
100
AcDbVertex
100
AcDb2dVertex
 10
58.603921
 20
113.500916
 30
0.0
  0
VERTEX
  5
134
330
131
100
AcDbEntity
  8
001
 62
   200
370
    50
100
AcDbVertex
100
AcDb2dVertex
 10
58.9862
 20
112.96468
 30
0.0
  0
VERTEX
  5
135
330
131
100
AcDbEntity
  8
001
 62
   200
370
    50
100
AcDbVertex
100
AcDb2dVertex
 10
59.553263
 20
112.187023
 30
0.0
  0
VERTEX
  5
136
330
131
100
AcDbEntity
  8
001
 62
   200
370
    50
100
AcDbVertex
100
AcDb2dVertex
 10
59.775205
 20
111.889163
 30
0.0
  0
VERTEX
  5
137
330
131
100
AcDbEntity
  8
001
 62
   200
370
    50
100
AcDbVertex
100
AcDb2dVertex
 10
59.9279
 20
111.685988
 30
0.0
  0
SEQEND
  5
132
330
131
100
AcDbEntity
  8
001
370
    50
  0
LINE
  5
138
330
1F
100
AcDbEntity
  8
001
 62
   200
370
    50
100
AcDbLine
 10
61.445474
 20
127.62087
 30
0.0
 11
61.381028
 21
127.62087
 31
0.0
  0
LINE
  5
139
330
1F
100
AcDbEntity
  8
001
 62
   200
370
    50
100
AcDbLine
 10
61.445474
 20
127.62087
 30
0.0
 11
61.378068
 21
127.636532
 31
0.0
  0
LINE
  5
13A
330
1F
100
AcDbEntity
  8
001
 62
   200
370
    50
100
AcDbLine
 10
71.9279
 20
128.955861
 30
0.0
 11
66.562609
 21
130.202589
 31
0.0
  0
LINE
  5
13B
330
1F
100
AcDbEntity
  8
001
 62
   200
370
    50
100
AcDbLine
 10
64.239397
 20
127.62087
 30
0.0
 11
66.562609
 21
130.202589
 31
0.0
  0
LINE
  5
13C
330
1F
100
AcDbEntity
  8
001
 62
   200
370
    50
100
AcDbLine
 10
59.9279
 20
111.685988
 30
0.0
 11
59.9279
 21
107.531722
 31
0.0
  0
LINE
  5
13D
330
1F
100
AcDbEntity
  8
001
 62
   200
370
    50
100
AcDbLine
 10
74.9279
 20
107.706587
 30
0.0
 11
74.9279
 21
126.894912
 31
0.0
  0
LINE
  5
13E
330
1F
100
AcDbEntity
  8
001
 62
     4
370
    50
100
AcDbLine
 10
62.600539
 20
132.333044
 30
0.0
 11
64.559849
 21
131.865269
 31
0.0
  0
LINE
  5
13F
330
1F
100
AcDbEntity
  8
001
 62
     4
370
    50
100
AcDbLine
 10
64.559849
 20
131.865269
 30
0.0
 11
63.792376
 21
127.058296
 31
0.0
  0
LINE
  5
140
330
1F
100
AcDbEntity
  8
001
 62
     4
370
    50
100
AcDbLine
 10
61.090405
 20
127.703376
 30
0.0
 11
61.374166
 21
127.63563
 31
0.0
  0
LINE
  5
141
330
1F
100
AcDbEntity
  8
001
 62
     4
370
    50
100
AcDbLine
 10
61.501049
 20
127.605338
 30
0.0
 11
63.792376
 21
127.058296
 31
0.0
  0
LINE
  5
142
330
1F
100
AcDbEntity
  8
001
 62
     4
370
    50
100
AcDbLine
 10
62.600539
 20
132.333044
 30
0.0
 11
61.090405
 21
127.703376
 31
0.0
  0
LINE
  5
143
330
1F
100
AcDbEntity
  8
001
 62
     4
370
    50
100
AcDbLine
 10
57.270938
 20
126.687162
 30
0.0
 11
57.270938
 21
126.820082
 31
0.0
  0
LINE
  5
144
330
1F
100
AcDbEntity
  8
001
 62
     4
370
    50
100
AcDbLine
 10
57.270938
 20
126.820082
 30
0.0
 11
61.090405
 21
127.703376
 31
0.0
  0
LINE
  5
145
330
1F
100
AcDbEntity
  8
001
 62
     4
370
    50
100
AcDbLine
 10
63.792376
 20
127.058296
 30
0.0
 11
64.018285
 21
126.898183
 31
0.0
  0
LINE
  5
146
330
1F
100
AcDbEntity
  8
001
 62
     4
370
    50
100
AcDbLine
 10
64.559849
 20
131.865269
 30
0.0
 11
67.073175
 21
130.083949
 31
0.0
  0
LINE
  5
147
330
1F
100
AcDbEntity
  8
001
 62
     4
370
    50
100
AcDbLine
 10
56.4279
 20
130.905552
 30
0.0
 11
57.270938
 21
126.820082
 31
0.0
  0
LINE
  5
148
330
1F
100
AcDbEntity
  8
001
 62
     4
370
    50
100
AcDbLine
 10
56.4279
 20
130.905552
 30
0.0
 11
62.600539
 21
132.333044
 31
0.0
  0
LINE
  5
149
330
1F
100
AcDbEntity
  8
001
 62
     4
370
    50
100
AcDbLine
 10
56.4279
 20
129.984666
 30
0.0
 11
57.270938
 21
125.550141
 31
0.0
  0
LINE
  5
14A
330
1F
100
AcDbEntity
  8
001
 62
     4
370
    50
100
AcDbLine
 10
56.4279
 20
79.892729
 30
0.0
 11
62.600539
 21
75.025153
 31
0.0
  0
LINE
  5
14B
330
1F
100
AcDbEntity
  8
001
 62
     4
370
    50
100
AcDbLine
 10
62.600539
 20
75.025153
 30
0.0
 11
61.090405
 21
72.661652
 31
0.0
  0
LINE
  5
14C
330
1F
100
AcDbEntity
  8
001
 62
     4
370
    50
100
AcDbLine
 10
57.270938
 20
75.67358
 30
0.0
 11
61.090405
 21
72.661652
 31
0.0
  0
LINE
  5
14D
330
1F
100
AcDbEntity
  8
001
 62
     4
370
    50
100
AcDbLine
 10
56.4279
 20
79.892729
 30
0.0
 11
57.270938
 21
75.67358
 31
0.0
  0
LINE
  5
14E
330
1F
100
AcDbEntity
  8
001
 62
     4
370
    50
100
AcDbLine
 10
64.559849
 20
74.584854
 30
0.0
 11
70.732488
 21
76.678186
 31
0.0
  0
LINE
  5
14F
330
1F
100
AcDbEntity
  8
001
 62
     4
370
    50
100
AcDbLine
 10
62.600539
 20
75.025153
 30
0.0
 11
64.559849
 21
74.584854
 31
0.0
  0
LINE
  5
150
330
1F
100
AcDbEntity
  8
001
 62
     4
370
    50
100
AcDbLine
 10
56.4279
 20
80.997489
 30
0.0
 11
56.4279
 21
79.892729
 31
0.0
  0
LINE
  5
151
330
1F
100
AcDbEntity
  8
001
 62
     4
370
    50
100
AcDbLine
 10
62.600539
 20
83.090821
 30
0.0
 11
56.4279
 21
80.997489
 31
0.0
  0
LINE
  5
152
330
1F
100
AcDbEntity
  8
001
 62
     4
370
    50
100
AcDbLine
 10
64.559849
 20
82.650523
 30
0.0
 11
62.600539
 21
83.090821
 31
0.0
  0
LINE
  5
153
330
1F
100
AcDbEntity
  8
001
 62
     4
370
    50
100
AcDbLine
 10
70.732488
 20
77.782947
 30
0.0
 11
64.559849
 21
82.650523
 31
0.0
  0
LINE
  5
154
330
1F
100
AcDbEntity
  8
001
 62
     4
370
    50
100
AcDbLine
 10
70.732488
 20
76.678186
 30
0.0
 11
70.732488
 21
77.782947
 31
0.0
  0
POLYLINE
  5
155
330
1F
100
AcDbEntity
  8
001
 62
     4
370
    50
100
AcDb2dPolyline
 66
     1
 10
0.0
 20
0.0
 30
0.0
  0
VERTEX
  5
157
330
155
100
AcDbEntity
  8
001
 62
     4
370
    50
100
AcDbVertex
100
AcDb2dVertex
 10
63.580194
 20
77.203921
 30
0.0
  0
VERTEX
  5
158
330
155
100
AcDbEntity
  8
001
 62
     4
370
    50
100
AcDbVertex
100
AcDb2dVertex
 10
63.589637
 20
77.201812
 30
0.0
  0
VERTEX
  5
159
330
155
100
AcDbEntity
  8
001
 62
     4
370
    50
100
AcDbVertex
100
AcDb2dVertex
 10
63.603406
 20
77.198757
 30
0.0
  0
VERTEX
  5
15A
330
155
100
AcDbEntity
  8
001
 62
     4
370
    50
100
AcDbVertex
100
AcDb2dVertex
 10
64.132401
 20
77.106257
 30
0.0
  0
VERTEX
  5
15B
330
155
100
AcDbEntity
  8
001
 62
     4
370
    50
100
AcDbVertex
100
AcDb2dVertex
 10
64.593073
 20
77.079368
 30
0.0
  0
VERTEX
  5
15C
330
155
100
AcDbEntity
  8
001
 62
     4
370
    50
100
AcDbVertex
100
AcDb2dVertex
 10
65.207001
 20
77.119221
 30
0.0
  0
VERTEX
  5
15D
330
155
100
AcDbEntity
  8
001
 62
     4
370
    50
100
AcDbVertex
100
AcDb2dVertex
 10
65.81487
 20
77.295457
 30
0.0
  0
VERTEX
  5
15E
330
155
100
AcDbEntity
  8
001
 62
     4
370
    50
100
AcDbVertex
100
AcDb2dVertex
 10
65.963963
 20
77.374798
 30
0.0
  0
VERTEX
  5
15F
330
155
100
AcDbEntity
  8
001
 62
     4
370
    50
100
AcDbVertex
100
AcDb2dVertex
 10
66.101269
 20
77.465701
 30
0.0
  0
VERTEX
  5
160
330
155
100
AcDbEntity
  8
001
 62
     4
370
    50
100
AcDbVertex
100
AcDb2dVertex
 10
66.211554
 20
77.557856
 30
0.0
  0
VERTEX
  5
161
330
155
100
AcDbEntity
  8
001
 62
     4
370
    50
100
AcDbVertex
100
AcDb2dVertex
 10
66.311066
 20
77.677637
 30
0.0
  0
VERTEX
  5
162
330
155
100
AcDbEntity
  8
001
 62
     4
370
    50
100
AcDbVertex
100
AcDb2dVertex
 10
66.391274
 20
77.81746
 30
0.0
  0
VERTEX
  5
163
330
155
100
AcDbEntity
  8
001
 62
     4
370
    50
100
AcDbVertex
100
AcDb2dVertex
 10
66.437887
 20
77.924825
 30
0.0
  0
SEQEND
  5
156
330
155
100
AcDbEntity
  8
001
370
    50
  0
LINE
  5
164
330
1F
100
AcDbEntity
  8
001
 62
     4
370
    50
100
AcDbLine
 10
64.559849
 20
74.584854
 30
0.0
 11
63.792376
 21
72.054462
 31
0.0
  0
LINE
  5
165
330
1F
100
AcDbEntity
  8
001
 62
     4
370
    50
100
AcDbLine
 10
61.090405
 20
72.661652
 30
0.0
 11
63.792376
 21
72.054462
 31
0.0
  0
LINE
  5
166
330
1F
100
AcDbEntity
  8
001
 62
     4
370
    50
100
AcDbLine
 10
70.732488
 20
76.678186
 30
0.0
 11
69.868011
 21
75.756149
 31
0.0
  0
LINE
  5
167
330
1F
100
AcDbEntity
  8
001
 62
     4
370
    50
100
AcDbLine
 10
63.792376
 20
72.054462
 30
0.0
 11
64.018285
 21
72.131075
 31
0.0
  0
POLYLINE
  5
168
330
1F
100
AcDbEntity
  8
001
 62
     4
370
    50
100
AcDb2dPolyline
 66
     1
 10
0.0
 20
0.0
 30
0.0
  0
VERTEX
  5
16A
330
168
100
AcDbEntity
  8
001
 62
     4
370
    50
100
AcDbVertex
100
AcDb2dVertex
 10
60.722501
 20
79.75085
 30
0.0
  0
VERTEX
  5
16B
330
168
100
AcDbEntity
  8
001
 62
     4
370
    50
100
AcDbVertex
100
AcDb2dVertex
 10
60.698248
 20
79.63634
 30
0.0
  0
VERTEX
  5
16C
330
168
100
AcDbEntity
  8
001
 62
     4
370
    50
100
AcDbVertex
100
AcDb2dVertex
 10
60.68251
 20
79.47592
 30
0.0
  0
VERTEX
  5
16D
330
168
100
AcDbEntity
  8
001
 62
     4
370
    50
100
AcDbVertex
100
AcDb2dVertex
 10
60.694031
 20
79.320671
 30
0.0
  0
VERTEX
  5
16E
330
168
100
AcDbEntity
  8
001
 62
     4
370
    50
100
AcDbVertex
100
AcDb2dVertex
 10
60.730563
 20
79.181603
 30
0.0
  0
VERTEX
  5
16F
330
168
100
AcDbEntity
  8
001
 62
     4
370
    50
100
AcDbVertex
100
AcDb2dVertex
 10
60.790205
 20
79.027746
 30
0.0
  0
VERTEX
  5
170
330
168
100
AcDbEntity
  8
001
 62
     4
370
    50
100
AcDbVertex
100
AcDb2dVertex
 10
60.8652
 20
78.876841
 30
0.0
  0
VERTEX
  5
171
330
168
100
AcDbEntity
  8
001
 62
     4
370
    50
100
AcDbVertex
100
AcDb2dVertex
 10
61.244778
 20
78.385996
 30
0.0
  0
VERTEX
  5
172
330
168
100
AcDbEntity
  8
001
 62
     4
370
    50
100
AcDbVertex
100
AcDb2dVertex
 10
61.73538
 20
77.99238
 30
0.0
  0
VERTEX
  5
173
330
168
100
AcDbEntity
  8
001
 62
     4
370
    50
100
AcDbVertex
100
AcDb2dVertex
 10
62.17012
 20
77.730359
 30
0.0
  0
VERTEX
  5
174
330
168
100
AcDbEntity
  8
001
 62
     4
370
    50
100
AcDbVertex
100
AcDb2dVertex
 10
62.61094
 20
77.515843
 30
0.0
  0
VERTEX
  5
175
330
168
100
AcDbEntity
  8
001
 62
     4
370
    50
100
AcDbVertex
100
AcDb2dVertex
 10
62.84126
 20
77.422175
 30
0.0
  0
VERTEX
  5
176
330
168
100
AcDbEntity
  8
001
 62
     4
370
    50
100
AcDbVertex
100
AcDb2dVertex
 10
63.099876
 20
77.33446
 30
0.0
  0
VERTEX
  5
177
330
168
100
AcDbEntity
  8
001
 62
     4
370
    50
100
AcDbVertex
100
AcDb2dVertex
 10
63.377473
 20
77.255165
 30
0.0
  0
VERTEX
  5
178
330
168
100
AcDbEntity
  8
001
 62
     4
370
    50
100
AcDbVertex
100
AcDb2dVertex
 10
63.580194
 20
77.203921
 30
0.0
  0
SEQEND
  5
169
330
168
100
AcDbEntity
  8
001
370
    50
  0
POLYLINE
  5
179
330
1F
100
AcDbEntity
  8
001
 62
     4
370
    50
100
AcDb2dPolyline
 66
     1
 10
0.0
 20
0.0
 30
0.0
  0
VERTEX
  5
17B
330
179
100
AcDbEntity
  8
001
 62
     4
370
    50
100
AcDbVertex
100
AcDb2dVertex
 10
66.437887
 20
77.924825
 30
0.0
  0
VERTEX
  5
17C
330
179
100
AcDbEntity
  8
001
 62
     4
370
    50
100
AcDbVertex
100
AcDb2dVertex
 10
66.462143
 20
78.039335
 30
0.0
  0
VERTEX
  5
17D
330
179
100
AcDbEntity
  8
001
 62
     4
370
    50
100
AcDbVertex
100
AcDb2dVertex
 10
66.477879
 20
78.199755
 30
0.0
  0
VERTEX
  5
17E
330
179
100
AcDbEntity
  8
001
 62
     4
370
    50
100
AcDbVertex
100
AcDb2dVertex
 10
66.466339
 20
78.355008
 30
0.0
  0
VERTEX
  5
17F
330
179
100
AcDbEntity
  8
001
 62
     4
370
    50
100
AcDbVertex
100
AcDb2dVertex
 10
66.429826
 20
78.494072
 30
0.0
  0
VERTEX
  5
180
330
179
100
AcDbEntity
  8
001
 62
     4
370
    50
100
AcDbVertex
100
AcDb2dVertex
 10
66.370265
 20
78.647911
 30
0.0
  0
VERTEX
  5
181
330
179
100
AcDbEntity
  8
001
 62
     4
370
    50
100
AcDbVertex
100
AcDb2dVertex
 10
66.295188
 20
78.798835
 30
0.0
  0
VERTEX
  5
182
330
179
100
AcDbEntity
  8
001
 62
     4
370
    50
100
AcDbVertex
100
AcDb2dVertex
 10
65.913293
 20
79.290198
 30
0.0
  0
VERTEX
  5
183
330
179
100
AcDbEntity
  8
001
 62
     4
370
    50
100
AcDbVertex
100
AcDb2dVertex
 10
65.425009
 20
79.683295
 30
0.0
  0
VERTEX
  5
184
330
179
100
AcDbEntity
  8
001
 62
     4
370
    50
100
AcDbVertex
100
AcDb2dVertex
 10
64.997787
 20
79.943635
 30
0.0
  0
VERTEX
  5
185
330
179
100
AcDbEntity
  8
001
 62
     4
370
    50
100
AcDbVertex
100
AcDb2dVertex
 10
64.549449
 20
80.159833
 30
0.0
  0
VERTEX
  5
186
330
179
100
AcDbEntity
  8
001
 62
     4
370
    50
100
AcDbVertex
100
AcDb2dVertex
 10
64.307196
 20
80.256168
 30
0.0
  0
VERTEX
  5
187
330
179
100
AcDbEntity
  8
001
 62
     4
370
    50
100
AcDbVertex
100
AcDb2dVertex
 10
64.060513
 20
80.341215
 30
0.0
  0
VERTEX
  5
188
330
179
100
AcDbEntity
  8
001
 62
     4
370
    50
100
AcDbVertex
100
AcDb2dVertex
 10
63.810215
 20
80.41495
 30
0.0
  0
VERTEX
  5
189
330
179
100
AcDbEntity
  8
001
 62
     4
370
    50
100
AcDbVertex
100
AcDb2dVertex
 10
63.556982
 20
80.476919
 30
0.0
  0
VERTEX
  5
18A
330
179
100
AcDbEntity
  8
001
 62
     4
370
    50
100
AcDbVertex
100
AcDb2dVertex
 10
63.066343
 20
80.560717
 30
0.0
  0
VERTEX
  5
18B
330
179
100
AcDbEntity
  8
001
 62
     4
370
    50
100
AcDbVertex
100
AcDb2dVertex
 10
62.567316
 20
80.596307
 30
0.0
  0
VERTEX
  5
18C
330
179
100
AcDbEntity
  8
001
 62
     4
370
    50
100
AcDbVertex
100
AcDb2dVertex
 10
61.941564
 20
80.559136
 30
0.0
  0
VERTEX
  5
18D
330
179
100
AcDbEntity
  8
001
 62
     4
370
    50
100
AcDbVertex
100
AcDb2dVertex
 10
61.345519
 20
80.380218
 30
0.0
  0
VERTEX
  5
18E
330
179
100
AcDbEntity
  8
001
 62
     4
370
    50
100
AcDbVertex
100
AcDb2dVertex
 10
61.196843
 20
80.300782
 30
0.0
  0
VERTEX
  5
18F
330
179
100
AcDbEntity
  8
001
 62
     4
370
    50
100
AcDbVertex
100
AcDb2dVertex
 10
61.05912
 20
80.209974
 30
0.0
  0
VERTEX
  5
190
330
179
100
AcDbEntity
  8
001
 62
     4
370
    50
100
AcDbVertex
100
AcDb2dVertex
 10
60.948741
 20
80.117841
 30
0.0
  0
VERTEX
  5
191
330
179
100
AcDbEntity
  8
001
 62
     4
370
    50
100
AcDbVertex
100
AcDb2dVertex
 10
60.849323
 20
79.998038
 30
0.0
  0
VERTEX
  5
192
330
179
100
AcDbEntity
  8
001
 62
     4
370
    50
100
AcDbVertex
100
AcDb2dVertex
 10
60.769131
 20
79.858212
 30
0.0
  0
VERTEX
  5
193
330
179
100
AcDbEntity
  8
001
 62
     4
370
    50
100
AcDbVertex
100
AcDb2dVertex
 10
60.722501
 20
79.75085
 30
0.0
  0
SEQEND
  5
17A
330
179
100
AcDbEntity
  8
001
370
    50
  0
LINE
  5
194
330
1F
100
AcDbEntity
  8
001
 62
   200
370
    50
100
AcDbLine
 10
74.9279
 20
82.870147
 30
0.0
 11
61.260946
 21
85.9414
 31
0.0
  0
LINE
  5
195
330
1F
100
AcDbEntity
  8
001
 62
   200
370
    50
100
AcDbLine
 10
74.9279
 20
74.853188
 30
0.0
 11
71.9279
 21
73.914136
 31
0.0
  0
LINE
  5
196
330
1F
100
AcDbEntity
  8
001
 62
   200
370
    50
100
AcDbLine
 10
71.9279
 20
73.914136
 30
0.0
 11
66.562609
 21
75.160865
 31
0.0
  0
POLYLINE
  5
197
330
1F
100
AcDbEntity
  8
001
 62
   200
370
    50
100
AcDb2dPolyline
 66
     1
 10
0.0
 20
0.0
 30
0.0
  0
VERTEX
  5
199
330
197
100
AcDbEntity
  8
001
 62
   200
370
    50
100
AcDbVertex
100
AcDb2dVertex
 10
71.556576
 20
76.600897
 30
0.0
  0
VERTEX
  5
19A
330
197
100
AcDbEntity
  8
001
 62
   200
370
    50
100
AcDbVertex
100
AcDb2dVertex
 10
71.580826
 20
76.715408
 30
0.0
  0
VERTEX
  5
19B
330
197
100
AcDbEntity
  8
001
 62
   200
370
    50
100
AcDbVertex
100
AcDb2dVertex
 10
71.596567
 20
76.875826
 30
0.0
  0
VERTEX
  5
19C
330
197
100
AcDbEntity
  8
001
 62
   200
370
    50
100
AcDbVertex
100
AcDb2dVertex
 10
71.585058
 20
77.03107
 30
0.0
  0
VERTEX
  5
19D
330
197
100
AcDbEntity
  8
001
 62
   200
370
    50
100
AcDbVertex
100
AcDb2dVertex
 10
71.548514
 20
77.170144
 30
0.0
  0
VERTEX
  5
19E
330
197
100
AcDbEntity
  8
001
 62
   200
370
    50
100
AcDbVertex
100
AcDb2dVertex
 10
71.488815
 20
77.324026
 30
0.0
  0
VERTEX
  5
19F
330
197
100
AcDbEntity
  8
001
 62
   200
370
    50
100
AcDbVertex
100
AcDb2dVertex
 10
71.413877
 20
77.474906
 30
0.0
  0
VERTEX
  5
1A0
330
197
100
AcDbEntity
  8
001
 62
   200
370
    50
100
AcDbVertex
100
AcDb2dVertex
 10
71.035895
 20
77.965035
 30
0.0
  0
VERTEX
  5
1A1
330
197
100
AcDbEntity
  8
001
 62
   200
370
    50
100
AcDbVertex
100
AcDb2dVertex
 10
70.543697
 20
78.359366
 30
0.0
  0
VERTEX
  5
1A2
330
197
100
AcDbEntity
  8
001
 62
   200
370
    50
100
AcDbVertex
100
AcDb2dVertex
 10
70.103777
 20
78.623711
 30
0.0
  0
VERTEX
  5
1A3
330
197
100
AcDbEntity
  8
001
 62
   200
370
    50
100
AcDbVertex
100
AcDb2dVertex
 10
69.668137
 20
78.835904
 30
0.0
  0
VERTEX
  5
1A4
330
197
100
AcDbEntity
  8
001
 62
   200
370
    50
100
AcDbVertex
100
AcDb2dVertex
 10
69.446038
 20
78.925884
 30
0.0
  0
VERTEX
  5
1A5
330
197
100
AcDbEntity
  8
001
 62
   200
370
    50
100
AcDbVertex
100
AcDb2dVertex
 10
69.179201
 20
79.017287
 30
0.0
  0
VERTEX
  5
1A6
330
197
100
AcDbEntity
  8
001
 62
   200
370
    50
100
AcDbVertex
100
AcDb2dVertex
 10
69.167301
 20
79.021071
 30
0.0
  0
VERTEX
  5
1A7
330
197
100
AcDbEntity
  8
001
 62
   200
370
    50
100
AcDbVertex
100
AcDb2dVertex
 10
69.159121
 20
79.023661
 30
0.0
  0
SEQEND
  5
198
330
197
100
AcDbEntity
  8
001
370
    50
  0
LINE
  5
1A8
330
1F
100
AcDbEntity
  8
001
 62
   200
370
    50
100
AcDbLine
 10
64.126907
 20
82.747814
 30
0.0
 11
59.9279
 21
86.059037
 31
0.0
  0
LINE
  5
1A9
330
1F
100
AcDbEntity
  8
001
 62
   200
370
    50
100
AcDbLine
 10
68.689413
 20
75.882129
 30
0.0
 11
66.562609
 21
75.160865
 31
0.0
  0
LINE
  5
1AA
330
1F
100
AcDbEntity
  8
001
 62
   200
370
    50
100
AcDbLine
 10
71.9279
 20
72.579145
 30
0.0
 11
64.239397
 21
72.579145
 31
0.0
  0
LINE
  5
1AB
330
1F
100
AcDbEntity
  8
001
 62
   200
370
    50
100
AcDbLine
 10
71.9279
 20
73.914136
 30
0.0
 11
71.9279
 21
72.579145
 31
0.0
  0
LINE
  5
1AC
330
1F
100
AcDbEntity
  8
001
 62
   200
370
    50
100
AcDbLine
 10
64.239397
 20
72.579145
 30
0.0
 11
66.562609
 21
75.160865
 31
0.0
  0
POLYLINE
  5
1AD
330
1F
100
AcDbEntity
  8
001
 62
   200
370
    50
100
AcDb2dPolyline
 66
     1
 10
0.0
 20
0.0
 30
0.0
  0
VERTEX
  5
1AF
330
1AD
100
AcDbEntity
  8
001
 62
   200
370
    50
100
AcDbVertex
100
AcDb2dVertex
 10
71.9279
 20
72.579145
 30
0.0
  0
VERTEX
  5
1B0
330
1AD
100
AcDbEntity
  8
001
 62
   200
370
    50
100
AcDbVertex
100
AcDb2dVertex
 10
72.744937
 20
71.357142
 30
0.0
  0
VERTEX
  5
1B1
330
1AD
100
AcDbEntity
  8
001
 62
   200
370
    50
100
AcDbVertex
100
AcDb2dVertex
 10
74.128638
 20
69.728103
 30
0.0
  0
VERTEX
  5
1B2
330
1AD
100
AcDbEntity
  8
001
 62
   200
370
    50
100
AcDbVertex
100
AcDb2dVertex
 10
74.596723
 20
69.282545
 30
0.0
  0
VERTEX
  5
1B3
330
1AD
100
AcDbEntity
  8
001
 62
   200
370
    50
100
AcDbVertex
100
AcDb2dVertex
 10
74.9279
 20
68.988855
 30
0.0
  0
SEQEND
  5
1AE
330
1AD
100
AcDbEntity
  8
001
370
    50
  0
LINE
  5
1B4
330
1F
100
AcDbEntity
  8
001
 62
   200
370
    50
100
AcDbLine
 10
61.445474
 20
72.579145
 30
0.0
 11
61.381028
 21
72.579145
 31
0.0
  0
LINE
  5
1B5
330
1F
100
AcDbEntity
  8
001
 62
   200
370
    50
100
AcDbLine
 10
61.378068
 20
72.594808
 30
0.0
 11
61.381028
 21
72.579145
 31
0.0
  0
LINE
  5
1B6
330
1F
100
AcDbEntity
  8
001
 62
   200
370
    50
100
AcDbLine
 10
61.445474
 20
72.579145
 30
0.0
 11
61.378068
 21
72.594808
 31
0.0
  0
POLYLINE
  5
1B7
330
1F
100
AcDbEntity
  8
001
 62
   200
370
    50
100
AcDb2dPolyline
 66
     1
 10
0.0
 20
0.0
 30
0.0
  0
VERTEX
  5
1B9
330
1B7
100
AcDbEntity
  8
001
 62
   200
370
    50
100
AcDbVertex
100
AcDb2dVertex
 10
61.445474
 20
72.579145
 30
0.0
  0
VERTEX
  5
1BA
330
1B7
100
AcDbEntity
  8
001
 62
   200
370
    50
100
AcDbVertex
100
AcDb2dVertex
 10
61.456763
 20
72.577159
 30
0.0
  0
VERTEX
  5
1BB
330
1B7
100
AcDbEntity
  8
001
 62
   200
370
    50
100
AcDbVertex
100
AcDb2dVertex
 10
61.473262
 20
72.574258
 30
0.0
  0
VERTEX
  5
1BC
330
1B7
100
AcDbEntity
  8
001
 62
   200
370
    50
100
AcDbVertex
100
AcDb2dVertex
 10
61.48976
 20
72.571356
 30
0.0
  0
VERTEX
  5
1BD
330
1B7
100
AcDbEntity
  8
001
 62
   200
370
    50
100
AcDbVertex
100
AcDb2dVertex
 10
61.501049
 20
72.569372
 30
0.0
  0
SEQEND
  5
1B8
330
1B7
100
AcDbEntity
  8
001
370
    50
  0
LINE
  5
1BE
330
1F
100
AcDbEntity
  8
001
 62
   200
370
    50
100
AcDbLine
 10
61.374163
 20
72.597884
 30
0.0
 11
61.378068
 21
72.594808
 31
0.0
  0
POLYLINE
  5
1BF
330
1F
100
AcDbEntity
  8
001
 62
   200
370
    50
100
AcDb2dPolyline
 66
     1
 10
0.0
 20
0.0
 30
0.0
  0
VERTEX
  5
1C1
330
1BF
100
AcDbEntity
  8
001
 62
   200
370
    50
100
AcDbVertex
100
AcDb2dVertex
 10
58.603921
 20
66.25498
 30
0.0
  0
VERTEX
  5
1C2
330
1BF
100
AcDbEntity
  8
001
 62
   200
370
    50
100
AcDbVertex
100
AcDb2dVertex
 10
58.232643
 20
67.246046
 30
0.0
  0
VERTEX
  5
1C3
330
1BF
100
AcDbEntity
  8
001
 62
   200
370
    50
100
AcDbVertex
100
AcDb2dVertex
 10
57.884572
 20
68.244691
 30
0.0
  0
VERTEX
  5
1C4
330
1BF
100
AcDbEntity
  8
001
 62
   200
370
    50
100
AcDbVertex
100
AcDb2dVertex
 10
57.565349
 20
69.290548
 30
0.0
  0
VERTEX
  5
1C5
330
1BF
100
AcDbEntity
  8
001
 62
   200
370
    50
100
AcDbVertex
100
AcDb2dVertex
 10
57.270938
 20
70.344506
 30
0.0
  0
SEQEND
  5
1C0
330
1BF
100
AcDbEntity
  8
001
370
    50
  0
LINE
  5
1C6
330
1F
100
AcDbEntity
  8
001
 62
   200
370
    50
100
AcDbLine
 10
57.270938
 20
70.344506
 30
0.0
 11
57.270938
 21
75.67358
 31
0.0
  0
POLYLINE
  5
1C7
330
1F
100
AcDbEntity
  8
001
 62
   200
370
    50
100
AcDb2dPolyline
 66
     1
 10
0.0
 20
0.0
 30
0.0
  0
VERTEX
  5
1C9
330
1C7
100
AcDbEntity
  8
001
 62
   200
370
    50
100
AcDbVertex
100
AcDb2dVertex
 10
61.381028
 20
72.579145
 30
0.0
  0
VERTEX
  5
1CA
330
1C7
100
AcDbEntity
  8
001
 62
   200
370
    50
100
AcDbVertex
100
AcDb2dVertex
 10
61.143872
 20
71.825016
 30
0.0
  0
VERTEX
  5
1CB
330
1C7
100
AcDbEntity
  8
001
 62
   200
370
    50
100
AcDbVertex
100
AcDb2dVertex
 10
60.897668
 20
71.073893
 30
0.0
  0
VERTEX
  5
1CC
330
1C7
100
AcDbEntity
  8
001
 62
   200
370
    50
100
AcDbVertex
100
AcDb2dVertex
 10
60.659764
 20
70.396733
 30
0.0
  0
VERTEX
  5
1CD
330
1C7
100
AcDbEntity
  8
001
 62
   200
370
    50
100
AcDbVertex
100
AcDb2dVertex
 10
60.406616
 20
69.725037
 30
0.0
  0
VERTEX
  5
1CE
330
1C7
100
AcDbEntity
  8
001
 62
   200
370
    50
100
AcDbVertex
100
AcDb2dVertex
 10
60.161167
 20
69.116823
 30
0.0
  0
VERTEX
  5
1CF
330
1C7
100
AcDbEntity
  8
001
 62
   200
370
    50
100
AcDbVertex
100
AcDb2dVertex
 10
59.899151
 20
68.515667
 30
0.0
  0
VERTEX
  5
1D0
330
1C7
100
AcDbEntity
  8
001
 62
   200
370
    50
100
AcDbVertex
100
AcDb2dVertex
 10
59.652691
 20
67.995329
 30
0.0
  0
VERTEX
  5
1D1
330
1C7
100
AcDbEntity
  8
001
 62
   200
370
    50
100
AcDbVertex
100
AcDb2dVertex
 10
59.388697
 20
67.483492
 30
0.0
  0
VERTEX
  5
1D2
330
1C7
100
AcDbEntity
  8
001
 62
   200
370
    50
100
AcDbVertex
100
AcDb2dVertex
 10
59.199397
 20
67.145039
 30
0.0
  0
VERTEX
  5
1D3
330
1C7
100
AcDbEntity
  8
001
 62
   200
370
    50
100
AcDbVertex
100
AcDb2dVertex
 10
58.996377
 20
66.814968
 30
0.0
  0
VERTEX
  5
1D4
330
1C7
100
AcDbEntity
  8
001
 62
   200
370
    50
100
AcDbVertex
100
AcDb2dVertex
 10
58.803765
 20
66.53259
 30
0.0
  0
VERTEX
  5
1D5
330
1C7
100
AcDbEntity
  8
001
 62
   200
370
    50
100
AcDbVertex
100
AcDb2dVertex
 10
58.603921
 20
66.25498
 30
0.0
  0
SEQEND
  5
1C8
330
1C7
100
AcDbEntity
  8
001
370
    50
  0
LINE
  5
1D6
330
1F
100
AcDbEntity
  8
001
 62
   200
370
    50
100
AcDbLine
 10
74.9279
 20
65.427988
 30
0.0
 11
59.9279
 21
65.427988
 31
0.0
  0
POLYLINE
  5
1D7
330
1F
100
AcDbEntity
  8
001
 62
   200
370
    50
100
AcDb2dPolyline
 66
     1
 10
0.0
 20
0.0
 30
0.0
  0
VERTEX
  5
1D9
330
1D7
100
AcDbEntity
  8
001
 62
   200
370
    50
100
AcDbVertex
100
AcDb2dVertex
 10
58.603921
 20
66.25498
 30
0.0
  0
VERTEX
  5
1DA
330
1D7
100
AcDbEntity
  8
001
 62
   200
370
    50
100
AcDbVertex
100
AcDb2dVertex
 10
58.86833
 20
66.159847
 30
0.0
  0
VERTEX
  5
1DB
330
1D7
100
AcDbEntity
  8
001
 62
   200
370
    50
100
AcDbVertex
100
AcDb2dVertex
 10
59.257333
 20
66.028366
 30
0.0
  0
VERTEX
  5
1DC
330
1D7
100
AcDbEntity
  8
001
 62
   200
370
    50
100
AcDbVertex
100
AcDb2dVertex
 10
59.654524
 20
65.905947
 30
0.0
  0
VERTEX
  5
1DD
330
1D7
100
AcDbEntity
  8
001
 62
   200
370
    50
100
AcDbVertex
100
AcDb2dVertex
 10
59.9279
 20
65.827424
 30
0.0
  0
SEQEND
  5
1D8
330
1D7
100
AcDbEntity
  8
001
370
    50
  0
POLYLINE
  5
1DE
330
1F
100
AcDbEntity
  8
001
 62
   200
370
    50
100
AcDb2dPolyline
 66
     1
 10
0.0
 20
0.0
 30
0.0
  0
VERTEX
  5
1E0
330
1DE
100
AcDbEntity
  8
001
 62
   200
370
    50
100
AcDbVertex
100
AcDb2dVertex
 10
64.239397
 20
72.579145
 30
0.0
  0
VERTEX
  5
1E1
330
1DE
100
AcDbEntity
  8
001
 62
   200
370
    50
100
AcDbVertex
100
AcDb2dVertex
 10
64.193116
 20
72.487666
 30
0.0
  0
VERTEX
  5
1E2
330
1DE
100
AcDbEntity
  8
001
 62
   200
370
    50
100
AcDbVertex
100
AcDb2dVertex
 10
64.126262
 20
72.353573
 30
0.0
  0
VERTEX
  5
1E3
330
1DE
100
AcDbEntity
  8
001
 62
   200
370
    50
100
AcDbVertex
100
AcDb2dVertex
 10
64.06183
 20
72.221621
 30
0.0
  0
VERTEX
  5
1E4
330
1DE
100
AcDbEntity
  8
001
 62
   200
370
    50
100
AcDbVertex
100
AcDb2dVertex
 10
64.018285
 20
72.131075
 30
0.0
  0
SEQEND
  5
1DF
330
1DE
100
AcDbEntity
  8
001
370
    50
  0
POLYLINE
  5
1E5
330
1F
100
AcDbEntity
  8
001
 62
   200
370
    50
100
AcDb2dPolyline
 66
     1
 10
0.0
 20
0.0
 30
0.0
  0
VERTEX
  5
1E7
330
1E5
100
AcDbEntity
  8
001
 62
   200
370
    50
100
AcDbVertex
100
AcDb2dVertex
 10
68.689413
 20
75.882129
 30
0.0
  0
VERTEX
  5
1E8
330
1E5
100
AcDbEntity
  8
001
 62
   200
370
    50
100
AcDbVertex
100
AcDb2dVertex
 10
68.702715
 20
75.879141
 30
0.0
  0
VERTEX
  5
1E9
330
1E5
100
AcDbEntity
  8
001
 62
   200
370
    50
100
AcDbVertex
100
AcDb2dVertex
 10
68.722095
 20
75.874828
 30
0.0
  0
VERTEX
  5
1EA
330
1E5
100
AcDbEntity
  8
001
 62
   200
370
    50
100
AcDbVertex
100
AcDb2dVertex
 10
69.250762
 20
75.782334
 30
0.0
  0
VERTEX
  5
1EB
330
1E5
100
AcDbEntity
  8
001
 62
   200
370
    50
100
AcDbVertex
100
AcDb2dVertex
 10
69.711761
 20
75.75544
 30
0.0
  0
VERTEX
  5
1EC
330
1E5
100
AcDbEntity
  8
001
 62
   200
370
    50
100
AcDbVertex
100
AcDb2dVertex
 10
70.32579
 20
75.795291
 30
0.0
  0
VERTEX
  5
1ED
330
1E5
100
AcDbEntity
  8
001
 62
   200
370
    50
100
AcDbVertex
100
AcDb2dVertex
 10
70.933558
 20
75.971529
 30
0.0
  0
VERTEX
  5
1EE
330
1E5
100
AcDbEntity
  8
001
 62
   200
370
    50
100
AcDbVertex
100
AcDb2dVertex
 10
71.082648
 20
76.05087
 30
0.0
  0
VERTEX
  5
1EF
330
1E5
100
AcDbEntity
  8
001
 62
   200
370
    50
100
AcDbVertex
100
AcDb2dVertex
 10
71.219957
 20
76.141773
 30
0.0
  0
VERTEX
  5
1F0
330
1E5
100
AcDbEntity
  8
001
 62
   200
370
    50
100
AcDbVertex
100
AcDb2dVertex
 10
71.330243
 20
76.233927
 30
0.0
  0
VERTEX
  5
1F1
330
1E5
100
AcDbEntity
  8
001
 62
   200
370
    50
100
AcDbVertex
100
AcDb2dVertex
 10
71.429754
 20
76.353709
 30
0.0
  0
VERTEX
  5
1F2
330
1E5
100
AcDbEntity
  8
001
 62
   200
370
    50
100
AcDbVertex
100
AcDb2dVertex
 10
71.509963
 20
76.493532
 30
0.0
  0
VERTEX
  5
1F3
330
1E5
100
AcDbEntity
  8
001
 62
   200
370
    50
100
AcDbVertex
100
AcDb2dVertex
 10
71.556576
 20
76.600897
 30
0.0
  0
SEQEND
  5
1E6
330
1E5
100
AcDbEntity
  8
001
370
    50
  0
LINE
  5
1F4
330
1F
100
AcDbEntity
  8
001
 62
   200
370
    50
100
AcDbLine
 10
59.9279
 20
82.184447
 30
0.0
 11
59.9279
 21
86.365679
 31
0.0
  0
LINE
  5
1F5
330
1F
100
AcDbEntity
  8
001
 62
   200
370
    50
100
AcDbLine
 10
57.270938
 20
85.340077
 30
0.0
 11
57.270938
 21
91.902968
 31
0.0
  0
POLYLINE
  5
1F6
330
1F
100
AcDbEntity
  8
001
 62
   200
370
    50
100
AcDb2dPolyline
 66
     1
 10
0.0
 20
0.0
 30
0.0
  0
VERTEX
  5
1F8
330
1F6
100
AcDbEntity
  8
001
 62
   200
370
    50
100
AcDbVertex
100
AcDb2dVertex
 10
58.603921
 20
97.389302
 30
0.0
  0
VERTEX
  5
1F9
330
1F6
100
AcDbEntity
  8
001
 62
   200
370
    50
100
AcDbVertex
100
AcDb2dVertex
 10
58.234818
 20
96.019841
 30
0.0
  0
VERTEX
  5
1FA
330
1F6
100
AcDbEntity
  8
001
 62
   200
370
    50
100
AcDbVertex
100
AcDb2dVertex
 10
57.884572
 20
94.645799
 30
0.0
  0
VERTEX
  5
1FB
330
1F6
100
AcDbEntity
  8
001
 62
   200
370
    50
100
AcDbVertex
100
AcDb2dVertex
 10
57.568496
 20
93.276632
 30
0.0
  0
VERTEX
  5
1FC
330
1F6
100
AcDbEntity
  8
001
 62
   200
370
    50
100
AcDbVertex
100
AcDb2dVertex
 10
57.270938
 20
91.902968
 30
0.0
  0
SEQEND
  5
1F7
330
1F6
100
AcDbEntity
  8
001
370
    50
  0
POLYLINE
  5
1FD
330
1F
100
AcDbEntity
  8
001
 62
   200
370
    50
100
AcDb2dPolyline
 66
     1
 10
0.0
 20
0.0
 30
0.0
  0
VERTEX
  5
1FF
330
1FD
100
AcDbEntity
  8
001
 62
   200
370
    50
100
AcDbVertex
100
AcDb2dVertex
 10
59.9279
 20
99.20423
 30
0.0
  0
VERTEX
  5
200
330
1FD
100
AcDbEntity
  8
001
 62
   200
370
    50
100
AcDbVertex
100
AcDb2dVertex
 10
59.775205
 20
99.001055
 30
0.0
  0
VERTEX
  5
201
330
1FD
100
AcDbEntity
  8
001
 62
   200
370
    50
100
AcDbVertex
100
AcDb2dVertex
 10
59.553263
 20
98.703195
 30
0.0
  0
VERTEX
  5
202
330
1FD
100
AcDbEntity
  8
001
 62
   200
370
    50
100
AcDbVertex
100
AcDb2dVertex
 10
58.9862
 20
97.925538
 30
0.0
  0
VERTEX
  5
203
330
1FD
100
AcDbEntity
  8
001
 62
   200
370
    50
100
AcDbVertex
100
AcDb2dVertex
 10
58.603921
 20
97.389302
 30
0.0
  0
SEQEND
  5
1FE
330
1FD
100
AcDbEntity
  8
001
370
    50
  0
LINE
  5
204
330
1F
100
AcDbEntity
  8
001
 62
   200
370
    50
100
AcDbLine
 10
57.270938
 20
133.851122
 30
0.0
 11
59.9279
 21
132.950064
 31
0.0
  0
LINE
  5
205
330
1F
100
AcDbEntity
  8
001
 62
   200
370
    50
100
AcDbLine
 10
57.270938
 20
133.851122
 30
0.0
 11
57.270938
 21
140.545712
 31
0.0
  0
POLYLINE
  5
206
330
1F
100
AcDbEntity
  8
001
 62
   200
370
    50
100
AcDb2dPolyline
 66
     1
 10
0.0
 20
0.0
 30
0.0
  0
VERTEX
  5
208
330
206
100
AcDbEntity
  8
001
 62
   200
370
    50
100
AcDbVertex
100
AcDb2dVertex
 10
58.603921
 20
144.635238
 30
0.0
  0
VERTEX
  5
209
330
206
100
AcDbEntity
  8
001
 62
   200
370
    50
100
AcDbVertex
100
AcDb2dVertex
 10
58.232643
 20
143.644172
 30
0.0
  0
VERTEX
  5
20A
330
206
100
AcDbEntity
  8
001
 62
   200
370
    50
100
AcDbVertex
100
AcDb2dVertex
 10
57.884572
 20
142.645527
 30
0.0
  0
VERTEX
  5
20B
330
206
100
AcDbEntity
  8
001
 62
   200
370
    50
100
AcDbVertex
100
AcDb2dVertex
 10
57.565349
 20
141.59967
 30
0.0
  0
VERTEX
  5
20C
330
206
100
AcDbEntity
  8
001
 62
   200
370
    50
100
AcDbVertex
100
AcDb2dVertex
 10
57.270938
 20
140.545712
 30
0.0
  0
SEQEND
  5
207
330
206
100
AcDbEntity
  8
001
370
    50
  0
POLYLINE
  5
20D
330
1F
100
AcDbEntity
  8
001
 62
   200
370
    50
100
AcDb2dPolyline
 66
     1
 10
0.0
 20
0.0
 30
0.0
  0
VERTEX
  5
20F
330
20D
100
AcDbEntity
  8
001
 62
   200
370
    50
100
AcDbVertex
100
AcDb2dVertex
 10
59.9279
 20
145.062794
 30
0.0
  0
VERTEX
  5
210
330
20D
100
AcDbEntity
  8
001
 62
   200
370
    50
100
AcDbVertex
100
AcDb2dVertex
 10
59.654524
 20
144.984271
 30
0.0
  0
VERTEX
  5
211
330
20D
100
AcDbEntity
  8
001
 62
   200
370
    50
100
AcDbVertex
100
AcDb2dVertex
 10
59.257333
 20
144.861852
 30
0.0
  0
VERTEX
  5
212
330
20D
100
AcDbEntity
  8
001
 62
   200
370
    50
100
AcDbVertex
100
AcDb2dVertex
 10
58.86833
 20
144.730371
 30
0.0
  0
VERTEX
  5
213
330
20D
100
AcDbEntity
  8
001
 62
   200
370
    50
100
AcDbVertex
100
AcDb2dVertex
 10
58.603921
 20
144.635238
 30
0.0
  0
SEQEND
  5
20E
330
20D
100
AcDbEntity
  8
001
370
    50
  0
LINE
  5
214
330
1F
100
AcDbEntity
  8
001
 62
     4
370
    50
100
AcDbLine
 10
59.9279
 20
132.79207
 30
0.0
 11
57.270938
 21
133.693127
 31
0.0
  0
LINE
  5
215
330
1F
100
AcDbEntity
  8
001
 62
     4
370
    50
100
AcDbLine
 10
57.270938
 20
133.693127
 30
0.0
 11
57.270938
 21
133.851122
 31
0.0
  0
LINE
  5
216
330
1F
100
AcDbEntity
  8
001
 62
     4
370
    50
100
AcDbLine
 10
56.446583
 20
129.886393
 30
0.0
 11
56.4279
 21
129.892729
 31
0.0
  0
LINE
  5
217
330
1F
100
AcDbEntity
  8
001
 62
     4
370
    50
100
AcDbLine
 10
56.4279
 20
129.892729
 30
0.0
 11
56.437312
 21
129.935157
 31
0.0
  0
LINE
  5
218
330
1F
100
AcDbEntity
  8
001
 62
     4
370
    50
100
AcDbLine
 10
56.664723
 20
130.96032
 30
0.0
 11
57.270938
 21
133.693127
 31
0.0
  0
LINE
  5
219
330
1F
100
AcDbEntity
  8
001
 62
     4
370
    50
100
AcDbLine
 10
56.4279
 20
130.997489
 30
0.0
 11
57.270938
 21
135.216638
 31
0.0
  0
LINE
  5
21A
330
1F
100
AcDbEntity
  8
001
 62
     4
370
    50
100
AcDbLine
 10
56.4279
 20
129.892729
 30
0.0
 11
56.4279
 21
130.997489
 31
0.0
  0
LINE
  5
21B
330
1F
100
AcDbEntity
  8
001
 62
     4
370
    50
100
AcDbLine
 10
59.9279
 20
83.386177
 30
0.0
 11
56.676634
 21
81.081843
 31
0.0
  0
LINE
  5
21C
330
1F
100
AcDbEntity
  8
001
 62
     4
370
    50
100
AcDbLine
 10
56.446583
 20
81.003825
 30
0.0
 11
57.270938
 21
85.340077
 31
0.0
  0
LINE
  5
21D
330
1F
100
AcDbEntity
  8
001
 62
     4
370
    50
100
AcDbLine
 10
59.9279
 20
87.223199
 30
0.0
 11
57.270938
 21
85.340077
 31
0.0
  0
LINE
  5
21E
330
1F
100
AcDbEntity
  8
001
 62
     4
370
    50
100
AcDbLine
 10
64.559849
 20
48.164694
 30
0.0
 11
70.732488
 21
54.632884
 31
0.0
  0
LINE
  5
21F
330
1F
100
AcDbEntity
  8
001
 62
     4
370
    50
100
AcDbLine
 10
62.600539
 20
48.137218
 30
0.0
 11
64.559849
 21
48.164694
 31
0.0
  0
LINE
  5
220
330
1F
100
AcDbEntity
  8
001
 62
     4
370
    50
100
AcDbLine
 10
56.4279
 20
54.432285
 30
0.0
 11
62.600539
 21
48.137218
 31
0.0
  0
LINE
  5
221
330
1F
100
AcDbEntity
  8
001
 62
     4
370
    50
100
AcDbLine
 10
62.600539
 20
62.926122
 30
0.0
 11
56.4279
 21
56.457933
 31
0.0
  0
LINE
  5
222
330
1F
100
AcDbEntity
  8
001
 62
     4
370
    50
100
AcDbLine
 10
64.559849
 20
62.953598
 30
0.0
 11
62.600539
 21
62.926122
 31
0.0
  0
LINE
  5
223
330
1F
100
AcDbEntity
  8
001
 62
     4
370
    50
100
AcDbLine
 10
70.732488
 20
56.658531
 30
0.0
 11
64.559849
 21
62.953598
 31
0.0
  0
LINE
  5
224
330
1F
100
AcDbEntity
  8
001
 62
     4
370
    50
100
AcDbLine
 10
70.732488
 20
54.632884
 30
0.0
 11
70.732488
 21
56.658531
 31
0.0
  0
POLYLINE
  5
225
330
1F
100
AcDbEntity
  8
001
 62
     4
370
    50
100
AcDb2dPolyline
 66
     1
 10
0.0
 20
0.0
 30
0.0
  0
VERTEX
  5
227
330
225
100
AcDbEntity
  8
001
 62
     4
370
    50
100
AcDbVertex
100
AcDb2dVertex
 10
63.580194
 20
52.54952
 30
0.0
  0
VERTEX
  5
228
330
225
100
AcDbEntity
  8
001
 62
     4
370
    50
100
AcDbVertex
100
AcDb2dVertex
 10
63.761326
 20
52.560447
 30
0.0
  0
VERTEX
  5
229
330
225
100
AcDbEntity
  8
001
 62
     4
370
    50
100
AcDbVertex
100
AcDb2dVertex
 10
64.011167
 20
52.588882
 30
0.0
  0
VERTEX
  5
22A
330
225
100
AcDbEntity
  8
001
 62
     4
370
    50
100
AcDbVertex
100
AcDb2dVertex
 10
64.272472
 20
52.64254
 30
0.0
  0
VERTEX
  5
22B
330
225
100
AcDbEntity
  8
001
 62
     4
370
    50
100
AcDbVertex
100
AcDb2dVertex
 10
64.502217
 20
52.718148
 30
0.0
  0
VERTEX
  5
22C
330
225
100
AcDbEntity
  8
001
 62
     4
370
    50
100
AcDbVertex
100
AcDb2dVertex
 10
65.169434
 20
53.073797
 30
0.0
  0
VERTEX
  5
22D
330
225
100
AcDbEntity
  8
001
 62
     4
370
    50
100
AcDbVertex
100
AcDb2dVertex
 10
65.752278
 20
53.592811
 30
0.0
  0
VERTEX
  5
22E
330
225
100
AcDbEntity
  8
001
 62
     4
370
    50
100
AcDbVertex
100
AcDb2dVertex
 10
66.055465
 20
54.018621
 30
0.0
  0
VERTEX
  5
22F
330
225
100
AcDbEntity
  8
001
 62
     4
370
    50
100
AcDbVertex
100
AcDb2dVertex
 10
66.27732
 20
54.487816
 30
0.0
  0
VERTEX
  5
230
330
225
100
AcDbEntity
  8
001
 62
     4
370
    50
100
AcDbVertex
100
AcDb2dVertex
 10
66.359219
 20
54.73631
 30
0.0
  0
VERTEX
  5
231
330
225
100
AcDbEntity
  8
001
 62
     4
370
    50
100
AcDbVertex
100
AcDb2dVertex
 10
66.420332
 20
54.990671
 30
0.0
  0
VERTEX
  5
232
330
225
100
AcDbEntity
  8
001
 62
     4
370
    50
100
AcDbVertex
100
AcDb2dVertex
 10
66.459711
 20
55.24925
 30
0.0
  0
VERTEX
  5
233
330
225
100
AcDbEntity
  8
001
 62
     4
370
    50
100
AcDbVertex
100
AcDb2dVertex
 10
66.477048
 20
55.510382
 30
0.0
  0
VERTEX
  5
234
330
225
100
AcDbEntity
  8
001
 62
     4
370
    50
100
AcDbVertex
100
AcDb2dVertex
 10
66.445809
 20
56.029398
 30
0.0
  0
VERTEX
  5
235
330
225
100
AcDbEntity
  8
001
 62
     4
370
    50
100
AcDbVertex
100
AcDb2dVertex
 10
66.327373
 20
56.537173
 30
0.0
  0
VERTEX
  5
236
330
225
100
AcDbEntity
  8
001
 62
     4
370
    50
100
AcDbVertex
100
AcDb2dVertex
 10
65.998138
 20
57.231559
 30
0.0
  0
VERTEX
  5
237
330
225
100
AcDbEntity
  8
001
 62
     4
370
    50
100
AcDbVertex
100
AcDb2dVertex
 10
65.498309
 20
57.817932
 30
0.0
  0
VERTEX
  5
238
330
225
100
AcDbEntity
  8
001
 62
     4
370
    50
100
AcDbVertex
100
AcDb2dVertex
 10
65.298669
 20
57.980146
 30
0.0
  0
VERTEX
  5
239
330
225
100
AcDbEntity
  8
001
 62
     4
370
    50
100
AcDbVertex
100
AcDb2dVertex
 10
65.09199
 20
58.122472
 30
0.0
  0
VERTEX
  5
23A
330
225
100
AcDbEntity
  8
001
 62
     4
370
    50
100
AcDbVertex
100
AcDb2dVertex
 10
64.881648
 20
58.243617
 30
0.0
  0
VERTEX
  5
23B
330
225
100
AcDbEntity
  8
001
 62
     4
370
    50
100
AcDbVertex
100
AcDb2dVertex
 10
64.639736
 20
58.34871
 30
0.0
  0
VERTEX
  5
23C
330
225
100
AcDbEntity
  8
001
 62
     4
370
    50
100
AcDbVertex
100
AcDb2dVertex
 10
64.361318
 20
58.437893
 30
0.0
  0
VERTEX
  5
23D
330
225
100
AcDbEntity
  8
001
 62
     4
370
    50
100
AcDbVertex
100
AcDb2dVertex
 10
64.155288
 20
58.48977
 30
0.0
  0
SEQEND
  5
226
330
225
100
AcDbEntity
  8
001
370
    50
  0
LINE
  5
23E
330
1F
100
AcDbEntity
  8
001
 62
     4
370
    50
100
AcDbLine
 10
56.4279
 20
56.457933
 30
0.0
 11
56.4279
 21
54.432285
 31
0.0
  0
POLYLINE
  5
23F
330
1F
100
AcDbEntity
  8
001
 62
     4
370
    50
100
AcDb2dPolyline
 66
     1
 10
0.0
 20
0.0
 30
0.0
  0
VERTEX
  5
241
330
23F
100
AcDbEntity
  8
001
 62
     4
370
    50
100
AcDbVertex
100
AcDb2dVertex
 10
63.005101
 20
52.601046
 30
0.0
  0
VERTEX
  5
242
330
23F
100
AcDbEntity
  8
001
 62
     4
370
    50
100
AcDbVertex
100
AcDb2dVertex
 10
63.208198
 20
52.570158
 30
0.0
  0
VERTEX
  5
243
330
23F
100
AcDbEntity
  8
001
 62
     4
370
    50
100
AcDbVertex
100
AcDb2dVertex
 10
63.507022
 20
52.549449
 30
0.0
  0
VERTEX
  5
244
330
23F
100
AcDbEntity
  8
001
 62
     4
370
    50
100
AcDbVertex
100
AcDb2dVertex
 10
63.550465
 20
52.549282
 30
0.0
  0
VERTEX
  5
245
330
23F
100
AcDbEntity
  8
001
 62
     4
370
    50
100
AcDbVertex
100
AcDb2dVertex
 10
63.580194
 20
52.54952
 30
0.0
  0
SEQEND
  5
240
330
23F
100
AcDbEntity
  8
001
370
    50
  0
POLYLINE
  5
246
330
1F
100
AcDbEntity
  8
001
 62
     4
370
    50
100
AcDb2dPolyline
 66
     1
 10
0.0
 20
0.0
 30
0.0
  0
VERTEX
  5
248
330
246
100
AcDbEntity
  8
001
 62
     4
370
    50
100
AcDbVertex
100
AcDb2dVertex
 10
64.155288
 20
58.48977
 30
0.0
  0
VERTEX
  5
249
330
246
100
AcDbEntity
  8
001
 62
     4
370
    50
100
AcDbVertex
100
AcDb2dVertex
 10
63.94488
 20
58.519232
 30
0.0
  0
VERTEX
  5
24A
330
246
100
AcDbEntity
  8
001
 62
     4
370
    50
100
AcDbVertex
100
AcDb2dVertex
 10
63.653367
 20
58.541368
 30
0.0
  0
VERTEX
  5
24B
330
246
100
AcDbEntity
  8
001
 62
     4
370
    50
100
AcDbVertex
100
AcDb2dVertex
 10
63.38969
 20
58.535027
 30
0.0
  0
VERTEX
  5
24C
330
246
100
AcDbEntity
  8
001
 62
     4
370
    50
100
AcDbVertex
100
AcDb2dVertex
 10
63.149222
 20
58.501935
 30
0.0
  0
VERTEX
  5
24D
330
246
100
AcDbEntity
  8
001
 62
     4
370
    50
100
AcDbVertex
100
AcDb2dVertex
 10
62.904176
 20
58.447839
 30
0.0
  0
VERTEX
  5
24E
330
246
100
AcDbEntity
  8
001
 62
     4
370
    50
100
AcDbVertex
100
AcDb2dVertex
 10
62.658172
 20
58.372669
 30
0.0
  0
VERTEX
  5
24F
330
246
100
AcDbEntity
  8
001
 62
     4
370
    50
100
AcDbVertex
100
AcDb2dVertex
 10
61.974451
 20
58.017465
 30
0.0
  0
VERTEX
  5
250
330
246
100
AcDbEntity
  8
001
 62
     4
370
    50
100
AcDbVertex
100
AcDb2dVertex
 10
61.40811
 20
57.498006
 30
0.0
  0
VERTEX
  5
251
330
246
100
AcDbEntity
  8
001
 62
     4
370
    50
100
AcDbVertex
100
AcDb2dVertex
 10
61.107268
 20
57.072132
 30
0.0
  0
VERTEX
  5
252
330
246
100
AcDbEntity
  8
001
 62
     4
370
    50
100
AcDbVertex
100
AcDb2dVertex
 10
60.883069
 20
56.603001
 30
0.0
  0
VERTEX
  5
253
330
246
100
AcDbEntity
  8
001
 62
     4
370
    50
100
AcDbVertex
100
AcDb2dVertex
 10
60.800935
 20
56.354513
 30
0.0
  0
VERTEX
  5
254
330
246
100
AcDbEntity
  8
001
 62
     4
370
    50
100
AcDbVertex
100
AcDb2dVertex
 10
60.740057
 20
56.100145
 30
0.0
  0
VERTEX
  5
255
330
246
100
AcDbEntity
  8
001
 62
     4
370
    50
100
AcDbVertex
100
AcDb2dVertex
 10
60.700746
 20
55.841565
 30
0.0
  0
VERTEX
  5
256
330
246
100
AcDbEntity
  8
001
 62
     4
370
    50
100
AcDbVertex
100
AcDb2dVertex
 10
60.683341
 20
55.580435
 30
0.0
  0
VERTEX
  5
257
330
246
100
AcDbEntity
  8
001
 62
     4
370
    50
100
AcDbVertex
100
AcDb2dVertex
 10
60.714534
 20
55.061419
 30
0.0
  0
VERTEX
  5
258
330
246
100
AcDbEntity
  8
001
 62
     4
370
    50
100
AcDbVertex
100
AcDb2dVertex
 10
60.833016
 20
54.553644
 30
0.0
  0
VERTEX
  5
259
330
246
100
AcDbEntity
  8
001
 62
     4
370
    50
100
AcDbVertex
100
AcDb2dVertex
 10
61.162268
 20
53.859257
 30
0.0
  0
VERTEX
  5
25A
330
246
100
AcDbEntity
  8
001
 62
     4
370
    50
100
AcDbVertex
100
AcDb2dVertex
 10
61.662079
 20
53.272885
 30
0.0
  0
VERTEX
  5
25B
330
246
100
AcDbEntity
  8
001
 62
     4
370
    50
100
AcDbVertex
100
AcDb2dVertex
 10
61.861718
 20
53.110671
 30
0.0
  0
VERTEX
  5
25C
330
246
100
AcDbEntity
  8
001
 62
     4
370
    50
100
AcDbVertex
100
AcDb2dVertex
 10
62.068398
 20
52.968344
 30
0.0
  0
VERTEX
  5
25D
330
246
100
AcDbEntity
  8
001
 62
     4
370
    50
100
AcDbVertex
100
AcDb2dVertex
 10
62.278741
 20
52.8472
 30
0.0
  0
VERTEX
  5
25E
330
246
100
AcDbEntity
  8
001
 62
     4
370
    50
100
AcDbVertex
100
AcDb2dVertex
 10
62.520652
 20
52.742107
 30
0.0
  0
VERTEX
  5
25F
330
246
100
AcDbEntity
  8
001
 62
     4
370
    50
100
AcDbVertex
100
AcDb2dVertex
 10
62.799071
 20
52.652924
 30
0.0
  0
VERTEX
  5
260
330
246
100
AcDbEntity
  8
001
 62
     4
370
    50
100
AcDbVertex
100
AcDb2dVertex
 10
63.005101
 20
52.601046
 30
0.0
  0
SEQEND
  5
247
330
246
100
AcDbEntity
  8
001
370
    50
  0
POLYLINE
  5
261
330
1F
100
AcDbEntity
  8
001
 62
     4
370
    50
100
AcDb2dPolyline
 66
     1
 10
0.0
 20
0.0
 30
0.0
  0
VERTEX
  5
263
330
261
100
AcDbEntity
  8
001
 62
     4
370
    50
100
AcDbVertex
100
AcDb2dVertex
 10
62.876288
 20
52.629381
 30
0.0
  0
VERTEX
  5
264
330
261
100
AcDbEntity
  8
001
 62
     4
370
    50
100
AcDbVertex
100
AcDb2dVertex
 10
63.027037
 20
52.612013
 30
0.0
  0
VERTEX
  5
265
330
261
100
AcDbEntity
  8
001
 62
     4
370
    50
100
AcDbVertex
100
AcDb2dVertex
 10
63.248203
 20
52.600002
 30
0.0
  0
VERTEX
  5
266
330
261
100
AcDbEntity
  8
001
 62
     4
370
    50
100
AcDbVertex
100
AcDb2dVertex
 10
63.291647
 20
52.599834
 30
0.0
  0
VERTEX
  5
267
330
261
100
AcDbEntity
  8
001
 62
     4
370
    50
100
AcDbVertex
100
AcDb2dVertex
 10
63.321375
 20
52.600072
 30
0.0
  0
SEQEND
  5
262
330
261
100
AcDbEntity
  8
001
370
    50
  0
LINE
  5
268
330
1F
100
AcDbEntity
  8
001
 62
   200
370
    50
100
AcDbLine
 10
74.9279
 20
53.403384
 30
0.0
 11
71.9279
 21
50.403384
 31
0.0
  0
LINE
  5
269
330
1F
100
AcDbEntity
  8
001
 62
   200
370
    50
100
AcDbLine
 10
71.9279
 20
50.403384
 30
0.0
 11
66.696247
 21
50.403384
 31
0.0
  0
POLYLINE
  5
26A
330
1F
100
AcDbEntity
  8
001
 62
   200
370
    50
100
AcDb2dPolyline
 66
     1
 10
0.0
 20
0.0
 30
0.0
  0
VERTEX
  5
26C
330
26A
100
AcDbEntity
  8
001
 62
   200
370
    50
100
AcDbVertex
100
AcDb2dVertex
 10
69.273976
 20
58.572388
 30
0.0
  0
VERTEX
  5
26D
330
26A
100
AcDbEntity
  8
001
 62
   200
370
    50
100
AcDbVertex
100
AcDb2dVertex
 10
69.179645
 20
58.588909
 30
0.0
  0
VERTEX
  5
26E
330
26A
100
AcDbEntity
  8
001
 62
   200
370
    50
100
AcDbVertex
100
AcDb2dVertex
 10
69.041052
 20
58.607754
 30
0.0
  0
VERTEX
  5
26F
330
26A
100
AcDbEntity
  8
001
 62
   200
370
    50
100
AcDbVertex
100
AcDb2dVertex
 10
68.901583
 20
58.619194
 30
0.0
  0
VERTEX
  5
270
330
26A
100
AcDbEntity
  8
001
 62
   200
370
    50
100
AcDbVertex
100
AcDb2dVertex
 10
68.80586
 20
58.623373
 30
0.0
  0
SEQEND
  5
26B
330
26A
100
AcDbEntity
  8
001
370
    50
  0
LINE
  5
271
330
1F
100
AcDbEntity
  8
001
 62
   200
370
    50
100
AcDbLine
 10
64.445362
 20
62.951993
 30
0.0
 11
62.017521
 21
65.427988
 31
0.0
  0
LINE
  5
272
330
1F
100
AcDbEntity
  8
001
 62
   200
370
    50
100
AcDbLine
 10
74.9279
 20
82.113183
 30
0.0
 11
74.9279
 21
53.403384
 31
0.0
  0
LINE
  5
273
330
1F
100
AcDbEntity
  8
001
 62
   200
370
    50
100
AcDbLine
 10
62.320834
 20
62.633024
 30
0.0
 11
59.9279
 21
65.073419
 31
0.0
  0
POLYLINE
  5
274
330
1F
100
AcDbEntity
  8
001
 62
   200
370
    50
100
AcDb2dPolyline
 66
     1
 10
0.0
 20
0.0
 30
0.0
  0
VERTEX
  5
276
330
274
100
AcDbEntity
  8
001
 62
   200
370
    50
100
AcDbVertex
100
AcDb2dVertex
 10
70.221159
 20
57.180003
 30
0.0
  0
VERTEX
  5
277
330
274
100
AcDbEntity
  8
001
 62
   200
370
    50
100
AcDbVertex
100
AcDb2dVertex
 10
69.950212
 20
57.607672
 30
0.0
  0
VERTEX
  5
278
330
274
100
AcDbEntity
  8
001
 62
   200
370
    50
100
AcDbVertex
100
AcDb2dVertex
 10
69.529958
 20
58.112871
 30
0.0
  0
VERTEX
  5
279
330
274
100
AcDbEntity
  8
001
 62
   200
370
    50
100
AcDbVertex
100
AcDb2dVertex
 10
69.343999
 20
58.273553
 30
0.0
  0
VERTEX
  5
27A
330
274
100
AcDbEntity
  8
001
 62
   200
370
    50
100
AcDbVertex
100
AcDb2dVertex
 10
69.123639
 20
58.417411
 30
0.0
  0
VERTEX
  5
27B
330
274
100
AcDbEntity
  8
001
 62
   200
370
    50
100
AcDbVertex
100
AcDb2dVertex
 10
68.978269
 20
58.499771
 30
0.0
  0
VERTEX
  5
27C
330
274
100
AcDbEntity
  8
001
 62
   200
370
    50
100
AcDbVertex
100
AcDb2dVertex
 10
68.872233
 20
58.555683
 30
0.0
  0
SEQEND
  5
275
330
274
100
AcDbEntity
  8
001
370
    50
  0
POLYLINE
  5
27D
330
1F
100
AcDbEntity
  8
001
 62
   200
370
    50
100
AcDb2dPolyline
 66
     1
 10
0.0
 20
0.0
 30
0.0
  0
VERTEX
  5
27F
330
27D
100
AcDbEntity
  8
001
 62
   200
370
    50
100
AcDbVertex
100
AcDb2dVertex
 10
68.827713
 20
52.636906
 30
0.0
  0
VERTEX
  5
280
330
27D
100
AcDbEntity
  8
001
 62
   200
370
    50
100
AcDbVertex
100
AcDb2dVertex
 10
68.95386
 20
52.648615
 30
0.0
  0
VERTEX
  5
281
330
27D
100
AcDbEntity
  8
001
 62
   200
370
    50
100
AcDbVertex
100
AcDb2dVertex
 10
69.129855
 20
52.6715
 30
0.0
  0
VERTEX
  5
282
330
27D
100
AcDbEntity
  8
001
 62
   200
370
    50
100
AcDbVertex
100
AcDb2dVertex
 10
69.392894
 20
52.725871
 30
0.0
  0
VERTEX
  5
283
330
27D
100
AcDbEntity
  8
001
 62
   200
370
    50
100
AcDbVertex
100
AcDb2dVertex
 10
69.620905
 20
52.800765
 30
0.0
  0
VERTEX
  5
284
330
27D
100
AcDbEntity
  8
001
 62
   200
370
    50
100
AcDbVertex
100
AcDb2dVertex
 10
70.286363
 20
53.15569
 30
0.0
  0
VERTEX
  5
285
330
27D
100
AcDbEntity
  8
001
 62
   200
370
    50
100
AcDbVertex
100
AcDb2dVertex
 10
70.870967
 20
53.675429
 30
0.0
  0
VERTEX
  5
286
330
27D
100
AcDbEntity
  8
001
 62
   200
370
    50
100
AcDbVertex
100
AcDb2dVertex
 10
71.174404
 20
54.101342
 30
0.0
  0
VERTEX
  5
287
330
27D
100
AcDbEntity
  8
001
 62
   200
370
    50
100
AcDbVertex
100
AcDb2dVertex
 10
71.396008
 20
54.570434
 30
0.0
  0
VERTEX
  5
288
330
27D
100
AcDbEntity
  8
001
 62
   200
370
    50
100
AcDbVertex
100
AcDb2dVertex
 10
71.477883
 20
54.818917
 30
0.0
  0
VERTEX
  5
289
330
27D
100
AcDbEntity
  8
001
 62
   200
370
    50
100
AcDbVertex
100
AcDb2dVertex
 10
71.53902
 20
55.073289
 30
0.0
  0
VERTEX
  5
28A
330
27D
100
AcDbEntity
  8
001
 62
   200
370
    50
100
AcDbVertex
100
AcDb2dVertex
 10
71.578407
 20
55.331871
 30
0.0
  0
VERTEX
  5
28B
330
27D
100
AcDbEntity
  8
001
 62
   200
370
    50
100
AcDbVertex
100
AcDb2dVertex
 10
71.595736
 20
55.593
 30
0.0
  0
VERTEX
  5
28C
330
27D
100
AcDbEntity
  8
001
 62
   200
370
    50
100
AcDbVertex
100
AcDb2dVertex
 10
71.564492
 20
56.112014
 30
0.0
  0
VERTEX
  5
28D
330
27D
100
AcDbEntity
  8
001
 62
   200
370
    50
100
AcDbVertex
100
AcDb2dVertex
 10
71.446061
 20
56.619791
 30
0.0
  0
VERTEX
  5
28E
330
27D
100
AcDbEntity
  8
001
 62
   200
370
    50
100
AcDbVertex
100
AcDb2dVertex
 10
71.116828
 20
57.314178
 30
0.0
  0
VERTEX
  5
28F
330
27D
100
AcDbEntity
  8
001
 62
   200
370
    50
100
AcDbVertex
100
AcDb2dVertex
 10
70.616998
 20
57.90055
 30
0.0
  0
VERTEX
  5
290
330
27D
100
AcDbEntity
  8
001
 62
   200
370
    50
100
AcDbVertex
100
AcDb2dVertex
 10
70.417358
 20
58.062763
 30
0.0
  0
VERTEX
  5
291
330
27D
100
AcDbEntity
  8
001
 62
   200
370
    50
100
AcDbVertex
100
AcDb2dVertex
 10
70.210679
 20
58.20509
 30
0.0
  0
VERTEX
  5
292
330
27D
100
AcDbEntity
  8
001
 62
   200
370
    50
100
AcDbVertex
100
AcDb2dVertex
 10
70.000336
 20
58.326235
 30
0.0
  0
VERTEX
  5
293
330
27D
100
AcDbEntity
  8
001
 62
   200
370
    50
100
AcDbVertex
100
AcDb2dVertex
 10
69.758425
 20
58.431327
 30
0.0
  0
VERTEX
  5
294
330
27D
100
AcDbEntity
  8
001
 62
   200
370
    50
100
AcDbVertex
100
AcDb2dVertex
 10
69.480007
 20
58.52051
 30
0.0
  0
VERTEX
  5
295
330
27D
100
AcDbEntity
  8
001
 62
   200
370
    50
100
AcDbVertex
100
AcDb2dVertex
 10
69.273977
 20
58.572388
 30
0.0
  0
SEQEND
  5
27E
330
27D
100
AcDbEntity
  8
001
370
    50
  0
LINE
  5
296
330
1F
100
AcDbEntity
  8
001
 62
   200
370
    50
100
AcDbLine
 10
59.9279
 20
60.125515
 30
0.0
 11
59.9279
 21
65.827424
 31
0.0
  0
LINE
  5
297
330
1F
100
AcDbEntity
  8
001
 62
   140
370
    50
100
AcDbLine
 10
83.9279
 20
144.445109
 30
0.0
 11
74.9279
 21
144.445109
 31
0.0
  0
LINE
  5
298
330
1F
100
AcDbEntity
  8
001
 62
   140
370
    50
100
AcDbLine
 10
74.9279
 20
66.445109
 30
0.0
 11
83.9279
 21
66.445109
 31
0.0
  0
LINE
  5
299
330
1F
100
AcDbEntity
  8
001
 62
   140
370
    50
100
AcDbLine
 10
74.9279
 20
85.9414
 30
0.0
 11
74.9279
 21
82.113183
 31
0.0
  0
LINE
  5
29A
330
1F
100
AcDbEntity
  8
001
 62
   140
370
    50
100
AcDbLine
 10
74.9279
 20
85.9414
 30
0.0
 11
60.9279
 21
85.9414
 31
0.0
  0
LINE
  5
29B
330
1F
100
AcDbEntity
  8
001
 62
   140
370
    50
100
AcDbLine
 10
60.9279
 20
107.706587
 30
0.0
 11
74.9279
 21
107.706587
 31
0.0
  0
LINE
  5
29C
330
1F
100
AcDbEntity
  8
001
 62
   140
370
    50
100
AcDbLine
 10
60.9279
 20
140.294008
 30
0.0
 11
74.9279
 21
140.294008
 31
0.0
  0
LINE
  5
29D
330
1F
100
AcDbEntity
  8
001
 62
   140
370
    50
100
AcDbLine
 10
59.9279
 20
86.365679
 30
0.0
 11
59.9279
 21
107.531722
 31
0.0
  0
POLYLINE
  5
29E
330
1F
100
AcDbEntity
  8
001
 62
   140
370
    50
100
AcDb2dPolyline
 66
     1
 10
0.0
 20
0.0
 30
0.0
  0
VERTEX
  5
2A0
330
29E
100
AcDbEntity
  8
001
 62
   140
370
    50
100
AcDbVertex
100
AcDb2dVertex
 10
59.9279
 20
107.531722
 30
0.0
  0
VERTEX
  5
2A1
330
29E
100
AcDbEntity
  8
001
 62
   140
370
    50
100
AcDbVertex
100
AcDb2dVertex
 10
59.930588
 20
107.541577
 30
0.0
  0
VERTEX
  5
2A2
330
29E
100
AcDbEntity
  8
001
 62
   140
370
    50
100
AcDbVertex
100
AcDb2dVertex
 10
59.933955
 20
107.550939
 30
0.0
  0
VERTEX
  5
2A3
330
29E
100
AcDbEntity
  8
001
 62
   140
370
    50
100
AcDbVertex
100
AcDb2dVertex
 10
59.971714
 20
107.587266
 30
0.0
  0
VERTEX
  5
2A4
330
29E
100
AcDbEntity
  8
001
 62
   140
370
    50
100
AcDbVertex
100
AcDb2dVertex
 10
60.027488
 20
107.607803
 30
0.0
  0
VERTEX
  5
2A5
330
29E
100
AcDbEntity
  8
001
 62
   140
370
    50
100
AcDbVertex
100
AcDb2dVertex
 10
60.128188
 20
107.635312
 30
0.0
  0
VERTEX
  5
2A6
330
29E
100
AcDbEntity
  8
001
 62
   140
370
    50
100
AcDbVertex
100
AcDb2dVertex
 10
60.224138
 20
107.655959
 30
0.0
  0
VERTEX
  5
2A7
330
29E
100
AcDbEntity
  8
001
 62
   140
370
    50
100
AcDbVertex
100
AcDb2dVertex
 10
60.36051
 20
107.676195
 30
0.0
  0
VERTEX
  5
2A8
330
29E
100
AcDbEntity
  8
001
 62
   140
370
    50
100
AcDbVertex
100
AcDb2dVertex
 10
60.500398
 20
107.689805
 30
0.0
  0
VERTEX
  5
2A9
330
29E
100
AcDbEntity
  8
001
 62
   140
370
    50
100
AcDbVertex
100
AcDb2dVertex
 10
60.662278
 20
107.700332
 30
0.0
  0
VERTEX
  5
2AA
330
29E
100
AcDbEntity
  8
001
 62
   140
370
    50
100
AcDbVertex
100
AcDb2dVertex
 10
60.823592
 20
107.705633
 30
0.0
  0
VERTEX
  5
2AB
330
29E
100
AcDbEntity
  8
001
 62
   140
370
    50
100
AcDbVertex
100
AcDb2dVertex
 10
60.875719
 20
107.70625
 30
0.0
  0
VERTEX
  5
2AC
330
29E
100
AcDbEntity
  8
001
 62
   140
370
    50
100
AcDbVertex
100
AcDb2dVertex
 10
60.9279
 20
107.706587
 30
0.0
  0
SEQEND
  5
29F
330
29E
100
AcDbEntity
  8
001
370
    50
  0
POLYLINE
  5
2AD
330
1F
100
AcDbEntity
  8
001
 62
   140
370
    50
100
AcDb2dPolyline
 66
     1
 10
0.0
 20
0.0
 30
0.0
  0
VERTEX
  5
2AF
330
2AD
100
AcDbEntity
  8
001
 62
   140
370
    50
100
AcDbVertex
100
AcDb2dVertex
 10
60.9279
 20
85.9414
 30
0.0
  0
VERTEX
  5
2B0
330
2AD
100
AcDbEntity
  8
001
 62
   140
370
    50
100
AcDbVertex
100
AcDb2dVertex
 10
60.790286
 20
85.946924
 30
0.0
  0
VERTEX
  5
2B1
330
2AD
100
AcDbEntity
  8
001
 62
   140
370
    50
100
AcDbVertex
100
AcDb2dVertex
 10
60.652903
 20
85.957756
 30
0.0
  0
VERTEX
  5
2B2
330
2AD
100
AcDbEntity
  8
001
 62
   140
370
    50
100
AcDbVertex
100
AcDb2dVertex
 10
60.500368
 20
85.981517
 30
0.0
  0
VERTEX
  5
2B3
330
2AD
100
AcDbEntity
  8
001
 62
   140
370
    50
100
AcDbVertex
100
AcDb2dVertex
 10
60.351245
 20
86.019042
 30
0.0
  0
VERTEX
  5
2B4
330
2AD
100
AcDbEntity
  8
001
 62
   140
370
    50
100
AcDbVertex
100
AcDb2dVertex
 10
60.230813
 20
86.062009
 30
0.0
  0
VERTEX
  5
2B5
330
2AD
100
AcDbEntity
  8
001
 62
   140
370
    50
100
AcDbVertex
100
AcDb2dVertex
 10
60.114051
 20
86.11913
 30
0.0
  0
VERTEX
  5
2B6
330
2AD
100
AcDbEntity
  8
001
 62
   140
370
    50
100
AcDbVertex
100
AcDb2dVertex
 10
60.030963
 20
86.174887
 30
0.0
  0
VERTEX
  5
2B7
330
2AD
100
AcDbEntity
  8
001
 62
   140
370
    50
100
AcDbVertex
100
AcDb2dVertex
 10
59.967727
 20
86.247125
 30
0.0
  0
VERTEX
  5
2B8
330
2AD
100
AcDbEntity
  8
001
 62
   140
370
    50
100
AcDbVertex
100
AcDb2dVertex
 10
59.94388
 20
86.304073
 30
0.0
  0
VERTEX
  5
2B9
330
2AD
100
AcDbEntity
  8
001
 62
   140
370
    50
100
AcDbVertex
100
AcDb2dVertex
 10
59.9279
 20
86.365679
 30
0.0
  0
SEQEND
  5
2AE
330
2AD
100
AcDbEntity
  8
001
370
    50
  0
ARC
  5
2BA
330
1F
100
AcDbEntity
  8
001
 62
   140
370
    50
100
AcDbCircle
 10
83.9279
 20
143.445109
 30
0.0
 40
0.9999999999999929
100
AcDbArc
 50
0.0
 51
90.0
  0
ARC
  5
2BB
330
1F
100
AcDbEntity
  8
001
 62
   140
370
    50
100
AcDbCircle
 10
83.9279
 20
67.445109
 30
0.0
 40
0.9999999999999929
100
AcDbArc
 50
270.0
 51
0.0
  0
LINE
  5
2BC
330
1F
100
AcDbEntity
  8
001
 62
   140
370
    50
100
AcDbLine
 10
84.9279
 20
67.445109
 30
0.0
 11
84.9279
 21
143.445109
 31
0.0
  0
ARC
  5
2BD
330
1F
100
AcDbEntity
  8
001
 62
   140
370
    50
100
AcDbCircle
 10
92.9279
 20
143.445109
 30
0.0
 40
8.000000000000007
100
AcDbArc
 50
180.0
 51
270.0
  0
ARC
  5
2BE
330
1F
100
AcDbEntity
  8
001
 62
   140
370
    50
100
AcDbCircle
 10
92.9279
 20
67.445109
 30
0.0
 40
8.000000000000007
100
AcDbArc
 50
90.0
 51
180.0
  0
POLYLINE
  5
2BF
330
1F
100
AcDbEntity
  8
001
 62
   140
370
    50
100
AcDb2dPolyline
 66
     1
 10
0.0
 20
0.0
 30
0.0
  0
VERTEX
  5
2C1
330
2BF
100
AcDbEntity
  8
001
 62
   140
370
    50
100
AcDbVertex
100
AcDb2dVertex
 10
59.9279
 20
139.34773
 30
0.0
  0
VERTEX
  5
2C2
330
2BF
100
AcDbEntity
  8
001
 62
   140
370
    50
100
AcDbVertex
100
AcDb2dVertex
 10
59.928382
 20
139.372116
 30
0.0
  0
VERTEX
  5
2C3
330
2BF
100
AcDbEntity
  8
001
 62
   140
370
    50
100
AcDbVertex
100
AcDb2dVertex
 10
59.929228
 20
139.396496
 30
0.0
  0
VERTEX
  5
2C4
330
2BF
100
AcDbEntity
  8
001
 62
   140
370
    50
100
AcDbVertex
100
AcDb2dVertex
 10
59.952068
 20
139.555696
 30
0.0
  0
VERTEX
  5
2C5
330
2BF
100
AcDbEntity
  8
001
 62
   140
370
    50
100
AcDbVertex
100
AcDb2dVertex
 10
60.003521
 20
139.708752
 30
0.0
  0
VERTEX
  5
2C6
330
2BF
100
AcDbEntity
  8
001
 62
   140
370
    50
100
AcDbVertex
100
AcDb2dVertex
 10
60.081946
 20
139.852255
 30
0.0
  0
VERTEX
  5
2C7
330
2BF
100
AcDbEntity
  8
001
 62
   140
370
    50
100
AcDbVertex
100
AcDb2dVertex
 10
60.183732
 20
139.979874
 30
0.0
  0
VERTEX
  5
2C8
330
2BF
100
AcDbEntity
  8
001
 62
   140
370
    50
100
AcDbVertex
100
AcDb2dVertex
 10
60.307706
 20
140.08983
 30
0.0
  0
VERTEX
  5
2C9
330
2BF
100
AcDbEntity
  8
001
 62
   140
370
    50
100
AcDbVertex
100
AcDb2dVertex
 10
60.448399
 20
140.178146
 30
0.0
  0
VERTEX
  5
2CA
330
2BF
100
AcDbEntity
  8
001
 62
   140
370
    50
100
AcDbVertex
100
AcDb2dVertex
 10
60.60317
 20
140.24355
 30
0.0
  0
VERTEX
  5
2CB
330
2BF
100
AcDbEntity
  8
001
 62
   140
370
    50
100
AcDbVertex
100
AcDb2dVertex
 10
60.766069
 20
140.281536
 30
0.0
  0
VERTEX
  5
2CC
330
2BF
100
AcDbEntity
  8
001
 62
   140
370
    50
100
AcDbVertex
100
AcDb2dVertex
 10
60.846779
 20
140.28962
 30
0.0
  0
VERTEX
  5
2CD
330
2BF
100
AcDbEntity
  8
001
 62
   140
370
    50
100
AcDbVertex
100
AcDb2dVertex
 10
60.9279
 20
140.294008
 30
0.0
  0
SEQEND
  5
2C0
330
2BF
100
AcDbEntity
  8
001
370
    50
  0
ARC
  5
2CE
330
1F
100
AcDbEntity
  8
001
 62
   140
370
    50
100
AcDbCircle
 10
98.9279
 20
134.445109
 30
0.0
 40
1.0
100
AcDbArc
 50
0.0
 51
90.0
  0
ARC
  5
2CF
330
1F
100
AcDbEntity
  8
001
 62
   140
370
    50
100
AcDbCircle
 10
98.9279
 20
76.445109
 30
0.0
 40
1.0
100
AcDbArc
 50
270.0
 51
0.0
  0
LINE
  5
2D0
330
1F
100
AcDbEntity
  8
001
 62
   140
370
    50
100
AcDbLine
 10
99.9279
 20
134.445109
 30
0.0
 11
99.9279
 21
76.445109
 31
0.0
  0
LINE
  5
2D1
330
1F
100
AcDbEntity
  8
001
 62
   140
370
    50
100
AcDbLine
 10
98.9279
 20
135.445109
 30
0.0
 11
92.9279
 21
135.445109
 31
0.0
  0
LINE
  5
2D2
330
1F
100
AcDbEntity
  8
001
 62
   140
370
    50
100
AcDbLine
 10
92.9279
 20
75.445109
 30
0.0
 11
98.9279
 21
75.445109
 31
0.0
  0
LINE
  5
2D3
330
1F
100
AcDbEntity
  8
001
 62
   140
370
    50
100
AcDbLine
 10
171.9279
 20
121.445109
 30
0.0
 11
102.9279
 21
121.445109
 31
0.0
  0
LINE
  5
2D4
330
1F
100
AcDbEntity
  8
001
 62
   140
370
    50
100
AcDbLine
 10
171.9279
 20
89.445109
 30
0.0
 11
102.9279
 21
89.445109
 31
0.0
  0
LINE
  5
2D5
330
1F
100
AcDbEntity
  8
001
 62
   140
370
    50
100
AcDbLine
 10
102.9279
 20
121.445109
 30
0.0
 11
102.9279
 21
89.445109
 31
0.0
  0
LINE
  5
2D6
330
1F
100
AcDbEntity
  8
001
 62
   140
370
    50
100
AcDbLine
 10
179.9279
 20
97.445109
 30
0.0
 11
179.9279
 21
113.445109
 31
0.0
  0
LINE
  5
2D7
330
1F
100
AcDbEntity
  8
001
 62
   140
370
    50
100
AcDbLine
 10
102.9279
 20
120.945109
 30
0.0
 11
99.9279
 21
120.945109
 31
0.0
  0
LINE
  5
2D8
330
1F
100
AcDbEntity
  8
001
 62
   140
370
    50
100
AcDbLine
 10
99.9279
 20
89.945109
 30
0.0
 11
102.9279
 21
89.945109
 31
0.0
  0
TEXT
  5
2D9
330
1F
100
AcDbEntity
  8
001
370
    30
100
AcDbText
 10
69.591021
 20
177.031546
 30
0.0
 40
8.0
  1
ＮＫＰ３２－１００Ｓ－０６
 41
0.833333
100
AcDbText
  0
ARC
  5
2DA
330
1F
100
AcDbEntity
  8
001
 62
   140
370
    50
100
AcDbCircle
 10
171.9279
 20
113.445109
 30
0.0
 40
8.0
100
AcDbArc
 50
0.0
 51
90.0
  0
ARC
  5
2DB
330
1F
100
AcDbEntity
  8
001
 62
   140
370
    50
100
AcDbCircle
 10
171.9279
 20
97.445109
 30
0.0
 40
8.0
100
AcDbArc
 50
270.0
 51
0.0
  0
ENDSEC
  0
SECTION
  2
OBJECTS
  0
DICTIONARY
  5
C
330
0
100
AcDbDictionary
281
     1
  3
ACAD_GROUP
350
D
  3
ACAD_LAYOUT
350
1A
  3
ACAD_MLEADERSTYLE
350
2DF
  3
ACAD_MLINESTYLE
350
17
  3
ACAD_PLOTSETTINGS
350
19
  3
ACAD_PLOTSTYLENAME
350
E
  3
ACAD_SCALELIST
350
3B
  3
ACAD_TABLESTYLE
350
2DE
  3
ACAD_VISUALSTYLE
350
2A
  3
AcDbVariableDictionary
350
2DC
  0
DICTIONARY
  5
D
102
{ACAD_REACTORS
330
C
102
}
330
C
100
AcDbDictionary
281
     1
  0
DICTIONARY
  5
1A
102
{ACAD_REACTORS
330
C
102
}
330
C
100
AcDbDictionary
281
     1
  3
Layout1
350
1E
  3
Layout2
350
26
  3
Model
350
22
  0
DICTIONARY
  5
2DF
102
{ACAD_REACTORS
330
C
102
}
330
C
100
AcDbDictionary
281
     1
  0
DICTIONARY
  5
17
102
{ACAD_REACTORS
330
C
102
}
330
C
100
AcDbDictionary
281
     1
  3
Standard
350
18
  0
DICTIONARY
  5
19
102
{ACAD_REACTORS
330
C
102
}
330
C
100
AcDbDictionary
281
     1
  0
ACDBDICTIONARYWDFLT
  5
E
102
{ACAD_REACTORS
330
C
102
}
330
C
100
AcDbDictionary
281
     1
  3
Normal
350
F
100
AcDbDictionaryWithDefault
340
F
  0
DICTIONARY
  5
3B
102
{ACAD_REACTORS
330
C
102
}
330
C
100
AcDbDictionary
281
     1
  3
A0
350
3C
  3
A1
350
3D
  3
A2
350
3E
  3
A3
350
3F
  3
A4
350
40
  3
A5
350
41
  3
A6
350
42
  3
A7
350
43
  3
A8
350
44
  3
A9
350
45
  3
B0
350
46
  3
B1
350
47
  3
B2
350
48
  3
B3
350
49
  3
B4
350
4A
  3
B5
350
4B
  3
B6
350
4C
  3
B7
350
4D
  3
B8
350
4E
  3
B9
350
4F
  3
C0
350
50
  3
C1
350
51
  3
C2
350
52
  3
C3
350
53
  3
C4
350
54
  3
C5
350
55
  3
C6
350
56
  3
C7
350
57
  3
C8
350
58
  3
C9
350
59
  3
D0
350
5A
  3
D1
350
5B
  3
D2
350
5C
  0
DICTIONARY
  5
2DE
102
{ACAD_REACTORS
330
C
102
}
330
C
100
AcDbDictionary
281
     1
  0
DICTIONARY
  5
2A
102
{ACAD_REACTORS
330
C
102
}
330
C
100
AcDbDictionary
281
     1
  3
2dWireframe
350
2F
  3
3D Hidden
350
31
  3
3dWireframe
350
30
  3
Basic
350
32
  3
Brighten
350
36
  3
ColorChange
350
3A
  3
Conceptual
350
34
  3
Dim
350
35
  3
Facepattern
350
39
  3
Flat
350
2B
  3
FlatWithEdges
350
2C
  3
Gouraud
350
2D
  3
GouraudWithEdges
350
2E
  3
Linepattern
350
38
  3
Realistic
350
33
  3
Thicken
350
37
  0
DICTIONARY
  5
2DC
102
{ACAD_REACTORS
330
C
102
}
330
C
100
AcDbDictionary
281
     1
  3
CANNOSCALE
350
2DD
  3
PSOLHEIGHT
350
2E1
  3
PSOLWIDTH
350
2E0
  0
LAYOUT
  5
1E
102
{ACAD_REACTORS
330
1A
102
}
330
1A
100
AcDbPlotSettings
  1

  2
none_device
  4

  6

 40
0.0
 41
0.0
 42
0.0
 43
0.0
 44
0.0
 45
0.0
 46
0.0
 47
0.0
 48
0.0
 49
0.0
140
0.0
141
0.0
142
1.0
143
1.0
 70
   688
 72
     0
 73
     0
 74
     5
  7

 75
    16
147
1.0
148
0.0
149
0.0
100
AcDbLayout
  1
Layout1
 70
     1
 71
     1
 10
0.0
 20
0.0
 11
12.0
 21
9.0
 12
0.0
 22
0.0
 32
0.0
 14
1.000000E+20
 24
1.000000E+20
 34
0.0
 15
-1.000000E+20
 25
-1.000000E+20
 35
0.0
146
0.0
 13
0.0
 23
0.0
 33
0.0
 16
1.0
 26
0.0
 36
0.0
 17
0.0
 27
1.0
 37
0.0
 76
     0
330
1B
  0
LAYOUT
  5
26
102
{ACAD_REACTORS
330
1A
102
}
330
1A
100
AcDbPlotSettings
  1

  2
none_device
  4

  6

 40
0.0
 41
0.0
 42
0.0
 43
0.0
 44
0.0
 45
0.0
 46
0.0
 47
0.0
 48
0.0
 49
0.0
140
0.0
141
0.0
142
1.0
143
1.0
 70
   688
 72
     0
 73
     0
 74
     5
  7

 75
    16
147
1.0
148
0.0
149
0.0
100
AcDbLayout
  1
Layout2
 70
     1
 71
     2
 10
0.0
 20
0.0
 11
0.0
 21
0.0
 12
0.0
 22
0.0
 32
0.0
 14
0.0
 24
0.0
 34
0.0
 15
0.0
 25
0.0
 35
0.0
146
0.0
 13
0.0
 23
0.0
 33
0.0
 16
1.0
 26
0.0
 36
0.0
 17
0.0
 27
1.0
 37
0.0
 76
     0
330
23
  0
LAYOUT
  5
22
102
{ACAD_REACTORS
330
1A
102
}
330
1A
100
AcDbPlotSettings
  1

  2
none_device
  4

  6

 40
0.0
 41
0.0
 42
0.0
 43
0.0
 44
0.0
 45
0.0
 46
0.0
 47
0.0
 48
0.0
 49
0.0
140
0.0
141
0.0
142
1.0
143
1.0
 70
  1712
 72
     0
 73
     0
 74
     0
  7

 75
     0
147
1.0
148
0.0
149
0.0
100
AcDbLayout
  1
Model
 70
     1
 71
     0
 10
0.0
 20
0.0
 11
12.0
 21
9.0
 12
0.0
 22
0.0
 32
0.0
 14
25.516495
 24
13.702377
 34
0.0
 15
210.794846
 25
185.03154
 35
0.0
146
0.0
 13
0.0
 23
0.0
 33
0.0
 16
1.0
 26
0.0
 36
0.0
 17
0.0
 27
1.0
 37
0.0
 76
     0
330
1F
331
29
  0
MLINESTYLE
  5
18
102
{ACAD_REACTORS
330
17
102
}
330
17
100
AcDbMlineStyle
  2
Standard
 70
     0
  3

 62
   256
 51
90.0
 52
90.0
 71
     2
 49
0.5
 62
   256
  6
BYLAYER
 49
-0.5
 62
   256
  6
BYLAYER
  0
ACDBPLACEHOLDER
  5
F
102
{ACAD_REACTORS
330
E
102
}
330
E
  0
SCALE
  5
3C
102
{ACAD_REACTORS
330
3B
102
}
330
3B
100
AcDbScale
 70
     0
300
1:1
140
1.0
141
1.0
290
     1
  0
SCALE
  5
3D
102
{ACAD_REACTORS
330
3B
102
}
330
3B
100
AcDbScale
 70
     0
300
1:2
140
1.0
141
2.0
290
     0
  0
SCALE
  5
3E
102
{ACAD_REACTORS
330
3B
102
}
330
3B
100
AcDbScale
 70
     0
300
1:4
140
1.0
141
4.0
290
     0
  0
SCALE
  5
3F
102
{ACAD_REACTORS
330
3B
102
}
330
3B
100
AcDbScale
 70
     0
300
1:5
140
1.0
141
5.0
290
     0
  0
SCALE
  5
40
102
{ACAD_REACTORS
330
3B
102
}
330
3B
100
AcDbScale
 70
     0
300
1:8
140
1.0
141
8.0
290
     0
  0
SCALE
  5
41
102
{ACAD_REACTORS
330
3B
102
}
330
3B
100
AcDbScale
 70
     0
300
1:10
140
1.0
141
10.0
290
     0
  0
SCALE
  5
42
102
{ACAD_REACTORS
330
3B
102
}
330
3B
100
AcDbScale
 70
     0
300
1:16
140
1.0
141
16.0
290
     0
  0
SCALE
  5
43
102
{ACAD_REACTORS
330
3B
102
}
330
3B
100
AcDbScale
 70
     0
300
1:20
140
1.0
141
20.0
290
     0
  0
SCALE
  5
44
102
{ACAD_REACTORS
330
3B
102
}
330
3B
100
AcDbScale
 70
     0
300
1:30
140
1.0
141
30.0
290
     0
  0
SCALE
  5
45
102
{ACAD_REACTORS
330
3B
102
}
330
3B
100
AcDbScale
 70
     0
300
1:40
140
1.0
141
40.0
290
     0
  0
SCALE
  5
46
102
{ACAD_REACTORS
330
3B
102
}
330
3B
100
AcDbScale
 70
     0
300
1:50
140
1.0
141
50.0
290
     0
  0
SCALE
  5
47
102
{ACAD_REACTORS
330
3B
102
}
330
3B
100
AcDbScale
 70
     0
300
1:100
140
1.0
141
100.0
290
     0
  0
SCALE
  5
48
102
{ACAD_REACTORS
330
3B
102
}
330
3B
100
AcDbScale
 70
     0
300
2:1
140
2.0
141
1.0
290
     0
  0
SCALE
  5
49
102
{ACAD_REACTORS
330
3B
102
}
330
3B
100
AcDbScale
 70
     0
300
4:1
140
4.0
141
1.0
290
     0
  0
SCALE
  5
4A
102
{ACAD_REACTORS
330
3B
102
}
330
3B
100
AcDbScale
 70
     0
300
8:1
140
8.0
141
1.0
290
     0
  0
SCALE
  5
4B
102
{ACAD_REACTORS
330
3B
102
}
330
3B
100
AcDbScale
 70
     0
300
10:1
140
10.0
141
1.0
290
     0
  0
SCALE
  5
4C
102
{ACAD_REACTORS
330
3B
102
}
330
3B
100
AcDbScale
 70
     0
300
100:1
140
100.0
141
1.0
290
     0
  0
SCALE
  5
4D
102
{ACAD_REACTORS
330
3B
102
}
330
3B
100
AcDbScale
 70
     0
300
1/128" = 1'-0"
140
0.007812
141
12.0
290
     0
  0
SCALE
  5
4E
102
{ACAD_REACTORS
330
3B
102
}
330
3B
100
AcDbScale
 70
     0
300
1/64" = 1'-0"
140
0.015625
141
12.0
290
     0
  0
SCALE
  5
4F
102
{ACAD_REACTORS
330
3B
102
}
330
3B
100
AcDbScale
 70
     0
300
1/32" = 1'-0"
140
0.03125
141
12.0
290
     0
  0
SCALE
  5
50
102
{ACAD_REACTORS
330
3B
102
}
330
3B
100
AcDbScale
 70
     0
300
1/16" = 1'-0"
140
0.0625
141
12.0
290
     0
  0
SCALE
  5
51
102
{ACAD_REACTORS
330
3B
102
}
330
3B
100
AcDbScale
 70
     0
300
3/32" = 1'-0"
140
0.09375
141
12.0
290
     0
  0
SCALE
  5
52
102
{ACAD_REACTORS
330
3B
102
}
330
3B
100
AcDbScale
 70
     0
300
1/8" = 1'-0"
140
0.125
141
12.0
290
     0
  0
SCALE
  5
53
102
{ACAD_REACTORS
330
3B
102
}
330
3B
100
AcDbScale
 70
     0
300
3/16" = 1'-0"
140
0.1875
141
12.0
290
     0
  0
SCALE
  5
54
102
{ACAD_REACTORS
330
3B
102
}
330
3B
100
AcDbScale
 70
     0
300
1/4" = 1'-0"
140
0.25
141
12.0
290
     0
  0
SCALE
  5
55
102
{ACAD_REACTORS
330
3B
102
}
330
3B
100
AcDbScale
 70
     0
300
3/8" = 1'-0"
140
0.375
141
12.0
290
     0
  0
SCALE
  5
56
102
{ACAD_REACTORS
330
3B
102
}
330
3B
100
AcDbScale
 70
     0
300
1/2" = 1'-0"
140
0.5
141
12.0
290
     0
  0
SCALE
  5
57
102
{ACAD_REACTORS
330
3B
102
}
330
3B
100
AcDbScale
 70
     0
300
3/4" = 1'-0"
140
0.75
141
12.0
290
     0
  0
SCALE
  5
58
102
{ACAD_REACTORS
330
3B
102
}
330
3B
100
AcDbScale
 70
     0
300
1" = 1'-0"
140
1.0
141
12.0
290
     0
  0
SCALE
  5
59
102
{ACAD_REACTORS
330
3B
102
}
330
3B
100
AcDbScale
 70
     0
300
1-1/2" = 1'-0"
140
1.5
141
12.0
290
     0
  0
SCALE
  5
5A
102
{ACAD_REACTORS
330
3B
102
}
330
3B
100
AcDbScale
 70
     0
300
3" = 1'-0"
140
3.0
141
12.0
290
     0
  0
SCALE
  5
5B
102
{ACAD_REACTORS
330
3B
102
}
330
3B
100
AcDbScale
 70
     0
300
6" = 1'-0"
140
6.0
141
12.0
290
     0
  0
SCALE
  5
5C
102
{ACAD_REACTORS
330
3B
102
}
330
3B
100
AcDbScale
 70
     0
300
1'-0" = 1'-0"
140
12.0
141
12.0
290
     0
  0
VISUALSTYLE
  5
2F
102
{ACAD_REACTORS
330
2A
102
}
330
2A
100
AcDbVisualStyle
  2
2dWireframe
 70
     4
 71
     0
 72
     2
 73
     0
 90
        0
 40
-0.6
 41
-30.0
 62
     5
 63
     7
 74
     1
 91
        4
 64
     7
 65
   257
 75
     1
175
     1
 42
1.0
 92
        0
 66
   257
 43
1.0
 76
     1
 77
     6
 78
     2
 67
     7
 79
     5
170
     0
171
     0
290
     0
174
     0
 93
        1
 44
0.0
173
     0
291
     0
 45
0.0
1001
ACAD
1000
AcDbSavedByObjectVersion
1070
     0
  0
VISUALSTYLE
  5
31
102
{ACAD_REACTORS
330
2A
102
}
330
2A
100
AcDbVisualStyle
  2
3D Hidden
 70
     6
 71
     1
 72
     2
 73
     2
 90
        0
 40
-0.6
 41
-30.0
 62
     5
 63
     7
 74
     2
 91
        2
 64
     7
 65
   257
 75
     2
175
     1
 42
40.0
 92
        0
 66
   257
 43
1.0
 76
     1
 77
     6
 78
     2
 67
     7
 79
     3
170
     0
171
     0
290
     0
174
     0
 93
        1
 44
0.0
173
     0
291
     0
 45
0.0
1001
ACAD
1000
AcDbSavedByObjectVersion
1070
     0
  0
VISUALSTYLE
  5
30
102
{ACAD_REACTORS
330
2A
102
}
330
2A
100
AcDbVisualStyle
  2
3dWireframe
 70
     5
 71
     0
 72
     2
 73
     0
 90
        0
 40
-0.6
 41
-30.0
 62
     5
 63
     7
 74
     1
 91
        4
 64
     7
 65
   257
 75
     1
175
     1
 42
1.0
 92
        0
 66
   257
 43
1.0
 76
     1
 77
     6
 78
     2
 67
     7
 79
     5
170
     0
171
     0
290
     0
174
     0
 93
        1
 44
0.0
173
     0
291
     0
 45
0.0
1001
ACAD
1000
AcDbSavedByObjectVersion
1070
     0
  0
VISUALSTYLE
  5
32
102
{ACAD_REACTORS
330
2A
102
}
330
2A
100
AcDbVisualStyle
  2
Basic
 70
     7
 71
     1
 72
     0
 73
     1
 90
        0
 40
-0.6
 41
-30.0
 62
     5
 63
     7
 74
     0
 91
        4
 64
     7
 65
   257
 75
     1
175
     1
 42
1.0
 92
        8
 66
     7
 43
1.0
 76
     1
 77
     6
 78
     2
 67
     7
 79
     5
170
     0
171
     0
290
     0
174
     0
 93
        1
 44
0.0
173
     0
291
     1
 45
0.0
1001
ACAD
1000
AcDbSavedByObjectVersion
1070
     0
  0
VISUALSTYLE
  5
36
102
{ACAD_REACTORS
330
2A
102
}
330
2A
100
AcDbVisualStyle
  2
Brighten
 70
    12
 71
     2
 72
     2
 73
     0
 90
        0
 40
-0.6
 41
-30.0
 62
     5
 63
     7
 74
     1
 91
        4
 64
     7
 65
   257
 75
     1
175
     1
 42
1.0
 92
        8
 66
     7
 43
1.0
 76
     1
 77
     6
 78
     2
 67
     7
 79
     5
170
     0
171
     0
290
     0
174
     0
 93
        1
 44
50.0
173
     0
291
     1
 45
0.0
1001
ACAD
1000
AcDbSavedByObjectVersion
1070
     0
  0
VISUALSTYLE
  5
3A
102
{ACAD_REACTORS
330
2A
102
}
330
2A
100
AcDbVisualStyle
  2
ColorChange
 70
    16
 71
     2
 72
     2
 73
     3
 90
        0
 40
-0.6
 41
-30.0
 62
     5
 63
     8
 74
     1
 91
        4
 64
     7
 65
   257
 75
     1
175
     1
 42
1.0
 92
        8
 66
     8
 43
1.0
 76
     1
 77
     6
 78
     2
 67
     7
 79
     5
170
     0
171
     0
290
     0
174
     0
 93
        1
 44
0.0
173
     0
291
     1
 45
0.0
1001
ACAD
1000
AcDbSavedByObjectVersion
1070
     0
  0
VISUALSTYLE
  5
34
102
{ACAD_REACTORS
330
2A
102
}
330
2A
100
AcDbVisualStyle
  2
Conceptual
 70
     9
 71
     3
 72
     2
 73
     0
 90
        0
 40
-0.6
 41
-30.0
 62
     5
 63
     7
 74
     2
 91
        2
 64
     7
 65
   257
 75
     1
175
     1
 42
40.0
 92
        8
 66
     7
 43
1.0
 76
     1
 77
     6
 78
     2
 67
     7
 79
     3
170
     0
171
     0
290
     0
174
     0
 93
        1
 44
0.0
173
     0
291
     0
 45
0.0
1001
ACAD
1000
AcDbSavedByObjectVersion
1070
     0
  0
VISUALSTYLE
  5
35
102
{ACAD_REACTORS
330
2A
102
}
330
2A
100
AcDbVisualStyle
  2
Dim
 70
    11
 71
     2
 72
     2
 73
     0
 90
        0
 40
-0.6
 41
-30.0
 62
     5
 63
     7
 74
     1
 91
        4
 64
     7
 65
   257
 75
     1
175
     1
 42
1.0
 92
        8
 66
     7
 43
1.0
 76
     1
 77
     6
 78
     2
 67
     7
 79
     5
170
     0
171
     0
290
     0
174
     0
 93
        1
 44
-50.0
173
     0
291
     1
 45
0.0
1001
ACAD
1000
AcDbSavedByObjectVersion
1070
     0
  0
VISUALSTYLE
  5
39
102
{ACAD_REACTORS
330
2A
102
}
330
2A
100
AcDbVisualStyle
  2
Facepattern
 70
    15
 71
     2
 72
     2
 73
     0
 90
        0
 40
-0.6
 41
-30.0
 62
     5
 63
     7
 74
     1
 91
        4
 64
     7
 65
   257
 75
     1
175
     1
 42
1.0
 92
        8
 66
     7
 43
1.0
 76
     1
 77
     6
 78
     2
 67
     7
 79
     5
170
     0
171
     0
290
     0
174
     0
 93
        1
 44
0.0
173
     0
291
     1
 45
0.0
1001
ACAD
1000
AcDbSavedByObjectVersion
1070
     0
  0
VISUALSTYLE
  5
2B
102
{ACAD_REACTORS
330
2A
102
}
330
2A
100
AcDbVisualStyle
  2
Flat
 70
     0
 71
     2
 72
     1
 73
     1
 90
        2
 40
-0.6
 41
30.0
 62
     5
 63
     7
 74
     0
 91
        4
 64
     7
 65
   257
 75
     1
175
     1
 42
1.0
 92
        8
 66
     7
 43
1.0
 76
     1
 77
     6
 78
     2
 67
     7
 79
     5
170
     0
171
     0
290
     0
174
     0
 93
       13
 44
0.0
173
     0
291
     1
 45
0.0
1001
ACAD
1000
AcDbSavedByObjectVersion
1070
     0
  0
VISUALSTYLE
  5
2C
102
{ACAD_REACTORS
330
2A
102
}
330
2A
100
AcDbVisualStyle
  2
FlatWithEdges
 70
     1
 71
     2
 72
     1
 73
     1
 90
        2
 40
-0.6
 41
30.0
 62
     5
 63
     7
 74
     1
 91
        4
 64
     7
 65
   257
 75
     1
175
     1
 42
1.0
 92
        0
 66
   257
 43
1.0
 76
     1
 77
     6
 78
     2
 67
     7
 79
     5
170
     0
171
     0
290
     0
174
     0
 93
       13
 44
0.0
173
     0
291
     1
 45
0.0
1001
ACAD
1000
AcDbSavedByObjectVersion
1070
     0
  0
VISUALSTYLE
  5
2D
102
{ACAD_REACTORS
330
2A
102
}
330
2A
100
AcDbVisualStyle
  2
Gouraud
 70
     2
 71
     2
 72
     2
 73
     1
 90
        2
 40
-0.6
 41
30.0
 62
     5
 63
     7
 74
     0
 91
        4
 64
     7
 65
   257
 75
     1
175
     1
 42
1.0
 92
        0
 66
     7
 43
1.0
 76
     1
 77
     6
 78
     2
 67
     7
 79
     5
170
     0
171
     0
290
     0
174
     0
 93
       13
 44
0.0
173
     0
291
     1
 45
0.0
1001
ACAD
1000
AcDbSavedByObjectVersion
1070
     0
  0
VISUALSTYLE
  5
2E
102
{ACAD_REACTORS
330
2A
102
}
330
2A
100
AcDbVisualStyle
  2
GouraudWithEdges
 70
     3
 71
     2
 72
     2
 73
     1
 90
        2
 40
-0.6
 41
30.0
 62
     5
 63
     7
 74
     1
 91
        4
 64
     7
 65
   257
 75
     1
175
     1
 42
1.0
 92
        0
 66
   257
 43
1.0
 76
     1
 77
     6
 78
     2
 67
     7
 79
     5
170
     0
171
     0
290
     0
174
     0
 93
       13
 44
0.0
173
     0
291
     1
 45
0.0
1001
ACAD
1000
AcDbSavedByObjectVersion
1070
     0
  0
VISUALSTYLE
  5
38
102
{ACAD_REACTORS
330
2A
102
}
330
2A
100
AcDbVisualStyle
  2
Linepattern
 70
    14
 71
     2
 72
     2
 73
     0
 90
        0
 40
-0.6
 41
-30.0
 62
     5
 63
     7
 74
     1
 91
        4
 64
     7
 65
   257
 75
     7
175
     7
 42
1.0
 92
        8
 66
     7
 43
1.0
 76
     1
 77
     6
 78
     2
 67
     7
 79
     5
170
     0
171
     0
290
     0
174
     0
 93
        1
 44
0.0
173
     0
291
     1
 45
0.0
1001
ACAD
1000
AcDbSavedByObjectVersion
1070
     0
  0
VISUALSTYLE
  5
33
102
{ACAD_REACTORS
330
2A
102
}
330
2A
100
AcDbVisualStyle
  2
Realistic
 70
     8
 71
     2
 72
     2
 73
     0
 90
        0
 40
-0.6
 41
-30.0
 62
     5
 63
     7
 74
     1
 91
        0
 64
     7
 65
   257
 75
     1
175
     1
 42
1.0
 92
        8
 66
     8
 43
1.0
 76
     1
 77
     6
 78
     2
 67
     7
 79
     5
170
     0
171
     0
290
     0
174
     0
 93
       13
 44
0.0
173
     0
291
     0
 45
0.0
1001
ACAD
1000
AcDbSavedByObjectVersion
1070
     0
  0
VISUALSTYLE
  5
37
102
{ACAD_REACTORS
330
2A
102
}
330
2A
100
AcDbVisualStyle
  2
Thicken
 70
    13
 71
     2
 72
     2
 73
     0
 90
        0
 40
-0.6
 41
-30.0
 62
     5
 63
     7
 74
     1
 91
        4
 64
     7
 65
   257
 75
     1
175
     1
 42
1.0
 92
       12
 66
     7
 43
1.0
 76
     1
 77
     6
 78
     2
 67
     7
 79
     5
170
     0
171
     0
290
     0
174
     0
 93
        1
 44
0.0
173
     0
291
     1
 45
0.0
1001
ACAD
1000
AcDbSavedByObjectVersion
1070
     0
  0
DICTIONARYVAR
  5
2DD
102
{ACAD_REACTORS
330
2DC
102
}
330
2DC
100
DictionaryVariables
280
     0
  1
1:1
  0
DICTIONARYVAR
  5
2E1
102
{ACAD_REACTORS
330
2DC
102
}
330
2DC
100
DictionaryVariables
280
     0
  1
80.000000
  0
DICTIONARYVAR
  5
2E0
102
{ACAD_REACTORS
330
2DC
102
}
330
2DC
100
DictionaryVariables
280
     0
  1
5.000000
  0
ENDSEC
  0
EOF
