  0
SECTION
  2
HEADER
  9
$ACADVER
  1
AC1015
  9
$ACADMAINTVER
 70
     6
  9
$DWGCODEPAGE
  3
ANSI_932
  9
$INSBASE
 10
0.0
 20
0.0
 30
0.0
  9
$EXTMIN
 10
14.023193
 20
16.394073
 30
0.0
  9
$EXTMAX
 10
202.34227
 20
215.390472
 30
0.0
  9
$LIMMIN
 10
0.0
 20
0.0
  9
$LIMMAX
 10
12.0
 20
9.0
  9
$ORTHOMODE
 70
     0
  9
$REGENMODE
 70
     1
  9
$FILLMODE
 70
     1
  9
$QTEXTMODE
 70
     0
  9
$MIRRTEXT
 70
     1
  9
$LTSCALE
 40
2.739774
  9
$ATTMODE
 70
     1
  9
$TEXTSIZE
 40
3.2
  9
$TRACEWID
 40
1.0
  9
$TEXTSTYLE
  7
Standard
  9
$CLAYER
  8
0
  9
$CELTYPE
  6
ByLayer
  9
$CECOLOR
 62
   256
  9
$CELTSCALE
 40
1.0
  9
$DISPSILH
 70
     0
  9
$DIMSCALE
 40
1.0
  9
$DIMASZ
 40
2.5
  9
$DIMEXO
 40
0.625
  9
$DIMDLI
 40
3.75
  9
$DIMRND
 40
0.0
  9
$DIMDLE
 40
0.0
  9
$DIMEXE
 40
1.25
  9
$DIMTP
 40
0.0
  9
$DIMTM
 40
0.0
  9
$DIMTXT
 40
2.5
  9
$DIMCEN
 40
0.09
  9
$DIMTSZ
 40
0.0
  9
$DIMTOL
 70
     0
  9
$DIMLIM
 70
     0
  9
$DIMTIH
 70
     0
  9
$DIMTOH
 70
     0
  9
$DIMSE1
 70
     0
  9
$DIMSE2
 70
     0
  9
$DIMTAD
 70
     0
  9
$DIMZIN
 70
     8
  9
$DIMBLK
  1

  9
$DIMASO
 70
     1
  9
$DIMSHO
 70
     0
  9
$DIMPOST
  1

  9
$DIMAPOST
  1

  9
$DIMALT
 70
     0
  9
$DIMALTD
 70
     3
  9
$DIMALTF
 40
0.03937
  9
$DIMLFAC
 40
1.0
  9
$DIMTOFL
 70
     1
  9
$DIMTVP
 40
0.0
  9
$DIMTIX
 70
     0
  9
$DIMSOXD
 70
     0
  9
$DIMSAH
 70
     0
  9
$DIMBLK1
  1

  9
$DIMBLK2
  1

  9
$DIMSTYLE
  2
ISO-25
  9
$DIMCLRD
 70
     0
  9
$DIMCLRE
 70
     0
  9
$DIMCLRT
 70
     0
  9
$DIMTFAC
 40
1.0
  9
$DIMGAP
 40
0.625
  9
$DIMJUST
 70
     0
  9
$DIMSD1
 70
     0
  9
$DIMSD2
 70
     0
  9
$DIMTOLJ
 70
     0
  9
$DIMTZIN
 70
     8
  9
$DIMALTZ
 70
     0
  9
$DIMALTTZ
 70
     0
  9
$DIMUPT
 70
     0
  9
$DIMDEC
 70
     2
  9
$DIMTDEC
 70
     2
  9
$DIMALTU
 70
     2
  9
$DIMALTTD
 70
     3
  9
$DIMTXSTY
  7
Standard
  9
$DIMAUNIT
 70
     0
  9
$DIMADEC
 70
     0
  9
$DIMALTRND
 40
0.0
  9
$DIMAZIN
 70
     0
  9
$DIMDSEP
 70
    44
  9
$DIMATFIT
 70
     3
  9
$DIMFRAC
 70
     0
  9
$DIMLDRBLK
  1

  9
$DIMLUNIT
 70
     2
  9
$DIMLWD
 70
    -2
  9
$DIMLWE
 70
    -2
  9
$DIMTMOVE
 70
     0
  9
$LUNITS
 70
     2
  9
$LUPREC
 70
     4
  9
$SKETCHINC
 40
1.0
  9
$FILLETRAD
 40
0.0
  9
$AUNITS
 70
     0
  9
$AUPREC
 70
     0
  9
$MENU
  1
.
  9
$ELEVATION
 40
0.0
  9
$PELEVATION
 40
0.0
  9
$THICKNESS
 40
0.0
  9
$LIMCHECK
 70
     0
  9
$CHAMFERA
 40
10.0
  9
$CHAMFERB
 40
10.0
  9
$CHAMFERC
 40
20.0
  9
$CHAMFERD
 40
0.0
  9
$SKPOLY
 70
     0
  9
$TDCREATE
 40
2455356.58501934
  9
$TDUCREATE
 40
2455356.21001934
  9
$TDUPDATE
 40
2455356.585019352
  9
$TDUUPDATE
 40
2455356.210019352
  9
$TDINDWG
 40
0.0000000116
  9
$TDUSRTIMER
 40
0.0000000116
  9
$USRTIMER
 70
     1
  9
$ANGBASE
 50
0.0
  9
$ANGDIR
 70
     0
  9
$PDMODE
 70
     0
  9
$PDSIZE
 40
0.0
  9
$PLINEWID
 40
0.0
  9
$SPLFRAME
 70
     0
  9
$SPLINETYPE
 70
     6
  9
$SPLINESEGS
 70
     8
  9
$HANDSEED
  5
2E9
  9
$SURFTAB1
 70
     6
  9
$SURFTAB2
 70
     6
  9
$SURFTYPE
 70
     6
  9
$SURFU
 70
     6
  9
$SURFV
 70
     6
  9
$UCSBASE
  2

  9
$UCSNAME
  2

  9
$UCSORG
 10
0.0
 20
0.0
 30
0.0
  9
$UCSXDIR
 10
1.0
 20
0.0
 30
0.0
  9
$UCSYDIR
 10
0.0
 20
1.0
 30
0.0
  9
$UCSORTHOREF
  2

  9
$UCSORTHOVIEW
 70
     0
  9
$UCSORGTOP
 10
0.0
 20
0.0
 30
0.0
  9
$UCSORGBOTTOM
 10
0.0
 20
0.0
 30
0.0
  9
$UCSORGLEFT
 10
0.0
 20
0.0
 30
0.0
  9
$UCSORGRIGHT
 10
0.0
 20
0.0
 30
0.0
  9
$UCSORGFRONT
 10
0.0
 20
0.0
 30
0.0
  9
$UCSORGBACK
 10
0.0
 20
0.0
 30
0.0
  9
$PUCSBASE
  2

  9
$PUCSNAME
  2

  9
$PUCSORG
 10
0.0
 20
0.0
 30
0.0
  9
$PUCSXDIR
 10
1.0
 20
0.0
 30
0.0
  9
$PUCSYDIR
 10
0.0
 20
1.0
 30
0.0
  9
$PUCSORTHOREF
  2

  9
$PUCSORTHOVIEW
 70
     0
  9
$PUCSORGTOP
 10
0.0
 20
0.0
 30
0.0
  9
$PUCSORGBOTTOM
 10
0.0
 20
0.0
 30
0.0
  9
$PUCSORGLEFT
 10
0.0
 20
0.0
 30
0.0
  9
$PUCSORGRIGHT
 10
0.0
 20
0.0
 30
0.0
  9
$PUCSORGFRONT
 10
0.0
 20
0.0
 30
0.0
  9
$PUCSORGBACK
 10
0.0
 20
0.0
 30
0.0
  9
$USERI1
 70
     0
  9
$USERI2
 70
     0
  9
$USERI3
 70
     0
  9
$USERI4
 70
     0
  9
$USERI5
 70
     0
  9
$USERR1
 40
0.0
  9
$USERR2
 40
0.0
  9
$USERR3
 40
0.0
  9
$USERR4
 40
0.0
  9
$USERR5
 40
0.0
  9
$WORLDVIEW
 70
     1
  9
$SHADEDGE
 70
     3
  9
$SHADEDIF
 70
    70
  9
$TILEMODE
 70
     1
  9
$MAXACTVP
 70
    64
  9
$PINSBASE
 10
0.0
 20
0.0
 30
0.0
  9
$PLIMCHECK
 70
     0
  9
$PEXTMIN
 10
1.000000E+20
 20
1.000000E+20
 30
0.0
  9
$PEXTMAX
 10
-1.000000E+20
 20
-1.000000E+20
 30
0.0
  9
$PLIMMIN
 10
0.0
 20
0.0
  9
$PLIMMAX
 10
12.0
 20
9.0
  9
$UNITMODE
 70
     0
  9
$VISRETAIN
 70
     1
  9
$PLINEGEN
 70
     0
  9
$PSLTSCALE
 70
     1
  9
$TREEDEPTH
 70
  3020
  9
$CMLSTYLE
  2
Standard
  9
$CMLJUST
 70
     0
  9
$CMLSCALE
 40
20.0
  9
$PROXYGRAPHICS
 70
     1
  9
$MEASUREMENT
 70
     1
  9
$CELWEIGHT
370
    -1
  9
$ENDCAPS
280
     0
  9
$JOINSTYLE
280
     0
  9
$LWDISPLAY
290
     0
  9
$INSUNITS
 70
     4
  9
$HYPERLINKBASE
  1

  9
$STYLESHEET
  1

  9
$XEDIT
290
     1
  9
$CEPSNTYPE
380
     0
  9
$PSTYLEMODE
290
     1
  9
$FINGERPRINTGUID
  2
{CF8A32EC-26D1-4D0B-B9F6-5BB8121F141A}
  9
$VERSIONGUID
  2
{FAEB1C32-E019-11D5-929B-00C0DF256EC4}
  9
$EXTNAMES
290
     1
  9
$PSVPSCALE
 40
0.0
  9
$OLESTARTUP
290
     0
  0
ENDSEC
  0
SECTION
  2
CLASSES
  0
CLASS
  1
ACDBDICTIONARYWDFLT
  2
AcDbDictionaryWithDefault
  3
ObjectDBX Classes
 90
        0
280
     0
281
     0
  0
CLASS
  1
VISUALSTYLE
  2
AcDbVisualStyle
  3
ObjectDBX Classes
 90
     4095
280
     0
281
     0
  0
CLASS
  1
SCALE
  2
AcDbScale
  3
ObjectDBX Classes
 90
     1153
280
     0
281
     0
  0
CLASS
  1
DICTIONARYVAR
  2
AcDbDictionaryVar
  3
ObjectDBX Classes
 90
        0
280
     0
281
     0
  0
CLASS
  1
ACDBPLACEHOLDER
  2
AcDbPlaceHolder
  3
ObjectDBX Classes
 90
        0
280
     0
281
     0
  0
CLASS
  1
LAYOUT
  2
AcDbLayout
  3
ObjectDBX Classes
 90
        0
280
     0
281
     0
  0
ENDSEC
  0
SECTION
  2
TABLES
  0
TABLE
  2
VPORT
  5
8
330
0
100
AcDbSymbolTable
 70
     1
  0
VPORT
  5
29
330
8
100
AcDbSymbolTableRecord
100
AcDbViewportTableRecord
  2
*Active
 70
     0
 10
0.0
 20
0.0
 11
1.0
 21
1.0
 12
108.182732
 22
115.892273
 13
0.0
 23
0.0
 14
1.0
 24
1.0
 15
0.0
 25
0.0
 16
0.0
 26
0.0
 36
1.0
 17
0.0
 27
0.0
 37
0.0
 40
200.986363
 41
1.691288
 42
50.0
 43
0.0
 44
0.0
 50
0.0
 51
0.0
 71
     0
 72
   100
 73
     1
 74
     3
 75
     0
 76
     0
 77
     0
 78
     0
281
     0
 65
     1
110
0.0
120
0.0
130
0.0
111
1.0
121
0.0
131
0.0
112
0.0
122
1.0
132
0.0
 79
     0
146
0.0
  0
ENDTAB
  0
TABLE
  2
LTYPE
  5
5
330
0
100
AcDbSymbolTable
 70
     5
  0
LTYPE
  5
14
330
5
100
AcDbSymbolTableRecord
100
AcDbLinetypeTableRecord
  2
ByBlock
 70
     0
  3

 72
    65
 73
     0
 40
0.0
  0
LTYPE
  5
15
330
5
100
AcDbSymbolTableRecord
100
AcDbLinetypeTableRecord
  2
ByLayer
 70
     0
  3

 72
    65
 73
     0
 40
0.0
  0
LTYPE
  5
16
330
5
100
AcDbSymbolTableRecord
100
AcDbLinetypeTableRecord
  2
Continuous
 70
     0
  3
Solid line
 72
    65
 73
     0
 40
0.0
  0
LTYPE
  5
5D
330
5
100
AcDbSymbolTableRecord
100
AcDbLinetypeTableRecord
  2
DASHED
 70
     0
  3
DASHED
 72
    83
 73
     2
 40
0.75
 49
0.5
 74
     0
 49
-0.25
 74
     0
  0
LTYPE
  5
5E
330
5
100
AcDbSymbolTableRecord
100
AcDbLinetypeTableRecord
  2
HIDDEN
 70
     0
  3
HIDDEN
 72
    83
 73
     2
 40
0.375
 49
0.25
 74
     0
 49
-0.125
 74
     0
  0
LTYPE
  5
5F
330
5
100
AcDbSymbolTableRecord
100
AcDbLinetypeTableRecord
  2
CENTER
 70
     0
  3
CENTER
 72
    83
 73
     4
 40
2.0
 49
1.25
 74
     0
 49
-0.25
 74
     0
 49
0.25
 74
     0
 49
-0.25
 74
     0
  0
LTYPE
  5
60
330
5
100
AcDbSymbolTableRecord
100
AcDbLinetypeTableRecord
  2
PHANTOM
 70
     0
  3
PHANTOM
 72
    83
 73
     6
 40
2.5
 49
1.25
 74
     0
 49
-0.25
 74
     0
 49
0.25
 74
     0
 49
-0.25
 74
     0
 49
0.25
 74
     0
 49
-0.25
 74
     0
  0
ENDTAB
  0
TABLE
  2
LAYER
  5
2
330
0
100
AcDbSymbolTable
 70
     2
  0
LAYER
  5
10
330
2
100
AcDbSymbolTableRecord
100
AcDbLayerTableRecord
  2
0
 70
     0
 62
     7
  6
Continuous
370
    -3
390
F
  0
LAYER
  5
61
330
2
100
AcDbSymbolTableRecord
100
AcDbLayerTableRecord
  2
001
 70
     0
 62
     7
  6
Continuous
370
    -3
390
F
  0
ENDTAB
  0
TABLE
  2
STYLE
  5
3
330
0
100
AcDbSymbolTable
 70
     2
  0
STYLE
  5
11
330
3
100
AcDbSymbolTableRecord
100
AcDbTextStyleTableRecord
  2
Standard
 70
     0
 40
0.0
 41
1.0
 50
0.0
 71
     0
 42
0.2
  3
TXT
  4
BIGFONT
  0
STYLE
  5
62
330
3
100
AcDbSymbolTableRecord
100
AcDbTextStyleTableRecord
  2
TATEGAKI
 70
     4
 40
1.0
 41
1.0
 50
0.0
 71
     0
 42
0.2
  3
TXT
  4
BIGFONT
  0
ENDTAB
  0
TABLE
  2
VIEW
  5
6
330
0
100
AcDbSymbolTable
 70
     0
  0
ENDTAB
  0
TABLE
  2
UCS
  5
7
330
0
100
AcDbSymbolTable
 70
     0
  0
ENDTAB
  0
TABLE
  2
APPID
  5
9
330
0
100
AcDbSymbolTable
 70
     1
  0
APPID
  5
12
330
9
100
AcDbSymbolTableRecord
100
AcDbRegAppTableRecord
  2
ACAD
 70
     0
  0
ENDTAB
  0
TABLE
  2
DIMSTYLE
  5
A
330
0
100
AcDbSymbolTable
 70
     2
100
AcDbDimStyleTable
  0
DIMSTYLE
105
27
330
A
100
AcDbSymbolTableRecord
100
AcDbDimStyleTableRecord
  2
ISO-25
 70
     0
 41
2.5
 42
0.625
 43
3.75
 44
1.25
 73
     0
 74
     0
 77
     1
 78
     8
140
2.5
141
2.5
143
0.03937
147
0.625
171
     3
172
     1
271
     2
272
     2
274
     3
278
    44
283
     0
284
     8
340
11
  0
DIMSTYLE
105
63
102
{ACAD_REACTORS
330
B4
330
C1
330
C2
330
C3
102
}
330
A
100
AcDbSymbolTableRecord
100
AcDbDimStyleTableRecord
  2
Standard
 70
     0
 41
1.5
 42
0.0
 44
2.75
 73
     0
 74
     0
 77
     1
 78
     8
 79
     2
140
4.0
146
0.8
147
1.0
172
     1
179
     1
271
     1
340
11
  0
ENDTAB
  0
TABLE
  2
BLOCK_RECORD
  5
1
330
0
100
AcDbSymbolTable
 70
     5
  0
BLOCK_RECORD
  5
1F
330
1
100
AcDbSymbolTableRecord
100
AcDbBlockTableRecord
  2
*Model_Space
340
22
  0
BLOCK_RECORD
  5
1B
330
1
100
AcDbSymbolTableRecord
100
AcDbBlockTableRecord
  2
*Paper_Space
340
1E
  0
BLOCK_RECORD
  5
23
330
1
100
AcDbSymbolTableRecord
100
AcDbBlockTableRecord
  2
*Paper_Space0
340
26
  0
BLOCK_RECORD
  5
64
330
1
100
AcDbSymbolTableRecord
100
AcDbBlockTableRecord
  2
*D1
340
0
  0
BLOCK_RECORD
  5
78
330
1
100
AcDbSymbolTableRecord
100
AcDbBlockTableRecord
  2
*D2
340
0
  0
BLOCK_RECORD
  5
8C
330
1
100
AcDbSymbolTableRecord
100
AcDbBlockTableRecord
  2
*D3
340
0
  0
BLOCK_RECORD
  5
A0
330
1
100
AcDbSymbolTableRecord
100
AcDbBlockTableRecord
  2
*D4
340
0
  0
ENDTAB
  0
ENDSEC
  0
SECTION
  2
BLOCKS
  0
BLOCK
  5
20
330
1F
100
AcDbEntity
  8
0
100
AcDbBlockBegin
  2
*Model_Space
 70
     0
 10
0.0
 20
0.0
 30
0.0
  3
*Model_Space
  1

  0
ENDBLK
  5
21
330
1F
100
AcDbEntity
  8
0
100
AcDbBlockEnd
  0
BLOCK
  5
1C
330
1B
100
AcDbEntity
 67
     1
  8
0
100
AcDbBlockBegin
  2
*Paper_Space
 70
     0
 10
0.0
 20
0.0
 30
0.0
  3
*Paper_Space
  1

  0
ENDBLK
  5
1D
330
1B
100
AcDbEntity
 67
     1
  8
0
100
AcDbBlockEnd
  0
BLOCK
  5
24
330
23
100
AcDbEntity
  8
0
100
AcDbBlockBegin
  2
*Paper_Space0
 70
     0
 10
0.0
 20
0.0
 30
0.0
  3
*Paper_Space0
  1

  0
ENDBLK
  5
25
330
23
100
AcDbEntity
  8
0
100
AcDbBlockEnd
  0
BLOCK
  5
65
330
64
100
AcDbEntity
  8
0
100
AcDbBlockBegin
  2
*D1
 70
     1
 10
0.0
 20
0.0
 30
0.0
  3
*D1
  1

  0
LINE
  5
67
330
64
100
AcDbEntity
  8
001
370
     9
100
AcDbLine
 10
164.744858
 20
138.961019
 30
0.0
 11
202.342273
 21
138.961019
 31
0.0
  0
LINE
  5
68
330
64
100
AcDbEntity
  8
001
370
     9
100
AcDbLine
 10
164.744858
 20
106.961019
 30
0.0
 11
202.342273
 21
106.961019
 31
0.0
  0
LINE
  5
69
330
64
100
AcDbEntity
  8
001
370
     9
100
AcDbLine
 10
199.592273
 20
138.961019
 30
0.0
 11
199.592273
 21
106.961019
 31
0.0
  0
POLYLINE
  5
6A
330
64
100
AcDbEntity
  8
001
370
     9
100
AcDb2dPolyline
 66
     1
 10
0.0
 20
0.0
 30
0.0
  0
VERTEX
  5
6C
330
6A
100
AcDbEntity
  8
001
370
     9
100
AcDbVertex
100
AcDb2dVertex
 10
199.190349
 20
137.461019
 30
0.0
  0
VERTEX
  5
6D
330
6A
100
AcDbEntity
  8
001
370
     9
100
AcDbVertex
100
AcDb2dVertex
 10
199.592273
 20
138.961019
 30
0.0
  0
VERTEX
  5
6E
330
6A
100
AcDbEntity
  8
001
370
     9
100
AcDbVertex
100
AcDb2dVertex
 10
199.994197
 20
137.461019
 30
0.0
  0
SEQEND
  5
6B
330
6A
100
AcDbEntity
  8
001
370
     9
  0
POLYLINE
  5
6F
330
64
100
AcDbEntity
  8
001
370
     9
100
AcDb2dPolyline
 66
     1
 10
0.0
 20
0.0
 30
0.0
  0
VERTEX
  5
71
330
6F
100
AcDbEntity
  8
001
370
     9
100
AcDbVertex
100
AcDb2dVertex
 10
199.994197
 20
108.461019
 30
0.0
  0
VERTEX
  5
72
330
6F
100
AcDbEntity
  8
001
370
     9
100
AcDbVertex
100
AcDb2dVertex
 10
199.592273
 20
106.961019
 30
0.0
  0
VERTEX
  5
73
330
6F
100
AcDbEntity
  8
001
370
     9
100
AcDbVertex
100
AcDb2dVertex
 10
199.190349
 20
108.461019
 30
0.0
  0
SEQEND
  5
70
330
6F
100
AcDbEntity
  8
001
370
     9
  0
TEXT
  5
74
330
64
100
AcDbEntity
  8
001
370
    30
100
AcDbText
 10
198.592273
 20
116.961019
 30
0.0
 40
4.0
  1
%%c３２
 50
90.000003
 41
0.882353
100
AcDbText
  0
POINT
  5
75
330
64
100
AcDbEntity
  8
001
370
     9
100
AcDbPoint
 10
164.744858
 20
138.961019
 30
0.0
  0
POINT
  5
76
330
64
100
AcDbEntity
  8
001
370
     9
100
AcDbPoint
 10
164.744858
 20
106.961019
 30
0.0
  0
POINT
  5
77
330
64
100
AcDbEntity
  8
001
370
     9
100
AcDbPoint
 10
199.592273
 20
106.961019
 30
0.0
  0
ENDBLK
  5
66
330
64
100
AcDbEntity
  8
0
100
AcDbBlockEnd
  0
BLOCK
  5
79
330
78
100
AcDbEntity
  8
0
100
AcDbBlockBegin
  2
*D2
 70
     1
 10
0.0
 20
0.0
 30
0.0
  3
*D2
  1

  0
LINE
  5
7B
330
78
100
AcDbEntity
  8
001
370
     9
100
AcDbLine
 10
90.744858
 20
78.961019
 30
0.0
 11
90.744858
 21
29.368084
 31
0.0
  0
LINE
  5
7C
330
78
100
AcDbEntity
  8
001
370
     9
100
AcDbLine
 10
47.244858
 20
56.948195
 30
0.0
 11
47.244858
 21
29.368084
 31
0.0
  0
LINE
  5
7D
330
78
100
AcDbEntity
  8
001
370
     9
100
AcDbLine
 10
90.744858
 20
32.118084
 30
0.0
 11
47.244858
 21
32.118084
 31
0.0
  0
POLYLINE
  5
7E
330
78
100
AcDbEntity
  8
001
370
     9
100
AcDb2dPolyline
 66
     1
 10
0.0
 20
0.0
 30
0.0
  0
VERTEX
  5
80
330
7E
100
AcDbEntity
  8
001
370
     9
100
AcDbVertex
100
AcDb2dVertex
 10
89.244858
 20
32.520008
 30
0.0
  0
VERTEX
  5
81
330
7E
100
AcDbEntity
  8
001
370
     9
100
AcDbVertex
100
AcDb2dVertex
 10
90.744858
 20
32.118084
 30
0.0
  0
VERTEX
  5
82
330
7E
100
AcDbEntity
  8
001
370
     9
100
AcDbVertex
100
AcDb2dVertex
 10
89.244858
 20
31.71616
 30
0.0
  0
SEQEND
  5
7F
330
7E
100
AcDbEntity
  8
001
370
     9
  0
POLYLINE
  5
83
330
78
100
AcDbEntity
  8
001
370
     9
100
AcDb2dPolyline
 66
     1
 10
0.0
 20
0.0
 30
0.0
  0
VERTEX
  5
85
330
83
100
AcDbEntity
  8
001
370
     9
100
AcDbVertex
100
AcDb2dVertex
 10
48.744858
 20
31.71616
 30
0.0
  0
VERTEX
  5
86
330
83
100
AcDbEntity
  8
001
370
     9
100
AcDbVertex
100
AcDb2dVertex
 10
47.244858
 20
32.118084
 30
0.0
  0
VERTEX
  5
87
330
83
100
AcDbEntity
  8
001
370
     9
100
AcDbVertex
100
AcDb2dVertex
 10
48.744858
 20
32.520008
 30
0.0
  0
SEQEND
  5
84
330
83
100
AcDbEntity
  8
001
370
     9
  0
TEXT
  5
88
330
78
100
AcDbEntity
  8
001
370
    30
100
AcDbText
 10
60.994858
 20
33.118084
 30
0.0
 40
4.0
  1
４３．５
 41
0.833333
100
AcDbText
  0
POINT
  5
89
330
78
100
AcDbEntity
  8
001
370
     9
100
AcDbPoint
 10
90.744858
 20
78.961019
 30
0.0
  0
POINT
  5
8A
330
78
100
AcDbEntity
  8
001
370
     9
100
AcDbPoint
 10
47.244858
 20
56.948195
 30
0.0
  0
POINT
  5
8B
330
78
100
AcDbEntity
  8
001
370
     9
100
AcDbPoint
 10
47.244858
 20
32.118084
 30
0.0
  0
ENDBLK
  5
7A
330
78
100
AcDbEntity
  8
0
100
AcDbBlockEnd
  0
BLOCK
  5
8D
330
8C
100
AcDbEntity
  8
0
100
AcDbBlockBegin
  2
*D3
 70
     1
 10
0.0
 20
0.0
 30
0.0
  3
*D3
  1

  0
LINE
  5
8F
330
8C
100
AcDbEntity
  8
001
370
     9
100
AcDbLine
 10
90.744858
 20
78.961019
 30
0.0
 11
90.744858
 21
29.368084
 31
0.0
  0
LINE
  5
90
330
8C
100
AcDbEntity
  8
001
370
     9
100
AcDbLine
 10
170.744858
 20
112.961019
 30
0.0
 11
170.744858
 21
29.368084
 31
0.0
  0
LINE
  5
91
330
8C
100
AcDbEntity
  8
001
370
     9
100
AcDbLine
 10
90.744858
 20
32.118084
 30
0.0
 11
170.744858
 21
32.118084
 31
0.0
  0
POLYLINE
  5
92
330
8C
100
AcDbEntity
  8
001
370
     9
100
AcDb2dPolyline
 66
     1
 10
0.0
 20
0.0
 30
0.0
  0
VERTEX
  5
94
330
92
100
AcDbEntity
  8
001
370
     9
100
AcDbVertex
100
AcDb2dVertex
 10
92.244858
 20
31.71616
 30
0.0
  0
VERTEX
  5
95
330
92
100
AcDbEntity
  8
001
370
     9
100
AcDbVertex
100
AcDb2dVertex
 10
90.744858
 20
32.118084
 30
0.0
  0
VERTEX
  5
96
330
92
100
AcDbEntity
  8
001
370
     9
100
AcDbVertex
100
AcDb2dVertex
 10
92.244858
 20
32.520008
 30
0.0
  0
SEQEND
  5
93
330
92
100
AcDbEntity
  8
001
370
     9
  0
POLYLINE
  5
97
330
8C
100
AcDbEntity
  8
001
370
     9
100
AcDb2dPolyline
 66
     1
 10
0.0
 20
0.0
 30
0.0
  0
VERTEX
  5
99
330
97
100
AcDbEntity
  8
001
370
     9
100
AcDbVertex
100
AcDb2dVertex
 10
169.244858
 20
32.520008
 30
0.0
  0
VERTEX
  5
9A
330
97
100
AcDbEntity
  8
001
370
     9
100
AcDbVertex
100
AcDb2dVertex
 10
170.744858
 20
32.118084
 30
0.0
  0
VERTEX
  5
9B
330
97
100
AcDbEntity
  8
001
370
     9
100
AcDbVertex
100
AcDb2dVertex
 10
169.244858
 20
31.71616
 30
0.0
  0
SEQEND
  5
98
330
97
100
AcDbEntity
  8
001
370
     9
  0
TEXT
  5
9C
330
8C
100
AcDbEntity
  8
001
370
    30
100
AcDbText
 10
126.744858
 20
33.118084
 30
0.0
 40
4.0
  1
８０
 41
0.833333
100
AcDbText
  0
POINT
  5
9D
330
8C
100
AcDbEntity
  8
001
370
     9
100
AcDbPoint
 10
90.744858
 20
78.961019
 30
0.0
  0
POINT
  5
9E
330
8C
100
AcDbEntity
  8
001
370
     9
100
AcDbPoint
 10
170.744858
 20
112.961019
 30
0.0
  0
POINT
  5
9F
330
8C
100
AcDbEntity
  8
001
370
     9
100
AcDbPoint
 10
170.744858
 20
32.118084
 30
0.0
  0
ENDBLK
  5
8E
330
8C
100
AcDbEntity
  8
0
100
AcDbBlockEnd
  0
BLOCK
  5
A1
330
A0
100
AcDbEntity
  8
0
100
AcDbBlockBegin
  2
*D4
 70
     1
 10
0.0
 20
0.0
 30
0.0
  3
*D4
  1

  0
LINE
  5
A3
330
A0
100
AcDbEntity
  8
001
370
     9
100
AcDbLine
 10
47.244858
 20
32.118084
 30
0.0
 11
47.244858
 21
16.394075
 31
0.0
  0
LINE
  5
A4
330
A0
100
AcDbEntity
  8
001
370
     9
100
AcDbLine
 10
170.744858
 20
112.961019
 30
0.0
 11
170.744858
 21
16.394075
 31
0.0
  0
LINE
  5
A5
330
A0
100
AcDbEntity
  8
001
370
     9
100
AcDbLine
 10
47.244858
 20
19.144075
 30
0.0
 11
170.744858
 21
19.144075
 31
0.0
  0
POLYLINE
  5
A6
330
A0
100
AcDbEntity
  8
001
370
     9
100
AcDb2dPolyline
 66
     1
 10
0.0
 20
0.0
 30
0.0
  0
VERTEX
  5
A8
330
A6
100
AcDbEntity
  8
001
370
     9
100
AcDbVertex
100
AcDb2dVertex
 10
48.744858
 20
18.742151
 30
0.0
  0
VERTEX
  5
A9
330
A6
100
AcDbEntity
  8
001
370
     9
100
AcDbVertex
100
AcDb2dVertex
 10
47.244858
 20
19.144075
 30
0.0
  0
VERTEX
  5
AA
330
A6
100
AcDbEntity
  8
001
370
     9
100
AcDbVertex
100
AcDb2dVertex
 10
48.744858
 20
19.545999
 30
0.0
  0
SEQEND
  5
A7
330
A6
100
AcDbEntity
  8
001
370
     9
  0
POLYLINE
  5
AB
330
A0
100
AcDbEntity
  8
001
370
     9
100
AcDb2dPolyline
 66
     1
 10
0.0
 20
0.0
 30
0.0
  0
VERTEX
  5
AD
330
AB
100
AcDbEntity
  8
001
370
     9
100
AcDbVertex
100
AcDb2dVertex
 10
169.244858
 20
19.545999
 30
0.0
  0
VERTEX
  5
AE
330
AB
100
AcDbEntity
  8
001
370
     9
100
AcDbVertex
100
AcDb2dVertex
 10
170.744858
 20
19.144075
 30
0.0
  0
VERTEX
  5
AF
330
AB
100
AcDbEntity
  8
001
370
     9
100
AcDbVertex
100
AcDb2dVertex
 10
169.244858
 20
18.742151
 30
0.0
  0
SEQEND
  5
AC
330
AB
100
AcDbEntity
  8
001
370
     9
  0
TEXT
  5
B0
330
A0
100
AcDbEntity
  8
001
370
    30
100
AcDbText
 10
98.994858
 20
20.144075
 30
0.0
 40
4.0
  1
１２３．５
 41
0.833333
100
AcDbText
  0
POINT
  5
B1
330
A0
100
AcDbEntity
  8
001
370
     9
100
AcDbPoint
 10
47.244858
 20
32.118084
 30
0.0
  0
POINT
  5
B2
330
A0
100
AcDbEntity
  8
001
370
     9
100
AcDbPoint
 10
170.744858
 20
112.961019
 30
0.0
  0
POINT
  5
B3
330
A0
100
AcDbEntity
  8
001
370
     9
100
AcDbPoint
 10
170.744858
 20
19.144075
 30
0.0
  0
ENDBLK
  5
A2
330
A0
100
AcDbEntity
  8
0
100
AcDbBlockEnd
  0
ENDSEC
  0
SECTION
  2
ENTITIES
  0
DIMENSION
  5
B4
330
1F
100
AcDbEntity
  8
001
370
     9
100
AcDbDimension
  2
*D1
 10
199.592273
 20
106.961019
 30
0.0
 11
196.592273
 21
122.961019
 31
0.0
 70
   160
 71
     5
 42
-1.0
  3
Standard
100
AcDbAlignedDimension
 13
164.744858
 23
138.961019
 33
0.0
 14
164.744858
 24
106.961019
 34
0.0
 50
270.0
100
AcDbRotatedDimension
  0
TEXT
  5
B5
330
1F
100
AcDbEntity
  8
001
370
    30
100
AcDbText
 10
18.023187
 20
114.961019
 30
0.0
 40
4.0
  1
%%c１３０
 50
90.000003
 41
0.869565
100
AcDbText
  0
POLYLINE
  5
B6
330
1F
100
AcDbEntity
  8
001
370
     9
100
AcDb2dPolyline
 66
     1
 10
0.0
 20
0.0
 30
0.0
  0
VERTEX
  5
B8
330
B6
100
AcDbEntity
  8
001
370
     9
100
AcDbVertex
100
AcDb2dVertex
 10
19.425111
 20
59.461019
 30
0.0
  0
VERTEX
  5
B9
330
B6
100
AcDbEntity
  8
001
370
     9
100
AcDbVertex
100
AcDb2dVertex
 10
19.023187
 20
57.961019
 30
0.0
  0
VERTEX
  5
BA
330
B6
100
AcDbEntity
  8
001
370
     9
100
AcDbVertex
100
AcDb2dVertex
 10
18.621263
 20
59.461019
 30
0.0
  0
SEQEND
  5
B7
330
B6
100
AcDbEntity
  8
001
370
     9
  0
LINE
  5
BB
330
1F
100
AcDbEntity
  8
001
370
     9
100
AcDbLine
 10
19.023187
 20
187.961019
 30
0.0
 11
19.023187
 21
57.961019
 31
0.0
  0
POLYLINE
  5
BC
330
1F
100
AcDbEntity
  8
001
370
     9
100
AcDb2dPolyline
 66
     1
 10
0.0
 20
0.0
 30
0.0
  0
VERTEX
  5
BE
330
BC
100
AcDbEntity
  8
001
370
     9
100
AcDbVertex
100
AcDb2dVertex
 10
47.244858
 20
57.961019
 30
0.0
  0
VERTEX
  5
BF
330
BC
100
AcDbEntity
  8
001
370
     9
100
AcDbVertex
100
AcDb2dVertex
 10
19.023187
 20
57.961019
 30
0.0
  0
VERTEX
  5
C0
330
BC
100
AcDbEntity
  8
001
370
     9
100
AcDbVertex
100
AcDb2dVertex
 10
16.273187
 20
57.961019
 30
0.0
  0
SEQEND
  5
BD
330
BC
100
AcDbEntity
  8
001
370
     9
  0
DIMENSION
  5
C1
330
1F
100
AcDbEntity
  8
001
370
     9
100
AcDbDimension
  2
*D2
 10
47.244858
 20
32.118084
 30
0.0
 11
68.994858
 21
35.118084
 31
0.0
 70
   160
 71
     5
 42
-1.0
  3
Standard
100
AcDbAlignedDimension
 13
90.744858
 23
78.961019
 33
0.0
 14
47.244858
 24
56.948195
 34
0.0
 50
180.0
100
AcDbRotatedDimension
  0
DIMENSION
  5
C2
330
1F
100
AcDbEntity
  8
001
370
     9
100
AcDbDimension
  2
*D3
 10
170.744858
 20
32.118084
 30
0.0
 11
130.744858
 21
35.118084
 31
0.0
 70
   160
 71
     5
 42
-1.0
  3
Standard
100
AcDbAlignedDimension
 13
90.744858
 23
78.961019
 33
0.0
 14
170.744858
 24
112.961019
 34
0.0
100
AcDbRotatedDimension
  0
DIMENSION
  5
C3
330
1F
100
AcDbEntity
  8
001
370
     9
100
AcDbDimension
  2
*D4
 10
170.744858
 20
19.144075
 30
0.0
 11
108.994858
 21
22.144075
 31
0.0
 70
   160
 71
     5
 42
-1.0
  3
Standard
100
AcDbAlignedDimension
 13
47.244858
 23
32.118084
 33
0.0
 14
170.744858
 24
112.961019
 34
0.0
100
AcDbRotatedDimension
  0
LINE
  5
C4
330
1F
100
AcDbEntity
  8
001
  6
CENTER
370
     9
100
AcDbLine
 10
38.678149
 20
122.961019
 30
0.0
 11
179.762205
 21
122.961019
 31
0.0
  0
LINE
  5
C5
330
1F
100
AcDbEntity
  8
001
370
    50
100
AcDbLine
 10
170.744858
 20
122.961019
 30
0.0
 11
178.643277
 21
127.521173
 31
0.0
  0
LINE
  5
C6
330
1F
100
AcDbEntity
  8
001
370
    50
100
AcDbLine
 10
170.744858
 20
122.961019
 30
0.0
 11
178.643277
 21
118.400865
 31
0.0
  0
LINE
  5
C7
330
1F
100
AcDbEntity
  8
001
370
    50
100
AcDbLine
 10
50.744858
 20
122.961019
 30
0.0
 11
42.84644
 21
127.521173
 31
0.0
  0
LINE
  5
C8
330
1F
100
AcDbEntity
  8
001
370
    50
100
AcDbLine
 10
50.744858
 20
122.961019
 30
0.0
 11
42.84644
 21
118.400865
 31
0.0
  0
LINE
  5
C9
330
1F
100
AcDbEntity
  8
001
 62
   200
370
    50
100
AcDbLine
 10
48.087897
 20
158.867031
 30
0.0
 11
50.744858
 21
157.965974
 31
0.0
  0
LINE
  5
CA
330
1F
100
AcDbEntity
  8
001
 62
   200
370
    50
100
AcDbLine
 10
48.087897
 20
158.867031
 30
0.0
 11
48.087897
 21
165.561621
 31
0.0
  0
POLYLINE
  5
CB
330
1F
100
AcDbEntity
  8
001
 62
   200
370
    50
100
AcDb2dPolyline
 66
     1
 10
0.0
 20
0.0
 30
0.0
  0
VERTEX
  5
CD
330
CB
100
AcDbEntity
  8
001
 62
   200
370
    50
100
AcDbVertex
100
AcDb2dVertex
 10
49.42088
 20
169.651148
 30
0.0
  0
VERTEX
  5
CE
330
CB
100
AcDbEntity
  8
001
 62
   200
370
    50
100
AcDbVertex
100
AcDb2dVertex
 10
49.049601
 20
168.660081
 30
0.0
  0
VERTEX
  5
CF
330
CB
100
AcDbEntity
  8
001
 62
   200
370
    50
100
AcDbVertex
100
AcDb2dVertex
 10
48.701531
 20
167.661436
 30
0.0
  0
VERTEX
  5
D0
330
CB
100
AcDbEntity
  8
001
 62
   200
370
    50
100
AcDbVertex
100
AcDb2dVertex
 10
48.382308
 20
166.61558
 30
0.0
  0
VERTEX
  5
D1
330
CB
100
AcDbEntity
  8
001
 62
   200
370
    50
100
AcDbVertex
100
AcDb2dVertex
 10
48.087897
 20
165.561621
 30
0.0
  0
SEQEND
  5
CC
330
CB
100
AcDbEntity
  8
001
370
    50
  0
POLYLINE
  5
D2
330
1F
100
AcDbEntity
  8
001
 62
   200
370
    50
100
AcDb2dPolyline
 66
     1
 10
0.0
 20
0.0
 30
0.0
  0
VERTEX
  5
D4
330
D2
100
AcDbEntity
  8
001
 62
   200
370
    50
100
AcDbVertex
100
AcDb2dVertex
 10
50.744858
 20
170.078703
 30
0.0
  0
VERTEX
  5
D5
330
D2
100
AcDbEntity
  8
001
 62
   200
370
    50
100
AcDbVertex
100
AcDb2dVertex
 10
50.471482
 20
170.00018
 30
0.0
  0
VERTEX
  5
D6
330
D2
100
AcDbEntity
  8
001
 62
   200
370
    50
100
AcDbVertex
100
AcDb2dVertex
 10
50.074291
 20
169.877761
 30
0.0
  0
VERTEX
  5
D7
330
D2
100
AcDbEntity
  8
001
 62
   200
370
    50
100
AcDbVertex
100
AcDb2dVertex
 10
49.685289
 20
169.746281
 30
0.0
  0
VERTEX
  5
D8
330
D2
100
AcDbEntity
  8
001
 62
   200
370
    50
100
AcDbVertex
100
AcDb2dVertex
 10
49.42088
 20
169.651148
 30
0.0
  0
SEQEND
  5
D3
330
D2
100
AcDbEntity
  8
001
370
    50
  0
LINE
  5
D9
330
1F
100
AcDbEntity
  8
001
 62
     4
370
    50
100
AcDbLine
 10
55.376808
 20
50.680604
 30
0.0
 11
61.549447
 21
57.148794
 31
0.0
  0
LINE
  5
DA
330
1F
100
AcDbEntity
  8
001
 62
     4
370
    50
100
AcDbLine
 10
53.417498
 20
50.653128
 30
0.0
 11
55.376808
 21
50.680604
 31
0.0
  0
LINE
  5
DB
330
1F
100
AcDbEntity
  8
001
 62
     4
370
    50
100
AcDbLine
 10
47.244858
 20
56.948195
 30
0.0
 11
53.417498
 21
50.653128
 31
0.0
  0
LINE
  5
DC
330
1F
100
AcDbEntity
  8
001
 62
     4
370
    50
100
AcDbLine
 10
47.244858
 20
58.973842
 30
0.0
 11
47.244858
 21
56.948195
 31
0.0
  0
LINE
  5
DD
330
1F
100
AcDbEntity
  8
001
 62
     4
370
    50
100
AcDbLine
 10
53.417498
 20
65.442032
 30
0.0
 11
47.244858
 21
58.973842
 31
0.0
  0
LINE
  5
DE
330
1F
100
AcDbEntity
  8
001
 62
     4
370
    50
100
AcDbLine
 10
55.376808
 20
65.469508
 30
0.0
 11
53.417498
 21
65.442032
 31
0.0
  0
LINE
  5
DF
330
1F
100
AcDbEntity
  8
001
 62
     4
370
    50
100
AcDbLine
 10
61.549447
 20
59.174441
 30
0.0
 11
55.376808
 21
65.469508
 31
0.0
  0
LINE
  5
E0
330
1F
100
AcDbEntity
  8
001
 62
     4
370
    50
100
AcDbLine
 10
61.549447
 20
57.148794
 30
0.0
 11
61.549447
 21
59.174441
 31
0.0
  0
POLYLINE
  5
E1
330
1F
100
AcDbEntity
  8
001
 62
     4
370
    50
100
AcDb2dPolyline
 66
     1
 10
0.0
 20
0.0
 30
0.0
  0
VERTEX
  5
E3
330
E1
100
AcDbEntity
  8
001
 62
     4
370
    50
100
AcDbVertex
100
AcDb2dVertex
 10
54.397153
 20
55.065429
 30
0.0
  0
VERTEX
  5
E4
330
E1
100
AcDbEntity
  8
001
 62
     4
370
    50
100
AcDbVertex
100
AcDb2dVertex
 10
54.578284
 20
55.076356
 30
0.0
  0
VERTEX
  5
E5
330
E1
100
AcDbEntity
  8
001
 62
     4
370
    50
100
AcDbVertex
100
AcDb2dVertex
 10
54.828125
 20
55.104792
 30
0.0
  0
VERTEX
  5
E6
330
E1
100
AcDbEntity
  8
001
 62
     4
370
    50
100
AcDbVertex
100
AcDb2dVertex
 10
55.08943
 20
55.158449
 30
0.0
  0
VERTEX
  5
E7
330
E1
100
AcDbEntity
  8
001
 62
     4
370
    50
100
AcDbVertex
100
AcDb2dVertex
 10
55.319175
 20
55.234057
 30
0.0
  0
VERTEX
  5
E8
330
E1
100
AcDbEntity
  8
001
 62
     4
370
    50
100
AcDbVertex
100
AcDb2dVertex
 10
55.986393
 20
55.589706
 30
0.0
  0
VERTEX
  5
E9
330
E1
100
AcDbEntity
  8
001
 62
     4
370
    50
100
AcDbVertex
100
AcDb2dVertex
 10
56.569237
 20
56.108721
 30
0.0
  0
VERTEX
  5
EA
330
E1
100
AcDbEntity
  8
001
 62
     4
370
    50
100
AcDbVertex
100
AcDb2dVertex
 10
56.872424
 20
56.534531
 30
0.0
  0
VERTEX
  5
EB
330
E1
100
AcDbEntity
  8
001
 62
     4
370
    50
100
AcDbVertex
100
AcDb2dVertex
 10
57.094278
 20
57.003726
 30
0.0
  0
VERTEX
  5
EC
330
E1
100
AcDbEntity
  8
001
 62
     4
370
    50
100
AcDbVertex
100
AcDb2dVertex
 10
57.176178
 20
57.252219
 30
0.0
  0
VERTEX
  5
ED
330
E1
100
AcDbEntity
  8
001
 62
     4
370
    50
100
AcDbVertex
100
AcDb2dVertex
 10
57.23729
 20
57.506581
 30
0.0
  0
VERTEX
  5
EE
330
E1
100
AcDbEntity
  8
001
 62
     4
370
    50
100
AcDbVertex
100
AcDb2dVertex
 10
57.276669
 20
57.76516
 30
0.0
  0
VERTEX
  5
EF
330
E1
100
AcDbEntity
  8
001
 62
     4
370
    50
100
AcDbVertex
100
AcDb2dVertex
 10
57.294006
 20
58.026292
 30
0.0
  0
VERTEX
  5
F0
330
E1
100
AcDbEntity
  8
001
 62
     4
370
    50
100
AcDbVertex
100
AcDb2dVertex
 10
57.262767
 20
58.545308
 30
0.0
  0
VERTEX
  5
F1
330
E1
100
AcDbEntity
  8
001
 62
     4
370
    50
100
AcDbVertex
100
AcDb2dVertex
 10
57.144331
 20
59.053083
 30
0.0
  0
VERTEX
  5
F2
330
E1
100
AcDbEntity
  8
001
 62
     4
370
    50
100
AcDbVertex
100
AcDb2dVertex
 10
56.815096
 20
59.747469
 30
0.0
  0
VERTEX
  5
F3
330
E1
100
AcDbEntity
  8
001
 62
     4
370
    50
100
AcDbVertex
100
AcDb2dVertex
 10
56.315267
 20
60.333842
 30
0.0
  0
VERTEX
  5
F4
330
E1
100
AcDbEntity
  8
001
 62
     4
370
    50
100
AcDbVertex
100
AcDb2dVertex
 10
56.115628
 20
60.496055
 30
0.0
  0
VERTEX
  5
F5
330
E1
100
AcDbEntity
  8
001
 62
     4
370
    50
100
AcDbVertex
100
AcDb2dVertex
 10
55.908949
 20
60.638382
 30
0.0
  0
VERTEX
  5
F6
330
E1
100
AcDbEntity
  8
001
 62
     4
370
    50
100
AcDbVertex
100
AcDb2dVertex
 10
55.698606
 20
60.759526
 30
0.0
  0
VERTEX
  5
F7
330
E1
100
AcDbEntity
  8
001
 62
     4
370
    50
100
AcDbVertex
100
AcDb2dVertex
 10
55.456694
 20
60.864619
 30
0.0
  0
VERTEX
  5
F8
330
E1
100
AcDbEntity
  8
001
 62
     4
370
    50
100
AcDbVertex
100
AcDb2dVertex
 10
55.178276
 20
60.953802
 30
0.0
  0
VERTEX
  5
F9
330
E1
100
AcDbEntity
  8
001
 62
     4
370
    50
100
AcDbVertex
100
AcDb2dVertex
 10
54.972247
 20
61.00568
 30
0.0
  0
SEQEND
  5
E2
330
E1
100
AcDbEntity
  8
001
370
    50
  0
POLYLINE
  5
FA
330
1F
100
AcDbEntity
  8
001
 62
     4
370
    50
100
AcDb2dPolyline
 66
     1
 10
0.0
 20
0.0
 30
0.0
  0
VERTEX
  5
FC
330
FA
100
AcDbEntity
  8
001
 62
     4
370
    50
100
AcDbVertex
100
AcDb2dVertex
 10
53.822059
 20
55.116956
 30
0.0
  0
VERTEX
  5
FD
330
FA
100
AcDbEntity
  8
001
 62
     4
370
    50
100
AcDbVertex
100
AcDb2dVertex
 10
54.025156
 20
55.086068
 30
0.0
  0
VERTEX
  5
FE
330
FA
100
AcDbEntity
  8
001
 62
     4
370
    50
100
AcDbVertex
100
AcDb2dVertex
 10
54.32398
 20
55.065359
 30
0.0
  0
VERTEX
  5
FF
330
FA
100
AcDbEntity
  8
001
 62
     4
370
    50
100
AcDbVertex
100
AcDb2dVertex
 10
54.367423
 20
55.065191
 30
0.0
  0
VERTEX
  5
100
330
FA
100
AcDbEntity
  8
001
 62
     4
370
    50
100
AcDbVertex
100
AcDb2dVertex
 10
54.397153
 20
55.065429
 30
0.0
  0
SEQEND
  5
FB
330
FA
100
AcDbEntity
  8
001
370
    50
  0
POLYLINE
  5
101
330
1F
100
AcDbEntity
  8
001
 62
     4
370
    50
100
AcDb2dPolyline
 66
     1
 10
0.0
 20
0.0
 30
0.0
  0
VERTEX
  5
103
330
101
100
AcDbEntity
  8
001
 62
     4
370
    50
100
AcDbVertex
100
AcDb2dVertex
 10
54.972247
 20
61.00568
 30
0.0
  0
VERTEX
  5
104
330
101
100
AcDbEntity
  8
001
 62
     4
370
    50
100
AcDbVertex
100
AcDb2dVertex
 10
54.761839
 20
61.035141
 30
0.0
  0
VERTEX
  5
105
330
101
100
AcDbEntity
  8
001
 62
     4
370
    50
100
AcDbVertex
100
AcDb2dVertex
 10
54.470325
 20
61.057277
 30
0.0
  0
VERTEX
  5
106
330
101
100
AcDbEntity
  8
001
 62
     4
370
    50
100
AcDbVertex
100
AcDb2dVertex
 10
54.206648
 20
61.050936
 30
0.0
  0
VERTEX
  5
107
330
101
100
AcDbEntity
  8
001
 62
     4
370
    50
100
AcDbVertex
100
AcDb2dVertex
 10
53.96618
 20
61.017844
 30
0.0
  0
VERTEX
  5
108
330
101
100
AcDbEntity
  8
001
 62
     4
370
    50
100
AcDbVertex
100
AcDb2dVertex
 10
53.721135
 20
60.963749
 30
0.0
  0
VERTEX
  5
109
330
101
100
AcDbEntity
  8
001
 62
     4
370
    50
100
AcDbVertex
100
AcDb2dVertex
 10
53.47513
 20
60.888579
 30
0.0
  0
VERTEX
  5
10A
330
101
100
AcDbEntity
  8
001
 62
     4
370
    50
100
AcDbVertex
100
AcDb2dVertex
 10
52.79141
 20
60.533374
 30
0.0
  0
VERTEX
  5
10B
330
101
100
AcDbEntity
  8
001
 62
     4
370
    50
100
AcDbVertex
100
AcDb2dVertex
 10
52.225068
 20
60.013915
 30
0.0
  0
VERTEX
  5
10C
330
101
100
AcDbEntity
  8
001
 62
     4
370
    50
100
AcDbVertex
100
AcDb2dVertex
 10
51.924226
 20
59.588042
 30
0.0
  0
VERTEX
  5
10D
330
101
100
AcDbEntity
  8
001
 62
     4
370
    50
100
AcDbVertex
100
AcDb2dVertex
 10
51.700027
 20
59.11891
 30
0.0
  0
VERTEX
  5
10E
330
101
100
AcDbEntity
  8
001
 62
     4
370
    50
100
AcDbVertex
100
AcDb2dVertex
 10
51.617893
 20
58.870423
 30
0.0
  0
VERTEX
  5
10F
330
101
100
AcDbEntity
  8
001
 62
     4
370
    50
100
AcDbVertex
100
AcDb2dVertex
 10
51.557015
 20
58.616055
 30
0.0
  0
VERTEX
  5
110
330
101
100
AcDbEntity
  8
001
 62
     4
370
    50
100
AcDbVertex
100
AcDb2dVertex
 10
51.517704
 20
58.357474
 30
0.0
  0
VERTEX
  5
111
330
101
100
AcDbEntity
  8
001
 62
     4
370
    50
100
AcDbVertex
100
AcDb2dVertex
 10
51.500299
 20
58.096344
 30
0.0
  0
VERTEX
  5
112
330
101
100
AcDbEntity
  8
001
 62
     4
370
    50
100
AcDbVertex
100
AcDb2dVertex
 10
51.531493
 20
57.577329
 30
0.0
  0
VERTEX
  5
113
330
101
100
AcDbEntity
  8
001
 62
     4
370
    50
100
AcDbVertex
100
AcDb2dVertex
 10
51.649974
 20
57.069553
 30
0.0
  0
VERTEX
  5
114
330
101
100
AcDbEntity
  8
001
 62
     4
370
    50
100
AcDbVertex
100
AcDb2dVertex
 10
51.979227
 20
56.375166
 30
0.0
  0
VERTEX
  5
115
330
101
100
AcDbEntity
  8
001
 62
     4
370
    50
100
AcDbVertex
100
AcDb2dVertex
 10
52.479038
 20
55.788794
 30
0.0
  0
VERTEX
  5
116
330
101
100
AcDbEntity
  8
001
 62
     4
370
    50
100
AcDbVertex
100
AcDb2dVertex
 10
52.678677
 20
55.626581
 30
0.0
  0
VERTEX
  5
117
330
101
100
AcDbEntity
  8
001
 62
     4
370
    50
100
AcDbVertex
100
AcDb2dVertex
 10
52.885357
 20
55.484254
 30
0.0
  0
VERTEX
  5
118
330
101
100
AcDbEntity
  8
001
 62
     4
370
    50
100
AcDbVertex
100
AcDb2dVertex
 10
53.0957
 20
55.36311
 30
0.0
  0
VERTEX
  5
119
330
101
100
AcDbEntity
  8
001
 62
     4
370
    50
100
AcDbVertex
100
AcDb2dVertex
 10
53.337611
 20
55.258017
 30
0.0
  0
VERTEX
  5
11A
330
101
100
AcDbEntity
  8
001
 62
     4
370
    50
100
AcDbVertex
100
AcDb2dVertex
 10
53.616029
 20
55.168834
 30
0.0
  0
VERTEX
  5
11B
330
101
100
AcDbEntity
  8
001
 62
     4
370
    50
100
AcDbVertex
100
AcDb2dVertex
 10
53.822059
 20
55.116956
 30
0.0
  0
SEQEND
  5
102
330
101
100
AcDbEntity
  8
001
370
    50
  0
LINE
  5
11C
330
1F
100
AcDbEntity
  8
001
 62
   200
370
    50
100
AcDbLine
 10
48.087897
 20
95.355986
 30
0.0
 11
48.087897
 21
101.918878
 31
0.0
  0
POLYLINE
  5
11D
330
1F
100
AcDbEntity
  8
001
 62
   200
370
    50
100
AcDb2dPolyline
 66
     1
 10
0.0
 20
0.0
 30
0.0
  0
VERTEX
  5
11F
330
11D
100
AcDbEntity
  8
001
 62
   200
370
    50
100
AcDbVertex
100
AcDb2dVertex
 10
49.42088
 20
107.405212
 30
0.0
  0
VERTEX
  5
120
330
11D
100
AcDbEntity
  8
001
 62
   200
370
    50
100
AcDbVertex
100
AcDb2dVertex
 10
49.051776
 20
106.03575
 30
0.0
  0
VERTEX
  5
121
330
11D
100
AcDbEntity
  8
001
 62
   200
370
    50
100
AcDbVertex
100
AcDb2dVertex
 10
48.701531
 20
104.661708
 30
0.0
  0
VERTEX
  5
122
330
11D
100
AcDbEntity
  8
001
 62
   200
370
    50
100
AcDbVertex
100
AcDb2dVertex
 10
48.385454
 20
103.292542
 30
0.0
  0
VERTEX
  5
123
330
11D
100
AcDbEntity
  8
001
 62
   200
370
    50
100
AcDbVertex
100
AcDb2dVertex
 10
48.087897
 20
101.918878
 30
0.0
  0
SEQEND
  5
11E
330
11D
100
AcDbEntity
  8
001
370
    50
  0
POLYLINE
  5
124
330
1F
100
AcDbEntity
  8
001
 62
   200
370
    50
100
AcDb2dPolyline
 66
     1
 10
0.0
 20
0.0
 30
0.0
  0
VERTEX
  5
126
330
124
100
AcDbEntity
  8
001
 62
   200
370
    50
100
AcDbVertex
100
AcDb2dVertex
 10
50.744858
 20
109.220139
 30
0.0
  0
VERTEX
  5
127
330
124
100
AcDbEntity
  8
001
 62
   200
370
    50
100
AcDbVertex
100
AcDb2dVertex
 10
50.592164
 20
109.016965
 30
0.0
  0
VERTEX
  5
128
330
124
100
AcDbEntity
  8
001
 62
   200
370
    50
100
AcDbVertex
100
AcDb2dVertex
 10
50.370221
 20
108.719105
 30
0.0
  0
VERTEX
  5
129
330
124
100
AcDbEntity
  8
001
 62
   200
370
    50
100
AcDbVertex
100
AcDb2dVertex
 10
49.803158
 20
107.941448
 30
0.0
  0
VERTEX
  5
12A
330
124
100
AcDbEntity
  8
001
 62
   200
370
    50
100
AcDbVertex
100
AcDb2dVertex
 10
49.42088
 20
107.405212
 30
0.0
  0
SEQEND
  5
125
330
124
100
AcDbEntity
  8
001
370
    50
  0
LINE
  5
12B
330
1F
100
AcDbEntity
  8
001
 62
   200
370
    50
100
AcDbLine
 10
65.744858
 20
55.919294
 30
0.0
 11
62.744858
 21
52.919294
 31
0.0
  0
LINE
  5
12C
330
1F
100
AcDbEntity
  8
001
 62
   200
370
    50
100
AcDbLine
 10
62.744858
 20
52.919294
 30
0.0
 11
57.513205
 21
52.919294
 31
0.0
  0
POLYLINE
  5
12D
330
1F
100
AcDbEntity
  8
001
 62
   200
370
    50
100
AcDb2dPolyline
 66
     1
 10
0.0
 20
0.0
 30
0.0
  0
VERTEX
  5
12F
330
12D
100
AcDbEntity
  8
001
 62
   200
370
    50
100
AcDbVertex
100
AcDb2dVertex
 10
60.090935
 20
61.088298
 30
0.0
  0
VERTEX
  5
130
330
12D
100
AcDbEntity
  8
001
 62
   200
370
    50
100
AcDbVertex
100
AcDb2dVertex
 10
59.996603
 20
61.104819
 30
0.0
  0
VERTEX
  5
131
330
12D
100
AcDbEntity
  8
001
 62
   200
370
    50
100
AcDbVertex
100
AcDb2dVertex
 10
59.85801
 20
61.123664
 30
0.0
  0
VERTEX
  5
132
330
12D
100
AcDbEntity
  8
001
 62
   200
370
    50
100
AcDbVertex
100
AcDb2dVertex
 10
59.718542
 20
61.135104
 30
0.0
  0
VERTEX
  5
133
330
12D
100
AcDbEntity
  8
001
 62
   200
370
    50
100
AcDbVertex
100
AcDb2dVertex
 10
59.622818
 20
61.139282
 30
0.0
  0
SEQEND
  5
12E
330
12D
100
AcDbEntity
  8
001
370
    50
  0
LINE
  5
134
330
1F
100
AcDbEntity
  8
001
 62
   200
370
    50
100
AcDbLine
 10
55.26232
 20
65.467903
 30
0.0
 11
51.837139
 21
68.961019
 31
0.0
  0
LINE
  5
135
330
1F
100
AcDbEntity
  8
001
 62
   200
370
    50
100
AcDbLine
 10
65.744858
 20
68.961019
 30
0.0
 11
65.744858
 21
55.919294
 31
0.0
  0
LINE
  5
136
330
1F
100
AcDbEntity
  8
001
 62
   200
370
    50
100
AcDbLine
 10
53.137792
 20
65.148934
 30
0.0
 11
50.744858
 21
67.589329
 31
0.0
  0
POLYLINE
  5
137
330
1F
100
AcDbEntity
  8
001
 62
   200
370
    50
100
AcDb2dPolyline
 66
     1
 10
0.0
 20
0.0
 30
0.0
  0
VERTEX
  5
139
330
137
100
AcDbEntity
  8
001
 62
   200
370
    50
100
AcDbVertex
100
AcDb2dVertex
 10
61.038117
 20
59.695912
 30
0.0
  0
VERTEX
  5
13A
330
137
100
AcDbEntity
  8
001
 62
   200
370
    50
100
AcDbVertex
100
AcDb2dVertex
 10
60.76717
 20
60.123582
 30
0.0
  0
VERTEX
  5
13B
330
137
100
AcDbEntity
  8
001
 62
   200
370
    50
100
AcDbVertex
100
AcDb2dVertex
 10
60.346916
 20
60.628781
 30
0.0
  0
VERTEX
  5
13C
330
137
100
AcDbEntity
  8
001
 62
   200
370
    50
100
AcDbVertex
100
AcDb2dVertex
 10
60.160957
 20
60.789462
 30
0.0
  0
VERTEX
  5
13D
330
137
100
AcDbEntity
  8
001
 62
   200
370
    50
100
AcDbVertex
100
AcDb2dVertex
 10
59.940597
 20
60.933321
 30
0.0
  0
VERTEX
  5
13E
330
137
100
AcDbEntity
  8
001
 62
   200
370
    50
100
AcDbVertex
100
AcDb2dVertex
 10
59.795227
 20
61.015681
 30
0.0
  0
VERTEX
  5
13F
330
137
100
AcDbEntity
  8
001
 62
   200
370
    50
100
AcDbVertex
100
AcDb2dVertex
 10
59.689192
 20
61.071592
 30
0.0
  0
SEQEND
  5
138
330
137
100
AcDbEntity
  8
001
370
    50
  0
POLYLINE
  5
140
330
1F
100
AcDbEntity
  8
001
 62
   200
370
    50
100
AcDb2dPolyline
 66
     1
 10
0.0
 20
0.0
 30
0.0
  0
VERTEX
  5
142
330
140
100
AcDbEntity
  8
001
 62
   200
370
    50
100
AcDbVertex
100
AcDb2dVertex
 10
59.644671
 20
55.152816
 30
0.0
  0
VERTEX
  5
143
330
140
100
AcDbEntity
  8
001
 62
   200
370
    50
100
AcDbVertex
100
AcDb2dVertex
 10
59.770819
 20
55.164525
 30
0.0
  0
VERTEX
  5
144
330
140
100
AcDbEntity
  8
001
 62
   200
370
    50
100
AcDbVertex
100
AcDb2dVertex
 10
59.946814
 20
55.187409
 30
0.0
  0
VERTEX
  5
145
330
140
100
AcDbEntity
  8
001
 62
   200
370
    50
100
AcDbVertex
100
AcDb2dVertex
 10
60.209853
 20
55.241781
 30
0.0
  0
VERTEX
  5
146
330
140
100
AcDbEntity
  8
001
 62
   200
370
    50
100
AcDbVertex
100
AcDb2dVertex
 10
60.437864
 20
55.316675
 30
0.0
  0
VERTEX
  5
147
330
140
100
AcDbEntity
  8
001
 62
   200
370
    50
100
AcDbVertex
100
AcDb2dVertex
 10
61.103322
 20
55.671599
 30
0.0
  0
VERTEX
  5
148
330
140
100
AcDbEntity
  8
001
 62
   200
370
    50
100
AcDbVertex
100
AcDb2dVertex
 10
61.687925
 20
56.191338
 30
0.0
  0
VERTEX
  5
149
330
140
100
AcDbEntity
  8
001
 62
   200
370
    50
100
AcDbVertex
100
AcDb2dVertex
 10
61.991362
 20
56.617251
 30
0.0
  0
VERTEX
  5
14A
330
140
100
AcDbEntity
  8
001
 62
   200
370
    50
100
AcDbVertex
100
AcDb2dVertex
 10
62.212966
 20
57.086343
 30
0.0
  0
VERTEX
  5
14B
330
140
100
AcDbEntity
  8
001
 62
   200
370
    50
100
AcDbVertex
100
AcDb2dVertex
 10
62.294841
 20
57.334827
 30
0.0
  0
VERTEX
  5
14C
330
140
100
AcDbEntity
  8
001
 62
   200
370
    50
100
AcDbVertex
100
AcDb2dVertex
 10
62.355979
 20
57.589199
 30
0.0
  0
VERTEX
  5
14D
330
140
100
AcDbEntity
  8
001
 62
   200
370
    50
100
AcDbVertex
100
AcDb2dVertex
 10
62.395365
 20
57.84778
 30
0.0
  0
VERTEX
  5
14E
330
140
100
AcDbEntity
  8
001
 62
   200
370
    50
100
AcDbVertex
100
AcDb2dVertex
 10
62.412695
 20
58.10891
 30
0.0
  0
VERTEX
  5
14F
330
140
100
AcDbEntity
  8
001
 62
   200
370
    50
100
AcDbVertex
100
AcDb2dVertex
 10
62.38145
 20
58.627924
 30
0.0
  0
VERTEX
  5
150
330
140
100
AcDbEntity
  8
001
 62
   200
370
    50
100
AcDbVertex
100
AcDb2dVertex
 10
62.263019
 20
59.1357
 30
0.0
  0
VERTEX
  5
151
330
140
100
AcDbEntity
  8
001
 62
   200
370
    50
100
AcDbVertex
100
AcDb2dVertex
 10
61.933787
 20
59.830087
 30
0.0
  0
VERTEX
  5
152
330
140
100
AcDbEntity
  8
001
 62
   200
370
    50
100
AcDbVertex
100
AcDb2dVertex
 10
61.433956
 20
60.416459
 30
0.0
  0
VERTEX
  5
153
330
140
100
AcDbEntity
  8
001
 62
   200
370
    50
100
AcDbVertex
100
AcDb2dVertex
 10
61.234316
 20
60.578673
 30
0.0
  0
VERTEX
  5
154
330
140
100
AcDbEntity
  8
001
 62
   200
370
    50
100
AcDbVertex
100
AcDb2dVertex
 10
61.027637
 20
60.721
 30
0.0
  0
VERTEX
  5
155
330
140
100
AcDbEntity
  8
001
 62
   200
370
    50
100
AcDbVertex
100
AcDb2dVertex
 10
60.817294
 20
60.842144
 30
0.0
  0
VERTEX
  5
156
330
140
100
AcDbEntity
  8
001
 62
   200
370
    50
100
AcDbVertex
100
AcDb2dVertex
 10
60.575383
 20
60.947237
 30
0.0
  0
VERTEX
  5
157
330
140
100
AcDbEntity
  8
001
 62
   200
370
    50
100
AcDbVertex
100
AcDb2dVertex
 10
60.296965
 20
61.03642
 30
0.0
  0
VERTEX
  5
158
330
140
100
AcDbEntity
  8
001
 62
   200
370
    50
100
AcDbVertex
100
AcDb2dVertex
 10
60.090935
 20
61.088298
 30
0.0
  0
SEQEND
  5
141
330
140
100
AcDbEntity
  8
001
370
    50
  0
LINE
  5
159
330
1F
100
AcDbEntity
  8
001
 62
   200
370
    50
100
AcDbLine
 10
50.744858
 20
62.641425
 30
0.0
 11
50.744858
 21
69.961019
 31
0.0
  0
LINE
  5
15A
330
1F
100
AcDbEntity
  8
001
 62
     4
370
    50
100
AcDbLine
 10
50.744858
 20
157.807979
 30
0.0
 11
48.087897
 21
158.709037
 31
0.0
  0
LINE
  5
15B
330
1F
100
AcDbEntity
  8
001
 62
     4
370
    50
100
AcDbLine
 10
48.087897
 20
158.709037
 30
0.0
 11
48.087897
 21
158.867031
 31
0.0
  0
LINE
  5
15C
330
1F
100
AcDbEntity
  8
001
 62
     4
370
    50
100
AcDbLine
 10
47.263541
 20
154.902303
 30
0.0
 11
47.244858
 21
154.908638
 31
0.0
  0
LINE
  5
15D
330
1F
100
AcDbEntity
  8
001
 62
     4
370
    50
100
AcDbLine
 10
47.244858
 20
154.908638
 30
0.0
 11
47.25427
 21
154.951067
 31
0.0
  0
LINE
  5
15E
330
1F
100
AcDbEntity
  8
001
 62
     4
370
    50
100
AcDbLine
 10
47.481681
 20
155.97623
 30
0.0
 11
48.087897
 21
158.709037
 31
0.0
  0
LINE
  5
15F
330
1F
100
AcDbEntity
  8
001
 62
     4
370
    50
100
AcDbLine
 10
47.244858
 20
156.013399
 30
0.0
 11
48.087897
 21
160.232547
 31
0.0
  0
LINE
  5
160
330
1F
100
AcDbEntity
  8
001
 62
     4
370
    50
100
AcDbLine
 10
50.744858
 20
93.402087
 30
0.0
 11
47.493593
 21
91.097752
 31
0.0
  0
LINE
  5
161
330
1F
100
AcDbEntity
  8
001
 62
     4
370
    50
100
AcDbLine
 10
47.263541
 20
91.019735
 30
0.0
 11
48.087897
 21
95.355986
 31
0.0
  0
LINE
  5
162
330
1F
100
AcDbEntity
  8
001
 62
     4
370
    50
100
AcDbLine
 10
50.744858
 20
97.239108
 30
0.0
 11
48.087897
 21
95.355986
 31
0.0
  0
LINE
  5
163
330
1F
100
AcDbEntity
  8
001
 62
     4
370
    50
100
AcDbLine
 10
55.376808
 20
156.881179
 30
0.0
 11
57.890133
 21
155.099859
 31
0.0
  0
LINE
  5
164
330
1F
100
AcDbEntity
  8
001
 62
     4
370
    50
100
AcDbLine
 10
54.609334
 20
152.074206
 30
0.0
 11
54.835243
 21
151.914093
 31
0.0
  0
LINE
  5
165
330
1F
100
AcDbEntity
  8
001
 62
     4
370
    50
100
AcDbLine
 10
55.376808
 20
156.881179
 30
0.0
 11
54.609334
 21
152.074206
 31
0.0
  0
LINE
  5
166
330
1F
100
AcDbEntity
  8
001
 62
     4
370
    50
100
AcDbLine
 10
48.087897
 20
151.703072
 30
0.0
 11
48.087897
 21
151.835992
 31
0.0
  0
LINE
  5
167
330
1F
100
AcDbEntity
  8
001
 62
     4
370
    50
100
AcDbLine
 10
48.087897
 20
151.835992
 30
0.0
 11
51.907364
 21
152.719286
 31
0.0
  0
LINE
  5
168
330
1F
100
AcDbEntity
  8
001
 62
     4
370
    50
100
AcDbLine
 10
51.907364
 20
152.719286
 30
0.0
 11
52.191124
 21
152.65154
 31
0.0
  0
LINE
  5
169
330
1F
100
AcDbEntity
  8
001
 62
     4
370
    50
100
AcDbLine
 10
52.318007
 20
152.621247
 30
0.0
 11
54.609334
 21
152.074206
 31
0.0
  0
LINE
  5
16A
330
1F
100
AcDbEntity
  8
001
 62
     4
370
    50
100
AcDbLine
 10
53.417498
 20
157.348953
 30
0.0
 11
55.376808
 21
156.881179
 31
0.0
  0
LINE
  5
16B
330
1F
100
AcDbEntity
  8
001
 62
     4
370
    50
100
AcDbLine
 10
53.417498
 20
157.348953
 30
0.0
 11
51.907364
 21
152.719286
 31
0.0
  0
LINE
  5
16C
330
1F
100
AcDbEntity
  8
001
 62
     4
370
    50
100
AcDbLine
 10
47.244858
 20
155.921462
 30
0.0
 11
48.087897
 21
151.835992
 31
0.0
  0
LINE
  5
16D
330
1F
100
AcDbEntity
  8
001
 62
     4
370
    50
100
AcDbLine
 10
47.244858
 20
155.921462
 30
0.0
 11
53.417498
 21
157.348953
 31
0.0
  0
LINE
  5
16E
330
1F
100
AcDbEntity
  8
001
 62
     4
370
    50
100
AcDbLine
 10
47.244858
 20
155.000575
 30
0.0
 11
48.087897
 21
150.566051
 31
0.0
  0
LINE
  5
16F
330
1F
100
AcDbEntity
  8
001
 62
     4
370
    50
100
AcDbLine
 10
47.244858
 20
154.908638
 30
0.0
 11
47.244858
 21
156.013399
 31
0.0
  0
LINE
  5
170
330
1F
100
AcDbEntity
  8
001
 62
     4
370
    50
100
AcDbLine
 10
55.376808
 20
84.600764
 30
0.0
 11
61.549447
 21
86.694095
 31
0.0
  0
LINE
  5
171
330
1F
100
AcDbEntity
  8
001
 62
     4
370
    50
100
AcDbLine
 10
53.417498
 20
85.041062
 30
0.0
 11
55.376808
 21
84.600764
 31
0.0
  0
LINE
  5
172
330
1F
100
AcDbEntity
  8
001
 62
     4
370
    50
100
AcDbLine
 10
47.244858
 20
89.908638
 30
0.0
 11
53.417498
 21
85.041062
 31
0.0
  0
LINE
  5
173
330
1F
100
AcDbEntity
  8
001
 62
     4
370
    50
100
AcDbLine
 10
47.244858
 20
91.013399
 30
0.0
 11
47.244858
 21
89.908638
 31
0.0
  0
LINE
  5
174
330
1F
100
AcDbEntity
  8
001
 62
     4
370
    50
100
AcDbLine
 10
53.417498
 20
93.10673
 30
0.0
 11
47.244858
 21
91.013399
 31
0.0
  0
LINE
  5
175
330
1F
100
AcDbEntity
  8
001
 62
     4
370
    50
100
AcDbLine
 10
55.376808
 20
92.666432
 30
0.0
 11
53.417498
 21
93.10673
 31
0.0
  0
LINE
  5
176
330
1F
100
AcDbEntity
  8
001
 62
     4
370
    50
100
AcDbLine
 10
61.549447
 20
87.798856
 30
0.0
 11
55.376808
 21
92.666432
 31
0.0
  0
LINE
  5
177
330
1F
100
AcDbEntity
  8
001
 62
     4
370
    50
100
AcDbLine
 10
61.549447
 20
86.694095
 30
0.0
 11
61.549447
 21
87.798856
 31
0.0
  0
POLYLINE
  5
178
330
1F
100
AcDbEntity
  8
001
 62
     4
370
    50
100
AcDb2dPolyline
 66
     1
 10
0.0
 20
0.0
 30
0.0
  0
VERTEX
  5
17A
330
178
100
AcDbEntity
  8
001
 62
     4
370
    50
100
AcDbVertex
100
AcDb2dVertex
 10
54.397153
 20
87.21983
 30
0.0
  0
VERTEX
  5
17B
330
178
100
AcDbEntity
  8
001
 62
     4
370
    50
100
AcDbVertex
100
AcDb2dVertex
 10
54.406595
 20
87.217721
 30
0.0
  0
VERTEX
  5
17C
330
178
100
AcDbEntity
  8
001
 62
     4
370
    50
100
AcDbVertex
100
AcDb2dVertex
 10
54.420365
 20
87.214666
 30
0.0
  0
VERTEX
  5
17D
330
178
100
AcDbEntity
  8
001
 62
     4
370
    50
100
AcDbVertex
100
AcDb2dVertex
 10
54.94936
 20
87.122167
 30
0.0
  0
VERTEX
  5
17E
330
178
100
AcDbEntity
  8
001
 62
     4
370
    50
100
AcDbVertex
100
AcDb2dVertex
 10
55.410031
 20
87.095278
 30
0.0
  0
VERTEX
  5
17F
330
178
100
AcDbEntity
  8
001
 62
     4
370
    50
100
AcDbVertex
100
AcDb2dVertex
 10
56.023959
 20
87.135131
 30
0.0
  0
VERTEX
  5
180
330
178
100
AcDbEntity
  8
001
 62
     4
370
    50
100
AcDbVertex
100
AcDb2dVertex
 10
56.631828
 20
87.311367
 30
0.0
  0
VERTEX
  5
181
330
178
100
AcDbEntity
  8
001
 62
     4
370
    50
100
AcDbVertex
100
AcDb2dVertex
 10
56.780922
 20
87.390708
 30
0.0
  0
VERTEX
  5
182
330
178
100
AcDbEntity
  8
001
 62
     4
370
    50
100
AcDbVertex
100
AcDb2dVertex
 10
56.918227
 20
87.481611
 30
0.0
  0
VERTEX
  5
183
330
178
100
AcDbEntity
  8
001
 62
     4
370
    50
100
AcDbVertex
100
AcDb2dVertex
 10
57.028513
 20
87.573765
 30
0.0
  0
VERTEX
  5
184
330
178
100
AcDbEntity
  8
001
 62
     4
370
    50
100
AcDbVertex
100
AcDb2dVertex
 10
57.128024
 20
87.693547
 30
0.0
  0
VERTEX
  5
185
330
178
100
AcDbEntity
  8
001
 62
     4
370
    50
100
AcDbVertex
100
AcDb2dVertex
 10
57.208233
 20
87.83337
 30
0.0
  0
VERTEX
  5
186
330
178
100
AcDbEntity
  8
001
 62
     4
370
    50
100
AcDbVertex
100
AcDb2dVertex
 10
57.254846
 20
87.940735
 30
0.0
  0
SEQEND
  5
179
330
178
100
AcDbEntity
  8
001
370
    50
  0
LINE
  5
187
330
1F
100
AcDbEntity
  8
001
 62
     4
370
    50
100
AcDbLine
 10
55.376808
 20
84.600764
 30
0.0
 11
54.609334
 21
82.070372
 31
0.0
  0
LINE
  5
188
330
1F
100
AcDbEntity
  8
001
 62
     4
370
    50
100
AcDbLine
 10
51.907364
 20
82.677561
 30
0.0
 11
54.609334
 21
82.070372
 31
0.0
  0
LINE
  5
189
330
1F
100
AcDbEntity
  8
001
 62
     4
370
    50
100
AcDbLine
 10
53.417498
 20
85.041062
 30
0.0
 11
51.907364
 21
82.677561
 31
0.0
  0
LINE
  5
18A
330
1F
100
AcDbEntity
  8
001
 62
     4
370
    50
100
AcDbLine
 10
48.087897
 20
85.68949
 30
0.0
 11
51.907364
 21
82.677561
 31
0.0
  0
LINE
  5
18B
330
1F
100
AcDbEntity
  8
001
 62
     4
370
    50
100
AcDbLine
 10
47.244858
 20
89.908638
 30
0.0
 11
48.087897
 21
85.68949
 31
0.0
  0
LINE
  5
18C
330
1F
100
AcDbEntity
  8
001
 62
     4
370
    50
100
AcDbLine
 10
61.549447
 20
86.694095
 30
0.0
 11
60.684969
 21
85.772059
 31
0.0
  0
LINE
  5
18D
330
1F
100
AcDbEntity
  8
001
 62
     4
370
    50
100
AcDbLine
 10
54.609334
 20
82.070372
 30
0.0
 11
54.835243
 21
82.146984
 31
0.0
  0
POLYLINE
  5
18E
330
1F
100
AcDbEntity
  8
001
 62
     4
370
    50
100
AcDb2dPolyline
 66
     1
 10
0.0
 20
0.0
 30
0.0
  0
VERTEX
  5
190
330
18E
100
AcDbEntity
  8
001
 62
     4
370
    50
100
AcDbVertex
100
AcDb2dVertex
 10
51.53946
 20
89.76676
 30
0.0
  0
VERTEX
  5
191
330
18E
100
AcDbEntity
  8
001
 62
     4
370
    50
100
AcDbVertex
100
AcDb2dVertex
 10
51.515207
 20
89.652249
 30
0.0
  0
VERTEX
  5
192
330
18E
100
AcDbEntity
  8
001
 62
     4
370
    50
100
AcDbVertex
100
AcDb2dVertex
 10
51.499468
 20
89.49183
 30
0.0
  0
VERTEX
  5
193
330
18E
100
AcDbEntity
  8
001
 62
     4
370
    50
100
AcDbVertex
100
AcDb2dVertex
 10
51.51099
 20
89.336581
 30
0.0
  0
VERTEX
  5
194
330
18E
100
AcDbEntity
  8
001
 62
     4
370
    50
100
AcDbVertex
100
AcDb2dVertex
 10
51.547521
 20
89.197513
 30
0.0
  0
VERTEX
  5
195
330
18E
100
AcDbEntity
  8
001
 62
     4
370
    50
100
AcDbVertex
100
AcDb2dVertex
 10
51.607164
 20
89.043655
 30
0.0
  0
VERTEX
  5
196
330
18E
100
AcDbEntity
  8
001
 62
     4
370
    50
100
AcDbVertex
100
AcDb2dVertex
 10
51.682159
 20
88.89275
 30
0.0
  0
VERTEX
  5
197
330
18E
100
AcDbEntity
  8
001
 62
     4
370
    50
100
AcDbVertex
100
AcDb2dVertex
 10
52.061737
 20
88.401905
 30
0.0
  0
VERTEX
  5
198
330
18E
100
AcDbEntity
  8
001
 62
     4
370
    50
100
AcDbVertex
100
AcDb2dVertex
 10
52.552338
 20
88.00829
 30
0.0
  0
VERTEX
  5
199
330
18E
100
AcDbEntity
  8
001
 62
     4
370
    50
100
AcDbVertex
100
AcDb2dVertex
 10
52.987078
 20
87.746269
 30
0.0
  0
VERTEX
  5
19A
330
18E
100
AcDbEntity
  8
001
 62
     4
370
    50
100
AcDbVertex
100
AcDb2dVertex
 10
53.427898
 20
87.531752
 30
0.0
  0
VERTEX
  5
19B
330
18E
100
AcDbEntity
  8
001
 62
     4
370
    50
100
AcDbVertex
100
AcDb2dVertex
 10
53.658218
 20
87.438085
 30
0.0
  0
VERTEX
  5
19C
330
18E
100
AcDbEntity
  8
001
 62
     4
370
    50
100
AcDbVertex
100
AcDb2dVertex
 10
53.916834
 20
87.35037
 30
0.0
  0
VERTEX
  5
19D
330
18E
100
AcDbEntity
  8
001
 62
     4
370
    50
100
AcDbVertex
100
AcDb2dVertex
 10
54.194431
 20
87.271074
 30
0.0
  0
VERTEX
  5
19E
330
18E
100
AcDbEntity
  8
001
 62
     4
370
    50
100
AcDbVertex
100
AcDb2dVertex
 10
54.397153
 20
87.21983
 30
0.0
  0
SEQEND
  5
18F
330
18E
100
AcDbEntity
  8
001
370
    50
  0
POLYLINE
  5
19F
330
1F
100
AcDbEntity
  8
001
 62
     4
370
    50
100
AcDb2dPolyline
 66
     1
 10
0.0
 20
0.0
 30
0.0
  0
VERTEX
  5
1A1
330
19F
100
AcDbEntity
  8
001
 62
     4
370
    50
100
AcDbVertex
100
AcDb2dVertex
 10
57.254846
 20
87.940735
 30
0.0
  0
VERTEX
  5
1A2
330
19F
100
AcDbEntity
  8
001
 62
     4
370
    50
100
AcDbVertex
100
AcDb2dVertex
 10
57.279102
 20
88.055245
 30
0.0
  0
VERTEX
  5
1A3
330
19F
100
AcDbEntity
  8
001
 62
     4
370
    50
100
AcDbVertex
100
AcDb2dVertex
 10
57.294837
 20
88.215664
 30
0.0
  0
VERTEX
  5
1A4
330
19F
100
AcDbEntity
  8
001
 62
     4
370
    50
100
AcDbVertex
100
AcDb2dVertex
 10
57.283297
 20
88.370917
 30
0.0
  0
VERTEX
  5
1A5
330
19F
100
AcDbEntity
  8
001
 62
     4
370
    50
100
AcDbVertex
100
AcDb2dVertex
 10
57.246784
 20
88.509982
 30
0.0
  0
VERTEX
  5
1A6
330
19F
100
AcDbEntity
  8
001
 62
     4
370
    50
100
AcDbVertex
100
AcDb2dVertex
 10
57.187224
 20
88.663821
 30
0.0
  0
VERTEX
  5
1A7
330
19F
100
AcDbEntity
  8
001
 62
     4
370
    50
100
AcDbVertex
100
AcDb2dVertex
 10
57.112146
 20
88.814744
 30
0.0
  0
VERTEX
  5
1A8
330
19F
100
AcDbEntity
  8
001
 62
     4
370
    50
100
AcDbVertex
100
AcDb2dVertex
 10
56.730251
 20
89.306107
 30
0.0
  0
VERTEX
  5
1A9
330
19F
100
AcDbEntity
  8
001
 62
     4
370
    50
100
AcDbVertex
100
AcDb2dVertex
 10
56.241967
 20
89.699204
 30
0.0
  0
VERTEX
  5
1AA
330
19F
100
AcDbEntity
  8
001
 62
     4
370
    50
100
AcDbVertex
100
AcDb2dVertex
 10
55.814746
 20
89.959544
 30
0.0
  0
VERTEX
  5
1AB
330
19F
100
AcDbEntity
  8
001
 62
     4
370
    50
100
AcDbVertex
100
AcDb2dVertex
 10
55.366407
 20
90.175742
 30
0.0
  0
VERTEX
  5
1AC
330
19F
100
AcDbEntity
  8
001
 62
     4
370
    50
100
AcDbVertex
100
AcDb2dVertex
 10
55.124154
 20
90.272078
 30
0.0
  0
VERTEX
  5
1AD
330
19F
100
AcDbEntity
  8
001
 62
     4
370
    50
100
AcDbVertex
100
AcDb2dVertex
 10
54.877471
 20
90.357125
 30
0.0
  0
VERTEX
  5
1AE
330
19F
100
AcDbEntity
  8
001
 62
     4
370
    50
100
AcDbVertex
100
AcDb2dVertex
 10
54.627174
 20
90.43086
 30
0.0
  0
VERTEX
  5
1AF
330
19F
100
AcDbEntity
  8
001
 62
     4
370
    50
100
AcDbVertex
100
AcDb2dVertex
 10
54.373941
 20
90.492828
 30
0.0
  0
VERTEX
  5
1B0
330
19F
100
AcDbEntity
  8
001
 62
     4
370
    50
100
AcDbVertex
100
AcDb2dVertex
 10
53.883302
 20
90.576627
 30
0.0
  0
VERTEX
  5
1B1
330
19F
100
AcDbEntity
  8
001
 62
     4
370
    50
100
AcDbVertex
100
AcDb2dVertex
 10
53.384274
 20
90.612217
 30
0.0
  0
VERTEX
  5
1B2
330
19F
100
AcDbEntity
  8
001
 62
     4
370
    50
100
AcDbVertex
100
AcDb2dVertex
 10
52.758523
 20
90.575046
 30
0.0
  0
VERTEX
  5
1B3
330
19F
100
AcDbEntity
  8
001
 62
     4
370
    50
100
AcDbVertex
100
AcDb2dVertex
 10
52.162477
 20
90.396128
 30
0.0
  0
VERTEX
  5
1B4
330
19F
100
AcDbEntity
  8
001
 62
     4
370
    50
100
AcDbVertex
100
AcDb2dVertex
 10
52.013802
 20
90.316692
 30
0.0
  0
VERTEX
  5
1B5
330
19F
100
AcDbEntity
  8
001
 62
     4
370
    50
100
AcDbVertex
100
AcDb2dVertex
 10
51.876078
 20
90.225884
 30
0.0
  0
VERTEX
  5
1B6
330
19F
100
AcDbEntity
  8
001
 62
     4
370
    50
100
AcDbVertex
100
AcDb2dVertex
 10
51.765699
 20
90.13375
 30
0.0
  0
VERTEX
  5
1B7
330
19F
100
AcDbEntity
  8
001
 62
     4
370
    50
100
AcDbVertex
100
AcDb2dVertex
 10
51.666281
 20
90.013948
 30
0.0
  0
VERTEX
  5
1B8
330
19F
100
AcDbEntity
  8
001
 62
     4
370
    50
100
AcDbVertex
100
AcDb2dVertex
 10
51.58609
 20
89.874121
 30
0.0
  0
VERTEX
  5
1B9
330
19F
100
AcDbEntity
  8
001
 62
     4
370
    50
100
AcDbVertex
100
AcDb2dVertex
 10
51.53946
 20
89.76676
 30
0.0
  0
SEQEND
  5
1A0
330
19F
100
AcDbEntity
  8
001
370
    50
  0
LINE
  5
1BA
330
1F
100
AcDbEntity
  8
001
 62
     4
370
    50
100
AcDbLine
 10
55.376808
 20
195.241433
 30
0.0
 11
57.513205
 21
193.002743
 31
0.0
  0
LINE
  5
1BB
330
1F
100
AcDbEntity
  8
001
 62
     4
370
    50
100
AcDbLine
 10
54.609334
 20
192.964852
 30
0.0
 11
54.835243
 21
192.728127
 31
0.0
  0
LINE
  5
1BC
330
1F
100
AcDbEntity
  8
001
 62
     4
370
    50
100
AcDbLine
 10
55.376808
 20
195.241433
 30
0.0
 11
54.609334
 21
192.964852
 31
0.0
  0
LINE
  5
1BD
330
1F
100
AcDbEntity
  8
001
 62
     4
370
    50
100
AcDbLine
 10
50.744858
 20
183.52989
 30
0.0
 11
48.087897
 21
186.314069
 31
0.0
  0
LINE
  5
1BE
330
1F
100
AcDbEntity
  8
001
 62
     4
370
    50
100
AcDbLine
 10
48.087897
 20
186.314069
 30
0.0
 11
48.087897
 21
186.603762
 31
0.0
  0
LINE
  5
1BF
330
1F
100
AcDbEntity
  8
001
 62
     4
370
    50
100
AcDbLine
 10
48.087897
 20
188.81514
 30
0.0
 11
48.087897
 21
189.107521
 31
0.0
  0
LINE
  5
1C0
330
1F
100
AcDbEntity
  8
001
 62
     4
370
    50
100
AcDbLine
 10
48.087897
 20
189.107521
 30
0.0
 11
51.907364
 21
193.002743
 31
0.0
  0
LINE
  5
1C1
330
1F
100
AcDbEntity
  8
001
 62
     4
370
    50
100
AcDbLine
 10
51.907364
 20
193.002743
 30
0.0
 11
52.191124
 21
192.998764
 31
0.0
  0
LINE
  5
1C2
330
1F
100
AcDbEntity
  8
001
 62
     4
370
    50
100
AcDbLine
 10
52.318007
 20
192.996985
 30
0.0
 11
54.609334
 21
192.964852
 31
0.0
  0
LINE
  5
1C3
330
1F
100
AcDbEntity
  8
001
 62
     4
370
    50
100
AcDbLine
 10
53.417498
 20
195.268909
 30
0.0
 11
55.376808
 21
195.241433
 31
0.0
  0
LINE
  5
1C4
330
1F
100
AcDbEntity
  8
001
 62
     4
370
    50
100
AcDbLine
 10
53.417498
 20
195.268909
 30
0.0
 11
51.907364
 21
193.002743
 31
0.0
  0
LINE
  5
1C5
330
1F
100
AcDbEntity
  8
001
 62
     4
370
    50
100
AcDbLine
 10
47.244858
 20
188.973842
 30
0.0
 11
53.417498
 21
195.268909
 31
0.0
  0
LINE
  5
1C6
330
1F
100
AcDbEntity
  8
001
 62
     4
370
    50
100
AcDbLine
 10
47.244858
 20
188.973842
 30
0.0
 11
48.087897
 21
189.107521
 31
0.0
  0
LINE
  5
1C7
330
1F
100
AcDbEntity
  8
001
 62
     4
370
    50
100
AcDbLine
 10
50.744858
 20
183.280612
 30
0.0
 11
47.244858
 21
186.948195
 31
0.0
  0
LINE
  5
1C8
330
1F
100
AcDbEntity
  8
001
 62
     4
370
    50
100
AcDbLine
 10
47.244858
 20
186.948195
 30
0.0
 11
48.087897
 21
186.314069
 31
0.0
  0
LINE
  5
1C9
330
1F
100
AcDbEntity
  8
001
 62
     4
370
    50
100
AcDbLine
 10
47.244858
 20
186.948195
 30
0.0
 11
47.244858
 21
188.973842
 31
0.0
  0
POLYLINE
  5
1CA
330
1F
100
AcDbEntity
  8
001
 62
   200
370
    50
100
AcDb2dPolyline
 66
     1
 10
0.0
 20
0.0
 30
0.0
  0
VERTEX
  5
1CC
330
1CA
100
AcDbEntity
  8
001
 62
   200
370
    50
100
AcDbVertex
100
AcDb2dVertex
 10
54.835243
 20
192.728127
 30
0.0
  0
VERTEX
  5
1CD
330
1CA
100
AcDbEntity
  8
001
 62
   200
370
    50
100
AcDbVertex
100
AcDb2dVertex
 10
54.313655
 20
192.785086
 30
0.0
  0
VERTEX
  5
1CE
330
1CA
100
AcDbEntity
  8
001
 62
   200
370
    50
100
AcDbVertex
100
AcDb2dVertex
 10
53.551216
 20
192.867239
 30
0.0
  0
VERTEX
  5
1CF
330
1CA
100
AcDbEntity
  8
001
 62
   200
370
    50
100
AcDbVertex
100
AcDb2dVertex
 10
52.786048
 20
192.94814
 30
0.0
  0
VERTEX
  5
1D0
330
1CA
100
AcDbEntity
  8
001
 62
   200
370
    50
100
AcDbVertex
100
AcDb2dVertex
 10
52.262432
 20
193.002743
 30
0.0
  0
SEQEND
  5
1CB
330
1CA
100
AcDbEntity
  8
001
370
    50
  0
POLYLINE
  5
1D1
330
1F
100
AcDbEntity
  8
001
 62
   200
370
    50
100
AcDb2dPolyline
 66
     1
 10
0.0
 20
0.0
 30
0.0
  0
VERTEX
  5
1D3
330
1D1
100
AcDbEntity
  8
001
 62
   200
370
    50
100
AcDbVertex
100
AcDb2dVertex
 10
55.056356
 20
193.002743
 30
0.0
  0
VERTEX
  5
1D4
330
1D1
100
AcDbEntity
  8
001
 62
   200
370
    50
100
AcDbVertex
100
AcDb2dVertex
 10
55.009864
 20
192.948132
 30
0.0
  0
VERTEX
  5
1D5
330
1D1
100
AcDbEntity
  8
001
 62
   200
370
    50
100
AcDbVertex
100
AcDb2dVertex
 10
54.94322
 20
192.867239
 30
0.0
  0
VERTEX
  5
1D6
330
1D1
100
AcDbEntity
  8
001
 62
   200
370
    50
100
AcDbVertex
100
AcDb2dVertex
 10
54.878569
 20
192.785066
 30
0.0
  0
VERTEX
  5
1D7
330
1D1
100
AcDbEntity
  8
001
 62
   200
370
    50
100
AcDbVertex
100
AcDb2dVertex
 10
54.835243
 20
192.728127
 30
0.0
  0
SEQEND
  5
1D2
330
1D1
100
AcDbEntity
  8
001
370
    50
  0
LINE
  5
1D8
330
1F
100
AcDbEntity
  8
001
 62
   200
370
    50
100
AcDbLine
 10
62.744858
 20
193.002743
 30
0.0
 11
55.056356
 21
193.002743
 31
0.0
  0
LINE
  5
1D9
330
1F
100
AcDbEntity
  8
001
 62
   200
370
    50
100
AcDbLine
 10
65.744858
 20
190.002743
 30
0.0
 11
62.744858
 21
193.002743
 31
0.0
  0
LINE
  5
1DA
330
1F
100
AcDbEntity
  8
001
 62
   200
370
    50
100
AcDbLine
 10
65.744858
 20
181.923795
 30
0.0
 11
50.744858
 21
181.923795
 31
0.0
  0
POLYLINE
  5
1DB
330
1F
100
AcDbEntity
  8
001
 62
   200
370
    50
100
AcDb2dPolyline
 66
     1
 10
0.0
 20
0.0
 30
0.0
  0
VERTEX
  5
1DD
330
1DB
100
AcDbEntity
  8
001
 62
   200
370
    50
100
AcDbVertex
100
AcDb2dVertex
 10
52.197986
 20
193.002743
 30
0.0
  0
VERTEX
  5
1DE
330
1DB
100
AcDbEntity
  8
001
 62
   200
370
    50
100
AcDbVertex
100
AcDb2dVertex
 10
51.952192
 20
192.495873
 30
0.0
  0
VERTEX
  5
1DF
330
1DB
100
AcDbEntity
  8
001
 62
   200
370
    50
100
AcDbVertex
100
AcDb2dVertex
 10
51.714626
 20
191.985273
 30
0.0
  0
VERTEX
  5
1E0
330
1DB
100
AcDbEntity
  8
001
 62
   200
370
    50
100
AcDbVertex
100
AcDb2dVertex
 10
51.461365
 20
191.395407
 30
0.0
  0
VERTEX
  5
1E1
330
1DB
100
AcDbEntity
  8
001
 62
   200
370
    50
100
AcDbVertex
100
AcDb2dVertex
 10
51.223574
 20
190.798939
 30
0.0
  0
VERTEX
  5
1E2
330
1DB
100
AcDbEntity
  8
001
 62
   200
370
    50
100
AcDbVertex
100
AcDb2dVertex
 10
50.963914
 20
190.110747
 30
0.0
  0
VERTEX
  5
1E3
330
1DB
100
AcDbEntity
  8
001
 62
   200
370
    50
100
AcDbVertex
100
AcDb2dVertex
 10
50.71611
 20
189.418292
 30
0.0
  0
VERTEX
  5
1E4
330
1DB
100
AcDbEntity
  8
001
 62
   200
370
    50
100
AcDbVertex
100
AcDb2dVertex
 10
50.455156
 20
188.649033
 30
0.0
  0
VERTEX
  5
1E5
330
1DB
100
AcDbEntity
  8
001
 62
   200
370
    50
100
AcDbVertex
100
AcDb2dVertex
 10
50.205655
 20
187.87594
 30
0.0
  0
VERTEX
  5
1E6
330
1DB
100
AcDbEntity
  8
001
 62
   200
370
    50
100
AcDbVertex
100
AcDb2dVertex
 10
50.00613
 20
187.232425
 30
0.0
  0
VERTEX
  5
1E7
330
1DB
100
AcDbEntity
  8
001
 62
   200
370
    50
100
AcDbVertex
100
AcDb2dVertex
 10
49.813335
 20
186.58689
 30
0.0
  0
VERTEX
  5
1E8
330
1DB
100
AcDbEntity
  8
001
 62
   200
370
    50
100
AcDbVertex
100
AcDb2dVertex
 10
49.615103
 20
185.897505
 30
0.0
  0
VERTEX
  5
1E9
330
1DB
100
AcDbEntity
  8
001
 62
   200
370
    50
100
AcDbVertex
100
AcDb2dVertex
 10
49.42088
 20
185.206955
 30
0.0
  0
SEQEND
  5
1DC
330
1DB
100
AcDbEntity
  8
001
370
    50
  0
LINE
  5
1EA
330
1F
100
AcDbEntity
  8
001
 62
   200
370
    50
100
AcDbLine
 10
65.744858
 20
173.905352
 30
0.0
 11
65.744858
 21
190.002743
 31
0.0
  0
LINE
  5
1EB
330
1F
100
AcDbEntity
  8
001
 62
   200
370
    50
100
AcDbLine
 10
50.744858
 20
183.819583
 30
0.0
 11
50.744858
 21
156.882514
 31
0.0
  0
LINE
  5
1EC
330
1F
100
AcDbEntity
  8
001
 62
   200
370
    50
100
AcDbLine
 10
48.087897
 20
186.603762
 30
0.0
 11
48.087897
 21
188.81514
 31
0.0
  0
LINE
  5
1ED
330
1F
100
AcDbEntity
  8
001
 62
   200
370
    50
100
AcDbLine
 10
48.087897
 20
188.81514
 30
0.0
 11
52.195027
 21
193.002743
 31
0.0
  0
LINE
  5
1EE
330
1F
100
AcDbEntity
  8
001
 62
   200
370
    50
100
AcDbLine
 10
52.195027
 20
193.002743
 30
0.0
 11
52.262432
 21
193.002743
 31
0.0
  0
LINE
  5
1EF
330
1F
100
AcDbEntity
  8
001
 62
   200
370
    50
100
AcDbLine
 10
50.744858
 20
183.819583
 30
0.0
 11
48.087897
 21
186.603762
 31
0.0
  0
POLYLINE
  5
1F0
330
1F
100
AcDbEntity
  8
001
 62
   200
370
    50
100
AcDb2dPolyline
 66
     1
 10
0.0
 20
0.0
 30
0.0
  0
VERTEX
  5
1F2
330
1F0
100
AcDbEntity
  8
001
 62
   200
370
    50
100
AcDbVertex
100
AcDb2dVertex
 10
54.835243
 20
151.914093
 30
0.0
  0
VERTEX
  5
1F3
330
1F0
100
AcDbEntity
  8
001
 62
   200
370
    50
100
AcDbVertex
100
AcDb2dVertex
 10
54.31366
 20
152.061186
 30
0.0
  0
VERTEX
  5
1F4
330
1F0
100
AcDbEntity
  8
001
 62
   200
370
    50
100
AcDbVertex
100
AcDb2dVertex
 10
53.551216
 20
152.275703
 30
0.0
  0
VERTEX
  5
1F5
330
1F0
100
AcDbEntity
  8
001
 62
   200
370
    50
100
AcDbVertex
100
AcDb2dVertex
 10
52.786054
 20
152.490282
 30
0.0
  0
VERTEX
  5
1F6
330
1F0
100
AcDbEntity
  8
001
 62
   200
370
    50
100
AcDbVertex
100
AcDb2dVertex
 10
52.262432
 20
152.636779
 30
0.0
  0
SEQEND
  5
1F1
330
1F0
100
AcDbEntity
  8
001
370
    50
  0
POLYLINE
  5
1F7
330
1F
100
AcDbEntity
  8
001
 62
   200
370
    50
100
AcDb2dPolyline
 66
     1
 10
0.0
 20
0.0
 30
0.0
  0
VERTEX
  5
1F9
330
1F7
100
AcDbEntity
  8
001
 62
   200
370
    50
100
AcDbVertex
100
AcDb2dVertex
 10
55.056356
 20
152.636779
 30
0.0
  0
VERTEX
  5
1FA
330
1F7
100
AcDbEntity
  8
001
 62
   200
370
    50
100
AcDbVertex
100
AcDb2dVertex
 10
55.009863
 20
152.490257
 30
0.0
  0
VERTEX
  5
1FB
330
1F7
100
AcDbEntity
  8
001
 62
   200
370
    50
100
AcDbVertex
100
AcDb2dVertex
 10
54.94322
 20
152.275703
 30
0.0
  0
VERTEX
  5
1FC
330
1F7
100
AcDbEntity
  8
001
 62
   200
370
    50
100
AcDbVertex
100
AcDb2dVertex
 10
54.878576
 20
152.061157
 30
0.0
  0
VERTEX
  5
1FD
330
1F7
100
AcDbEntity
  8
001
 62
   200
370
    50
100
AcDbVertex
100
AcDb2dVertex
 10
54.835243
 20
151.914093
 30
0.0
  0
SEQEND
  5
1F8
330
1F7
100
AcDbEntity
  8
001
370
    50
  0
LINE
  5
1FE
330
1F
100
AcDbEntity
  8
001
 62
   200
370
    50
100
AcDbLine
 10
62.744858
 20
152.636779
 30
0.0
 11
55.056356
 21
152.636779
 31
0.0
  0
POLYLINE
  5
1FF
330
1F
100
AcDbEntity
  8
001
 62
   200
370
    50
100
AcDb2dPolyline
 66
     1
 10
0.0
 20
0.0
 30
0.0
  0
VERTEX
  5
201
330
1FF
100
AcDbEntity
  8
001
 62
   200
370
    50
100
AcDbVertex
100
AcDb2dVertex
 10
62.744858
 20
152.636779
 30
0.0
  0
VERTEX
  5
202
330
1FF
100
AcDbEntity
  8
001
 62
   200
370
    50
100
AcDbVertex
100
AcDb2dVertex
 10
63.580297
 20
150.55812
 30
0.0
  0
VERTEX
  5
203
330
1FF
100
AcDbEntity
  8
001
 62
   200
370
    50
100
AcDbVertex
100
AcDb2dVertex
 10
64.945596
 20
147.584999
 30
0.0
  0
VERTEX
  5
204
330
1FF
100
AcDbEntity
  8
001
 62
   200
370
    50
100
AcDbVertex
100
AcDb2dVertex
 10
65.41482
 20
146.668808
 30
0.0
  0
VERTEX
  5
205
330
1FF
100
AcDbEntity
  8
001
 62
   200
370
    50
100
AcDbVertex
100
AcDb2dVertex
 10
65.744858
 20
146.046489
 30
0.0
  0
SEQEND
  5
200
330
1FF
100
AcDbEntity
  8
001
370
    50
  0
LINE
  5
206
330
1F
100
AcDbEntity
  8
001
 62
   200
370
    50
100
AcDbLine
 10
65.744858
 20
134.406673
 30
0.0
 11
50.744858
 21
134.406673
 31
0.0
  0
POLYLINE
  5
207
330
1F
100
AcDbEntity
  8
001
 62
   200
370
    50
100
AcDb2dPolyline
 66
     1
 10
0.0
 20
0.0
 30
0.0
  0
VERTEX
  5
209
330
207
100
AcDbEntity
  8
001
 62
   200
370
    50
100
AcDbVertex
100
AcDb2dVertex
 10
49.42088
 20
138.516825
 30
0.0
  0
VERTEX
  5
20A
330
207
100
AcDbEntity
  8
001
 62
   200
370
    50
100
AcDbVertex
100
AcDb2dVertex
 10
49.803158
 20
137.980589
 30
0.0
  0
VERTEX
  5
20B
330
207
100
AcDbEntity
  8
001
 62
   200
370
    50
100
AcDbVertex
100
AcDb2dVertex
 10
50.370221
 20
137.202932
 30
0.0
  0
VERTEX
  5
20C
330
207
100
AcDbEntity
  8
001
 62
   200
370
    50
100
AcDbVertex
100
AcDb2dVertex
 10
50.592164
 20
136.905073
 30
0.0
  0
VERTEX
  5
20D
330
207
100
AcDbEntity
  8
001
 62
   200
370
    50
100
AcDbVertex
100
AcDb2dVertex
 10
50.744858
 20
136.701898
 30
0.0
  0
SEQEND
  5
208
330
207
100
AcDbEntity
  8
001
370
    50
  0
POLYLINE
  5
20E
330
1F
100
AcDbEntity
  8
001
 62
   200
370
    50
100
AcDb2dPolyline
 66
     1
 10
0.0
 20
0.0
 30
0.0
  0
VERTEX
  5
210
330
20E
100
AcDbEntity
  8
001
 62
   200
370
    50
100
AcDbVertex
100
AcDb2dVertex
 10
52.197986
 20
152.636779
 30
0.0
  0
VERTEX
  5
211
330
20E
100
AcDbEntity
  8
001
 62
   200
370
    50
100
AcDbVertex
100
AcDb2dVertex
 10
51.956704
 20
151.375341
 30
0.0
  0
VERTEX
  5
212
330
20E
100
AcDbEntity
  8
001
 62
   200
370
    50
100
AcDbVertex
100
AcDb2dVertex
 10
51.714626
 20
150.114056
 30
0.0
  0
VERTEX
  5
213
330
20E
100
AcDbEntity
  8
001
 62
   200
370
    50
100
AcDbVertex
100
AcDb2dVertex
 10
51.469818
 20
148.846323
 30
0.0
  0
VERTEX
  5
214
330
20E
100
AcDbEntity
  8
001
 62
   200
370
    50
100
AcDbVertex
100
AcDb2dVertex
 10
51.223574
 20
147.578867
 30
0.0
  0
VERTEX
  5
215
330
20E
100
AcDbEntity
  8
001
 62
   200
370
    50
100
AcDbVertex
100
AcDb2dVertex
 10
50.970549
 20
146.28372
 30
0.0
  0
VERTEX
  5
216
330
20E
100
AcDbEntity
  8
001
 62
   200
370
    50
100
AcDbVertex
100
AcDb2dVertex
 10
50.71611
 20
144.988849
 30
0.0
  0
VERTEX
  5
217
330
20E
100
AcDbEntity
  8
001
 62
   200
370
    50
100
AcDbVertex
100
AcDb2dVertex
 10
50.461607
 20
143.701442
 30
0.0
  0
VERTEX
  5
218
330
20E
100
AcDbEntity
  8
001
 62
   200
370
    50
100
AcDbVertex
100
AcDb2dVertex
 10
50.205655
 20
142.414323
 30
0.0
  0
VERTEX
  5
219
330
20E
100
AcDbEntity
  8
001
 62
   200
370
    50
100
AcDbVertex
100
AcDb2dVertex
 10
50.009983
 20
141.435438
 30
0.0
  0
VERTEX
  5
21A
330
20E
100
AcDbEntity
  8
001
 62
   200
370
    50
100
AcDbVertex
100
AcDb2dVertex
 10
49.813335
 20
140.456749
 30
0.0
  0
VERTEX
  5
21B
330
20E
100
AcDbEntity
  8
001
 62
   200
370
    50
100
AcDbVertex
100
AcDb2dVertex
 10
49.617386
 20
139.486731
 30
0.0
  0
VERTEX
  5
21C
330
20E
100
AcDbEntity
  8
001
 62
   200
370
    50
100
AcDbVertex
100
AcDb2dVertex
 10
49.42088
 20
138.516825
 30
0.0
  0
SEQEND
  5
20F
330
20E
100
AcDbEntity
  8
001
370
    50
  0
LINE
  5
21D
330
1F
100
AcDbEntity
  8
001
 62
   200
370
    50
100
AcDbLine
 10
52.262432
 20
152.636779
 30
0.0
 11
52.197986
 21
152.636779
 31
0.0
  0
POLYLINE
  5
21E
330
1F
100
AcDbEntity
  8
001
 62
   200
370
    50
100
AcDb2dPolyline
 66
     1
 10
0.0
 20
0.0
 30
0.0
  0
VERTEX
  5
220
330
21E
100
AcDbEntity
  8
001
 62
   200
370
    50
100
AcDbVertex
100
AcDb2dVertex
 10
49.42088
 20
138.516825
 30
0.0
  0
VERTEX
  5
221
330
21E
100
AcDbEntity
  8
001
 62
   200
370
    50
100
AcDbVertex
100
AcDb2dVertex
 10
49.051776
 20
139.886287
 30
0.0
  0
VERTEX
  5
222
330
21E
100
AcDbEntity
  8
001
 62
   200
370
    50
100
AcDbVertex
100
AcDb2dVertex
 10
48.701531
 20
141.260329
 30
0.0
  0
VERTEX
  5
223
330
21E
100
AcDbEntity
  8
001
 62
   200
370
    50
100
AcDbVertex
100
AcDb2dVertex
 10
48.385454
 20
142.629495
 30
0.0
  0
VERTEX
  5
224
330
21E
100
AcDbEntity
  8
001
 62
   200
370
    50
100
AcDbVertex
100
AcDb2dVertex
 10
48.087897
 20
144.003159
 30
0.0
  0
SEQEND
  5
21F
330
21E
100
AcDbEntity
  8
001
370
    50
  0
LINE
  5
225
330
1F
100
AcDbEntity
  8
001
 62
   200
370
    50
100
AcDbLine
 10
48.087897
 20
144.003159
 30
0.0
 11
48.087897
 21
151.703072
 31
0.0
  0
LINE
  5
226
330
1F
100
AcDbEntity
  8
001
 62
   200
370
    50
100
AcDbLine
 10
48.087897
 20
151.703072
 30
0.0
 11
52.195027
 21
152.652442
 31
0.0
  0
LINE
  5
227
330
1F
100
AcDbEntity
  8
001
 62
   200
370
    50
100
AcDbLine
 10
52.195027
 20
152.652442
 30
0.0
 11
52.197986
 21
152.636779
 31
0.0
  0
LINE
  5
228
330
1F
100
AcDbEntity
  8
001
 62
   200
370
    50
100
AcDbLine
 10
62.744858
 20
153.97177
 30
0.0
 11
62.744858
 21
152.636779
 31
0.0
  0
LINE
  5
229
330
1F
100
AcDbEntity
  8
001
 62
   200
370
    50
100
AcDbLine
 10
65.744858
 20
151.910822
 30
0.0
 11
62.744858
 21
153.97177
 31
0.0
  0
LINE
  5
22A
330
1F
100
AcDbEntity
  8
001
 62
   200
370
    50
100
AcDbLine
 10
52.262432
 20
152.636779
 30
0.0
 11
52.195027
 21
152.652442
 31
0.0
  0
LINE
  5
22B
330
1F
100
AcDbEntity
  8
001
 62
   200
370
    50
100
AcDbLine
 10
62.744858
 20
153.97177
 30
0.0
 11
57.379568
 21
155.218499
 31
0.0
  0
LINE
  5
22C
330
1F
100
AcDbEntity
  8
001
 62
   200
370
    50
100
AcDbLine
 10
55.056356
 20
152.636779
 30
0.0
 11
57.379568
 21
155.218499
 31
0.0
  0
LINE
  5
22D
330
1F
100
AcDbEntity
  8
001
 62
   200
370
    50
100
AcDbLine
 10
50.744858
 20
136.701898
 30
0.0
 11
50.744858
 21
132.751266
 31
0.0
  0
LINE
  5
22E
330
1F
100
AcDbEntity
  8
001
 62
   200
370
    50
100
AcDbLine
 10
65.744858
 20
132.924925
 30
0.0
 11
65.744858
 21
151.910822
 31
0.0
  0
LINE
  5
22F
330
1F
100
AcDbEntity
  8
001
 62
   200
370
    50
100
AcDbLine
 10
62.744858
 20
82.595055
 30
0.0
 11
55.056356
 21
82.595055
 31
0.0
  0
LINE
  5
230
330
1F
100
AcDbEntity
  8
001
 62
   200
370
    50
100
AcDbLine
 10
62.744858
 20
83.930046
 30
0.0
 11
57.379568
 21
85.176774
 31
0.0
  0
LINE
  5
231
330
1F
100
AcDbEntity
  8
001
 62
   200
370
    50
100
AcDbLine
 10
62.744858
 20
83.930046
 30
0.0
 11
62.744858
 21
82.595055
 31
0.0
  0
LINE
  5
232
330
1F
100
AcDbEntity
  8
001
 62
   200
370
    50
100
AcDbLine
 10
55.056356
 20
82.595055
 30
0.0
 11
57.379568
 21
85.176774
 31
0.0
  0
LINE
  5
233
330
1F
100
AcDbEntity
  8
001
 62
   200
370
    50
100
AcDbLine
 10
65.744858
 20
92.886056
 30
0.0
 11
52.077904
 21
95.957309
 31
0.0
  0
LINE
  5
234
330
1F
100
AcDbEntity
  8
001
 62
   200
370
    50
100
AcDbLine
 10
65.744858
 20
84.869097
 30
0.0
 11
62.744858
 21
83.930046
 31
0.0
  0
POLYLINE
  5
235
330
1F
100
AcDbEntity
  8
001
 62
   200
370
    50
100
AcDb2dPolyline
 66
     1
 10
0.0
 20
0.0
 30
0.0
  0
VERTEX
  5
237
330
235
100
AcDbEntity
  8
001
 62
   200
370
    50
100
AcDbVertex
100
AcDb2dVertex
 10
62.373534
 20
86.616807
 30
0.0
  0
VERTEX
  5
238
330
235
100
AcDbEntity
  8
001
 62
   200
370
    50
100
AcDbVertex
100
AcDb2dVertex
 10
62.397785
 20
86.731318
 30
0.0
  0
VERTEX
  5
239
330
235
100
AcDbEntity
  8
001
 62
   200
370
    50
100
AcDbVertex
100
AcDb2dVertex
 10
62.413526
 20
86.891736
 30
0.0
  0
VERTEX
  5
23A
330
235
100
AcDbEntity
  8
001
 62
   200
370
    50
100
AcDbVertex
100
AcDb2dVertex
 10
62.402017
 20
87.046979
 30
0.0
  0
VERTEX
  5
23B
330
235
100
AcDbEntity
  8
001
 62
   200
370
    50
100
AcDbVertex
100
AcDb2dVertex
 10
62.365473
 20
87.186053
 30
0.0
  0
VERTEX
  5
23C
330
235
100
AcDbEntity
  8
001
 62
   200
370
    50
100
AcDbVertex
100
AcDb2dVertex
 10
62.305774
 20
87.339936
 30
0.0
  0
VERTEX
  5
23D
330
235
100
AcDbEntity
  8
001
 62
   200
370
    50
100
AcDbVertex
100
AcDb2dVertex
 10
62.230835
 20
87.490816
 30
0.0
  0
VERTEX
  5
23E
330
235
100
AcDbEntity
  8
001
 62
   200
370
    50
100
AcDbVertex
100
AcDb2dVertex
 10
61.852854
 20
87.980944
 30
0.0
  0
VERTEX
  5
23F
330
235
100
AcDbEntity
  8
001
 62
   200
370
    50
100
AcDbVertex
100
AcDb2dVertex
 10
61.360655
 20
88.375276
 30
0.0
  0
VERTEX
  5
240
330
235
100
AcDbEntity
  8
001
 62
   200
370
    50
100
AcDbVertex
100
AcDb2dVertex
 10
60.920735
 20
88.639621
 30
0.0
  0
VERTEX
  5
241
330
235
100
AcDbEntity
  8
001
 62
   200
370
    50
100
AcDbVertex
100
AcDb2dVertex
 10
60.485095
 20
88.851814
 30
0.0
  0
VERTEX
  5
242
330
235
100
AcDbEntity
  8
001
 62
   200
370
    50
100
AcDbVertex
100
AcDb2dVertex
 10
60.262996
 20
88.941794
 30
0.0
  0
VERTEX
  5
243
330
235
100
AcDbEntity
  8
001
 62
   200
370
    50
100
AcDbVertex
100
AcDb2dVertex
 10
59.996159
 20
89.033196
 30
0.0
  0
VERTEX
  5
244
330
235
100
AcDbEntity
  8
001
 62
   200
370
    50
100
AcDbVertex
100
AcDb2dVertex
 10
59.984259
 20
89.036981
 30
0.0
  0
VERTEX
  5
245
330
235
100
AcDbEntity
  8
001
 62
   200
370
    50
100
AcDbVertex
100
AcDb2dVertex
 10
59.976079
 20
89.039571
 30
0.0
  0
SEQEND
  5
236
330
235
100
AcDbEntity
  8
001
370
    50
  0
LINE
  5
246
330
1F
100
AcDbEntity
  8
001
 62
   200
370
    50
100
AcDbLine
 10
54.943866
 20
92.763723
 30
0.0
 11
50.744858
 21
96.074947
 31
0.0
  0
LINE
  5
247
330
1F
100
AcDbEntity
  8
001
 62
   200
370
    50
100
AcDbLine
 10
59.506371
 20
85.898039
 30
0.0
 11
57.379568
 21
85.176774
 31
0.0
  0
POLYLINE
  5
248
330
1F
100
AcDbEntity
  8
001
 62
   200
370
    50
100
AcDb2dPolyline
 66
     1
 10
0.0
 20
0.0
 30
0.0
  0
VERTEX
  5
24A
330
248
100
AcDbEntity
  8
001
 62
   200
370
    50
100
AcDbVertex
100
AcDb2dVertex
 10
62.744858
 20
82.595055
 30
0.0
  0
VERTEX
  5
24B
330
248
100
AcDbEntity
  8
001
 62
   200
370
    50
100
AcDbVertex
100
AcDb2dVertex
 10
63.561895
 20
81.373052
 30
0.0
  0
VERTEX
  5
24C
330
248
100
AcDbEntity
  8
001
 62
   200
370
    50
100
AcDbVertex
100
AcDb2dVertex
 10
64.945596
 20
79.744012
 30
0.0
  0
VERTEX
  5
24D
330
248
100
AcDbEntity
  8
001
 62
   200
370
    50
100
AcDbVertex
100
AcDb2dVertex
 10
65.413682
 20
79.298454
 30
0.0
  0
VERTEX
  5
24E
330
248
100
AcDbEntity
  8
001
 62
   200
370
    50
100
AcDbVertex
100
AcDb2dVertex
 10
65.744858
 20
79.004764
 30
0.0
  0
SEQEND
  5
249
330
248
100
AcDbEntity
  8
001
370
    50
  0
POLYLINE
  5
24F
330
1F
100
AcDbEntity
  8
001
 62
   200
370
    50
100
AcDb2dPolyline
 66
     1
 10
0.0
 20
0.0
 30
0.0
  0
VERTEX
  5
251
330
24F
100
AcDbEntity
  8
001
 62
   200
370
    50
100
AcDbVertex
100
AcDb2dVertex
 10
49.42088
 20
76.270889
 30
0.0
  0
VERTEX
  5
252
330
24F
100
AcDbEntity
  8
001
 62
   200
370
    50
100
AcDbVertex
100
AcDb2dVertex
 10
49.049601
 20
77.261956
 30
0.0
  0
VERTEX
  5
253
330
24F
100
AcDbEntity
  8
001
 62
   200
370
    50
100
AcDbVertex
100
AcDb2dVertex
 10
48.701531
 20
78.260601
 30
0.0
  0
VERTEX
  5
254
330
24F
100
AcDbEntity
  8
001
 62
   200
370
    50
100
AcDbVertex
100
AcDb2dVertex
 10
48.382308
 20
79.306458
 30
0.0
  0
VERTEX
  5
255
330
24F
100
AcDbEntity
  8
001
 62
   200
370
    50
100
AcDbVertex
100
AcDb2dVertex
 10
48.087897
 20
80.360416
 30
0.0
  0
SEQEND
  5
250
330
24F
100
AcDbEntity
  8
001
370
    50
  0
LINE
  5
256
330
1F
100
AcDbEntity
  8
001
 62
   200
370
    50
100
AcDbLine
 10
48.087897
 20
80.360416
 30
0.0
 11
48.087897
 21
85.68949
 31
0.0
  0
LINE
  5
257
330
1F
100
AcDbEntity
  8
001
 62
   200
370
    50
100
AcDbLine
 10
52.191122
 20
82.613794
 30
0.0
 11
52.195027
 21
82.610717
 31
0.0
  0
LINE
  5
258
330
1F
100
AcDbEntity
  8
001
 62
   200
370
    50
100
AcDbLine
 10
52.195027
 20
82.610717
 30
0.0
 11
52.197986
 21
82.595055
 31
0.0
  0
POLYLINE
  5
259
330
1F
100
AcDbEntity
  8
001
 62
   200
370
    50
100
AcDb2dPolyline
 66
     1
 10
0.0
 20
0.0
 30
0.0
  0
VERTEX
  5
25B
330
259
100
AcDbEntity
  8
001
 62
   200
370
    50
100
AcDbVertex
100
AcDb2dVertex
 10
52.197986
 20
82.595055
 30
0.0
  0
VERTEX
  5
25C
330
259
100
AcDbEntity
  8
001
 62
   200
370
    50
100
AcDbVertex
100
AcDb2dVertex
 10
51.96083
 20
81.840925
 30
0.0
  0
VERTEX
  5
25D
330
259
100
AcDbEntity
  8
001
 62
   200
370
    50
100
AcDbVertex
100
AcDb2dVertex
 10
51.714626
 20
81.089802
 30
0.0
  0
VERTEX
  5
25E
330
259
100
AcDbEntity
  8
001
 62
   200
370
    50
100
AcDbVertex
100
AcDb2dVertex
 10
51.476722
 20
80.412642
 30
0.0
  0
VERTEX
  5
25F
330
259
100
AcDbEntity
  8
001
 62
   200
370
    50
100
AcDbVertex
100
AcDb2dVertex
 10
51.223574
 20
79.740947
 30
0.0
  0
VERTEX
  5
260
330
259
100
AcDbEntity
  8
001
 62
   200
370
    50
100
AcDbVertex
100
AcDb2dVertex
 10
50.978126
 20
79.132733
 30
0.0
  0
VERTEX
  5
261
330
259
100
AcDbEntity
  8
001
 62
   200
370
    50
100
AcDbVertex
100
AcDb2dVertex
 10
50.71611
 20
78.531576
 30
0.0
  0
VERTEX
  5
262
330
259
100
AcDbEntity
  8
001
 62
   200
370
    50
100
AcDbVertex
100
AcDb2dVertex
 10
50.469649
 20
78.011238
 30
0.0
  0
VERTEX
  5
263
330
259
100
AcDbEntity
  8
001
 62
   200
370
    50
100
AcDbVertex
100
AcDb2dVertex
 10
50.205655
 20
77.499402
 30
0.0
  0
VERTEX
  5
264
330
259
100
AcDbEntity
  8
001
 62
   200
370
    50
100
AcDbVertex
100
AcDb2dVertex
 10
50.016355
 20
77.160948
 30
0.0
  0
VERTEX
  5
265
330
259
100
AcDbEntity
  8
001
 62
   200
370
    50
100
AcDbVertex
100
AcDb2dVertex
 10
49.813335
 20
76.830878
 30
0.0
  0
VERTEX
  5
266
330
259
100
AcDbEntity
  8
001
 62
   200
370
    50
100
AcDbVertex
100
AcDb2dVertex
 10
49.620723
 20
76.5485
 30
0.0
  0
VERTEX
  5
267
330
259
100
AcDbEntity
  8
001
 62
   200
370
    50
100
AcDbVertex
100
AcDb2dVertex
 10
49.42088
 20
76.270889
 30
0.0
  0
SEQEND
  5
25A
330
259
100
AcDbEntity
  8
001
370
    50
  0
POLYLINE
  5
268
330
1F
100
AcDbEntity
  8
001
 62
   200
370
    50
100
AcDb2dPolyline
 66
     1
 10
0.0
 20
0.0
 30
0.0
  0
VERTEX
  5
26A
330
268
100
AcDbEntity
  8
001
 62
   200
370
    50
100
AcDbVertex
100
AcDb2dVertex
 10
52.262432
 20
82.595055
 30
0.0
  0
VERTEX
  5
26B
330
268
100
AcDbEntity
  8
001
 62
   200
370
    50
100
AcDbVertex
100
AcDb2dVertex
 10
52.273721
 20
82.593069
 30
0.0
  0
VERTEX
  5
26C
330
268
100
AcDbEntity
  8
001
 62
   200
370
    50
100
AcDbVertex
100
AcDb2dVertex
 10
52.29022
 20
82.590167
 30
0.0
  0
VERTEX
  5
26D
330
268
100
AcDbEntity
  8
001
 62
   200
370
    50
100
AcDbVertex
100
AcDb2dVertex
 10
52.306719
 20
82.587266
 30
0.0
  0
VERTEX
  5
26E
330
268
100
AcDbEntity
  8
001
 62
   200
370
    50
100
AcDbVertex
100
AcDb2dVertex
 10
52.318007
 20
82.585281
 30
0.0
  0
SEQEND
  5
269
330
268
100
AcDbEntity
  8
001
370
    50
  0
LINE
  5
26F
330
1F
100
AcDbEntity
  8
001
 62
   200
370
    50
100
AcDbLine
 10
52.262432
 20
82.595055
 30
0.0
 11
52.195027
 21
82.610717
 31
0.0
  0
LINE
  5
270
330
1F
100
AcDbEntity
  8
001
 62
   200
370
    50
100
AcDbLine
 10
52.262432
 20
82.595055
 30
0.0
 11
52.197986
 21
82.595055
 31
0.0
  0
LINE
  5
271
330
1F
100
AcDbEntity
  8
001
 62
   200
370
    50
100
AcDbLine
 10
65.744858
 20
75.443897
 30
0.0
 11
65.744858
 21
92.088206
 31
0.0
  0
LINE
  5
272
330
1F
100
AcDbEntity
  8
001
 62
   200
370
    50
100
AcDbLine
 10
65.744858
 20
75.443897
 30
0.0
 11
50.744858
 21
75.443897
 31
0.0
  0
LINE
  5
273
330
1F
100
AcDbEntity
  8
001
 62
   200
370
    50
100
AcDbLine
 10
50.744858
 20
75.843334
 30
0.0
 11
50.744858
 21
75.443897
 31
0.0
  0
POLYLINE
  5
274
330
1F
100
AcDbEntity
  8
001
 62
   200
370
    50
100
AcDb2dPolyline
 66
     1
 10
0.0
 20
0.0
 30
0.0
  0
VERTEX
  5
276
330
274
100
AcDbEntity
  8
001
 62
   200
370
    50
100
AcDbVertex
100
AcDb2dVertex
 10
49.42088
 20
76.270889
 30
0.0
  0
VERTEX
  5
277
330
274
100
AcDbEntity
  8
001
 62
   200
370
    50
100
AcDbVertex
100
AcDb2dVertex
 10
49.685289
 20
76.175756
 30
0.0
  0
VERTEX
  5
278
330
274
100
AcDbEntity
  8
001
 62
   200
370
    50
100
AcDbVertex
100
AcDb2dVertex
 10
50.074291
 20
76.044276
 30
0.0
  0
VERTEX
  5
279
330
274
100
AcDbEntity
  8
001
 62
   200
370
    50
100
AcDbVertex
100
AcDb2dVertex
 10
50.471482
 20
75.921857
 30
0.0
  0
VERTEX
  5
27A
330
274
100
AcDbEntity
  8
001
 62
   200
370
    50
100
AcDbVertex
100
AcDb2dVertex
 10
50.744858
 20
75.843334
 30
0.0
  0
SEQEND
  5
275
330
274
100
AcDbEntity
  8
001
370
    50
  0
POLYLINE
  5
27B
330
1F
100
AcDbEntity
  8
001
 62
   200
370
    50
100
AcDb2dPolyline
 66
     1
 10
0.0
 20
0.0
 30
0.0
  0
VERTEX
  5
27D
330
27B
100
AcDbEntity
  8
001
 62
   200
370
    50
100
AcDbVertex
100
AcDb2dVertex
 10
55.056356
 20
82.595055
 30
0.0
  0
VERTEX
  5
27E
330
27B
100
AcDbEntity
  8
001
 62
   200
370
    50
100
AcDbVertex
100
AcDb2dVertex
 10
55.010074
 20
82.503576
 30
0.0
  0
VERTEX
  5
27F
330
27B
100
AcDbEntity
  8
001
 62
   200
370
    50
100
AcDbVertex
100
AcDb2dVertex
 10
54.94322
 20
82.369483
 30
0.0
  0
VERTEX
  5
280
330
27B
100
AcDbEntity
  8
001
 62
   200
370
    50
100
AcDbVertex
100
AcDb2dVertex
 10
54.878789
 20
82.237531
 30
0.0
  0
VERTEX
  5
281
330
27B
100
AcDbEntity
  8
001
 62
   200
370
    50
100
AcDbVertex
100
AcDb2dVertex
 10
54.835243
 20
82.146984
 30
0.0
  0
SEQEND
  5
27C
330
27B
100
AcDbEntity
  8
001
370
    50
  0
POLYLINE
  5
282
330
1F
100
AcDbEntity
  8
001
 62
   200
370
    50
100
AcDb2dPolyline
 66
     1
 10
0.0
 20
0.0
 30
0.0
  0
VERTEX
  5
284
330
282
100
AcDbEntity
  8
001
 62
   200
370
    50
100
AcDbVertex
100
AcDb2dVertex
 10
59.506371
 20
85.898039
 30
0.0
  0
VERTEX
  5
285
330
282
100
AcDbEntity
  8
001
 62
   200
370
    50
100
AcDbVertex
100
AcDb2dVertex
 10
59.519673
 20
85.89505
 30
0.0
  0
VERTEX
  5
286
330
282
100
AcDbEntity
  8
001
 62
   200
370
    50
100
AcDbVertex
100
AcDb2dVertex
 10
59.539053
 20
85.890738
 30
0.0
  0
VERTEX
  5
287
330
282
100
AcDbEntity
  8
001
 62
   200
370
    50
100
AcDbVertex
100
AcDb2dVertex
 10
60.06772
 20
85.798244
 30
0.0
  0
VERTEX
  5
288
330
282
100
AcDbEntity
  8
001
 62
   200
370
    50
100
AcDbVertex
100
AcDb2dVertex
 10
60.52872
 20
85.771349
 30
0.0
  0
VERTEX
  5
289
330
282
100
AcDbEntity
  8
001
 62
   200
370
    50
100
AcDbVertex
100
AcDb2dVertex
 10
61.142749
 20
85.8112
 30
0.0
  0
VERTEX
  5
28A
330
282
100
AcDbEntity
  8
001
 62
   200
370
    50
100
AcDbVertex
100
AcDb2dVertex
 10
61.750517
 20
85.987438
 30
0.0
  0
VERTEX
  5
28B
330
282
100
AcDbEntity
  8
001
 62
   200
370
    50
100
AcDbVertex
100
AcDb2dVertex
 10
61.899606
 20
86.066779
 30
0.0
  0
VERTEX
  5
28C
330
282
100
AcDbEntity
  8
001
 62
   200
370
    50
100
AcDbVertex
100
AcDb2dVertex
 10
62.036915
 20
86.157682
 30
0.0
  0
VERTEX
  5
28D
330
282
100
AcDbEntity
  8
001
 62
   200
370
    50
100
AcDbVertex
100
AcDb2dVertex
 10
62.147202
 20
86.249837
 30
0.0
  0
VERTEX
  5
28E
330
282
100
AcDbEntity
  8
001
 62
   200
370
    50
100
AcDbVertex
100
AcDb2dVertex
 10
62.246713
 20
86.369618
 30
0.0
  0
VERTEX
  5
28F
330
282
100
AcDbEntity
  8
001
 62
   200
370
    50
100
AcDbVertex
100
AcDb2dVertex
 10
62.326921
 20
86.509441
 30
0.0
  0
VERTEX
  5
290
330
282
100
AcDbEntity
  8
001
 62
   200
370
    50
100
AcDbVertex
100
AcDb2dVertex
 10
62.373534
 20
86.616807
 30
0.0
  0
SEQEND
  5
283
330
282
100
AcDbEntity
  8
001
370
    50
  0
LINE
  5
291
330
1F
100
AcDbEntity
  8
001
 62
   200
370
    50
100
AcDbLine
 10
50.744858
 20
92.200356
 30
0.0
 11
50.744858
 21
96.381576
 31
0.0
  0
ARC
  5
292
330
1F
100
AcDbEntity
  8
001
 62
   253
370
    50
100
AcDbCircle
 10
74.744858
 20
175.961019
 30
0.0
 40
0.9999999999999929
100
AcDbArc
 50
0.0
 51
90.0
  0
ARC
  5
293
330
1F
100
AcDbEntity
  8
001
 62
   253
370
    50
100
AcDbCircle
 10
74.744858
 20
69.961019
 30
0.0
 40
0.9999999999999929
100
AcDbArc
 50
270.0
 51
0.0
  0
LINE
  5
294
330
1F
100
AcDbEntity
  8
001
 62
   253
370
    50
100
AcDbLine
 10
75.744858
 20
69.961019
 30
0.0
 11
75.744858
 21
175.961019
 31
0.0
  0
LINE
  5
295
330
1F
100
AcDbEntity
  8
001
 62
   253
370
    50
100
AcDbLine
 10
50.744858
 20
96.381576
 30
0.0
 11
50.744858
 21
132.751266
 31
0.0
  0
POLYLINE
  5
296
330
1F
100
AcDbEntity
  8
001
 62
   253
370
    50
100
AcDb2dPolyline
 66
     1
 10
0.0
 20
0.0
 30
0.0
  0
VERTEX
  5
298
330
296
100
AcDbEntity
  8
001
 62
   253
370
    50
100
AcDbVertex
100
AcDb2dVertex
 10
50.744858
 20
132.751266
 30
0.0
  0
VERTEX
  5
299
330
296
100
AcDbEntity
  8
001
 62
   253
370
    50
100
AcDbVertex
100
AcDb2dVertex
 10
50.747843
 20
132.76157
 30
0.0
  0
VERTEX
  5
29A
330
296
100
AcDbEntity
  8
001
 62
   253
370
    50
100
AcDbVertex
100
AcDb2dVertex
 10
50.751556
 20
132.77133
 30
0.0
  0
VERTEX
  5
29B
330
296
100
AcDbEntity
  8
001
 62
   253
370
    50
100
AcDbVertex
100
AcDb2dVertex
 10
50.789914
 20
132.8072
 30
0.0
  0
VERTEX
  5
29C
330
296
100
AcDbEntity
  8
001
 62
   253
370
    50
100
AcDbVertex
100
AcDb2dVertex
 10
50.845804
 20
132.8273
 30
0.0
  0
VERTEX
  5
29D
330
296
100
AcDbEntity
  8
001
 62
   253
370
    50
100
AcDbVertex
100
AcDb2dVertex
 10
50.945941
 20
132.854238
 30
0.0
  0
VERTEX
  5
29E
330
296
100
AcDbEntity
  8
001
 62
   253
370
    50
100
AcDbVertex
100
AcDb2dVertex
 10
51.041427
 20
132.874696
 30
0.0
  0
VERTEX
  5
29F
330
296
100
AcDbEntity
  8
001
 62
   253
370
    50
100
AcDbVertex
100
AcDb2dVertex
 10
51.177174
 20
132.89474
 30
0.0
  0
VERTEX
  5
2A0
330
296
100
AcDbEntity
  8
001
 62
   253
370
    50
100
AcDbVertex
100
AcDb2dVertex
 10
51.31636
 20
132.908174
 30
0.0
  0
VERTEX
  5
2A1
330
296
100
AcDbEntity
  8
001
 62
   253
370
    50
100
AcDbVertex
100
AcDb2dVertex
 10
51.478254
 20
132.918653
 30
0.0
  0
VERTEX
  5
2A2
330
296
100
AcDbEntity
  8
001
 62
   253
370
    50
100
AcDbVertex
100
AcDb2dVertex
 10
51.639591
 20
132.92396
 30
0.0
  0
VERTEX
  5
2A3
330
296
100
AcDbEntity
  8
001
 62
   253
370
    50
100
AcDbVertex
100
AcDb2dVertex
 10
51.692198
 20
132.924585
 30
0.0
  0
VERTEX
  5
2A4
330
296
100
AcDbEntity
  8
001
 62
   253
370
    50
100
AcDbVertex
100
AcDb2dVertex
 10
51.744858
 20
132.924925
 30
0.0
  0
SEQEND
  5
297
330
296
100
AcDbEntity
  8
001
370
    50
  0
POLYLINE
  5
2A5
330
1F
100
AcDbEntity
  8
001
 62
   253
370
    50
100
AcDb2dPolyline
 66
     1
 10
0.0
 20
0.0
 30
0.0
  0
VERTEX
  5
2A7
330
2A5
100
AcDbEntity
  8
001
 62
   253
370
    50
100
AcDbVertex
100
AcDb2dVertex
 10
51.744858
 20
95.957309
 30
0.0
  0
VERTEX
  5
2A8
330
2A5
100
AcDbEntity
  8
001
 62
   253
370
    50
100
AcDbVertex
100
AcDb2dVertex
 10
51.579627
 20
95.965143
 30
0.0
  0
VERTEX
  5
2A9
330
2A5
100
AcDbEntity
  8
001
 62
   253
370
    50
100
AcDbVertex
100
AcDb2dVertex
 10
51.414993
 20
95.981055
 30
0.0
  0
VERTEX
  5
2AA
330
2A5
100
AcDbEntity
  8
001
 62
   253
370
    50
100
AcDbVertex
100
AcDb2dVertex
 10
51.26667
 20
96.008411
 30
0.0
  0
VERTEX
  5
2AB
330
2A5
100
AcDbEntity
  8
001
 62
   253
370
    50
100
AcDbVertex
100
AcDb2dVertex
 10
51.122123
 20
96.049611
 30
0.0
  0
VERTEX
  5
2AC
330
2A5
100
AcDbEntity
  8
001
 62
   253
370
    50
100
AcDbVertex
100
AcDb2dVertex
 10
51.00801
 20
96.094987
 30
0.0
  0
VERTEX
  5
2AD
330
2A5
100
AcDbEntity
  8
001
 62
   253
370
    50
100
AcDbVertex
100
AcDb2dVertex
 10
50.898848
 20
96.155364
 30
0.0
  0
VERTEX
  5
2AE
330
2A5
100
AcDbEntity
  8
001
 62
   253
370
    50
100
AcDbVertex
100
AcDb2dVertex
 10
50.824031
 20
96.213515
 30
0.0
  0
VERTEX
  5
2AF
330
2A5
100
AcDbEntity
  8
001
 62
   253
370
    50
100
AcDbVertex
100
AcDb2dVertex
 10
50.770128
 20
96.286796
 30
0.0
  0
VERTEX
  5
2B0
330
2A5
100
AcDbEntity
  8
001
 62
   253
370
    50
100
AcDbVertex
100
AcDb2dVertex
 10
50.754736
 20
96.332837
 30
0.0
  0
VERTEX
  5
2B1
330
2A5
100
AcDbEntity
  8
001
 62
   253
370
    50
100
AcDbVertex
100
AcDb2dVertex
 10
50.744858
 20
96.381576
 30
0.0
  0
SEQEND
  5
2A6
330
2A5
100
AcDbEntity
  8
001
370
    50
  0
LINE
  5
2B2
330
1F
100
AcDbEntity
  8
001
 62
   253
370
    50
100
AcDbLine
 10
74.744858
 20
176.961019
 30
0.0
 11
65.744858
 21
176.961019
 31
0.0
  0
LINE
  5
2B3
330
1F
100
AcDbEntity
  8
001
 62
   253
370
    50
100
AcDbLine
 10
51.744858
 20
68.961019
 30
0.0
 11
74.744858
 21
68.961019
 31
0.0
  0
LINE
  5
2B4
330
1F
100
AcDbEntity
  8
001
 62
   253
370
    50
100
AcDbLine
 10
65.744858
 20
95.957309
 30
0.0
 11
65.744858
 21
92.088206
 31
0.0
  0
LINE
  5
2B5
330
1F
100
AcDbEntity
  8
001
 62
   253
370
    50
100
AcDbLine
 10
65.744858
 20
95.957309
 30
0.0
 11
51.744858
 21
95.957309
 31
0.0
  0
LINE
  5
2B6
330
1F
100
AcDbEntity
  8
001
 62
   253
370
    50
100
AcDbLine
 10
51.744858
 20
132.924925
 30
0.0
 11
65.744858
 21
132.924925
 31
0.0
  0
LINE
  5
2B7
330
1F
100
AcDbEntity
  8
001
 62
   253
370
    50
100
AcDbLine
 10
51.744858
 20
173.905352
 30
0.0
 11
65.744858
 21
173.905352
 31
0.0
  0
ARC
  5
2B8
330
1F
100
AcDbEntity
  8
001
 62
   253
370
    50
100
AcDbCircle
 10
83.744858
 20
175.961019
 30
0.0
 40
8.000000000000007
100
AcDbArc
 50
180.0
 51
270.0
  0
ARC
  5
2B9
330
1F
100
AcDbEntity
  8
001
 62
   253
370
    50
100
AcDbCircle
 10
83.744858
 20
69.961019
 30
0.0
 40
8.000000000000007
100
AcDbArc
 50
90.0
 51
180.0
  0
POLYLINE
  5
2BA
330
1F
100
AcDbEntity
  8
001
 62
   253
370
    50
100
AcDb2dPolyline
 66
     1
 10
0.0
 20
0.0
 30
0.0
  0
VERTEX
  5
2BC
330
2BA
100
AcDbEntity
  8
001
 62
   253
370
    50
100
AcDbVertex
100
AcDb2dVertex
 10
50.744858
 20
172.965601
 30
0.0
  0
VERTEX
  5
2BD
330
2BA
100
AcDbEntity
  8
001
 62
   253
370
    50
100
AcDbVertex
100
AcDb2dVertex
 10
50.747241
 20
173.019971
 30
0.0
  0
VERTEX
  5
2BE
330
2BA
100
AcDbEntity
  8
001
 62
   253
370
    50
100
AcDbVertex
100
AcDb2dVertex
 10
50.751556
 20
173.07418
 30
0.0
  0
VERTEX
  5
2BF
330
2BA
100
AcDbEntity
  8
001
 62
   253
370
    50
100
AcDbVertex
100
AcDb2dVertex
 10
50.784514
 20
173.229611
 30
0.0
  0
VERTEX
  5
2C0
330
2BA
100
AcDbEntity
  8
001
 62
   253
370
    50
100
AcDbVertex
100
AcDb2dVertex
 10
50.845804
 20
173.377058
 30
0.0
  0
VERTEX
  5
2C1
330
2BA
100
AcDbEntity
  8
001
 62
   253
370
    50
100
AcDbVertex
100
AcDb2dVertex
 10
50.932804
 20
173.513777
 30
0.0
  0
VERTEX
  5
2C2
330
2BA
100
AcDbEntity
  8
001
 62
   253
370
    50
100
AcDbVertex
100
AcDb2dVertex
 10
51.041427
 20
173.633542
 30
0.0
  0
VERTEX
  5
2C3
330
2BA
100
AcDbEntity
  8
001
 62
   253
370
    50
100
AcDbVertex
100
AcDb2dVertex
 10
51.171318
 20
173.735279
 30
0.0
  0
VERTEX
  5
2C4
330
2BA
100
AcDbEntity
  8
001
 62
   253
370
    50
100
AcDbVertex
100
AcDb2dVertex
 10
51.31636
 20
173.814706
 30
0.0
  0
VERTEX
  5
2C5
330
2BA
100
AcDbEntity
  8
001
 62
   253
370
    50
100
AcDbVertex
100
AcDb2dVertex
 10
51.474713
 20
173.870997
 30
0.0
  0
VERTEX
  5
2C6
330
2BA
100
AcDbEntity
  8
001
 62
   253
370
    50
100
AcDbVertex
100
AcDb2dVertex
 10
51.639591
 20
173.900131
 30
0.0
  0
VERTEX
  5
2C7
330
2BA
100
AcDbEntity
  8
001
 62
   253
370
    50
100
AcDbVertex
100
AcDb2dVertex
 10
51.692179
 20
173.903488
 30
0.0
  0
VERTEX
  5
2C8
330
2BA
100
AcDbEntity
  8
001
 62
   253
370
    50
100
AcDbVertex
100
AcDb2dVertex
 10
51.744858
 20
173.905352
 30
0.0
  0
SEQEND
  5
2BB
330
2BA
100
AcDbEntity
  8
001
370
    50
  0
LINE
  5
2C9
330
1F
100
AcDbEntity
  8
001
 62
   253
370
    50
100
AcDbLine
 10
50.744858
 20
156.730876
 30
0.0
 11
50.744858
 21
156.882514
 31
0.0
  0
LINE
  5
2CA
330
1F
100
AcDbEntity
  8
001
 62
   253
370
    50
100
AcDbLine
 10
89.744858
 20
167.961019
 30
0.0
 11
83.744858
 21
167.961019
 31
0.0
  0
LINE
  5
2CB
330
1F
100
AcDbEntity
  8
001
 62
   253
370
    50
100
AcDbLine
 10
83.744858
 20
77.961019
 30
0.0
 11
89.744858
 21
77.961019
 31
0.0
  0
ARC
  5
2CC
330
1F
100
AcDbEntity
  8
001
 62
   253
370
    50
100
AcDbCircle
 10
89.744858
 20
166.961019
 30
0.0
 40
1.0
100
AcDbArc
 50
0.0
 51
90.0
  0
ARC
  5
2CD
330
1F
100
AcDbEntity
  8
001
 62
   253
370
    50
100
AcDbCircle
 10
89.744858
 20
78.961019
 30
0.0
 40
1.0
100
AcDbArc
 50
270.0
 51
0.0
  0
LINE
  5
2CE
330
1F
100
AcDbEntity
  8
001
 62
   253
370
    50
100
AcDbLine
 10
90.744858
 20
166.961019
 30
0.0
 11
90.744858
 21
78.961019
 31
0.0
  0
LINE
  5
2CF
330
1F
100
AcDbEntity
  8
001
 62
   253
370
    50
100
AcDbLine
 10
50.744858
 20
69.961019
 30
0.0
 11
50.744858
 21
75.443897
 31
0.0
  0
ARC
  5
2D0
330
1F
100
AcDbEntity
  8
001
 62
   253
370
    50
100
AcDbCircle
 10
51.744858
 20
69.961019
 30
0.0
 40
1.0
100
AcDbArc
 50
180.0
 51
229.689594
  0
POLYLINE
  5
2D1
330
1F
100
AcDbEntity
  8
001
 62
   253
370
    50
100
AcDb2dPolyline
 66
     1
 10
0.0
 20
0.0
 30
0.0
  0
VERTEX
  5
2D3
330
2D1
100
AcDbEntity
  8
001
 62
   253
370
    50
100
AcDbVertex
100
AcDb2dVertex
 10
51.744858
 20
68.961019
 30
0.0
  0
VERTEX
  5
2D4
330
2D1
100
AcDbEntity
  8
001
 62
   253
370
    50
100
AcDbVertex
100
AcDb2dVertex
 10
51.577685
 20
68.980278
 30
0.0
  0
VERTEX
  5
2D5
330
2D1
100
AcDbEntity
  8
001
 62
   253
370
    50
100
AcDbVertex
100
AcDb2dVertex
 10
51.414993
 20
69.016992
 30
0.0
  0
VERTEX
  5
2D6
330
2D1
100
AcDbEntity
  8
001
 62
   253
370
    50
100
AcDbVertex
100
AcDb2dVertex
 10
51.261435
 20
69.084349
 30
0.0
  0
VERTEX
  5
2D7
330
2D1
100
AcDbEntity
  8
001
 62
   253
370
    50
100
AcDbVertex
100
AcDb2dVertex
 10
51.122123
 20
69.178592
 30
0.0
  0
VERTEX
  5
2D8
330
2D1
100
AcDbEntity
  8
001
 62
   253
370
    50
100
AcDbVertex
100
AcDb2dVertex
 10
51.109918
 20
69.188546
 30
0.0
  0
VERTEX
  5
2D9
330
2D1
100
AcDbEntity
  8
001
 62
   253
370
    50
100
AcDbVertex
100
AcDb2dVertex
 10
51.0978
 20
69.198584
 30
0.0
  0
SEQEND
  5
2D2
330
2D1
100
AcDbEntity
  8
001
370
    50
  0
LINE
  5
2DA
330
1F
100
AcDbEntity
  8
001
 62
   253
370
    50
100
AcDbLine
 10
162.744858
 20
138.961019
 30
0.0
 11
93.744858
 21
138.961019
 31
0.0
  0
LINE
  5
2DB
330
1F
100
AcDbEntity
  8
001
 62
   253
370
    50
100
AcDbLine
 10
162.744858
 20
106.961019
 30
0.0
 11
93.744858
 21
106.961019
 31
0.0
  0
LINE
  5
2DC
330
1F
100
AcDbEntity
  8
001
 62
   253
370
    50
100
AcDbLine
 10
93.744858
 20
138.961019
 30
0.0
 11
93.744858
 21
106.961019
 31
0.0
  0
LINE
  5
2DD
330
1F
100
AcDbEntity
  8
001
 62
   253
370
    50
100
AcDbLine
 10
170.744858
 20
114.961019
 30
0.0
 11
170.744858
 21
130.961019
 31
0.0
  0
LINE
  5
2DE
330
1F
100
AcDbEntity
  8
001
 62
   253
370
    50
100
AcDbLine
 10
93.744858
 20
138.461019
 30
0.0
 11
90.744858
 21
138.461019
 31
0.0
  0
LINE
  5
2DF
330
1F
100
AcDbEntity
  8
001
 62
   253
370
    50
100
AcDbLine
 10
90.744858
 20
107.461019
 30
0.0
 11
93.744858
 21
107.461019
 31
0.0
  0
TEXT
  5
2E0
330
1F
100
AcDbEntity
  8
001
370
    30
100
AcDbText
 10
54.125648
 20
207.390474
 30
0.0
 40
8.0
  1
ＮＫＰ３２－１３０Ｓ－０６
 41
0.833333
100
AcDbText
  0
ARC
  5
2E1
330
1F
100
AcDbEntity
  8
001
 62
   253
370
    50
100
AcDbCircle
 10
162.744858
 20
130.961019
 30
0.0
 40
8.0
100
AcDbArc
 50
0.0
 51
90.0
  0
ARC
  5
2E2
330
1F
100
AcDbEntity
  8
001
 62
   253
370
    50
100
AcDbCircle
 10
162.744858
 20
114.961019
 30
0.0
 40
8.0
100
AcDbArc
 50
270.0
 51
0.0
  0
ENDSEC
  0
SECTION
  2
OBJECTS
  0
DICTIONARY
  5
C
330
0
100
AcDbDictionary
281
     1
  3
ACAD_GROUP
350
D
  3
ACAD_LAYOUT
350
1A
  3
ACAD_MLEADERSTYLE
350
2E6
  3
ACAD_MLINESTYLE
350
17
  3
ACAD_PLOTSETTINGS
350
19
  3
ACAD_PLOTSTYLENAME
350
E
  3
ACAD_SCALELIST
350
3B
  3
ACAD_TABLESTYLE
350
2E5
  3
ACAD_VISUALSTYLE
350
2A
  3
AcDbVariableDictionary
350
2E3
  0
DICTIONARY
  5
D
102
{ACAD_REACTORS
330
C
102
}
330
C
100
AcDbDictionary
281
     1
  0
DICTIONARY
  5
1A
102
{ACAD_REACTORS
330
C
102
}
330
C
100
AcDbDictionary
281
     1
  3
Layout1
350
1E
  3
Layout2
350
26
  3
Model
350
22
  0
DICTIONARY
  5
2E6
102
{ACAD_REACTORS
330
C
102
}
330
C
100
AcDbDictionary
281
     1
  0
DICTIONARY
  5
17
102
{ACAD_REACTORS
330
C
102
}
330
C
100
AcDbDictionary
281
     1
  3
Standard
350
18
  0
DICTIONARY
  5
19
102
{ACAD_REACTORS
330
C
102
}
330
C
100
AcDbDictionary
281
     1
  0
ACDBDICTIONARYWDFLT
  5
E
102
{ACAD_REACTORS
330
C
102
}
330
C
100
AcDbDictionary
281
     1
  3
Normal
350
F
100
AcDbDictionaryWithDefault
340
F
  0
DICTIONARY
  5
3B
102
{ACAD_REACTORS
330
C
102
}
330
C
100
AcDbDictionary
281
     1
  3
A0
350
3C
  3
A1
350
3D
  3
A2
350
3E
  3
A3
350
3F
  3
A4
350
40
  3
A5
350
41
  3
A6
350
42
  3
A7
350
43
  3
A8
350
44
  3
A9
350
45
  3
B0
350
46
  3
B1
350
47
  3
B2
350
48
  3
B3
350
49
  3
B4
350
4A
  3
B5
350
4B
  3
B6
350
4C
  3
B7
350
4D
  3
B8
350
4E
  3
B9
350
4F
  3
C0
350
50
  3
C1
350
51
  3
C2
350
52
  3
C3
350
53
  3
C4
350
54
  3
C5
350
55
  3
C6
350
56
  3
C7
350
57
  3
C8
350
58
  3
C9
350
59
  3
D0
350
5A
  3
D1
350
5B
  3
D2
350
5C
  0
DICTIONARY
  5
2E5
102
{ACAD_REACTORS
330
C
102
}
330
C
100
AcDbDictionary
281
     1
  0
DICTIONARY
  5
2A
102
{ACAD_REACTORS
330
C
102
}
330
C
100
AcDbDictionary
281
     1
  3
2dWireframe
350
2F
  3
3D Hidden
350
31
  3
3dWireframe
350
30
  3
Basic
350
32
  3
Brighten
350
36
  3
ColorChange
350
3A
  3
Conceptual
350
34
  3
Dim
350
35
  3
Facepattern
350
39
  3
Flat
350
2B
  3
FlatWithEdges
350
2C
  3
Gouraud
350
2D
  3
GouraudWithEdges
350
2E
  3
Linepattern
350
38
  3
Realistic
350
33
  3
Thicken
350
37
  0
DICTIONARY
  5
2E3
102
{ACAD_REACTORS
330
C
102
}
330
C
100
AcDbDictionary
281
     1
  3
CANNOSCALE
350
2E4
  3
PSOLHEIGHT
350
2E8
  3
PSOLWIDTH
350
2E7
  0
LAYOUT
  5
1E
102
{ACAD_REACTORS
330
1A
102
}
330
1A
100
AcDbPlotSettings
  1

  2
none_device
  4

  6

 40
0.0
 41
0.0
 42
0.0
 43
0.0
 44
0.0
 45
0.0
 46
0.0
 47
0.0
 48
0.0
 49
0.0
140
0.0
141
0.0
142
1.0
143
1.0
 70
   688
 72
     0
 73
     0
 74
     5
  7

 75
    16
147
1.0
148
0.0
149
0.0
100
AcDbLayout
  1
Layout1
 70
     1
 71
     1
 10
0.0
 20
0.0
 11
12.0
 21
9.0
 12
0.0
 22
0.0
 32
0.0
 14
1.000000E+20
 24
1.000000E+20
 34
0.0
 15
-1.000000E+20
 25
-1.000000E+20
 35
0.0
146
0.0
 13
0.0
 23
0.0
 33
0.0
 16
1.0
 26
0.0
 36
0.0
 17
0.0
 27
1.0
 37
0.0
 76
     0
330
1B
  0
LAYOUT
  5
26
102
{ACAD_REACTORS
330
1A
102
}
330
1A
100
AcDbPlotSettings
  1

  2
none_device
  4

  6

 40
0.0
 41
0.0
 42
0.0
 43
0.0
 44
0.0
 45
0.0
 46
0.0
 47
0.0
 48
0.0
 49
0.0
140
0.0
141
0.0
142
1.0
143
1.0
 70
   688
 72
     0
 73
     0
 74
     5
  7

 75
    16
147
1.0
148
0.0
149
0.0
100
AcDbLayout
  1
Layout2
 70
     1
 71
     2
 10
0.0
 20
0.0
 11
0.0
 21
0.0
 12
0.0
 22
0.0
 32
0.0
 14
0.0
 24
0.0
 34
0.0
 15
0.0
 25
0.0
 35
0.0
146
0.0
 13
0.0
 23
0.0
 33
0.0
 16
1.0
 26
0.0
 36
0.0
 17
0.0
 27
1.0
 37
0.0
 76
     0
330
23
  0
LAYOUT
  5
22
102
{ACAD_REACTORS
330
1A
102
}
330
1A
100
AcDbPlotSettings
  1

  2
none_device
  4

  6

 40
0.0
 41
0.0
 42
0.0
 43
0.0
 44
0.0
 45
0.0
 46
0.0
 47
0.0
 48
0.0
 49
0.0
140
0.0
141
0.0
142
1.0
143
1.0
 70
  1712
 72
     0
 73
     0
 74
     0
  7

 75
     0
147
1.0
148
0.0
149
0.0
100
AcDbLayout
  1
Model
 70
     1
 71
     0
 10
0.0
 20
0.0
 11
12.0
 21
9.0
 12
0.0
 22
0.0
 32
0.0
 14
14.023193
 24
16.394073
 34
0.0
 15
202.34227
 25
215.390472
 35
0.0
146
0.0
 13
0.0
 23
0.0
 33
0.0
 16
1.0
 26
0.0
 36
0.0
 17
0.0
 27
1.0
 37
0.0
 76
     0
330
1F
331
29
  0
MLINESTYLE
  5
18
102
{ACAD_REACTORS
330
17
102
}
330
17
100
AcDbMlineStyle
  2
Standard
 70
     0
  3

 62
   256
 51
90.0
 52
90.0
 71
     2
 49
0.5
 62
   256
  6
BYLAYER
 49
-0.5
 62
   256
  6
BYLAYER
  0
ACDBPLACEHOLDER
  5
F
102
{ACAD_REACTORS
330
E
102
}
330
E
  0
SCALE
  5
3C
102
{ACAD_REACTORS
330
3B
102
}
330
3B
100
AcDbScale
 70
     0
300
1:1
140
1.0
141
1.0
290
     1
  0
SCALE
  5
3D
102
{ACAD_REACTORS
330
3B
102
}
330
3B
100
AcDbScale
 70
     0
300
1:2
140
1.0
141
2.0
290
     0
  0
SCALE
  5
3E
102
{ACAD_REACTORS
330
3B
102
}
330
3B
100
AcDbScale
 70
     0
300
1:4
140
1.0
141
4.0
290
     0
  0
SCALE
  5
3F
102
{ACAD_REACTORS
330
3B
102
}
330
3B
100
AcDbScale
 70
     0
300
1:5
140
1.0
141
5.0
290
     0
  0
SCALE
  5
40
102
{ACAD_REACTORS
330
3B
102
}
330
3B
100
AcDbScale
 70
     0
300
1:8
140
1.0
141
8.0
290
     0
  0
SCALE
  5
41
102
{ACAD_REACTORS
330
3B
102
}
330
3B
100
AcDbScale
 70
     0
300
1:10
140
1.0
141
10.0
290
     0
  0
SCALE
  5
42
102
{ACAD_REACTORS
330
3B
102
}
330
3B
100
AcDbScale
 70
     0
300
1:16
140
1.0
141
16.0
290
     0
  0
SCALE
  5
43
102
{ACAD_REACTORS
330
3B
102
}
330
3B
100
AcDbScale
 70
     0
300
1:20
140
1.0
141
20.0
290
     0
  0
SCALE
  5
44
102
{ACAD_REACTORS
330
3B
102
}
330
3B
100
AcDbScale
 70
     0
300
1:30
140
1.0
141
30.0
290
     0
  0
SCALE
  5
45
102
{ACAD_REACTORS
330
3B
102
}
330
3B
100
AcDbScale
 70
     0
300
1:40
140
1.0
141
40.0
290
     0
  0
SCALE
  5
46
102
{ACAD_REACTORS
330
3B
102
}
330
3B
100
AcDbScale
 70
     0
300
1:50
140
1.0
141
50.0
290
     0
  0
SCALE
  5
47
102
{ACAD_REACTORS
330
3B
102
}
330
3B
100
AcDbScale
 70
     0
300
1:100
140
1.0
141
100.0
290
     0
  0
SCALE
  5
48
102
{ACAD_REACTORS
330
3B
102
}
330
3B
100
AcDbScale
 70
     0
300
2:1
140
2.0
141
1.0
290
     0
  0
SCALE
  5
49
102
{ACAD_REACTORS
330
3B
102
}
330
3B
100
AcDbScale
 70
     0
300
4:1
140
4.0
141
1.0
290
     0
  0
SCALE
  5
4A
102
{ACAD_REACTORS
330
3B
102
}
330
3B
100
AcDbScale
 70
     0
300
8:1
140
8.0
141
1.0
290
     0
  0
SCALE
  5
4B
102
{ACAD_REACTORS
330
3B
102
}
330
3B
100
AcDbScale
 70
     0
300
10:1
140
10.0
141
1.0
290
     0
  0
SCALE
  5
4C
102
{ACAD_REACTORS
330
3B
102
}
330
3B
100
AcDbScale
 70
     0
300
100:1
140
100.0
141
1.0
290
     0
  0
SCALE
  5
4D
102
{ACAD_REACTORS
330
3B
102
}
330
3B
100
AcDbScale
 70
     0
300
1/128" = 1'-0"
140
0.007812
141
12.0
290
     0
  0
SCALE
  5
4E
102
{ACAD_REACTORS
330
3B
102
}
330
3B
100
AcDbScale
 70
     0
300
1/64" = 1'-0"
140
0.015625
141
12.0
290
     0
  0
SCALE
  5
4F
102
{ACAD_REACTORS
330
3B
102
}
330
3B
100
AcDbScale
 70
     0
300
1/32" = 1'-0"
140
0.03125
141
12.0
290
     0
  0
SCALE
  5
50
102
{ACAD_REACTORS
330
3B
102
}
330
3B
100
AcDbScale
 70
     0
300
1/16" = 1'-0"
140
0.0625
141
12.0
290
     0
  0
SCALE
  5
51
102
{ACAD_REACTORS
330
3B
102
}
330
3B
100
AcDbScale
 70
     0
300
3/32" = 1'-0"
140
0.09375
141
12.0
290
     0
  0
SCALE
  5
52
102
{ACAD_REACTORS
330
3B
102
}
330
3B
100
AcDbScale
 70
     0
300
1/8" = 1'-0"
140
0.125
141
12.0
290
     0
  0
SCALE
  5
53
102
{ACAD_REACTORS
330
3B
102
}
330
3B
100
AcDbScale
 70
     0
300
3/16" = 1'-0"
140
0.1875
141
12.0
290
     0
  0
SCALE
  5
54
102
{ACAD_REACTORS
330
3B
102
}
330
3B
100
AcDbScale
 70
     0
300
1/4" = 1'-0"
140
0.25
141
12.0
290
     0
  0
SCALE
  5
55
102
{ACAD_REACTORS
330
3B
102
}
330
3B
100
AcDbScale
 70
     0
300
3/8" = 1'-0"
140
0.375
141
12.0
290
     0
  0
SCALE
  5
56
102
{ACAD_REACTORS
330
3B
102
}
330
3B
100
AcDbScale
 70
     0
300
1/2" = 1'-0"
140
0.5
141
12.0
290
     0
  0
SCALE
  5
57
102
{ACAD_REACTORS
330
3B
102
}
330
3B
100
AcDbScale
 70
     0
300
3/4" = 1'-0"
140
0.75
141
12.0
290
     0
  0
SCALE
  5
58
102
{ACAD_REACTORS
330
3B
102
}
330
3B
100
AcDbScale
 70
     0
300
1" = 1'-0"
140
1.0
141
12.0
290
     0
  0
SCALE
  5
59
102
{ACAD_REACTORS
330
3B
102
}
330
3B
100
AcDbScale
 70
     0
300
1-1/2" = 1'-0"
140
1.5
141
12.0
290
     0
  0
SCALE
  5
5A
102
{ACAD_REACTORS
330
3B
102
}
330
3B
100
AcDbScale
 70
     0
300
3" = 1'-0"
140
3.0
141
12.0
290
     0
  0
SCALE
  5
5B
102
{ACAD_REACTORS
330
3B
102
}
330
3B
100
AcDbScale
 70
     0
300
6" = 1'-0"
140
6.0
141
12.0
290
     0
  0
SCALE
  5
5C
102
{ACAD_REACTORS
330
3B
102
}
330
3B
100
AcDbScale
 70
     0
300
1'-0" = 1'-0"
140
12.0
141
12.0
290
     0
  0
VISUALSTYLE
  5
2F
102
{ACAD_REACTORS
330
2A
102
}
330
2A
100
AcDbVisualStyle
  2
2dWireframe
 70
     4
 71
     0
 72
     2
 73
     0
 90
        0
 40
-0.6
 41
-30.0
 62
     5
 63
     7
 74
     1
 91
        4
 64
     7
 65
   257
 75
     1
175
     1
 42
1.0
 92
        0
 66
   257
 43
1.0
 76
     1
 77
     6
 78
     2
 67
     7
 79
     5
170
     0
171
     0
290
     0
174
     0
 93
        1
 44
0.0
173
     0
291
     0
 45
0.0
1001
ACAD
1000
AcDbSavedByObjectVersion
1070
     0
  0
VISUALSTYLE
  5
31
102
{ACAD_REACTORS
330
2A
102
}
330
2A
100
AcDbVisualStyle
  2
3D Hidden
 70
     6
 71
     1
 72
     2
 73
     2
 90
        0
 40
-0.6
 41
-30.0
 62
     5
 63
     7
 74
     2
 91
        2
 64
     7
 65
   257
 75
     2
175
     1
 42
40.0
 92
        0
 66
   257
 43
1.0
 76
     1
 77
     6
 78
     2
 67
     7
 79
     3
170
     0
171
     0
290
     0
174
     0
 93
        1
 44
0.0
173
     0
291
     0
 45
0.0
1001
ACAD
1000
AcDbSavedByObjectVersion
1070
     0
  0
VISUALSTYLE
  5
30
102
{ACAD_REACTORS
330
2A
102
}
330
2A
100
AcDbVisualStyle
  2
3dWireframe
 70
     5
 71
     0
 72
     2
 73
     0
 90
        0
 40
-0.6
 41
-30.0
 62
     5
 63
     7
 74
     1
 91
        4
 64
     7
 65
   257
 75
     1
175
     1
 42
1.0
 92
        0
 66
   257
 43
1.0
 76
     1
 77
     6
 78
     2
 67
     7
 79
     5
170
     0
171
     0
290
     0
174
     0
 93
        1
 44
0.0
173
     0
291
     0
 45
0.0
1001
ACAD
1000
AcDbSavedByObjectVersion
1070
     0
  0
VISUALSTYLE
  5
32
102
{ACAD_REACTORS
330
2A
102
}
330
2A
100
AcDbVisualStyle
  2
Basic
 70
     7
 71
     1
 72
     0
 73
     1
 90
        0
 40
-0.6
 41
-30.0
 62
     5
 63
     7
 74
     0
 91
        4
 64
     7
 65
   257
 75
     1
175
     1
 42
1.0
 92
        8
 66
     7
 43
1.0
 76
     1
 77
     6
 78
     2
 67
     7
 79
     5
170
     0
171
     0
290
     0
174
     0
 93
        1
 44
0.0
173
     0
291
     1
 45
0.0
1001
ACAD
1000
AcDbSavedByObjectVersion
1070
     0
  0
VISUALSTYLE
  5
36
102
{ACAD_REACTORS
330
2A
102
}
330
2A
100
AcDbVisualStyle
  2
Brighten
 70
    12
 71
     2
 72
     2
 73
     0
 90
        0
 40
-0.6
 41
-30.0
 62
     5
 63
     7
 74
     1
 91
        4
 64
     7
 65
   257
 75
     1
175
     1
 42
1.0
 92
        8
 66
     7
 43
1.0
 76
     1
 77
     6
 78
     2
 67
     7
 79
     5
170
     0
171
     0
290
     0
174
     0
 93
        1
 44
50.0
173
     0
291
     1
 45
0.0
1001
ACAD
1000
AcDbSavedByObjectVersion
1070
     0
  0
VISUALSTYLE
  5
3A
102
{ACAD_REACTORS
330
2A
102
}
330
2A
100
AcDbVisualStyle
  2
ColorChange
 70
    16
 71
     2
 72
     2
 73
     3
 90
        0
 40
-0.6
 41
-30.0
 62
     5
 63
     8
 74
     1
 91
        4
 64
     7
 65
   257
 75
     1
175
     1
 42
1.0
 92
        8
 66
     8
 43
1.0
 76
     1
 77
     6
 78
     2
 67
     7
 79
     5
170
     0
171
     0
290
     0
174
     0
 93
        1
 44
0.0
173
     0
291
     1
 45
0.0
1001
ACAD
1000
AcDbSavedByObjectVersion
1070
     0
  0
VISUALSTYLE
  5
34
102
{ACAD_REACTORS
330
2A
102
}
330
2A
100
AcDbVisualStyle
  2
Conceptual
 70
     9
 71
     3
 72
     2
 73
     0
 90
        0
 40
-0.6
 41
-30.0
 62
     5
 63
     7
 74
     2
 91
        2
 64
     7
 65
   257
 75
     1
175
     1
 42
40.0
 92
        8
 66
     7
 43
1.0
 76
     1
 77
     6
 78
     2
 67
     7
 79
     3
170
     0
171
     0
290
     0
174
     0
 93
        1
 44
0.0
173
     0
291
     0
 45
0.0
1001
ACAD
1000
AcDbSavedByObjectVersion
1070
     0
  0
VISUALSTYLE
  5
35
102
{ACAD_REACTORS
330
2A
102
}
330
2A
100
AcDbVisualStyle
  2
Dim
 70
    11
 71
     2
 72
     2
 73
     0
 90
        0
 40
-0.6
 41
-30.0
 62
     5
 63
     7
 74
     1
 91
        4
 64
     7
 65
   257
 75
     1
175
     1
 42
1.0
 92
        8
 66
     7
 43
1.0
 76
     1
 77
     6
 78
     2
 67
     7
 79
     5
170
     0
171
     0
290
     0
174
     0
 93
        1
 44
-50.0
173
     0
291
     1
 45
0.0
1001
ACAD
1000
AcDbSavedByObjectVersion
1070
     0
  0
VISUALSTYLE
  5
39
102
{ACAD_REACTORS
330
2A
102
}
330
2A
100
AcDbVisualStyle
  2
Facepattern
 70
    15
 71
     2
 72
     2
 73
     0
 90
        0
 40
-0.6
 41
-30.0
 62
     5
 63
     7
 74
     1
 91
        4
 64
     7
 65
   257
 75
     1
175
     1
 42
1.0
 92
        8
 66
     7
 43
1.0
 76
     1
 77
     6
 78
     2
 67
     7
 79
     5
170
     0
171
     0
290
     0
174
     0
 93
        1
 44
0.0
173
     0
291
     1
 45
0.0
1001
ACAD
1000
AcDbSavedByObjectVersion
1070
     0
  0
VISUALSTYLE
  5
2B
102
{ACAD_REACTORS
330
2A
102
}
330
2A
100
AcDbVisualStyle
  2
Flat
 70
     0
 71
     2
 72
     1
 73
     1
 90
        2
 40
-0.6
 41
30.0
 62
     5
 63
     7
 74
     0
 91
        4
 64
     7
 65
   257
 75
     1
175
     1
 42
1.0
 92
        8
 66
     7
 43
1.0
 76
     1
 77
     6
 78
     2
 67
     7
 79
     5
170
     0
171
     0
290
     0
174
     0
 93
       13
 44
0.0
173
     0
291
     1
 45
0.0
1001
ACAD
1000
AcDbSavedByObjectVersion
1070
     0
  0
VISUALSTYLE
  5
2C
102
{ACAD_REACTORS
330
2A
102
}
330
2A
100
AcDbVisualStyle
  2
FlatWithEdges
 70
     1
 71
     2
 72
     1
 73
     1
 90
        2
 40
-0.6
 41
30.0
 62
     5
 63
     7
 74
     1
 91
        4
 64
     7
 65
   257
 75
     1
175
     1
 42
1.0
 92
        0
 66
   257
 43
1.0
 76
     1
 77
     6
 78
     2
 67
     7
 79
     5
170
     0
171
     0
290
     0
174
     0
 93
       13
 44
0.0
173
     0
291
     1
 45
0.0
1001
ACAD
1000
AcDbSavedByObjectVersion
1070
     0
  0
VISUALSTYLE
  5
2D
102
{ACAD_REACTORS
330
2A
102
}
330
2A
100
AcDbVisualStyle
  2
Gouraud
 70
     2
 71
     2
 72
     2
 73
     1
 90
        2
 40
-0.6
 41
30.0
 62
     5
 63
     7
 74
     0
 91
        4
 64
     7
 65
   257
 75
     1
175
     1
 42
1.0
 92
        0
 66
     7
 43
1.0
 76
     1
 77
     6
 78
     2
 67
     7
 79
     5
170
     0
171
     0
290
     0
174
     0
 93
       13
 44
0.0
173
     0
291
     1
 45
0.0
1001
ACAD
1000
AcDbSavedByObjectVersion
1070
     0
  0
VISUALSTYLE
  5
2E
102
{ACAD_REACTORS
330
2A
102
}
330
2A
100
AcDbVisualStyle
  2
GouraudWithEdges
 70
     3
 71
     2
 72
     2
 73
     1
 90
        2
 40
-0.6
 41
30.0
 62
     5
 63
     7
 74
     1
 91
        4
 64
     7
 65
   257
 75
     1
175
     1
 42
1.0
 92
        0
 66
   257
 43
1.0
 76
     1
 77
     6
 78
     2
 67
     7
 79
     5
170
     0
171
     0
290
     0
174
     0
 93
       13
 44
0.0
173
     0
291
     1
 45
0.0
1001
ACAD
1000
AcDbSavedByObjectVersion
1070
     0
  0
VISUALSTYLE
  5
38
102
{ACAD_REACTORS
330
2A
102
}
330
2A
100
AcDbVisualStyle
  2
Linepattern
 70
    14
 71
     2
 72
     2
 73
     0
 90
        0
 40
-0.6
 41
-30.0
 62
     5
 63
     7
 74
     1
 91
        4
 64
     7
 65
   257
 75
     7
175
     7
 42
1.0
 92
        8
 66
     7
 43
1.0
 76
     1
 77
     6
 78
     2
 67
     7
 79
     5
170
     0
171
     0
290
     0
174
     0
 93
        1
 44
0.0
173
     0
291
     1
 45
0.0
1001
ACAD
1000
AcDbSavedByObjectVersion
1070
     0
  0
VISUALSTYLE
  5
33
102
{ACAD_REACTORS
330
2A
102
}
330
2A
100
AcDbVisualStyle
  2
Realistic
 70
     8
 71
     2
 72
     2
 73
     0
 90
        0
 40
-0.6
 41
-30.0
 62
     5
 63
     7
 74
     1
 91
        0
 64
     7
 65
   257
 75
     1
175
     1
 42
1.0
 92
        8
 66
     8
 43
1.0
 76
     1
 77
     6
 78
     2
 67
     7
 79
     5
170
     0
171
     0
290
     0
174
     0
 93
       13
 44
0.0
173
     0
291
     0
 45
0.0
1001
ACAD
1000
AcDbSavedByObjectVersion
1070
     0
  0
VISUALSTYLE
  5
37
102
{ACAD_REACTORS
330
2A
102
}
330
2A
100
AcDbVisualStyle
  2
Thicken
 70
    13
 71
     2
 72
     2
 73
     0
 90
        0
 40
-0.6
 41
-30.0
 62
     5
 63
     7
 74
     1
 91
        4
 64
     7
 65
   257
 75
     1
175
     1
 42
1.0
 92
       12
 66
     7
 43
1.0
 76
     1
 77
     6
 78
     2
 67
     7
 79
     5
170
     0
171
     0
290
     0
174
     0
 93
        1
 44
0.0
173
     0
291
     1
 45
0.0
1001
ACAD
1000
AcDbSavedByObjectVersion
1070
     0
  0
DICTIONARYVAR
  5
2E4
102
{ACAD_REACTORS
330
2E3
102
}
330
2E3
100
DictionaryVariables
280
     0
  1
1:1
  0
DICTIONARYVAR
  5
2E8
102
{ACAD_REACTORS
330
2E3
102
}
330
2E3
100
DictionaryVariables
280
     0
  1
80.000000
  0
DICTIONARYVAR
  5
2E7
102
{ACAD_REACTORS
330
2E3
102
}
330
2E3
100
DictionaryVariables
280
     0
  1
5.000000
  0
ENDSEC
  0
EOF
