  0
SECTION
  2
HEADER
  9
$ACADVER
  1
AC1015
  9
$ACADMAINTVER
 70
     6
  9
$DWGCODEPAGE
  3
ANSI_932
  9
$INSBASE
 10
0.0
 20
0.0
 30
0.0
  9
$EXTMIN
 10
50.049225
 20
57.473083
 30
0.0
  9
$EXTMAX
 10
445.117096
 20
361.54892
 30
0.0
  9
$LIMMIN
 10
0.0
 20
0.0
  9
$LIMMAX
 10
12.0
 20
9.0
  9
$ORTHOMODE
 70
     0
  9
$REGENMODE
 70
     1
  9
$FILLMODE
 70
     1
  9
$QTEXTMODE
 70
     0
  9
$MIRRTEXT
 70
     1
  9
$LTSCALE
 40
4.985386
  9
$ATTMODE
 70
     1
  9
$TEXTSIZE
 40
3.2
  9
$TRACEWID
 40
1.0
  9
$TEXTSTYLE
  7
Standard
  9
$CLAYER
  8
0
  9
$CELTYPE
  6
ByLayer
  9
$CECOLOR
 62
   256
  9
$CELTSCALE
 40
1.0
  9
$DISPSILH
 70
     0
  9
$DIMSCALE
 40
1.0
  9
$DIMASZ
 40
2.5
  9
$DIMEXO
 40
0.625
  9
$DIMDLI
 40
3.75
  9
$DIMRND
 40
0.0
  9
$DIMDLE
 40
0.0
  9
$DIMEXE
 40
1.25
  9
$DIMTP
 40
0.0
  9
$DIMTM
 40
0.0
  9
$DIMTXT
 40
2.5
  9
$DIMCEN
 40
0.09
  9
$DIMTSZ
 40
0.0
  9
$DIMTOL
 70
     0
  9
$DIMLIM
 70
     0
  9
$DIMTIH
 70
     0
  9
$DIMTOH
 70
     0
  9
$DIMSE1
 70
     0
  9
$DIMSE2
 70
     0
  9
$DIMTAD
 70
     0
  9
$DIMZIN
 70
     8
  9
$DIMBLK
  1

  9
$DIMASO
 70
     1
  9
$DIMSHO
 70
     0
  9
$DIMPOST
  1

  9
$DIMAPOST
  1

  9
$DIMALT
 70
     0
  9
$DIMALTD
 70
     3
  9
$DIMALTF
 40
0.03937
  9
$DIMLFAC
 40
1.0
  9
$DIMTOFL
 70
     1
  9
$DIMTVP
 40
0.0
  9
$DIMTIX
 70
     0
  9
$DIMSOXD
 70
     0
  9
$DIMSAH
 70
     0
  9
$DIMBLK1
  1

  9
$DIMBLK2
  1

  9
$DIMSTYLE
  2
ISO-25
  9
$DIMCLRD
 70
     0
  9
$DIMCLRE
 70
     0
  9
$DIMCLRT
 70
     0
  9
$DIMTFAC
 40
1.0
  9
$DIMGAP
 40
0.625
  9
$DIMJUST
 70
     0
  9
$DIMSD1
 70
     0
  9
$DIMSD2
 70
     0
  9
$DIMTOLJ
 70
     0
  9
$DIMTZIN
 70
     8
  9
$DIMALTZ
 70
     0
  9
$DIMALTTZ
 70
     0
  9
$DIMUPT
 70
     0
  9
$DIMDEC
 70
     2
  9
$DIMTDEC
 70
     2
  9
$DIMALTU
 70
     2
  9
$DIMALTTD
 70
     3
  9
$DIMTXSTY
  7
Standard
  9
$DIMAUNIT
 70
     0
  9
$DIMADEC
 70
     0
  9
$DIMALTRND
 40
0.0
  9
$DIMAZIN
 70
     0
  9
$DIMDSEP
 70
    44
  9
$DIMATFIT
 70
     3
  9
$DIMFRAC
 70
     0
  9
$DIMLDRBLK
  1

  9
$DIMLUNIT
 70
     2
  9
$DIMLWD
 70
    -2
  9
$DIMLWE
 70
    -2
  9
$DIMTMOVE
 70
     0
  9
$LUNITS
 70
     2
  9
$LUPREC
 70
     4
  9
$SKETCHINC
 40
1.0
  9
$FILLETRAD
 40
0.0
  9
$AUNITS
 70
     0
  9
$AUPREC
 70
     0
  9
$MENU
  1
.
  9
$ELEVATION
 40
0.0
  9
$PELEVATION
 40
0.0
  9
$THICKNESS
 40
0.0
  9
$LIMCHECK
 70
     0
  9
$CHAMFERA
 40
10.0
  9
$CHAMFERB
 40
10.0
  9
$CHAMFERC
 40
20.0
  9
$CHAMFERD
 40
0.0
  9
$SKPOLY
 70
     0
  9
$TDCREATE
 40
2454847.679009144
  9
$TDUCREATE
 40
2454847.304009144
  9
$TDUPDATE
 40
2454847.679009155
  9
$TDUUPDATE
 40
2454847.304009155
  9
$TDINDWG
 40
0.0000000116
  9
$TDUSRTIMER
 40
0.0000000116
  9
$USRTIMER
 70
     1
  9
$ANGBASE
 50
0.0
  9
$ANGDIR
 70
     0
  9
$PDMODE
 70
     0
  9
$PDSIZE
 40
0.0
  9
$PLINEWID
 40
0.0
  9
$SPLFRAME
 70
     0
  9
$SPLINETYPE
 70
     6
  9
$SPLINESEGS
 70
     8
  9
$HANDSEED
  5
9A0
  9
$SURFTAB1
 70
     6
  9
$SURFTAB2
 70
     6
  9
$SURFTYPE
 70
     6
  9
$SURFU
 70
     6
  9
$SURFV
 70
     6
  9
$UCSBASE
  2

  9
$UCSNAME
  2

  9
$UCSORG
 10
0.0
 20
0.0
 30
0.0
  9
$UCSXDIR
 10
1.0
 20
0.0
 30
0.0
  9
$UCSYDIR
 10
0.0
 20
1.0
 30
0.0
  9
$UCSORTHOREF
  2

  9
$UCSORTHOVIEW
 70
     0
  9
$UCSORGTOP
 10
0.0
 20
0.0
 30
0.0
  9
$UCSORGBOTTOM
 10
0.0
 20
0.0
 30
0.0
  9
$UCSORGLEFT
 10
0.0
 20
0.0
 30
0.0
  9
$UCSORGRIGHT
 10
0.0
 20
0.0
 30
0.0
  9
$UCSORGFRONT
 10
0.0
 20
0.0
 30
0.0
  9
$UCSORGBACK
 10
0.0
 20
0.0
 30
0.0
  9
$PUCSBASE
  2

  9
$PUCSNAME
  2

  9
$PUCSORG
 10
0.0
 20
0.0
 30
0.0
  9
$PUCSXDIR
 10
1.0
 20
0.0
 30
0.0
  9
$PUCSYDIR
 10
0.0
 20
1.0
 30
0.0
  9
$PUCSORTHOREF
  2

  9
$PUCSORTHOVIEW
 70
     0
  9
$PUCSORGTOP
 10
0.0
 20
0.0
 30
0.0
  9
$PUCSORGBOTTOM
 10
0.0
 20
0.0
 30
0.0
  9
$PUCSORGLEFT
 10
0.0
 20
0.0
 30
0.0
  9
$PUCSORGRIGHT
 10
0.0
 20
0.0
 30
0.0
  9
$PUCSORGFRONT
 10
0.0
 20
0.0
 30
0.0
  9
$PUCSORGBACK
 10
0.0
 20
0.0
 30
0.0
  9
$USERI1
 70
     0
  9
$USERI2
 70
     0
  9
$USERI3
 70
     0
  9
$USERI4
 70
     0
  9
$USERI5
 70
     0
  9
$USERR1
 40
0.0
  9
$USERR2
 40
0.0
  9
$USERR3
 40
0.0
  9
$USERR4
 40
0.0
  9
$USERR5
 40
0.0
  9
$WORLDVIEW
 70
     1
  9
$SHADEDGE
 70
     3
  9
$SHADEDIF
 70
    70
  9
$TILEMODE
 70
     1
  9
$MAXACTVP
 70
    64
  9
$PINSBASE
 10
0.0
 20
0.0
 30
0.0
  9
$PLIMCHECK
 70
     0
  9
$PEXTMIN
 10
1.000000E+20
 20
1.000000E+20
 30
0.0
  9
$PEXTMAX
 10
-1.000000E+20
 20
-1.000000E+20
 30
0.0
  9
$PLIMMIN
 10
0.0
 20
0.0
  9
$PLIMMAX
 10
12.0
 20
9.0
  9
$UNITMODE
 70
     0
  9
$VISRETAIN
 70
     1
  9
$PLINEGEN
 70
     0
  9
$PSLTSCALE
 70
     1
  9
$TREEDEPTH
 70
  3020
  9
$CMLSTYLE
  2
Standard
  9
$CMLJUST
 70
     0
  9
$CMLSCALE
 40
20.0
  9
$PROXYGRAPHICS
 70
     1
  9
$MEASUREMENT
 70
     1
  9
$CELWEIGHT
370
    -1
  9
$ENDCAPS
280
     0
  9
$JOINSTYLE
280
     0
  9
$LWDISPLAY
290
     0
  9
$INSUNITS
 70
     4
  9
$HYPERLINKBASE
  1

  9
$STYLESHEET
  1

  9
$XEDIT
290
     1
  9
$CEPSNTYPE
380
     0
  9
$PSTYLEMODE
290
     1
  9
$FINGERPRINTGUID
  2
{B80CDBF6-D988-4B8C-A728-42CCC9BB569F}
  9
$VERSIONGUID
  2
{FAEB1C32-E019-11D5-929B-00C0DF256EC4}
  9
$EXTNAMES
290
     1
  9
$PSVPSCALE
 40
0.0
  9
$OLESTARTUP
290
     0
  0
ENDSEC
  0
SECTION
  2
CLASSES
  0
CLASS
  1
ACDBDICTIONARYWDFLT
  2
AcDbDictionaryWithDefault
  3
ObjectDBX Classes
 90
        0
280
     0
281
     0
  0
CLASS
  1
VISUALSTYLE
  2
AcDbVisualStyle
  3
ObjectDBX Classes
 90
     4095
280
     0
281
     0
  0
CLASS
  1
SCALE
  2
AcDbScale
  3
ObjectDBX Classes
 90
     1153
280
     0
281
     0
  0
CLASS
  1
DICTIONARYVAR
  2
AcDbDictionaryVar
  3
ObjectDBX Classes
 90
        0
280
     0
281
     0
  0
CLASS
  1
ACDBPLACEHOLDER
  2
AcDbPlaceHolder
  3
ObjectDBX Classes
 90
        0
280
     0
281
     0
  0
CLASS
  1
LAYOUT
  2
AcDbLayout
  3
ObjectDBX Classes
 90
        0
280
     0
281
     0
  0
ENDSEC
  0
SECTION
  2
TABLES
  0
TABLE
  2
VPORT
  5
8
330
0
100
AcDbSymbolTable
 70
     1
  0
VPORT
  5
29
330
8
100
AcDbSymbolTableRecord
100
AcDbViewportTableRecord
  2
*Active
 70
     0
 10
0.0
 20
0.0
 11
1.0
 21
1.0
 12
247.58316
 22
209.511002
 13
0.0
 23
0.0
 14
1.0
 24
1.0
 15
0.0
 25
0.0
 16
0.0
 26
0.0
 36
1.0
 17
0.0
 27
0.0
 37
0.0
 40
307.116595
 41
1.691288
 42
50.0
 43
0.0
 44
0.0
 50
0.0
 51
0.0
 71
     0
 72
   100
 73
     1
 74
     3
 75
     0
 76
     0
 77
     0
 78
     0
281
     0
 65
     1
110
0.0
120
0.0
130
0.0
111
1.0
121
0.0
131
0.0
112
0.0
122
1.0
132
0.0
 79
     0
146
0.0
  0
ENDTAB
  0
TABLE
  2
LTYPE
  5
5
330
0
100
AcDbSymbolTable
 70
     5
  0
LTYPE
  5
14
330
5
100
AcDbSymbolTableRecord
100
AcDbLinetypeTableRecord
  2
ByBlock
 70
     0
  3

 72
    65
 73
     0
 40
0.0
  0
LTYPE
  5
15
330
5
100
AcDbSymbolTableRecord
100
AcDbLinetypeTableRecord
  2
ByLayer
 70
     0
  3

 72
    65
 73
     0
 40
0.0
  0
LTYPE
  5
16
330
5
100
AcDbSymbolTableRecord
100
AcDbLinetypeTableRecord
  2
Continuous
 70
     0
  3
Solid line
 72
    65
 73
     0
 40
0.0
  0
LTYPE
  5
5D
330
5
100
AcDbSymbolTableRecord
100
AcDbLinetypeTableRecord
  2
DASHED
 70
     0
  3
DASHED
 72
    83
 73
     2
 40
0.75
 49
0.5
 74
     0
 49
-0.25
 74
     0
  0
LTYPE
  5
5E
330
5
100
AcDbSymbolTableRecord
100
AcDbLinetypeTableRecord
  2
HIDDEN
 70
     0
  3
HIDDEN
 72
    83
 73
     2
 40
0.375
 49
0.25
 74
     0
 49
-0.125
 74
     0
  0
LTYPE
  5
5F
330
5
100
AcDbSymbolTableRecord
100
AcDbLinetypeTableRecord
  2
CENTER
 70
     0
  3
CENTER
 72
    83
 73
     4
 40
2.0
 49
1.25
 74
     0
 49
-0.25
 74
     0
 49
0.25
 74
     0
 49
-0.25
 74
     0
  0
LTYPE
  5
60
330
5
100
AcDbSymbolTableRecord
100
AcDbLinetypeTableRecord
  2
PHANTOM
 70
     0
  3
PHANTOM
 72
    83
 73
     6
 40
2.5
 49
1.25
 74
     0
 49
-0.25
 74
     0
 49
0.25
 74
     0
 49
-0.25
 74
     0
 49
0.25
 74
     0
 49
-0.25
 74
     0
  0
ENDTAB
  0
TABLE
  2
LAYER
  5
2
330
0
100
AcDbSymbolTable
 70
     2
  0
LAYER
  5
10
330
2
100
AcDbSymbolTableRecord
100
AcDbLayerTableRecord
  2
0
 70
     0
 62
     7
  6
Continuous
370
    -3
390
F
  0
LAYER
  5
61
330
2
100
AcDbSymbolTableRecord
100
AcDbLayerTableRecord
  2
001
 70
     0
 62
     7
  6
Continuous
370
    -3
390
F
  0
ENDTAB
  0
TABLE
  2
STYLE
  5
3
330
0
100
AcDbSymbolTable
 70
     2
  0
STYLE
  5
11
330
3
100
AcDbSymbolTableRecord
100
AcDbTextStyleTableRecord
  2
Standard
 70
     0
 40
0.0
 41
1.0
 50
0.0
 71
     0
 42
0.2
  3
TXT
  4
BIGFONT
  0
STYLE
  5
62
330
3
100
AcDbSymbolTableRecord
100
AcDbTextStyleTableRecord
  2
TATEGAKI
 70
     4
 40
1.0
 41
1.0
 50
0.0
 71
     0
 42
0.2
  3
TXT
  4
BIGFONT
  0
ENDTAB
  0
TABLE
  2
VIEW
  5
6
330
0
100
AcDbSymbolTable
 70
     0
  0
ENDTAB
  0
TABLE
  2
UCS
  5
7
330
0
100
AcDbSymbolTable
 70
     0
  0
ENDTAB
  0
TABLE
  2
APPID
  5
9
330
0
100
AcDbSymbolTable
 70
     1
  0
APPID
  5
12
330
9
100
AcDbSymbolTableRecord
100
AcDbRegAppTableRecord
  2
ACAD
 70
     0
  0
ENDTAB
  0
TABLE
  2
DIMSTYLE
  5
A
330
0
100
AcDbSymbolTable
 70
     2
100
AcDbDimStyleTable
  0
DIMSTYLE
105
27
330
A
100
AcDbSymbolTableRecord
100
AcDbDimStyleTableRecord
  2
ISO-25
 70
     0
 41
2.5
 42
0.625
 43
3.75
 44
1.25
 73
     0
 74
     0
 77
     1
 78
     8
140
2.5
141
2.5
143
0.03937
147
0.625
171
     3
172
     1
271
     2
272
     2
274
     3
278
    44
283
     0
284
     8
340
11
  0
DIMSTYLE
105
63
102
{ACAD_REACTORS
330
15A
330
15B
330
15C
330
15D
330
15E
330
15F
330
160
330
161
330
17A
330
17B
330
17C
330
17D
102
}
330
A
100
AcDbSymbolTableRecord
100
AcDbDimStyleTableRecord
  2
Standard
 70
     0
 41
1.5
 42
0.0
 44
2.75
 73
     0
 74
     0
 77
     1
 78
     8
 79
     2
140
4.0
146
0.8
147
1.0
172
     1
179
     1
271
     1
340
11
  0
ENDTAB
  0
TABLE
  2
BLOCK_RECORD
  5
1
330
0
100
AcDbSymbolTable
 70
    13
  0
BLOCK_RECORD
  5
1F
330
1
100
AcDbSymbolTableRecord
100
AcDbBlockTableRecord
  2
*Model_Space
340
22
  0
BLOCK_RECORD
  5
1B
330
1
100
AcDbSymbolTableRecord
100
AcDbBlockTableRecord
  2
*Paper_Space
340
1E
  0
BLOCK_RECORD
  5
23
330
1
100
AcDbSymbolTableRecord
100
AcDbBlockTableRecord
  2
*Paper_Space0
340
26
  0
BLOCK_RECORD
  5
64
330
1
100
AcDbSymbolTableRecord
100
AcDbBlockTableRecord
  2
*D1
340
0
  0
BLOCK_RECORD
  5
78
330
1
100
AcDbSymbolTableRecord
100
AcDbBlockTableRecord
  2
*D2
340
0
  0
BLOCK_RECORD
  5
8C
330
1
100
AcDbSymbolTableRecord
100
AcDbBlockTableRecord
  2
*D3
340
0
  0
BLOCK_RECORD
  5
A0
330
1
100
AcDbSymbolTableRecord
100
AcDbBlockTableRecord
  2
*D4
340
0
  0
BLOCK_RECORD
  5
B4
330
1
100
AcDbSymbolTableRecord
100
AcDbBlockTableRecord
  2
*D5
340
0
  0
BLOCK_RECORD
  5
C8
330
1
100
AcDbSymbolTableRecord
100
AcDbBlockTableRecord
  2
*D6
340
0
  0
BLOCK_RECORD
  5
DC
330
1
100
AcDbSymbolTableRecord
100
AcDbBlockTableRecord
  2
*D7
340
0
  0
BLOCK_RECORD
  5
F0
330
1
100
AcDbSymbolTableRecord
100
AcDbBlockTableRecord
  2
*D8
340
0
  0
BLOCK_RECORD
  5
104
330
1
100
AcDbSymbolTableRecord
100
AcDbBlockTableRecord
  2
*D9
340
0
  0
BLOCK_RECORD
  5
119
330
1
100
AcDbSymbolTableRecord
100
AcDbBlockTableRecord
  2
*D10
340
0
  0
BLOCK_RECORD
  5
12E
330
1
100
AcDbSymbolTableRecord
100
AcDbBlockTableRecord
  2
*D11
340
0
  0
BLOCK_RECORD
  5
144
330
1
100
AcDbSymbolTableRecord
100
AcDbBlockTableRecord
  2
*D12
340
0
  0
ENDTAB
  0
ENDSEC
  0
SECTION
  2
BLOCKS
  0
BLOCK
  5
20
330
1F
100
AcDbEntity
  8
0
100
AcDbBlockBegin
  2
*Model_Space
 70
     0
 10
0.0
 20
0.0
 30
0.0
  3
*Model_Space
  1

  0
ENDBLK
  5
21
330
1F
100
AcDbEntity
  8
0
100
AcDbBlockEnd
  0
BLOCK
  5
1C
330
1B
100
AcDbEntity
 67
     1
  8
0
100
AcDbBlockBegin
  2
*Paper_Space
 70
     0
 10
0.0
 20
0.0
 30
0.0
  3
*Paper_Space
  1

  0
ENDBLK
  5
1D
330
1B
100
AcDbEntity
 67
     1
  8
0
100
AcDbBlockEnd
  0
BLOCK
  5
24
330
23
100
AcDbEntity
  8
0
100
AcDbBlockBegin
  2
*Paper_Space0
 70
     0
 10
0.0
 20
0.0
 30
0.0
  3
*Paper_Space0
  1

  0
ENDBLK
  5
25
330
23
100
AcDbEntity
  8
0
100
AcDbBlockEnd
  0
BLOCK
  5
65
330
64
100
AcDbEntity
  8
0
100
AcDbBlockBegin
  2
*D1
 70
     1
 10
0.0
 20
0.0
 30
0.0
  3
*D1
  1

  0
LINE
  5
67
330
64
100
AcDbEntity
  8
001
370
     9
100
AcDbLine
 10
95.154141
 20
93.990687
 30
0.0
 11
95.154141
 21
57.473082
 31
0.0
  0
LINE
  5
68
330
64
100
AcDbEntity
  8
001
370
     9
100
AcDbLine
 10
225.154141
 20
113.084045
 30
0.0
 11
225.154141
 21
57.473082
 31
0.0
  0
LINE
  5
69
330
64
100
AcDbEntity
  8
001
370
     9
100
AcDbLine
 10
95.154141
 20
60.223082
 30
0.0
 11
225.154141
 21
60.223082
 31
0.0
  0
POLYLINE
  5
6A
330
64
100
AcDbEntity
  8
001
370
     9
100
AcDb2dPolyline
 66
     1
 10
0.0
 20
0.0
 30
0.0
  0
VERTEX
  5
6C
330
6A
100
AcDbEntity
  8
001
370
     9
100
AcDbVertex
100
AcDb2dVertex
 10
96.654141
 20
59.821158
 30
0.0
  0
VERTEX
  5
6D
330
6A
100
AcDbEntity
  8
001
370
     9
100
AcDbVertex
100
AcDb2dVertex
 10
95.154141
 20
60.223082
 30
0.0
  0
VERTEX
  5
6E
330
6A
100
AcDbEntity
  8
001
370
     9
100
AcDbVertex
100
AcDb2dVertex
 10
96.654141
 20
60.625006
 30
0.0
  0
SEQEND
  5
6B
330
6A
100
AcDbEntity
  8
001
370
     9
  0
POLYLINE
  5
6F
330
64
100
AcDbEntity
  8
001
370
     9
100
AcDb2dPolyline
 66
     1
 10
0.0
 20
0.0
 30
0.0
  0
VERTEX
  5
71
330
6F
100
AcDbEntity
  8
001
370
     9
100
AcDbVertex
100
AcDb2dVertex
 10
223.654141
 20
60.625006
 30
0.0
  0
VERTEX
  5
72
330
6F
100
AcDbEntity
  8
001
370
     9
100
AcDbVertex
100
AcDb2dVertex
 10
225.154141
 20
60.223082
 30
0.0
  0
VERTEX
  5
73
330
6F
100
AcDbEntity
  8
001
370
     9
100
AcDbVertex
100
AcDb2dVertex
 10
223.654141
 20
59.821158
 30
0.0
  0
SEQEND
  5
70
330
6F
100
AcDbEntity
  8
001
370
     9
  0
TEXT
  5
74
330
64
100
AcDbEntity
  8
001
370
    30
100
AcDbText
 10
155.485504
 20
61.223082
 30
0.0
 40
4.0
  1
１３０
 41
0.833333
100
AcDbText
  0
POINT
  5
75
330
64
100
AcDbEntity
  8
001
370
     9
100
AcDbPoint
 10
95.154141
 20
93.990687
 30
0.0
  0
POINT
  5
76
330
64
100
AcDbEntity
  8
001
370
     9
100
AcDbPoint
 10
225.154141
 20
113.084045
 30
0.0
  0
POINT
  5
77
330
64
100
AcDbEntity
  8
001
370
     9
100
AcDbPoint
 10
225.154141
 20
60.223082
 30
0.0
  0
ENDBLK
  5
66
330
64
100
AcDbEntity
  8
0
100
AcDbBlockEnd
  0
BLOCK
  5
79
330
78
100
AcDbEntity
  8
0
100
AcDbBlockBegin
  2
*D2
 70
     1
 10
0.0
 20
0.0
 30
0.0
  3
*D2
  1

  0
LINE
  5
7B
330
78
100
AcDbEntity
  8
001
370
     9
100
AcDbLine
 10
225.154141
 20
113.084045
 30
0.0
 11
225.154141
 21
70.234205
 31
0.0
  0
LINE
  5
7C
330
78
100
AcDbEntity
  8
001
370
     9
100
AcDbLine
 10
125.154141
 20
106.084045
 30
0.0
 11
125.154141
 21
70.234205
 31
0.0
  0
LINE
  5
7D
330
78
100
AcDbEntity
  8
001
370
     9
100
AcDbLine
 10
225.154141
 20
72.984205
 30
0.0
 11
125.154141
 21
72.984205
 31
0.0
  0
POLYLINE
  5
7E
330
78
100
AcDbEntity
  8
001
370
     9
100
AcDb2dPolyline
 66
     1
 10
0.0
 20
0.0
 30
0.0
  0
VERTEX
  5
80
330
7E
100
AcDbEntity
  8
001
370
     9
100
AcDbVertex
100
AcDb2dVertex
 10
223.654141
 20
73.386129
 30
0.0
  0
VERTEX
  5
81
330
7E
100
AcDbEntity
  8
001
370
     9
100
AcDbVertex
100
AcDb2dVertex
 10
225.154141
 20
72.984205
 30
0.0
  0
VERTEX
  5
82
330
7E
100
AcDbEntity
  8
001
370
     9
100
AcDbVertex
100
AcDb2dVertex
 10
223.654141
 20
72.582282
 30
0.0
  0
SEQEND
  5
7F
330
7E
100
AcDbEntity
  8
001
370
     9
  0
POLYLINE
  5
83
330
78
100
AcDbEntity
  8
001
370
     9
100
AcDb2dPolyline
 66
     1
 10
0.0
 20
0.0
 30
0.0
  0
VERTEX
  5
85
330
83
100
AcDbEntity
  8
001
370
     9
100
AcDbVertex
100
AcDb2dVertex
 10
126.654141
 20
72.582282
 30
0.0
  0
VERTEX
  5
86
330
83
100
AcDbEntity
  8
001
370
     9
100
AcDbVertex
100
AcDb2dVertex
 10
125.154141
 20
72.984205
 30
0.0
  0
VERTEX
  5
87
330
83
100
AcDbEntity
  8
001
370
     9
100
AcDbVertex
100
AcDb2dVertex
 10
126.654141
 20
73.386129
 30
0.0
  0
SEQEND
  5
84
330
83
100
AcDbEntity
  8
001
370
     9
  0
TEXT
  5
88
330
78
100
AcDbEntity
  8
001
370
    30
100
AcDbText
 10
167.942791
 20
73.984205
 30
0.0
 40
4.0
  1
１００
 41
0.833333
100
AcDbText
  0
POINT
  5
89
330
78
100
AcDbEntity
  8
001
370
     9
100
AcDbPoint
 10
225.154141
 20
113.084045
 30
0.0
  0
POINT
  5
8A
330
78
100
AcDbEntity
  8
001
370
     9
100
AcDbPoint
 10
125.154141
 20
106.084045
 30
0.0
  0
POINT
  5
8B
330
78
100
AcDbEntity
  8
001
370
     9
100
AcDbPoint
 10
125.154141
 20
72.984205
 30
0.0
  0
ENDBLK
  5
7A
330
78
100
AcDbEntity
  8
0
100
AcDbBlockEnd
  0
BLOCK
  5
8D
330
8C
100
AcDbEntity
  8
0
100
AcDbBlockBegin
  2
*D3
 70
     1
 10
0.0
 20
0.0
 30
0.0
  3
*D3
  1

  0
LINE
  5
8F
330
8C
100
AcDbEntity
  8
001
370
     9
100
AcDbLine
 10
125.154141
 20
106.084045
 30
0.0
 11
125.154141
 21
70.234205
 31
0.0
  0
LINE
  5
90
330
8C
100
AcDbEntity
  8
001
370
     9
100
AcDbLine
 10
95.154141
 20
93.990687
 30
0.0
 11
95.154141
 21
70.234205
 31
0.0
  0
LINE
  5
91
330
8C
100
AcDbEntity
  8
001
370
     9
100
AcDbLine
 10
125.154141
 20
72.984205
 30
0.0
 11
95.154141
 21
72.984205
 31
0.0
  0
POLYLINE
  5
92
330
8C
100
AcDbEntity
  8
001
370
     9
100
AcDb2dPolyline
 66
     1
 10
0.0
 20
0.0
 30
0.0
  0
VERTEX
  5
94
330
92
100
AcDbEntity
  8
001
370
     9
100
AcDbVertex
100
AcDb2dVertex
 10
123.654141
 20
73.386129
 30
0.0
  0
VERTEX
  5
95
330
92
100
AcDbEntity
  8
001
370
     9
100
AcDbVertex
100
AcDb2dVertex
 10
125.154141
 20
72.984205
 30
0.0
  0
VERTEX
  5
96
330
92
100
AcDbEntity
  8
001
370
     9
100
AcDbVertex
100
AcDb2dVertex
 10
123.654141
 20
72.582282
 30
0.0
  0
SEQEND
  5
93
330
92
100
AcDbEntity
  8
001
370
     9
  0
POLYLINE
  5
97
330
8C
100
AcDbEntity
  8
001
370
     9
100
AcDb2dPolyline
 66
     1
 10
0.0
 20
0.0
 30
0.0
  0
VERTEX
  5
99
330
97
100
AcDbEntity
  8
001
370
     9
100
AcDbVertex
100
AcDb2dVertex
 10
96.654141
 20
72.582282
 30
0.0
  0
VERTEX
  5
9A
330
97
100
AcDbEntity
  8
001
370
     9
100
AcDbVertex
100
AcDb2dVertex
 10
95.154141
 20
72.984205
 30
0.0
  0
VERTEX
  5
9B
330
97
100
AcDbEntity
  8
001
370
     9
100
AcDbVertex
100
AcDb2dVertex
 10
96.654141
 20
73.386129
 30
0.0
  0
SEQEND
  5
98
330
97
100
AcDbEntity
  8
001
370
     9
  0
TEXT
  5
9C
330
8C
100
AcDbEntity
  8
001
370
    30
100
AcDbText
 10
106.154141
 20
73.984205
 30
0.0
 40
4.0
  1
３０
 41
0.833333
100
AcDbText
  0
POINT
  5
9D
330
8C
100
AcDbEntity
  8
001
370
     9
100
AcDbPoint
 10
125.154141
 20
106.084045
 30
0.0
  0
POINT
  5
9E
330
8C
100
AcDbEntity
  8
001
370
     9
100
AcDbPoint
 10
95.154141
 20
93.990687
 30
0.0
  0
POINT
  5
9F
330
8C
100
AcDbEntity
  8
001
370
     9
100
AcDbPoint
 10
95.154141
 20
72.984205
 30
0.0
  0
ENDBLK
  5
8E
330
8C
100
AcDbEntity
  8
0
100
AcDbBlockEnd
  0
BLOCK
  5
A1
330
A0
100
AcDbEntity
  8
0
100
AcDbBlockBegin
  2
*D4
 70
     1
 10
0.0
 20
0.0
 30
0.0
  3
*D4
  1

  0
LINE
  5
A3
330
A0
100
AcDbEntity
  8
001
370
     9
100
AcDbLine
 10
219.154141
 20
132.084045
 30
0.0
 11
250.858419
 21
132.084045
 31
0.0
  0
LINE
  5
A4
330
A0
100
AcDbEntity
  8
001
370
     9
100
AcDbLine
 10
219.154141
 20
107.084045
 30
0.0
 11
250.858419
 21
107.084045
 31
0.0
  0
LINE
  5
A5
330
A0
100
AcDbEntity
  8
001
370
     9
100
AcDbLine
 10
248.108419
 20
132.084045
 30
0.0
 11
248.108419
 21
107.084045
 31
0.0
  0
POLYLINE
  5
A6
330
A0
100
AcDbEntity
  8
001
370
     9
100
AcDb2dPolyline
 66
     1
 10
0.0
 20
0.0
 30
0.0
  0
VERTEX
  5
A8
330
A6
100
AcDbEntity
  8
001
370
     9
100
AcDbVertex
100
AcDb2dVertex
 10
247.706496
 20
130.584045
 30
0.0
  0
VERTEX
  5
A9
330
A6
100
AcDbEntity
  8
001
370
     9
100
AcDbVertex
100
AcDb2dVertex
 10
248.108419
 20
132.084045
 30
0.0
  0
VERTEX
  5
AA
330
A6
100
AcDbEntity
  8
001
370
     9
100
AcDbVertex
100
AcDb2dVertex
 10
248.510343
 20
130.584045
 30
0.0
  0
SEQEND
  5
A7
330
A6
100
AcDbEntity
  8
001
370
     9
  0
POLYLINE
  5
AB
330
A0
100
AcDbEntity
  8
001
370
     9
100
AcDb2dPolyline
 66
     1
 10
0.0
 20
0.0
 30
0.0
  0
VERTEX
  5
AD
330
AB
100
AcDbEntity
  8
001
370
     9
100
AcDbVertex
100
AcDb2dVertex
 10
248.510343
 20
108.584045
 30
0.0
  0
VERTEX
  5
AE
330
AB
100
AcDbEntity
  8
001
370
     9
100
AcDbVertex
100
AcDb2dVertex
 10
248.108419
 20
107.084045
 30
0.0
  0
VERTEX
  5
AF
330
AB
100
AcDbEntity
  8
001
370
     9
100
AcDbVertex
100
AcDb2dVertex
 10
247.706496
 20
108.584045
 30
0.0
  0
SEQEND
  5
AC
330
AB
100
AcDbEntity
  8
001
370
     9
  0
TEXT
  5
B0
330
A0
100
AcDbEntity
  8
001
370
    30
100
AcDbText
 10
247.108419
 20
113.584045
 30
0.0
 40
4.0
  1
%%c２５
 50
90.000003
 41
0.882353
100
AcDbText
  0
POINT
  5
B1
330
A0
100
AcDbEntity
  8
001
370
     9
100
AcDbPoint
 10
219.154141
 20
132.084045
 30
0.0
  0
POINT
  5
B2
330
A0
100
AcDbEntity
  8
001
370
     9
100
AcDbPoint
 10
219.154141
 20
107.084045
 30
0.0
  0
POINT
  5
B3
330
A0
100
AcDbEntity
  8
001
370
     9
100
AcDbPoint
 10
248.108419
 20
107.084045
 30
0.0
  0
ENDBLK
  5
A2
330
A0
100
AcDbEntity
  8
0
100
AcDbBlockEnd
  0
BLOCK
  5
B5
330
B4
100
AcDbEntity
  8
0
100
AcDbBlockBegin
  2
*D5
 70
     1
 10
0.0
 20
0.0
 30
0.0
  3
*D5
  1

  0
LINE
  5
B7
330
B4
100
AcDbEntity
  8
001
370
     9
100
AcDbLine
 10
125.154141
 20
293.200026
 30
0.0
 11
125.154141
 21
257.350186
 31
0.0
  0
LINE
  5
B8
330
B4
100
AcDbEntity
  8
001
370
     9
100
AcDbLine
 10
95.154141
 20
281.106667
 30
0.0
 11
95.154141
 21
257.350186
 31
0.0
  0
LINE
  5
B9
330
B4
100
AcDbEntity
  8
001
370
     9
100
AcDbLine
 10
125.154141
 20
260.100186
 30
0.0
 11
95.154141
 21
260.100186
 31
0.0
  0
POLYLINE
  5
BA
330
B4
100
AcDbEntity
  8
001
370
     9
100
AcDb2dPolyline
 66
     1
 10
0.0
 20
0.0
 30
0.0
  0
VERTEX
  5
BC
330
BA
100
AcDbEntity
  8
001
370
     9
100
AcDbVertex
100
AcDb2dVertex
 10
123.654141
 20
260.50211
 30
0.0
  0
VERTEX
  5
BD
330
BA
100
AcDbEntity
  8
001
370
     9
100
AcDbVertex
100
AcDb2dVertex
 10
125.154141
 20
260.100186
 30
0.0
  0
VERTEX
  5
BE
330
BA
100
AcDbEntity
  8
001
370
     9
100
AcDbVertex
100
AcDb2dVertex
 10
123.654141
 20
259.698262
 30
0.0
  0
SEQEND
  5
BB
330
BA
100
AcDbEntity
  8
001
370
     9
  0
POLYLINE
  5
BF
330
B4
100
AcDbEntity
  8
001
370
     9
100
AcDb2dPolyline
 66
     1
 10
0.0
 20
0.0
 30
0.0
  0
VERTEX
  5
C1
330
BF
100
AcDbEntity
  8
001
370
     9
100
AcDbVertex
100
AcDb2dVertex
 10
96.654141
 20
259.698262
 30
0.0
  0
VERTEX
  5
C2
330
BF
100
AcDbEntity
  8
001
370
     9
100
AcDbVertex
100
AcDb2dVertex
 10
95.154141
 20
260.100186
 30
0.0
  0
VERTEX
  5
C3
330
BF
100
AcDbEntity
  8
001
370
     9
100
AcDbVertex
100
AcDb2dVertex
 10
96.654141
 20
260.50211
 30
0.0
  0
SEQEND
  5
C0
330
BF
100
AcDbEntity
  8
001
370
     9
  0
TEXT
  5
C4
330
B4
100
AcDbEntity
  8
001
370
    30
100
AcDbText
 10
106.154141
 20
261.100186
 30
0.0
 40
4.0
  1
３０
 41
0.833333
100
AcDbText
  0
POINT
  5
C5
330
B4
100
AcDbEntity
  8
001
370
     9
100
AcDbPoint
 10
125.154141
 20
293.200026
 30
0.0
  0
POINT
  5
C6
330
B4
100
AcDbEntity
  8
001
370
     9
100
AcDbPoint
 10
95.154141
 20
281.106667
 30
0.0
  0
POINT
  5
C7
330
B4
100
AcDbEntity
  8
001
370
     9
100
AcDbPoint
 10
95.154141
 20
260.100186
 30
0.0
  0
ENDBLK
  5
B6
330
B4
100
AcDbEntity
  8
0
100
AcDbBlockEnd
  0
BLOCK
  5
C9
330
C8
100
AcDbEntity
  8
0
100
AcDbBlockBegin
  2
*D6
 70
     1
 10
0.0
 20
0.0
 30
0.0
  3
*D6
  1

  0
LINE
  5
CB
330
C8
100
AcDbEntity
  8
001
370
     9
100
AcDbLine
 10
289.154141
 20
319.200026
 30
0.0
 11
320.858419
 21
319.200026
 31
0.0
  0
LINE
  5
CC
330
C8
100
AcDbEntity
  8
001
370
     9
100
AcDbLine
 10
289.154141
 20
294.200026
 30
0.0
 11
320.858419
 21
294.200026
 31
0.0
  0
LINE
  5
CD
330
C8
100
AcDbEntity
  8
001
370
     9
100
AcDbLine
 10
318.108419
 20
319.200026
 30
0.0
 11
318.108419
 21
294.200026
 31
0.0
  0
POLYLINE
  5
CE
330
C8
100
AcDbEntity
  8
001
370
     9
100
AcDb2dPolyline
 66
     1
 10
0.0
 20
0.0
 30
0.0
  0
VERTEX
  5
D0
330
CE
100
AcDbEntity
  8
001
370
     9
100
AcDbVertex
100
AcDb2dVertex
 10
317.706496
 20
317.700026
 30
0.0
  0
VERTEX
  5
D1
330
CE
100
AcDbEntity
  8
001
370
     9
100
AcDbVertex
100
AcDb2dVertex
 10
318.108419
 20
319.200026
 30
0.0
  0
VERTEX
  5
D2
330
CE
100
AcDbEntity
  8
001
370
     9
100
AcDbVertex
100
AcDb2dVertex
 10
318.510343
 20
317.700026
 30
0.0
  0
SEQEND
  5
CF
330
CE
100
AcDbEntity
  8
001
370
     9
  0
POLYLINE
  5
D3
330
C8
100
AcDbEntity
  8
001
370
     9
100
AcDb2dPolyline
 66
     1
 10
0.0
 20
0.0
 30
0.0
  0
VERTEX
  5
D5
330
D3
100
AcDbEntity
  8
001
370
     9
100
AcDbVertex
100
AcDb2dVertex
 10
318.510343
 20
295.700026
 30
0.0
  0
VERTEX
  5
D6
330
D3
100
AcDbEntity
  8
001
370
     9
100
AcDbVertex
100
AcDb2dVertex
 10
318.108419
 20
294.200026
 30
0.0
  0
VERTEX
  5
D7
330
D3
100
AcDbEntity
  8
001
370
     9
100
AcDbVertex
100
AcDb2dVertex
 10
317.706496
 20
295.700026
 30
0.0
  0
SEQEND
  5
D4
330
D3
100
AcDbEntity
  8
001
370
     9
  0
TEXT
  5
D8
330
C8
100
AcDbEntity
  8
001
370
    30
100
AcDbText
 10
317.108419
 20
300.700026
 30
0.0
 40
4.0
  1
%%c２５
 50
90.000003
 41
0.882353
100
AcDbText
  0
POINT
  5
D9
330
C8
100
AcDbEntity
  8
001
370
     9
100
AcDbPoint
 10
289.154141
 20
319.200026
 30
0.0
  0
POINT
  5
DA
330
C8
100
AcDbEntity
  8
001
370
     9
100
AcDbPoint
 10
289.154141
 20
294.200026
 30
0.0
  0
POINT
  5
DB
330
C8
100
AcDbEntity
  8
001
370
     9
100
AcDbPoint
 10
318.108419
 20
294.200026
 30
0.0
  0
ENDBLK
  5
CA
330
C8
100
AcDbEntity
  8
0
100
AcDbBlockEnd
  0
BLOCK
  5
DD
330
DC
100
AcDbEntity
  8
0
100
AcDbBlockBegin
  2
*D7
 70
     1
 10
0.0
 20
0.0
 30
0.0
  3
*D7
  1

  0
LINE
  5
DF
330
DC
100
AcDbEntity
  8
001
370
     9
100
AcDbLine
 10
295.154141
 20
300.200026
 30
0.0
 11
295.154141
 21
257.350186
 31
0.0
  0
LINE
  5
E0
330
DC
100
AcDbEntity
  8
001
370
     9
100
AcDbLine
 10
125.154141
 20
293.200026
 30
0.0
 11
125.154141
 21
257.350186
 31
0.0
  0
LINE
  5
E1
330
DC
100
AcDbEntity
  8
001
370
     9
100
AcDbLine
 10
295.154141
 20
260.100186
 30
0.0
 11
125.154141
 21
260.100186
 31
0.0
  0
POLYLINE
  5
E2
330
DC
100
AcDbEntity
  8
001
370
     9
100
AcDb2dPolyline
 66
     1
 10
0.0
 20
0.0
 30
0.0
  0
VERTEX
  5
E4
330
E2
100
AcDbEntity
  8
001
370
     9
100
AcDbVertex
100
AcDb2dVertex
 10
293.654141
 20
260.50211
 30
0.0
  0
VERTEX
  5
E5
330
E2
100
AcDbEntity
  8
001
370
     9
100
AcDbVertex
100
AcDb2dVertex
 10
295.154141
 20
260.100186
 30
0.0
  0
VERTEX
  5
E6
330
E2
100
AcDbEntity
  8
001
370
     9
100
AcDbVertex
100
AcDb2dVertex
 10
293.654141
 20
259.698262
 30
0.0
  0
SEQEND
  5
E3
330
E2
100
AcDbEntity
  8
001
370
     9
  0
POLYLINE
  5
E7
330
DC
100
AcDbEntity
  8
001
370
     9
100
AcDb2dPolyline
 66
     1
 10
0.0
 20
0.0
 30
0.0
  0
VERTEX
  5
E9
330
E7
100
AcDbEntity
  8
001
370
     9
100
AcDbVertex
100
AcDb2dVertex
 10
126.654141
 20
259.698262
 30
0.0
  0
VERTEX
  5
EA
330
E7
100
AcDbEntity
  8
001
370
     9
100
AcDbVertex
100
AcDb2dVertex
 10
125.154141
 20
260.100186
 30
0.0
  0
VERTEX
  5
EB
330
E7
100
AcDbEntity
  8
001
370
     9
100
AcDbVertex
100
AcDb2dVertex
 10
126.654141
 20
260.50211
 30
0.0
  0
SEQEND
  5
E8
330
E7
100
AcDbEntity
  8
001
370
     9
  0
TEXT
  5
EC
330
DC
100
AcDbEntity
  8
001
370
    30
100
AcDbText
 10
202.094847
 20
261.100186
 30
0.0
 40
4.0
  1
１７０
 41
0.833333
100
AcDbText
  0
POINT
  5
ED
330
DC
100
AcDbEntity
  8
001
370
     9
100
AcDbPoint
 10
295.154141
 20
300.200026
 30
0.0
  0
POINT
  5
EE
330
DC
100
AcDbEntity
  8
001
370
     9
100
AcDbPoint
 10
125.154141
 20
293.200026
 30
0.0
  0
POINT
  5
EF
330
DC
100
AcDbEntity
  8
001
370
     9
100
AcDbPoint
 10
125.154141
 20
260.100186
 30
0.0
  0
ENDBLK
  5
DE
330
DC
100
AcDbEntity
  8
0
100
AcDbBlockEnd
  0
BLOCK
  5
F1
330
F0
100
AcDbEntity
  8
0
100
AcDbBlockBegin
  2
*D8
 70
     1
 10
0.0
 20
0.0
 30
0.0
  3
*D8
  1

  0
LINE
  5
F3
330
F0
100
AcDbEntity
  8
001
370
     9
100
AcDbLine
 10
95.154141
 20
281.106667
 30
0.0
 11
95.154141
 21
244.589063
 31
0.0
  0
LINE
  5
F4
330
F0
100
AcDbEntity
  8
001
370
     9
100
AcDbLine
 10
295.154141
 20
300.200026
 30
0.0
 11
295.154141
 21
244.589063
 31
0.0
  0
LINE
  5
F5
330
F0
100
AcDbEntity
  8
001
370
     9
100
AcDbLine
 10
95.154141
 20
247.339063
 30
0.0
 11
295.154141
 21
247.339063
 31
0.0
  0
POLYLINE
  5
F6
330
F0
100
AcDbEntity
  8
001
370
     9
100
AcDb2dPolyline
 66
     1
 10
0.0
 20
0.0
 30
0.0
  0
VERTEX
  5
F8
330
F6
100
AcDbEntity
  8
001
370
     9
100
AcDbVertex
100
AcDb2dVertex
 10
96.654141
 20
246.937139
 30
0.0
  0
VERTEX
  5
F9
330
F6
100
AcDbEntity
  8
001
370
     9
100
AcDbVertex
100
AcDb2dVertex
 10
95.154141
 20
247.339063
 30
0.0
  0
VERTEX
  5
FA
330
F6
100
AcDbEntity
  8
001
370
     9
100
AcDbVertex
100
AcDb2dVertex
 10
96.654141
 20
247.740986
 30
0.0
  0
SEQEND
  5
F7
330
F6
100
AcDbEntity
  8
001
370
     9
  0
POLYLINE
  5
FB
330
F0
100
AcDbEntity
  8
001
370
     9
100
AcDb2dPolyline
 66
     1
 10
0.0
 20
0.0
 30
0.0
  0
VERTEX
  5
FD
330
FB
100
AcDbEntity
  8
001
370
     9
100
AcDbVertex
100
AcDb2dVertex
 10
293.654141
 20
247.740986
 30
0.0
  0
VERTEX
  5
FE
330
FB
100
AcDbEntity
  8
001
370
     9
100
AcDbVertex
100
AcDb2dVertex
 10
295.154141
 20
247.339063
 30
0.0
  0
VERTEX
  5
FF
330
FB
100
AcDbEntity
  8
001
370
     9
100
AcDbVertex
100
AcDb2dVertex
 10
293.654141
 20
246.937139
 30
0.0
  0
SEQEND
  5
FC
330
FB
100
AcDbEntity
  8
001
370
     9
  0
TEXT
  5
100
330
F0
100
AcDbEntity
  8
001
370
    30
100
AcDbText
 10
191.202392
 20
248.339063
 30
0.0
 40
4.0
  1
２００
 41
0.833333
100
AcDbText
  0
POINT
  5
101
330
F0
100
AcDbEntity
  8
001
370
     9
100
AcDbPoint
 10
95.154141
 20
281.106667
 30
0.0
  0
POINT
  5
102
330
F0
100
AcDbEntity
  8
001
370
     9
100
AcDbPoint
 10
295.154141
 20
300.200026
 30
0.0
  0
POINT
  5
103
330
F0
100
AcDbEntity
  8
001
370
     9
100
AcDbPoint
 10
295.154141
 20
247.339063
 30
0.0
  0
ENDBLK
  5
F2
330
F0
100
AcDbEntity
  8
0
100
AcDbBlockEnd
  0
BLOCK
  5
105
330
104
100
AcDbEntity
  8
0
100
AcDbBlockBegin
  2
*D9
 70
     1
 10
0.0
 20
0.0
 30
0.0
  3
*D9
  1

  0
LINE
  5
107
330
104
100
AcDbEntity
  8
001
370
     9
100
AcDbLine
 10
95.154141
 20
94.040687
 30
0.0
 11
95.154141
 21
84.522566
 31
0.0
  0
LINE
  5
108
330
104
100
AcDbEntity
  8
001
370
     9
100
AcDbLine
 10
82.590052
 20
104.694104
 30
0.0
 11
74.982602
 21
104.694104
 31
0.0
  0
ARC
  5
109
330
104
100
AcDbEntity
  8
001
370
     9
100
AcDbCircle
 10
95.154141
 20
104.694104
 30
0.0
 40
17.42153845409186
100
AcDbArc
 50
180.0
 51
270.0
  0
POLYLINE
  5
10A
330
104
100
AcDbEntity
  8
001
370
     9
100
AcDb2dPolyline
 66
     1
 10
0.0
 20
0.0
 30
0.0
  0
VERTEX
  5
10C
330
10A
100
AcDbEntity
  8
001
370
     9
100
AcDbVertex
100
AcDb2dVertex
 10
93.672828
 20
87.738673
 30
0.0
  0
VERTEX
  5
10D
330
10A
100
AcDbEntity
  8
001
370
     9
100
AcDbVertex
100
AcDb2dVertex
 10
95.154141
 20
87.272566
 30
0.0
  0
VERTEX
  5
10E
330
10A
100
AcDbEntity
  8
001
370
     9
100
AcDbVertex
100
AcDb2dVertex
 10
93.638233
 20
86.93557
 30
0.0
  0
SEQEND
  5
10B
330
10A
100
AcDbEntity
  8
001
370
     9
  0
POLYLINE
  5
10F
330
104
100
AcDbEntity
  8
001
370
     9
100
AcDb2dPolyline
 66
     1
 10
0.0
 20
0.0
 30
0.0
  0
VERTEX
  5
111
330
10F
100
AcDbEntity
  8
001
370
     9
100
AcDbVertex
100
AcDb2dVertex
 10
77.395606
 20
103.178197
 30
0.0
  0
VERTEX
  5
112
330
10F
100
AcDbEntity
  8
001
370
     9
100
AcDbVertex
100
AcDb2dVertex
 10
77.732602
 20
104.694104
 30
0.0
  0
VERTEX
  5
113
330
10F
100
AcDbEntity
  8
001
370
     9
100
AcDbVertex
100
AcDb2dVertex
 10
78.198709
 20
103.212792
 30
0.0
  0
SEQEND
  5
110
330
10F
100
AcDbEntity
  8
001
370
     9
  0
TEXT
  5
114
330
104
100
AcDbEntity
  8
001
370
    30
100
AcDbText
 10
79.299719
 20
97.324964
 30
0.0
 40
4.0
  1
９０%%d
 50
314.999992
 41
0.978261
100
AcDbText
  0
POINT
  5
115
330
104
100
AcDbEntity
  8
001
370
     9
100
AcDbPoint
 10
95.154141
 20
94.040687
 30
0.0
  0
POINT
  5
116
330
104
100
AcDbEntity
  8
001
370
     9
100
AcDbPoint
 10
95.154141
 20
104.694104
 30
0.0
  0
POINT
  5
117
330
104
100
AcDbEntity
  8
001
370
     9
100
AcDbPoint
 10
95.154141
 20
104.694104
 30
0.0
  0
POINT
  5
118
330
104
100
AcDbEntity
  8
001
370
     9
100
AcDbPoint
 10
82.590052
 20
104.694104
 30
0.0
  0
ENDBLK
  5
106
330
104
100
AcDbEntity
  8
0
100
AcDbBlockEnd
  0
BLOCK
  5
11A
330
119
100
AcDbEntity
  8
0
100
AcDbBlockBegin
  2
*D10
 70
     1
 10
0.0
 20
0.0
 30
0.0
  3
*D10
  1

  0
LINE
  5
11C
330
119
100
AcDbEntity
  8
001
370
     9
100
AcDbLine
 10
95.154141
 20
281.156667
 30
0.0
 11
95.154141
 21
272.114651
 31
0.0
  0
LINE
  5
11D
330
119
100
AcDbEntity
  8
001
370
     9
100
AcDbLine
 10
85.092902
 20
291.810085
 30
0.0
 11
75.458707
 21
291.810085
 31
0.0
  0
ARC
  5
11E
330
119
100
AcDbEntity
  8
001
370
     9
100
AcDbCircle
 10
95.154141
 20
291.810085
 30
0.0
 40
16.9454341032509
100
AcDbArc
 50
180.0
 51
270.0
  0
POLYLINE
  5
11F
330
119
100
AcDbEntity
  8
001
370
     9
100
AcDb2dPolyline
 66
     1
 10
0.0
 20
0.0
 30
0.0
  0
VERTEX
  5
121
330
11F
100
AcDbEntity
  8
001
370
     9
100
AcDbVertex
100
AcDb2dVertex
 10
93.673393
 20
275.332549
 30
0.0
  0
VERTEX
  5
122
330
11F
100
AcDbEntity
  8
001
370
     9
100
AcDbVertex
100
AcDb2dVertex
 10
95.154141
 20
274.864651
 30
0.0
  0
VERTEX
  5
123
330
11F
100
AcDbEntity
  8
001
370
     9
100
AcDbVertex
100
AcDb2dVertex
 10
93.637827
 20
274.529489
 30
0.0
  0
SEQEND
  5
120
330
11F
100
AcDbEntity
  8
001
370
     9
  0
POLYLINE
  5
124
330
119
100
AcDbEntity
  8
001
370
     9
100
AcDb2dPolyline
 66
     1
 10
0.0
 20
0.0
 30
0.0
  0
VERTEX
  5
126
330
124
100
AcDbEntity
  8
001
370
     9
100
AcDbVertex
100
AcDb2dVertex
 10
77.873544
 20
290.293771
 30
0.0
  0
VERTEX
  5
127
330
124
100
AcDbEntity
  8
001
370
     9
100
AcDbVertex
100
AcDb2dVertex
 10
78.208707
 20
291.810085
 30
0.0
  0
VERTEX
  5
128
330
124
100
AcDbEntity
  8
001
370
     9
100
AcDbVertex
100
AcDb2dVertex
 10
78.676605
 20
290.329337
 30
0.0
  0
SEQEND
  5
125
330
124
100
AcDbEntity
  8
001
370
     9
  0
TEXT
  5
129
330
119
100
AcDbEntity
  8
001
370
    30
100
AcDbText
 10
79.636376
 20
284.777601
 30
0.0
 40
4.0
  1
９０%%d
 50
314.999992
 41
0.978261
100
AcDbText
  0
POINT
  5
12A
330
119
100
AcDbEntity
  8
001
370
     9
100
AcDbPoint
 10
95.154141
 20
281.156667
 30
0.0
  0
POINT
  5
12B
330
119
100
AcDbEntity
  8
001
370
     9
100
AcDbPoint
 10
95.154141
 20
291.810085
 30
0.0
  0
POINT
  5
12C
330
119
100
AcDbEntity
  8
001
370
     9
100
AcDbPoint
 10
95.154141
 20
291.810085
 30
0.0
  0
POINT
  5
12D
330
119
100
AcDbEntity
  8
001
370
     9
100
AcDbPoint
 10
85.092902
 20
291.810085
 30
0.0
  0
ENDBLK
  5
11B
330
119
100
AcDbEntity
  8
0
100
AcDbBlockEnd
  0
BLOCK
  5
12F
330
12E
100
AcDbEntity
  8
0
100
AcDbBlockBegin
  2
*D11
 70
     1
 10
0.0
 20
0.0
 30
0.0
  3
*D11
  1

  0
LINE
  5
131
330
12E
100
AcDbEntity
  8
001
370
     9
100
AcDbLine
 10
110.054141
 20
104.768757
 30
0.0
 11
110.054141
 21
79.523661
 31
0.0
  0
LINE
  5
132
330
12E
100
AcDbEntity
  8
001
370
     9
100
AcDbLine
 10
95.154141
 20
94.040687
 30
0.0
 11
95.154141
 21
79.523661
 31
0.0
  0
LINE
  5
133
330
12E
100
AcDbEntity
  8
001
370
     9
100
AcDbLine
 10
110.054141
 20
82.273661
 30
0.0
 11
95.154141
 21
82.273661
 31
0.0
  0
POLYLINE
  5
134
330
12E
100
AcDbEntity
  8
001
370
     9
100
AcDb2dPolyline
 66
     1
 10
0.0
 20
0.0
 30
0.0
  0
VERTEX
  5
136
330
134
100
AcDbEntity
  8
001
370
     9
100
AcDbVertex
100
AcDb2dVertex
 10
111.554141
 20
81.871737
 30
0.0
  0
VERTEX
  5
137
330
134
100
AcDbEntity
  8
001
370
     9
100
AcDbVertex
100
AcDb2dVertex
 10
110.054141
 20
82.273661
 30
0.0
  0
VERTEX
  5
138
330
134
100
AcDbEntity
  8
001
370
     9
100
AcDbVertex
100
AcDb2dVertex
 10
111.554141
 20
82.675584
 30
0.0
  0
SEQEND
  5
135
330
134
100
AcDbEntity
  8
001
370
     9
  0
POLYLINE
  5
139
330
12E
100
AcDbEntity
  8
001
370
     9
100
AcDb2dPolyline
 66
     1
 10
0.0
 20
0.0
 30
0.0
  0
VERTEX
  5
13B
330
139
100
AcDbEntity
  8
001
370
     9
100
AcDbVertex
100
AcDb2dVertex
 10
93.654141
 20
82.675584
 30
0.0
  0
VERTEX
  5
13C
330
139
100
AcDbEntity
  8
001
370
     9
100
AcDbVertex
100
AcDb2dVertex
 10
95.154141
 20
82.273661
 30
0.0
  0
VERTEX
  5
13D
330
139
100
AcDbEntity
  8
001
370
     9
100
AcDbVertex
100
AcDb2dVertex
 10
93.654141
 20
81.871737
 30
0.0
  0
SEQEND
  5
13A
330
139
100
AcDbEntity
  8
001
370
     9
  0
TEXT
  5
13E
330
12E
100
AcDbEntity
  8
001
370
    30
100
AcDbText
 10
75.654141
 20
83.273661
 30
0.0
 40
4.0
  1
１４．９
 41
0.833333
100
AcDbText
  0
POINT
  5
13F
330
12E
100
AcDbEntity
  8
001
370
     9
100
AcDbPoint
 10
110.054141
 20
104.768757
 30
0.0
  0
POINT
  5
140
330
12E
100
AcDbEntity
  8
001
370
     9
100
AcDbPoint
 10
95.154141
 20
94.040687
 30
0.0
  0
POINT
  5
141
330
12E
100
AcDbEntity
  8
001
370
     9
100
AcDbPoint
 10
95.154141
 20
82.273661
 30
0.0
  0
LINE
  5
142
330
12E
100
AcDbEntity
  8
001
370
     9
100
AcDbLine
 10
110.054141
 20
82.273661
 30
0.0
 11
112.554141
 21
82.273661
 31
0.0
  0
LINE
  5
143
330
12E
100
AcDbEntity
  8
001
370
     9
100
AcDbLine
 10
95.154141
 20
82.273661
 30
0.0
 11
72.654141
 21
82.273661
 31
0.0
  0
ENDBLK
  5
130
330
12E
100
AcDbEntity
  8
0
100
AcDbBlockEnd
  0
BLOCK
  5
145
330
144
100
AcDbEntity
  8
0
100
AcDbBlockBegin
  2
*D12
 70
     1
 10
0.0
 20
0.0
 30
0.0
  3
*D12
  1

  0
LINE
  5
147
330
144
100
AcDbEntity
  8
001
370
     9
100
AcDbLine
 10
110.054141
 20
291.884737
 30
0.0
 11
110.054141
 21
266.639641
 31
0.0
  0
LINE
  5
148
330
144
100
AcDbEntity
  8
001
370
     9
100
AcDbLine
 10
95.154141
 20
281.156667
 30
0.0
 11
95.154141
 21
266.639641
 31
0.0
  0
LINE
  5
149
330
144
100
AcDbEntity
  8
001
370
     9
100
AcDbLine
 10
110.054141
 20
269.389641
 30
0.0
 11
95.154141
 21
269.389641
 31
0.0
  0
POLYLINE
  5
14A
330
144
100
AcDbEntity
  8
001
370
     9
100
AcDb2dPolyline
 66
     1
 10
0.0
 20
0.0
 30
0.0
  0
VERTEX
  5
14C
330
14A
100
AcDbEntity
  8
001
370
     9
100
AcDbVertex
100
AcDb2dVertex
 10
111.554141
 20
268.987717
 30
0.0
  0
VERTEX
  5
14D
330
14A
100
AcDbEntity
  8
001
370
     9
100
AcDbVertex
100
AcDb2dVertex
 10
110.054141
 20
269.389641
 30
0.0
  0
VERTEX
  5
14E
330
14A
100
AcDbEntity
  8
001
370
     9
100
AcDbVertex
100
AcDb2dVertex
 10
111.554141
 20
269.791565
 30
0.0
  0
SEQEND
  5
14B
330
14A
100
AcDbEntity
  8
001
370
     9
  0
POLYLINE
  5
14F
330
144
100
AcDbEntity
  8
001
370
     9
100
AcDb2dPolyline
 66
     1
 10
0.0
 20
0.0
 30
0.0
  0
VERTEX
  5
151
330
14F
100
AcDbEntity
  8
001
370
     9
100
AcDbVertex
100
AcDb2dVertex
 10
93.654141
 20
269.791565
 30
0.0
  0
VERTEX
  5
152
330
14F
100
AcDbEntity
  8
001
370
     9
100
AcDbVertex
100
AcDb2dVertex
 10
95.154141
 20
269.389641
 30
0.0
  0
VERTEX
  5
153
330
14F
100
AcDbEntity
  8
001
370
     9
100
AcDbVertex
100
AcDb2dVertex
 10
93.654141
 20
268.987717
 30
0.0
  0
SEQEND
  5
150
330
14F
100
AcDbEntity
  8
001
370
     9
  0
TEXT
  5
154
330
144
100
AcDbEntity
  8
001
370
    30
100
AcDbText
 10
75.654141
 20
270.389641
 30
0.0
 40
4.0
  1
１４．９
 41
0.833333
100
AcDbText
  0
POINT
  5
155
330
144
100
AcDbEntity
  8
001
370
     9
100
AcDbPoint
 10
110.054141
 20
291.884737
 30
0.0
  0
POINT
  5
156
330
144
100
AcDbEntity
  8
001
370
     9
100
AcDbPoint
 10
95.154141
 20
281.156667
 30
0.0
  0
POINT
  5
157
330
144
100
AcDbEntity
  8
001
370
     9
100
AcDbPoint
 10
95.154141
 20
269.389641
 30
0.0
  0
LINE
  5
158
330
144
100
AcDbEntity
  8
001
370
     9
100
AcDbLine
 10
110.054141
 20
269.389641
 30
0.0
 11
112.554141
 21
269.389641
 31
0.0
  0
LINE
  5
159
330
144
100
AcDbEntity
  8
001
370
     9
100
AcDbLine
 10
95.154141
 20
269.389641
 30
0.0
 11
72.654141
 21
269.389641
 31
0.0
  0
ENDBLK
  5
146
330
144
100
AcDbEntity
  8
0
100
AcDbBlockEnd
  0
ENDSEC
  0
SECTION
  2
ENTITIES
  0
DIMENSION
  5
15A
330
1F
100
AcDbEntity
  8
001
370
     9
100
AcDbDimension
  2
*D1
 10
225.154141
 20
60.223082
 30
0.0
 11
161.485504
 21
63.223082
 31
0.0
 70
   160
 71
     5
 42
-1.0
  3
Standard
100
AcDbAlignedDimension
 13
95.154141
 23
93.990687
 33
0.0
 14
225.154141
 24
113.084045
 34
0.0
100
AcDbRotatedDimension
  0
DIMENSION
  5
15B
330
1F
100
AcDbEntity
  8
001
370
     9
100
AcDbDimension
  2
*D2
 10
125.154141
 20
72.984205
 30
0.0
 11
173.942791
 21
75.984205
 31
0.0
 70
   160
 71
     5
 42
-1.0
  3
Standard
100
AcDbAlignedDimension
 13
225.154141
 23
113.084045
 33
0.0
 14
125.154141
 24
106.084045
 34
0.0
 50
180.0
100
AcDbRotatedDimension
  0
DIMENSION
  5
15C
330
1F
100
AcDbEntity
  8
001
370
     9
100
AcDbDimension
  2
*D3
 10
95.154141
 20
72.984205
 30
0.0
 11
110.154141
 21
75.984205
 31
0.0
 70
   160
 71
     5
 42
-1.0
  3
Standard
100
AcDbAlignedDimension
 13
125.154141
 23
106.084045
 33
0.0
 14
95.154141
 24
93.990687
 34
0.0
 50
180.0
100
AcDbRotatedDimension
  0
DIMENSION
  5
15D
330
1F
100
AcDbEntity
  8
001
370
     9
100
AcDbDimension
  2
*D4
 10
248.108419
 20
107.084045
 30
0.0
 11
245.108419
 21
119.584045
 31
0.0
 70
   160
 71
     5
 42
-1.0
  3
Standard
100
AcDbAlignedDimension
 13
219.154141
 23
132.084045
 33
0.0
 14
219.154141
 24
107.084045
 34
0.0
 50
270.0
100
AcDbRotatedDimension
  0
DIMENSION
  5
15E
330
1F
100
AcDbEntity
  8
001
370
     9
100
AcDbDimension
  2
*D5
 10
95.154141
 20
260.100186
 30
0.0
 11
110.154141
 21
263.100186
 31
0.0
 70
   160
 71
     5
 42
-1.0
  3
Standard
100
AcDbAlignedDimension
 13
125.154141
 23
293.200026
 33
0.0
 14
95.154141
 24
281.106667
 34
0.0
 50
180.0
100
AcDbRotatedDimension
  0
DIMENSION
  5
15F
330
1F
100
AcDbEntity
  8
001
370
     9
100
AcDbDimension
  2
*D6
 10
318.108419
 20
294.200026
 30
0.0
 11
315.108419
 21
306.700026
 31
0.0
 70
   160
 71
     5
 42
-1.0
  3
Standard
100
AcDbAlignedDimension
 13
289.154141
 23
319.200026
 33
0.0
 14
289.154141
 24
294.200026
 34
0.0
 50
270.0
100
AcDbRotatedDimension
  0
DIMENSION
  5
160
330
1F
100
AcDbEntity
  8
001
370
     9
100
AcDbDimension
  2
*D7
 10
125.154141
 20
260.100186
 30
0.0
 11
208.094847
 21
263.100186
 31
0.0
 70
   160
 71
     5
 42
-1.0
  3
Standard
100
AcDbAlignedDimension
 13
295.154141
 23
300.200026
 33
0.0
 14
125.154141
 24
293.200026
 34
0.0
 50
180.0
100
AcDbRotatedDimension
  0
DIMENSION
  5
161
330
1F
100
AcDbEntity
  8
001
370
     9
100
AcDbDimension
  2
*D8
 10
295.154141
 20
247.339063
 30
0.0
 11
197.202392
 21
250.339063
 31
0.0
 70
   160
 71
     5
 42
-1.0
  3
Standard
100
AcDbAlignedDimension
 13
95.154141
 23
281.106667
 33
0.0
 14
295.154141
 24
300.200026
 34
0.0
100
AcDbRotatedDimension
  0
TEXT
  5
162
330
1F
100
AcDbEntity
  8
001
370
    30
100
AcDbText
 10
67.699618
 20
113.694104
 30
0.0
 40
4.0
  1
%%c３０
 50
90.000003
 41
0.882353
100
AcDbText
  0
POLYLINE
  5
163
330
1F
100
AcDbEntity
  8
001
370
     9
100
AcDb2dPolyline
 66
     1
 10
0.0
 20
0.0
 30
0.0
  0
VERTEX
  5
165
330
163
100
AcDbEntity
  8
001
370
     9
100
AcDbVertex
100
AcDb2dVertex
 10
69.101542
 20
106.194104
 30
0.0
  0
VERTEX
  5
166
330
163
100
AcDbEntity
  8
001
370
     9
100
AcDbVertex
100
AcDb2dVertex
 10
68.699618
 20
104.694104
 30
0.0
  0
VERTEX
  5
167
330
163
100
AcDbEntity
  8
001
370
     9
100
AcDbVertex
100
AcDb2dVertex
 10
68.297694
 20
106.194104
 30
0.0
  0
SEQEND
  5
164
330
163
100
AcDbEntity
  8
001
370
     9
  0
LINE
  5
168
330
1F
100
AcDbEntity
  8
001
370
     9
100
AcDbLine
 10
68.699618
 20
134.694104
 30
0.0
 11
68.699618
 21
104.694104
 31
0.0
  0
POLYLINE
  5
169
330
1F
100
AcDbEntity
  8
001
370
     9
100
AcDb2dPolyline
 66
     1
 10
0.0
 20
0.0
 30
0.0
  0
VERTEX
  5
16B
330
169
100
AcDbEntity
  8
001
370
     9
100
AcDbVertex
100
AcDb2dVertex
 10
82.590052
 20
104.694104
 30
0.0
  0
VERTEX
  5
16C
330
169
100
AcDbEntity
  8
001
370
     9
100
AcDbVertex
100
AcDb2dVertex
 10
68.699618
 20
104.694104
 30
0.0
  0
VERTEX
  5
16D
330
169
100
AcDbEntity
  8
001
370
     9
100
AcDbVertex
100
AcDb2dVertex
 10
65.949618
 20
104.694104
 30
0.0
  0
SEQEND
  5
16A
330
169
100
AcDbEntity
  8
001
370
     9
  0
TEXT
  5
16E
330
1F
100
AcDbEntity
  8
001
370
    30
100
AcDbText
 10
70.202467
 20
300.810085
 30
0.0
 40
4.0
  1
%%c３０
 50
90.000003
 41
0.882353
100
AcDbText
  0
POLYLINE
  5
16F
330
1F
100
AcDbEntity
  8
001
370
     9
100
AcDb2dPolyline
 66
     1
 10
0.0
 20
0.0
 30
0.0
  0
VERTEX
  5
171
330
16F
100
AcDbEntity
  8
001
370
     9
100
AcDbVertex
100
AcDb2dVertex
 10
71.604391
 20
293.310085
 30
0.0
  0
VERTEX
  5
172
330
16F
100
AcDbEntity
  8
001
370
     9
100
AcDbVertex
100
AcDb2dVertex
 10
71.202467
 20
291.810085
 30
0.0
  0
VERTEX
  5
173
330
16F
100
AcDbEntity
  8
001
370
     9
100
AcDbVertex
100
AcDb2dVertex
 10
70.800544
 20
293.310085
 30
0.0
  0
SEQEND
  5
170
330
16F
100
AcDbEntity
  8
001
370
     9
  0
LINE
  5
174
330
1F
100
AcDbEntity
  8
001
370
     9
100
AcDbLine
 10
71.202467
 20
321.810085
 30
0.0
 11
71.202467
 21
291.810085
 31
0.0
  0
POLYLINE
  5
175
330
1F
100
AcDbEntity
  8
001
370
     9
100
AcDb2dPolyline
 66
     1
 10
0.0
 20
0.0
 30
0.0
  0
VERTEX
  5
177
330
175
100
AcDbEntity
  8
001
370
     9
100
AcDbVertex
100
AcDb2dVertex
 10
85.092902
 20
291.810085
 30
0.0
  0
VERTEX
  5
178
330
175
100
AcDbEntity
  8
001
370
     9
100
AcDbVertex
100
AcDb2dVertex
 10
71.202467
 20
291.810085
 30
0.0
  0
VERTEX
  5
179
330
175
100
AcDbEntity
  8
001
370
     9
100
AcDbVertex
100
AcDb2dVertex
 10
68.452467
 20
291.810085
 30
0.0
  0
SEQEND
  5
176
330
175
100
AcDbEntity
  8
001
370
     9
  0
DIMENSION
  5
17A
330
1F
100
AcDbEntity
  8
001
370
     9
100
AcDbDimension
  2
*D9
 10
95.154141
 20
104.694104
 30
0.0
 11
84.956573
 21
94.496536
 31
0.0
 70
    34
 71
     5
 42
-1.0
  3
Standard
100
AcDb2LineAngularDimension
 13
95.154141
 23
94.040687
 33
0.0
 14
95.154141
 24
104.694104
 34
0.0
 15
82.590052
 25
104.694104
 35
0.0
 16
82.835253
 26
92.375217
 36
0.0
  0
DIMENSION
  5
17B
330
1F
100
AcDbEntity
  8
001
370
     9
100
AcDbDimension
  2
*D10
 10
95.154141
 20
291.810085
 30
0.0
 11
85.293229
 21
281.949173
 31
0.0
 70
    34
 71
     5
 42
-1.0
  3
Standard
100
AcDb2LineAngularDimension
 13
95.154141
 23
281.156667
 33
0.0
 14
95.154141
 24
291.810085
 34
0.0
 15
85.092902
 25
291.810085
 35
0.0
 16
83.17191
 26
279.827854
 36
0.0
  0
DIMENSION
  5
17C
330
1F
100
AcDbEntity
  8
001
370
     9
100
AcDbDimension
  2
*D11
 10
95.154141
 20
82.273661
 30
0.0
 11
83.654141
 21
85.273661
 31
0.0
 70
   160
 71
     5
 42
-1.0
  3
Standard
100
AcDbAlignedDimension
 13
110.054141
 23
104.768757
 33
0.0
 14
95.154141
 24
94.040687
 34
0.0
 50
180.0
100
AcDbRotatedDimension
  0
DIMENSION
  5
17D
330
1F
100
AcDbEntity
  8
001
370
     9
100
AcDbDimension
  2
*D12
 10
95.154141
 20
269.389641
 30
0.0
 11
83.654141
 21
272.389641
 31
0.0
 70
   160
 71
     5
 42
-1.0
  3
Standard
100
AcDbAlignedDimension
 13
110.054141
 23
291.884737
 33
0.0
 14
95.154141
 24
281.156667
 34
0.0
 50
180.0
100
AcDbRotatedDimension
  0
TEXT
  5
17E
330
1F
100
AcDbEntity
  8
001
370
    30
100
AcDbText
 10
63.160986
 20
98.37355
 30
0.0
 40
4.0
  1
Ｒ３
 41
0.833333
100
AcDbText
  0
POLYLINE
  5
17F
330
1F
100
AcDbEntity
  8
001
370
     9
100
AcDb2dPolyline
 66
     1
 10
0.0
 20
0.0
 30
0.0
  0
VERTEX
  5
181
330
17F
100
AcDbEntity
  8
001
370
     9
100
AcDbVertex
100
AcDb2dVertex
 10
93.841399
 20
106.348015
 30
0.0
  0
VERTEX
  5
182
330
17F
100
AcDbEntity
  8
001
370
     9
100
AcDbVertex
100
AcDb2dVertex
 10
95.381248
 20
106.549027
 30
0.0
  0
VERTEX
  5
183
330
17F
100
AcDbEntity
  8
001
370
     9
100
AcDbVertex
100
AcDb2dVertex
 10
94.148206
 20
105.60502
 30
0.0
  0
SEQEND
  5
180
330
17F
100
AcDbEntity
  8
001
370
     9
  0
POLYLINE
  5
184
330
1F
100
AcDbEntity
  8
001
370
     9
100
AcDb2dPolyline
 66
     1
 10
0.0
 20
0.0
 30
0.0
  0
VERTEX
  5
186
330
184
100
AcDbEntity
  8
001
370
     9
100
AcDbVertex
100
AcDb2dVertex
 10
95.381248
 20
106.549027
 30
0.0
  0
VERTEX
  5
187
330
184
100
AcDbEntity
  8
001
370
     9
100
AcDbVertex
100
AcDb2dVertex
 10
73.160986
 20
97.37355
 30
0.0
  0
VERTEX
  5
188
330
184
100
AcDbEntity
  8
001
370
     9
100
AcDbVertex
100
AcDb2dVertex
 10
61.160986
 20
97.37355
 30
0.0
  0
SEQEND
  5
185
330
184
100
AcDbEntity
  8
001
370
     9
  0
TEXT
  5
189
330
1F
100
AcDbEntity
  8
001
370
    30
100
AcDbText
 10
61.986956
 20
285.811345
 30
0.0
 40
4.0
  1
Ｒ３
 41
0.833333
100
AcDbText
  0
POLYLINE
  5
18A
330
1F
100
AcDbEntity
  8
001
370
     9
100
AcDb2dPolyline
 66
     1
 10
0.0
 20
0.0
 30
0.0
  0
VERTEX
  5
18C
330
18A
100
AcDbEntity
  8
001
370
     9
100
AcDbVertex
100
AcDb2dVertex
 10
93.807102
 20
293.579255
 30
0.0
  0
VERTEX
  5
18D
330
18A
100
AcDbEntity
  8
001
370
     9
100
AcDbVertex
100
AcDb2dVertex
 10
95.351756
 20
293.739213
 30
0.0
  0
VERTEX
  5
18E
330
18A
100
AcDbEntity
  8
001
370
     9
100
AcDbVertex
100
AcDb2dVertex
 10
94.094025
 20
292.828358
 30
0.0
  0
SEQEND
  5
18B
330
18A
100
AcDbEntity
  8
001
370
     9
  0
POLYLINE
  5
18F
330
1F
100
AcDbEntity
  8
001
370
     9
100
AcDb2dPolyline
 66
     1
 10
0.0
 20
0.0
 30
0.0
  0
VERTEX
  5
191
330
18F
100
AcDbEntity
  8
001
370
     9
100
AcDbVertex
100
AcDb2dVertex
 10
95.351756
 20
293.739213
 30
0.0
  0
VERTEX
  5
192
330
18F
100
AcDbEntity
  8
001
370
     9
100
AcDbVertex
100
AcDb2dVertex
 10
71.986956
 20
284.811345
 30
0.0
  0
VERTEX
  5
193
330
18F
100
AcDbEntity
  8
001
370
     9
100
AcDbVertex
100
AcDb2dVertex
 10
59.986956
 20
284.811345
 30
0.0
  0
SEQEND
  5
190
330
18F
100
AcDbEntity
  8
001
370
     9
  0
TEXT
  5
194
330
1F
100
AcDbEntity
  8
001
370
    30
100
AcDbText
 10
373.806227
 20
83.451137
 30
0.0
 40
4.0
  1
%%c３０
 50
90.000003
 41
0.882353
100
AcDbText
  0
POLYLINE
  5
195
330
1F
100
AcDbEntity
  8
001
370
     9
100
AcDb2dPolyline
 66
     1
 10
0.0
 20
0.0
 30
0.0
  0
VERTEX
  5
197
330
195
100
AcDbEntity
  8
001
370
     9
100
AcDbVertex
100
AcDb2dVertex
 10
375.20815
 20
75.951137
 30
0.0
  0
VERTEX
  5
198
330
195
100
AcDbEntity
  8
001
370
     9
100
AcDbVertex
100
AcDb2dVertex
 10
374.806227
 20
74.451137
 30
0.0
  0
VERTEX
  5
199
330
195
100
AcDbEntity
  8
001
370
     9
100
AcDbVertex
100
AcDb2dVertex
 10
374.404303
 20
75.951137
 30
0.0
  0
SEQEND
  5
196
330
195
100
AcDbEntity
  8
001
370
     9
  0
LINE
  5
19A
330
1F
100
AcDbEntity
  8
001
370
     9
100
AcDbLine
 10
374.806227
 20
104.451137
 30
0.0
 11
374.806227
 21
74.451137
 31
0.0
  0
POLYLINE
  5
19B
330
1F
100
AcDbEntity
  8
001
370
     9
100
AcDb2dPolyline
 66
     1
 10
0.0
 20
0.0
 30
0.0
  0
VERTEX
  5
19D
330
19B
100
AcDbEntity
  8
001
370
     9
100
AcDbVertex
100
AcDb2dVertex
 10
388.696661
 20
74.451137
 30
0.0
  0
VERTEX
  5
19E
330
19B
100
AcDbEntity
  8
001
370
     9
100
AcDbVertex
100
AcDb2dVertex
 10
374.806227
 20
74.451137
 30
0.0
  0
VERTEX
  5
19F
330
19B
100
AcDbEntity
  8
001
370
     9
100
AcDbVertex
100
AcDb2dVertex
 10
372.056227
 20
74.451137
 30
0.0
  0
SEQEND
  5
19C
330
19B
100
AcDbEntity
  8
001
370
     9
  0
TEXT
  5
1A0
330
1F
100
AcDbEntity
  8
001
370
    30
100
AcDbText
 10
372.644476
 20
66.316164
 30
0.0
 40
4.0
  1
Ｒ３．５
 41
0.833333
100
AcDbText
  0
POLYLINE
  5
1A1
330
1F
100
AcDbEntity
  8
001
370
     9
100
AcDb2dPolyline
 66
     1
 10
0.0
 20
0.0
 30
0.0
  0
VERTEX
  5
1A3
330
1A1
100
AcDbEntity
  8
001
370
     9
100
AcDbVertex
100
AcDb2dVertex
 10
400.319432
 20
74.84425
 30
0.0
  0
VERTEX
  5
1A4
330
1A1
100
AcDbEntity
  8
001
370
     9
100
AcDbVertex
100
AcDb2dVertex
 10
401.69228
 20
75.570082
 30
0.0
  0
VERTEX
  5
1A5
330
1A1
100
AcDbEntity
  8
001
370
     9
100
AcDbVertex
100
AcDb2dVertex
 10
400.866275
 20
74.255069
 30
0.0
  0
SEQEND
  5
1A2
330
1A1
100
AcDbEntity
  8
001
370
     9
  0
POLYLINE
  5
1A6
330
1F
100
AcDbEntity
  8
001
370
     9
100
AcDb2dPolyline
 66
     1
 10
0.0
 20
0.0
 30
0.0
  0
VERTEX
  5
1A8
330
1A6
100
AcDbEntity
  8
001
370
     9
100
AcDbVertex
100
AcDb2dVertex
 10
401.69228
 20
75.570082
 30
0.0
  0
VERTEX
  5
1A9
330
1A6
100
AcDbEntity
  8
001
370
     9
100
AcDbVertex
100
AcDb2dVertex
 10
390.644476
 20
65.316164
 30
0.0
  0
VERTEX
  5
1AA
330
1A6
100
AcDbEntity
  8
001
370
     9
100
AcDbVertex
100
AcDb2dVertex
 10
370.644476
 20
65.316164
 30
0.0
  0
SEQEND
  5
1A7
330
1A6
100
AcDbEntity
  8
001
370
     9
  0
TEXT
  5
1AB
330
1F
100
AcDbEntity
  8
001
370
    30
100
AcDbText
 10
374.326737
 20
151.69896
 30
0.0
 40
4.0
  1
%%c３０
 50
90.000003
 41
0.882353
100
AcDbText
  0
POLYLINE
  5
1AC
330
1F
100
AcDbEntity
  8
001
370
     9
100
AcDb2dPolyline
 66
     1
 10
0.0
 20
0.0
 30
0.0
  0
VERTEX
  5
1AE
330
1AC
100
AcDbEntity
  8
001
370
     9
100
AcDbVertex
100
AcDb2dVertex
 10
375.728661
 20
144.19896
 30
0.0
  0
VERTEX
  5
1AF
330
1AC
100
AcDbEntity
  8
001
370
     9
100
AcDbVertex
100
AcDb2dVertex
 10
375.326737
 20
142.69896
 30
0.0
  0
VERTEX
  5
1B0
330
1AC
100
AcDbEntity
  8
001
370
     9
100
AcDbVertex
100
AcDb2dVertex
 10
374.924814
 20
144.19896
 30
0.0
  0
SEQEND
  5
1AD
330
1AC
100
AcDbEntity
  8
001
370
     9
  0
LINE
  5
1B1
330
1F
100
AcDbEntity
  8
001
370
     9
100
AcDbLine
 10
375.326737
 20
172.69896
 30
0.0
 11
375.326737
 21
142.69896
 31
0.0
  0
POLYLINE
  5
1B2
330
1F
100
AcDbEntity
  8
001
370
     9
100
AcDb2dPolyline
 66
     1
 10
0.0
 20
0.0
 30
0.0
  0
VERTEX
  5
1B4
330
1B2
100
AcDbEntity
  8
001
370
     9
100
AcDbVertex
100
AcDb2dVertex
 10
389.217172
 20
142.69896
 30
0.0
  0
VERTEX
  5
1B5
330
1B2
100
AcDbEntity
  8
001
370
     9
100
AcDbVertex
100
AcDb2dVertex
 10
375.326737
 20
142.69896
 30
0.0
  0
VERTEX
  5
1B6
330
1B2
100
AcDbEntity
  8
001
370
     9
100
AcDbVertex
100
AcDb2dVertex
 10
372.576737
 20
142.69896
 30
0.0
  0
SEQEND
  5
1B3
330
1B2
100
AcDbEntity
  8
001
370
     9
  0
TEXT
  5
1B7
330
1F
100
AcDbEntity
  8
001
370
    30
100
AcDbText
 10
374.897514
 20
217.573221
 30
0.0
 40
4.0
  1
%%c３０
 50
90.000003
 41
0.882353
100
AcDbText
  0
POLYLINE
  5
1B8
330
1F
100
AcDbEntity
  8
001
370
     9
100
AcDb2dPolyline
 66
     1
 10
0.0
 20
0.0
 30
0.0
  0
VERTEX
  5
1BA
330
1B8
100
AcDbEntity
  8
001
370
     9
100
AcDbVertex
100
AcDb2dVertex
 10
376.299437
 20
210.073221
 30
0.0
  0
VERTEX
  5
1BB
330
1B8
100
AcDbEntity
  8
001
370
     9
100
AcDbVertex
100
AcDb2dVertex
 10
375.897514
 20
208.573221
 30
0.0
  0
VERTEX
  5
1BC
330
1B8
100
AcDbEntity
  8
001
370
     9
100
AcDbVertex
100
AcDb2dVertex
 10
375.49559
 20
210.073221
 30
0.0
  0
SEQEND
  5
1B9
330
1B8
100
AcDbEntity
  8
001
370
     9
  0
LINE
  5
1BD
330
1F
100
AcDbEntity
  8
001
370
     9
100
AcDbLine
 10
375.897514
 20
238.573221
 30
0.0
 11
375.897514
 21
208.573221
 31
0.0
  0
POLYLINE
  5
1BE
330
1F
100
AcDbEntity
  8
001
370
     9
100
AcDb2dPolyline
 66
     1
 10
0.0
 20
0.0
 30
0.0
  0
VERTEX
  5
1C0
330
1BE
100
AcDbEntity
  8
001
370
     9
100
AcDbVertex
100
AcDb2dVertex
 10
389.787948
 20
208.573221
 30
0.0
  0
VERTEX
  5
1C1
330
1BE
100
AcDbEntity
  8
001
370
     9
100
AcDbVertex
100
AcDb2dVertex
 10
375.897514
 20
208.573221
 30
0.0
  0
VERTEX
  5
1C2
330
1BE
100
AcDbEntity
  8
001
370
     9
100
AcDbVertex
100
AcDb2dVertex
 10
373.147514
 20
208.573221
 30
0.0
  0
SEQEND
  5
1BF
330
1BE
100
AcDbEntity
  8
001
370
     9
  0
TEXT
  5
1C3
330
1F
100
AcDbEntity
  8
001
370
    30
100
AcDbText
 10
379.105912
 20
135.306385
 30
0.0
 40
4.0
  1
Ｒ４
 41
0.833333
100
AcDbText
  0
POLYLINE
  5
1C4
330
1F
100
AcDbEntity
  8
001
370
     9
100
AcDb2dPolyline
 66
     1
 10
0.0
 20
0.0
 30
0.0
  0
VERTEX
  5
1C6
330
1C4
100
AcDbEntity
  8
001
370
     9
100
AcDbVertex
100
AcDb2dVertex
 10
400.234499
 20
143.605946
 30
0.0
  0
VERTEX
  5
1C7
330
1C4
100
AcDbEntity
  8
001
370
     9
100
AcDbVertex
100
AcDb2dVertex
 10
401.660814
 20
144.220085
 30
0.0
  0
VERTEX
  5
1C8
330
1C4
100
AcDbEntity
  8
001
370
     9
100
AcDbVertex
100
AcDb2dVertex
 10
400.732658
 20
142.975067
 30
0.0
  0
SEQEND
  5
1C5
330
1C4
100
AcDbEntity
  8
001
370
     9
  0
POLYLINE
  5
1C9
330
1F
100
AcDbEntity
  8
001
370
     9
100
AcDb2dPolyline
 66
     1
 10
0.0
 20
0.0
 30
0.0
  0
VERTEX
  5
1CB
330
1C9
100
AcDbEntity
  8
001
370
     9
100
AcDbVertex
100
AcDb2dVertex
 10
401.660814
 20
144.220085
 30
0.0
  0
VERTEX
  5
1CC
330
1C9
100
AcDbEntity
  8
001
370
     9
100
AcDbVertex
100
AcDb2dVertex
 10
389.105912
 20
134.306385
 30
0.0
  0
VERTEX
  5
1CD
330
1C9
100
AcDbEntity
  8
001
370
     9
100
AcDbVertex
100
AcDb2dVertex
 10
377.105912
 20
134.306385
 30
0.0
  0
SEQEND
  5
1CA
330
1C9
100
AcDbEntity
  8
001
370
     9
  0
TEXT
  5
1CE
330
1F
100
AcDbEntity
  8
001
370
    30
100
AcDbText
 10
374.959551
 20
199.473203
 30
0.0
 40
4.0
  1
Ｒ４．５
 41
0.833333
100
AcDbText
  0
POLYLINE
  5
1CF
330
1F
100
AcDbEntity
  8
001
370
     9
100
AcDb2dPolyline
 66
     1
 10
0.0
 20
0.0
 30
0.0
  0
VERTEX
  5
1D1
330
1CF
100
AcDbEntity
  8
001
370
     9
100
AcDbVertex
100
AcDb2dVertex
 10
401.155094
 20
208.757319
 30
0.0
  0
VERTEX
  5
1D2
330
1CF
100
AcDbEntity
  8
001
370
     9
100
AcDbVertex
100
AcDb2dVertex
 10
402.431863
 20
209.641289
 30
0.0
  0
VERTEX
  5
1D3
330
1CF
100
AcDbEntity
  8
001
370
     9
100
AcDbVertex
100
AcDb2dVertex
 10
401.768134
 20
208.237364
 30
0.0
  0
SEQEND
  5
1D0
330
1CF
100
AcDbEntity
  8
001
370
     9
  0
POLYLINE
  5
1D4
330
1F
100
AcDbEntity
  8
001
370
     9
100
AcDb2dPolyline
 66
     1
 10
0.0
 20
0.0
 30
0.0
  0
VERTEX
  5
1D6
330
1D4
100
AcDbEntity
  8
001
370
     9
100
AcDbVertex
100
AcDb2dVertex
 10
402.431863
 20
209.641289
 30
0.0
  0
VERTEX
  5
1D7
330
1D4
100
AcDbEntity
  8
001
370
     9
100
AcDbVertex
100
AcDb2dVertex
 10
392.959551
 20
198.473203
 30
0.0
  0
VERTEX
  5
1D8
330
1D4
100
AcDbEntity
  8
001
370
     9
100
AcDbVertex
100
AcDb2dVertex
 10
372.959551
 20
198.473203
 30
0.0
  0
SEQEND
  5
1D5
330
1D4
100
AcDbEntity
  8
001
370
     9
  0
TEXT
  5
1D9
330
1F
100
AcDbEntity
  8
001
370
    30
100
AcDbText
 10
375.443157
 20
278.699961
 30
0.0
 40
4.0
  1
%%c３０
 50
90.000003
 41
0.882353
100
AcDbText
  0
POLYLINE
  5
1DA
330
1F
100
AcDbEntity
  8
001
370
     9
100
AcDb2dPolyline
 66
     1
 10
0.0
 20
0.0
 30
0.0
  0
VERTEX
  5
1DC
330
1DA
100
AcDbEntity
  8
001
370
     9
100
AcDbVertex
100
AcDb2dVertex
 10
376.845081
 20
271.199961
 30
0.0
  0
VERTEX
  5
1DD
330
1DA
100
AcDbEntity
  8
001
370
     9
100
AcDbVertex
100
AcDb2dVertex
 10
376.443157
 20
269.699961
 30
0.0
  0
VERTEX
  5
1DE
330
1DA
100
AcDbEntity
  8
001
370
     9
100
AcDbVertex
100
AcDb2dVertex
 10
376.041233
 20
271.199961
 30
0.0
  0
SEQEND
  5
1DB
330
1DA
100
AcDbEntity
  8
001
370
     9
  0
LINE
  5
1DF
330
1F
100
AcDbEntity
  8
001
370
     9
100
AcDbLine
 10
376.443157
 20
299.699961
 30
0.0
 11
376.443157
 21
269.699961
 31
0.0
  0
POLYLINE
  5
1E0
330
1F
100
AcDbEntity
  8
001
370
     9
100
AcDb2dPolyline
 66
     1
 10
0.0
 20
0.0
 30
0.0
  0
VERTEX
  5
1E2
330
1E0
100
AcDbEntity
  8
001
370
     9
100
AcDbVertex
100
AcDb2dVertex
 10
390.333591
 20
269.699961
 30
0.0
  0
VERTEX
  5
1E3
330
1E0
100
AcDbEntity
  8
001
370
     9
100
AcDbVertex
100
AcDb2dVertex
 10
376.443157
 20
269.699961
 30
0.0
  0
VERTEX
  5
1E4
330
1E0
100
AcDbEntity
  8
001
370
     9
100
AcDbVertex
100
AcDb2dVertex
 10
373.693157
 20
269.699961
 30
0.0
  0
SEQEND
  5
1E1
330
1E0
100
AcDbEntity
  8
001
370
     9
  0
TEXT
  5
1E5
330
1F
100
AcDbEntity
  8
001
370
    30
100
AcDbText
 10
377.681415
 20
255.809339
 30
0.0
 40
4.0
  1
Ｒ５
 41
0.833333
100
AcDbText
  0
POLYLINE
  5
1E6
330
1F
100
AcDbEntity
  8
001
370
     9
100
AcDb2dPolyline
 66
     1
 10
0.0
 20
0.0
 30
0.0
  0
VERTEX
  5
1E8
330
1E6
100
AcDbEntity
  8
001
370
     9
100
AcDbVertex
100
AcDb2dVertex
 10
401.200244
 20
270.176198
 30
0.0
  0
VERTEX
  5
1E9
330
1E6
100
AcDbEntity
  8
001
370
     9
100
AcDbVertex
100
AcDb2dVertex
 10
402.509442
 20
271.011388
 30
0.0
  0
VERTEX
  5
1EA
330
1E6
100
AcDbEntity
  8
001
370
     9
100
AcDbVertex
100
AcDb2dVertex
 10
401.793238
 20
269.633493
 30
0.0
  0
SEQEND
  5
1E7
330
1E6
100
AcDbEntity
  8
001
370
     9
  0
POLYLINE
  5
1EB
330
1F
100
AcDbEntity
  8
001
370
     9
100
AcDb2dPolyline
 66
     1
 10
0.0
 20
0.0
 30
0.0
  0
VERTEX
  5
1ED
330
1EB
100
AcDbEntity
  8
001
370
     9
100
AcDbVertex
100
AcDb2dVertex
 10
402.509442
 20
271.011388
 30
0.0
  0
VERTEX
  5
1EE
330
1EB
100
AcDbEntity
  8
001
370
     9
100
AcDbVertex
100
AcDb2dVertex
 10
387.681415
 20
254.809339
 30
0.0
  0
VERTEX
  5
1EF
330
1EB
100
AcDbEntity
  8
001
370
     9
100
AcDbVertex
100
AcDb2dVertex
 10
375.681415
 20
254.809339
 30
0.0
  0
SEQEND
  5
1EC
330
1EB
100
AcDbEntity
  8
001
370
     9
  0
POLYLINE
  5
1F0
330
1F
100
AcDbEntity
  8
001
370
    50
100
AcDb2dPolyline
 66
     1
 10
0.0
 20
0.0
 30
0.0
  0
VERTEX
  5
1F2
330
1F0
100
AcDbEntity
  8
001
370
    50
100
AcDbVertex
100
AcDb2dVertex
 10
120.26055
 20
105.084287
 30
0.0
  0
VERTEX
  5
1F3
330
1F0
100
AcDbEntity
  8
001
370
    50
100
AcDbVertex
100
AcDb2dVertex
 10
120.263549
 20
105.0842
 30
0.0
  0
VERTEX
  5
1F4
330
1F0
100
AcDbEntity
  8
001
370
    50
100
AcDbVertex
100
AcDb2dVertex
 10
120.267933
 20
105.084106
 30
0.0
  0
VERTEX
  5
1F5
330
1F0
100
AcDbEntity
  8
001
370
    50
100
AcDbVertex
100
AcDb2dVertex
 10
120.272316
 20
105.084057
 30
0.0
  0
VERTEX
  5
1F6
330
1F0
100
AcDbEntity
  8
001
370
    50
100
AcDbVertex
100
AcDb2dVertex
 10
120.275316
 20
105.084045
 30
0.0
  0
SEQEND
  5
1F1
330
1F0
100
AcDbEntity
  8
001
370
    50
  0
POLYLINE
  5
1F7
330
1F
100
AcDbEntity
  8
001
370
    50
100
AcDb2dPolyline
 66
     1
 10
0.0
 20
0.0
 30
0.0
  0
VERTEX
  5
1F9
330
1F7
100
AcDbEntity
  8
001
370
    50
100
AcDbVertex
100
AcDb2dVertex
 10
120.275316
 20
134.084045
 30
0.0
  0
VERTEX
  5
1FA
330
1F7
100
AcDbEntity
  8
001
370
    50
100
AcDbVertex
100
AcDb2dVertex
 10
120.272316
 20
134.084034
 30
0.0
  0
VERTEX
  5
1FB
330
1F7
100
AcDbEntity
  8
001
370
    50
100
AcDbVertex
100
AcDb2dVertex
 10
120.267933
 20
134.083985
 30
0.0
  0
VERTEX
  5
1FC
330
1F7
100
AcDbEntity
  8
001
370
    50
100
AcDbVertex
100
AcDb2dVertex
 10
120.263549
 20
134.08389
 30
0.0
  0
VERTEX
  5
1FD
330
1F7
100
AcDbEntity
  8
001
370
    50
100
AcDbVertex
100
AcDb2dVertex
 10
120.26055
 20
134.083803
 30
0.0
  0
SEQEND
  5
1F8
330
1F7
100
AcDbEntity
  8
001
370
    50
  0
LINE
  5
1FE
330
1F
100
AcDbEntity
  8
001
370
    50
100
AcDbLine
 10
124.154141
 20
134.084045
 30
0.0
 11
120.275316
 21
134.084045
 31
0.0
  0
LINE
  5
1FF
330
1F
100
AcDbEntity
  8
001
370
    50
100
AcDbLine
 10
120.275316
 20
105.084045
 30
0.0
 11
124.154141
 21
105.084045
 31
0.0
  0
POLYLINE
  5
200
330
1F
100
AcDbEntity
  8
001
370
    50
100
AcDb2dPolyline
 66
     1
 10
0.0
 20
0.0
 30
0.0
  0
VERTEX
  5
202
330
200
100
AcDbEntity
  8
001
370
    50
100
AcDbVertex
100
AcDb2dVertex
 10
114.335571
 20
105.234775
 30
0.0
  0
VERTEX
  5
203
330
200
100
AcDbEntity
  8
001
370
    50
100
AcDbVertex
100
AcDb2dVertex
 10
114.833761
 20
105.247852
 30
0.0
  0
VERTEX
  5
204
330
200
100
AcDbEntity
  8
001
370
    50
100
AcDbVertex
100
AcDb2dVertex
 10
115.561862
 20
105.267865
 30
0.0
  0
VERTEX
  5
205
330
200
100
AcDbEntity
  8
001
370
    50
100
AcDbVertex
100
AcDb2dVertex
 10
116.288219
 20
105.289082
 30
0.0
  0
VERTEX
  5
206
330
200
100
AcDbEntity
  8
001
370
    50
100
AcDbVertex
100
AcDb2dVertex
 10
116.785182
 20
105.304213
 30
0.0
  0
SEQEND
  5
201
330
200
100
AcDbEntity
  8
001
370
    50
  0
POLYLINE
  5
207
330
1F
100
AcDbEntity
  8
001
370
    50
100
AcDb2dPolyline
 66
     1
 10
0.0
 20
0.0
 30
0.0
  0
VERTEX
  5
209
330
207
100
AcDbEntity
  8
001
370
    50
100
AcDbVertex
100
AcDb2dVertex
 10
116.785182
 20
105.304213
 30
0.0
  0
VERTEX
  5
20A
330
207
100
AcDbEntity
  8
001
370
    50
100
AcDbVertex
100
AcDb2dVertex
 10
117.033569
 20
105.309341
 30
0.0
  0
VERTEX
  5
20B
330
207
100
AcDbEntity
  8
001
370
    50
100
AcDbVertex
100
AcDb2dVertex
 10
117.281975
 20
105.312189
 30
0.0
  0
VERTEX
  5
20C
330
207
100
AcDbEntity
  8
001
370
    50
100
AcDbVertex
100
AcDb2dVertex
 10
117.530733
 20
105.310939
 30
0.0
  0
VERTEX
  5
20D
330
207
100
AcDbEntity
  8
001
370
    50
100
AcDbVertex
100
AcDb2dVertex
 10
117.779451
 20
105.305626
 30
0.0
  0
VERTEX
  5
20E
330
207
100
AcDbEntity
  8
001
370
    50
100
AcDbVertex
100
AcDb2dVertex
 10
118.021423
 20
105.296964
 30
0.0
  0
VERTEX
  5
20F
330
207
100
AcDbEntity
  8
001
370
    50
100
AcDbVertex
100
AcDb2dVertex
 10
118.263247
 20
105.284966
 30
0.0
  0
VERTEX
  5
210
330
207
100
AcDbEntity
  8
001
370
    50
100
AcDbVertex
100
AcDb2dVertex
 10
118.49189
 20
105.270568
 30
0.0
  0
VERTEX
  5
211
330
207
100
AcDbEntity
  8
001
370
    50
100
AcDbVertex
100
AcDb2dVertex
 10
118.720329
 20
105.253229
 30
0.0
  0
VERTEX
  5
212
330
207
100
AcDbEntity
  8
001
370
    50
100
AcDbVertex
100
AcDb2dVertex
 10
118.930457
 20
105.234713
 30
0.0
  0
VERTEX
  5
213
330
207
100
AcDbEntity
  8
001
370
    50
100
AcDbVertex
100
AcDb2dVertex
 10
119.140372
 20
105.213932
 30
0.0
  0
VERTEX
  5
214
330
207
100
AcDbEntity
  8
001
370
    50
100
AcDbVertex
100
AcDb2dVertex
 10
119.325056
 20
105.19392
 30
0.0
  0
VERTEX
  5
215
330
207
100
AcDbEntity
  8
001
370
    50
100
AcDbVertex
100
AcDb2dVertex
 10
119.509576
 20
105.172445
 30
0.0
  0
VERTEX
  5
216
330
207
100
AcDbEntity
  8
001
370
    50
100
AcDbVertex
100
AcDb2dVertex
 10
119.665161
 20
105.15334
 30
0.0
  0
VERTEX
  5
217
330
207
100
AcDbEntity
  8
001
370
    50
100
AcDbVertex
100
AcDb2dVertex
 10
119.820677
 20
105.133724
 30
0.0
  0
VERTEX
  5
218
330
207
100
AcDbEntity
  8
001
370
    50
100
AcDbVertex
100
AcDb2dVertex
 10
119.94066
 20
105.118522
 30
0.0
  0
VERTEX
  5
219
330
207
100
AcDbEntity
  8
001
370
    50
100
AcDbVertex
100
AcDb2dVertex
 10
120.060681
 20
105.10352
 30
0.0
  0
VERTEX
  5
21A
330
207
100
AcDbEntity
  8
001
370
    50
100
AcDbVertex
100
AcDb2dVertex
 10
120.120273
 20
105.096374
 30
0.0
  0
VERTEX
  5
21B
330
207
100
AcDbEntity
  8
001
370
    50
100
AcDbVertex
100
AcDb2dVertex
 10
120.179964
 20
105.090253
 30
0.0
  0
VERTEX
  5
21C
330
207
100
AcDbEntity
  8
001
370
    50
100
AcDbVertex
100
AcDb2dVertex
 10
120.220237
 20
105.08705
 30
0.0
  0
VERTEX
  5
21D
330
207
100
AcDbEntity
  8
001
370
    50
100
AcDbVertex
100
AcDb2dVertex
 10
120.26055
 20
105.084287
 30
0.0
  0
SEQEND
  5
208
330
207
100
AcDbEntity
  8
001
370
    50
  0
POLYLINE
  5
21E
330
1F
100
AcDbEntity
  8
001
370
    50
100
AcDb2dPolyline
 66
     1
 10
0.0
 20
0.0
 30
0.0
  0
VERTEX
  5
220
330
21E
100
AcDbEntity
  8
001
370
    50
100
AcDbVertex
100
AcDb2dVertex
 10
120.275316
 20
105.084045
 30
0.0
  0
VERTEX
  5
221
330
21E
100
AcDbEntity
  8
001
370
    50
100
AcDbVertex
100
AcDb2dVertex
 10
120.504401
 20
105.173634
 30
0.0
  0
VERTEX
  5
222
330
21E
100
AcDbEntity
  8
001
370
    50
100
AcDbVertex
100
AcDb2dVertex
 10
120.789389
 20
105.380168
 30
0.0
  0
VERTEX
  5
223
330
21E
100
AcDbEntity
  8
001
370
    50
100
AcDbVertex
100
AcDb2dVertex
 10
121.108029
 20
105.803956
 30
0.0
  0
VERTEX
  5
224
330
21E
100
AcDbEntity
  8
001
370
    50
100
AcDbVertex
100
AcDb2dVertex
 10
121.282465
 20
106.256442
 30
0.0
  0
VERTEX
  5
225
330
21E
100
AcDbEntity
  8
001
370
    50
100
AcDbVertex
100
AcDb2dVertex
 10
121.511875
 20
106.93294
 30
0.0
  0
VERTEX
  5
226
330
21E
100
AcDbEntity
  8
001
370
    50
100
AcDbVertex
100
AcDb2dVertex
 10
121.734405
 20
107.677076
 30
0.0
  0
VERTEX
  5
227
330
21E
100
AcDbEntity
  8
001
370
    50
100
AcDbVertex
100
AcDb2dVertex
 10
121.979734
 20
108.774403
 30
0.0
  0
VERTEX
  5
228
330
21E
100
AcDbEntity
  8
001
370
    50
100
AcDbVertex
100
AcDb2dVertex
 10
122.126749
 20
109.584045
 30
0.0
  0
SEQEND
  5
21F
330
21E
100
AcDbEntity
  8
001
370
    50
  0
POLYLINE
  5
229
330
1F
100
AcDbEntity
  8
001
370
    50
100
AcDb2dPolyline
 66
     1
 10
0.0
 20
0.0
 30
0.0
  0
VERTEX
  5
22B
330
229
100
AcDbEntity
  8
001
370
    50
100
AcDbVertex
100
AcDb2dVertex
 10
114.684206
 20
117.584045
 30
0.0
  0
VERTEX
  5
22C
330
229
100
AcDbEntity
  8
001
370
    50
100
AcDbVertex
100
AcDb2dVertex
 10
115.015528
 20
117.574749
 30
0.0
  0
VERTEX
  5
22D
330
229
100
AcDbEntity
  8
001
370
    50
100
AcDbVertex
100
AcDb2dVertex
 10
115.346303
 20
117.556979
 30
0.0
  0
VERTEX
  5
22E
330
229
100
AcDbEntity
  8
001
370
    50
100
AcDbVertex
100
AcDb2dVertex
 10
115.677071
 20
117.523941
 30
0.0
  0
VERTEX
  5
22F
330
229
100
AcDbEntity
  8
001
370
    50
100
AcDbVertex
100
AcDb2dVertex
 10
116.00621
 20
117.476251
 30
0.0
  0
VERTEX
  5
230
330
229
100
AcDbEntity
  8
001
370
    50
100
AcDbVertex
100
AcDb2dVertex
 10
116.333032
 20
117.41584
 30
0.0
  0
VERTEX
  5
231
330
229
100
AcDbEntity
  8
001
370
    50
100
AcDbVertex
100
AcDb2dVertex
 10
116.657141
 20
117.342563
 30
0.0
  0
VERTEX
  5
232
330
229
100
AcDbEntity
  8
001
370
    50
100
AcDbVertex
100
AcDb2dVertex
 10
116.976671
 20
117.256272
 30
0.0
  0
VERTEX
  5
233
330
229
100
AcDbEntity
  8
001
370
    50
100
AcDbVertex
100
AcDb2dVertex
 10
117.292311
 20
117.156619
 30
0.0
  0
VERTEX
  5
234
330
229
100
AcDbEntity
  8
001
370
    50
100
AcDbVertex
100
AcDb2dVertex
 10
117.603984
 20
117.043462
 30
0.0
  0
VERTEX
  5
235
330
229
100
AcDbEntity
  8
001
370
    50
100
AcDbVertex
100
AcDb2dVertex
 10
117.910587
 20
116.917219
 30
0.0
  0
VERTEX
  5
236
330
229
100
AcDbEntity
  8
001
370
    50
100
AcDbVertex
100
AcDb2dVertex
 10
118.212286
 20
116.77784
 30
0.0
  0
VERTEX
  5
237
330
229
100
AcDbEntity
  8
001
370
    50
100
AcDbVertex
100
AcDb2dVertex
 10
118.507837
 20
116.625856
 30
0.0
  0
VERTEX
  5
238
330
229
100
AcDbEntity
  8
001
370
    50
100
AcDbVertex
100
AcDb2dVertex
 10
118.795816
 20
116.462014
 30
0.0
  0
VERTEX
  5
239
330
229
100
AcDbEntity
  8
001
370
    50
100
AcDbVertex
100
AcDb2dVertex
 10
119.076527
 20
116.286004
 30
0.0
  0
VERTEX
  5
23A
330
229
100
AcDbEntity
  8
001
370
    50
100
AcDbVertex
100
AcDb2dVertex
 10
119.347122
 20
116.099504
 30
0.0
  0
VERTEX
  5
23B
330
229
100
AcDbEntity
  8
001
370
    50
100
AcDbVertex
100
AcDb2dVertex
 10
119.609123
 20
115.901135
 30
0.0
  0
VERTEX
  5
23C
330
229
100
AcDbEntity
  8
001
370
    50
100
AcDbVertex
100
AcDb2dVertex
 10
119.847004
 20
115.703814
 30
0.0
  0
VERTEX
  5
23D
330
229
100
AcDbEntity
  8
001
370
    50
100
AcDbVertex
100
AcDb2dVertex
 10
120.076206
 20
115.496471
 30
0.0
  0
VERTEX
  5
23E
330
229
100
AcDbEntity
  8
001
370
    50
100
AcDbVertex
100
AcDb2dVertex
 10
120.295619
 20
115.280362
 30
0.0
  0
VERTEX
  5
23F
330
229
100
AcDbEntity
  8
001
370
    50
100
AcDbVertex
100
AcDb2dVertex
 10
120.505699
 20
115.055172
 30
0.0
  0
VERTEX
  5
240
330
229
100
AcDbEntity
  8
001
370
    50
100
AcDbVertex
100
AcDb2dVertex
 10
120.703926
 20
114.823839
 30
0.0
  0
VERTEX
  5
241
330
229
100
AcDbEntity
  8
001
370
    50
100
AcDbVertex
100
AcDb2dVertex
 10
120.892088
 20
114.584251
 30
0.0
  0
VERTEX
  5
242
330
229
100
AcDbEntity
  8
001
370
    50
100
AcDbVertex
100
AcDb2dVertex
 10
121.066454
 20
114.341236
 30
0.0
  0
VERTEX
  5
243
330
229
100
AcDbEntity
  8
001
370
    50
100
AcDbVertex
100
AcDb2dVertex
 10
121.229859
 20
114.090721
 30
0.0
  0
VERTEX
  5
244
330
229
100
AcDbEntity
  8
001
370
    50
100
AcDbVertex
100
AcDb2dVertex
 10
121.406945
 20
113.787373
 30
0.0
  0
VERTEX
  5
245
330
229
100
AcDbEntity
  8
001
370
    50
100
AcDbVertex
100
AcDb2dVertex
 10
121.56774
 20
113.47505
 30
0.0
  0
VERTEX
  5
246
330
229
100
AcDbEntity
  8
001
370
    50
100
AcDbVertex
100
AcDb2dVertex
 10
121.708989
 20
113.161947
 30
0.0
  0
VERTEX
  5
247
330
229
100
AcDbEntity
  8
001
370
    50
100
AcDbVertex
100
AcDb2dVertex
 10
121.833995
 20
112.842022
 30
0.0
  0
VERTEX
  5
248
330
229
100
AcDbEntity
  8
001
370
    50
100
AcDbVertex
100
AcDb2dVertex
 10
121.938923
 20
112.526862
 30
0.0
  0
VERTEX
  5
249
330
229
100
AcDbEntity
  8
001
370
    50
100
AcDbVertex
100
AcDb2dVertex
 10
122.027462
 20
112.206733
 30
0.0
  0
VERTEX
  5
24A
330
229
100
AcDbEntity
  8
001
370
    50
100
AcDbVertex
100
AcDb2dVertex
 10
122.096275
 20
111.896513
 30
0.0
  0
VERTEX
  5
24B
330
229
100
AcDbEntity
  8
001
370
    50
100
AcDbVertex
100
AcDb2dVertex
 10
122.149573
 20
111.583241
 30
0.0
  0
VERTEX
  5
24C
330
229
100
AcDbEntity
  8
001
370
    50
100
AcDbVertex
100
AcDb2dVertex
 10
122.186428
 20
111.278478
 30
0.0
  0
VERTEX
  5
24D
330
229
100
AcDbEntity
  8
001
370
    50
100
AcDbVertex
100
AcDb2dVertex
 10
122.20874
 20
110.97233
 30
0.0
  0
VERTEX
  5
24E
330
229
100
AcDbEntity
  8
001
370
    50
100
AcDbVertex
100
AcDb2dVertex
 10
122.216366
 20
110.677846
 30
0.0
  0
VERTEX
  5
24F
330
229
100
AcDbEntity
  8
001
370
    50
100
AcDbVertex
100
AcDb2dVertex
 10
122.210764
 20
110.383292
 30
0.0
  0
VERTEX
  5
250
330
229
100
AcDbEntity
  8
001
370
    50
100
AcDbVertex
100
AcDb2dVertex
 10
122.199158
 20
110.179596
 30
0.0
  0
VERTEX
  5
251
330
229
100
AcDbEntity
  8
001
370
    50
100
AcDbVertex
100
AcDb2dVertex
 10
122.180484
 20
109.976493
 30
0.0
  0
VERTEX
  5
252
330
229
100
AcDbEntity
  8
001
370
    50
100
AcDbVertex
100
AcDb2dVertex
 10
122.155495
 20
109.780046
 30
0.0
  0
VERTEX
  5
253
330
229
100
AcDbEntity
  8
001
370
    50
100
AcDbVertex
100
AcDb2dVertex
 10
122.126749
 20
109.584045
 30
0.0
  0
SEQEND
  5
22A
330
229
100
AcDbEntity
  8
001
370
    50
  0
LINE
  5
254
330
1F
100
AcDbEntity
  8
001
370
    50
100
AcDbLine
 10
114.335571
 20
133.933316
 30
0.0
 11
114.335571
 21
117.584045
 31
0.0
  0
POLYLINE
  5
255
330
1F
100
AcDbEntity
  8
001
370
    50
100
AcDb2dPolyline
 66
     1
 10
0.0
 20
0.0
 30
0.0
  0
VERTEX
  5
257
330
255
100
AcDbEntity
  8
001
370
    50
100
AcDbVertex
100
AcDb2dVertex
 10
116.785182
 20
133.863877
 30
0.0
  0
VERTEX
  5
258
330
255
100
AcDbEntity
  8
001
370
    50
100
AcDbVertex
100
AcDb2dVertex
 10
116.288219
 20
133.879009
 30
0.0
  0
VERTEX
  5
259
330
255
100
AcDbEntity
  8
001
370
    50
100
AcDbVertex
100
AcDb2dVertex
 10
115.561862
 20
133.900226
 30
0.0
  0
VERTEX
  5
25A
330
255
100
AcDbEntity
  8
001
370
    50
100
AcDbVertex
100
AcDb2dVertex
 10
114.833761
 20
133.920238
 30
0.0
  0
VERTEX
  5
25B
330
255
100
AcDbEntity
  8
001
370
    50
100
AcDbVertex
100
AcDb2dVertex
 10
114.335571
 20
133.933316
 30
0.0
  0
SEQEND
  5
256
330
255
100
AcDbEntity
  8
001
370
    50
  0
POLYLINE
  5
25C
330
1F
100
AcDbEntity
  8
001
370
    50
100
AcDb2dPolyline
 66
     1
 10
0.0
 20
0.0
 30
0.0
  0
VERTEX
  5
25E
330
25C
100
AcDbEntity
  8
001
370
    50
100
AcDbVertex
100
AcDb2dVertex
 10
116.785182
 20
133.863877
 30
0.0
  0
VERTEX
  5
25F
330
25C
100
AcDbEntity
  8
001
370
    50
100
AcDbVertex
100
AcDb2dVertex
 10
117.033569
 20
133.85875
 30
0.0
  0
VERTEX
  5
260
330
25C
100
AcDbEntity
  8
001
370
    50
100
AcDbVertex
100
AcDb2dVertex
 10
117.281975
 20
133.855901
 30
0.0
  0
VERTEX
  5
261
330
25C
100
AcDbEntity
  8
001
370
    50
100
AcDbVertex
100
AcDb2dVertex
 10
117.530733
 20
133.857151
 30
0.0
  0
VERTEX
  5
262
330
25C
100
AcDbEntity
  8
001
370
    50
100
AcDbVertex
100
AcDb2dVertex
 10
117.779451
 20
133.862464
 30
0.0
  0
VERTEX
  5
263
330
25C
100
AcDbEntity
  8
001
370
    50
100
AcDbVertex
100
AcDb2dVertex
 10
118.021423
 20
133.871126
 30
0.0
  0
VERTEX
  5
264
330
25C
100
AcDbEntity
  8
001
370
    50
100
AcDbVertex
100
AcDb2dVertex
 10
118.263247
 20
133.883125
 30
0.0
  0
VERTEX
  5
265
330
25C
100
AcDbEntity
  8
001
370
    50
100
AcDbVertex
100
AcDb2dVertex
 10
118.49189
 20
133.897523
 30
0.0
  0
VERTEX
  5
266
330
25C
100
AcDbEntity
  8
001
370
    50
100
AcDbVertex
100
AcDb2dVertex
 10
118.720329
 20
133.914861
 30
0.0
  0
VERTEX
  5
267
330
25C
100
AcDbEntity
  8
001
370
    50
100
AcDbVertex
100
AcDb2dVertex
 10
118.930457
 20
133.933377
 30
0.0
  0
VERTEX
  5
268
330
25C
100
AcDbEntity
  8
001
370
    50
100
AcDbVertex
100
AcDb2dVertex
 10
119.140372
 20
133.954159
 30
0.0
  0
VERTEX
  5
269
330
25C
100
AcDbEntity
  8
001
370
    50
100
AcDbVertex
100
AcDb2dVertex
 10
119.325056
 20
133.97417
 30
0.0
  0
VERTEX
  5
26A
330
25C
100
AcDbEntity
  8
001
370
    50
100
AcDbVertex
100
AcDb2dVertex
 10
119.509576
 20
133.995646
 30
0.0
  0
VERTEX
  5
26B
330
25C
100
AcDbEntity
  8
001
370
    50
100
AcDbVertex
100
AcDb2dVertex
 10
119.665161
 20
134.01475
 30
0.0
  0
VERTEX
  5
26C
330
25C
100
AcDbEntity
  8
001
370
    50
100
AcDbVertex
100
AcDb2dVertex
 10
119.820677
 20
134.034367
 30
0.0
  0
VERTEX
  5
26D
330
25C
100
AcDbEntity
  8
001
370
    50
100
AcDbVertex
100
AcDb2dVertex
 10
119.94066
 20
134.049569
 30
0.0
  0
VERTEX
  5
26E
330
25C
100
AcDbEntity
  8
001
370
    50
100
AcDbVertex
100
AcDb2dVertex
 10
120.060681
 20
134.064571
 30
0.0
  0
VERTEX
  5
26F
330
25C
100
AcDbEntity
  8
001
370
    50
100
AcDbVertex
100
AcDb2dVertex
 10
120.120273
 20
134.071717
 30
0.0
  0
VERTEX
  5
270
330
25C
100
AcDbEntity
  8
001
370
    50
100
AcDbVertex
100
AcDb2dVertex
 10
120.179964
 20
134.077837
 30
0.0
  0
VERTEX
  5
271
330
25C
100
AcDbEntity
  8
001
370
    50
100
AcDbVertex
100
AcDb2dVertex
 10
120.220237
 20
134.081041
 30
0.0
  0
VERTEX
  5
272
330
25C
100
AcDbEntity
  8
001
370
    50
100
AcDbVertex
100
AcDb2dVertex
 10
120.26055
 20
134.083803
 30
0.0
  0
SEQEND
  5
25D
330
25C
100
AcDbEntity
  8
001
370
    50
  0
POLYLINE
  5
273
330
1F
100
AcDbEntity
  8
001
370
    50
100
AcDb2dPolyline
 66
     1
 10
0.0
 20
0.0
 30
0.0
  0
VERTEX
  5
275
330
273
100
AcDbEntity
  8
001
370
    50
100
AcDbVertex
100
AcDb2dVertex
 10
110.751814
 20
133.904118
 30
0.0
  0
VERTEX
  5
276
330
273
100
AcDbEntity
  8
001
370
    50
100
AcDbVertex
100
AcDb2dVertex
 10
110.485823
 20
133.822523
 30
0.0
  0
VERTEX
  5
277
330
273
100
AcDbEntity
  8
001
370
    50
100
AcDbVertex
100
AcDb2dVertex
 10
110.110623
 20
133.669605
 30
0.0
  0
VERTEX
  5
278
330
273
100
AcDbEntity
  8
001
370
    50
100
AcDbVertex
100
AcDb2dVertex
 10
109.738016
 20
133.460922
 30
0.0
  0
VERTEX
  5
279
330
273
100
AcDbEntity
  8
001
370
    50
100
AcDbVertex
100
AcDb2dVertex
 10
109.495345
 20
133.296048
 30
0.0
  0
SEQEND
  5
274
330
273
100
AcDbEntity
  8
001
370
    50
  0
POLYLINE
  5
27A
330
1F
100
AcDbEntity
  8
001
370
    50
100
AcDb2dPolyline
 66
     1
 10
0.0
 20
0.0
 30
0.0
  0
VERTEX
  5
27C
330
27A
100
AcDbEntity
  8
001
370
    50
100
AcDbVertex
100
AcDb2dVertex
 10
114.335571
 20
133.933316
 30
0.0
  0
VERTEX
  5
27D
330
27A
100
AcDbEntity
  8
001
370
    50
100
AcDbVertex
100
AcDb2dVertex
 10
113.607244
 20
133.929501
 30
0.0
  0
VERTEX
  5
27E
330
27A
100
AcDbEntity
  8
001
370
    50
100
AcDbVertex
100
AcDb2dVertex
 10
112.54278
 20
133.9221
 30
0.0
  0
VERTEX
  5
27F
330
27A
100
AcDbEntity
  8
001
370
    50
100
AcDbVertex
100
AcDb2dVertex
 10
111.479387
 20
133.912164
 30
0.0
  0
VERTEX
  5
280
330
27A
100
AcDbEntity
  8
001
370
    50
100
AcDbVertex
100
AcDb2dVertex
 10
110.751814
 20
133.904118
 30
0.0
  0
SEQEND
  5
27B
330
27A
100
AcDbEntity
  8
001
370
    50
  0
POLYLINE
  5
281
330
1F
100
AcDbEntity
  8
001
370
    50
100
AcDb2dPolyline
 66
     1
 10
0.0
 20
0.0
 30
0.0
  0
VERTEX
  5
283
330
281
100
AcDbEntity
  8
001
370
    50
100
AcDbVertex
100
AcDb2dVertex
 10
102.704193
 20
131.070551
 30
0.0
  0
VERTEX
  5
284
330
281
100
AcDbEntity
  8
001
370
    50
100
AcDbVertex
100
AcDb2dVertex
 10
102.64031
 20
131.109573
 30
0.0
  0
VERTEX
  5
285
330
281
100
AcDbEntity
  8
001
370
    50
100
AcDbVertex
100
AcDb2dVertex
 10
102.575095
 20
131.146135
 30
0.0
  0
VERTEX
  5
286
330
281
100
AcDbEntity
  8
001
370
    50
100
AcDbVertex
100
AcDb2dVertex
 10
102.503036
 20
131.180217
 30
0.0
  0
VERTEX
  5
287
330
281
100
AcDbEntity
  8
001
370
    50
100
AcDbVertex
100
AcDb2dVertex
 10
102.428734
 20
131.209301
 30
0.0
  0
VERTEX
  5
288
330
281
100
AcDbEntity
  8
001
370
    50
100
AcDbVertex
100
AcDb2dVertex
 10
102.346695
 20
131.235704
 30
0.0
  0
VERTEX
  5
289
330
281
100
AcDbEntity
  8
001
370
    50
100
AcDbVertex
100
AcDb2dVertex
 10
102.263227
 20
131.257168
 30
0.0
  0
VERTEX
  5
28A
330
281
100
AcDbEntity
  8
001
370
    50
100
AcDbVertex
100
AcDb2dVertex
 10
102.173952
 20
131.274534
 30
0.0
  0
VERTEX
  5
28B
330
281
100
AcDbEntity
  8
001
370
    50
100
AcDbVertex
100
AcDb2dVertex
 10
102.08379
 20
131.285957
 30
0.0
  0
VERTEX
  5
28C
330
281
100
AcDbEntity
  8
001
370
    50
100
AcDbVertex
100
AcDb2dVertex
 10
102.005175
 20
131.291008
 30
0.0
  0
VERTEX
  5
28D
330
281
100
AcDbEntity
  8
001
370
    50
100
AcDbVertex
100
AcDb2dVertex
 10
101.926374
 20
131.293567
 30
0.0
  0
SEQEND
  5
282
330
281
100
AcDbEntity
  8
001
370
    50
  0
ARC
  5
28E
330
1F
100
AcDbEntity
  8
001
370
    50
100
AcDbCircle
 10
124.154141
 20
133.084045
 30
0.0
 40
0.9999999999999974
100
AcDbArc
 50
0.0
 51
90.0
  0
ARC
  5
28F
330
1F
100
AcDbEntity
  8
001
370
    50
100
AcDbCircle
 10
124.154141
 20
106.084045
 30
0.0
 40
0.9999999999999974
100
AcDbArc
 50
270.0
 51
0.0
  0
LINE
  5
290
330
1F
100
AcDbEntity
  8
001
370
    50
100
AcDbLine
 10
125.154141
 20
133.084045
 30
0.0
 11
125.154141
 21
106.084045
 31
0.0
  0
LINE
  5
291
330
1F
100
AcDbEntity
  8
001
  6
DASHED
370
    50
100
AcDbLine
 10
95.808973
 20
117.584045
 30
0.0
 11
95.804147
 21
117.584045
 31
0.0
  0
LINE
  5
292
330
1F
100
AcDbEntity
  8
001
370
    50
100
AcDbLine
 10
225.154141
 20
113.084045
 30
0.0
 11
225.154141
 21
126.084045
 31
0.0
  0
POLYLINE
  5
293
330
1F
100
AcDbEntity
  8
001
370
    50
100
AcDb2dPolyline
 66
     1
 10
0.0
 20
0.0
 30
0.0
  0
VERTEX
  5
295
330
293
100
AcDbEntity
  8
001
370
    50
100
AcDbVertex
100
AcDb2dVertex
 10
101.323065
 20
127.993567
 30
0.0
  0
VERTEX
  5
296
330
293
100
AcDbEntity
  8
001
370
    50
100
AcDbVertex
100
AcDb2dVertex
 10
101.406613
 20
127.996514
 30
0.0
  0
VERTEX
  5
297
330
293
100
AcDbEntity
  8
001
370
    50
100
AcDbVertex
100
AcDb2dVertex
 10
101.489975
 20
128.001901
 30
0.0
  0
VERTEX
  5
298
330
293
100
AcDbEntity
  8
001
370
    50
100
AcDbVertex
100
AcDb2dVertex
 10
101.59904
 20
128.015697
 30
0.0
  0
VERTEX
  5
299
330
293
100
AcDbEntity
  8
001
370
    50
100
AcDbVertex
100
AcDb2dVertex
 10
101.707036
 20
128.036791
 30
0.0
  0
VERTEX
  5
29A
330
293
100
AcDbEntity
  8
001
370
    50
100
AcDbVertex
100
AcDb2dVertex
 10
101.819409
 20
128.065911
 30
0.0
  0
VERTEX
  5
29B
330
293
100
AcDbEntity
  8
001
370
    50
100
AcDbVertex
100
AcDb2dVertex
 10
101.929766
 20
128.101789
 30
0.0
  0
VERTEX
  5
29C
330
293
100
AcDbEntity
  8
001
370
    50
100
AcDbVertex
100
AcDb2dVertex
 10
102.035813
 20
128.143476
 30
0.0
  0
VERTEX
  5
29D
330
293
100
AcDbEntity
  8
001
370
    50
100
AcDbVertex
100
AcDb2dVertex
 10
102.139232
 20
128.191347
 30
0.0
  0
VERTEX
  5
29E
330
293
100
AcDbEntity
  8
001
370
    50
100
AcDbVertex
100
AcDb2dVertex
 10
102.25119
 20
128.251786
 30
0.0
  0
VERTEX
  5
29F
330
293
100
AcDbEntity
  8
001
370
    50
100
AcDbVertex
100
AcDb2dVertex
 10
102.3591
 20
128.319189
 30
0.0
  0
VERTEX
  5
2A0
330
293
100
AcDbEntity
  8
001
370
    50
100
AcDbVertex
100
AcDb2dVertex
 10
102.459451
 20
128.390741
 30
0.0
  0
VERTEX
  5
2A1
330
293
100
AcDbEntity
  8
001
370
    50
100
AcDbVertex
100
AcDb2dVertex
 10
102.555347
 20
128.468177
 30
0.0
  0
VERTEX
  5
2A2
330
293
100
AcDbEntity
  8
001
370
    50
100
AcDbVertex
100
AcDb2dVertex
 10
102.682921
 20
128.587388
 30
0.0
  0
VERTEX
  5
2A3
330
293
100
AcDbEntity
  8
001
370
    50
100
AcDbVertex
100
AcDb2dVertex
 10
102.800133
 20
128.716871
 30
0.0
  0
VERTEX
  5
2A4
330
293
100
AcDbEntity
  8
001
370
    50
100
AcDbVertex
100
AcDb2dVertex
 10
102.900929
 20
128.848116
 30
0.0
  0
VERTEX
  5
2A5
330
293
100
AcDbEntity
  8
001
370
    50
100
AcDbVertex
100
AcDb2dVertex
 10
102.990967
 20
128.986905
 30
0.0
  0
VERTEX
  5
2A6
330
293
100
AcDbEntity
  8
001
370
    50
100
AcDbVertex
100
AcDb2dVertex
 10
103.055033
 20
129.103422
 30
0.0
  0
VERTEX
  5
2A7
330
293
100
AcDbEntity
  8
001
370
    50
100
AcDbVertex
100
AcDb2dVertex
 10
103.111314
 20
129.223886
 30
0.0
  0
VERTEX
  5
2A8
330
293
100
AcDbEntity
  8
001
370
    50
100
AcDbVertex
100
AcDb2dVertex
 10
103.157684
 20
129.34278
 30
0.0
  0
VERTEX
  5
2A9
330
293
100
AcDbEntity
  8
001
370
    50
100
AcDbVertex
100
AcDb2dVertex
 10
103.196202
 20
129.46443
 30
0.0
  0
VERTEX
  5
2AA
330
293
100
AcDbEntity
  8
001
370
    50
100
AcDbVertex
100
AcDb2dVertex
 10
103.225366
 20
129.583015
 30
0.0
  0
VERTEX
  5
2AB
330
293
100
AcDbEntity
  8
001
370
    50
100
AcDbVertex
100
AcDb2dVertex
 10
103.246644
 20
129.7033
 30
0.0
  0
VERTEX
  5
2AC
330
293
100
AcDbEntity
  8
001
370
    50
100
AcDbVertex
100
AcDb2dVertex
 10
103.262754
 20
129.880245
 30
0.0
  0
VERTEX
  5
2AD
330
293
100
AcDbEntity
  8
001
370
    50
100
AcDbVertex
100
AcDb2dVertex
 10
103.26016
 20
130.057947
 30
0.0
  0
VERTEX
  5
2AE
330
293
100
AcDbEntity
  8
001
370
    50
100
AcDbVertex
100
AcDb2dVertex
 10
103.23879
 20
130.2282
 30
0.0
  0
VERTEX
  5
2AF
330
293
100
AcDbEntity
  8
001
370
    50
100
AcDbVertex
100
AcDb2dVertex
 10
103.198131
 20
130.394839
 30
0.0
  0
VERTEX
  5
2B0
330
293
100
AcDbEntity
  8
001
370
    50
100
AcDbVertex
100
AcDb2dVertex
 10
103.152233
 20
130.521554
 30
0.0
  0
VERTEX
  5
2B1
330
293
100
AcDbEntity
  8
001
370
    50
100
AcDbVertex
100
AcDb2dVertex
 10
103.093735
 20
130.642903
 30
0.0
  0
VERTEX
  5
2B2
330
293
100
AcDbEntity
  8
001
370
    50
100
AcDbVertex
100
AcDb2dVertex
 10
103.020323
 20
130.760549
 30
0.0
  0
VERTEX
  5
2B3
330
293
100
AcDbEntity
  8
001
370
    50
100
AcDbVertex
100
AcDb2dVertex
 10
102.934438
 20
130.869473
 30
0.0
  0
VERTEX
  5
2B4
330
293
100
AcDbEntity
  8
001
370
    50
100
AcDbVertex
100
AcDb2dVertex
 10
102.883307
 20
130.924007
 30
0.0
  0
VERTEX
  5
2B5
330
293
100
AcDbEntity
  8
001
370
    50
100
AcDbVertex
100
AcDb2dVertex
 10
102.828642
 20
130.974821
 30
0.0
  0
VERTEX
  5
2B6
330
293
100
AcDbEntity
  8
001
370
    50
100
AcDbVertex
100
AcDb2dVertex
 10
102.767464
 20
131.023936
 30
0.0
  0
VERTEX
  5
2B7
330
293
100
AcDbEntity
  8
001
370
    50
100
AcDbVertex
100
AcDb2dVertex
 10
102.704193
 20
131.070551
 30
0.0
  0
SEQEND
  5
294
330
293
100
AcDbEntity
  8
001
370
    50
  0
POLYLINE
  5
2B8
330
1F
100
AcDbEntity
  8
001
370
    50
100
AcDb2dPolyline
 66
     1
 10
0.0
 20
0.0
 30
0.0
  0
VERTEX
  5
2BA
330
2B8
100
AcDbEntity
  8
001
370
    50
100
AcDbVertex
100
AcDb2dVertex
 10
101.926374
 20
131.293567
 30
0.0
  0
VERTEX
  5
2BB
330
2B8
100
AcDbEntity
  8
001
370
    50
100
AcDbVertex
100
AcDb2dVertex
 10
101.921216
 20
131.293499
 30
0.0
  0
VERTEX
  5
2BC
330
2B8
100
AcDbEntity
  8
001
370
    50
100
AcDbVertex
100
AcDb2dVertex
 10
101.916057
 20
131.293426
 30
0.0
  0
VERTEX
  5
2BD
330
2B8
100
AcDbEntity
  8
001
370
    50
100
AcDbVertex
100
AcDb2dVertex
 10
101.831532
 20
131.290601
 30
0.0
  0
VERTEX
  5
2BE
330
2B8
100
AcDbEntity
  8
001
370
    50
100
AcDbVertex
100
AcDb2dVertex
 10
101.747205
 20
131.284173
 30
0.0
  0
VERTEX
  5
2BF
330
2B8
100
AcDbEntity
  8
001
370
    50
100
AcDbVertex
100
AcDb2dVertex
 10
101.650575
 20
131.271615
 30
0.0
  0
VERTEX
  5
2C0
330
2B8
100
AcDbEntity
  8
001
370
    50
100
AcDbVertex
100
AcDb2dVertex
 10
101.554734
 20
131.253891
 30
0.0
  0
VERTEX
  5
2C1
330
2B8
100
AcDbEntity
  8
001
370
    50
100
AcDbVertex
100
AcDb2dVertex
 10
101.462726
 20
131.232262
 30
0.0
  0
VERTEX
  5
2C2
330
2B8
100
AcDbEntity
  8
001
370
    50
100
AcDbVertex
100
AcDb2dVertex
 10
101.371819
 20
131.206414
 30
0.0
  0
VERTEX
  5
2C3
330
2B8
100
AcDbEntity
  8
001
370
    50
100
AcDbVertex
100
AcDb2dVertex
 10
101.242786
 20
131.161815
 30
0.0
  0
VERTEX
  5
2C4
330
2B8
100
AcDbEntity
  8
001
370
    50
100
AcDbVertex
100
AcDb2dVertex
 10
101.116849
 20
131.109038
 30
0.0
  0
VERTEX
  5
2C5
330
2B8
100
AcDbEntity
  8
001
370
    50
100
AcDbVertex
100
AcDb2dVertex
 10
101.001205
 20
131.052135
 30
0.0
  0
VERTEX
  5
2C6
330
2B8
100
AcDbEntity
  8
001
370
    50
100
AcDbVertex
100
AcDb2dVertex
 10
100.889007
 20
130.988717
 30
0.0
  0
VERTEX
  5
2C7
330
2B8
100
AcDbEntity
  8
001
370
    50
100
AcDbVertex
100
AcDb2dVertex
 10
100.774644
 20
130.915056
 30
0.0
  0
VERTEX
  5
2C8
330
2B8
100
AcDbEntity
  8
001
370
    50
100
AcDbVertex
100
AcDb2dVertex
 10
100.66488
 20
130.8347
 30
0.0
  0
VERTEX
  5
2C9
330
2B8
100
AcDbEntity
  8
001
370
    50
100
AcDbVertex
100
AcDb2dVertex
 10
100.564512
 20
130.751659
 30
0.0
  0
VERTEX
  5
2CA
330
2B8
100
AcDbEntity
  8
001
370
    50
100
AcDbVertex
100
AcDb2dVertex
 10
100.469189
 20
130.662892
 30
0.0
  0
VERTEX
  5
2CB
330
2B8
100
AcDbEntity
  8
001
370
    50
100
AcDbVertex
100
AcDb2dVertex
 10
100.382592
 20
130.572295
 30
0.0
  0
VERTEX
  5
2CC
330
2B8
100
AcDbEntity
  8
001
370
    50
100
AcDbVertex
100
AcDb2dVertex
 10
100.301343
 20
130.476828
 30
0.0
  0
VERTEX
  5
2CD
330
2B8
100
AcDbEntity
  8
001
370
    50
100
AcDbVertex
100
AcDb2dVertex
 10
100.187656
 20
130.320974
 30
0.0
  0
VERTEX
  5
2CE
330
2B8
100
AcDbEntity
  8
001
370
    50
100
AcDbVertex
100
AcDb2dVertex
 10
100.089285
 20
130.154975
 30
0.0
  0
VERTEX
  5
2CF
330
2B8
100
AcDbEntity
  8
001
370
    50
100
AcDbVertex
100
AcDb2dVertex
 10
100.009694
 20
129.98368
 30
0.0
  0
VERTEX
  5
2D0
330
2B8
100
AcDbEntity
  8
001
370
    50
100
AcDbVertex
100
AcDb2dVertex
 10
99.94839
 20
129.805077
 30
0.0
  0
VERTEX
  5
2D1
330
2B8
100
AcDbEntity
  8
001
370
    50
100
AcDbVertex
100
AcDb2dVertex
 10
99.91099
 20
129.643243
 30
0.0
  0
VERTEX
  5
2D2
330
2B8
100
AcDbEntity
  8
001
370
    50
100
AcDbVertex
100
AcDb2dVertex
 10
99.890329
 20
129.478427
 30
0.0
  0
VERTEX
  5
2D3
330
2B8
100
AcDbEntity
  8
001
370
    50
100
AcDbVertex
100
AcDb2dVertex
 10
99.887693
 20
129.309046
 30
0.0
  0
VERTEX
  5
2D4
330
2B8
100
AcDbEntity
  8
001
370
    50
100
AcDbVertex
100
AcDb2dVertex
 10
99.904564
 20
129.140569
 30
0.0
  0
VERTEX
  5
2D5
330
2B8
100
AcDbEntity
  8
001
370
    50
100
AcDbVertex
100
AcDb2dVertex
 10
99.9306
 20
129.015711
 30
0.0
  0
VERTEX
  5
2D6
330
2B8
100
AcDbEntity
  8
001
370
    50
100
AcDbVertex
100
AcDb2dVertex
 10
99.968109
 20
128.893813
 30
0.0
  0
VERTEX
  5
2D7
330
2B8
100
AcDbEntity
  8
001
370
    50
100
AcDbVertex
100
AcDb2dVertex
 10
100.019363
 20
128.770918
 30
0.0
  0
VERTEX
  5
2D8
330
2B8
100
AcDbEntity
  8
001
370
    50
100
AcDbVertex
100
AcDb2dVertex
 10
100.082684
 20
128.65382
 30
0.0
  0
VERTEX
  5
2D9
330
2B8
100
AcDbEntity
  8
001
370
    50
100
AcDbVertex
100
AcDb2dVertex
 10
100.144302
 20
128.561717
 30
0.0
  0
VERTEX
  5
2DA
330
2B8
100
AcDbEntity
  8
001
370
    50
100
AcDbVertex
100
AcDb2dVertex
 10
100.213452
 20
128.475119
 30
0.0
  0
VERTEX
  5
2DB
330
2B8
100
AcDbEntity
  8
001
370
    50
100
AcDbVertex
100
AcDb2dVertex
 10
100.293394
 20
128.390811
 30
0.0
  0
VERTEX
  5
2DC
330
2B8
100
AcDbEntity
  8
001
370
    50
100
AcDbVertex
100
AcDb2dVertex
 10
100.380384
 20
128.313821
 30
0.0
  0
VERTEX
  5
2DD
330
2B8
100
AcDbEntity
  8
001
370
    50
100
AcDbVertex
100
AcDb2dVertex
 10
100.479555
 20
128.240895
 30
0.0
  0
VERTEX
  5
2DE
330
2B8
100
AcDbEntity
  8
001
370
    50
100
AcDbVertex
100
AcDb2dVertex
 10
100.584871
 20
128.177068
 30
0.0
  0
VERTEX
  5
2DF
330
2B8
100
AcDbEntity
  8
001
370
    50
100
AcDbVertex
100
AcDb2dVertex
 10
100.700119
 20
128.120322
 30
0.0
  0
VERTEX
  5
2E0
330
2B8
100
AcDbEntity
  8
001
370
    50
100
AcDbVertex
100
AcDb2dVertex
 10
100.819896
 20
128.074051
 30
0.0
  0
VERTEX
  5
2E1
330
2B8
100
AcDbEntity
  8
001
370
    50
100
AcDbVertex
100
AcDb2dVertex
 10
100.928857
 20
128.042124
 30
0.0
  0
VERTEX
  5
2E2
330
2B8
100
AcDbEntity
  8
001
370
    50
100
AcDbVertex
100
AcDb2dVertex
 10
101.039922
 20
128.018314
 30
0.0
  0
VERTEX
  5
2E3
330
2B8
100
AcDbEntity
  8
001
370
    50
100
AcDbVertex
100
AcDb2dVertex
 10
101.15438
 20
128.002109
 30
0.0
  0
VERTEX
  5
2E4
330
2B8
100
AcDbEntity
  8
001
370
    50
100
AcDbVertex
100
AcDb2dVertex
 10
101.269635
 20
127.994415
 30
0.0
  0
VERTEX
  5
2E5
330
2B8
100
AcDbEntity
  8
001
370
    50
100
AcDbVertex
100
AcDb2dVertex
 10
101.296348
 20
127.993869
 30
0.0
  0
VERTEX
  5
2E6
330
2B8
100
AcDbEntity
  8
001
370
    50
100
AcDbVertex
100
AcDb2dVertex
 10
101.323065
 20
127.993567
 30
0.0
  0
SEQEND
  5
2B9
330
2B8
100
AcDbEntity
  8
001
370
    50
  0
POLYLINE
  5
2E7
330
1F
100
AcDbEntity
  8
001
370
    50
100
AcDb2dPolyline
 66
     1
 10
0.0
 20
0.0
 30
0.0
  0
VERTEX
  5
2E9
330
2E7
100
AcDbEntity
  8
001
370
    50
100
AcDbVertex
100
AcDb2dVertex
 10
96.482693
 20
115.811367
 30
0.0
  0
VERTEX
  5
2EA
330
2E7
100
AcDbEntity
  8
001
370
    50
100
AcDbVertex
100
AcDb2dVertex
 10
96.469446
 20
115.613577
 30
0.0
  0
VERTEX
  5
2EB
330
2E7
100
AcDbEntity
  8
001
370
    50
100
AcDbVertex
100
AcDb2dVertex
 10
96.455828
 20
115.415814
 30
0.0
  0
VERTEX
  5
2EC
330
2E7
100
AcDbEntity
  8
001
370
    50
100
AcDbVertex
100
AcDb2dVertex
 10
96.44063
 20
115.205449
 30
0.0
  0
VERTEX
  5
2ED
330
2E7
100
AcDbEntity
  8
001
370
    50
100
AcDbVertex
100
AcDb2dVertex
 10
96.424821
 20
114.995129
 30
0.0
  0
VERTEX
  5
2EE
330
2E7
100
AcDbEntity
  8
001
370
    50
100
AcDbVertex
100
AcDb2dVertex
 10
96.408993
 20
114.78958
 30
0.0
  0
VERTEX
  5
2EF
330
2E7
100
AcDbEntity
  8
001
370
    50
100
AcDbVertex
100
AcDb2dVertex
 10
96.392983
 20
114.584045
 30
0.0
  0
SEQEND
  5
2E8
330
2E7
100
AcDbEntity
  8
001
370
    50
  0
LINE
  5
2F0
330
1F
100
AcDbEntity
  8
001
370
    50
100
AcDbLine
 10
114.684206
 20
117.584045
 30
0.0
 11
95.804141
 21
117.584045
 31
0.0
  0
LINE
  5
2F1
330
1F
100
AcDbEntity
  8
001
  6
DASHED
370
    30
100
AcDbLine
 10
96.482693
 20
123.227522
 30
0.0
 11
96.482693
 21
117.584045
 31
0.0
  0
LINE
  5
2F2
330
1F
100
AcDbEntity
  8
001
370
    50
100
AcDbLine
 10
96.482693
 20
117.584045
 30
0.0
 11
96.482693
 21
115.811367
 31
0.0
  0
LINE
  5
2F3
330
1F
100
AcDbEntity
  8
001
  6
CENTER
370
     9
100
AcDbLine
 10
94.580525
 20
119.584045
 30
0.0
 11
227.915895
 21
119.584045
 31
0.0
  0
LINE
  5
2F4
330
1F
100
AcDbEntity
  8
001
370
    50
100
AcDbLine
 10
127.154141
 20
107.084045
 30
0.0
 11
127.154141
 21
132.084045
 31
0.0
  0
LINE
  5
2F5
330
1F
100
AcDbEntity
  8
001
370
    50
100
AcDbLine
 10
219.154141
 20
132.084045
 30
0.0
 11
127.154141
 21
132.084045
 31
0.0
  0
LINE
  5
2F6
330
1F
100
AcDbEntity
  8
001
370
    50
100
AcDbLine
 10
219.154141
 20
107.084045
 30
0.0
 11
127.154141
 21
107.084045
 31
0.0
  0
LINE
  5
2F7
330
1F
100
AcDbEntity
  8
001
370
    50
100
AcDbLine
 10
225.154141
 20
119.584045
 30
0.0
 11
228.618242
 21
121.584045
 31
0.0
  0
LINE
  5
2F8
330
1F
100
AcDbEntity
  8
001
370
    50
100
AcDbLine
 10
225.154141
 20
119.584045
 30
0.0
 11
228.618242
 21
117.584045
 31
0.0
  0
LINE
  5
2F9
330
1F
100
AcDbEntity
  8
001
370
    50
100
AcDbLine
 10
127.154141
 20
131.584045
 30
0.0
 11
125.154141
 21
131.584045
 31
0.0
  0
LINE
  5
2FA
330
1F
100
AcDbEntity
  8
001
370
    50
100
AcDbLine
 10
125.154141
 20
107.584045
 30
0.0
 11
127.154141
 21
107.584045
 31
0.0
  0
ARC
  5
2FB
330
1F
100
AcDbEntity
  8
001
370
    50
100
AcDbCircle
 10
219.154141
 20
126.084045
 30
0.0
 40
6.0
100
AcDbArc
 50
0.0
 51
90.0
  0
ARC
  5
2FC
330
1F
100
AcDbEntity
  8
001
370
    50
100
AcDbCircle
 10
219.154141
 20
113.084045
 30
0.0
 40
6.0
100
AcDbArc
 50
270.0
 51
0.0
  0
LINE
  5
2FD
330
1F
100
AcDbEntity
  8
001
370
    50
100
AcDbLine
 10
95.642945
 20
113.838251
 30
0.0
 11
95.163973
 21
107.93673
 31
0.0
  0
CIRCLE
  5
2FE
330
1F
100
AcDbEntity
  8
001
370
    50
100
AcDbCircle
 10
103.253525
 20
109.488621
 30
0.0
 40
3.0
  0
LINE
  5
2FF
330
1F
100
AcDbEntity
  8
001
370
    50
100
AcDbLine
 10
110.450317
 20
105.136391
 30
0.0
 11
110.929289
 21
111.037912
 31
0.0
  0
LINE
  5
300
330
1F
100
AcDbEntity
  8
001
370
    50
100
AcDbLine
 10
107.920271
 20
114.280537
 30
0.0
 11
96.039121
 21
114.205885
 31
0.0
  0
CIRCLE
  5
301
330
1F
100
AcDbEntity
  8
001
370
    50
100
AcDbCircle
 10
103.258522
 20
109.501883
 30
0.0
 40
2.5
  0
LINE
  5
302
330
1F
100
AcDbEntity
  8
001
370
    50
100
AcDbLine
 10
103.838789
 20
110.500194
 30
0.0
 11
103.522852
 21
111.051118
 31
0.0
  0
LINE
  5
303
330
1F
100
AcDbEntity
  8
001
370
    50
100
AcDbLine
 10
102.684093
 20
110.503564
 30
0.0
 11
103.003239
 21
111.052635
 31
0.0
  0
ARC
  5
304
330
1F
100
AcDbEntity
  8
001
370
    50
100
AcDbCircle
 10
103.262608
 20
110.901877
 30
0.0
 40
0.3
100
AcDbArc
 50
29.832778
 51
149.832778
  0
LINE
  5
305
330
1F
100
AcDbEntity
  8
001
370
    50
100
AcDbLine
 10
102.684093
 20
110.503564
 30
0.0
 11
102.04901
 21
110.505417
 31
0.0
  0
LINE
  5
306
330
1F
100
AcDbEntity
  8
001
370
    50
100
AcDbLine
 10
102.103827
 20
109.505253
 30
0.0
 11
101.78789
 21
110.056177
 31
0.0
  0
ARC
  5
307
330
1F
100
AcDbEntity
  8
001
370
    50
100
AcDbCircle
 10
102.048135
 20
110.205419
 30
0.0
 40
0.3
100
AcDbArc
 50
89.832778
 51
209.832778
  0
LINE
  5
308
330
1F
100
AcDbEntity
  8
001
370
    50
100
AcDbLine
 10
102.103827
 20
109.505253
 30
0.0
 11
101.78468
 21
108.956182
 31
0.0
  0
LINE
  5
309
330
1F
100
AcDbEntity
  8
001
370
    50
100
AcDbLine
 10
102.678256
 20
108.503572
 30
0.0
 11
102.043173
 21
108.505426
 31
0.0
  0
ARC
  5
30A
330
1F
100
AcDbEntity
  8
001
370
    50
100
AcDbCircle
 10
102.044049
 20
108.805425
 30
0.0
 40
0.3
100
AcDbArc
 50
149.832778
 51
269.832778
  0
LINE
  5
30B
330
1F
100
AcDbEntity
  8
001
370
    50
100
AcDbLine
 10
102.678256
 20
108.503572
 30
0.0
 11
102.994192
 21
107.952648
 31
0.0
  0
LINE
  5
30C
330
1F
100
AcDbEntity
  8
001
370
    50
100
AcDbLine
 10
103.832951
 20
108.500202
 30
0.0
 11
103.513805
 21
107.951131
 31
0.0
  0
ARC
  5
30D
330
1F
100
AcDbEntity
  8
001
370
    50
100
AcDbCircle
 10
103.254436
 20
108.101889
 30
0.0
 40
0.3
100
AcDbArc
 50
209.832778
 51
329.832778
  0
LINE
  5
30E
330
1F
100
AcDbEntity
  8
001
370
    50
100
AcDbLine
 10
103.832951
 20
108.500202
 30
0.0
 11
104.468034
 21
108.498349
 31
0.0
  0
LINE
  5
30F
330
1F
100
AcDbEntity
  8
001
370
    50
100
AcDbLine
 10
104.413218
 20
109.498513
 30
0.0
 11
104.729154
 21
108.947588
 31
0.0
  0
ARC
  5
310
330
1F
100
AcDbEntity
  8
001
370
    50
100
AcDbCircle
 10
104.46891
 20
108.798347
 30
0.0
 40
0.3
100
AcDbArc
 50
269.832778
 51
29.832778
  0
LINE
  5
311
330
1F
100
AcDbEntity
  8
001
370
    50
100
AcDbLine
 10
104.413218
 20
109.498513
 30
0.0
 11
104.732364
 21
110.047584
 31
0.0
  0
LINE
  5
312
330
1F
100
AcDbEntity
  8
001
370
    50
100
AcDbLine
 10
103.838789
 20
110.500194
 30
0.0
 11
104.473871
 21
110.49834
 31
0.0
  0
ARC
  5
313
330
1F
100
AcDbEntity
  8
001
370
    50
100
AcDbCircle
 10
104.472996
 20
110.198341
 30
0.0
 40
0.3
100
AcDbArc
 50
329.832778
 51
89.832778
  0
LINE
  5
314
330
1F
100
AcDbEntity
  8
001
370
    50
100
AcDbLine
 10
110.054141
 20
104.768757
 30
0.0
 11
98.17299
 21
104.694104
 31
0.0
  0
POLYLINE
  5
315
330
1F
100
AcDbEntity
  8
001
370
    50
100
AcDb2dPolyline
 66
     1
 10
0.0
 20
0.0
 30
0.0
  0
VERTEX
  5
317
330
315
100
AcDbEntity
  8
001
370
    50
100
AcDbVertex
100
AcDb2dVertex
 10
120.26055
 20
292.200268
 30
0.0
  0
VERTEX
  5
318
330
315
100
AcDbEntity
  8
001
370
    50
100
AcDbVertex
100
AcDb2dVertex
 10
120.263549
 20
292.200181
 30
0.0
  0
VERTEX
  5
319
330
315
100
AcDbEntity
  8
001
370
    50
100
AcDbVertex
100
AcDb2dVertex
 10
120.267933
 20
292.200086
 30
0.0
  0
VERTEX
  5
31A
330
315
100
AcDbEntity
  8
001
370
    50
100
AcDbVertex
100
AcDb2dVertex
 10
120.272316
 20
292.200037
 30
0.0
  0
VERTEX
  5
31B
330
315
100
AcDbEntity
  8
001
370
    50
100
AcDbVertex
100
AcDb2dVertex
 10
120.275316
 20
292.200026
 30
0.0
  0
SEQEND
  5
316
330
315
100
AcDbEntity
  8
001
370
    50
  0
POLYLINE
  5
31C
330
1F
100
AcDbEntity
  8
001
370
    50
100
AcDb2dPolyline
 66
     1
 10
0.0
 20
0.0
 30
0.0
  0
VERTEX
  5
31E
330
31C
100
AcDbEntity
  8
001
370
    50
100
AcDbVertex
100
AcDb2dVertex
 10
120.275316
 20
321.200026
 30
0.0
  0
VERTEX
  5
31F
330
31C
100
AcDbEntity
  8
001
370
    50
100
AcDbVertex
100
AcDb2dVertex
 10
120.272316
 20
321.200014
 30
0.0
  0
VERTEX
  5
320
330
31C
100
AcDbEntity
  8
001
370
    50
100
AcDbVertex
100
AcDb2dVertex
 10
120.267933
 20
321.199965
 30
0.0
  0
VERTEX
  5
321
330
31C
100
AcDbEntity
  8
001
370
    50
100
AcDbVertex
100
AcDb2dVertex
 10
120.263549
 20
321.199871
 30
0.0
  0
VERTEX
  5
322
330
31C
100
AcDbEntity
  8
001
370
    50
100
AcDbVertex
100
AcDb2dVertex
 10
120.26055
 20
321.199784
 30
0.0
  0
SEQEND
  5
31D
330
31C
100
AcDbEntity
  8
001
370
    50
  0
LINE
  5
323
330
1F
100
AcDbEntity
  8
001
370
    50
100
AcDbLine
 10
124.154141
 20
321.200026
 30
0.0
 11
120.275316
 21
321.200026
 31
0.0
  0
LINE
  5
324
330
1F
100
AcDbEntity
  8
001
370
    50
100
AcDbLine
 10
120.275316
 20
292.200026
 30
0.0
 11
124.154141
 21
292.200026
 31
0.0
  0
POLYLINE
  5
325
330
1F
100
AcDbEntity
  8
001
370
    50
100
AcDb2dPolyline
 66
     1
 10
0.0
 20
0.0
 30
0.0
  0
VERTEX
  5
327
330
325
100
AcDbEntity
  8
001
370
    50
100
AcDbVertex
100
AcDb2dVertex
 10
114.335571
 20
292.350755
 30
0.0
  0
VERTEX
  5
328
330
325
100
AcDbEntity
  8
001
370
    50
100
AcDbVertex
100
AcDb2dVertex
 10
114.833761
 20
292.363833
 30
0.0
  0
VERTEX
  5
329
330
325
100
AcDbEntity
  8
001
370
    50
100
AcDbVertex
100
AcDb2dVertex
 10
115.561862
 20
292.383845
 30
0.0
  0
VERTEX
  5
32A
330
325
100
AcDbEntity
  8
001
370
    50
100
AcDbVertex
100
AcDb2dVertex
 10
116.288219
 20
292.405062
 30
0.0
  0
VERTEX
  5
32B
330
325
100
AcDbEntity
  8
001
370
    50
100
AcDbVertex
100
AcDb2dVertex
 10
116.785182
 20
292.420194
 30
0.0
  0
SEQEND
  5
326
330
325
100
AcDbEntity
  8
001
370
    50
  0
POLYLINE
  5
32C
330
1F
100
AcDbEntity
  8
001
370
    50
100
AcDb2dPolyline
 66
     1
 10
0.0
 20
0.0
 30
0.0
  0
VERTEX
  5
32E
330
32C
100
AcDbEntity
  8
001
370
    50
100
AcDbVertex
100
AcDb2dVertex
 10
116.785182
 20
292.420194
 30
0.0
  0
VERTEX
  5
32F
330
32C
100
AcDbEntity
  8
001
370
    50
100
AcDbVertex
100
AcDb2dVertex
 10
117.033569
 20
292.425321
 30
0.0
  0
VERTEX
  5
330
330
32C
100
AcDbEntity
  8
001
370
    50
100
AcDbVertex
100
AcDb2dVertex
 10
117.281975
 20
292.42817
 30
0.0
  0
VERTEX
  5
331
330
32C
100
AcDbEntity
  8
001
370
    50
100
AcDbVertex
100
AcDb2dVertex
 10
117.530733
 20
292.42692
 30
0.0
  0
VERTEX
  5
332
330
32C
100
AcDbEntity
  8
001
370
    50
100
AcDbVertex
100
AcDb2dVertex
 10
117.779451
 20
292.421607
 30
0.0
  0
VERTEX
  5
333
330
32C
100
AcDbEntity
  8
001
370
    50
100
AcDbVertex
100
AcDb2dVertex
 10
118.021423
 20
292.412945
 30
0.0
  0
VERTEX
  5
334
330
32C
100
AcDbEntity
  8
001
370
    50
100
AcDbVertex
100
AcDb2dVertex
 10
118.263247
 20
292.400946
 30
0.0
  0
VERTEX
  5
335
330
32C
100
AcDbEntity
  8
001
370
    50
100
AcDbVertex
100
AcDb2dVertex
 10
118.49189
 20
292.386548
 30
0.0
  0
VERTEX
  5
336
330
32C
100
AcDbEntity
  8
001
370
    50
100
AcDbVertex
100
AcDb2dVertex
 10
118.720329
 20
292.36921
 30
0.0
  0
VERTEX
  5
337
330
32C
100
AcDbEntity
  8
001
370
    50
100
AcDbVertex
100
AcDb2dVertex
 10
118.930457
 20
292.350694
 30
0.0
  0
VERTEX
  5
338
330
32C
100
AcDbEntity
  8
001
370
    50
100
AcDbVertex
100
AcDb2dVertex
 10
119.140372
 20
292.329912
 30
0.0
  0
VERTEX
  5
339
330
32C
100
AcDbEntity
  8
001
370
    50
100
AcDbVertex
100
AcDb2dVertex
 10
119.325056
 20
292.309901
 30
0.0
  0
VERTEX
  5
33A
330
32C
100
AcDbEntity
  8
001
370
    50
100
AcDbVertex
100
AcDb2dVertex
 10
119.509576
 20
292.288425
 30
0.0
  0
VERTEX
  5
33B
330
32C
100
AcDbEntity
  8
001
370
    50
100
AcDbVertex
100
AcDb2dVertex
 10
119.665161
 20
292.269321
 30
0.0
  0
VERTEX
  5
33C
330
32C
100
AcDbEntity
  8
001
370
    50
100
AcDbVertex
100
AcDb2dVertex
 10
119.820677
 20
292.249704
 30
0.0
  0
VERTEX
  5
33D
330
32C
100
AcDbEntity
  8
001
370
    50
100
AcDbVertex
100
AcDb2dVertex
 10
119.94066
 20
292.234502
 30
0.0
  0
VERTEX
  5
33E
330
32C
100
AcDbEntity
  8
001
370
    50
100
AcDbVertex
100
AcDb2dVertex
 10
120.060681
 20
292.2195
 30
0.0
  0
VERTEX
  5
33F
330
32C
100
AcDbEntity
  8
001
370
    50
100
AcDbVertex
100
AcDb2dVertex
 10
120.120273
 20
292.212354
 30
0.0
  0
VERTEX
  5
340
330
32C
100
AcDbEntity
  8
001
370
    50
100
AcDbVertex
100
AcDb2dVertex
 10
120.179964
 20
292.206234
 30
0.0
  0
VERTEX
  5
341
330
32C
100
AcDbEntity
  8
001
370
    50
100
AcDbVertex
100
AcDb2dVertex
 10
120.220237
 20
292.203031
 30
0.0
  0
VERTEX
  5
342
330
32C
100
AcDbEntity
  8
001
370
    50
100
AcDbVertex
100
AcDb2dVertex
 10
120.26055
 20
292.200268
 30
0.0
  0
SEQEND
  5
32D
330
32C
100
AcDbEntity
  8
001
370
    50
  0
POLYLINE
  5
343
330
1F
100
AcDbEntity
  8
001
370
    50
100
AcDb2dPolyline
 66
     1
 10
0.0
 20
0.0
 30
0.0
  0
VERTEX
  5
345
330
343
100
AcDbEntity
  8
001
370
    50
100
AcDbVertex
100
AcDb2dVertex
 10
120.275316
 20
292.200026
 30
0.0
  0
VERTEX
  5
346
330
343
100
AcDbEntity
  8
001
370
    50
100
AcDbVertex
100
AcDb2dVertex
 10
120.504401
 20
292.289614
 30
0.0
  0
VERTEX
  5
347
330
343
100
AcDbEntity
  8
001
370
    50
100
AcDbVertex
100
AcDb2dVertex
 10
120.789389
 20
292.496149
 30
0.0
  0
VERTEX
  5
348
330
343
100
AcDbEntity
  8
001
370
    50
100
AcDbVertex
100
AcDb2dVertex
 10
121.108029
 20
292.919937
 30
0.0
  0
VERTEX
  5
349
330
343
100
AcDbEntity
  8
001
370
    50
100
AcDbVertex
100
AcDb2dVertex
 10
121.282465
 20
293.372423
 30
0.0
  0
VERTEX
  5
34A
330
343
100
AcDbEntity
  8
001
370
    50
100
AcDbVertex
100
AcDb2dVertex
 10
121.511875
 20
294.04892
 30
0.0
  0
VERTEX
  5
34B
330
343
100
AcDbEntity
  8
001
370
    50
100
AcDbVertex
100
AcDb2dVertex
 10
121.734405
 20
294.793057
 30
0.0
  0
VERTEX
  5
34C
330
343
100
AcDbEntity
  8
001
370
    50
100
AcDbVertex
100
AcDb2dVertex
 10
121.979734
 20
295.890383
 30
0.0
  0
VERTEX
  5
34D
330
343
100
AcDbEntity
  8
001
370
    50
100
AcDbVertex
100
AcDb2dVertex
 10
122.126749
 20
296.700026
 30
0.0
  0
SEQEND
  5
344
330
343
100
AcDbEntity
  8
001
370
    50
  0
POLYLINE
  5
34E
330
1F
100
AcDbEntity
  8
001
370
    50
100
AcDb2dPolyline
 66
     1
 10
0.0
 20
0.0
 30
0.0
  0
VERTEX
  5
350
330
34E
100
AcDbEntity
  8
001
370
    50
100
AcDbVertex
100
AcDb2dVertex
 10
114.684206
 20
304.700026
 30
0.0
  0
VERTEX
  5
351
330
34E
100
AcDbEntity
  8
001
370
    50
100
AcDbVertex
100
AcDb2dVertex
 10
115.015528
 20
304.690729
 30
0.0
  0
VERTEX
  5
352
330
34E
100
AcDbEntity
  8
001
370
    50
100
AcDbVertex
100
AcDb2dVertex
 10
115.346303
 20
304.67296
 30
0.0
  0
VERTEX
  5
353
330
34E
100
AcDbEntity
  8
001
370
    50
100
AcDbVertex
100
AcDb2dVertex
 10
115.677071
 20
304.639921
 30
0.0
  0
VERTEX
  5
354
330
34E
100
AcDbEntity
  8
001
370
    50
100
AcDbVertex
100
AcDb2dVertex
 10
116.00621
 20
304.592231
 30
0.0
  0
VERTEX
  5
355
330
34E
100
AcDbEntity
  8
001
370
    50
100
AcDbVertex
100
AcDb2dVertex
 10
116.333032
 20
304.531821
 30
0.0
  0
VERTEX
  5
356
330
34E
100
AcDbEntity
  8
001
370
    50
100
AcDbVertex
100
AcDb2dVertex
 10
116.657141
 20
304.458543
 30
0.0
  0
VERTEX
  5
357
330
34E
100
AcDbEntity
  8
001
370
    50
100
AcDbVertex
100
AcDb2dVertex
 10
116.976671
 20
304.372253
 30
0.0
  0
VERTEX
  5
358
330
34E
100
AcDbEntity
  8
001
370
    50
100
AcDbVertex
100
AcDb2dVertex
 10
117.292311
 20
304.272599
 30
0.0
  0
VERTEX
  5
359
330
34E
100
AcDbEntity
  8
001
370
    50
100
AcDbVertex
100
AcDb2dVertex
 10
117.603984
 20
304.159443
 30
0.0
  0
VERTEX
  5
35A
330
34E
100
AcDbEntity
  8
001
370
    50
100
AcDbVertex
100
AcDb2dVertex
 10
117.910587
 20
304.033199
 30
0.0
  0
VERTEX
  5
35B
330
34E
100
AcDbEntity
  8
001
370
    50
100
AcDbVertex
100
AcDb2dVertex
 10
118.212286
 20
303.89382
 30
0.0
  0
VERTEX
  5
35C
330
34E
100
AcDbEntity
  8
001
370
    50
100
AcDbVertex
100
AcDb2dVertex
 10
118.507837
 20
303.741837
 30
0.0
  0
VERTEX
  5
35D
330
34E
100
AcDbEntity
  8
001
370
    50
100
AcDbVertex
100
AcDb2dVertex
 10
118.795816
 20
303.577994
 30
0.0
  0
VERTEX
  5
35E
330
34E
100
AcDbEntity
  8
001
370
    50
100
AcDbVertex
100
AcDb2dVertex
 10
119.076527
 20
303.401985
 30
0.0
  0
VERTEX
  5
35F
330
34E
100
AcDbEntity
  8
001
370
    50
100
AcDbVertex
100
AcDb2dVertex
 10
119.347122
 20
303.215484
 30
0.0
  0
VERTEX
  5
360
330
34E
100
AcDbEntity
  8
001
370
    50
100
AcDbVertex
100
AcDb2dVertex
 10
119.609123
 20
303.017116
 30
0.0
  0
VERTEX
  5
361
330
34E
100
AcDbEntity
  8
001
370
    50
100
AcDbVertex
100
AcDb2dVertex
 10
119.847004
 20
302.819795
 30
0.0
  0
VERTEX
  5
362
330
34E
100
AcDbEntity
  8
001
370
    50
100
AcDbVertex
100
AcDb2dVertex
 10
120.076206
 20
302.612452
 30
0.0
  0
VERTEX
  5
363
330
34E
100
AcDbEntity
  8
001
370
    50
100
AcDbVertex
100
AcDb2dVertex
 10
120.295619
 20
302.396343
 30
0.0
  0
VERTEX
  5
364
330
34E
100
AcDbEntity
  8
001
370
    50
100
AcDbVertex
100
AcDb2dVertex
 10
120.505699
 20
302.171152
 30
0.0
  0
VERTEX
  5
365
330
34E
100
AcDbEntity
  8
001
370
    50
100
AcDbVertex
100
AcDb2dVertex
 10
120.703926
 20
301.93982
 30
0.0
  0
VERTEX
  5
366
330
34E
100
AcDbEntity
  8
001
370
    50
100
AcDbVertex
100
AcDb2dVertex
 10
120.892088
 20
301.700231
 30
0.0
  0
VERTEX
  5
367
330
34E
100
AcDbEntity
  8
001
370
    50
100
AcDbVertex
100
AcDb2dVertex
 10
121.066454
 20
301.457217
 30
0.0
  0
VERTEX
  5
368
330
34E
100
AcDbEntity
  8
001
370
    50
100
AcDbVertex
100
AcDb2dVertex
 10
121.229859
 20
301.206701
 30
0.0
  0
VERTEX
  5
369
330
34E
100
AcDbEntity
  8
001
370
    50
100
AcDbVertex
100
AcDb2dVertex
 10
121.406945
 20
300.903354
 30
0.0
  0
VERTEX
  5
36A
330
34E
100
AcDbEntity
  8
001
370
    50
100
AcDbVertex
100
AcDb2dVertex
 10
121.56774
 20
300.59103
 30
0.0
  0
VERTEX
  5
36B
330
34E
100
AcDbEntity
  8
001
370
    50
100
AcDbVertex
100
AcDb2dVertex
 10
121.708989
 20
300.277927
 30
0.0
  0
VERTEX
  5
36C
330
34E
100
AcDbEntity
  8
001
370
    50
100
AcDbVertex
100
AcDb2dVertex
 10
121.833995
 20
299.958003
 30
0.0
  0
VERTEX
  5
36D
330
34E
100
AcDbEntity
  8
001
370
    50
100
AcDbVertex
100
AcDb2dVertex
 10
121.938923
 20
299.642843
 30
0.0
  0
VERTEX
  5
36E
330
34E
100
AcDbEntity
  8
001
370
    50
100
AcDbVertex
100
AcDb2dVertex
 10
122.027462
 20
299.322713
 30
0.0
  0
VERTEX
  5
36F
330
34E
100
AcDbEntity
  8
001
370
    50
100
AcDbVertex
100
AcDb2dVertex
 10
122.096275
 20
299.012494
 30
0.0
  0
VERTEX
  5
370
330
34E
100
AcDbEntity
  8
001
370
    50
100
AcDbVertex
100
AcDb2dVertex
 10
122.149573
 20
298.699222
 30
0.0
  0
VERTEX
  5
371
330
34E
100
AcDbEntity
  8
001
370
    50
100
AcDbVertex
100
AcDb2dVertex
 10
122.186428
 20
298.394458
 30
0.0
  0
VERTEX
  5
372
330
34E
100
AcDbEntity
  8
001
370
    50
100
AcDbVertex
100
AcDb2dVertex
 10
122.20874
 20
298.088311
 30
0.0
  0
VERTEX
  5
373
330
34E
100
AcDbEntity
  8
001
370
    50
100
AcDbVertex
100
AcDb2dVertex
 10
122.216366
 20
297.793826
 30
0.0
  0
VERTEX
  5
374
330
34E
100
AcDbEntity
  8
001
370
    50
100
AcDbVertex
100
AcDb2dVertex
 10
122.210764
 20
297.499272
 30
0.0
  0
VERTEX
  5
375
330
34E
100
AcDbEntity
  8
001
370
    50
100
AcDbVertex
100
AcDb2dVertex
 10
122.199158
 20
297.295576
 30
0.0
  0
VERTEX
  5
376
330
34E
100
AcDbEntity
  8
001
370
    50
100
AcDbVertex
100
AcDb2dVertex
 10
122.180484
 20
297.092474
 30
0.0
  0
VERTEX
  5
377
330
34E
100
AcDbEntity
  8
001
370
    50
100
AcDbVertex
100
AcDb2dVertex
 10
122.155495
 20
296.896027
 30
0.0
  0
VERTEX
  5
378
330
34E
100
AcDbEntity
  8
001
370
    50
100
AcDbVertex
100
AcDb2dVertex
 10
122.126749
 20
296.700026
 30
0.0
  0
SEQEND
  5
34F
330
34E
100
AcDbEntity
  8
001
370
    50
  0
LINE
  5
379
330
1F
100
AcDbEntity
  8
001
370
    50
100
AcDbLine
 10
114.335571
 20
321.049297
 30
0.0
 11
114.335571
 21
304.700026
 31
0.0
  0
POLYLINE
  5
37A
330
1F
100
AcDbEntity
  8
001
370
    50
100
AcDb2dPolyline
 66
     1
 10
0.0
 20
0.0
 30
0.0
  0
VERTEX
  5
37C
330
37A
100
AcDbEntity
  8
001
370
    50
100
AcDbVertex
100
AcDb2dVertex
 10
116.785182
 20
320.979858
 30
0.0
  0
VERTEX
  5
37D
330
37A
100
AcDbEntity
  8
001
370
    50
100
AcDbVertex
100
AcDb2dVertex
 10
116.288219
 20
320.994989
 30
0.0
  0
VERTEX
  5
37E
330
37A
100
AcDbEntity
  8
001
370
    50
100
AcDbVertex
100
AcDb2dVertex
 10
115.561862
 20
321.016206
 30
0.0
  0
VERTEX
  5
37F
330
37A
100
AcDbEntity
  8
001
370
    50
100
AcDbVertex
100
AcDb2dVertex
 10
114.833761
 20
321.036219
 30
0.0
  0
VERTEX
  5
380
330
37A
100
AcDbEntity
  8
001
370
    50
100
AcDbVertex
100
AcDb2dVertex
 10
114.335571
 20
321.049297
 30
0.0
  0
SEQEND
  5
37B
330
37A
100
AcDbEntity
  8
001
370
    50
  0
POLYLINE
  5
381
330
1F
100
AcDbEntity
  8
001
370
    50
100
AcDb2dPolyline
 66
     1
 10
0.0
 20
0.0
 30
0.0
  0
VERTEX
  5
383
330
381
100
AcDbEntity
  8
001
370
    50
100
AcDbVertex
100
AcDb2dVertex
 10
116.785182
 20
320.979858
 30
0.0
  0
VERTEX
  5
384
330
381
100
AcDbEntity
  8
001
370
    50
100
AcDbVertex
100
AcDb2dVertex
 10
117.033569
 20
320.97473
 30
0.0
  0
VERTEX
  5
385
330
381
100
AcDbEntity
  8
001
370
    50
100
AcDbVertex
100
AcDb2dVertex
 10
117.281975
 20
320.971882
 30
0.0
  0
VERTEX
  5
386
330
381
100
AcDbEntity
  8
001
370
    50
100
AcDbVertex
100
AcDb2dVertex
 10
117.530733
 20
320.973132
 30
0.0
  0
VERTEX
  5
387
330
381
100
AcDbEntity
  8
001
370
    50
100
AcDbVertex
100
AcDb2dVertex
 10
117.779451
 20
320.978445
 30
0.0
  0
VERTEX
  5
388
330
381
100
AcDbEntity
  8
001
370
    50
100
AcDbVertex
100
AcDb2dVertex
 10
118.021423
 20
320.987107
 30
0.0
  0
VERTEX
  5
389
330
381
100
AcDbEntity
  8
001
370
    50
100
AcDbVertex
100
AcDb2dVertex
 10
118.263247
 20
320.999105
 30
0.0
  0
VERTEX
  5
38A
330
381
100
AcDbEntity
  8
001
370
    50
100
AcDbVertex
100
AcDb2dVertex
 10
118.49189
 20
321.013503
 30
0.0
  0
VERTEX
  5
38B
330
381
100
AcDbEntity
  8
001
370
    50
100
AcDbVertex
100
AcDb2dVertex
 10
118.720329
 20
321.030842
 30
0.0
  0
VERTEX
  5
38C
330
381
100
AcDbEntity
  8
001
370
    50
100
AcDbVertex
100
AcDb2dVertex
 10
118.930457
 20
321.049358
 30
0.0
  0
VERTEX
  5
38D
330
381
100
AcDbEntity
  8
001
370
    50
100
AcDbVertex
100
AcDb2dVertex
 10
119.140372
 20
321.07014
 30
0.0
  0
VERTEX
  5
38E
330
381
100
AcDbEntity
  8
001
370
    50
100
AcDbVertex
100
AcDb2dVertex
 10
119.325056
 20
321.090151
 30
0.0
  0
VERTEX
  5
38F
330
381
100
AcDbEntity
  8
001
370
    50
100
AcDbVertex
100
AcDb2dVertex
 10
119.509576
 20
321.111626
 30
0.0
  0
VERTEX
  5
390
330
381
100
AcDbEntity
  8
001
370
    50
100
AcDbVertex
100
AcDb2dVertex
 10
119.665161
 20
321.130731
 30
0.0
  0
VERTEX
  5
391
330
381
100
AcDbEntity
  8
001
370
    50
100
AcDbVertex
100
AcDb2dVertex
 10
119.820677
 20
321.150347
 30
0.0
  0
VERTEX
  5
392
330
381
100
AcDbEntity
  8
001
370
    50
100
AcDbVertex
100
AcDb2dVertex
 10
119.94066
 20
321.165549
 30
0.0
  0
VERTEX
  5
393
330
381
100
AcDbEntity
  8
001
370
    50
100
AcDbVertex
100
AcDb2dVertex
 10
120.060681
 20
321.180551
 30
0.0
  0
VERTEX
  5
394
330
381
100
AcDbEntity
  8
001
370
    50
100
AcDbVertex
100
AcDb2dVertex
 10
120.120273
 20
321.187697
 30
0.0
  0
VERTEX
  5
395
330
381
100
AcDbEntity
  8
001
370
    50
100
AcDbVertex
100
AcDb2dVertex
 10
120.179964
 20
321.193818
 30
0.0
  0
VERTEX
  5
396
330
381
100
AcDbEntity
  8
001
370
    50
100
AcDbVertex
100
AcDb2dVertex
 10
120.220237
 20
321.197021
 30
0.0
  0
VERTEX
  5
397
330
381
100
AcDbEntity
  8
001
370
    50
100
AcDbVertex
100
AcDb2dVertex
 10
120.26055
 20
321.199784
 30
0.0
  0
SEQEND
  5
382
330
381
100
AcDbEntity
  8
001
370
    50
  0
POLYLINE
  5
398
330
1F
100
AcDbEntity
  8
001
370
    50
100
AcDb2dPolyline
 66
     1
 10
0.0
 20
0.0
 30
0.0
  0
VERTEX
  5
39A
330
398
100
AcDbEntity
  8
001
370
    50
100
AcDbVertex
100
AcDb2dVertex
 10
110.751814
 20
321.020098
 30
0.0
  0
VERTEX
  5
39B
330
398
100
AcDbEntity
  8
001
370
    50
100
AcDbVertex
100
AcDb2dVertex
 10
110.485823
 20
320.938504
 30
0.0
  0
VERTEX
  5
39C
330
398
100
AcDbEntity
  8
001
370
    50
100
AcDbVertex
100
AcDb2dVertex
 10
110.110623
 20
320.785586
 30
0.0
  0
VERTEX
  5
39D
330
398
100
AcDbEntity
  8
001
370
    50
100
AcDbVertex
100
AcDb2dVertex
 10
109.738016
 20
320.576902
 30
0.0
  0
VERTEX
  5
39E
330
398
100
AcDbEntity
  8
001
370
    50
100
AcDbVertex
100
AcDb2dVertex
 10
109.495345
 20
320.412029
 30
0.0
  0
SEQEND
  5
399
330
398
100
AcDbEntity
  8
001
370
    50
  0
POLYLINE
  5
39F
330
1F
100
AcDbEntity
  8
001
370
    50
100
AcDb2dPolyline
 66
     1
 10
0.0
 20
0.0
 30
0.0
  0
VERTEX
  5
3A1
330
39F
100
AcDbEntity
  8
001
370
    50
100
AcDbVertex
100
AcDb2dVertex
 10
114.335571
 20
321.049297
 30
0.0
  0
VERTEX
  5
3A2
330
39F
100
AcDbEntity
  8
001
370
    50
100
AcDbVertex
100
AcDb2dVertex
 10
113.607244
 20
321.045482
 30
0.0
  0
VERTEX
  5
3A3
330
39F
100
AcDbEntity
  8
001
370
    50
100
AcDbVertex
100
AcDb2dVertex
 10
112.54278
 20
321.03808
 30
0.0
  0
VERTEX
  5
3A4
330
39F
100
AcDbEntity
  8
001
370
    50
100
AcDbVertex
100
AcDb2dVertex
 10
111.479387
 20
321.028145
 30
0.0
  0
VERTEX
  5
3A5
330
39F
100
AcDbEntity
  8
001
370
    50
100
AcDbVertex
100
AcDb2dVertex
 10
110.751814
 20
321.020098
 30
0.0
  0
SEQEND
  5
3A0
330
39F
100
AcDbEntity
  8
001
370
    50
  0
POLYLINE
  5
3A6
330
1F
100
AcDbEntity
  8
001
370
    50
100
AcDb2dPolyline
 66
     1
 10
0.0
 20
0.0
 30
0.0
  0
VERTEX
  5
3A8
330
3A6
100
AcDbEntity
  8
001
370
    50
100
AcDbVertex
100
AcDb2dVertex
 10
102.704193
 20
318.186532
 30
0.0
  0
VERTEX
  5
3A9
330
3A6
100
AcDbEntity
  8
001
370
    50
100
AcDbVertex
100
AcDb2dVertex
 10
102.64031
 20
318.225553
 30
0.0
  0
VERTEX
  5
3AA
330
3A6
100
AcDbEntity
  8
001
370
    50
100
AcDbVertex
100
AcDb2dVertex
 10
102.575095
 20
318.262116
 30
0.0
  0
VERTEX
  5
3AB
330
3A6
100
AcDbEntity
  8
001
370
    50
100
AcDbVertex
100
AcDb2dVertex
 10
102.503036
 20
318.296198
 30
0.0
  0
VERTEX
  5
3AC
330
3A6
100
AcDbEntity
  8
001
370
    50
100
AcDbVertex
100
AcDb2dVertex
 10
102.428734
 20
318.325282
 30
0.0
  0
VERTEX
  5
3AD
330
3A6
100
AcDbEntity
  8
001
370
    50
100
AcDbVertex
100
AcDb2dVertex
 10
102.346695
 20
318.351685
 30
0.0
  0
VERTEX
  5
3AE
330
3A6
100
AcDbEntity
  8
001
370
    50
100
AcDbVertex
100
AcDb2dVertex
 10
102.263227
 20
318.373148
 30
0.0
  0
VERTEX
  5
3AF
330
3A6
100
AcDbEntity
  8
001
370
    50
100
AcDbVertex
100
AcDb2dVertex
 10
102.173952
 20
318.390515
 30
0.0
  0
VERTEX
  5
3B0
330
3A6
100
AcDbEntity
  8
001
370
    50
100
AcDbVertex
100
AcDb2dVertex
 10
102.08379
 20
318.401937
 30
0.0
  0
VERTEX
  5
3B1
330
3A6
100
AcDbEntity
  8
001
370
    50
100
AcDbVertex
100
AcDb2dVertex
 10
102.005175
 20
318.406989
 30
0.0
  0
VERTEX
  5
3B2
330
3A6
100
AcDbEntity
  8
001
370
    50
100
AcDbVertex
100
AcDb2dVertex
 10
101.926374
 20
318.409547
 30
0.0
  0
SEQEND
  5
3A7
330
3A6
100
AcDbEntity
  8
001
370
    50
  0
ARC
  5
3B3
330
1F
100
AcDbEntity
  8
001
370
    50
100
AcDbCircle
 10
124.154141
 20
320.200026
 30
0.0
 40
0.9999999999999974
100
AcDbArc
 50
0.0
 51
90.0
  0
ARC
  5
3B4
330
1F
100
AcDbEntity
  8
001
370
    50
100
AcDbCircle
 10
124.154141
 20
293.200026
 30
0.0
 40
0.9999999999999974
100
AcDbArc
 50
270.0
 51
0.0
  0
LINE
  5
3B5
330
1F
100
AcDbEntity
  8
001
370
    50
100
AcDbLine
 10
125.154141
 20
320.200026
 30
0.0
 11
125.154141
 21
293.200026
 31
0.0
  0
LINE
  5
3B6
330
1F
100
AcDbEntity
  8
001
  6
DASHED
370
    50
100
AcDbLine
 10
95.808973
 20
304.700026
 30
0.0
 11
95.804147
 21
304.700026
 31
0.0
  0
LINE
  5
3B7
330
1F
100
AcDbEntity
  8
001
370
    50
100
AcDbLine
 10
295.154141
 20
300.200026
 30
0.0
 11
295.154141
 21
313.200026
 31
0.0
  0
POLYLINE
  5
3B8
330
1F
100
AcDbEntity
  8
001
370
    50
100
AcDb2dPolyline
 66
     1
 10
0.0
 20
0.0
 30
0.0
  0
VERTEX
  5
3BA
330
3B8
100
AcDbEntity
  8
001
370
    50
100
AcDbVertex
100
AcDb2dVertex
 10
101.323065
 20
315.109547
 30
0.0
  0
VERTEX
  5
3BB
330
3B8
100
AcDbEntity
  8
001
370
    50
100
AcDbVertex
100
AcDb2dVertex
 10
101.406613
 20
315.112494
 30
0.0
  0
VERTEX
  5
3BC
330
3B8
100
AcDbEntity
  8
001
370
    50
100
AcDbVertex
100
AcDb2dVertex
 10
101.489975
 20
315.117882
 30
0.0
  0
VERTEX
  5
3BD
330
3B8
100
AcDbEntity
  8
001
370
    50
100
AcDbVertex
100
AcDb2dVertex
 10
101.59904
 20
315.131677
 30
0.0
  0
VERTEX
  5
3BE
330
3B8
100
AcDbEntity
  8
001
370
    50
100
AcDbVertex
100
AcDb2dVertex
 10
101.707036
 20
315.152772
 30
0.0
  0
VERTEX
  5
3BF
330
3B8
100
AcDbEntity
  8
001
370
    50
100
AcDbVertex
100
AcDb2dVertex
 10
101.819409
 20
315.181892
 30
0.0
  0
VERTEX
  5
3C0
330
3B8
100
AcDbEntity
  8
001
370
    50
100
AcDbVertex
100
AcDb2dVertex
 10
101.929766
 20
315.21777
 30
0.0
  0
VERTEX
  5
3C1
330
3B8
100
AcDbEntity
  8
001
370
    50
100
AcDbVertex
100
AcDb2dVertex
 10
102.035813
 20
315.259456
 30
0.0
  0
VERTEX
  5
3C2
330
3B8
100
AcDbEntity
  8
001
370
    50
100
AcDbVertex
100
AcDb2dVertex
 10
102.139232
 20
315.307328
 30
0.0
  0
VERTEX
  5
3C3
330
3B8
100
AcDbEntity
  8
001
370
    50
100
AcDbVertex
100
AcDb2dVertex
 10
102.25119
 20
315.367766
 30
0.0
  0
VERTEX
  5
3C4
330
3B8
100
AcDbEntity
  8
001
370
    50
100
AcDbVertex
100
AcDb2dVertex
 10
102.3591
 20
315.43517
 30
0.0
  0
VERTEX
  5
3C5
330
3B8
100
AcDbEntity
  8
001
370
    50
100
AcDbVertex
100
AcDb2dVertex
 10
102.459451
 20
315.506722
 30
0.0
  0
VERTEX
  5
3C6
330
3B8
100
AcDbEntity
  8
001
370
    50
100
AcDbVertex
100
AcDb2dVertex
 10
102.555347
 20
315.584158
 30
0.0
  0
VERTEX
  5
3C7
330
3B8
100
AcDbEntity
  8
001
370
    50
100
AcDbVertex
100
AcDb2dVertex
 10
102.682921
 20
315.703368
 30
0.0
  0
VERTEX
  5
3C8
330
3B8
100
AcDbEntity
  8
001
370
    50
100
AcDbVertex
100
AcDb2dVertex
 10
102.800133
 20
315.832851
 30
0.0
  0
VERTEX
  5
3C9
330
3B8
100
AcDbEntity
  8
001
370
    50
100
AcDbVertex
100
AcDb2dVertex
 10
102.900929
 20
315.964097
 30
0.0
  0
VERTEX
  5
3CA
330
3B8
100
AcDbEntity
  8
001
370
    50
100
AcDbVertex
100
AcDb2dVertex
 10
102.990967
 20
316.102885
 30
0.0
  0
VERTEX
  5
3CB
330
3B8
100
AcDbEntity
  8
001
370
    50
100
AcDbVertex
100
AcDb2dVertex
 10
103.055033
 20
316.219403
 30
0.0
  0
VERTEX
  5
3CC
330
3B8
100
AcDbEntity
  8
001
370
    50
100
AcDbVertex
100
AcDb2dVertex
 10
103.111314
 20
316.339867
 30
0.0
  0
VERTEX
  5
3CD
330
3B8
100
AcDbEntity
  8
001
370
    50
100
AcDbVertex
100
AcDb2dVertex
 10
103.157684
 20
316.458761
 30
0.0
  0
VERTEX
  5
3CE
330
3B8
100
AcDbEntity
  8
001
370
    50
100
AcDbVertex
100
AcDb2dVertex
 10
103.196202
 20
316.580411
 30
0.0
  0
VERTEX
  5
3CF
330
3B8
100
AcDbEntity
  8
001
370
    50
100
AcDbVertex
100
AcDb2dVertex
 10
103.225366
 20
316.698995
 30
0.0
  0
VERTEX
  5
3D0
330
3B8
100
AcDbEntity
  8
001
370
    50
100
AcDbVertex
100
AcDb2dVertex
 10
103.246644
 20
316.81928
 30
0.0
  0
VERTEX
  5
3D1
330
3B8
100
AcDbEntity
  8
001
370
    50
100
AcDbVertex
100
AcDb2dVertex
 10
103.262754
 20
316.996226
 30
0.0
  0
VERTEX
  5
3D2
330
3B8
100
AcDbEntity
  8
001
370
    50
100
AcDbVertex
100
AcDb2dVertex
 10
103.26016
 20
317.173927
 30
0.0
  0
VERTEX
  5
3D3
330
3B8
100
AcDbEntity
  8
001
370
    50
100
AcDbVertex
100
AcDb2dVertex
 10
103.23879
 20
317.344181
 30
0.0
  0
VERTEX
  5
3D4
330
3B8
100
AcDbEntity
  8
001
370
    50
100
AcDbVertex
100
AcDb2dVertex
 10
103.198131
 20
317.510819
 30
0.0
  0
VERTEX
  5
3D5
330
3B8
100
AcDbEntity
  8
001
370
    50
100
AcDbVertex
100
AcDb2dVertex
 10
103.152233
 20
317.637534
 30
0.0
  0
VERTEX
  5
3D6
330
3B8
100
AcDbEntity
  8
001
370
    50
100
AcDbVertex
100
AcDb2dVertex
 10
103.093735
 20
317.758884
 30
0.0
  0
VERTEX
  5
3D7
330
3B8
100
AcDbEntity
  8
001
370
    50
100
AcDbVertex
100
AcDb2dVertex
 10
103.020323
 20
317.876529
 30
0.0
  0
VERTEX
  5
3D8
330
3B8
100
AcDbEntity
  8
001
370
    50
100
AcDbVertex
100
AcDb2dVertex
 10
102.934438
 20
317.985453
 30
0.0
  0
VERTEX
  5
3D9
330
3B8
100
AcDbEntity
  8
001
370
    50
100
AcDbVertex
100
AcDb2dVertex
 10
102.883307
 20
318.039988
 30
0.0
  0
VERTEX
  5
3DA
330
3B8
100
AcDbEntity
  8
001
370
    50
100
AcDbVertex
100
AcDb2dVertex
 10
102.828642
 20
318.090801
 30
0.0
  0
VERTEX
  5
3DB
330
3B8
100
AcDbEntity
  8
001
370
    50
100
AcDbVertex
100
AcDb2dVertex
 10
102.767464
 20
318.139917
 30
0.0
  0
VERTEX
  5
3DC
330
3B8
100
AcDbEntity
  8
001
370
    50
100
AcDbVertex
100
AcDb2dVertex
 10
102.704193
 20
318.186532
 30
0.0
  0
SEQEND
  5
3B9
330
3B8
100
AcDbEntity
  8
001
370
    50
  0
POLYLINE
  5
3DD
330
1F
100
AcDbEntity
  8
001
370
    50
100
AcDb2dPolyline
 66
     1
 10
0.0
 20
0.0
 30
0.0
  0
VERTEX
  5
3DF
330
3DD
100
AcDbEntity
  8
001
370
    50
100
AcDbVertex
100
AcDb2dVertex
 10
101.926374
 20
318.409547
 30
0.0
  0
VERTEX
  5
3E0
330
3DD
100
AcDbEntity
  8
001
370
    50
100
AcDbVertex
100
AcDb2dVertex
 10
101.921216
 20
318.409479
 30
0.0
  0
VERTEX
  5
3E1
330
3DD
100
AcDbEntity
  8
001
370
    50
100
AcDbVertex
100
AcDb2dVertex
 10
101.916057
 20
318.409406
 30
0.0
  0
VERTEX
  5
3E2
330
3DD
100
AcDbEntity
  8
001
370
    50
100
AcDbVertex
100
AcDb2dVertex
 10
101.831532
 20
318.406582
 30
0.0
  0
VERTEX
  5
3E3
330
3DD
100
AcDbEntity
  8
001
370
    50
100
AcDbVertex
100
AcDb2dVertex
 10
101.747205
 20
318.400153
 30
0.0
  0
VERTEX
  5
3E4
330
3DD
100
AcDbEntity
  8
001
370
    50
100
AcDbVertex
100
AcDb2dVertex
 10
101.650575
 20
318.387596
 30
0.0
  0
VERTEX
  5
3E5
330
3DD
100
AcDbEntity
  8
001
370
    50
100
AcDbVertex
100
AcDb2dVertex
 10
101.554734
 20
318.369872
 30
0.0
  0
VERTEX
  5
3E6
330
3DD
100
AcDbEntity
  8
001
370
    50
100
AcDbVertex
100
AcDb2dVertex
 10
101.462726
 20
318.348243
 30
0.0
  0
VERTEX
  5
3E7
330
3DD
100
AcDbEntity
  8
001
370
    50
100
AcDbVertex
100
AcDb2dVertex
 10
101.371819
 20
318.322394
 30
0.0
  0
VERTEX
  5
3E8
330
3DD
100
AcDbEntity
  8
001
370
    50
100
AcDbVertex
100
AcDb2dVertex
 10
101.242786
 20
318.277796
 30
0.0
  0
VERTEX
  5
3E9
330
3DD
100
AcDbEntity
  8
001
370
    50
100
AcDbVertex
100
AcDb2dVertex
 10
101.116849
 20
318.225019
 30
0.0
  0
VERTEX
  5
3EA
330
3DD
100
AcDbEntity
  8
001
370
    50
100
AcDbVertex
100
AcDb2dVertex
 10
101.001205
 20
318.168116
 30
0.0
  0
VERTEX
  5
3EB
330
3DD
100
AcDbEntity
  8
001
370
    50
100
AcDbVertex
100
AcDb2dVertex
 10
100.889007
 20
318.104697
 30
0.0
  0
VERTEX
  5
3EC
330
3DD
100
AcDbEntity
  8
001
370
    50
100
AcDbVertex
100
AcDb2dVertex
 10
100.774644
 20
318.031037
 30
0.0
  0
VERTEX
  5
3ED
330
3DD
100
AcDbEntity
  8
001
370
    50
100
AcDbVertex
100
AcDb2dVertex
 10
100.66488
 20
317.950681
 30
0.0
  0
VERTEX
  5
3EE
330
3DD
100
AcDbEntity
  8
001
370
    50
100
AcDbVertex
100
AcDb2dVertex
 10
100.564512
 20
317.86764
 30
0.0
  0
VERTEX
  5
3EF
330
3DD
100
AcDbEntity
  8
001
370
    50
100
AcDbVertex
100
AcDb2dVertex
 10
100.469189
 20
317.778873
 30
0.0
  0
VERTEX
  5
3F0
330
3DD
100
AcDbEntity
  8
001
370
    50
100
AcDbVertex
100
AcDb2dVertex
 10
100.382592
 20
317.688276
 30
0.0
  0
VERTEX
  5
3F1
330
3DD
100
AcDbEntity
  8
001
370
    50
100
AcDbVertex
100
AcDb2dVertex
 10
100.301343
 20
317.592809
 30
0.0
  0
VERTEX
  5
3F2
330
3DD
100
AcDbEntity
  8
001
370
    50
100
AcDbVertex
100
AcDb2dVertex
 10
100.187656
 20
317.436954
 30
0.0
  0
VERTEX
  5
3F3
330
3DD
100
AcDbEntity
  8
001
370
    50
100
AcDbVertex
100
AcDb2dVertex
 10
100.089285
 20
317.270955
 30
0.0
  0
VERTEX
  5
3F4
330
3DD
100
AcDbEntity
  8
001
370
    50
100
AcDbVertex
100
AcDb2dVertex
 10
100.009694
 20
317.09966
 30
0.0
  0
VERTEX
  5
3F5
330
3DD
100
AcDbEntity
  8
001
370
    50
100
AcDbVertex
100
AcDb2dVertex
 10
99.94839
 20
316.921057
 30
0.0
  0
VERTEX
  5
3F6
330
3DD
100
AcDbEntity
  8
001
370
    50
100
AcDbVertex
100
AcDb2dVertex
 10
99.91099
 20
316.759223
 30
0.0
  0
VERTEX
  5
3F7
330
3DD
100
AcDbEntity
  8
001
370
    50
100
AcDbVertex
100
AcDb2dVertex
 10
99.890329
 20
316.594407
 30
0.0
  0
VERTEX
  5
3F8
330
3DD
100
AcDbEntity
  8
001
370
    50
100
AcDbVertex
100
AcDb2dVertex
 10
99.887693
 20
316.425027
 30
0.0
  0
VERTEX
  5
3F9
330
3DD
100
AcDbEntity
  8
001
370
    50
100
AcDbVertex
100
AcDb2dVertex
 10
99.904564
 20
316.256549
 30
0.0
  0
VERTEX
  5
3FA
330
3DD
100
AcDbEntity
  8
001
370
    50
100
AcDbVertex
100
AcDb2dVertex
 10
99.9306
 20
316.131692
 30
0.0
  0
VERTEX
  5
3FB
330
3DD
100
AcDbEntity
  8
001
370
    50
100
AcDbVertex
100
AcDb2dVertex
 10
99.968109
 20
316.009794
 30
0.0
  0
VERTEX
  5
3FC
330
3DD
100
AcDbEntity
  8
001
370
    50
100
AcDbVertex
100
AcDb2dVertex
 10
100.019363
 20
315.886899
 30
0.0
  0
VERTEX
  5
3FD
330
3DD
100
AcDbEntity
  8
001
370
    50
100
AcDbVertex
100
AcDb2dVertex
 10
100.082684
 20
315.769801
 30
0.0
  0
VERTEX
  5
3FE
330
3DD
100
AcDbEntity
  8
001
370
    50
100
AcDbVertex
100
AcDb2dVertex
 10
100.144302
 20
315.677698
 30
0.0
  0
VERTEX
  5
3FF
330
3DD
100
AcDbEntity
  8
001
370
    50
100
AcDbVertex
100
AcDb2dVertex
 10
100.213452
 20
315.591099
 30
0.0
  0
VERTEX
  5
400
330
3DD
100
AcDbEntity
  8
001
370
    50
100
AcDbVertex
100
AcDb2dVertex
 10
100.293394
 20
315.506792
 30
0.0
  0
VERTEX
  5
401
330
3DD
100
AcDbEntity
  8
001
370
    50
100
AcDbVertex
100
AcDb2dVertex
 10
100.380384
 20
315.429802
 30
0.0
  0
VERTEX
  5
402
330
3DD
100
AcDbEntity
  8
001
370
    50
100
AcDbVertex
100
AcDb2dVertex
 10
100.479555
 20
315.356876
 30
0.0
  0
VERTEX
  5
403
330
3DD
100
AcDbEntity
  8
001
370
    50
100
AcDbVertex
100
AcDb2dVertex
 10
100.584871
 20
315.293048
 30
0.0
  0
VERTEX
  5
404
330
3DD
100
AcDbEntity
  8
001
370
    50
100
AcDbVertex
100
AcDb2dVertex
 10
100.700119
 20
315.236303
 30
0.0
  0
VERTEX
  5
405
330
3DD
100
AcDbEntity
  8
001
370
    50
100
AcDbVertex
100
AcDb2dVertex
 10
100.819896
 20
315.190032
 30
0.0
  0
VERTEX
  5
406
330
3DD
100
AcDbEntity
  8
001
370
    50
100
AcDbVertex
100
AcDb2dVertex
 10
100.928857
 20
315.158105
 30
0.0
  0
VERTEX
  5
407
330
3DD
100
AcDbEntity
  8
001
370
    50
100
AcDbVertex
100
AcDb2dVertex
 10
101.039922
 20
315.134294
 30
0.0
  0
VERTEX
  5
408
330
3DD
100
AcDbEntity
  8
001
370
    50
100
AcDbVertex
100
AcDb2dVertex
 10
101.15438
 20
315.118089
 30
0.0
  0
VERTEX
  5
409
330
3DD
100
AcDbEntity
  8
001
370
    50
100
AcDbVertex
100
AcDb2dVertex
 10
101.269635
 20
315.110395
 30
0.0
  0
VERTEX
  5
40A
330
3DD
100
AcDbEntity
  8
001
370
    50
100
AcDbVertex
100
AcDb2dVertex
 10
101.296348
 20
315.109849
 30
0.0
  0
VERTEX
  5
40B
330
3DD
100
AcDbEntity
  8
001
370
    50
100
AcDbVertex
100
AcDb2dVertex
 10
101.323065
 20
315.109547
 30
0.0
  0
SEQEND
  5
3DE
330
3DD
100
AcDbEntity
  8
001
370
    50
  0
POLYLINE
  5
40C
330
1F
100
AcDbEntity
  8
001
370
    50
100
AcDb2dPolyline
 66
     1
 10
0.0
 20
0.0
 30
0.0
  0
VERTEX
  5
40E
330
40C
100
AcDbEntity
  8
001
370
    50
100
AcDbVertex
100
AcDb2dVertex
 10
96.482693
 20
302.927347
 30
0.0
  0
VERTEX
  5
40F
330
40C
100
AcDbEntity
  8
001
370
    50
100
AcDbVertex
100
AcDb2dVertex
 10
96.469446
 20
302.729558
 30
0.0
  0
VERTEX
  5
410
330
40C
100
AcDbEntity
  8
001
370
    50
100
AcDbVertex
100
AcDb2dVertex
 10
96.455828
 20
302.531794
 30
0.0
  0
VERTEX
  5
411
330
40C
100
AcDbEntity
  8
001
370
    50
100
AcDbVertex
100
AcDb2dVertex
 10
96.44063
 20
302.32143
 30
0.0
  0
VERTEX
  5
412
330
40C
100
AcDbEntity
  8
001
370
    50
100
AcDbVertex
100
AcDb2dVertex
 10
96.424821
 20
302.11111
 30
0.0
  0
VERTEX
  5
413
330
40C
100
AcDbEntity
  8
001
370
    50
100
AcDbVertex
100
AcDb2dVertex
 10
96.408993
 20
301.905561
 30
0.0
  0
VERTEX
  5
414
330
40C
100
AcDbEntity
  8
001
370
    50
100
AcDbVertex
100
AcDb2dVertex
 10
96.392983
 20
301.700026
 30
0.0
  0
SEQEND
  5
40D
330
40C
100
AcDbEntity
  8
001
370
    50
  0
LINE
  5
415
330
1F
100
AcDbEntity
  8
001
370
    50
100
AcDbLine
 10
114.684206
 20
304.700026
 30
0.0
 11
95.804141
 21
304.700026
 31
0.0
  0
LINE
  5
416
330
1F
100
AcDbEntity
  8
001
  6
DASHED
370
    30
100
AcDbLine
 10
96.482693
 20
310.343503
 30
0.0
 11
96.482693
 21
304.700026
 31
0.0
  0
LINE
  5
417
330
1F
100
AcDbEntity
  8
001
370
    50
100
AcDbLine
 10
96.482693
 20
304.700026
 30
0.0
 11
96.482693
 21
302.927347
 31
0.0
  0
LINE
  5
418
330
1F
100
AcDbEntity
  8
001
370
    50
100
AcDbLine
 10
127.154141
 20
294.200026
 30
0.0
 11
127.154141
 21
319.200026
 31
0.0
  0
LINE
  5
419
330
1F
100
AcDbEntity
  8
001
370
    50
100
AcDbLine
 10
289.154141
 20
319.200026
 30
0.0
 11
127.154141
 21
319.200026
 31
0.0
  0
LINE
  5
41A
330
1F
100
AcDbEntity
  8
001
370
    50
100
AcDbLine
 10
289.154141
 20
294.200026
 30
0.0
 11
127.154141
 21
294.200026
 31
0.0
  0
LINE
  5
41B
330
1F
100
AcDbEntity
  8
001
370
    50
100
AcDbLine
 10
295.154141
 20
306.700026
 30
0.0
 11
298.618242
 21
308.700026
 31
0.0
  0
LINE
  5
41C
330
1F
100
AcDbEntity
  8
001
370
    50
100
AcDbLine
 10
295.154141
 20
306.700026
 30
0.0
 11
298.618242
 21
304.700026
 31
0.0
  0
LINE
  5
41D
330
1F
100
AcDbEntity
  8
001
370
    50
100
AcDbLine
 10
127.154141
 20
318.700026
 30
0.0
 11
125.154141
 21
318.700026
 31
0.0
  0
LINE
  5
41E
330
1F
100
AcDbEntity
  8
001
370
    50
100
AcDbLine
 10
125.154141
 20
294.700026
 30
0.0
 11
127.154141
 21
294.700026
 31
0.0
  0
ARC
  5
41F
330
1F
100
AcDbEntity
  8
001
370
    50
100
AcDbCircle
 10
289.154141
 20
313.200026
 30
0.0
 40
6.0
100
AcDbArc
 50
0.0
 51
90.0
  0
ARC
  5
420
330
1F
100
AcDbEntity
  8
001
370
    50
100
AcDbCircle
 10
289.154141
 20
300.200026
 30
0.0
 40
6.0
100
AcDbArc
 50
270.0
 51
0.0
  0
LINE
  5
421
330
1F
100
AcDbEntity
  8
001
370
     9
100
AcDbLine
 10
85.092902
 20
291.810085
 30
0.0
 11
97.65699
 21
291.810085
 31
0.0
  0
LINE
  5
422
330
1F
100
AcDbEntity
  8
001
370
     9
100
AcDbLine
 10
95.154141
 20
291.750026
 30
0.0
 11
95.154141
 21
281.156667
 31
0.0
  0
LINE
  5
423
330
1F
100
AcDbEntity
  8
001
370
     9
100
AcDbLine
 10
97.65699
 20
291.810085
 30
0.0
 11
98.17299
 21
291.810085
 31
0.0
  0
LINE
  5
424
330
1F
100
AcDbEntity
  8
001
  6
CENTER
370
     9
100
AcDbLine
 10
94.580525
 20
306.700026
 30
0.0
 11
302.307996
 21
306.700026
 31
0.0
  0
LINE
  5
425
330
1F
100
AcDbEntity
  8
001
370
     9
100
AcDbLine
 10
85.092902
 20
291.810085
 30
0.0
 11
97.65699
 21
291.810085
 31
0.0
  0
TEXT
  5
426
330
1F
100
AcDbEntity
  8
001
370
    30
100
AcDbText
 10
50.04921
 20
351.548907
 30
0.0
 40
10.0
  1
すみっこ　ＳＫ２５－３０ＡＬＲＬ　（２枚刃）
 41
0.833333
100
AcDbText
  0
TEXT
  5
427
330
1F
100
AcDbEntity
  8
001
370
    30
100
AcDbText
 10
55.04921
 20
164.432926
 30
0.0
 40
10.0
  1
すみっこ　ＳＫ２５－３０ＡＬＲ　（２枚刃）
 41
0.833333
100
AcDbText
  0
ARC
  5
428
330
1F
100
AcDbEntity
  8
001
370
    50
100
AcDbCircle
 10
98.154141
 20
107.694045
 30
0.0
 40
3.0
100
AcDbArc
 50
175.36
 51
270.36
  0
ARC
  5
429
330
1F
100
AcDbEntity
  8
001
370
    50
100
AcDbCircle
 10
107.939121
 20
111.280597
 30
0.0
 40
3.0
100
AcDbArc
 50
355.36
 51
90.36
  0
ARC
  5
42A
330
1F
100
AcDbEntity
  8
001
370
    50
100
AcDbCircle
 10
96.041634
 20
113.805893
 30
0.0
 40
0.4
100
AcDbArc
 50
90.36
 51
175.36
  0
ARC
  5
42B
330
1F
100
AcDbEntity
  8
001
370
    50
100
AcDbCircle
 10
110.051628
 20
105.168749
 30
0.0
 40
0.4
100
AcDbArc
 50
270.36
 51
355.36
  0
LINE
  5
42C
330
1F
100
AcDbEntity
  8
001
370
    50
100
AcDbLine
 10
95.804141
 20
128.416694
 30
0.0
 11
95.804141
 21
114.127758
 31
0.0
  0
LINE
  5
42D
330
1F
100
AcDbEntity
  8
001
370
    50
100
AcDbLine
 10
96.363269
 20
114.207922
 30
0.0
 11
96.392983
 21
114.584045
 31
0.0
  0
ARC
  5
42E
330
1F
100
AcDbEntity
  8
001
370
    50
100
AcDbCircle
 10
98.154141
 20
131.474045
 30
0.0
 40
3.0
100
AcDbArc
 50
89.64
 51
184.64
  0
LINE
  5
42F
330
1F
100
AcDbEntity
  8
001
370
    50
100
AcDbLine
 10
110.332138
 20
134.397587
 30
0.0
 11
98.17299
 21
134.473986
 31
0.0
  0
ARC
  5
430
330
1F
100
AcDbEntity
  8
001
370
    50
100
AcDbCircle
 10
110.329624
 20
133.997595
 30
0.0
 40
0.4
100
AcDbArc
 50
4.64
 51
89.64
  0
LINE
  5
431
330
1F
100
AcDbEntity
  8
001
370
    50
100
AcDbLine
 10
110.728314
 20
134.029953
 30
0.0
 11
110.738797
 21
133.900779
 31
0.0
  0
POLYLINE
  5
432
330
1F
100
AcDbEntity
  8
001
370
    50
100
AcDb2dPolyline
 66
     1
 10
0.0
 20
0.0
 30
0.0
  0
VERTEX
  5
434
330
432
100
AcDbEntity
  8
001
370
    50
100
AcDbVertex
100
AcDb2dVertex
 10
109.495345
 20
133.296048
 30
0.0
  0
VERTEX
  5
435
330
432
100
AcDbEntity
  8
001
370
    50
100
AcDbVertex
100
AcDb2dVertex
 10
108.025932
 20
133.327639
 30
0.0
  0
VERTEX
  5
436
330
432
100
AcDbEntity
  8
001
370
    50
100
AcDbVertex
100
AcDb2dVertex
 10
105.878186
 20
133.36604
 30
0.0
  0
VERTEX
  5
437
330
432
100
AcDbEntity
  8
001
370
    50
100
AcDbVertex
100
AcDb2dVertex
 10
103.391181
 20
133.398755
 30
0.0
  0
VERTEX
  5
438
330
432
100
AcDbEntity
  8
001
370
    50
100
AcDbVertex
100
AcDb2dVertex
 10
102.085025
 20
133.409738
 30
0.0
  0
VERTEX
  5
439
330
432
100
AcDbEntity
  8
001
370
    50
100
AcDbVertex
100
AcDb2dVertex
 10
100.82517
 20
133.41665
 30
0.0
  0
SEQEND
  5
433
330
432
100
AcDbEntity
  8
001
370
    50
  0
ARC
  5
43A
330
1F
100
AcDbEntity
  8
001
370
    50
100
AcDbCircle
 10
100.804141
 20
128.416694
 30
0.0
 40
5.0
100
AcDbArc
 50
89.759019
 51
180.0
  0
LINE
  5
43B
330
1F
100
AcDbEntity
  8
001
370
    50
100
AcDbLine
 10
95.804141
 20
123.34371
 30
0.0
 11
95.163973
 21
131.231361
 31
0.0
  0
LINE
  5
43C
330
1F
100
AcDbEntity
  8
001
  6
DASHED
370
    30
100
AcDbLine
 10
96.482693
 20
123.227522
 30
0.0
 11
95.974393
 21
129.710348
 31
0.0
  0
LINE
  5
43D
330
1F
100
AcDbEntity
  8
001
370
     9
100
AcDbLine
 10
95.154141
 20
104.634045
 30
0.0
 11
95.154141
 21
107.694045
 31
0.0
  0
LINE
  5
43E
330
1F
100
AcDbEntity
  8
001
370
     9
100
AcDbLine
 10
95.154141
 20
104.694104
 30
0.0
 11
95.154141
 21
94.040687
 31
0.0
  0
LINE
  5
43F
330
1F
100
AcDbEntity
  8
001
370
     9
100
AcDbLine
 10
82.590052
 20
104.694104
 30
0.0
 11
98.17299
 21
104.694104
 31
0.0
  0
LINE
  5
440
330
1F
100
AcDbEntity
  8
001
370
    50
100
AcDbLine
 10
95.642945
 20
300.954231
 30
0.0
 11
95.163973
 21
295.05271
 31
0.0
  0
CIRCLE
  5
441
330
1F
100
AcDbEntity
  8
001
370
    50
100
AcDbCircle
 10
103.253525
 20
296.604601
 30
0.0
 40
3.0
  0
LINE
  5
442
330
1F
100
AcDbEntity
  8
001
370
    50
100
AcDbLine
 10
107.920271
 20
301.396518
 30
0.0
 11
96.039121
 21
301.321865
 31
0.0
  0
CIRCLE
  5
443
330
1F
100
AcDbEntity
  8
001
370
    50
100
AcDbCircle
 10
103.258522
 20
296.617864
 30
0.0
 40
2.5
  0
LINE
  5
444
330
1F
100
AcDbEntity
  8
001
370
    50
100
AcDbLine
 10
103.838789
 20
297.616174
 30
0.0
 11
103.522852
 21
298.167099
 31
0.0
  0
LINE
  5
445
330
1F
100
AcDbEntity
  8
001
370
    50
100
AcDbLine
 10
102.684093
 20
297.619544
 30
0.0
 11
103.003239
 21
298.168615
 31
0.0
  0
ARC
  5
446
330
1F
100
AcDbEntity
  8
001
370
    50
100
AcDbCircle
 10
103.262608
 20
298.017858
 30
0.0
 40
0.3
100
AcDbArc
 50
29.832778
 51
149.832778
  0
LINE
  5
447
330
1F
100
AcDbEntity
  8
001
370
    50
100
AcDbLine
 10
102.684093
 20
297.619544
 30
0.0
 11
102.04901
 21
297.621398
 31
0.0
  0
LINE
  5
448
330
1F
100
AcDbEntity
  8
001
370
    50
100
AcDbLine
 10
102.103827
 20
296.621234
 30
0.0
 11
101.78789
 21
297.172158
 31
0.0
  0
ARC
  5
449
330
1F
100
AcDbEntity
  8
001
370
    50
100
AcDbCircle
 10
102.048135
 20
297.321399
 30
0.0
 40
0.3
100
AcDbArc
 50
89.832778
 51
209.832778
  0
LINE
  5
44A
330
1F
100
AcDbEntity
  8
001
370
    50
100
AcDbLine
 10
102.103827
 20
296.621234
 30
0.0
 11
101.78468
 21
296.072163
 31
0.0
  0
LINE
  5
44B
330
1F
100
AcDbEntity
  8
001
370
    50
100
AcDbLine
 10
102.678256
 20
295.619553
 30
0.0
 11
102.043173
 21
295.621406
 31
0.0
  0
ARC
  5
44C
330
1F
100
AcDbEntity
  8
001
370
    50
100
AcDbCircle
 10
102.044049
 20
295.921405
 30
0.0
 40
0.3
100
AcDbArc
 50
149.832778
 51
269.832778
  0
LINE
  5
44D
330
1F
100
AcDbEntity
  8
001
370
    50
100
AcDbLine
 10
102.678256
 20
295.619553
 30
0.0
 11
102.994192
 21
295.068628
 31
0.0
  0
LINE
  5
44E
330
1F
100
AcDbEntity
  8
001
370
    50
100
AcDbLine
 10
103.832951
 20
295.616183
 30
0.0
 11
103.513805
 21
295.067112
 31
0.0
  0
ARC
  5
44F
330
1F
100
AcDbEntity
  8
001
370
    50
100
AcDbCircle
 10
103.254436
 20
295.217869
 30
0.0
 40
0.3
100
AcDbArc
 50
209.832778
 51
329.832778
  0
LINE
  5
450
330
1F
100
AcDbEntity
  8
001
370
    50
100
AcDbLine
 10
103.832951
 20
295.616183
 30
0.0
 11
104.468034
 21
295.614329
 31
0.0
  0
LINE
  5
451
330
1F
100
AcDbEntity
  8
001
370
    50
100
AcDbLine
 10
104.413218
 20
296.614493
 30
0.0
 11
104.729154
 21
296.063569
 31
0.0
  0
ARC
  5
452
330
1F
100
AcDbEntity
  8
001
370
    50
100
AcDbCircle
 10
104.46891
 20
295.914328
 30
0.0
 40
0.3
100
AcDbArc
 50
269.832778
 51
29.832778
  0
LINE
  5
453
330
1F
100
AcDbEntity
  8
001
370
    50
100
AcDbLine
 10
104.413218
 20
296.614493
 30
0.0
 11
104.732364
 21
297.163564
 31
0.0
  0
LINE
  5
454
330
1F
100
AcDbEntity
  8
001
370
    50
100
AcDbLine
 10
103.838789
 20
297.616174
 30
0.0
 11
104.473871
 21
297.614321
 31
0.0
  0
ARC
  5
455
330
1F
100
AcDbEntity
  8
001
370
    50
100
AcDbCircle
 10
104.472996
 20
297.314322
 30
0.0
 40
0.3
100
AcDbArc
 50
329.832778
 51
89.832778
  0
LINE
  5
456
330
1F
100
AcDbEntity
  8
001
370
    50
100
AcDbLine
 10
110.054141
 20
291.884737
 30
0.0
 11
98.17299
 21
291.810085
 31
0.0
  0
ARC
  5
457
330
1F
100
AcDbEntity
  8
001
370
    50
100
AcDbCircle
 10
98.154141
 20
294.810026
 30
0.0
 40
3.0
100
AcDbArc
 50
175.36
 51
270.36
  0
ARC
  5
458
330
1F
100
AcDbEntity
  8
001
370
    50
100
AcDbCircle
 10
96.041634
 20
300.921873
 30
0.0
 40
0.4
100
AcDbArc
 50
90.36
 51
175.36
  0
LINE
  5
459
330
1F
100
AcDbEntity
  8
001
370
    50
100
AcDbLine
 10
95.804141
 20
315.532674
 30
0.0
 11
95.804141
 21
301.243738
 31
0.0
  0
LINE
  5
45A
330
1F
100
AcDbEntity
  8
001
370
    50
100
AcDbLine
 10
96.363269
 20
301.323902
 30
0.0
 11
96.392983
 21
301.700026
 31
0.0
  0
ARC
  5
45B
330
1F
100
AcDbEntity
  8
001
370
    50
100
AcDbCircle
 10
98.154141
 20
318.590026
 30
0.0
 40
3.0
100
AcDbArc
 50
89.64
 51
184.64
  0
LINE
  5
45C
330
1F
100
AcDbEntity
  8
001
370
    50
100
AcDbLine
 10
110.332138
 20
321.513567
 30
0.0
 11
98.17299
 21
321.589967
 31
0.0
  0
ARC
  5
45D
330
1F
100
AcDbEntity
  8
001
370
    50
100
AcDbCircle
 10
110.329624
 20
321.113575
 30
0.0
 40
0.4
100
AcDbArc
 50
4.64
 51
89.64
  0
ARC
  5
45E
330
1F
100
AcDbEntity
  8
001
370
    50
100
AcDbCircle
 10
100.804141
 20
315.532674
 30
0.0
 40
5.0
100
AcDbArc
 50
89.759128
 51
180.0
  0
LINE
  5
45F
330
1F
100
AcDbEntity
  8
001
370
    50
100
AcDbLine
 10
95.804141
 20
310.45969
 30
0.0
 11
95.163973
 21
318.347341
 31
0.0
  0
POLYLINE
  5
460
330
1F
100
AcDbEntity
  8
001
370
    50
100
AcDb2dPolyline
 66
     1
 10
0.0
 20
0.0
 30
0.0
  0
VERTEX
  5
462
330
460
100
AcDbEntity
  8
001
370
    50
100
AcDbVertex
100
AcDb2dVertex
 10
109.495345
 20
320.412029
 30
0.0
  0
VERTEX
  5
463
330
460
100
AcDbEntity
  8
001
370
    50
100
AcDbVertex
100
AcDb2dVertex
 10
108.025932
 20
320.443619
 30
0.0
  0
VERTEX
  5
464
330
460
100
AcDbEntity
  8
001
370
    50
100
AcDbVertex
100
AcDb2dVertex
 10
105.878186
 20
320.482021
 30
0.0
  0
VERTEX
  5
465
330
460
100
AcDbEntity
  8
001
370
    50
100
AcDbVertex
100
AcDb2dVertex
 10
103.391181
 20
320.514736
 30
0.0
  0
VERTEX
  5
466
330
460
100
AcDbEntity
  8
001
370
    50
100
AcDbVertex
100
AcDb2dVertex
 10
102.08502
 20
320.525718
 30
0.0
  0
VERTEX
  5
467
330
460
100
AcDbEntity
  8
001
370
    50
100
AcDbVertex
100
AcDb2dVertex
 10
100.825161
 20
320.53263
 30
0.0
  0
SEQEND
  5
461
330
460
100
AcDbEntity
  8
001
370
    50
  0
LINE
  5
468
330
1F
100
AcDbEntity
  8
001
  6
DASHED
370
    30
100
AcDbLine
 10
96.482693
 20
310.343503
 30
0.0
 11
95.974393
 21
316.826328
 31
0.0
  0
LINE
  5
469
330
1F
100
AcDbEntity
  8
001
370
    50
100
AcDbLine
 10
110.728314
 20
321.145933
 30
0.0
 11
110.738797
 21
321.01676
 31
0.0
  0
LINE
  5
46A
330
1F
100
AcDbEntity
  8
001
370
     9
100
AcDbLine
 10
95.154141
 20
291.750026
 30
0.0
 11
95.154141
 21
294.810026
 31
0.0
  0
ARC
  5
46B
330
1F
100
AcDbEntity
  8
001
370
    50
100
AcDbCircle
 10
109.692534
 20
112.546699
 30
0.0
 40
3.0
100
AcDbArc
 50
292.205407
 51
144.79356
  0
POLYLINE
  5
46C
330
1F
100
AcDbEntity
  8
001
370
    50
100
AcDb2dPolyline
 66
     1
 10
0.0
 20
0.0
 30
0.0
  0
VERTEX
  5
46E
330
46C
100
AcDbEntity
  8
001
370
    50
100
AcDbVertex
100
AcDb2dVertex
 10
110.460923
 20
105.267068
 30
0.0
  0
VERTEX
  5
46F
330
46C
100
AcDbEntity
  8
001
370
    50
100
AcDbVertex
100
AcDb2dVertex
 10
110.599725
 20
105.265531
 30
0.0
  0
VERTEX
  5
470
330
46C
100
AcDbEntity
  8
001
370
    50
100
AcDbVertex
100
AcDb2dVertex
 10
110.738528
 20
105.263993
 30
0.0
  0
VERTEX
  5
471
330
46C
100
AcDbEntity
  8
001
370
    50
100
AcDbVertex
100
AcDb2dVertex
 10
110.844464
 20
105.26282
 30
0.0
  0
VERTEX
  5
472
330
46C
100
AcDbEntity
  8
001
370
    50
100
AcDbVertex
100
AcDb2dVertex
 10
110.950399
 20
105.261646
 30
0.0
  0
VERTEX
  5
473
330
46C
100
AcDbEntity
  8
001
370
    50
100
AcDbVertex
100
AcDb2dVertex
 10
111.019585
 20
105.26088
 30
0.0
  0
VERTEX
  5
474
330
46C
100
AcDbEntity
  8
001
370
    50
100
AcDbVertex
100
AcDb2dVertex
 10
111.08877
 20
105.260114
 30
0.0
  0
VERTEX
  5
475
330
46C
100
AcDbEntity
  8
001
370
    50
100
AcDbVertex
100
AcDb2dVertex
 10
111.751515
 20
105.253169
 30
0.0
  0
VERTEX
  5
476
330
46C
100
AcDbEntity
  8
001
370
    50
100
AcDbVertex
100
AcDb2dVertex
 10
112.54278
 20
105.245991
 30
0.0
  0
VERTEX
  5
477
330
46C
100
AcDbEntity
  8
001
370
    50
100
AcDbVertex
100
AcDb2dVertex
 10
113.607244
 20
105.238589
 30
0.0
  0
VERTEX
  5
478
330
46C
100
AcDbEntity
  8
001
370
    50
100
AcDbVertex
100
AcDb2dVertex
 10
114.335571
 20
105.234775
 30
0.0
  0
SEQEND
  5
46D
330
46C
100
AcDbEntity
  8
001
370
    50
  0
LINE
  5
479
330
1F
100
AcDbEntity
  8
001
370
    50
100
AcDbLine
 10
110.450317
 20
292.252372
 30
0.0
 11
110.929289
 21
298.153893
 31
0.0
  0
ARC
  5
47A
330
1F
100
AcDbEntity
  8
001
370
    50
100
AcDbCircle
 10
107.939121
 20
298.396577
 30
0.0
 40
3.0
100
AcDbArc
 50
355.36
 51
90.36
  0
ARC
  5
47B
330
1F
100
AcDbEntity
  8
001
370
    50
100
AcDbCircle
 10
110.051628
 20
292.28473
 30
0.0
 40
0.4
100
AcDbArc
 50
270.36
 51
355.36
  0
ARC
  5
47C
330
1F
100
AcDbEntity
  8
001
370
    50
100
AcDbCircle
 10
109.692534
 20
299.662679
 30
0.0
 40
3.0
100
AcDbArc
 50
292.205407
 51
144.79356
  0
POLYLINE
  5
47D
330
1F
100
AcDbEntity
  8
001
370
    50
100
AcDb2dPolyline
 66
     1
 10
0.0
 20
0.0
 30
0.0
  0
VERTEX
  5
47F
330
47D
100
AcDbEntity
  8
001
370
    50
100
AcDbVertex
100
AcDb2dVertex
 10
110.460923
 20
292.383049
 30
0.0
  0
VERTEX
  5
480
330
47D
100
AcDbEntity
  8
001
370
    50
100
AcDbVertex
100
AcDb2dVertex
 10
110.599725
 20
292.381511
 30
0.0
  0
VERTEX
  5
481
330
47D
100
AcDbEntity
  8
001
370
    50
100
AcDbVertex
100
AcDb2dVertex
 10
110.738528
 20
292.379974
 30
0.0
  0
VERTEX
  5
482
330
47D
100
AcDbEntity
  8
001
370
    50
100
AcDbVertex
100
AcDb2dVertex
 10
110.844464
 20
292.3788
 30
0.0
  0
VERTEX
  5
483
330
47D
100
AcDbEntity
  8
001
370
    50
100
AcDbVertex
100
AcDb2dVertex
 10
110.950399
 20
292.377627
 30
0.0
  0
VERTEX
  5
484
330
47D
100
AcDbEntity
  8
001
370
    50
100
AcDbVertex
100
AcDb2dVertex
 10
111.019585
 20
292.376861
 30
0.0
  0
VERTEX
  5
485
330
47D
100
AcDbEntity
  8
001
370
    50
100
AcDbVertex
100
AcDb2dVertex
 10
111.08877
 20
292.376094
 30
0.0
  0
VERTEX
  5
486
330
47D
100
AcDbEntity
  8
001
370
    50
100
AcDbVertex
100
AcDb2dVertex
 10
111.751515
 20
292.36915
 30
0.0
  0
VERTEX
  5
487
330
47D
100
AcDbEntity
  8
001
370
    50
100
AcDbVertex
100
AcDb2dVertex
 10
112.54278
 20
292.361971
 30
0.0
  0
VERTEX
  5
488
330
47D
100
AcDbEntity
  8
001
370
    50
100
AcDbVertex
100
AcDb2dVertex
 10
113.607244
 20
292.35457
 30
0.0
  0
VERTEX
  5
489
330
47D
100
AcDbEntity
  8
001
370
    50
100
AcDbVertex
100
AcDb2dVertex
 10
114.335571
 20
292.350755
 30
0.0
  0
SEQEND
  5
47E
330
47D
100
AcDbEntity
  8
001
370
    50
  0
POLYLINE
  5
48A
330
1F
100
AcDbEntity
  8
001
370
    50
100
AcDb2dPolyline
 66
     1
 10
0.0
 20
0.0
 30
0.0
  0
VERTEX
  5
48C
330
48A
100
AcDbEntity
  8
001
370
    50
100
AcDbVertex
100
AcDb2dVertex
 10
425.821515
 20
74.837891
 30
0.0
  0
VERTEX
  5
48D
330
48A
100
AcDbEntity
  8
001
370
    50
100
AcDbVertex
100
AcDb2dVertex
 10
425.824514
 20
74.837804
 30
0.0
  0
VERTEX
  5
48E
330
48A
100
AcDbEntity
  8
001
370
    50
100
AcDbVertex
100
AcDb2dVertex
 10
425.828898
 20
74.83771
 30
0.0
  0
VERTEX
  5
48F
330
48A
100
AcDbEntity
  8
001
370
    50
100
AcDbVertex
100
AcDb2dVertex
 10
425.833281
 20
74.837661
 30
0.0
  0
VERTEX
  5
490
330
48A
100
AcDbEntity
  8
001
370
    50
100
AcDbVertex
100
AcDb2dVertex
 10
425.836281
 20
74.837649
 30
0.0
  0
SEQEND
  5
48B
330
48A
100
AcDbEntity
  8
001
370
    50
  0
POLYLINE
  5
491
330
1F
100
AcDbEntity
  8
001
370
    50
100
AcDb2dPolyline
 66
     1
 10
0.0
 20
0.0
 30
0.0
  0
VERTEX
  5
493
330
491
100
AcDbEntity
  8
001
370
    50
100
AcDbVertex
100
AcDb2dVertex
 10
425.836281
 20
103.837649
 30
0.0
  0
VERTEX
  5
494
330
491
100
AcDbEntity
  8
001
370
    50
100
AcDbVertex
100
AcDb2dVertex
 10
425.833281
 20
103.837638
 30
0.0
  0
VERTEX
  5
495
330
491
100
AcDbEntity
  8
001
370
    50
100
AcDbVertex
100
AcDb2dVertex
 10
425.828898
 20
103.837589
 30
0.0
  0
VERTEX
  5
496
330
491
100
AcDbEntity
  8
001
370
    50
100
AcDbVertex
100
AcDb2dVertex
 10
425.824514
 20
103.837494
 30
0.0
  0
VERTEX
  5
497
330
491
100
AcDbEntity
  8
001
370
    50
100
AcDbVertex
100
AcDb2dVertex
 10
425.821515
 20
103.837407
 30
0.0
  0
SEQEND
  5
492
330
491
100
AcDbEntity
  8
001
370
    50
  0
LINE
  5
498
330
1F
100
AcDbEntity
  8
001
370
    50
100
AcDbLine
 10
429.715106
 20
103.837649
 30
0.0
 11
425.836281
 21
103.837649
 31
0.0
  0
LINE
  5
499
330
1F
100
AcDbEntity
  8
001
370
    50
100
AcDbLine
 10
425.836281
 20
74.837649
 30
0.0
 11
429.715106
 21
74.837649
 31
0.0
  0
POLYLINE
  5
49A
330
1F
100
AcDbEntity
  8
001
370
    50
100
AcDb2dPolyline
 66
     1
 10
0.0
 20
0.0
 30
0.0
  0
VERTEX
  5
49C
330
49A
100
AcDbEntity
  8
001
370
    50
100
AcDbVertex
100
AcDb2dVertex
 10
419.896536
 20
74.988378
 30
0.0
  0
VERTEX
  5
49D
330
49A
100
AcDbEntity
  8
001
370
    50
100
AcDbVertex
100
AcDb2dVertex
 10
420.394727
 20
75.001456
 30
0.0
  0
VERTEX
  5
49E
330
49A
100
AcDbEntity
  8
001
370
    50
100
AcDbVertex
100
AcDb2dVertex
 10
421.122827
 20
75.021469
 30
0.0
  0
VERTEX
  5
49F
330
49A
100
AcDbEntity
  8
001
370
    50
100
AcDbVertex
100
AcDb2dVertex
 10
421.849184
 20
75.042686
 30
0.0
  0
VERTEX
  5
4A0
330
49A
100
AcDbEntity
  8
001
370
    50
100
AcDbVertex
100
AcDb2dVertex
 10
422.346147
 20
75.057817
 30
0.0
  0
SEQEND
  5
49B
330
49A
100
AcDbEntity
  8
001
370
    50
  0
POLYLINE
  5
4A1
330
1F
100
AcDbEntity
  8
001
370
    50
100
AcDb2dPolyline
 66
     1
 10
0.0
 20
0.0
 30
0.0
  0
VERTEX
  5
4A3
330
4A1
100
AcDbEntity
  8
001
370
    50
100
AcDbVertex
100
AcDb2dVertex
 10
422.346147
 20
75.057817
 30
0.0
  0
VERTEX
  5
4A4
330
4A1
100
AcDbEntity
  8
001
370
    50
100
AcDbVertex
100
AcDb2dVertex
 10
422.594534
 20
75.062945
 30
0.0
  0
VERTEX
  5
4A5
330
4A1
100
AcDbEntity
  8
001
370
    50
100
AcDbVertex
100
AcDb2dVertex
 10
422.84294
 20
75.065793
 30
0.0
  0
VERTEX
  5
4A6
330
4A1
100
AcDbEntity
  8
001
370
    50
100
AcDbVertex
100
AcDb2dVertex
 10
423.091698
 20
75.064543
 30
0.0
  0
VERTEX
  5
4A7
330
4A1
100
AcDbEntity
  8
001
370
    50
100
AcDbVertex
100
AcDb2dVertex
 10
423.340416
 20
75.05923
 30
0.0
  0
VERTEX
  5
4A8
330
4A1
100
AcDbEntity
  8
001
370
    50
100
AcDbVertex
100
AcDb2dVertex
 10
423.582388
 20
75.050568
 30
0.0
  0
VERTEX
  5
4A9
330
4A1
100
AcDbEntity
  8
001
370
    50
100
AcDbVertex
100
AcDb2dVertex
 10
423.824212
 20
75.03857
 30
0.0
  0
VERTEX
  5
4AA
330
4A1
100
AcDbEntity
  8
001
370
    50
100
AcDbVertex
100
AcDb2dVertex
 10
424.052855
 20
75.024172
 30
0.0
  0
VERTEX
  5
4AB
330
4A1
100
AcDbEntity
  8
001
370
    50
100
AcDbVertex
100
AcDb2dVertex
 10
424.281294
 20
75.006833
 30
0.0
  0
VERTEX
  5
4AC
330
4A1
100
AcDbEntity
  8
001
370
    50
100
AcDbVertex
100
AcDb2dVertex
 10
424.491422
 20
74.988317
 30
0.0
  0
VERTEX
  5
4AD
330
4A1
100
AcDbEntity
  8
001
370
    50
100
AcDbVertex
100
AcDb2dVertex
 10
424.701337
 20
74.967535
 30
0.0
  0
VERTEX
  5
4AE
330
4A1
100
AcDbEntity
  8
001
370
    50
100
AcDbVertex
100
AcDb2dVertex
 10
424.886021
 20
74.947524
 30
0.0
  0
VERTEX
  5
4AF
330
4A1
100
AcDbEntity
  8
001
370
    50
100
AcDbVertex
100
AcDb2dVertex
 10
425.070541
 20
74.926049
 30
0.0
  0
VERTEX
  5
4B0
330
4A1
100
AcDbEntity
  8
001
370
    50
100
AcDbVertex
100
AcDb2dVertex
 10
425.226126
 20
74.906944
 30
0.0
  0
VERTEX
  5
4B1
330
4A1
100
AcDbEntity
  8
001
370
    50
100
AcDbVertex
100
AcDb2dVertex
 10
425.381642
 20
74.887328
 30
0.0
  0
VERTEX
  5
4B2
330
4A1
100
AcDbEntity
  8
001
370
    50
100
AcDbVertex
100
AcDb2dVertex
 10
425.501625
 20
74.872126
 30
0.0
  0
VERTEX
  5
4B3
330
4A1
100
AcDbEntity
  8
001
370
    50
100
AcDbVertex
100
AcDb2dVertex
 10
425.621646
 20
74.857124
 30
0.0
  0
VERTEX
  5
4B4
330
4A1
100
AcDbEntity
  8
001
370
    50
100
AcDbVertex
100
AcDb2dVertex
 10
425.681238
 20
74.849978
 30
0.0
  0
VERTEX
  5
4B5
330
4A1
100
AcDbEntity
  8
001
370
    50
100
AcDbVertex
100
AcDb2dVertex
 10
425.740929
 20
74.843857
 30
0.0
  0
VERTEX
  5
4B6
330
4A1
100
AcDbEntity
  8
001
370
    50
100
AcDbVertex
100
AcDb2dVertex
 10
425.781202
 20
74.840654
 30
0.0
  0
VERTEX
  5
4B7
330
4A1
100
AcDbEntity
  8
001
370
    50
100
AcDbVertex
100
AcDb2dVertex
 10
425.821515
 20
74.837891
 30
0.0
  0
SEQEND
  5
4A2
330
4A1
100
AcDbEntity
  8
001
370
    50
  0
POLYLINE
  5
4B8
330
1F
100
AcDbEntity
  8
001
370
    50
100
AcDb2dPolyline
 66
     1
 10
0.0
 20
0.0
 30
0.0
  0
VERTEX
  5
4BA
330
4B8
100
AcDbEntity
  8
001
370
    50
100
AcDbVertex
100
AcDb2dVertex
 10
425.836281
 20
74.837649
 30
0.0
  0
VERTEX
  5
4BB
330
4B8
100
AcDbEntity
  8
001
370
    50
100
AcDbVertex
100
AcDb2dVertex
 10
426.065366
 20
74.927237
 30
0.0
  0
VERTEX
  5
4BC
330
4B8
100
AcDbEntity
  8
001
370
    50
100
AcDbVertex
100
AcDb2dVertex
 10
426.350354
 20
75.133772
 30
0.0
  0
VERTEX
  5
4BD
330
4B8
100
AcDbEntity
  8
001
370
    50
100
AcDbVertex
100
AcDb2dVertex
 10
426.668994
 20
75.55756
 30
0.0
  0
VERTEX
  5
4BE
330
4B8
100
AcDbEntity
  8
001
370
    50
100
AcDbVertex
100
AcDb2dVertex
 10
426.843431
 20
76.010046
 30
0.0
  0
VERTEX
  5
4BF
330
4B8
100
AcDbEntity
  8
001
370
    50
100
AcDbVertex
100
AcDb2dVertex
 10
427.07284
 20
76.686544
 30
0.0
  0
VERTEX
  5
4C0
330
4B8
100
AcDbEntity
  8
001
370
    50
100
AcDbVertex
100
AcDb2dVertex
 10
427.29537
 20
77.43068
 30
0.0
  0
VERTEX
  5
4C1
330
4B8
100
AcDbEntity
  8
001
370
    50
100
AcDbVertex
100
AcDb2dVertex
 10
427.540699
 20
78.528006
 30
0.0
  0
VERTEX
  5
4C2
330
4B8
100
AcDbEntity
  8
001
370
    50
100
AcDbVertex
100
AcDb2dVertex
 10
427.687714
 20
79.337649
 30
0.0
  0
SEQEND
  5
4B9
330
4B8
100
AcDbEntity
  8
001
370
    50
  0
POLYLINE
  5
4C3
330
1F
100
AcDbEntity
  8
001
370
    50
100
AcDb2dPolyline
 66
     1
 10
0.0
 20
0.0
 30
0.0
  0
VERTEX
  5
4C5
330
4C3
100
AcDbEntity
  8
001
370
    50
100
AcDbVertex
100
AcDb2dVertex
 10
420.245171
 20
87.337649
 30
0.0
  0
VERTEX
  5
4C6
330
4C3
100
AcDbEntity
  8
001
370
    50
100
AcDbVertex
100
AcDb2dVertex
 10
420.576493
 20
87.328353
 30
0.0
  0
VERTEX
  5
4C7
330
4C3
100
AcDbEntity
  8
001
370
    50
100
AcDbVertex
100
AcDb2dVertex
 10
420.907268
 20
87.310583
 30
0.0
  0
VERTEX
  5
4C8
330
4C3
100
AcDbEntity
  8
001
370
    50
100
AcDbVertex
100
AcDb2dVertex
 10
421.238036
 20
87.277544
 30
0.0
  0
VERTEX
  5
4C9
330
4C3
100
AcDbEntity
  8
001
370
    50
100
AcDbVertex
100
AcDb2dVertex
 10
421.567175
 20
87.229855
 30
0.0
  0
VERTEX
  5
4CA
330
4C3
100
AcDbEntity
  8
001
370
    50
100
AcDbVertex
100
AcDb2dVertex
 10
421.893997
 20
87.169444
 30
0.0
  0
VERTEX
  5
4CB
330
4C3
100
AcDbEntity
  8
001
370
    50
100
AcDbVertex
100
AcDb2dVertex
 10
422.218106
 20
87.096167
 30
0.0
  0
VERTEX
  5
4CC
330
4C3
100
AcDbEntity
  8
001
370
    50
100
AcDbVertex
100
AcDb2dVertex
 10
422.537636
 20
87.009876
 30
0.0
  0
VERTEX
  5
4CD
330
4C3
100
AcDbEntity
  8
001
370
    50
100
AcDbVertex
100
AcDb2dVertex
 10
422.853276
 20
86.910222
 30
0.0
  0
VERTEX
  5
4CE
330
4C3
100
AcDbEntity
  8
001
370
    50
100
AcDbVertex
100
AcDb2dVertex
 10
423.164949
 20
86.797066
 30
0.0
  0
VERTEX
  5
4CF
330
4C3
100
AcDbEntity
  8
001
370
    50
100
AcDbVertex
100
AcDb2dVertex
 10
423.471552
 20
86.670823
 30
0.0
  0
VERTEX
  5
4D0
330
4C3
100
AcDbEntity
  8
001
370
    50
100
AcDbVertex
100
AcDb2dVertex
 10
423.773251
 20
86.531444
 30
0.0
  0
VERTEX
  5
4D1
330
4C3
100
AcDbEntity
  8
001
370
    50
100
AcDbVertex
100
AcDb2dVertex
 10
424.068802
 20
86.37946
 30
0.0
  0
VERTEX
  5
4D2
330
4C3
100
AcDbEntity
  8
001
370
    50
100
AcDbVertex
100
AcDb2dVertex
 10
424.356781
 20
86.215618
 30
0.0
  0
VERTEX
  5
4D3
330
4C3
100
AcDbEntity
  8
001
370
    50
100
AcDbVertex
100
AcDb2dVertex
 10
424.637492
 20
86.039608
 30
0.0
  0
VERTEX
  5
4D4
330
4C3
100
AcDbEntity
  8
001
370
    50
100
AcDbVertex
100
AcDb2dVertex
 10
424.908087
 20
85.853107
 30
0.0
  0
VERTEX
  5
4D5
330
4C3
100
AcDbEntity
  8
001
370
    50
100
AcDbVertex
100
AcDb2dVertex
 10
425.170088
 20
85.654739
 30
0.0
  0
VERTEX
  5
4D6
330
4C3
100
AcDbEntity
  8
001
370
    50
100
AcDbVertex
100
AcDb2dVertex
 10
425.407969
 20
85.457418
 30
0.0
  0
VERTEX
  5
4D7
330
4C3
100
AcDbEntity
  8
001
370
    50
100
AcDbVertex
100
AcDb2dVertex
 10
425.637171
 20
85.250075
 30
0.0
  0
VERTEX
  5
4D8
330
4C3
100
AcDbEntity
  8
001
370
    50
100
AcDbVertex
100
AcDb2dVertex
 10
425.856584
 20
85.033966
 30
0.0
  0
VERTEX
  5
4D9
330
4C3
100
AcDbEntity
  8
001
370
    50
100
AcDbVertex
100
AcDb2dVertex
 10
426.066664
 20
84.808776
 30
0.0
  0
VERTEX
  5
4DA
330
4C3
100
AcDbEntity
  8
001
370
    50
100
AcDbVertex
100
AcDb2dVertex
 10
426.264891
 20
84.577443
 30
0.0
  0
VERTEX
  5
4DB
330
4C3
100
AcDbEntity
  8
001
370
    50
100
AcDbVertex
100
AcDb2dVertex
 10
426.453053
 20
84.337855
 30
0.0
  0
VERTEX
  5
4DC
330
4C3
100
AcDbEntity
  8
001
370
    50
100
AcDbVertex
100
AcDb2dVertex
 10
426.627419
 20
84.09484
 30
0.0
  0
VERTEX
  5
4DD
330
4C3
100
AcDbEntity
  8
001
370
    50
100
AcDbVertex
100
AcDb2dVertex
 10
426.790824
 20
83.844325
 30
0.0
  0
VERTEX
  5
4DE
330
4C3
100
AcDbEntity
  8
001
370
    50
100
AcDbVertex
100
AcDb2dVertex
 10
426.96791
 20
83.540977
 30
0.0
  0
VERTEX
  5
4DF
330
4C3
100
AcDbEntity
  8
001
370
    50
100
AcDbVertex
100
AcDb2dVertex
 10
427.128705
 20
83.228654
 30
0.0
  0
VERTEX
  5
4E0
330
4C3
100
AcDbEntity
  8
001
370
    50
100
AcDbVertex
100
AcDb2dVertex
 10
427.269954
 20
82.91555
 30
0.0
  0
VERTEX
  5
4E1
330
4C3
100
AcDbEntity
  8
001
370
    50
100
AcDbVertex
100
AcDb2dVertex
 10
427.39496
 20
82.595626
 30
0.0
  0
VERTEX
  5
4E2
330
4C3
100
AcDbEntity
  8
001
370
    50
100
AcDbVertex
100
AcDb2dVertex
 10
427.499889
 20
82.280466
 30
0.0
  0
VERTEX
  5
4E3
330
4C3
100
AcDbEntity
  8
001
370
    50
100
AcDbVertex
100
AcDb2dVertex
 10
427.588427
 20
81.960336
 30
0.0
  0
VERTEX
  5
4E4
330
4C3
100
AcDbEntity
  8
001
370
    50
100
AcDbVertex
100
AcDb2dVertex
 10
427.65724
 20
81.650117
 30
0.0
  0
VERTEX
  5
4E5
330
4C3
100
AcDbEntity
  8
001
370
    50
100
AcDbVertex
100
AcDb2dVertex
 10
427.710539
 20
81.336845
 30
0.0
  0
VERTEX
  5
4E6
330
4C3
100
AcDbEntity
  8
001
370
    50
100
AcDbVertex
100
AcDb2dVertex
 10
427.747393
 20
81.032082
 30
0.0
  0
VERTEX
  5
4E7
330
4C3
100
AcDbEntity
  8
001
370
    50
100
AcDbVertex
100
AcDb2dVertex
 10
427.769705
 20
80.725934
 30
0.0
  0
VERTEX
  5
4E8
330
4C3
100
AcDbEntity
  8
001
370
    50
100
AcDbVertex
100
AcDb2dVertex
 10
427.777331
 20
80.43145
 30
0.0
  0
VERTEX
  5
4E9
330
4C3
100
AcDbEntity
  8
001
370
    50
100
AcDbVertex
100
AcDb2dVertex
 10
427.771729
 20
80.136896
 30
0.0
  0
VERTEX
  5
4EA
330
4C3
100
AcDbEntity
  8
001
370
    50
100
AcDbVertex
100
AcDb2dVertex
 10
427.760123
 20
79.933199
 30
0.0
  0
VERTEX
  5
4EB
330
4C3
100
AcDbEntity
  8
001
370
    50
100
AcDbVertex
100
AcDb2dVertex
 10
427.741449
 20
79.730097
 30
0.0
  0
VERTEX
  5
4EC
330
4C3
100
AcDbEntity
  8
001
370
    50
100
AcDbVertex
100
AcDb2dVertex
 10
427.71646
 20
79.53365
 30
0.0
  0
VERTEX
  5
4ED
330
4C3
100
AcDbEntity
  8
001
370
    50
100
AcDbVertex
100
AcDb2dVertex
 10
427.687714
 20
79.337649
 30
0.0
  0
SEQEND
  5
4C4
330
4C3
100
AcDbEntity
  8
001
370
    50
  0
LINE
  5
4EE
330
1F
100
AcDbEntity
  8
001
370
    50
100
AcDbLine
 10
419.896536
 20
103.68692
 30
0.0
 11
419.896536
 21
87.337649
 31
0.0
  0
POLYLINE
  5
4EF
330
1F
100
AcDbEntity
  8
001
370
    50
100
AcDb2dPolyline
 66
     1
 10
0.0
 20
0.0
 30
0.0
  0
VERTEX
  5
4F1
330
4EF
100
AcDbEntity
  8
001
370
    50
100
AcDbVertex
100
AcDb2dVertex
 10
422.346147
 20
103.617481
 30
0.0
  0
VERTEX
  5
4F2
330
4EF
100
AcDbEntity
  8
001
370
    50
100
AcDbVertex
100
AcDb2dVertex
 10
421.849184
 20
103.632613
 30
0.0
  0
VERTEX
  5
4F3
330
4EF
100
AcDbEntity
  8
001
370
    50
100
AcDbVertex
100
AcDb2dVertex
 10
421.122827
 20
103.653829
 30
0.0
  0
VERTEX
  5
4F4
330
4EF
100
AcDbEntity
  8
001
370
    50
100
AcDbVertex
100
AcDb2dVertex
 10
420.394727
 20
103.673842
 30
0.0
  0
VERTEX
  5
4F5
330
4EF
100
AcDbEntity
  8
001
370
    50
100
AcDbVertex
100
AcDb2dVertex
 10
419.896536
 20
103.68692
 30
0.0
  0
SEQEND
  5
4F0
330
4EF
100
AcDbEntity
  8
001
370
    50
  0
POLYLINE
  5
4F6
330
1F
100
AcDbEntity
  8
001
370
    50
100
AcDb2dPolyline
 66
     1
 10
0.0
 20
0.0
 30
0.0
  0
VERTEX
  5
4F8
330
4F6
100
AcDbEntity
  8
001
370
    50
100
AcDbVertex
100
AcDb2dVertex
 10
422.346147
 20
103.617481
 30
0.0
  0
VERTEX
  5
4F9
330
4F6
100
AcDbEntity
  8
001
370
    50
100
AcDbVertex
100
AcDb2dVertex
 10
422.594534
 20
103.612353
 30
0.0
  0
VERTEX
  5
4FA
330
4F6
100
AcDbEntity
  8
001
370
    50
100
AcDbVertex
100
AcDb2dVertex
 10
422.84294
 20
103.609505
 30
0.0
  0
VERTEX
  5
4FB
330
4F6
100
AcDbEntity
  8
001
370
    50
100
AcDbVertex
100
AcDb2dVertex
 10
423.091698
 20
103.610755
 30
0.0
  0
VERTEX
  5
4FC
330
4F6
100
AcDbEntity
  8
001
370
    50
100
AcDbVertex
100
AcDb2dVertex
 10
423.340416
 20
103.616068
 30
0.0
  0
VERTEX
  5
4FD
330
4F6
100
AcDbEntity
  8
001
370
    50
100
AcDbVertex
100
AcDb2dVertex
 10
423.582388
 20
103.62473
 30
0.0
  0
VERTEX
  5
4FE
330
4F6
100
AcDbEntity
  8
001
370
    50
100
AcDbVertex
100
AcDb2dVertex
 10
423.824212
 20
103.636729
 30
0.0
  0
VERTEX
  5
4FF
330
4F6
100
AcDbEntity
  8
001
370
    50
100
AcDbVertex
100
AcDb2dVertex
 10
424.052855
 20
103.651127
 30
0.0
  0
VERTEX
  5
500
330
4F6
100
AcDbEntity
  8
001
370
    50
100
AcDbVertex
100
AcDb2dVertex
 10
424.281294
 20
103.668465
 30
0.0
  0
VERTEX
  5
501
330
4F6
100
AcDbEntity
  8
001
370
    50
100
AcDbVertex
100
AcDb2dVertex
 10
424.491422
 20
103.686981
 30
0.0
  0
VERTEX
  5
502
330
4F6
100
AcDbEntity
  8
001
370
    50
100
AcDbVertex
100
AcDb2dVertex
 10
424.701337
 20
103.707763
 30
0.0
  0
VERTEX
  5
503
330
4F6
100
AcDbEntity
  8
001
370
    50
100
AcDbVertex
100
AcDb2dVertex
 10
424.886021
 20
103.727774
 30
0.0
  0
VERTEX
  5
504
330
4F6
100
AcDbEntity
  8
001
370
    50
100
AcDbVertex
100
AcDb2dVertex
 10
425.070541
 20
103.74925
 30
0.0
  0
VERTEX
  5
505
330
4F6
100
AcDbEntity
  8
001
370
    50
100
AcDbVertex
100
AcDb2dVertex
 10
425.226126
 20
103.768354
 30
0.0
  0
VERTEX
  5
506
330
4F6
100
AcDbEntity
  8
001
370
    50
100
AcDbVertex
100
AcDb2dVertex
 10
425.381642
 20
103.787971
 30
0.0
  0
VERTEX
  5
507
330
4F6
100
AcDbEntity
  8
001
370
    50
100
AcDbVertex
100
AcDb2dVertex
 10
425.501625
 20
103.803173
 30
0.0
  0
VERTEX
  5
508
330
4F6
100
AcDbEntity
  8
001
370
    50
100
AcDbVertex
100
AcDb2dVertex
 10
425.621646
 20
103.818175
 30
0.0
  0
VERTEX
  5
509
330
4F6
100
AcDbEntity
  8
001
370
    50
100
AcDbVertex
100
AcDb2dVertex
 10
425.681238
 20
103.825321
 30
0.0
  0
VERTEX
  5
50A
330
4F6
100
AcDbEntity
  8
001
370
    50
100
AcDbVertex
100
AcDb2dVertex
 10
425.740929
 20
103.831441
 30
0.0
  0
VERTEX
  5
50B
330
4F6
100
AcDbEntity
  8
001
370
    50
100
AcDbVertex
100
AcDb2dVertex
 10
425.781202
 20
103.834644
 30
0.0
  0
VERTEX
  5
50C
330
4F6
100
AcDbEntity
  8
001
370
    50
100
AcDbVertex
100
AcDb2dVertex
 10
425.821515
 20
103.837407
 30
0.0
  0
SEQEND
  5
4F7
330
4F6
100
AcDbEntity
  8
001
370
    50
  0
POLYLINE
  5
50D
330
1F
100
AcDbEntity
  8
001
370
    50
100
AcDb2dPolyline
 66
     1
 10
0.0
 20
0.0
 30
0.0
  0
VERTEX
  5
50F
330
50D
100
AcDbEntity
  8
001
370
    50
100
AcDbVertex
100
AcDb2dVertex
 10
416.312779
 20
103.657722
 30
0.0
  0
VERTEX
  5
510
330
50D
100
AcDbEntity
  8
001
370
    50
100
AcDbVertex
100
AcDb2dVertex
 10
416.046788
 20
103.576127
 30
0.0
  0
VERTEX
  5
511
330
50D
100
AcDbEntity
  8
001
370
    50
100
AcDbVertex
100
AcDb2dVertex
 10
415.671588
 20
103.423209
 30
0.0
  0
VERTEX
  5
512
330
50D
100
AcDbEntity
  8
001
370
    50
100
AcDbVertex
100
AcDb2dVertex
 10
415.298981
 20
103.214526
 30
0.0
  0
VERTEX
  5
513
330
50D
100
AcDbEntity
  8
001
370
    50
100
AcDbVertex
100
AcDb2dVertex
 10
415.05631
 20
103.049652
 30
0.0
  0
SEQEND
  5
50E
330
50D
100
AcDbEntity
  8
001
370
    50
  0
POLYLINE
  5
514
330
1F
100
AcDbEntity
  8
001
370
    50
100
AcDb2dPolyline
 66
     1
 10
0.0
 20
0.0
 30
0.0
  0
VERTEX
  5
516
330
514
100
AcDbEntity
  8
001
370
    50
100
AcDbVertex
100
AcDb2dVertex
 10
419.896536
 20
103.68692
 30
0.0
  0
VERTEX
  5
517
330
514
100
AcDbEntity
  8
001
370
    50
100
AcDbVertex
100
AcDb2dVertex
 10
419.16821
 20
103.683105
 30
0.0
  0
VERTEX
  5
518
330
514
100
AcDbEntity
  8
001
370
    50
100
AcDbVertex
100
AcDb2dVertex
 10
418.103745
 20
103.675704
 30
0.0
  0
VERTEX
  5
519
330
514
100
AcDbEntity
  8
001
370
    50
100
AcDbVertex
100
AcDb2dVertex
 10
417.040352
 20
103.665768
 30
0.0
  0
VERTEX
  5
51A
330
514
100
AcDbEntity
  8
001
370
    50
100
AcDbVertex
100
AcDb2dVertex
 10
416.312779
 20
103.657722
 30
0.0
  0
SEQEND
  5
515
330
514
100
AcDbEntity
  8
001
370
    50
  0
POLYLINE
  5
51B
330
1F
100
AcDbEntity
  8
001
370
    50
100
AcDb2dPolyline
 66
     1
 10
0.0
 20
0.0
 30
0.0
  0
VERTEX
  5
51D
330
51B
100
AcDbEntity
  8
001
370
    50
100
AcDbVertex
100
AcDb2dVertex
 10
408.265158
 20
100.824155
 30
0.0
  0
VERTEX
  5
51E
330
51B
100
AcDbEntity
  8
001
370
    50
100
AcDbVertex
100
AcDb2dVertex
 10
408.201275
 20
100.863177
 30
0.0
  0
VERTEX
  5
51F
330
51B
100
AcDbEntity
  8
001
370
    50
100
AcDbVertex
100
AcDb2dVertex
 10
408.13606
 20
100.899739
 30
0.0
  0
VERTEX
  5
520
330
51B
100
AcDbEntity
  8
001
370
    50
100
AcDbVertex
100
AcDb2dVertex
 10
408.064001
 20
100.933821
 30
0.0
  0
VERTEX
  5
521
330
51B
100
AcDbEntity
  8
001
370
    50
100
AcDbVertex
100
AcDb2dVertex
 10
407.9897
 20
100.962905
 30
0.0
  0
VERTEX
  5
522
330
51B
100
AcDbEntity
  8
001
370
    50
100
AcDbVertex
100
AcDb2dVertex
 10
407.90766
 20
100.989308
 30
0.0
  0
VERTEX
  5
523
330
51B
100
AcDbEntity
  8
001
370
    50
100
AcDbVertex
100
AcDb2dVertex
 10
407.824192
 20
101.010772
 30
0.0
  0
VERTEX
  5
524
330
51B
100
AcDbEntity
  8
001
370
    50
100
AcDbVertex
100
AcDb2dVertex
 10
407.734918
 20
101.028138
 30
0.0
  0
VERTEX
  5
525
330
51B
100
AcDbEntity
  8
001
370
    50
100
AcDbVertex
100
AcDb2dVertex
 10
407.644755
 20
101.039561
 30
0.0
  0
VERTEX
  5
526
330
51B
100
AcDbEntity
  8
001
370
    50
100
AcDbVertex
100
AcDb2dVertex
 10
407.56614
 20
101.044612
 30
0.0
  0
VERTEX
  5
527
330
51B
100
AcDbEntity
  8
001
370
    50
100
AcDbVertex
100
AcDb2dVertex
 10
407.487339
 20
101.047171
 30
0.0
  0
SEQEND
  5
51C
330
51B
100
AcDbEntity
  8
001
370
    50
  0
ARC
  5
528
330
1F
100
AcDbEntity
  8
001
370
    50
100
AcDbCircle
 10
429.715106
 20
102.837649
 30
0.0
 40
0.9999999999999974
100
AcDbArc
 50
0.0
 51
90.0
  0
ARC
  5
529
330
1F
100
AcDbEntity
  8
001
370
    50
100
AcDbCircle
 10
429.715106
 20
75.837649
 30
0.0
 40
0.9999999999999974
100
AcDbArc
 50
270.0
 51
0.0
  0
LINE
  5
52A
330
1F
100
AcDbEntity
  8
001
370
    50
100
AcDbLine
 10
430.715106
 20
102.837649
 30
0.0
 11
430.715106
 21
75.837649
 31
0.0
  0
LINE
  5
52B
330
1F
100
AcDbEntity
  8
001
  6
DASHED
370
    50
100
AcDbLine
 10
401.369938
 20
87.337649
 30
0.0
 11
401.365112
 21
87.337649
 31
0.0
  0
POLYLINE
  5
52C
330
1F
100
AcDbEntity
  8
001
370
    50
100
AcDb2dPolyline
 66
     1
 10
0.0
 20
0.0
 30
0.0
  0
VERTEX
  5
52E
330
52C
100
AcDbEntity
  8
001
370
    50
100
AcDbVertex
100
AcDb2dVertex
 10
406.88403
 20
97.747171
 30
0.0
  0
VERTEX
  5
52F
330
52C
100
AcDbEntity
  8
001
370
    50
100
AcDbVertex
100
AcDb2dVertex
 10
406.967579
 20
97.750118
 30
0.0
  0
VERTEX
  5
530
330
52C
100
AcDbEntity
  8
001
370
    50
100
AcDbVertex
100
AcDb2dVertex
 10
407.05094
 20
97.755505
 30
0.0
  0
VERTEX
  5
531
330
52C
100
AcDbEntity
  8
001
370
    50
100
AcDbVertex
100
AcDb2dVertex
 10
407.160005
 20
97.769301
 30
0.0
  0
VERTEX
  5
532
330
52C
100
AcDbEntity
  8
001
370
    50
100
AcDbVertex
100
AcDb2dVertex
 10
407.268001
 20
97.790395
 30
0.0
  0
VERTEX
  5
533
330
52C
100
AcDbEntity
  8
001
370
    50
100
AcDbVertex
100
AcDb2dVertex
 10
407.380374
 20
97.819515
 30
0.0
  0
VERTEX
  5
534
330
52C
100
AcDbEntity
  8
001
370
    50
100
AcDbVertex
100
AcDb2dVertex
 10
407.490731
 20
97.855393
 30
0.0
  0
VERTEX
  5
535
330
52C
100
AcDbEntity
  8
001
370
    50
100
AcDbVertex
100
AcDb2dVertex
 10
407.596778
 20
97.89708
 30
0.0
  0
VERTEX
  5
536
330
52C
100
AcDbEntity
  8
001
370
    50
100
AcDbVertex
100
AcDb2dVertex
 10
407.700197
 20
97.944951
 30
0.0
  0
VERTEX
  5
537
330
52C
100
AcDbEntity
  8
001
370
    50
100
AcDbVertex
100
AcDb2dVertex
 10
407.812155
 20
98.005389
 30
0.0
  0
VERTEX
  5
538
330
52C
100
AcDbEntity
  8
001
370
    50
100
AcDbVertex
100
AcDb2dVertex
 10
407.920065
 20
98.072793
 30
0.0
  0
VERTEX
  5
539
330
52C
100
AcDbEntity
  8
001
370
    50
100
AcDbVertex
100
AcDb2dVertex
 10
408.020416
 20
98.144345
 30
0.0
  0
VERTEX
  5
53A
330
52C
100
AcDbEntity
  8
001
370
    50
100
AcDbVertex
100
AcDb2dVertex
 10
408.116312
 20
98.221781
 30
0.0
  0
VERTEX
  5
53B
330
52C
100
AcDbEntity
  8
001
370
    50
100
AcDbVertex
100
AcDb2dVertex
 10
408.243886
 20
98.340992
 30
0.0
  0
VERTEX
  5
53C
330
52C
100
AcDbEntity
  8
001
370
    50
100
AcDbVertex
100
AcDb2dVertex
 10
408.361098
 20
98.470474
 30
0.0
  0
VERTEX
  5
53D
330
52C
100
AcDbEntity
  8
001
370
    50
100
AcDbVertex
100
AcDb2dVertex
 10
408.461894
 20
98.60172
 30
0.0
  0
VERTEX
  5
53E
330
52C
100
AcDbEntity
  8
001
370
    50
100
AcDbVertex
100
AcDb2dVertex
 10
408.551933
 20
98.740509
 30
0.0
  0
VERTEX
  5
53F
330
52C
100
AcDbEntity
  8
001
370
    50
100
AcDbVertex
100
AcDb2dVertex
 10
408.615998
 20
98.857026
 30
0.0
  0
VERTEX
  5
540
330
52C
100
AcDbEntity
  8
001
370
    50
100
AcDbVertex
100
AcDb2dVertex
 10
408.672279
 20
98.97749
 30
0.0
  0
VERTEX
  5
541
330
52C
100
AcDbEntity
  8
001
370
    50
100
AcDbVertex
100
AcDb2dVertex
 10
408.718649
 20
99.096384
 30
0.0
  0
VERTEX
  5
542
330
52C
100
AcDbEntity
  8
001
370
    50
100
AcDbVertex
100
AcDb2dVertex
 10
408.757167
 20
99.218034
 30
0.0
  0
VERTEX
  5
543
330
52C
100
AcDbEntity
  8
001
370
    50
100
AcDbVertex
100
AcDb2dVertex
 10
408.786331
 20
99.336619
 30
0.0
  0
VERTEX
  5
544
330
52C
100
AcDbEntity
  8
001
370
    50
100
AcDbVertex
100
AcDb2dVertex
 10
408.807609
 20
99.456904
 30
0.0
  0
VERTEX
  5
545
330
52C
100
AcDbEntity
  8
001
370
    50
100
AcDbVertex
100
AcDb2dVertex
 10
408.823719
 20
99.633849
 30
0.0
  0
VERTEX
  5
546
330
52C
100
AcDbEntity
  8
001
370
    50
100
AcDbVertex
100
AcDb2dVertex
 10
408.821125
 20
99.811551
 30
0.0
  0
VERTEX
  5
547
330
52C
100
AcDbEntity
  8
001
370
    50
100
AcDbVertex
100
AcDb2dVertex
 10
408.799755
 20
99.981804
 30
0.0
  0
VERTEX
  5
548
330
52C
100
AcDbEntity
  8
001
370
    50
100
AcDbVertex
100
AcDb2dVertex
 10
408.759096
 20
100.148443
 30
0.0
  0
VERTEX
  5
549
330
52C
100
AcDbEntity
  8
001
370
    50
100
AcDbVertex
100
AcDb2dVertex
 10
408.713199
 20
100.275158
 30
0.0
  0
VERTEX
  5
54A
330
52C
100
AcDbEntity
  8
001
370
    50
100
AcDbVertex
100
AcDb2dVertex
 10
408.6547
 20
100.396507
 30
0.0
  0
VERTEX
  5
54B
330
52C
100
AcDbEntity
  8
001
370
    50
100
AcDbVertex
100
AcDb2dVertex
 10
408.581288
 20
100.514152
 30
0.0
  0
VERTEX
  5
54C
330
52C
100
AcDbEntity
  8
001
370
    50
100
AcDbVertex
100
AcDb2dVertex
 10
408.495403
 20
100.623077
 30
0.0
  0
VERTEX
  5
54D
330
52C
100
AcDbEntity
  8
001
370
    50
100
AcDbVertex
100
AcDb2dVertex
 10
408.444272
 20
100.677611
 30
0.0
  0
VERTEX
  5
54E
330
52C
100
AcDbEntity
  8
001
370
    50
100
AcDbVertex
100
AcDb2dVertex
 10
408.389607
 20
100.728425
 30
0.0
  0
VERTEX
  5
54F
330
52C
100
AcDbEntity
  8
001
370
    50
100
AcDbVertex
100
AcDb2dVertex
 10
408.328429
 20
100.77754
 30
0.0
  0
VERTEX
  5
550
330
52C
100
AcDbEntity
  8
001
370
    50
100
AcDbVertex
100
AcDb2dVertex
 10
408.265158
 20
100.824155
 30
0.0
  0
SEQEND
  5
52D
330
52C
100
AcDbEntity
  8
001
370
    50
  0
POLYLINE
  5
551
330
1F
100
AcDbEntity
  8
001
370
    50
100
AcDb2dPolyline
 66
     1
 10
0.0
 20
0.0
 30
0.0
  0
VERTEX
  5
553
330
551
100
AcDbEntity
  8
001
370
    50
100
AcDbVertex
100
AcDb2dVertex
 10
407.487339
 20
101.047171
 30
0.0
  0
VERTEX
  5
554
330
551
100
AcDbEntity
  8
001
370
    50
100
AcDbVertex
100
AcDb2dVertex
 10
407.482181
 20
101.047103
 30
0.0
  0
VERTEX
  5
555
330
551
100
AcDbEntity
  8
001
370
    50
100
AcDbVertex
100
AcDb2dVertex
 10
407.477022
 20
101.04703
 30
0.0
  0
VERTEX
  5
556
330
551
100
AcDbEntity
  8
001
370
    50
100
AcDbVertex
100
AcDb2dVertex
 10
407.392497
 20
101.044205
 30
0.0
  0
VERTEX
  5
557
330
551
100
AcDbEntity
  8
001
370
    50
100
AcDbVertex
100
AcDb2dVertex
 10
407.30817
 20
101.037777
 30
0.0
  0
VERTEX
  5
558
330
551
100
AcDbEntity
  8
001
370
    50
100
AcDbVertex
100
AcDb2dVertex
 10
407.21154
 20
101.025219
 30
0.0
  0
VERTEX
  5
559
330
551
100
AcDbEntity
  8
001
370
    50
100
AcDbVertex
100
AcDb2dVertex
 10
407.115699
 20
101.007495
 30
0.0
  0
VERTEX
  5
55A
330
551
100
AcDbEntity
  8
001
370
    50
100
AcDbVertex
100
AcDb2dVertex
 10
407.023691
 20
100.985866
 30
0.0
  0
VERTEX
  5
55B
330
551
100
AcDbEntity
  8
001
370
    50
100
AcDbVertex
100
AcDb2dVertex
 10
406.932784
 20
100.960018
 30
0.0
  0
VERTEX
  5
55C
330
551
100
AcDbEntity
  8
001
370
    50
100
AcDbVertex
100
AcDb2dVertex
 10
406.803751
 20
100.915419
 30
0.0
  0
VERTEX
  5
55D
330
551
100
AcDbEntity
  8
001
370
    50
100
AcDbVertex
100
AcDb2dVertex
 10
406.677815
 20
100.862642
 30
0.0
  0
VERTEX
  5
55E
330
551
100
AcDbEntity
  8
001
370
    50
100
AcDbVertex
100
AcDb2dVertex
 10
406.56217
 20
100.805739
 30
0.0
  0
VERTEX
  5
55F
330
551
100
AcDbEntity
  8
001
370
    50
100
AcDbVertex
100
AcDb2dVertex
 10
406.449972
 20
100.742321
 30
0.0
  0
VERTEX
  5
560
330
551
100
AcDbEntity
  8
001
370
    50
100
AcDbVertex
100
AcDb2dVertex
 10
406.335609
 20
100.66866
 30
0.0
  0
VERTEX
  5
561
330
551
100
AcDbEntity
  8
001
370
    50
100
AcDbVertex
100
AcDb2dVertex
 10
406.225845
 20
100.588304
 30
0.0
  0
VERTEX
  5
562
330
551
100
AcDbEntity
  8
001
370
    50
100
AcDbVertex
100
AcDb2dVertex
 10
406.125477
 20
100.505263
 30
0.0
  0
VERTEX
  5
563
330
551
100
AcDbEntity
  8
001
370
    50
100
AcDbVertex
100
AcDb2dVertex
 10
406.030155
 20
100.416496
 30
0.0
  0
VERTEX
  5
564
330
551
100
AcDbEntity
  8
001
370
    50
100
AcDbVertex
100
AcDb2dVertex
 10
405.943557
 20
100.325899
 30
0.0
  0
VERTEX
  5
565
330
551
100
AcDbEntity
  8
001
370
    50
100
AcDbVertex
100
AcDb2dVertex
 10
405.862309
 20
100.230432
 30
0.0
  0
VERTEX
  5
566
330
551
100
AcDbEntity
  8
001
370
    50
100
AcDbVertex
100
AcDb2dVertex
 10
405.748621
 20
100.074577
 30
0.0
  0
VERTEX
  5
567
330
551
100
AcDbEntity
  8
001
370
    50
100
AcDbVertex
100
AcDb2dVertex
 10
405.65025
 20
99.908579
 30
0.0
  0
VERTEX
  5
568
330
551
100
AcDbEntity
  8
001
370
    50
100
AcDbVertex
100
AcDb2dVertex
 10
405.570659
 20
99.737284
 30
0.0
  0
VERTEX
  5
569
330
551
100
AcDbEntity
  8
001
370
    50
100
AcDbVertex
100
AcDb2dVertex
 10
405.509355
 20
99.55868
 30
0.0
  0
VERTEX
  5
56A
330
551
100
AcDbEntity
  8
001
370
    50
100
AcDbVertex
100
AcDb2dVertex
 10
405.471955
 20
99.396847
 30
0.0
  0
VERTEX
  5
56B
330
551
100
AcDbEntity
  8
001
370
    50
100
AcDbVertex
100
AcDb2dVertex
 10
405.451294
 20
99.232031
 30
0.0
  0
VERTEX
  5
56C
330
551
100
AcDbEntity
  8
001
370
    50
100
AcDbVertex
100
AcDb2dVertex
 10
405.448658
 20
99.06265
 30
0.0
  0
VERTEX
  5
56D
330
551
100
AcDbEntity
  8
001
370
    50
100
AcDbVertex
100
AcDb2dVertex
 10
405.465529
 20
98.894173
 30
0.0
  0
VERTEX
  5
56E
330
551
100
AcDbEntity
  8
001
370
    50
100
AcDbVertex
100
AcDb2dVertex
 10
405.491565
 20
98.769315
 30
0.0
  0
VERTEX
  5
56F
330
551
100
AcDbEntity
  8
001
370
    50
100
AcDbVertex
100
AcDb2dVertex
 10
405.529075
 20
98.647417
 30
0.0
  0
VERTEX
  5
570
330
551
100
AcDbEntity
  8
001
370
    50
100
AcDbVertex
100
AcDb2dVertex
 10
405.580328
 20
98.524522
 30
0.0
  0
VERTEX
  5
571
330
551
100
AcDbEntity
  8
001
370
    50
100
AcDbVertex
100
AcDb2dVertex
 10
405.643649
 20
98.407424
 30
0.0
  0
VERTEX
  5
572
330
551
100
AcDbEntity
  8
001
370
    50
100
AcDbVertex
100
AcDb2dVertex
 10
405.705267
 20
98.315321
 30
0.0
  0
VERTEX
  5
573
330
551
100
AcDbEntity
  8
001
370
    50
100
AcDbVertex
100
AcDb2dVertex
 10
405.774417
 20
98.228722
 30
0.0
  0
VERTEX
  5
574
330
551
100
AcDbEntity
  8
001
370
    50
100
AcDbVertex
100
AcDb2dVertex
 10
405.854359
 20
98.144415
 30
0.0
  0
VERTEX
  5
575
330
551
100
AcDbEntity
  8
001
370
    50
100
AcDbVertex
100
AcDb2dVertex
 10
405.941349
 20
98.067425
 30
0.0
  0
VERTEX
  5
576
330
551
100
AcDbEntity
  8
001
370
    50
100
AcDbVertex
100
AcDb2dVertex
 10
406.04052
 20
97.994499
 30
0.0
  0
VERTEX
  5
577
330
551
100
AcDbEntity
  8
001
370
    50
100
AcDbVertex
100
AcDb2dVertex
 10
406.145836
 20
97.930672
 30
0.0
  0
VERTEX
  5
578
330
551
100
AcDbEntity
  8
001
370
    50
100
AcDbVertex
100
AcDb2dVertex
 10
406.261084
 20
97.873926
 30
0.0
  0
VERTEX
  5
579
330
551
100
AcDbEntity
  8
001
370
    50
100
AcDbVertex
100
AcDb2dVertex
 10
406.380861
 20
97.827655
 30
0.0
  0
VERTEX
  5
57A
330
551
100
AcDbEntity
  8
001
370
    50
100
AcDbVertex
100
AcDb2dVertex
 10
406.489822
 20
97.795728
 30
0.0
  0
VERTEX
  5
57B
330
551
100
AcDbEntity
  8
001
370
    50
100
AcDbVertex
100
AcDb2dVertex
 10
406.600887
 20
97.771918
 30
0.0
  0
VERTEX
  5
57C
330
551
100
AcDbEntity
  8
001
370
    50
100
AcDbVertex
100
AcDb2dVertex
 10
406.715345
 20
97.755713
 30
0.0
  0
VERTEX
  5
57D
330
551
100
AcDbEntity
  8
001
370
    50
100
AcDbVertex
100
AcDb2dVertex
 10
406.8306
 20
97.748019
 30
0.0
  0
VERTEX
  5
57E
330
551
100
AcDbEntity
  8
001
370
    50
100
AcDbVertex
100
AcDb2dVertex
 10
406.857313
 20
97.747473
 30
0.0
  0
VERTEX
  5
57F
330
551
100
AcDbEntity
  8
001
370
    50
100
AcDbVertex
100
AcDb2dVertex
 10
406.88403
 20
97.747171
 30
0.0
  0
SEQEND
  5
552
330
551
100
AcDbEntity
  8
001
370
    50
  0
POLYLINE
  5
580
330
1F
100
AcDbEntity
  8
001
370
    50
100
AcDb2dPolyline
 66
     1
 10
0.0
 20
0.0
 30
0.0
  0
VERTEX
  5
582
330
580
100
AcDbEntity
  8
001
370
    50
100
AcDbVertex
100
AcDb2dVertex
 10
402.043658
 20
85.56497
 30
0.0
  0
VERTEX
  5
583
330
580
100
AcDbEntity
  8
001
370
    50
100
AcDbVertex
100
AcDb2dVertex
 10
402.030411
 20
85.367181
 30
0.0
  0
VERTEX
  5
584
330
580
100
AcDbEntity
  8
001
370
    50
100
AcDbVertex
100
AcDb2dVertex
 10
402.016793
 20
85.169418
 30
0.0
  0
VERTEX
  5
585
330
580
100
AcDbEntity
  8
001
370
    50
100
AcDbVertex
100
AcDb2dVertex
 10
402.001595
 20
84.959053
 30
0.0
  0
VERTEX
  5
586
330
580
100
AcDbEntity
  8
001
370
    50
100
AcDbVertex
100
AcDb2dVertex
 10
401.985786
 20
84.748733
 30
0.0
  0
VERTEX
  5
587
330
580
100
AcDbEntity
  8
001
370
    50
100
AcDbVertex
100
AcDb2dVertex
 10
401.969958
 20
84.543184
 30
0.0
  0
VERTEX
  5
588
330
580
100
AcDbEntity
  8
001
370
    50
100
AcDbVertex
100
AcDb2dVertex
 10
401.953948
 20
84.337649
 30
0.0
  0
SEQEND
  5
581
330
580
100
AcDbEntity
  8
001
370
    50
  0
LINE
  5
589
330
1F
100
AcDbEntity
  8
001
370
    50
100
AcDbLine
 10
420.245171
 20
87.337649
 30
0.0
 11
401.365106
 21
87.337649
 31
0.0
  0
LINE
  5
58A
330
1F
100
AcDbEntity
  8
001
  6
DASHED
370
    30
100
AcDbLine
 10
402.043658
 20
92.981126
 30
0.0
 11
402.043658
 21
87.337649
 31
0.0
  0
LINE
  5
58B
330
1F
100
AcDbEntity
  8
001
370
    50
100
AcDbLine
 10
402.043658
 20
87.337649
 30
0.0
 11
402.043658
 21
85.564971
 31
0.0
  0
LINE
  5
58C
330
1F
100
AcDbEntity
  8
001
370
    50
100
AcDbLine
 10
432.715106
 20
76.837649
 30
0.0
 11
432.715106
 21
101.837649
 31
0.0
  0
LINE
  5
58D
330
1F
100
AcDbEntity
  8
001
370
    50
100
AcDbLine
 10
432.715106
 20
101.337649
 30
0.0
 11
430.715106
 21
101.337649
 31
0.0
  0
LINE
  5
58E
330
1F
100
AcDbEntity
  8
001
370
    50
100
AcDbLine
 10
430.715106
 20
77.337649
 30
0.0
 11
432.715106
 21
77.337649
 31
0.0
  0
LINE
  5
58F
330
1F
100
AcDbEntity
  8
001
370
    50
100
AcDbLine
 10
400.769079
 20
78.234199
 30
0.0
 11
401.20391
 21
83.591855
 31
0.0
  0
CIRCLE
  5
590
330
1F
100
AcDbEntity
  8
001
370
    50
100
AcDbCircle
 10
408.81449
 20
79.242225
 30
0.0
 40
3.0
  0
LINE
  5
591
330
1F
100
AcDbEntity
  8
001
370
    50
100
AcDbLine
 10
416.446113
 20
80.24765
 30
0.0
 11
416.011282
 21
74.889995
 31
0.0
  0
LINE
  5
592
330
1F
100
AcDbEntity
  8
001
370
    50
100
AcDbLine
 10
412.935593
 20
84.030713
 30
0.0
 11
401.600086
 21
83.959489
 31
0.0
  0
CIRCLE
  5
593
330
1F
100
AcDbEntity
  8
001
370
    50
100
AcDbCircle
 10
408.819487
 20
79.255487
 30
0.0
 40
2.5
  0
LINE
  5
594
330
1F
100
AcDbEntity
  8
001
370
    50
100
AcDbLine
 10
409.399754
 20
80.253798
 30
0.0
 11
409.083818
 21
80.804722
 31
0.0
  0
LINE
  5
595
330
1F
100
AcDbEntity
  8
001
370
    50
100
AcDbLine
 10
408.245058
 20
80.257168
 30
0.0
 11
408.564205
 21
80.806239
 31
0.0
  0
ARC
  5
596
330
1F
100
AcDbEntity
  8
001
370
    50
100
AcDbCircle
 10
408.823573
 20
80.655481
 30
0.0
 40
0.3
100
AcDbArc
 50
29.832778
 51
149.832778
  0
LINE
  5
597
330
1F
100
AcDbEntity
  8
001
370
    50
100
AcDbLine
 10
408.245058
 20
80.257168
 30
0.0
 11
407.609975
 21
80.259021
 31
0.0
  0
LINE
  5
598
330
1F
100
AcDbEntity
  8
001
370
    50
100
AcDbLine
 10
407.664792
 20
79.258857
 30
0.0
 11
407.348856
 21
79.809781
 31
0.0
  0
ARC
  5
599
330
1F
100
AcDbEntity
  8
001
370
    50
100
AcDbCircle
 10
407.6091
 20
79.959022
 30
0.0
 40
0.3
100
AcDbArc
 50
89.832778
 51
209.832778
  0
LINE
  5
59A
330
1F
100
AcDbEntity
  8
001
370
    50
100
AcDbLine
 10
407.664792
 20
79.258857
 30
0.0
 11
407.345645
 21
78.709786
 31
0.0
  0
LINE
  5
59B
330
1F
100
AcDbEntity
  8
001
370
    50
100
AcDbLine
 10
408.239221
 20
78.257176
 30
0.0
 11
407.604138
 21
78.25903
 31
0.0
  0
ARC
  5
59C
330
1F
100
AcDbEntity
  8
001
370
    50
100
AcDbCircle
 10
407.605014
 20
78.559028
 30
0.0
 40
0.3
100
AcDbArc
 50
149.832778
 51
269.832778
  0
LINE
  5
59D
330
1F
100
AcDbEntity
  8
001
370
    50
100
AcDbLine
 10
408.239221
 20
78.257176
 30
0.0
 11
408.555157
 21
77.706252
 31
0.0
  0
LINE
  5
59E
330
1F
100
AcDbEntity
  8
001
370
    50
100
AcDbLine
 10
409.393917
 20
78.253806
 30
0.0
 11
409.07477
 21
77.704735
 31
0.0
  0
ARC
  5
59F
330
1F
100
AcDbEntity
  8
001
370
    50
100
AcDbCircle
 10
408.815401
 20
77.855493
 30
0.0
 40
0.3
100
AcDbArc
 50
209.832778
 51
329.832778
  0
LINE
  5
5A0
330
1F
100
AcDbEntity
  8
001
370
    50
100
AcDbLine
 10
409.393917
 20
78.253806
 30
0.0
 11
410.028999
 21
78.251953
 31
0.0
  0
LINE
  5
5A1
330
1F
100
AcDbEntity
  8
001
370
    50
100
AcDbLine
 10
409.974183
 20
79.252117
 30
0.0
 11
410.290119
 21
78.701192
 31
0.0
  0
ARC
  5
5A2
330
1F
100
AcDbEntity
  8
001
370
    50
100
AcDbCircle
 10
410.029875
 20
78.551951
 30
0.0
 40
0.3
100
AcDbArc
 50
269.832778
 51
29.832778
  0
LINE
  5
5A3
330
1F
100
AcDbEntity
  8
001
370
    50
100
AcDbLine
 10
409.974183
 20
79.252117
 30
0.0
 11
410.293329
 21
79.801188
 31
0.0
  0
LINE
  5
5A4
330
1F
100
AcDbEntity
  8
001
370
    50
100
AcDbLine
 10
409.399754
 20
80.253798
 30
0.0
 11
410.034836
 21
80.251944
 31
0.0
  0
ARC
  5
5A5
330
1F
100
AcDbEntity
  8
001
370
    50
100
AcDbCircle
 10
410.033961
 20
79.951945
 30
0.0
 40
0.3
100
AcDbArc
 50
329.832778
 51
89.832778
  0
LINE
  5
5A6
330
1F
100
AcDbEntity
  8
001
370
    50
100
AcDbLine
 10
404.279599
 20
74.451137
 30
0.0
 11
415.615106
 21
74.522361
 31
0.0
  0
ARC
  5
5A7
330
1F
100
AcDbEntity
  8
001
370
    50
100
AcDbCircle
 10
401.602599
 20
83.559497
 30
0.0
 40
0.4
100
AcDbArc
 50
90.36
 51
175.36
  0
ARC
  5
5A8
330
1F
100
AcDbEntity
  8
001
370
    50
100
AcDbCircle
 10
415.612593
 20
74.922353
 30
0.0
 40
0.4
100
AcDbArc
 50
270.36
 51
355.36
  0
LINE
  5
5A9
330
1F
100
AcDbEntity
  8
001
370
    50
100
AcDbLine
 10
401.365106
 20
98.170298
 30
0.0
 11
401.365106
 21
83.881361
 31
0.0
  0
LINE
  5
5AA
330
1F
100
AcDbEntity
  8
001
370
    50
100
AcDbLine
 10
401.924234
 20
83.961525
 30
0.0
 11
401.953948
 21
84.337649
 31
0.0
  0
LINE
  5
5AB
330
1F
100
AcDbEntity
  8
001
370
    50
100
AcDbLine
 10
404.279599
 20
104.224162
 30
0.0
 11
415.893103
 21
104.151191
 31
0.0
  0
ARC
  5
5AC
330
1F
100
AcDbEntity
  8
001
370
    50
100
AcDbCircle
 10
415.89059
 20
103.751199
 30
0.0
 40
0.4
100
AcDbArc
 50
4.64
 51
89.64
  0
LINE
  5
5AD
330
1F
100
AcDbEntity
  8
001
370
    50
100
AcDbLine
 10
416.289279
 20
103.783557
 30
0.0
 11
416.299763
 21
103.654383
 31
0.0
  0
POLYLINE
  5
5AE
330
1F
100
AcDbEntity
  8
001
370
    50
100
AcDb2dPolyline
 66
     1
 10
0.0
 20
0.0
 30
0.0
  0
VERTEX
  5
5B0
330
5AE
100
AcDbEntity
  8
001
370
    50
100
AcDbVertex
100
AcDb2dVertex
 10
415.05631
 20
103.049652
 30
0.0
  0
VERTEX
  5
5B1
330
5AE
100
AcDbEntity
  8
001
370
    50
100
AcDbVertex
100
AcDb2dVertex
 10
413.586897
 20
103.081243
 30
0.0
  0
VERTEX
  5
5B2
330
5AE
100
AcDbEntity
  8
001
370
    50
100
AcDbVertex
100
AcDb2dVertex
 10
411.439151
 20
103.119644
 30
0.0
  0
VERTEX
  5
5B3
330
5AE
100
AcDbEntity
  8
001
370
    50
100
AcDbVertex
100
AcDb2dVertex
 10
408.952146
 20
103.152359
 30
0.0
  0
VERTEX
  5
5B4
330
5AE
100
AcDbEntity
  8
001
370
    50
100
AcDbVertex
100
AcDb2dVertex
 10
407.64599
 20
103.163342
 30
0.0
  0
VERTEX
  5
5B5
330
5AE
100
AcDbEntity
  8
001
370
    50
100
AcDbVertex
100
AcDb2dVertex
 10
406.386135
 20
103.170253
 30
0.0
  0
SEQEND
  5
5AF
330
5AE
100
AcDbEntity
  8
001
370
    50
  0
ARC
  5
5B6
330
1F
100
AcDbEntity
  8
001
370
    50
100
AcDbCircle
 10
406.365106
 20
98.170298
 30
0.0
 40
5.0
100
AcDbArc
 50
89.759019
 51
180.0
  0
LINE
  5
5B7
330
1F
100
AcDbEntity
  8
001
370
    50
100
AcDbLine
 10
400.769079
 20
100.441099
 30
0.0
 11
401.365106
 21
93.097313
 31
0.0
  0
LINE
  5
5B8
330
1F
100
AcDbEntity
  8
001
  6
DASHED
370
    30
100
AcDbLine
 10
402.043658
 20
92.981126
 30
0.0
 11
401.535359
 21
99.463951
 31
0.0
  0
LINE
  5
5B9
330
1F
100
AcDbEntity
  8
001
370
     9
100
AcDbLine
 10
388.696661
 20
74.451137
 30
0.0
 11
404.279599
 21
74.451137
 31
0.0
  0
ARC
  5
5BA
330
1F
100
AcDbEntity
  8
001
370
    50
100
AcDbCircle
 10
415.253499
 20
82.300303
 30
0.0
 40
3.0
100
AcDbArc
 50
292.205407
 51
144.79356
  0
POLYLINE
  5
5BB
330
1F
100
AcDbEntity
  8
001
370
    50
100
AcDb2dPolyline
 66
     1
 10
0.0
 20
0.0
 30
0.0
  0
VERTEX
  5
5BD
330
5BB
100
AcDbEntity
  8
001
370
    50
100
AcDbVertex
100
AcDb2dVertex
 10
416.021888
 20
75.020672
 30
0.0
  0
VERTEX
  5
5BE
330
5BB
100
AcDbEntity
  8
001
370
    50
100
AcDbVertex
100
AcDb2dVertex
 10
416.16069
 20
75.019135
 30
0.0
  0
VERTEX
  5
5BF
330
5BB
100
AcDbEntity
  8
001
370
    50
100
AcDbVertex
100
AcDb2dVertex
 10
416.299493
 20
75.017597
 30
0.0
  0
VERTEX
  5
5C0
330
5BB
100
AcDbEntity
  8
001
370
    50
100
AcDbVertex
100
AcDb2dVertex
 10
416.405429
 20
75.016424
 30
0.0
  0
VERTEX
  5
5C1
330
5BB
100
AcDbEntity
  8
001
370
    50
100
AcDbVertex
100
AcDb2dVertex
 10
416.511364
 20
75.01525
 30
0.0
  0
VERTEX
  5
5C2
330
5BB
100
AcDbEntity
  8
001
370
    50
100
AcDbVertex
100
AcDb2dVertex
 10
416.58055
 20
75.014484
 30
0.0
  0
VERTEX
  5
5C3
330
5BB
100
AcDbEntity
  8
001
370
    50
100
AcDbVertex
100
AcDb2dVertex
 10
416.649735
 20
75.013718
 30
0.0
  0
VERTEX
  5
5C4
330
5BB
100
AcDbEntity
  8
001
370
    50
100
AcDbVertex
100
AcDb2dVertex
 10
417.31248
 20
75.006773
 30
0.0
  0
VERTEX
  5
5C5
330
5BB
100
AcDbEntity
  8
001
370
    50
100
AcDbVertex
100
AcDb2dVertex
 10
418.103745
 20
74.999595
 30
0.0
  0
VERTEX
  5
5C6
330
5BB
100
AcDbEntity
  8
001
370
    50
100
AcDbVertex
100
AcDb2dVertex
 10
419.16821
 20
74.992193
 30
0.0
  0
VERTEX
  5
5C7
330
5BB
100
AcDbEntity
  8
001
370
    50
100
AcDbVertex
100
AcDb2dVertex
 10
419.896536
 20
74.988378
 30
0.0
  0
SEQEND
  5
5BC
330
5BB
100
AcDbEntity
  8
001
370
    50
  0
ARC
  5
5C8
330
1F
100
AcDbEntity
  8
001
370
    50
100
AcDbCircle
 10
404.257608
 20
77.951068
 30
0.0
 40
3.5
100
AcDbArc
 50
175.36
 51
270.36
  0
ARC
  5
5C9
330
1F
100
AcDbEntity
  8
001
370
    50
100
AcDbCircle
 10
412.957584
 20
80.530782
 30
0.0
 40
3.5
100
AcDbArc
 50
355.36
 51
90.36
  0
LINE
  5
5CA
330
1F
100
AcDbEntity
  8
001
370
    50
100
AcDbLine
 10
441.167239
 20
101.837649
 30
0.0
 11
432.715106
 21
101.837649
 31
0.0
  0
LINE
  5
5CB
330
1F
100
AcDbEntity
  8
001
  6
CENTER
370
     9
100
AcDbLine
 10
400.141491
 20
89.337649
 30
0.0
 11
445.11711
 21
89.337649
 31
0.0
  0
LINE
  5
5CC
330
1F
100
AcDbEntity
  8
001
370
    50
100
AcDbLine
 10
441.167239
 20
76.837649
 30
0.0
 11
432.715106
 21
76.837649
 31
0.0
  0
ARC
  5
5CD
330
1F
100
AcDbEntity
  8
001
370
    50
100
AcDbCircle
 10
404.257608
 20
100.724231
 30
0.0
 40
3.5
100
AcDbArc
 50
89.64
 51
184.64
  0
POLYLINE
  5
5CE
330
1F
100
AcDbEntity
  8
001
370
    50
100
AcDb2dPolyline
 66
     1
 10
0.0
 20
0.0
 30
0.0
  0
VERTEX
  5
5D0
330
5CE
100
AcDbEntity
  8
001
370
    50
100
AcDbVertex
100
AcDb2dVertex
 10
425.821515
 20
143.082365
 30
0.0
  0
VERTEX
  5
5D1
330
5CE
100
AcDbEntity
  8
001
370
    50
100
AcDbVertex
100
AcDb2dVertex
 10
425.824514
 20
143.082278
 30
0.0
  0
VERTEX
  5
5D2
330
5CE
100
AcDbEntity
  8
001
370
    50
100
AcDbVertex
100
AcDb2dVertex
 10
425.828898
 20
143.082184
 30
0.0
  0
VERTEX
  5
5D3
330
5CE
100
AcDbEntity
  8
001
370
    50
100
AcDbVertex
100
AcDb2dVertex
 10
425.833281
 20
143.082135
 30
0.0
  0
VERTEX
  5
5D4
330
5CE
100
AcDbEntity
  8
001
370
    50
100
AcDbVertex
100
AcDb2dVertex
 10
425.836281
 20
143.082123
 30
0.0
  0
SEQEND
  5
5CF
330
5CE
100
AcDbEntity
  8
001
370
    50
  0
POLYLINE
  5
5D5
330
1F
100
AcDbEntity
  8
001
370
    50
100
AcDb2dPolyline
 66
     1
 10
0.0
 20
0.0
 30
0.0
  0
VERTEX
  5
5D7
330
5D5
100
AcDbEntity
  8
001
370
    50
100
AcDbVertex
100
AcDb2dVertex
 10
425.836281
 20
172.082123
 30
0.0
  0
VERTEX
  5
5D8
330
5D5
100
AcDbEntity
  8
001
370
    50
100
AcDbVertex
100
AcDb2dVertex
 10
425.833281
 20
172.082112
 30
0.0
  0
VERTEX
  5
5D9
330
5D5
100
AcDbEntity
  8
001
370
    50
100
AcDbVertex
100
AcDb2dVertex
 10
425.828898
 20
172.082063
 30
0.0
  0
VERTEX
  5
5DA
330
5D5
100
AcDbEntity
  8
001
370
    50
100
AcDbVertex
100
AcDb2dVertex
 10
425.824514
 20
172.081968
 30
0.0
  0
VERTEX
  5
5DB
330
5D5
100
AcDbEntity
  8
001
370
    50
100
AcDbVertex
100
AcDb2dVertex
 10
425.821515
 20
172.081881
 30
0.0
  0
SEQEND
  5
5D6
330
5D5
100
AcDbEntity
  8
001
370
    50
  0
LINE
  5
5DC
330
1F
100
AcDbEntity
  8
001
370
    50
100
AcDbLine
 10
429.715106
 20
172.082123
 30
0.0
 11
425.836281
 21
172.082123
 31
0.0
  0
LINE
  5
5DD
330
1F
100
AcDbEntity
  8
001
370
    50
100
AcDbLine
 10
425.836281
 20
143.082123
 30
0.0
 11
429.715106
 21
143.082123
 31
0.0
  0
POLYLINE
  5
5DE
330
1F
100
AcDbEntity
  8
001
370
    50
100
AcDb2dPolyline
 66
     1
 10
0.0
 20
0.0
 30
0.0
  0
VERTEX
  5
5E0
330
5DE
100
AcDbEntity
  8
001
370
    50
100
AcDbVertex
100
AcDb2dVertex
 10
419.896536
 20
143.232853
 30
0.0
  0
VERTEX
  5
5E1
330
5DE
100
AcDbEntity
  8
001
370
    50
100
AcDbVertex
100
AcDb2dVertex
 10
420.394727
 20
143.24593
 30
0.0
  0
VERTEX
  5
5E2
330
5DE
100
AcDbEntity
  8
001
370
    50
100
AcDbVertex
100
AcDb2dVertex
 10
421.122827
 20
143.265943
 30
0.0
  0
VERTEX
  5
5E3
330
5DE
100
AcDbEntity
  8
001
370
    50
100
AcDbVertex
100
AcDb2dVertex
 10
421.849184
 20
143.28716
 30
0.0
  0
VERTEX
  5
5E4
330
5DE
100
AcDbEntity
  8
001
370
    50
100
AcDbVertex
100
AcDb2dVertex
 10
422.346147
 20
143.302291
 30
0.0
  0
SEQEND
  5
5DF
330
5DE
100
AcDbEntity
  8
001
370
    50
  0
POLYLINE
  5
5E5
330
1F
100
AcDbEntity
  8
001
370
    50
100
AcDb2dPolyline
 66
     1
 10
0.0
 20
0.0
 30
0.0
  0
VERTEX
  5
5E7
330
5E5
100
AcDbEntity
  8
001
370
    50
100
AcDbVertex
100
AcDb2dVertex
 10
422.346147
 20
143.302291
 30
0.0
  0
VERTEX
  5
5E8
330
5E5
100
AcDbEntity
  8
001
370
    50
100
AcDbVertex
100
AcDb2dVertex
 10
422.594534
 20
143.307419
 30
0.0
  0
VERTEX
  5
5E9
330
5E5
100
AcDbEntity
  8
001
370
    50
100
AcDbVertex
100
AcDb2dVertex
 10
422.84294
 20
143.310267
 30
0.0
  0
VERTEX
  5
5EA
330
5E5
100
AcDbEntity
  8
001
370
    50
100
AcDbVertex
100
AcDb2dVertex
 10
423.091698
 20
143.309017
 30
0.0
  0
VERTEX
  5
5EB
330
5E5
100
AcDbEntity
  8
001
370
    50
100
AcDbVertex
100
AcDb2dVertex
 10
423.340416
 20
143.303704
 30
0.0
  0
VERTEX
  5
5EC
330
5E5
100
AcDbEntity
  8
001
370
    50
100
AcDbVertex
100
AcDb2dVertex
 10
423.582388
 20
143.295042
 30
0.0
  0
VERTEX
  5
5ED
330
5E5
100
AcDbEntity
  8
001
370
    50
100
AcDbVertex
100
AcDb2dVertex
 10
423.824212
 20
143.283044
 30
0.0
  0
VERTEX
  5
5EE
330
5E5
100
AcDbEntity
  8
001
370
    50
100
AcDbVertex
100
AcDb2dVertex
 10
424.052855
 20
143.268646
 30
0.0
  0
VERTEX
  5
5EF
330
5E5
100
AcDbEntity
  8
001
370
    50
100
AcDbVertex
100
AcDb2dVertex
 10
424.281294
 20
143.251307
 30
0.0
  0
VERTEX
  5
5F0
330
5E5
100
AcDbEntity
  8
001
370
    50
100
AcDbVertex
100
AcDb2dVertex
 10
424.491422
 20
143.232791
 30
0.0
  0
VERTEX
  5
5F1
330
5E5
100
AcDbEntity
  8
001
370
    50
100
AcDbVertex
100
AcDb2dVertex
 10
424.701337
 20
143.21201
 30
0.0
  0
VERTEX
  5
5F2
330
5E5
100
AcDbEntity
  8
001
370
    50
100
AcDbVertex
100
AcDb2dVertex
 10
424.886021
 20
143.191998
 30
0.0
  0
VERTEX
  5
5F3
330
5E5
100
AcDbEntity
  8
001
370
    50
100
AcDbVertex
100
AcDb2dVertex
 10
425.070541
 20
143.170523
 30
0.0
  0
VERTEX
  5
5F4
330
5E5
100
AcDbEntity
  8
001
370
    50
100
AcDbVertex
100
AcDb2dVertex
 10
425.226126
 20
143.151418
 30
0.0
  0
VERTEX
  5
5F5
330
5E5
100
AcDbEntity
  8
001
370
    50
100
AcDbVertex
100
AcDb2dVertex
 10
425.381642
 20
143.131802
 30
0.0
  0
VERTEX
  5
5F6
330
5E5
100
AcDbEntity
  8
001
370
    50
100
AcDbVertex
100
AcDb2dVertex
 10
425.501625
 20
143.1166
 30
0.0
  0
VERTEX
  5
5F7
330
5E5
100
AcDbEntity
  8
001
370
    50
100
AcDbVertex
100
AcDb2dVertex
 10
425.621646
 20
143.101598
 30
0.0
  0
VERTEX
  5
5F8
330
5E5
100
AcDbEntity
  8
001
370
    50
100
AcDbVertex
100
AcDb2dVertex
 10
425.681238
 20
143.094452
 30
0.0
  0
VERTEX
  5
5F9
330
5E5
100
AcDbEntity
  8
001
370
    50
100
AcDbVertex
100
AcDb2dVertex
 10
425.740929
 20
143.088331
 30
0.0
  0
VERTEX
  5
5FA
330
5E5
100
AcDbEntity
  8
001
370
    50
100
AcDbVertex
100
AcDb2dVertex
 10
425.781202
 20
143.085128
 30
0.0
  0
VERTEX
  5
5FB
330
5E5
100
AcDbEntity
  8
001
370
    50
100
AcDbVertex
100
AcDb2dVertex
 10
425.821515
 20
143.082365
 30
0.0
  0
SEQEND
  5
5E6
330
5E5
100
AcDbEntity
  8
001
370
    50
  0
POLYLINE
  5
5FC
330
1F
100
AcDbEntity
  8
001
370
    50
100
AcDb2dPolyline
 66
     1
 10
0.0
 20
0.0
 30
0.0
  0
VERTEX
  5
5FE
330
5FC
100
AcDbEntity
  8
001
370
    50
100
AcDbVertex
100
AcDb2dVertex
 10
425.836281
 20
143.082123
 30
0.0
  0
VERTEX
  5
5FF
330
5FC
100
AcDbEntity
  8
001
370
    50
100
AcDbVertex
100
AcDb2dVertex
 10
426.065366
 20
143.171712
 30
0.0
  0
VERTEX
  5
600
330
5FC
100
AcDbEntity
  8
001
370
    50
100
AcDbVertex
100
AcDb2dVertex
 10
426.350354
 20
143.378246
 30
0.0
  0
VERTEX
  5
601
330
5FC
100
AcDbEntity
  8
001
370
    50
100
AcDbVertex
100
AcDb2dVertex
 10
426.668994
 20
143.802034
 30
0.0
  0
VERTEX
  5
602
330
5FC
100
AcDbEntity
  8
001
370
    50
100
AcDbVertex
100
AcDb2dVertex
 10
426.843431
 20
144.25452
 30
0.0
  0
VERTEX
  5
603
330
5FC
100
AcDbEntity
  8
001
370
    50
100
AcDbVertex
100
AcDb2dVertex
 10
427.07284
 20
144.931018
 30
0.0
  0
VERTEX
  5
604
330
5FC
100
AcDbEntity
  8
001
370
    50
100
AcDbVertex
100
AcDb2dVertex
 10
427.29537
 20
145.675154
 30
0.0
  0
VERTEX
  5
605
330
5FC
100
AcDbEntity
  8
001
370
    50
100
AcDbVertex
100
AcDb2dVertex
 10
427.540699
 20
146.772481
 30
0.0
  0
VERTEX
  5
606
330
5FC
100
AcDbEntity
  8
001
370
    50
100
AcDbVertex
100
AcDb2dVertex
 10
427.687714
 20
147.582123
 30
0.0
  0
SEQEND
  5
5FD
330
5FC
100
AcDbEntity
  8
001
370
    50
  0
POLYLINE
  5
607
330
1F
100
AcDbEntity
  8
001
370
    50
100
AcDb2dPolyline
 66
     1
 10
0.0
 20
0.0
 30
0.0
  0
VERTEX
  5
609
330
607
100
AcDbEntity
  8
001
370
    50
100
AcDbVertex
100
AcDb2dVertex
 10
420.245171
 20
155.582123
 30
0.0
  0
VERTEX
  5
60A
330
607
100
AcDbEntity
  8
001
370
    50
100
AcDbVertex
100
AcDb2dVertex
 10
420.576493
 20
155.572827
 30
0.0
  0
VERTEX
  5
60B
330
607
100
AcDbEntity
  8
001
370
    50
100
AcDbVertex
100
AcDb2dVertex
 10
420.907268
 20
155.555057
 30
0.0
  0
VERTEX
  5
60C
330
607
100
AcDbEntity
  8
001
370
    50
100
AcDbVertex
100
AcDb2dVertex
 10
421.238036
 20
155.522019
 30
0.0
  0
VERTEX
  5
60D
330
607
100
AcDbEntity
  8
001
370
    50
100
AcDbVertex
100
AcDb2dVertex
 10
421.567175
 20
155.474329
 30
0.0
  0
VERTEX
  5
60E
330
607
100
AcDbEntity
  8
001
370
    50
100
AcDbVertex
100
AcDb2dVertex
 10
421.893997
 20
155.413918
 30
0.0
  0
VERTEX
  5
60F
330
607
100
AcDbEntity
  8
001
370
    50
100
AcDbVertex
100
AcDb2dVertex
 10
422.218106
 20
155.340641
 30
0.0
  0
VERTEX
  5
610
330
607
100
AcDbEntity
  8
001
370
    50
100
AcDbVertex
100
AcDb2dVertex
 10
422.537636
 20
155.25435
 30
0.0
  0
VERTEX
  5
611
330
607
100
AcDbEntity
  8
001
370
    50
100
AcDbVertex
100
AcDb2dVertex
 10
422.853276
 20
155.154697
 30
0.0
  0
VERTEX
  5
612
330
607
100
AcDbEntity
  8
001
370
    50
100
AcDbVertex
100
AcDb2dVertex
 10
423.164949
 20
155.04154
 30
0.0
  0
VERTEX
  5
613
330
607
100
AcDbEntity
  8
001
370
    50
100
AcDbVertex
100
AcDb2dVertex
 10
423.471552
 20
154.915297
 30
0.0
  0
VERTEX
  5
614
330
607
100
AcDbEntity
  8
001
370
    50
100
AcDbVertex
100
AcDb2dVertex
 10
423.773251
 20
154.775918
 30
0.0
  0
VERTEX
  5
615
330
607
100
AcDbEntity
  8
001
370
    50
100
AcDbVertex
100
AcDb2dVertex
 10
424.068802
 20
154.623934
 30
0.0
  0
VERTEX
  5
616
330
607
100
AcDbEntity
  8
001
370
    50
100
AcDbVertex
100
AcDb2dVertex
 10
424.356781
 20
154.460092
 30
0.0
  0
VERTEX
  5
617
330
607
100
AcDbEntity
  8
001
370
    50
100
AcDbVertex
100
AcDb2dVertex
 10
424.637492
 20
154.284082
 30
0.0
  0
VERTEX
  5
618
330
607
100
AcDbEntity
  8
001
370
    50
100
AcDbVertex
100
AcDb2dVertex
 10
424.908087
 20
154.097582
 30
0.0
  0
VERTEX
  5
619
330
607
100
AcDbEntity
  8
001
370
    50
100
AcDbVertex
100
AcDb2dVertex
 10
425.170088
 20
153.899213
 30
0.0
  0
VERTEX
  5
61A
330
607
100
AcDbEntity
  8
001
370
    50
100
AcDbVertex
100
AcDb2dVertex
 10
425.407969
 20
153.701892
 30
0.0
  0
VERTEX
  5
61B
330
607
100
AcDbEntity
  8
001
370
    50
100
AcDbVertex
100
AcDb2dVertex
 10
425.637171
 20
153.494549
 30
0.0
  0
VERTEX
  5
61C
330
607
100
AcDbEntity
  8
001
370
    50
100
AcDbVertex
100
AcDb2dVertex
 10
425.856584
 20
153.27844
 30
0.0
  0
VERTEX
  5
61D
330
607
100
AcDbEntity
  8
001
370
    50
100
AcDbVertex
100
AcDb2dVertex
 10
426.066664
 20
153.05325
 30
0.0
  0
VERTEX
  5
61E
330
607
100
AcDbEntity
  8
001
370
    50
100
AcDbVertex
100
AcDb2dVertex
 10
426.264891
 20
152.821917
 30
0.0
  0
VERTEX
  5
61F
330
607
100
AcDbEntity
  8
001
370
    50
100
AcDbVertex
100
AcDb2dVertex
 10
426.453053
 20
152.582329
 30
0.0
  0
VERTEX
  5
620
330
607
100
AcDbEntity
  8
001
370
    50
100
AcDbVertex
100
AcDb2dVertex
 10
426.627419
 20
152.339314
 30
0.0
  0
VERTEX
  5
621
330
607
100
AcDbEntity
  8
001
370
    50
100
AcDbVertex
100
AcDb2dVertex
 10
426.790824
 20
152.088799
 30
0.0
  0
VERTEX
  5
622
330
607
100
AcDbEntity
  8
001
370
    50
100
AcDbVertex
100
AcDb2dVertex
 10
426.96791
 20
151.785451
 30
0.0
  0
VERTEX
  5
623
330
607
100
AcDbEntity
  8
001
370
    50
100
AcDbVertex
100
AcDb2dVertex
 10
427.128705
 20
151.473128
 30
0.0
  0
VERTEX
  5
624
330
607
100
AcDbEntity
  8
001
370
    50
100
AcDbVertex
100
AcDb2dVertex
 10
427.269954
 20
151.160025
 30
0.0
  0
VERTEX
  5
625
330
607
100
AcDbEntity
  8
001
370
    50
100
AcDbVertex
100
AcDb2dVertex
 10
427.39496
 20
150.8401
 30
0.0
  0
VERTEX
  5
626
330
607
100
AcDbEntity
  8
001
370
    50
100
AcDbVertex
100
AcDb2dVertex
 10
427.499889
 20
150.52494
 30
0.0
  0
VERTEX
  5
627
330
607
100
AcDbEntity
  8
001
370
    50
100
AcDbVertex
100
AcDb2dVertex
 10
427.588427
 20
150.204811
 30
0.0
  0
VERTEX
  5
628
330
607
100
AcDbEntity
  8
001
370
    50
100
AcDbVertex
100
AcDb2dVertex
 10
427.65724
 20
149.894591
 30
0.0
  0
VERTEX
  5
629
330
607
100
AcDbEntity
  8
001
370
    50
100
AcDbVertex
100
AcDb2dVertex
 10
427.710539
 20
149.581319
 30
0.0
  0
VERTEX
  5
62A
330
607
100
AcDbEntity
  8
001
370
    50
100
AcDbVertex
100
AcDb2dVertex
 10
427.747393
 20
149.276556
 30
0.0
  0
VERTEX
  5
62B
330
607
100
AcDbEntity
  8
001
370
    50
100
AcDbVertex
100
AcDb2dVertex
 10
427.769705
 20
148.970408
 30
0.0
  0
VERTEX
  5
62C
330
607
100
AcDbEntity
  8
001
370
    50
100
AcDbVertex
100
AcDb2dVertex
 10
427.777331
 20
148.675924
 30
0.0
  0
VERTEX
  5
62D
330
607
100
AcDbEntity
  8
001
370
    50
100
AcDbVertex
100
AcDb2dVertex
 10
427.771729
 20
148.38137
 30
0.0
  0
VERTEX
  5
62E
330
607
100
AcDbEntity
  8
001
370
    50
100
AcDbVertex
100
AcDb2dVertex
 10
427.760123
 20
148.177674
 30
0.0
  0
VERTEX
  5
62F
330
607
100
AcDbEntity
  8
001
370
    50
100
AcDbVertex
100
AcDb2dVertex
 10
427.741449
 20
147.974571
 30
0.0
  0
VERTEX
  5
630
330
607
100
AcDbEntity
  8
001
370
    50
100
AcDbVertex
100
AcDb2dVertex
 10
427.71646
 20
147.778124
 30
0.0
  0
VERTEX
  5
631
330
607
100
AcDbEntity
  8
001
370
    50
100
AcDbVertex
100
AcDb2dVertex
 10
427.687714
 20
147.582123
 30
0.0
  0
SEQEND
  5
608
330
607
100
AcDbEntity
  8
001
370
    50
  0
LINE
  5
632
330
1F
100
AcDbEntity
  8
001
370
    50
100
AcDbLine
 10
419.896536
 20
171.931394
 30
0.0
 11
419.896536
 21
155.582123
 31
0.0
  0
POLYLINE
  5
633
330
1F
100
AcDbEntity
  8
001
370
    50
100
AcDb2dPolyline
 66
     1
 10
0.0
 20
0.0
 30
0.0
  0
VERTEX
  5
635
330
633
100
AcDbEntity
  8
001
370
    50
100
AcDbVertex
100
AcDb2dVertex
 10
422.346147
 20
171.861955
 30
0.0
  0
VERTEX
  5
636
330
633
100
AcDbEntity
  8
001
370
    50
100
AcDbVertex
100
AcDb2dVertex
 10
421.849184
 20
171.877087
 30
0.0
  0
VERTEX
  5
637
330
633
100
AcDbEntity
  8
001
370
    50
100
AcDbVertex
100
AcDb2dVertex
 10
421.122827
 20
171.898304
 30
0.0
  0
VERTEX
  5
638
330
633
100
AcDbEntity
  8
001
370
    50
100
AcDbVertex
100
AcDb2dVertex
 10
420.394727
 20
171.918316
 30
0.0
  0
VERTEX
  5
639
330
633
100
AcDbEntity
  8
001
370
    50
100
AcDbVertex
100
AcDb2dVertex
 10
419.896536
 20
171.931394
 30
0.0
  0
SEQEND
  5
634
330
633
100
AcDbEntity
  8
001
370
    50
  0
POLYLINE
  5
63A
330
1F
100
AcDbEntity
  8
001
370
    50
100
AcDb2dPolyline
 66
     1
 10
0.0
 20
0.0
 30
0.0
  0
VERTEX
  5
63C
330
63A
100
AcDbEntity
  8
001
370
    50
100
AcDbVertex
100
AcDb2dVertex
 10
422.346147
 20
171.861955
 30
0.0
  0
VERTEX
  5
63D
330
63A
100
AcDbEntity
  8
001
370
    50
100
AcDbVertex
100
AcDb2dVertex
 10
422.594534
 20
171.856828
 30
0.0
  0
VERTEX
  5
63E
330
63A
100
AcDbEntity
  8
001
370
    50
100
AcDbVertex
100
AcDb2dVertex
 10
422.84294
 20
171.853979
 30
0.0
  0
VERTEX
  5
63F
330
63A
100
AcDbEntity
  8
001
370
    50
100
AcDbVertex
100
AcDb2dVertex
 10
423.091698
 20
171.855229
 30
0.0
  0
VERTEX
  5
640
330
63A
100
AcDbEntity
  8
001
370
    50
100
AcDbVertex
100
AcDb2dVertex
 10
423.340416
 20
171.860542
 30
0.0
  0
VERTEX
  5
641
330
63A
100
AcDbEntity
  8
001
370
    50
100
AcDbVertex
100
AcDb2dVertex
 10
423.582388
 20
171.869204
 30
0.0
  0
VERTEX
  5
642
330
63A
100
AcDbEntity
  8
001
370
    50
100
AcDbVertex
100
AcDb2dVertex
 10
423.824212
 20
171.881203
 30
0.0
  0
VERTEX
  5
643
330
63A
100
AcDbEntity
  8
001
370
    50
100
AcDbVertex
100
AcDb2dVertex
 10
424.052855
 20
171.895601
 30
0.0
  0
VERTEX
  5
644
330
63A
100
AcDbEntity
  8
001
370
    50
100
AcDbVertex
100
AcDb2dVertex
 10
424.281294
 20
171.912939
 30
0.0
  0
VERTEX
  5
645
330
63A
100
AcDbEntity
  8
001
370
    50
100
AcDbVertex
100
AcDb2dVertex
 10
424.491422
 20
171.931455
 30
0.0
  0
VERTEX
  5
646
330
63A
100
AcDbEntity
  8
001
370
    50
100
AcDbVertex
100
AcDb2dVertex
 10
424.701337
 20
171.952237
 30
0.0
  0
VERTEX
  5
647
330
63A
100
AcDbEntity
  8
001
370
    50
100
AcDbVertex
100
AcDb2dVertex
 10
424.886021
 20
171.972248
 30
0.0
  0
VERTEX
  5
648
330
63A
100
AcDbEntity
  8
001
370
    50
100
AcDbVertex
100
AcDb2dVertex
 10
425.070541
 20
171.993724
 30
0.0
  0
VERTEX
  5
649
330
63A
100
AcDbEntity
  8
001
370
    50
100
AcDbVertex
100
AcDb2dVertex
 10
425.226126
 20
172.012828
 30
0.0
  0
VERTEX
  5
64A
330
63A
100
AcDbEntity
  8
001
370
    50
100
AcDbVertex
100
AcDb2dVertex
 10
425.381642
 20
172.032445
 30
0.0
  0
VERTEX
  5
64B
330
63A
100
AcDbEntity
  8
001
370
    50
100
AcDbVertex
100
AcDb2dVertex
 10
425.501625
 20
172.047647
 30
0.0
  0
VERTEX
  5
64C
330
63A
100
AcDbEntity
  8
001
370
    50
100
AcDbVertex
100
AcDb2dVertex
 10
425.621646
 20
172.062649
 30
0.0
  0
VERTEX
  5
64D
330
63A
100
AcDbEntity
  8
001
370
    50
100
AcDbVertex
100
AcDb2dVertex
 10
425.681238
 20
172.069795
 30
0.0
  0
VERTEX
  5
64E
330
63A
100
AcDbEntity
  8
001
370
    50
100
AcDbVertex
100
AcDb2dVertex
 10
425.740929
 20
172.075915
 30
0.0
  0
VERTEX
  5
64F
330
63A
100
AcDbEntity
  8
001
370
    50
100
AcDbVertex
100
AcDb2dVertex
 10
425.781202
 20
172.079119
 30
0.0
  0
VERTEX
  5
650
330
63A
100
AcDbEntity
  8
001
370
    50
100
AcDbVertex
100
AcDb2dVertex
 10
425.821515
 20
172.081881
 30
0.0
  0
SEQEND
  5
63B
330
63A
100
AcDbEntity
  8
001
370
    50
  0
POLYLINE
  5
651
330
1F
100
AcDbEntity
  8
001
370
    50
100
AcDb2dPolyline
 66
     1
 10
0.0
 20
0.0
 30
0.0
  0
VERTEX
  5
653
330
651
100
AcDbEntity
  8
001
370
    50
100
AcDbVertex
100
AcDb2dVertex
 10
416.312779
 20
171.902196
 30
0.0
  0
VERTEX
  5
654
330
651
100
AcDbEntity
  8
001
370
    50
100
AcDbVertex
100
AcDb2dVertex
 10
416.046788
 20
171.820601
 30
0.0
  0
VERTEX
  5
655
330
651
100
AcDbEntity
  8
001
370
    50
100
AcDbVertex
100
AcDb2dVertex
 10
415.671588
 20
171.667683
 30
0.0
  0
VERTEX
  5
656
330
651
100
AcDbEntity
  8
001
370
    50
100
AcDbVertex
100
AcDb2dVertex
 10
415.298981
 20
171.459
 30
0.0
  0
VERTEX
  5
657
330
651
100
AcDbEntity
  8
001
370
    50
100
AcDbVertex
100
AcDb2dVertex
 10
415.05631
 20
171.294126
 30
0.0
  0
SEQEND
  5
652
330
651
100
AcDbEntity
  8
001
370
    50
  0
POLYLINE
  5
658
330
1F
100
AcDbEntity
  8
001
370
    50
100
AcDb2dPolyline
 66
     1
 10
0.0
 20
0.0
 30
0.0
  0
VERTEX
  5
65A
330
658
100
AcDbEntity
  8
001
370
    50
100
AcDbVertex
100
AcDb2dVertex
 10
419.896536
 20
171.931394
 30
0.0
  0
VERTEX
  5
65B
330
658
100
AcDbEntity
  8
001
370
    50
100
AcDbVertex
100
AcDb2dVertex
 10
419.16821
 20
171.927579
 30
0.0
  0
VERTEX
  5
65C
330
658
100
AcDbEntity
  8
001
370
    50
100
AcDbVertex
100
AcDb2dVertex
 10
418.103745
 20
171.920178
 30
0.0
  0
VERTEX
  5
65D
330
658
100
AcDbEntity
  8
001
370
    50
100
AcDbVertex
100
AcDb2dVertex
 10
417.040352
 20
171.910242
 30
0.0
  0
VERTEX
  5
65E
330
658
100
AcDbEntity
  8
001
370
    50
100
AcDbVertex
100
AcDb2dVertex
 10
416.312779
 20
171.902196
 30
0.0
  0
SEQEND
  5
659
330
658
100
AcDbEntity
  8
001
370
    50
  0
POLYLINE
  5
65F
330
1F
100
AcDbEntity
  8
001
370
    50
100
AcDb2dPolyline
 66
     1
 10
0.0
 20
0.0
 30
0.0
  0
VERTEX
  5
661
330
65F
100
AcDbEntity
  8
001
370
    50
100
AcDbVertex
100
AcDb2dVertex
 10
408.265158
 20
169.068629
 30
0.0
  0
VERTEX
  5
662
330
65F
100
AcDbEntity
  8
001
370
    50
100
AcDbVertex
100
AcDb2dVertex
 10
408.201275
 20
169.107651
 30
0.0
  0
VERTEX
  5
663
330
65F
100
AcDbEntity
  8
001
370
    50
100
AcDbVertex
100
AcDb2dVertex
 10
408.13606
 20
169.144213
 30
0.0
  0
VERTEX
  5
664
330
65F
100
AcDbEntity
  8
001
370
    50
100
AcDbVertex
100
AcDb2dVertex
 10
408.064001
 20
169.178295
 30
0.0
  0
VERTEX
  5
665
330
65F
100
AcDbEntity
  8
001
370
    50
100
AcDbVertex
100
AcDb2dVertex
 10
407.9897
 20
169.207379
 30
0.0
  0
VERTEX
  5
666
330
65F
100
AcDbEntity
  8
001
370
    50
100
AcDbVertex
100
AcDb2dVertex
 10
407.90766
 20
169.233782
 30
0.0
  0
VERTEX
  5
667
330
65F
100
AcDbEntity
  8
001
370
    50
100
AcDbVertex
100
AcDb2dVertex
 10
407.824192
 20
169.255246
 30
0.0
  0
VERTEX
  5
668
330
65F
100
AcDbEntity
  8
001
370
    50
100
AcDbVertex
100
AcDb2dVertex
 10
407.734918
 20
169.272612
 30
0.0
  0
VERTEX
  5
669
330
65F
100
AcDbEntity
  8
001
370
    50
100
AcDbVertex
100
AcDb2dVertex
 10
407.644755
 20
169.284035
 30
0.0
  0
VERTEX
  5
66A
330
65F
100
AcDbEntity
  8
001
370
    50
100
AcDbVertex
100
AcDb2dVertex
 10
407.56614
 20
169.289086
 30
0.0
  0
VERTEX
  5
66B
330
65F
100
AcDbEntity
  8
001
370
    50
100
AcDbVertex
100
AcDb2dVertex
 10
407.487339
 20
169.291645
 30
0.0
  0
SEQEND
  5
660
330
65F
100
AcDbEntity
  8
001
370
    50
  0
ARC
  5
66C
330
1F
100
AcDbEntity
  8
001
370
    50
100
AcDbCircle
 10
429.715106
 20
171.082123
 30
0.0
 40
0.9999999999999974
100
AcDbArc
 50
0.0
 51
90.0
  0
ARC
  5
66D
330
1F
100
AcDbEntity
  8
001
370
    50
100
AcDbCircle
 10
429.715106
 20
144.082123
 30
0.0
 40
0.9999999999999974
100
AcDbArc
 50
270.0
 51
0.0
  0
LINE
  5
66E
330
1F
100
AcDbEntity
  8
001
370
    50
100
AcDbLine
 10
430.715106
 20
171.082123
 30
0.0
 11
430.715106
 21
144.082123
 31
0.0
  0
LINE
  5
66F
330
1F
100
AcDbEntity
  8
001
  6
DASHED
370
    50
100
AcDbLine
 10
401.369938
 20
155.582123
 30
0.0
 11
401.365112
 21
155.582123
 31
0.0
  0
POLYLINE
  5
670
330
1F
100
AcDbEntity
  8
001
370
    50
100
AcDb2dPolyline
 66
     1
 10
0.0
 20
0.0
 30
0.0
  0
VERTEX
  5
672
330
670
100
AcDbEntity
  8
001
370
    50
100
AcDbVertex
100
AcDb2dVertex
 10
406.88403
 20
165.991645
 30
0.0
  0
VERTEX
  5
673
330
670
100
AcDbEntity
  8
001
370
    50
100
AcDbVertex
100
AcDb2dVertex
 10
406.967579
 20
165.994592
 30
0.0
  0
VERTEX
  5
674
330
670
100
AcDbEntity
  8
001
370
    50
100
AcDbVertex
100
AcDb2dVertex
 10
407.05094
 20
165.999979
 30
0.0
  0
VERTEX
  5
675
330
670
100
AcDbEntity
  8
001
370
    50
100
AcDbVertex
100
AcDb2dVertex
 10
407.160005
 20
166.013775
 30
0.0
  0
VERTEX
  5
676
330
670
100
AcDbEntity
  8
001
370
    50
100
AcDbVertex
100
AcDb2dVertex
 10
407.268001
 20
166.034869
 30
0.0
  0
VERTEX
  5
677
330
670
100
AcDbEntity
  8
001
370
    50
100
AcDbVertex
100
AcDb2dVertex
 10
407.380374
 20
166.063989
 30
0.0
  0
VERTEX
  5
678
330
670
100
AcDbEntity
  8
001
370
    50
100
AcDbVertex
100
AcDb2dVertex
 10
407.490731
 20
166.099867
 30
0.0
  0
VERTEX
  5
679
330
670
100
AcDbEntity
  8
001
370
    50
100
AcDbVertex
100
AcDb2dVertex
 10
407.596778
 20
166.141554
 30
0.0
  0
VERTEX
  5
67A
330
670
100
AcDbEntity
  8
001
370
    50
100
AcDbVertex
100
AcDb2dVertex
 10
407.700197
 20
166.189425
 30
0.0
  0
VERTEX
  5
67B
330
670
100
AcDbEntity
  8
001
370
    50
100
AcDbVertex
100
AcDb2dVertex
 10
407.812155
 20
166.249864
 30
0.0
  0
VERTEX
  5
67C
330
670
100
AcDbEntity
  8
001
370
    50
100
AcDbVertex
100
AcDb2dVertex
 10
407.920065
 20
166.317267
 30
0.0
  0
VERTEX
  5
67D
330
670
100
AcDbEntity
  8
001
370
    50
100
AcDbVertex
100
AcDb2dVertex
 10
408.020416
 20
166.388819
 30
0.0
  0
VERTEX
  5
67E
330
670
100
AcDbEntity
  8
001
370
    50
100
AcDbVertex
100
AcDb2dVertex
 10
408.116312
 20
166.466255
 30
0.0
  0
VERTEX
  5
67F
330
670
100
AcDbEntity
  8
001
370
    50
100
AcDbVertex
100
AcDb2dVertex
 10
408.243886
 20
166.585466
 30
0.0
  0
VERTEX
  5
680
330
670
100
AcDbEntity
  8
001
370
    50
100
AcDbVertex
100
AcDb2dVertex
 10
408.361098
 20
166.714949
 30
0.0
  0
VERTEX
  5
681
330
670
100
AcDbEntity
  8
001
370
    50
100
AcDbVertex
100
AcDb2dVertex
 10
408.461894
 20
166.846194
 30
0.0
  0
VERTEX
  5
682
330
670
100
AcDbEntity
  8
001
370
    50
100
AcDbVertex
100
AcDb2dVertex
 10
408.551933
 20
166.984983
 30
0.0
  0
VERTEX
  5
683
330
670
100
AcDbEntity
  8
001
370
    50
100
AcDbVertex
100
AcDb2dVertex
 10
408.615998
 20
167.1015
 30
0.0
  0
VERTEX
  5
684
330
670
100
AcDbEntity
  8
001
370
    50
100
AcDbVertex
100
AcDb2dVertex
 10
408.672279
 20
167.221964
 30
0.0
  0
VERTEX
  5
685
330
670
100
AcDbEntity
  8
001
370
    50
100
AcDbVertex
100
AcDb2dVertex
 10
408.718649
 20
167.340858
 30
0.0
  0
VERTEX
  5
686
330
670
100
AcDbEntity
  8
001
370
    50
100
AcDbVertex
100
AcDb2dVertex
 10
408.757167
 20
167.462508
 30
0.0
  0
VERTEX
  5
687
330
670
100
AcDbEntity
  8
001
370
    50
100
AcDbVertex
100
AcDb2dVertex
 10
408.786331
 20
167.581093
 30
0.0
  0
VERTEX
  5
688
330
670
100
AcDbEntity
  8
001
370
    50
100
AcDbVertex
100
AcDb2dVertex
 10
408.807609
 20
167.701378
 30
0.0
  0
VERTEX
  5
689
330
670
100
AcDbEntity
  8
001
370
    50
100
AcDbVertex
100
AcDb2dVertex
 10
408.823719
 20
167.878323
 30
0.0
  0
VERTEX
  5
68A
330
670
100
AcDbEntity
  8
001
370
    50
100
AcDbVertex
100
AcDb2dVertex
 10
408.821125
 20
168.056025
 30
0.0
  0
VERTEX
  5
68B
330
670
100
AcDbEntity
  8
001
370
    50
100
AcDbVertex
100
AcDb2dVertex
 10
408.799755
 20
168.226278
 30
0.0
  0
VERTEX
  5
68C
330
670
100
AcDbEntity
  8
001
370
    50
100
AcDbVertex
100
AcDb2dVertex
 10
408.759096
 20
168.392917
 30
0.0
  0
VERTEX
  5
68D
330
670
100
AcDbEntity
  8
001
370
    50
100
AcDbVertex
100
AcDb2dVertex
 10
408.713199
 20
168.519632
 30
0.0
  0
VERTEX
  5
68E
330
670
100
AcDbEntity
  8
001
370
    50
100
AcDbVertex
100
AcDb2dVertex
 10
408.6547
 20
168.640981
 30
0.0
  0
VERTEX
  5
68F
330
670
100
AcDbEntity
  8
001
370
    50
100
AcDbVertex
100
AcDb2dVertex
 10
408.581288
 20
168.758627
 30
0.0
  0
VERTEX
  5
690
330
670
100
AcDbEntity
  8
001
370
    50
100
AcDbVertex
100
AcDb2dVertex
 10
408.495403
 20
168.867551
 30
0.0
  0
VERTEX
  5
691
330
670
100
AcDbEntity
  8
001
370
    50
100
AcDbVertex
100
AcDb2dVertex
 10
408.444272
 20
168.922085
 30
0.0
  0
VERTEX
  5
692
330
670
100
AcDbEntity
  8
001
370
    50
100
AcDbVertex
100
AcDb2dVertex
 10
408.389607
 20
168.972899
 30
0.0
  0
VERTEX
  5
693
330
670
100
AcDbEntity
  8
001
370
    50
100
AcDbVertex
100
AcDb2dVertex
 10
408.328429
 20
169.022014
 30
0.0
  0
VERTEX
  5
694
330
670
100
AcDbEntity
  8
001
370
    50
100
AcDbVertex
100
AcDb2dVertex
 10
408.265158
 20
169.068629
 30
0.0
  0
SEQEND
  5
671
330
670
100
AcDbEntity
  8
001
370
    50
  0
POLYLINE
  5
695
330
1F
100
AcDbEntity
  8
001
370
    50
100
AcDb2dPolyline
 66
     1
 10
0.0
 20
0.0
 30
0.0
  0
VERTEX
  5
697
330
695
100
AcDbEntity
  8
001
370
    50
100
AcDbVertex
100
AcDb2dVertex
 10
407.487339
 20
169.291645
 30
0.0
  0
VERTEX
  5
698
330
695
100
AcDbEntity
  8
001
370
    50
100
AcDbVertex
100
AcDb2dVertex
 10
407.482181
 20
169.291577
 30
0.0
  0
VERTEX
  5
699
330
695
100
AcDbEntity
  8
001
370
    50
100
AcDbVertex
100
AcDb2dVertex
 10
407.477022
 20
169.291504
 30
0.0
  0
VERTEX
  5
69A
330
695
100
AcDbEntity
  8
001
370
    50
100
AcDbVertex
100
AcDb2dVertex
 10
407.392497
 20
169.288679
 30
0.0
  0
VERTEX
  5
69B
330
695
100
AcDbEntity
  8
001
370
    50
100
AcDbVertex
100
AcDb2dVertex
 10
407.30817
 20
169.282251
 30
0.0
  0
VERTEX
  5
69C
330
695
100
AcDbEntity
  8
001
370
    50
100
AcDbVertex
100
AcDb2dVertex
 10
407.21154
 20
169.269693
 30
0.0
  0
VERTEX
  5
69D
330
695
100
AcDbEntity
  8
001
370
    50
100
AcDbVertex
100
AcDb2dVertex
 10
407.115699
 20
169.251969
 30
0.0
  0
VERTEX
  5
69E
330
695
100
AcDbEntity
  8
001
370
    50
100
AcDbVertex
100
AcDb2dVertex
 10
407.023691
 20
169.23034
 30
0.0
  0
VERTEX
  5
69F
330
695
100
AcDbEntity
  8
001
370
    50
100
AcDbVertex
100
AcDb2dVertex
 10
406.932784
 20
169.204492
 30
0.0
  0
VERTEX
  5
6A0
330
695
100
AcDbEntity
  8
001
370
    50
100
AcDbVertex
100
AcDb2dVertex
 10
406.803751
 20
169.159893
 30
0.0
  0
VERTEX
  5
6A1
330
695
100
AcDbEntity
  8
001
370
    50
100
AcDbVertex
100
AcDb2dVertex
 10
406.677815
 20
169.107116
 30
0.0
  0
VERTEX
  5
6A2
330
695
100
AcDbEntity
  8
001
370
    50
100
AcDbVertex
100
AcDb2dVertex
 10
406.56217
 20
169.050213
 30
0.0
  0
VERTEX
  5
6A3
330
695
100
AcDbEntity
  8
001
370
    50
100
AcDbVertex
100
AcDb2dVertex
 10
406.449972
 20
168.986795
 30
0.0
  0
VERTEX
  5
6A4
330
695
100
AcDbEntity
  8
001
370
    50
100
AcDbVertex
100
AcDb2dVertex
 10
406.335609
 20
168.913134
 30
0.0
  0
VERTEX
  5
6A5
330
695
100
AcDbEntity
  8
001
370
    50
100
AcDbVertex
100
AcDb2dVertex
 10
406.225845
 20
168.832778
 30
0.0
  0
VERTEX
  5
6A6
330
695
100
AcDbEntity
  8
001
370
    50
100
AcDbVertex
100
AcDb2dVertex
 10
406.125477
 20
168.749737
 30
0.0
  0
VERTEX
  5
6A7
330
695
100
AcDbEntity
  8
001
370
    50
100
AcDbVertex
100
AcDb2dVertex
 10
406.030155
 20
168.66097
 30
0.0
  0
VERTEX
  5
6A8
330
695
100
AcDbEntity
  8
001
370
    50
100
AcDbVertex
100
AcDb2dVertex
 10
405.943557
 20
168.570373
 30
0.0
  0
VERTEX
  5
6A9
330
695
100
AcDbEntity
  8
001
370
    50
100
AcDbVertex
100
AcDb2dVertex
 10
405.862309
 20
168.474906
 30
0.0
  0
VERTEX
  5
6AA
330
695
100
AcDbEntity
  8
001
370
    50
100
AcDbVertex
100
AcDb2dVertex
 10
405.748621
 20
168.319052
 30
0.0
  0
VERTEX
  5
6AB
330
695
100
AcDbEntity
  8
001
370
    50
100
AcDbVertex
100
AcDb2dVertex
 10
405.65025
 20
168.153053
 30
0.0
  0
VERTEX
  5
6AC
330
695
100
AcDbEntity
  8
001
370
    50
100
AcDbVertex
100
AcDb2dVertex
 10
405.570659
 20
167.981758
 30
0.0
  0
VERTEX
  5
6AD
330
695
100
AcDbEntity
  8
001
370
    50
100
AcDbVertex
100
AcDb2dVertex
 10
405.509355
 20
167.803155
 30
0.0
  0
VERTEX
  5
6AE
330
695
100
AcDbEntity
  8
001
370
    50
100
AcDbVertex
100
AcDb2dVertex
 10
405.471955
 20
167.641321
 30
0.0
  0
VERTEX
  5
6AF
330
695
100
AcDbEntity
  8
001
370
    50
100
AcDbVertex
100
AcDb2dVertex
 10
405.451294
 20
167.476505
 30
0.0
  0
VERTEX
  5
6B0
330
695
100
AcDbEntity
  8
001
370
    50
100
AcDbVertex
100
AcDb2dVertex
 10
405.448658
 20
167.307124
 30
0.0
  0
VERTEX
  5
6B1
330
695
100
AcDbEntity
  8
001
370
    50
100
AcDbVertex
100
AcDb2dVertex
 10
405.465529
 20
167.138647
 30
0.0
  0
VERTEX
  5
6B2
330
695
100
AcDbEntity
  8
001
370
    50
100
AcDbVertex
100
AcDb2dVertex
 10
405.491565
 20
167.013789
 30
0.0
  0
VERTEX
  5
6B3
330
695
100
AcDbEntity
  8
001
370
    50
100
AcDbVertex
100
AcDb2dVertex
 10
405.529075
 20
166.891891
 30
0.0
  0
VERTEX
  5
6B4
330
695
100
AcDbEntity
  8
001
370
    50
100
AcDbVertex
100
AcDb2dVertex
 10
405.580328
 20
166.768996
 30
0.0
  0
VERTEX
  5
6B5
330
695
100
AcDbEntity
  8
001
370
    50
100
AcDbVertex
100
AcDb2dVertex
 10
405.643649
 20
166.651898
 30
0.0
  0
VERTEX
  5
6B6
330
695
100
AcDbEntity
  8
001
370
    50
100
AcDbVertex
100
AcDb2dVertex
 10
405.705267
 20
166.559795
 30
0.0
  0
VERTEX
  5
6B7
330
695
100
AcDbEntity
  8
001
370
    50
100
AcDbVertex
100
AcDb2dVertex
 10
405.774417
 20
166.473197
 30
0.0
  0
VERTEX
  5
6B8
330
695
100
AcDbEntity
  8
001
370
    50
100
AcDbVertex
100
AcDb2dVertex
 10
405.854359
 20
166.388889
 30
0.0
  0
VERTEX
  5
6B9
330
695
100
AcDbEntity
  8
001
370
    50
100
AcDbVertex
100
AcDb2dVertex
 10
405.941349
 20
166.311899
 30
0.0
  0
VERTEX
  5
6BA
330
695
100
AcDbEntity
  8
001
370
    50
100
AcDbVertex
100
AcDb2dVertex
 10
406.04052
 20
166.238973
 30
0.0
  0
VERTEX
  5
6BB
330
695
100
AcDbEntity
  8
001
370
    50
100
AcDbVertex
100
AcDb2dVertex
 10
406.145836
 20
166.175146
 30
0.0
  0
VERTEX
  5
6BC
330
695
100
AcDbEntity
  8
001
370
    50
100
AcDbVertex
100
AcDb2dVertex
 10
406.261084
 20
166.1184
 30
0.0
  0
VERTEX
  5
6BD
330
695
100
AcDbEntity
  8
001
370
    50
100
AcDbVertex
100
AcDb2dVertex
 10
406.380861
 20
166.072129
 30
0.0
  0
VERTEX
  5
6BE
330
695
100
AcDbEntity
  8
001
370
    50
100
AcDbVertex
100
AcDb2dVertex
 10
406.489822
 20
166.040202
 30
0.0
  0
VERTEX
  5
6BF
330
695
100
AcDbEntity
  8
001
370
    50
100
AcDbVertex
100
AcDb2dVertex
 10
406.600887
 20
166.016392
 30
0.0
  0
VERTEX
  5
6C0
330
695
100
AcDbEntity
  8
001
370
    50
100
AcDbVertex
100
AcDb2dVertex
 10
406.715345
 20
166.000187
 30
0.0
  0
VERTEX
  5
6C1
330
695
100
AcDbEntity
  8
001
370
    50
100
AcDbVertex
100
AcDb2dVertex
 10
406.8306
 20
165.992493
 30
0.0
  0
VERTEX
  5
6C2
330
695
100
AcDbEntity
  8
001
370
    50
100
AcDbVertex
100
AcDb2dVertex
 10
406.857313
 20
165.991947
 30
0.0
  0
VERTEX
  5
6C3
330
695
100
AcDbEntity
  8
001
370
    50
100
AcDbVertex
100
AcDb2dVertex
 10
406.88403
 20
165.991645
 30
0.0
  0
SEQEND
  5
696
330
695
100
AcDbEntity
  8
001
370
    50
  0
POLYLINE
  5
6C4
330
1F
100
AcDbEntity
  8
001
370
    50
100
AcDb2dPolyline
 66
     1
 10
0.0
 20
0.0
 30
0.0
  0
VERTEX
  5
6C6
330
6C4
100
AcDbEntity
  8
001
370
    50
100
AcDbVertex
100
AcDb2dVertex
 10
402.043658
 20
153.809445
 30
0.0
  0
VERTEX
  5
6C7
330
6C4
100
AcDbEntity
  8
001
370
    50
100
AcDbVertex
100
AcDb2dVertex
 10
402.030411
 20
153.611655
 30
0.0
  0
VERTEX
  5
6C8
330
6C4
100
AcDbEntity
  8
001
370
    50
100
AcDbVertex
100
AcDb2dVertex
 10
402.016793
 20
153.413892
 30
0.0
  0
VERTEX
  5
6C9
330
6C4
100
AcDbEntity
  8
001
370
    50
100
AcDbVertex
100
AcDb2dVertex
 10
402.001595
 20
153.203527
 30
0.0
  0
VERTEX
  5
6CA
330
6C4
100
AcDbEntity
  8
001
370
    50
100
AcDbVertex
100
AcDb2dVertex
 10
401.985786
 20
152.993207
 30
0.0
  0
VERTEX
  5
6CB
330
6C4
100
AcDbEntity
  8
001
370
    50
100
AcDbVertex
100
AcDb2dVertex
 10
401.969958
 20
152.787658
 30
0.0
  0
VERTEX
  5
6CC
330
6C4
100
AcDbEntity
  8
001
370
    50
100
AcDbVertex
100
AcDb2dVertex
 10
401.953948
 20
152.582123
 30
0.0
  0
SEQEND
  5
6C5
330
6C4
100
AcDbEntity
  8
001
370
    50
  0
LINE
  5
6CD
330
1F
100
AcDbEntity
  8
001
370
    50
100
AcDbLine
 10
420.245171
 20
155.582123
 30
0.0
 11
401.365106
 21
155.582123
 31
0.0
  0
LINE
  5
6CE
330
1F
100
AcDbEntity
  8
001
  6
DASHED
370
    30
100
AcDbLine
 10
402.043658
 20
161.2256
 30
0.0
 11
402.043658
 21
155.582123
 31
0.0
  0
LINE
  5
6CF
330
1F
100
AcDbEntity
  8
001
370
    50
100
AcDbLine
 10
402.043658
 20
155.582123
 30
0.0
 11
402.043658
 21
153.809445
 31
0.0
  0
LINE
  5
6D0
330
1F
100
AcDbEntity
  8
001
370
    50
100
AcDbLine
 10
432.715106
 20
145.082123
 30
0.0
 11
432.715106
 21
170.082123
 31
0.0
  0
LINE
  5
6D1
330
1F
100
AcDbEntity
  8
001
370
    50
100
AcDbLine
 10
432.715106
 20
169.582123
 30
0.0
 11
430.715106
 21
169.582123
 31
0.0
  0
LINE
  5
6D2
330
1F
100
AcDbEntity
  8
001
370
    50
100
AcDbLine
 10
430.715106
 20
145.582123
 30
0.0
 11
432.715106
 21
145.582123
 31
0.0
  0
LINE
  5
6D3
330
1F
100
AcDbEntity
  8
001
370
    50
100
AcDbLine
 10
400.813219
 20
147.02254
 30
0.0
 11
401.20391
 21
151.836329
 31
0.0
  0
CIRCLE
  5
6D4
330
1F
100
AcDbEntity
  8
001
370
    50
100
AcDbCircle
 10
408.81449
 20
147.486699
 30
0.0
 40
3.0
  0
LINE
  5
6D5
330
1F
100
AcDbEntity
  8
001
370
    50
100
AcDbLine
 10
416.401973
 20
147.948258
 30
0.0
 11
416.011282
 21
143.134469
 31
0.0
  0
LINE
  5
6D6
330
1F
100
AcDbEntity
  8
001
370
    50
100
AcDbLine
 10
412.38995
 20
152.271758
 30
0.0
 11
401.600086
 21
152.203963
 31
0.0
  0
CIRCLE
  5
6D7
330
1F
100
AcDbEntity
  8
001
370
    50
100
AcDbCircle
 10
408.819487
 20
147.499961
 30
0.0
 40
2.5
  0
LINE
  5
6D8
330
1F
100
AcDbEntity
  8
001
370
    50
100
AcDbLine
 10
409.399754
 20
148.498272
 30
0.0
 11
409.083818
 21
149.049196
 31
0.0
  0
LINE
  5
6D9
330
1F
100
AcDbEntity
  8
001
370
    50
100
AcDbLine
 10
408.245058
 20
148.501642
 30
0.0
 11
408.564205
 21
149.050713
 31
0.0
  0
ARC
  5
6DA
330
1F
100
AcDbEntity
  8
001
370
    50
100
AcDbCircle
 10
408.823573
 20
148.899955
 30
0.0
 40
0.3
100
AcDbArc
 50
29.832778
 51
149.832778
  0
LINE
  5
6DB
330
1F
100
AcDbEntity
  8
001
370
    50
100
AcDbLine
 10
408.245058
 20
148.501642
 30
0.0
 11
407.609975
 21
148.503495
 31
0.0
  0
LINE
  5
6DC
330
1F
100
AcDbEntity
  8
001
370
    50
100
AcDbLine
 10
407.664792
 20
147.503331
 30
0.0
 11
407.348856
 21
148.054255
 31
0.0
  0
ARC
  5
6DD
330
1F
100
AcDbEntity
  8
001
370
    50
100
AcDbCircle
 10
407.6091
 20
148.203497
 30
0.0
 40
0.3
100
AcDbArc
 50
89.832778
 51
209.832778
  0
LINE
  5
6DE
330
1F
100
AcDbEntity
  8
001
370
    50
100
AcDbLine
 10
407.664792
 20
147.503331
 30
0.0
 11
407.345645
 21
146.95426
 31
0.0
  0
LINE
  5
6DF
330
1F
100
AcDbEntity
  8
001
370
    50
100
AcDbLine
 10
408.239221
 20
146.50165
 30
0.0
 11
407.604138
 21
146.503504
 31
0.0
  0
ARC
  5
6E0
330
1F
100
AcDbEntity
  8
001
370
    50
100
AcDbCircle
 10
407.605014
 20
146.803503
 30
0.0
 40
0.3
100
AcDbArc
 50
149.832778
 51
269.832778
  0
LINE
  5
6E1
330
1F
100
AcDbEntity
  8
001
370
    50
100
AcDbLine
 10
408.239221
 20
146.50165
 30
0.0
 11
408.555157
 21
145.950726
 31
0.0
  0
LINE
  5
6E2
330
1F
100
AcDbEntity
  8
001
370
    50
100
AcDbLine
 10
409.393917
 20
146.49828
 30
0.0
 11
409.07477
 21
145.949209
 31
0.0
  0
ARC
  5
6E3
330
1F
100
AcDbEntity
  8
001
370
    50
100
AcDbCircle
 10
408.815401
 20
146.099967
 30
0.0
 40
0.3
100
AcDbArc
 50
209.832778
 51
329.832778
  0
LINE
  5
6E4
330
1F
100
AcDbEntity
  8
001
370
    50
100
AcDbLine
 10
409.393917
 20
146.49828
 30
0.0
 11
410.028999
 21
146.496427
 31
0.0
  0
LINE
  5
6E5
330
1F
100
AcDbEntity
  8
001
370
    50
100
AcDbLine
 10
409.974183
 20
147.496591
 30
0.0
 11
410.290119
 21
146.945666
 31
0.0
  0
ARC
  5
6E6
330
1F
100
AcDbEntity
  8
001
370
    50
100
AcDbCircle
 10
410.029875
 20
146.796425
 30
0.0
 40
0.3
100
AcDbArc
 50
269.832778
 51
29.832778
  0
LINE
  5
6E7
330
1F
100
AcDbEntity
  8
001
370
    50
100
AcDbLine
 10
409.974183
 20
147.496591
 30
0.0
 11
410.293329
 21
148.045662
 31
0.0
  0
LINE
  5
6E8
330
1F
100
AcDbEntity
  8
001
370
    50
100
AcDbLine
 10
409.399754
 20
148.498272
 30
0.0
 11
410.034836
 21
148.496418
 31
0.0
  0
ARC
  5
6E9
330
1F
100
AcDbEntity
  8
001
370
    50
100
AcDbCircle
 10
410.033961
 20
148.196419
 30
0.0
 40
0.3
100
AcDbArc
 50
329.832778
 51
89.832778
  0
LINE
  5
6EA
330
1F
100
AcDbEntity
  8
001
370
    50
100
AcDbLine
 10
404.825242
 20
142.699039
 30
0.0
 11
415.615106
 21
142.766835
 31
0.0
  0
ARC
  5
6EB
330
1F
100
AcDbEntity
  8
001
370
    50
100
AcDbCircle
 10
401.602599
 20
151.803971
 30
0.0
 40
0.4
100
AcDbArc
 50
90.36
 51
175.36
  0
ARC
  5
6EC
330
1F
100
AcDbEntity
  8
001
370
    50
100
AcDbCircle
 10
415.612593
 20
143.166827
 30
0.0
 40
0.4
100
AcDbArc
 50
270.36
 51
355.36
  0
LINE
  5
6ED
330
1F
100
AcDbEntity
  8
001
370
    50
100
AcDbLine
 10
401.365106
 20
166.414772
 30
0.0
 11
401.365106
 21
152.125836
 31
0.0
  0
LINE
  5
6EE
330
1F
100
AcDbEntity
  8
001
370
    50
100
AcDbLine
 10
401.924234
 20
152.206
 30
0.0
 11
401.953948
 21
152.582123
 31
0.0
  0
LINE
  5
6EF
330
1F
100
AcDbEntity
  8
001
370
    50
100
AcDbLine
 10
404.825242
 20
172.465207
 30
0.0
 11
415.893103
 21
172.395665
 31
0.0
  0
ARC
  5
6F0
330
1F
100
AcDbEntity
  8
001
370
    50
100
AcDbCircle
 10
415.89059
 20
171.995673
 30
0.0
 40
0.4
100
AcDbArc
 50
4.64
 51
89.64
  0
LINE
  5
6F1
330
1F
100
AcDbEntity
  8
001
370
    50
100
AcDbLine
 10
416.289279
 20
172.028031
 30
0.0
 11
416.299763
 21
171.898857
 31
0.0
  0
POLYLINE
  5
6F2
330
1F
100
AcDbEntity
  8
001
370
    50
100
AcDb2dPolyline
 66
     1
 10
0.0
 20
0.0
 30
0.0
  0
VERTEX
  5
6F4
330
6F2
100
AcDbEntity
  8
001
370
    50
100
AcDbVertex
100
AcDb2dVertex
 10
415.05631
 20
171.294126
 30
0.0
  0
VERTEX
  5
6F5
330
6F2
100
AcDbEntity
  8
001
370
    50
100
AcDbVertex
100
AcDb2dVertex
 10
413.586897
 20
171.325717
 30
0.0
  0
VERTEX
  5
6F6
330
6F2
100
AcDbEntity
  8
001
370
    50
100
AcDbVertex
100
AcDb2dVertex
 10
411.439151
 20
171.364118
 30
0.0
  0
VERTEX
  5
6F7
330
6F2
100
AcDbEntity
  8
001
370
    50
100
AcDbVertex
100
AcDb2dVertex
 10
408.952146
 20
171.396833
 30
0.0
  0
VERTEX
  5
6F8
330
6F2
100
AcDbEntity
  8
001
370
    50
100
AcDbVertex
100
AcDb2dVertex
 10
407.64599
 20
171.407816
 30
0.0
  0
VERTEX
  5
6F9
330
6F2
100
AcDbEntity
  8
001
370
    50
100
AcDbVertex
100
AcDb2dVertex
 10
406.386135
 20
171.414728
 30
0.0
  0
SEQEND
  5
6F3
330
6F2
100
AcDbEntity
  8
001
370
    50
  0
ARC
  5
6FA
330
1F
100
AcDbEntity
  8
001
370
    50
100
AcDbCircle
 10
406.365106
 20
166.414772
 30
0.0
 40
5.0
100
AcDbArc
 50
89.759019
 51
180.0
  0
LINE
  5
6FB
330
1F
100
AcDbEntity
  8
001
370
    50
100
AcDbLine
 10
400.813219
 20
168.141707
 30
0.0
 11
401.365106
 21
161.341788
 31
0.0
  0
LINE
  5
6FC
330
1F
100
AcDbEntity
  8
001
  6
DASHED
370
    30
100
AcDbLine
 10
402.043658
 20
161.2256
 30
0.0
 11
401.535359
 21
167.708425
 31
0.0
  0
LINE
  5
6FD
330
1F
100
AcDbEntity
  8
001
370
     9
100
AcDbLine
 10
389.217172
 20
142.69896
 30
0.0
 11
404.80011
 21
142.69896
 31
0.0
  0
ARC
  5
6FE
330
1F
100
AcDbEntity
  8
001
370
    50
100
AcDbCircle
 10
415.253499
 20
150.544777
 30
0.0
 40
3.0
100
AcDbArc
 50
292.205407
 51
144.79356
  0
POLYLINE
  5
6FF
330
1F
100
AcDbEntity
  8
001
370
    50
100
AcDb2dPolyline
 66
     1
 10
0.0
 20
0.0
 30
0.0
  0
VERTEX
  5
701
330
6FF
100
AcDbEntity
  8
001
370
    50
100
AcDbVertex
100
AcDb2dVertex
 10
416.021888
 20
143.265146
 30
0.0
  0
VERTEX
  5
702
330
6FF
100
AcDbEntity
  8
001
370
    50
100
AcDbVertex
100
AcDb2dVertex
 10
416.16069
 20
143.263609
 30
0.0
  0
VERTEX
  5
703
330
6FF
100
AcDbEntity
  8
001
370
    50
100
AcDbVertex
100
AcDb2dVertex
 10
416.299493
 20
143.262071
 30
0.0
  0
VERTEX
  5
704
330
6FF
100
AcDbEntity
  8
001
370
    50
100
AcDbVertex
100
AcDb2dVertex
 10
416.405429
 20
143.260898
 30
0.0
  0
VERTEX
  5
705
330
6FF
100
AcDbEntity
  8
001
370
    50
100
AcDbVertex
100
AcDb2dVertex
 10
416.511364
 20
143.259724
 30
0.0
  0
VERTEX
  5
706
330
6FF
100
AcDbEntity
  8
001
370
    50
100
AcDbVertex
100
AcDb2dVertex
 10
416.58055
 20
143.258958
 30
0.0
  0
VERTEX
  5
707
330
6FF
100
AcDbEntity
  8
001
370
    50
100
AcDbVertex
100
AcDb2dVertex
 10
416.649735
 20
143.258192
 30
0.0
  0
VERTEX
  5
708
330
6FF
100
AcDbEntity
  8
001
370
    50
100
AcDbVertex
100
AcDb2dVertex
 10
417.31248
 20
143.251247
 30
0.0
  0
VERTEX
  5
709
330
6FF
100
AcDbEntity
  8
001
370
    50
100
AcDbVertex
100
AcDb2dVertex
 10
418.103745
 20
143.244069
 30
0.0
  0
VERTEX
  5
70A
330
6FF
100
AcDbEntity
  8
001
370
    50
100
AcDbVertex
100
AcDb2dVertex
 10
419.16821
 20
143.236667
 30
0.0
  0
VERTEX
  5
70B
330
6FF
100
AcDbEntity
  8
001
370
    50
100
AcDbVertex
100
AcDb2dVertex
 10
419.896536
 20
143.232853
 30
0.0
  0
SEQEND
  5
700
330
6FF
100
AcDbEntity
  8
001
370
    50
  0
LINE
  5
70C
330
1F
100
AcDbEntity
  8
001
370
    50
100
AcDbLine
 10
441.167239
 20
170.082123
 30
0.0
 11
432.715106
 21
170.082123
 31
0.0
  0
LINE
  5
70D
330
1F
100
AcDbEntity
  8
001
  6
CENTER
370
     9
100
AcDbLine
 10
400.141491
 20
157.582123
 30
0.0
 11
445.11711
 21
157.582123
 31
0.0
  0
LINE
  5
70E
330
1F
100
AcDbEntity
  8
001
370
    50
100
AcDbLine
 10
441.167239
 20
145.082123
 30
0.0
 11
432.715106
 21
145.082123
 31
0.0
  0
POLYLINE
  5
70F
330
1F
100
AcDbEntity
  8
001
370
    50
100
AcDb2dPolyline
 66
     1
 10
0.0
 20
0.0
 30
0.0
  0
VERTEX
  5
711
330
70F
100
AcDbEntity
  8
001
370
    50
100
AcDbVertex
100
AcDb2dVertex
 10
425.821515
 20
208.953118
 30
0.0
  0
VERTEX
  5
712
330
70F
100
AcDbEntity
  8
001
370
    50
100
AcDbVertex
100
AcDb2dVertex
 10
425.824514
 20
208.953031
 30
0.0
  0
VERTEX
  5
713
330
70F
100
AcDbEntity
  8
001
370
    50
100
AcDbVertex
100
AcDb2dVertex
 10
425.828898
 20
208.952937
 30
0.0
  0
VERTEX
  5
714
330
70F
100
AcDbEntity
  8
001
370
    50
100
AcDbVertex
100
AcDb2dVertex
 10
425.833281
 20
208.952888
 30
0.0
  0
VERTEX
  5
715
330
70F
100
AcDbEntity
  8
001
370
    50
100
AcDbVertex
100
AcDb2dVertex
 10
425.836281
 20
208.952877
 30
0.0
  0
SEQEND
  5
710
330
70F
100
AcDbEntity
  8
001
370
    50
  0
POLYLINE
  5
716
330
1F
100
AcDbEntity
  8
001
370
    50
100
AcDb2dPolyline
 66
     1
 10
0.0
 20
0.0
 30
0.0
  0
VERTEX
  5
718
330
716
100
AcDbEntity
  8
001
370
    50
100
AcDbVertex
100
AcDb2dVertex
 10
425.836281
 20
237.952877
 30
0.0
  0
VERTEX
  5
719
330
716
100
AcDbEntity
  8
001
370
    50
100
AcDbVertex
100
AcDb2dVertex
 10
425.833281
 20
237.952865
 30
0.0
  0
VERTEX
  5
71A
330
716
100
AcDbEntity
  8
001
370
    50
100
AcDbVertex
100
AcDb2dVertex
 10
425.828898
 20
237.952816
 30
0.0
  0
VERTEX
  5
71B
330
716
100
AcDbEntity
  8
001
370
    50
100
AcDbVertex
100
AcDb2dVertex
 10
425.824514
 20
237.952722
 30
0.0
  0
VERTEX
  5
71C
330
716
100
AcDbEntity
  8
001
370
    50
100
AcDbVertex
100
AcDb2dVertex
 10
425.821515
 20
237.952635
 30
0.0
  0
SEQEND
  5
717
330
716
100
AcDbEntity
  8
001
370
    50
  0
LINE
  5
71D
330
1F
100
AcDbEntity
  8
001
370
    50
100
AcDbLine
 10
429.715106
 20
237.952877
 30
0.0
 11
425.836281
 21
237.952877
 31
0.0
  0
LINE
  5
71E
330
1F
100
AcDbEntity
  8
001
370
    50
100
AcDbLine
 10
425.836281
 20
208.952877
 30
0.0
 11
429.715106
 21
208.952877
 31
0.0
  0
POLYLINE
  5
71F
330
1F
100
AcDbEntity
  8
001
370
    50
100
AcDb2dPolyline
 66
     1
 10
0.0
 20
0.0
 30
0.0
  0
VERTEX
  5
721
330
71F
100
AcDbEntity
  8
001
370
    50
100
AcDbVertex
100
AcDb2dVertex
 10
419.896536
 20
209.103606
 30
0.0
  0
VERTEX
  5
722
330
71F
100
AcDbEntity
  8
001
370
    50
100
AcDbVertex
100
AcDb2dVertex
 10
420.394727
 20
209.116683
 30
0.0
  0
VERTEX
  5
723
330
71F
100
AcDbEntity
  8
001
370
    50
100
AcDbVertex
100
AcDb2dVertex
 10
421.122827
 20
209.136696
 30
0.0
  0
VERTEX
  5
724
330
71F
100
AcDbEntity
  8
001
370
    50
100
AcDbVertex
100
AcDb2dVertex
 10
421.849184
 20
209.157913
 30
0.0
  0
VERTEX
  5
725
330
71F
100
AcDbEntity
  8
001
370
    50
100
AcDbVertex
100
AcDb2dVertex
 10
422.346147
 20
209.173045
 30
0.0
  0
SEQEND
  5
720
330
71F
100
AcDbEntity
  8
001
370
    50
  0
POLYLINE
  5
726
330
1F
100
AcDbEntity
  8
001
370
    50
100
AcDb2dPolyline
 66
     1
 10
0.0
 20
0.0
 30
0.0
  0
VERTEX
  5
728
330
726
100
AcDbEntity
  8
001
370
    50
100
AcDbVertex
100
AcDb2dVertex
 10
422.346147
 20
209.173045
 30
0.0
  0
VERTEX
  5
729
330
726
100
AcDbEntity
  8
001
370
    50
100
AcDbVertex
100
AcDb2dVertex
 10
422.594534
 20
209.178172
 30
0.0
  0
VERTEX
  5
72A
330
726
100
AcDbEntity
  8
001
370
    50
100
AcDbVertex
100
AcDb2dVertex
 10
422.84294
 20
209.181021
 30
0.0
  0
VERTEX
  5
72B
330
726
100
AcDbEntity
  8
001
370
    50
100
AcDbVertex
100
AcDb2dVertex
 10
423.091698
 20
209.17977
 30
0.0
  0
VERTEX
  5
72C
330
726
100
AcDbEntity
  8
001
370
    50
100
AcDbVertex
100
AcDb2dVertex
 10
423.340416
 20
209.174458
 30
0.0
  0
VERTEX
  5
72D
330
726
100
AcDbEntity
  8
001
370
    50
100
AcDbVertex
100
AcDb2dVertex
 10
423.582388
 20
209.165796
 30
0.0
  0
VERTEX
  5
72E
330
726
100
AcDbEntity
  8
001
370
    50
100
AcDbVertex
100
AcDb2dVertex
 10
423.824212
 20
209.153797
 30
0.0
  0
VERTEX
  5
72F
330
726
100
AcDbEntity
  8
001
370
    50
100
AcDbVertex
100
AcDb2dVertex
 10
424.052855
 20
209.139399
 30
0.0
  0
VERTEX
  5
730
330
726
100
AcDbEntity
  8
001
370
    50
100
AcDbVertex
100
AcDb2dVertex
 10
424.281294
 20
209.122061
 30
0.0
  0
VERTEX
  5
731
330
726
100
AcDbEntity
  8
001
370
    50
100
AcDbVertex
100
AcDb2dVertex
 10
424.491422
 20
209.103544
 30
0.0
  0
VERTEX
  5
732
330
726
100
AcDbEntity
  8
001
370
    50
100
AcDbVertex
100
AcDb2dVertex
 10
424.701337
 20
209.082763
 30
0.0
  0
VERTEX
  5
733
330
726
100
AcDbEntity
  8
001
370
    50
100
AcDbVertex
100
AcDb2dVertex
 10
424.886021
 20
209.062751
 30
0.0
  0
VERTEX
  5
734
330
726
100
AcDbEntity
  8
001
370
    50
100
AcDbVertex
100
AcDb2dVertex
 10
425.070541
 20
209.041276
 30
0.0
  0
VERTEX
  5
735
330
726
100
AcDbEntity
  8
001
370
    50
100
AcDbVertex
100
AcDb2dVertex
 10
425.226126
 20
209.022171
 30
0.0
  0
VERTEX
  5
736
330
726
100
AcDbEntity
  8
001
370
    50
100
AcDbVertex
100
AcDb2dVertex
 10
425.381642
 20
209.002555
 30
0.0
  0
VERTEX
  5
737
330
726
100
AcDbEntity
  8
001
370
    50
100
AcDbVertex
100
AcDb2dVertex
 10
425.501625
 20
208.987353
 30
0.0
  0
VERTEX
  5
738
330
726
100
AcDbEntity
  8
001
370
    50
100
AcDbVertex
100
AcDb2dVertex
 10
425.621646
 20
208.972351
 30
0.0
  0
VERTEX
  5
739
330
726
100
AcDbEntity
  8
001
370
    50
100
AcDbVertex
100
AcDb2dVertex
 10
425.681238
 20
208.965205
 30
0.0
  0
VERTEX
  5
73A
330
726
100
AcDbEntity
  8
001
370
    50
100
AcDbVertex
100
AcDb2dVertex
 10
425.740929
 20
208.959084
 30
0.0
  0
VERTEX
  5
73B
330
726
100
AcDbEntity
  8
001
370
    50
100
AcDbVertex
100
AcDb2dVertex
 10
425.781202
 20
208.955881
 30
0.0
  0
VERTEX
  5
73C
330
726
100
AcDbEntity
  8
001
370
    50
100
AcDbVertex
100
AcDb2dVertex
 10
425.821515
 20
208.953118
 30
0.0
  0
SEQEND
  5
727
330
726
100
AcDbEntity
  8
001
370
    50
  0
POLYLINE
  5
73D
330
1F
100
AcDbEntity
  8
001
370
    50
100
AcDb2dPolyline
 66
     1
 10
0.0
 20
0.0
 30
0.0
  0
VERTEX
  5
73F
330
73D
100
AcDbEntity
  8
001
370
    50
100
AcDbVertex
100
AcDb2dVertex
 10
425.836281
 20
208.952877
 30
0.0
  0
VERTEX
  5
740
330
73D
100
AcDbEntity
  8
001
370
    50
100
AcDbVertex
100
AcDb2dVertex
 10
426.065366
 20
209.042465
 30
0.0
  0
VERTEX
  5
741
330
73D
100
AcDbEntity
  8
001
370
    50
100
AcDbVertex
100
AcDb2dVertex
 10
426.350354
 20
209.249
 30
0.0
  0
VERTEX
  5
742
330
73D
100
AcDbEntity
  8
001
370
    50
100
AcDbVertex
100
AcDb2dVertex
 10
426.668994
 20
209.672787
 30
0.0
  0
VERTEX
  5
743
330
73D
100
AcDbEntity
  8
001
370
    50
100
AcDbVertex
100
AcDb2dVertex
 10
426.843431
 20
210.125274
 30
0.0
  0
VERTEX
  5
744
330
73D
100
AcDbEntity
  8
001
370
    50
100
AcDbVertex
100
AcDb2dVertex
 10
427.07284
 20
210.801771
 30
0.0
  0
VERTEX
  5
745
330
73D
100
AcDbEntity
  8
001
370
    50
100
AcDbVertex
100
AcDb2dVertex
 10
427.29537
 20
211.545908
 30
0.0
  0
VERTEX
  5
746
330
73D
100
AcDbEntity
  8
001
370
    50
100
AcDbVertex
100
AcDb2dVertex
 10
427.540699
 20
212.643234
 30
0.0
  0
VERTEX
  5
747
330
73D
100
AcDbEntity
  8
001
370
    50
100
AcDbVertex
100
AcDb2dVertex
 10
427.687714
 20
213.452877
 30
0.0
  0
SEQEND
  5
73E
330
73D
100
AcDbEntity
  8
001
370
    50
  0
POLYLINE
  5
748
330
1F
100
AcDbEntity
  8
001
370
    50
100
AcDb2dPolyline
 66
     1
 10
0.0
 20
0.0
 30
0.0
  0
VERTEX
  5
74A
330
748
100
AcDbEntity
  8
001
370
    50
100
AcDbVertex
100
AcDb2dVertex
 10
420.245171
 20
221.452877
 30
0.0
  0
VERTEX
  5
74B
330
748
100
AcDbEntity
  8
001
370
    50
100
AcDbVertex
100
AcDb2dVertex
 10
420.576493
 20
221.44358
 30
0.0
  0
VERTEX
  5
74C
330
748
100
AcDbEntity
  8
001
370
    50
100
AcDbVertex
100
AcDb2dVertex
 10
420.907268
 20
221.425811
 30
0.0
  0
VERTEX
  5
74D
330
748
100
AcDbEntity
  8
001
370
    50
100
AcDbVertex
100
AcDb2dVertex
 10
421.238036
 20
221.392772
 30
0.0
  0
VERTEX
  5
74E
330
748
100
AcDbEntity
  8
001
370
    50
100
AcDbVertex
100
AcDb2dVertex
 10
421.567175
 20
221.345082
 30
0.0
  0
VERTEX
  5
74F
330
748
100
AcDbEntity
  8
001
370
    50
100
AcDbVertex
100
AcDb2dVertex
 10
421.893997
 20
221.284672
 30
0.0
  0
VERTEX
  5
750
330
748
100
AcDbEntity
  8
001
370
    50
100
AcDbVertex
100
AcDb2dVertex
 10
422.218106
 20
221.211394
 30
0.0
  0
VERTEX
  5
751
330
748
100
AcDbEntity
  8
001
370
    50
100
AcDbVertex
100
AcDb2dVertex
 10
422.537636
 20
221.125103
 30
0.0
  0
VERTEX
  5
752
330
748
100
AcDbEntity
  8
001
370
    50
100
AcDbVertex
100
AcDb2dVertex
 10
422.853276
 20
221.02545
 30
0.0
  0
VERTEX
  5
753
330
748
100
AcDbEntity
  8
001
370
    50
100
AcDbVertex
100
AcDb2dVertex
 10
423.164949
 20
220.912293
 30
0.0
  0
VERTEX
  5
754
330
748
100
AcDbEntity
  8
001
370
    50
100
AcDbVertex
100
AcDb2dVertex
 10
423.471552
 20
220.78605
 30
0.0
  0
VERTEX
  5
755
330
748
100
AcDbEntity
  8
001
370
    50
100
AcDbVertex
100
AcDb2dVertex
 10
423.773251
 20
220.646671
 30
0.0
  0
VERTEX
  5
756
330
748
100
AcDbEntity
  8
001
370
    50
100
AcDbVertex
100
AcDb2dVertex
 10
424.068802
 20
220.494688
 30
0.0
  0
VERTEX
  5
757
330
748
100
AcDbEntity
  8
001
370
    50
100
AcDbVertex
100
AcDb2dVertex
 10
424.356781
 20
220.330845
 30
0.0
  0
VERTEX
  5
758
330
748
100
AcDbEntity
  8
001
370
    50
100
AcDbVertex
100
AcDb2dVertex
 10
424.637492
 20
220.154836
 30
0.0
  0
VERTEX
  5
759
330
748
100
AcDbEntity
  8
001
370
    50
100
AcDbVertex
100
AcDb2dVertex
 10
424.908087
 20
219.968335
 30
0.0
  0
VERTEX
  5
75A
330
748
100
AcDbEntity
  8
001
370
    50
100
AcDbVertex
100
AcDb2dVertex
 10
425.170088
 20
219.769966
 30
0.0
  0
VERTEX
  5
75B
330
748
100
AcDbEntity
  8
001
370
    50
100
AcDbVertex
100
AcDb2dVertex
 10
425.407969
 20
219.572646
 30
0.0
  0
VERTEX
  5
75C
330
748
100
AcDbEntity
  8
001
370
    50
100
AcDbVertex
100
AcDb2dVertex
 10
425.637171
 20
219.365302
 30
0.0
  0
VERTEX
  5
75D
330
748
100
AcDbEntity
  8
001
370
    50
100
AcDbVertex
100
AcDb2dVertex
 10
425.856584
 20
219.149193
 30
0.0
  0
VERTEX
  5
75E
330
748
100
AcDbEntity
  8
001
370
    50
100
AcDbVertex
100
AcDb2dVertex
 10
426.066664
 20
218.924003
 30
0.0
  0
VERTEX
  5
75F
330
748
100
AcDbEntity
  8
001
370
    50
100
AcDbVertex
100
AcDb2dVertex
 10
426.264891
 20
218.69267
 30
0.0
  0
VERTEX
  5
760
330
748
100
AcDbEntity
  8
001
370
    50
100
AcDbVertex
100
AcDb2dVertex
 10
426.453053
 20
218.453082
 30
0.0
  0
VERTEX
  5
761
330
748
100
AcDbEntity
  8
001
370
    50
100
AcDbVertex
100
AcDb2dVertex
 10
426.627419
 20
218.210068
 30
0.0
  0
VERTEX
  5
762
330
748
100
AcDbEntity
  8
001
370
    50
100
AcDbVertex
100
AcDb2dVertex
 10
426.790824
 20
217.959552
 30
0.0
  0
VERTEX
  5
763
330
748
100
AcDbEntity
  8
001
370
    50
100
AcDbVertex
100
AcDb2dVertex
 10
426.96791
 20
217.656204
 30
0.0
  0
VERTEX
  5
764
330
748
100
AcDbEntity
  8
001
370
    50
100
AcDbVertex
100
AcDb2dVertex
 10
427.128705
 20
217.343881
 30
0.0
  0
VERTEX
  5
765
330
748
100
AcDbEntity
  8
001
370
    50
100
AcDbVertex
100
AcDb2dVertex
 10
427.269954
 20
217.030778
 30
0.0
  0
VERTEX
  5
766
330
748
100
AcDbEntity
  8
001
370
    50
100
AcDbVertex
100
AcDb2dVertex
 10
427.39496
 20
216.710853
 30
0.0
  0
VERTEX
  5
767
330
748
100
AcDbEntity
  8
001
370
    50
100
AcDbVertex
100
AcDb2dVertex
 10
427.499889
 20
216.395694
 30
0.0
  0
VERTEX
  5
768
330
748
100
AcDbEntity
  8
001
370
    50
100
AcDbVertex
100
AcDb2dVertex
 10
427.588427
 20
216.075564
 30
0.0
  0
VERTEX
  5
769
330
748
100
AcDbEntity
  8
001
370
    50
100
AcDbVertex
100
AcDb2dVertex
 10
427.65724
 20
215.765345
 30
0.0
  0
VERTEX
  5
76A
330
748
100
AcDbEntity
  8
001
370
    50
100
AcDbVertex
100
AcDb2dVertex
 10
427.710539
 20
215.452073
 30
0.0
  0
VERTEX
  5
76B
330
748
100
AcDbEntity
  8
001
370
    50
100
AcDbVertex
100
AcDb2dVertex
 10
427.747393
 20
215.147309
 30
0.0
  0
VERTEX
  5
76C
330
748
100
AcDbEntity
  8
001
370
    50
100
AcDbVertex
100
AcDb2dVertex
 10
427.769705
 20
214.841162
 30
0.0
  0
VERTEX
  5
76D
330
748
100
AcDbEntity
  8
001
370
    50
100
AcDbVertex
100
AcDb2dVertex
 10
427.777331
 20
214.546677
 30
0.0
  0
VERTEX
  5
76E
330
748
100
AcDbEntity
  8
001
370
    50
100
AcDbVertex
100
AcDb2dVertex
 10
427.771729
 20
214.252123
 30
0.0
  0
VERTEX
  5
76F
330
748
100
AcDbEntity
  8
001
370
    50
100
AcDbVertex
100
AcDb2dVertex
 10
427.760123
 20
214.048427
 30
0.0
  0
VERTEX
  5
770
330
748
100
AcDbEntity
  8
001
370
    50
100
AcDbVertex
100
AcDb2dVertex
 10
427.741449
 20
213.845324
 30
0.0
  0
VERTEX
  5
771
330
748
100
AcDbEntity
  8
001
370
    50
100
AcDbVertex
100
AcDb2dVertex
 10
427.71646
 20
213.648878
 30
0.0
  0
VERTEX
  5
772
330
748
100
AcDbEntity
  8
001
370
    50
100
AcDbVertex
100
AcDb2dVertex
 10
427.687714
 20
213.452877
 30
0.0
  0
SEQEND
  5
749
330
748
100
AcDbEntity
  8
001
370
    50
  0
LINE
  5
773
330
1F
100
AcDbEntity
  8
001
370
    50
100
AcDbLine
 10
419.896536
 20
237.802147
 30
0.0
 11
419.896536
 21
221.452877
 31
0.0
  0
POLYLINE
  5
774
330
1F
100
AcDbEntity
  8
001
370
    50
100
AcDb2dPolyline
 66
     1
 10
0.0
 20
0.0
 30
0.0
  0
VERTEX
  5
776
330
774
100
AcDbEntity
  8
001
370
    50
100
AcDbVertex
100
AcDb2dVertex
 10
422.346147
 20
237.732708
 30
0.0
  0
VERTEX
  5
777
330
774
100
AcDbEntity
  8
001
370
    50
100
AcDbVertex
100
AcDb2dVertex
 10
421.849184
 20
237.74784
 30
0.0
  0
VERTEX
  5
778
330
774
100
AcDbEntity
  8
001
370
    50
100
AcDbVertex
100
AcDb2dVertex
 10
421.122827
 20
237.769057
 30
0.0
  0
VERTEX
  5
779
330
774
100
AcDbEntity
  8
001
370
    50
100
AcDbVertex
100
AcDb2dVertex
 10
420.394727
 20
237.78907
 30
0.0
  0
VERTEX
  5
77A
330
774
100
AcDbEntity
  8
001
370
    50
100
AcDbVertex
100
AcDb2dVertex
 10
419.896536
 20
237.802147
 30
0.0
  0
SEQEND
  5
775
330
774
100
AcDbEntity
  8
001
370
    50
  0
POLYLINE
  5
77B
330
1F
100
AcDbEntity
  8
001
370
    50
100
AcDb2dPolyline
 66
     1
 10
0.0
 20
0.0
 30
0.0
  0
VERTEX
  5
77D
330
77B
100
AcDbEntity
  8
001
370
    50
100
AcDbVertex
100
AcDb2dVertex
 10
422.346147
 20
237.732708
 30
0.0
  0
VERTEX
  5
77E
330
77B
100
AcDbEntity
  8
001
370
    50
100
AcDbVertex
100
AcDb2dVertex
 10
422.594534
 20
237.727581
 30
0.0
  0
VERTEX
  5
77F
330
77B
100
AcDbEntity
  8
001
370
    50
100
AcDbVertex
100
AcDb2dVertex
 10
422.84294
 20
237.724732
 30
0.0
  0
VERTEX
  5
780
330
77B
100
AcDbEntity
  8
001
370
    50
100
AcDbVertex
100
AcDb2dVertex
 10
423.091698
 20
237.725983
 30
0.0
  0
VERTEX
  5
781
330
77B
100
AcDbEntity
  8
001
370
    50
100
AcDbVertex
100
AcDb2dVertex
 10
423.340416
 20
237.731295
 30
0.0
  0
VERTEX
  5
782
330
77B
100
AcDbEntity
  8
001
370
    50
100
AcDbVertex
100
AcDb2dVertex
 10
423.582388
 20
237.739957
 30
0.0
  0
VERTEX
  5
783
330
77B
100
AcDbEntity
  8
001
370
    50
100
AcDbVertex
100
AcDb2dVertex
 10
423.824212
 20
237.751956
 30
0.0
  0
VERTEX
  5
784
330
77B
100
AcDbEntity
  8
001
370
    50
100
AcDbVertex
100
AcDb2dVertex
 10
424.052855
 20
237.766354
 30
0.0
  0
VERTEX
  5
785
330
77B
100
AcDbEntity
  8
001
370
    50
100
AcDbVertex
100
AcDb2dVertex
 10
424.281294
 20
237.783692
 30
0.0
  0
VERTEX
  5
786
330
77B
100
AcDbEntity
  8
001
370
    50
100
AcDbVertex
100
AcDb2dVertex
 10
424.491422
 20
237.802209
 30
0.0
  0
VERTEX
  5
787
330
77B
100
AcDbEntity
  8
001
370
    50
100
AcDbVertex
100
AcDb2dVertex
 10
424.701337
 20
237.82299
 30
0.0
  0
VERTEX
  5
788
330
77B
100
AcDbEntity
  8
001
370
    50
100
AcDbVertex
100
AcDb2dVertex
 10
424.886021
 20
237.843002
 30
0.0
  0
VERTEX
  5
789
330
77B
100
AcDbEntity
  8
001
370
    50
100
AcDbVertex
100
AcDb2dVertex
 10
425.070541
 20
237.864477
 30
0.0
  0
VERTEX
  5
78A
330
77B
100
AcDbEntity
  8
001
370
    50
100
AcDbVertex
100
AcDb2dVertex
 10
425.226126
 20
237.883582
 30
0.0
  0
VERTEX
  5
78B
330
77B
100
AcDbEntity
  8
001
370
    50
100
AcDbVertex
100
AcDb2dVertex
 10
425.381642
 20
237.903198
 30
0.0
  0
VERTEX
  5
78C
330
77B
100
AcDbEntity
  8
001
370
    50
100
AcDbVertex
100
AcDb2dVertex
 10
425.501625
 20
237.9184
 30
0.0
  0
VERTEX
  5
78D
330
77B
100
AcDbEntity
  8
001
370
    50
100
AcDbVertex
100
AcDb2dVertex
 10
425.621646
 20
237.933402
 30
0.0
  0
VERTEX
  5
78E
330
77B
100
AcDbEntity
  8
001
370
    50
100
AcDbVertex
100
AcDb2dVertex
 10
425.681238
 20
237.940548
 30
0.0
  0
VERTEX
  5
78F
330
77B
100
AcDbEntity
  8
001
370
    50
100
AcDbVertex
100
AcDb2dVertex
 10
425.740929
 20
237.946669
 30
0.0
  0
VERTEX
  5
790
330
77B
100
AcDbEntity
  8
001
370
    50
100
AcDbVertex
100
AcDb2dVertex
 10
425.781202
 20
237.949872
 30
0.0
  0
VERTEX
  5
791
330
77B
100
AcDbEntity
  8
001
370
    50
100
AcDbVertex
100
AcDb2dVertex
 10
425.821515
 20
237.952635
 30
0.0
  0
SEQEND
  5
77C
330
77B
100
AcDbEntity
  8
001
370
    50
  0
POLYLINE
  5
792
330
1F
100
AcDbEntity
  8
001
370
    50
100
AcDb2dPolyline
 66
     1
 10
0.0
 20
0.0
 30
0.0
  0
VERTEX
  5
794
330
792
100
AcDbEntity
  8
001
370
    50
100
AcDbVertex
100
AcDb2dVertex
 10
416.312779
 20
237.772949
 30
0.0
  0
VERTEX
  5
795
330
792
100
AcDbEntity
  8
001
370
    50
100
AcDbVertex
100
AcDb2dVertex
 10
416.046788
 20
237.691354
 30
0.0
  0
VERTEX
  5
796
330
792
100
AcDbEntity
  8
001
370
    50
100
AcDbVertex
100
AcDb2dVertex
 10
415.671588
 20
237.538436
 30
0.0
  0
VERTEX
  5
797
330
792
100
AcDbEntity
  8
001
370
    50
100
AcDbVertex
100
AcDb2dVertex
 10
415.298981
 20
237.329753
 30
0.0
  0
VERTEX
  5
798
330
792
100
AcDbEntity
  8
001
370
    50
100
AcDbVertex
100
AcDb2dVertex
 10
415.05631
 20
237.164879
 30
0.0
  0
SEQEND
  5
793
330
792
100
AcDbEntity
  8
001
370
    50
  0
POLYLINE
  5
799
330
1F
100
AcDbEntity
  8
001
370
    50
100
AcDb2dPolyline
 66
     1
 10
0.0
 20
0.0
 30
0.0
  0
VERTEX
  5
79B
330
799
100
AcDbEntity
  8
001
370
    50
100
AcDbVertex
100
AcDb2dVertex
 10
419.896536
 20
237.802147
 30
0.0
  0
VERTEX
  5
79C
330
799
100
AcDbEntity
  8
001
370
    50
100
AcDbVertex
100
AcDb2dVertex
 10
419.16821
 20
237.798332
 30
0.0
  0
VERTEX
  5
79D
330
799
100
AcDbEntity
  8
001
370
    50
100
AcDbVertex
100
AcDb2dVertex
 10
418.103745
 20
237.790931
 30
0.0
  0
VERTEX
  5
79E
330
799
100
AcDbEntity
  8
001
370
    50
100
AcDbVertex
100
AcDb2dVertex
 10
417.040352
 20
237.780996
 30
0.0
  0
VERTEX
  5
79F
330
799
100
AcDbEntity
  8
001
370
    50
100
AcDbVertex
100
AcDb2dVertex
 10
416.312779
 20
237.772949
 30
0.0
  0
SEQEND
  5
79A
330
799
100
AcDbEntity
  8
001
370
    50
  0
POLYLINE
  5
7A0
330
1F
100
AcDbEntity
  8
001
370
    50
100
AcDb2dPolyline
 66
     1
 10
0.0
 20
0.0
 30
0.0
  0
VERTEX
  5
7A2
330
7A0
100
AcDbEntity
  8
001
370
    50
100
AcDbVertex
100
AcDb2dVertex
 10
408.265158
 20
234.939382
 30
0.0
  0
VERTEX
  5
7A3
330
7A0
100
AcDbEntity
  8
001
370
    50
100
AcDbVertex
100
AcDb2dVertex
 10
408.201275
 20
234.978404
 30
0.0
  0
VERTEX
  5
7A4
330
7A0
100
AcDbEntity
  8
001
370
    50
100
AcDbVertex
100
AcDb2dVertex
 10
408.13606
 20
235.014967
 30
0.0
  0
VERTEX
  5
7A5
330
7A0
100
AcDbEntity
  8
001
370
    50
100
AcDbVertex
100
AcDb2dVertex
 10
408.064001
 20
235.049049
 30
0.0
  0
VERTEX
  5
7A6
330
7A0
100
AcDbEntity
  8
001
370
    50
100
AcDbVertex
100
AcDb2dVertex
 10
407.9897
 20
235.078132
 30
0.0
  0
VERTEX
  5
7A7
330
7A0
100
AcDbEntity
  8
001
370
    50
100
AcDbVertex
100
AcDb2dVertex
 10
407.90766
 20
235.104535
 30
0.0
  0
VERTEX
  5
7A8
330
7A0
100
AcDbEntity
  8
001
370
    50
100
AcDbVertex
100
AcDb2dVertex
 10
407.824192
 20
235.125999
 30
0.0
  0
VERTEX
  5
7A9
330
7A0
100
AcDbEntity
  8
001
370
    50
100
AcDbVertex
100
AcDb2dVertex
 10
407.734918
 20
235.143366
 30
0.0
  0
VERTEX
  5
7AA
330
7A0
100
AcDbEntity
  8
001
370
    50
100
AcDbVertex
100
AcDb2dVertex
 10
407.644755
 20
235.154788
 30
0.0
  0
VERTEX
  5
7AB
330
7A0
100
AcDbEntity
  8
001
370
    50
100
AcDbVertex
100
AcDb2dVertex
 10
407.56614
 20
235.15984
 30
0.0
  0
VERTEX
  5
7AC
330
7A0
100
AcDbEntity
  8
001
370
    50
100
AcDbVertex
100
AcDb2dVertex
 10
407.487339
 20
235.162398
 30
0.0
  0
SEQEND
  5
7A1
330
7A0
100
AcDbEntity
  8
001
370
    50
  0
ARC
  5
7AD
330
1F
100
AcDbEntity
  8
001
370
    50
100
AcDbCircle
 10
429.715106
 20
236.952877
 30
0.0
 40
0.9999999999999974
100
AcDbArc
 50
0.0
 51
90.0
  0
ARC
  5
7AE
330
1F
100
AcDbEntity
  8
001
370
    50
100
AcDbCircle
 10
429.715106
 20
209.952877
 30
0.0
 40
0.9999999999999974
100
AcDbArc
 50
270.0
 51
0.0
  0
LINE
  5
7AF
330
1F
100
AcDbEntity
  8
001
370
    50
100
AcDbLine
 10
430.715106
 20
236.952877
 30
0.0
 11
430.715106
 21
209.952877
 31
0.0
  0
LINE
  5
7B0
330
1F
100
AcDbEntity
  8
001
  6
DASHED
370
    50
100
AcDbLine
 10
401.369938
 20
221.452877
 30
0.0
 11
401.365112
 21
221.452877
 31
0.0
  0
POLYLINE
  5
7B1
330
1F
100
AcDbEntity
  8
001
370
    50
100
AcDb2dPolyline
 66
     1
 10
0.0
 20
0.0
 30
0.0
  0
VERTEX
  5
7B3
330
7B1
100
AcDbEntity
  8
001
370
    50
100
AcDbVertex
100
AcDb2dVertex
 10
406.88403
 20
231.862398
 30
0.0
  0
VERTEX
  5
7B4
330
7B1
100
AcDbEntity
  8
001
370
    50
100
AcDbVertex
100
AcDb2dVertex
 10
406.967579
 20
231.865345
 30
0.0
  0
VERTEX
  5
7B5
330
7B1
100
AcDbEntity
  8
001
370
    50
100
AcDbVertex
100
AcDb2dVertex
 10
407.05094
 20
231.870733
 30
0.0
  0
VERTEX
  5
7B6
330
7B1
100
AcDbEntity
  8
001
370
    50
100
AcDbVertex
100
AcDb2dVertex
 10
407.160005
 20
231.884528
 30
0.0
  0
VERTEX
  5
7B7
330
7B1
100
AcDbEntity
  8
001
370
    50
100
AcDbVertex
100
AcDb2dVertex
 10
407.268001
 20
231.905622
 30
0.0
  0
VERTEX
  5
7B8
330
7B1
100
AcDbEntity
  8
001
370
    50
100
AcDbVertex
100
AcDb2dVertex
 10
407.380374
 20
231.934742
 30
0.0
  0
VERTEX
  5
7B9
330
7B1
100
AcDbEntity
  8
001
370
    50
100
AcDbVertex
100
AcDb2dVertex
 10
407.490731
 20
231.97062
 30
0.0
  0
VERTEX
  5
7BA
330
7B1
100
AcDbEntity
  8
001
370
    50
100
AcDbVertex
100
AcDb2dVertex
 10
407.596778
 20
232.012307
 30
0.0
  0
VERTEX
  5
7BB
330
7B1
100
AcDbEntity
  8
001
370
    50
100
AcDbVertex
100
AcDb2dVertex
 10
407.700197
 20
232.060179
 30
0.0
  0
VERTEX
  5
7BC
330
7B1
100
AcDbEntity
  8
001
370
    50
100
AcDbVertex
100
AcDb2dVertex
 10
407.812155
 20
232.120617
 30
0.0
  0
VERTEX
  5
7BD
330
7B1
100
AcDbEntity
  8
001
370
    50
100
AcDbVertex
100
AcDb2dVertex
 10
407.920065
 20
232.18802
 30
0.0
  0
VERTEX
  5
7BE
330
7B1
100
AcDbEntity
  8
001
370
    50
100
AcDbVertex
100
AcDb2dVertex
 10
408.020416
 20
232.259572
 30
0.0
  0
VERTEX
  5
7BF
330
7B1
100
AcDbEntity
  8
001
370
    50
100
AcDbVertex
100
AcDb2dVertex
 10
408.116312
 20
232.337009
 30
0.0
  0
VERTEX
  5
7C0
330
7B1
100
AcDbEntity
  8
001
370
    50
100
AcDbVertex
100
AcDb2dVertex
 10
408.243886
 20
232.456219
 30
0.0
  0
VERTEX
  5
7C1
330
7B1
100
AcDbEntity
  8
001
370
    50
100
AcDbVertex
100
AcDb2dVertex
 10
408.361098
 20
232.585702
 30
0.0
  0
VERTEX
  5
7C2
330
7B1
100
AcDbEntity
  8
001
370
    50
100
AcDbVertex
100
AcDb2dVertex
 10
408.461894
 20
232.716948
 30
0.0
  0
VERTEX
  5
7C3
330
7B1
100
AcDbEntity
  8
001
370
    50
100
AcDbVertex
100
AcDb2dVertex
 10
408.551933
 20
232.855736
 30
0.0
  0
VERTEX
  5
7C4
330
7B1
100
AcDbEntity
  8
001
370
    50
100
AcDbVertex
100
AcDb2dVertex
 10
408.615998
 20
232.972253
 30
0.0
  0
VERTEX
  5
7C5
330
7B1
100
AcDbEntity
  8
001
370
    50
100
AcDbVertex
100
AcDb2dVertex
 10
408.672279
 20
233.092717
 30
0.0
  0
VERTEX
  5
7C6
330
7B1
100
AcDbEntity
  8
001
370
    50
100
AcDbVertex
100
AcDb2dVertex
 10
408.718649
 20
233.211612
 30
0.0
  0
VERTEX
  5
7C7
330
7B1
100
AcDbEntity
  8
001
370
    50
100
AcDbVertex
100
AcDb2dVertex
 10
408.757167
 20
233.333262
 30
0.0
  0
VERTEX
  5
7C8
330
7B1
100
AcDbEntity
  8
001
370
    50
100
AcDbVertex
100
AcDb2dVertex
 10
408.786331
 20
233.451846
 30
0.0
  0
VERTEX
  5
7C9
330
7B1
100
AcDbEntity
  8
001
370
    50
100
AcDbVertex
100
AcDb2dVertex
 10
408.807609
 20
233.572131
 30
0.0
  0
VERTEX
  5
7CA
330
7B1
100
AcDbEntity
  8
001
370
    50
100
AcDbVertex
100
AcDb2dVertex
 10
408.823719
 20
233.749077
 30
0.0
  0
VERTEX
  5
7CB
330
7B1
100
AcDbEntity
  8
001
370
    50
100
AcDbVertex
100
AcDb2dVertex
 10
408.821125
 20
233.926778
 30
0.0
  0
VERTEX
  5
7CC
330
7B1
100
AcDbEntity
  8
001
370
    50
100
AcDbVertex
100
AcDb2dVertex
 10
408.799755
 20
234.097031
 30
0.0
  0
VERTEX
  5
7CD
330
7B1
100
AcDbEntity
  8
001
370
    50
100
AcDbVertex
100
AcDb2dVertex
 10
408.759096
 20
234.26367
 30
0.0
  0
VERTEX
  5
7CE
330
7B1
100
AcDbEntity
  8
001
370
    50
100
AcDbVertex
100
AcDb2dVertex
 10
408.713199
 20
234.390385
 30
0.0
  0
VERTEX
  5
7CF
330
7B1
100
AcDbEntity
  8
001
370
    50
100
AcDbVertex
100
AcDb2dVertex
 10
408.6547
 20
234.511734
 30
0.0
  0
VERTEX
  5
7D0
330
7B1
100
AcDbEntity
  8
001
370
    50
100
AcDbVertex
100
AcDb2dVertex
 10
408.581288
 20
234.62938
 30
0.0
  0
VERTEX
  5
7D1
330
7B1
100
AcDbEntity
  8
001
370
    50
100
AcDbVertex
100
AcDb2dVertex
 10
408.495403
 20
234.738304
 30
0.0
  0
VERTEX
  5
7D2
330
7B1
100
AcDbEntity
  8
001
370
    50
100
AcDbVertex
100
AcDb2dVertex
 10
408.444272
 20
234.792839
 30
0.0
  0
VERTEX
  5
7D3
330
7B1
100
AcDbEntity
  8
001
370
    50
100
AcDbVertex
100
AcDb2dVertex
 10
408.389607
 20
234.843652
 30
0.0
  0
VERTEX
  5
7D4
330
7B1
100
AcDbEntity
  8
001
370
    50
100
AcDbVertex
100
AcDb2dVertex
 10
408.328429
 20
234.892767
 30
0.0
  0
VERTEX
  5
7D5
330
7B1
100
AcDbEntity
  8
001
370
    50
100
AcDbVertex
100
AcDb2dVertex
 10
408.265158
 20
234.939382
 30
0.0
  0
SEQEND
  5
7B2
330
7B1
100
AcDbEntity
  8
001
370
    50
  0
POLYLINE
  5
7D6
330
1F
100
AcDbEntity
  8
001
370
    50
100
AcDb2dPolyline
 66
     1
 10
0.0
 20
0.0
 30
0.0
  0
VERTEX
  5
7D8
330
7D6
100
AcDbEntity
  8
001
370
    50
100
AcDbVertex
100
AcDb2dVertex
 10
407.487339
 20
235.162398
 30
0.0
  0
VERTEX
  5
7D9
330
7D6
100
AcDbEntity
  8
001
370
    50
100
AcDbVertex
100
AcDb2dVertex
 10
407.482181
 20
235.16233
 30
0.0
  0
VERTEX
  5
7DA
330
7D6
100
AcDbEntity
  8
001
370
    50
100
AcDbVertex
100
AcDb2dVertex
 10
407.477022
 20
235.162257
 30
0.0
  0
VERTEX
  5
7DB
330
7D6
100
AcDbEntity
  8
001
370
    50
100
AcDbVertex
100
AcDb2dVertex
 10
407.392497
 20
235.159433
 30
0.0
  0
VERTEX
  5
7DC
330
7D6
100
AcDbEntity
  8
001
370
    50
100
AcDbVertex
100
AcDb2dVertex
 10
407.30817
 20
235.153004
 30
0.0
  0
VERTEX
  5
7DD
330
7D6
100
AcDbEntity
  8
001
370
    50
100
AcDbVertex
100
AcDb2dVertex
 10
407.21154
 20
235.140446
 30
0.0
  0
VERTEX
  5
7DE
330
7D6
100
AcDbEntity
  8
001
370
    50
100
AcDbVertex
100
AcDb2dVertex
 10
407.115699
 20
235.122723
 30
0.0
  0
VERTEX
  5
7DF
330
7D6
100
AcDbEntity
  8
001
370
    50
100
AcDbVertex
100
AcDb2dVertex
 10
407.023691
 20
235.101093
 30
0.0
  0
VERTEX
  5
7E0
330
7D6
100
AcDbEntity
  8
001
370
    50
100
AcDbVertex
100
AcDb2dVertex
 10
406.932784
 20
235.075245
 30
0.0
  0
VERTEX
  5
7E1
330
7D6
100
AcDbEntity
  8
001
370
    50
100
AcDbVertex
100
AcDb2dVertex
 10
406.803751
 20
235.030647
 30
0.0
  0
VERTEX
  5
7E2
330
7D6
100
AcDbEntity
  8
001
370
    50
100
AcDbVertex
100
AcDb2dVertex
 10
406.677815
 20
234.97787
 30
0.0
  0
VERTEX
  5
7E3
330
7D6
100
AcDbEntity
  8
001
370
    50
100
AcDbVertex
100
AcDb2dVertex
 10
406.56217
 20
234.920966
 30
0.0
  0
VERTEX
  5
7E4
330
7D6
100
AcDbEntity
  8
001
370
    50
100
AcDbVertex
100
AcDb2dVertex
 10
406.449972
 20
234.857548
 30
0.0
  0
VERTEX
  5
7E5
330
7D6
100
AcDbEntity
  8
001
370
    50
100
AcDbVertex
100
AcDb2dVertex
 10
406.335609
 20
234.783888
 30
0.0
  0
VERTEX
  5
7E6
330
7D6
100
AcDbEntity
  8
001
370
    50
100
AcDbVertex
100
AcDb2dVertex
 10
406.225845
 20
234.703531
 30
0.0
  0
VERTEX
  5
7E7
330
7D6
100
AcDbEntity
  8
001
370
    50
100
AcDbVertex
100
AcDb2dVertex
 10
406.125477
 20
234.620491
 30
0.0
  0
VERTEX
  5
7E8
330
7D6
100
AcDbEntity
  8
001
370
    50
100
AcDbVertex
100
AcDb2dVertex
 10
406.030155
 20
234.531724
 30
0.0
  0
VERTEX
  5
7E9
330
7D6
100
AcDbEntity
  8
001
370
    50
100
AcDbVertex
100
AcDb2dVertex
 10
405.943557
 20
234.441127
 30
0.0
  0
VERTEX
  5
7EA
330
7D6
100
AcDbEntity
  8
001
370
    50
100
AcDbVertex
100
AcDb2dVertex
 10
405.862309
 20
234.345659
 30
0.0
  0
VERTEX
  5
7EB
330
7D6
100
AcDbEntity
  8
001
370
    50
100
AcDbVertex
100
AcDb2dVertex
 10
405.748621
 20
234.189805
 30
0.0
  0
VERTEX
  5
7EC
330
7D6
100
AcDbEntity
  8
001
370
    50
100
AcDbVertex
100
AcDb2dVertex
 10
405.65025
 20
234.023806
 30
0.0
  0
VERTEX
  5
7ED
330
7D6
100
AcDbEntity
  8
001
370
    50
100
AcDbVertex
100
AcDb2dVertex
 10
405.570659
 20
233.852511
 30
0.0
  0
VERTEX
  5
7EE
330
7D6
100
AcDbEntity
  8
001
370
    50
100
AcDbVertex
100
AcDb2dVertex
 10
405.509355
 20
233.673908
 30
0.0
  0
VERTEX
  5
7EF
330
7D6
100
AcDbEntity
  8
001
370
    50
100
AcDbVertex
100
AcDb2dVertex
 10
405.471955
 20
233.512074
 30
0.0
  0
VERTEX
  5
7F0
330
7D6
100
AcDbEntity
  8
001
370
    50
100
AcDbVertex
100
AcDb2dVertex
 10
405.451294
 20
233.347258
 30
0.0
  0
VERTEX
  5
7F1
330
7D6
100
AcDbEntity
  8
001
370
    50
100
AcDbVertex
100
AcDb2dVertex
 10
405.448658
 20
233.177878
 30
0.0
  0
VERTEX
  5
7F2
330
7D6
100
AcDbEntity
  8
001
370
    50
100
AcDbVertex
100
AcDb2dVertex
 10
405.465529
 20
233.0094
 30
0.0
  0
VERTEX
  5
7F3
330
7D6
100
AcDbEntity
  8
001
370
    50
100
AcDbVertex
100
AcDb2dVertex
 10
405.491565
 20
232.884542
 30
0.0
  0
VERTEX
  5
7F4
330
7D6
100
AcDbEntity
  8
001
370
    50
100
AcDbVertex
100
AcDb2dVertex
 10
405.529075
 20
232.762645
 30
0.0
  0
VERTEX
  5
7F5
330
7D6
100
AcDbEntity
  8
001
370
    50
100
AcDbVertex
100
AcDb2dVertex
 10
405.580328
 20
232.63975
 30
0.0
  0
VERTEX
  5
7F6
330
7D6
100
AcDbEntity
  8
001
370
    50
100
AcDbVertex
100
AcDb2dVertex
 10
405.643649
 20
232.522652
 30
0.0
  0
VERTEX
  5
7F7
330
7D6
100
AcDbEntity
  8
001
370
    50
100
AcDbVertex
100
AcDb2dVertex
 10
405.705267
 20
232.430549
 30
0.0
  0
VERTEX
  5
7F8
330
7D6
100
AcDbEntity
  8
001
370
    50
100
AcDbVertex
100
AcDb2dVertex
 10
405.774417
 20
232.34395
 30
0.0
  0
VERTEX
  5
7F9
330
7D6
100
AcDbEntity
  8
001
370
    50
100
AcDbVertex
100
AcDb2dVertex
 10
405.854359
 20
232.259642
 30
0.0
  0
VERTEX
  5
7FA
330
7D6
100
AcDbEntity
  8
001
370
    50
100
AcDbVertex
100
AcDb2dVertex
 10
405.941349
 20
232.182652
 30
0.0
  0
VERTEX
  5
7FB
330
7D6
100
AcDbEntity
  8
001
370
    50
100
AcDbVertex
100
AcDb2dVertex
 10
406.04052
 20
232.109726
 30
0.0
  0
VERTEX
  5
7FC
330
7D6
100
AcDbEntity
  8
001
370
    50
100
AcDbVertex
100
AcDb2dVertex
 10
406.145836
 20
232.045899
 30
0.0
  0
VERTEX
  5
7FD
330
7D6
100
AcDbEntity
  8
001
370
    50
100
AcDbVertex
100
AcDb2dVertex
 10
406.261084
 20
231.989153
 30
0.0
  0
VERTEX
  5
7FE
330
7D6
100
AcDbEntity
  8
001
370
    50
100
AcDbVertex
100
AcDb2dVertex
 10
406.380861
 20
231.942882
 30
0.0
  0
VERTEX
  5
7FF
330
7D6
100
AcDbEntity
  8
001
370
    50
100
AcDbVertex
100
AcDb2dVertex
 10
406.489822
 20
231.910955
 30
0.0
  0
VERTEX
  5
800
330
7D6
100
AcDbEntity
  8
001
370
    50
100
AcDbVertex
100
AcDb2dVertex
 10
406.600887
 20
231.887145
 30
0.0
  0
VERTEX
  5
801
330
7D6
100
AcDbEntity
  8
001
370
    50
100
AcDbVertex
100
AcDb2dVertex
 10
406.715345
 20
231.87094
 30
0.0
  0
VERTEX
  5
802
330
7D6
100
AcDbEntity
  8
001
370
    50
100
AcDbVertex
100
AcDb2dVertex
 10
406.8306
 20
231.863246
 30
0.0
  0
VERTEX
  5
803
330
7D6
100
AcDbEntity
  8
001
370
    50
100
AcDbVertex
100
AcDb2dVertex
 10
406.857313
 20
231.8627
 30
0.0
  0
VERTEX
  5
804
330
7D6
100
AcDbEntity
  8
001
370
    50
100
AcDbVertex
100
AcDb2dVertex
 10
406.88403
 20
231.862398
 30
0.0
  0
SEQEND
  5
7D7
330
7D6
100
AcDbEntity
  8
001
370
    50
  0
POLYLINE
  5
805
330
1F
100
AcDbEntity
  8
001
370
    50
100
AcDb2dPolyline
 66
     1
 10
0.0
 20
0.0
 30
0.0
  0
VERTEX
  5
807
330
805
100
AcDbEntity
  8
001
370
    50
100
AcDbVertex
100
AcDb2dVertex
 10
402.043658
 20
219.680198
 30
0.0
  0
VERTEX
  5
808
330
805
100
AcDbEntity
  8
001
370
    50
100
AcDbVertex
100
AcDb2dVertex
 10
402.030411
 20
219.482408
 30
0.0
  0
VERTEX
  5
809
330
805
100
AcDbEntity
  8
001
370
    50
100
AcDbVertex
100
AcDb2dVertex
 10
402.016793
 20
219.284645
 30
0.0
  0
VERTEX
  5
80A
330
805
100
AcDbEntity
  8
001
370
    50
100
AcDbVertex
100
AcDb2dVertex
 10
402.001595
 20
219.074281
 30
0.0
  0
VERTEX
  5
80B
330
805
100
AcDbEntity
  8
001
370
    50
100
AcDbVertex
100
AcDb2dVertex
 10
401.985786
 20
218.863961
 30
0.0
  0
VERTEX
  5
80C
330
805
100
AcDbEntity
  8
001
370
    50
100
AcDbVertex
100
AcDb2dVertex
 10
401.969958
 20
218.658411
 30
0.0
  0
VERTEX
  5
80D
330
805
100
AcDbEntity
  8
001
370
    50
100
AcDbVertex
100
AcDb2dVertex
 10
401.953948
 20
218.452877
 30
0.0
  0
SEQEND
  5
806
330
805
100
AcDbEntity
  8
001
370
    50
  0
LINE
  5
80E
330
1F
100
AcDbEntity
  8
001
370
    50
100
AcDbLine
 10
420.245171
 20
221.452877
 30
0.0
 11
401.365106
 21
221.452877
 31
0.0
  0
LINE
  5
80F
330
1F
100
AcDbEntity
  8
001
  6
DASHED
370
    30
100
AcDbLine
 10
402.043658
 20
227.096353
 30
0.0
 11
402.043658
 21
221.452877
 31
0.0
  0
LINE
  5
810
330
1F
100
AcDbEntity
  8
001
370
    50
100
AcDbLine
 10
402.043658
 20
221.452877
 30
0.0
 11
402.043658
 21
219.680198
 31
0.0
  0
LINE
  5
811
330
1F
100
AcDbEntity
  8
001
370
    50
100
AcDbLine
 10
432.715106
 20
210.952877
 30
0.0
 11
432.715106
 21
235.952877
 31
0.0
  0
LINE
  5
812
330
1F
100
AcDbEntity
  8
001
370
    50
100
AcDbLine
 10
432.715106
 20
235.452877
 30
0.0
 11
430.715106
 21
235.452877
 31
0.0
  0
LINE
  5
813
330
1F
100
AcDbEntity
  8
001
370
    50
100
AcDbLine
 10
430.715106
 20
211.452877
 30
0.0
 11
432.715106
 21
211.452877
 31
0.0
  0
LINE
  5
814
330
1F
100
AcDbEntity
  8
001
370
    50
100
AcDbLine
 10
400.85736
 20
213.437159
 30
0.0
 11
401.20391
 21
217.707082
 31
0.0
  0
CIRCLE
  5
815
330
1F
100
AcDbEntity
  8
001
370
    50
100
AcDbCircle
 10
408.81449
 20
213.357452
 30
0.0
 40
3.0
  0
LINE
  5
816
330
1F
100
AcDbEntity
  8
001
370
    50
100
AcDbLine
 10
416.357832
 20
213.275146
 30
0.0
 11
416.011282
 21
209.005222
 31
0.0
  0
LINE
  5
817
330
1F
100
AcDbEntity
  8
001
370
    50
100
AcDbLine
 10
411.844306
 20
218.139083
 30
0.0
 11
401.600086
 21
218.074716
 31
0.0
  0
CIRCLE
  5
818
330
1F
100
AcDbEntity
  8
001
370
    50
100
AcDbCircle
 10
408.819487
 20
213.370714
 30
0.0
 40
2.5
  0
LINE
  5
819
330
1F
100
AcDbEntity
  8
001
370
    50
100
AcDbLine
 10
409.399754
 20
214.369025
 30
0.0
 11
409.083818
 21
214.919949
 31
0.0
  0
LINE
  5
81A
330
1F
100
AcDbEntity
  8
001
370
    50
100
AcDbLine
 10
408.245058
 20
214.372395
 30
0.0
 11
408.564205
 21
214.921466
 31
0.0
  0
ARC
  5
81B
330
1F
100
AcDbEntity
  8
001
370
    50
100
AcDbCircle
 10
408.823573
 20
214.770708
 30
0.0
 40
0.3
100
AcDbArc
 50
29.832778
 51
149.832778
  0
LINE
  5
81C
330
1F
100
AcDbEntity
  8
001
370
    50
100
AcDbLine
 10
408.245058
 20
214.372395
 30
0.0
 11
407.609975
 21
214.374249
 31
0.0
  0
LINE
  5
81D
330
1F
100
AcDbEntity
  8
001
370
    50
100
AcDbLine
 10
407.664792
 20
213.374084
 30
0.0
 11
407.348856
 21
213.925009
 31
0.0
  0
ARC
  5
81E
330
1F
100
AcDbEntity
  8
001
370
    50
100
AcDbCircle
 10
407.6091
 20
214.07425
 30
0.0
 40
0.3
100
AcDbArc
 50
89.832778
 51
209.832778
  0
LINE
  5
81F
330
1F
100
AcDbEntity
  8
001
370
    50
100
AcDbLine
 10
407.664792
 20
213.374084
 30
0.0
 11
407.345645
 21
212.825013
 31
0.0
  0
LINE
  5
820
330
1F
100
AcDbEntity
  8
001
370
    50
100
AcDbLine
 10
408.239221
 20
212.372404
 30
0.0
 11
407.604138
 21
212.374257
 31
0.0
  0
ARC
  5
821
330
1F
100
AcDbEntity
  8
001
370
    50
100
AcDbCircle
 10
407.605014
 20
212.674256
 30
0.0
 40
0.3
100
AcDbArc
 50
149.832778
 51
269.832778
  0
LINE
  5
822
330
1F
100
AcDbEntity
  8
001
370
    50
100
AcDbLine
 10
408.239221
 20
212.372404
 30
0.0
 11
408.555157
 21
211.821479
 31
0.0
  0
LINE
  5
823
330
1F
100
AcDbEntity
  8
001
370
    50
100
AcDbLine
 10
409.393917
 20
212.369033
 30
0.0
 11
409.07477
 21
211.819963
 31
0.0
  0
ARC
  5
824
330
1F
100
AcDbEntity
  8
001
370
    50
100
AcDbCircle
 10
408.815401
 20
211.97072
 30
0.0
 40
0.3
100
AcDbArc
 50
209.832778
 51
329.832778
  0
LINE
  5
825
330
1F
100
AcDbEntity
  8
001
370
    50
100
AcDbLine
 10
409.393917
 20
212.369033
 30
0.0
 11
410.028999
 21
212.36718
 31
0.0
  0
LINE
  5
826
330
1F
100
AcDbEntity
  8
001
370
    50
100
AcDbLine
 10
409.974183
 20
213.367344
 30
0.0
 11
410.290119
 21
212.81642
 31
0.0
  0
ARC
  5
827
330
1F
100
AcDbEntity
  8
001
370
    50
100
AcDbCircle
 10
410.029875
 20
212.667179
 30
0.0
 40
0.3
100
AcDbArc
 50
269.832778
 51
29.832778
  0
LINE
  5
828
330
1F
100
AcDbEntity
  8
001
370
    50
100
AcDbLine
 10
409.974183
 20
213.367344
 30
0.0
 11
410.293329
 21
213.916415
 31
0.0
  0
LINE
  5
829
330
1F
100
AcDbEntity
  8
001
370
    50
100
AcDbLine
 10
409.399754
 20
214.369025
 30
0.0
 11
410.034836
 21
214.367171
 31
0.0
  0
ARC
  5
82A
330
1F
100
AcDbEntity
  8
001
370
    50
100
AcDbCircle
 10
410.033961
 20
214.067173
 30
0.0
 40
0.3
100
AcDbArc
 50
329.832778
 51
89.832778
  0
LINE
  5
82B
330
1F
100
AcDbEntity
  8
001
370
    50
100
AcDbLine
 10
405.370886
 20
208.573221
 30
0.0
 11
415.615106
 21
208.637588
 31
0.0
  0
ARC
  5
82C
330
1F
100
AcDbEntity
  8
001
370
    50
100
AcDbCircle
 10
401.602599
 20
217.674724
 30
0.0
 40
0.4
100
AcDbArc
 50
90.36
 51
175.36
  0
ARC
  5
82D
330
1F
100
AcDbEntity
  8
001
370
    50
100
AcDbCircle
 10
415.612593
 20
209.03758
 30
0.0
 40
0.4
100
AcDbArc
 50
270.36
 51
355.36
  0
LINE
  5
82E
330
1F
100
AcDbEntity
  8
001
370
    50
100
AcDbLine
 10
401.365106
 20
232.285525
 30
0.0
 11
401.365106
 21
217.996589
 31
0.0
  0
LINE
  5
82F
330
1F
100
AcDbEntity
  8
001
370
    50
100
AcDbLine
 10
401.924234
 20
218.076753
 30
0.0
 11
401.953948
 21
218.452877
 31
0.0
  0
LINE
  5
830
330
1F
100
AcDbEntity
  8
001
370
    50
100
AcDbLine
 10
405.370886
 20
238.332532
 30
0.0
 11
415.893103
 21
238.266418
 31
0.0
  0
ARC
  5
831
330
1F
100
AcDbEntity
  8
001
370
    50
100
AcDbCircle
 10
415.89059
 20
237.866426
 30
0.0
 40
0.4
100
AcDbArc
 50
4.64
 51
89.64
  0
LINE
  5
832
330
1F
100
AcDbEntity
  8
001
370
    50
100
AcDbLine
 10
416.289279
 20
237.898784
 30
0.0
 11
416.299763
 21
237.76961
 31
0.0
  0
POLYLINE
  5
833
330
1F
100
AcDbEntity
  8
001
370
    50
100
AcDb2dPolyline
 66
     1
 10
0.0
 20
0.0
 30
0.0
  0
VERTEX
  5
835
330
833
100
AcDbEntity
  8
001
370
    50
100
AcDbVertex
100
AcDb2dVertex
 10
415.05631
 20
237.164879
 30
0.0
  0
VERTEX
  5
836
330
833
100
AcDbEntity
  8
001
370
    50
100
AcDbVertex
100
AcDb2dVertex
 10
413.586897
 20
237.19647
 30
0.0
  0
VERTEX
  5
837
330
833
100
AcDbEntity
  8
001
370
    50
100
AcDbVertex
100
AcDb2dVertex
 10
411.439151
 20
237.234871
 30
0.0
  0
VERTEX
  5
838
330
833
100
AcDbEntity
  8
001
370
    50
100
AcDbVertex
100
AcDb2dVertex
 10
408.952146
 20
237.267586
 30
0.0
  0
VERTEX
  5
839
330
833
100
AcDbEntity
  8
001
370
    50
100
AcDbVertex
100
AcDb2dVertex
 10
407.64599
 20
237.278569
 30
0.0
  0
VERTEX
  5
83A
330
833
100
AcDbEntity
  8
001
370
    50
100
AcDbVertex
100
AcDb2dVertex
 10
406.386135
 20
237.285481
 30
0.0
  0
SEQEND
  5
834
330
833
100
AcDbEntity
  8
001
370
    50
  0
ARC
  5
83B
330
1F
100
AcDbEntity
  8
001
370
    50
100
AcDbCircle
 10
406.365106
 20
232.285525
 30
0.0
 40
5.0
100
AcDbArc
 50
89.759019
 51
180.0
  0
LINE
  5
83C
330
1F
100
AcDbEntity
  8
001
370
    50
100
AcDbLine
 10
400.85736
 20
233.468594
 30
0.0
 11
401.365106
 21
227.212541
 31
0.0
  0
LINE
  5
83D
330
1F
100
AcDbEntity
  8
001
  6
DASHED
370
    30
100
AcDbLine
 10
402.043658
 20
227.096353
 30
0.0
 11
401.535359
 21
233.579179
 31
0.0
  0
LINE
  5
83E
330
1F
100
AcDbEntity
  8
001
370
     9
100
AcDbLine
 10
389.787948
 20
208.573221
 30
0.0
 11
405.370886
 21
208.573221
 31
0.0
  0
ARC
  5
83F
330
1F
100
AcDbEntity
  8
001
370
    50
100
AcDbCircle
 10
415.253499
 20
216.41553
 30
0.0
 40
3.0
100
AcDbArc
 50
292.205407
 51
144.79356
  0
POLYLINE
  5
840
330
1F
100
AcDbEntity
  8
001
370
    50
100
AcDb2dPolyline
 66
     1
 10
0.0
 20
0.0
 30
0.0
  0
VERTEX
  5
842
330
840
100
AcDbEntity
  8
001
370
    50
100
AcDbVertex
100
AcDb2dVertex
 10
416.021888
 20
209.1359
 30
0.0
  0
VERTEX
  5
843
330
840
100
AcDbEntity
  8
001
370
    50
100
AcDbVertex
100
AcDb2dVertex
 10
416.16069
 20
209.134362
 30
0.0
  0
VERTEX
  5
844
330
840
100
AcDbEntity
  8
001
370
    50
100
AcDbVertex
100
AcDb2dVertex
 10
416.299493
 20
209.132825
 30
0.0
  0
VERTEX
  5
845
330
840
100
AcDbEntity
  8
001
370
    50
100
AcDbVertex
100
AcDb2dVertex
 10
416.405429
 20
209.131651
 30
0.0
  0
VERTEX
  5
846
330
840
100
AcDbEntity
  8
001
370
    50
100
AcDbVertex
100
AcDb2dVertex
 10
416.511364
 20
209.130478
 30
0.0
  0
VERTEX
  5
847
330
840
100
AcDbEntity
  8
001
370
    50
100
AcDbVertex
100
AcDb2dVertex
 10
416.58055
 20
209.129711
 30
0.0
  0
VERTEX
  5
848
330
840
100
AcDbEntity
  8
001
370
    50
100
AcDbVertex
100
AcDb2dVertex
 10
416.649735
 20
209.128945
 30
0.0
  0
VERTEX
  5
849
330
840
100
AcDbEntity
  8
001
370
    50
100
AcDbVertex
100
AcDb2dVertex
 10
417.31248
 20
209.122
 30
0.0
  0
VERTEX
  5
84A
330
840
100
AcDbEntity
  8
001
370
    50
100
AcDbVertex
100
AcDb2dVertex
 10
418.103745
 20
209.114822
 30
0.0
  0
VERTEX
  5
84B
330
840
100
AcDbEntity
  8
001
370
    50
100
AcDbVertex
100
AcDb2dVertex
 10
419.16821
 20
209.107421
 30
0.0
  0
VERTEX
  5
84C
330
840
100
AcDbEntity
  8
001
370
    50
100
AcDbVertex
100
AcDb2dVertex
 10
419.896536
 20
209.103606
 30
0.0
  0
SEQEND
  5
841
330
840
100
AcDbEntity
  8
001
370
    50
  0
LINE
  5
84D
330
1F
100
AcDbEntity
  8
001
370
    50
100
AcDbLine
 10
441.167239
 20
235.952877
 30
0.0
 11
432.715106
 21
235.952877
 31
0.0
  0
LINE
  5
84E
330
1F
100
AcDbEntity
  8
001
  6
CENTER
370
     9
100
AcDbLine
 10
400.141491
 20
223.452877
 30
0.0
 11
445.11711
 21
223.452877
 31
0.0
  0
LINE
  5
84F
330
1F
100
AcDbEntity
  8
001
370
    50
100
AcDbLine
 10
441.167239
 20
210.952877
 30
0.0
 11
432.715106
 21
210.952877
 31
0.0
  0
ARC
  5
850
330
1F
100
AcDbEntity
  8
001
370
    50
100
AcDbCircle
 10
404.80011
 20
146.69896
 30
0.0
 40
4.0
100
AcDbArc
 50
175.36
 51
270.36
  0
ARC
  5
851
330
1F
100
AcDbEntity
  8
001
370
    50
100
AcDbCircle
 10
412.415082
 20
148.271837
 30
0.0
 40
4.0
100
AcDbArc
 50
355.36
 51
90.36
  0
ARC
  5
852
330
1F
100
AcDbEntity
  8
001
370
    50
100
AcDbCircle
 10
404.80011
 20
168.465286
 30
0.0
 40
4.0
100
AcDbArc
 50
89.64
 51
184.64
  0
ARC
  5
853
330
1F
100
AcDbEntity
  8
001
370
    50
100
AcDbCircle
 10
405.342612
 20
233.832621
 30
0.0
 40
4.5
100
AcDbArc
 50
89.64
 51
184.64
  0
ARC
  5
854
330
1F
100
AcDbEntity
  8
001
370
    50
100
AcDbCircle
 10
411.87258
 20
213.639172
 30
0.0
 40
4.5
100
AcDbArc
 50
355.36
 51
90.36
  0
ARC
  5
855
330
1F
100
AcDbEntity
  8
001
370
    50
100
AcDbCircle
 10
405.342612
 20
213.073132
 30
0.0
 40
4.5
100
AcDbArc
 50
175.36
 51
270.36
  0
POLYLINE
  5
856
330
1F
100
AcDbEntity
  8
001
370
    50
100
AcDb2dPolyline
 66
     1
 10
0.0
 20
0.0
 30
0.0
  0
VERTEX
  5
858
330
856
100
AcDbEntity
  8
001
370
    50
100
AcDbVertex
100
AcDb2dVertex
 10
425.821515
 20
270.07643
 30
0.0
  0
VERTEX
  5
859
330
856
100
AcDbEntity
  8
001
370
    50
100
AcDbVertex
100
AcDb2dVertex
 10
425.824514
 20
270.076343
 30
0.0
  0
VERTEX
  5
85A
330
856
100
AcDbEntity
  8
001
370
    50
100
AcDbVertex
100
AcDb2dVertex
 10
425.828898
 20
270.076249
 30
0.0
  0
VERTEX
  5
85B
330
856
100
AcDbEntity
  8
001
370
    50
100
AcDbVertex
100
AcDb2dVertex
 10
425.833281
 20
270.076199
 30
0.0
  0
VERTEX
  5
85C
330
856
100
AcDbEntity
  8
001
370
    50
100
AcDbVertex
100
AcDb2dVertex
 10
425.836281
 20
270.076188
 30
0.0
  0
SEQEND
  5
857
330
856
100
AcDbEntity
  8
001
370
    50
  0
POLYLINE
  5
85D
330
1F
100
AcDbEntity
  8
001
370
    50
100
AcDb2dPolyline
 66
     1
 10
0.0
 20
0.0
 30
0.0
  0
VERTEX
  5
85F
330
85D
100
AcDbEntity
  8
001
370
    50
100
AcDbVertex
100
AcDb2dVertex
 10
425.836281
 20
299.076188
 30
0.0
  0
VERTEX
  5
860
330
85D
100
AcDbEntity
  8
001
370
    50
100
AcDbVertex
100
AcDb2dVertex
 10
425.833281
 20
299.076177
 30
0.0
  0
VERTEX
  5
861
330
85D
100
AcDbEntity
  8
001
370
    50
100
AcDbVertex
100
AcDb2dVertex
 10
425.828898
 20
299.076128
 30
0.0
  0
VERTEX
  5
862
330
85D
100
AcDbEntity
  8
001
370
    50
100
AcDbVertex
100
AcDb2dVertex
 10
425.824514
 20
299.076033
 30
0.0
  0
VERTEX
  5
863
330
85D
100
AcDbEntity
  8
001
370
    50
100
AcDbVertex
100
AcDb2dVertex
 10
425.821515
 20
299.075946
 30
0.0
  0
SEQEND
  5
85E
330
85D
100
AcDbEntity
  8
001
370
    50
  0
LINE
  5
864
330
1F
100
AcDbEntity
  8
001
370
    50
100
AcDbLine
 10
429.715106
 20
299.076188
 30
0.0
 11
425.836281
 21
299.076188
 31
0.0
  0
LINE
  5
865
330
1F
100
AcDbEntity
  8
001
370
    50
100
AcDbLine
 10
425.836281
 20
270.076188
 30
0.0
 11
429.715106
 21
270.076188
 31
0.0
  0
POLYLINE
  5
866
330
1F
100
AcDbEntity
  8
001
370
    50
100
AcDb2dPolyline
 66
     1
 10
0.0
 20
0.0
 30
0.0
  0
VERTEX
  5
868
330
866
100
AcDbEntity
  8
001
370
    50
100
AcDbVertex
100
AcDb2dVertex
 10
419.896536
 20
270.226917
 30
0.0
  0
VERTEX
  5
869
330
866
100
AcDbEntity
  8
001
370
    50
100
AcDbVertex
100
AcDb2dVertex
 10
420.394727
 20
270.239995
 30
0.0
  0
VERTEX
  5
86A
330
866
100
AcDbEntity
  8
001
370
    50
100
AcDbVertex
100
AcDb2dVertex
 10
421.122827
 20
270.260008
 30
0.0
  0
VERTEX
  5
86B
330
866
100
AcDbEntity
  8
001
370
    50
100
AcDbVertex
100
AcDb2dVertex
 10
421.849184
 20
270.281225
 30
0.0
  0
VERTEX
  5
86C
330
866
100
AcDbEntity
  8
001
370
    50
100
AcDbVertex
100
AcDb2dVertex
 10
422.346147
 20
270.296356
 30
0.0
  0
SEQEND
  5
867
330
866
100
AcDbEntity
  8
001
370
    50
  0
POLYLINE
  5
86D
330
1F
100
AcDbEntity
  8
001
370
    50
100
AcDb2dPolyline
 66
     1
 10
0.0
 20
0.0
 30
0.0
  0
VERTEX
  5
86F
330
86D
100
AcDbEntity
  8
001
370
    50
100
AcDbVertex
100
AcDb2dVertex
 10
422.346147
 20
270.296356
 30
0.0
  0
VERTEX
  5
870
330
86D
100
AcDbEntity
  8
001
370
    50
100
AcDbVertex
100
AcDb2dVertex
 10
422.594534
 20
270.301484
 30
0.0
  0
VERTEX
  5
871
330
86D
100
AcDbEntity
  8
001
370
    50
100
AcDbVertex
100
AcDb2dVertex
 10
422.84294
 20
270.304332
 30
0.0
  0
VERTEX
  5
872
330
86D
100
AcDbEntity
  8
001
370
    50
100
AcDbVertex
100
AcDb2dVertex
 10
423.091698
 20
270.303082
 30
0.0
  0
VERTEX
  5
873
330
86D
100
AcDbEntity
  8
001
370
    50
100
AcDbVertex
100
AcDb2dVertex
 10
423.340416
 20
270.297769
 30
0.0
  0
VERTEX
  5
874
330
86D
100
AcDbEntity
  8
001
370
    50
100
AcDbVertex
100
AcDb2dVertex
 10
423.582388
 20
270.289107
 30
0.0
  0
VERTEX
  5
875
330
86D
100
AcDbEntity
  8
001
370
    50
100
AcDbVertex
100
AcDb2dVertex
 10
423.824212
 20
270.277109
 30
0.0
  0
VERTEX
  5
876
330
86D
100
AcDbEntity
  8
001
370
    50
100
AcDbVertex
100
AcDb2dVertex
 10
424.052855
 20
270.262711
 30
0.0
  0
VERTEX
  5
877
330
86D
100
AcDbEntity
  8
001
370
    50
100
AcDbVertex
100
AcDb2dVertex
 10
424.281294
 20
270.245372
 30
0.0
  0
VERTEX
  5
878
330
86D
100
AcDbEntity
  8
001
370
    50
100
AcDbVertex
100
AcDb2dVertex
 10
424.491422
 20
270.226856
 30
0.0
  0
VERTEX
  5
879
330
86D
100
AcDbEntity
  8
001
370
    50
100
AcDbVertex
100
AcDb2dVertex
 10
424.701337
 20
270.206074
 30
0.0
  0
VERTEX
  5
87A
330
86D
100
AcDbEntity
  8
001
370
    50
100
AcDbVertex
100
AcDb2dVertex
 10
424.886021
 20
270.186063
 30
0.0
  0
VERTEX
  5
87B
330
86D
100
AcDbEntity
  8
001
370
    50
100
AcDbVertex
100
AcDb2dVertex
 10
425.070541
 20
270.164588
 30
0.0
  0
VERTEX
  5
87C
330
86D
100
AcDbEntity
  8
001
370
    50
100
AcDbVertex
100
AcDb2dVertex
 10
425.226126
 20
270.145483
 30
0.0
  0
VERTEX
  5
87D
330
86D
100
AcDbEntity
  8
001
370
    50
100
AcDbVertex
100
AcDb2dVertex
 10
425.381642
 20
270.125866
 30
0.0
  0
VERTEX
  5
87E
330
86D
100
AcDbEntity
  8
001
370
    50
100
AcDbVertex
100
AcDb2dVertex
 10
425.501625
 20
270.110665
 30
0.0
  0
VERTEX
  5
87F
330
86D
100
AcDbEntity
  8
001
370
    50
100
AcDbVertex
100
AcDb2dVertex
 10
425.621646
 20
270.095663
 30
0.0
  0
VERTEX
  5
880
330
86D
100
AcDbEntity
  8
001
370
    50
100
AcDbVertex
100
AcDb2dVertex
 10
425.681238
 20
270.088517
 30
0.0
  0
VERTEX
  5
881
330
86D
100
AcDbEntity
  8
001
370
    50
100
AcDbVertex
100
AcDb2dVertex
 10
425.740929
 20
270.082396
 30
0.0
  0
VERTEX
  5
882
330
86D
100
AcDbEntity
  8
001
370
    50
100
AcDbVertex
100
AcDb2dVertex
 10
425.781202
 20
270.079193
 30
0.0
  0
VERTEX
  5
883
330
86D
100
AcDbEntity
  8
001
370
    50
100
AcDbVertex
100
AcDb2dVertex
 10
425.821515
 20
270.07643
 30
0.0
  0
SEQEND
  5
86E
330
86D
100
AcDbEntity
  8
001
370
    50
  0
POLYLINE
  5
884
330
1F
100
AcDbEntity
  8
001
370
    50
100
AcDb2dPolyline
 66
     1
 10
0.0
 20
0.0
 30
0.0
  0
VERTEX
  5
886
330
884
100
AcDbEntity
  8
001
370
    50
100
AcDbVertex
100
AcDb2dVertex
 10
425.836281
 20
270.076188
 30
0.0
  0
VERTEX
  5
887
330
884
100
AcDbEntity
  8
001
370
    50
100
AcDbVertex
100
AcDb2dVertex
 10
426.065366
 20
270.165776
 30
0.0
  0
VERTEX
  5
888
330
884
100
AcDbEntity
  8
001
370
    50
100
AcDbVertex
100
AcDb2dVertex
 10
426.350354
 20
270.372311
 30
0.0
  0
VERTEX
  5
889
330
884
100
AcDbEntity
  8
001
370
    50
100
AcDbVertex
100
AcDb2dVertex
 10
426.668994
 20
270.796099
 30
0.0
  0
VERTEX
  5
88A
330
884
100
AcDbEntity
  8
001
370
    50
100
AcDbVertex
100
AcDb2dVertex
 10
426.843431
 20
271.248585
 30
0.0
  0
VERTEX
  5
88B
330
884
100
AcDbEntity
  8
001
370
    50
100
AcDbVertex
100
AcDb2dVertex
 10
427.07284
 20
271.925083
 30
0.0
  0
VERTEX
  5
88C
330
884
100
AcDbEntity
  8
001
370
    50
100
AcDbVertex
100
AcDb2dVertex
 10
427.29537
 20
272.669219
 30
0.0
  0
VERTEX
  5
88D
330
884
100
AcDbEntity
  8
001
370
    50
100
AcDbVertex
100
AcDb2dVertex
 10
427.540699
 20
273.766545
 30
0.0
  0
VERTEX
  5
88E
330
884
100
AcDbEntity
  8
001
370
    50
100
AcDbVertex
100
AcDb2dVertex
 10
427.687714
 20
274.576188
 30
0.0
  0
SEQEND
  5
885
330
884
100
AcDbEntity
  8
001
370
    50
  0
POLYLINE
  5
88F
330
1F
100
AcDbEntity
  8
001
370
    50
100
AcDb2dPolyline
 66
     1
 10
0.0
 20
0.0
 30
0.0
  0
VERTEX
  5
891
330
88F
100
AcDbEntity
  8
001
370
    50
100
AcDbVertex
100
AcDb2dVertex
 10
420.245171
 20
282.576188
 30
0.0
  0
VERTEX
  5
892
330
88F
100
AcDbEntity
  8
001
370
    50
100
AcDbVertex
100
AcDb2dVertex
 10
420.576493
 20
282.566892
 30
0.0
  0
VERTEX
  5
893
330
88F
100
AcDbEntity
  8
001
370
    50
100
AcDbVertex
100
AcDb2dVertex
 10
420.907268
 20
282.549122
 30
0.0
  0
VERTEX
  5
894
330
88F
100
AcDbEntity
  8
001
370
    50
100
AcDbVertex
100
AcDb2dVertex
 10
421.238036
 20
282.516083
 30
0.0
  0
VERTEX
  5
895
330
88F
100
AcDbEntity
  8
001
370
    50
100
AcDbVertex
100
AcDb2dVertex
 10
421.567175
 20
282.468394
 30
0.0
  0
VERTEX
  5
896
330
88F
100
AcDbEntity
  8
001
370
    50
100
AcDbVertex
100
AcDb2dVertex
 10
421.893997
 20
282.407983
 30
0.0
  0
VERTEX
  5
897
330
88F
100
AcDbEntity
  8
001
370
    50
100
AcDbVertex
100
AcDb2dVertex
 10
422.218106
 20
282.334705
 30
0.0
  0
VERTEX
  5
898
330
88F
100
AcDbEntity
  8
001
370
    50
100
AcDbVertex
100
AcDb2dVertex
 10
422.537636
 20
282.248415
 30
0.0
  0
VERTEX
  5
899
330
88F
100
AcDbEntity
  8
001
370
    50
100
AcDbVertex
100
AcDb2dVertex
 10
422.853276
 20
282.148761
 30
0.0
  0
VERTEX
  5
89A
330
88F
100
AcDbEntity
  8
001
370
    50
100
AcDbVertex
100
AcDb2dVertex
 10
423.164949
 20
282.035605
 30
0.0
  0
VERTEX
  5
89B
330
88F
100
AcDbEntity
  8
001
370
    50
100
AcDbVertex
100
AcDb2dVertex
 10
423.471552
 20
281.909361
 30
0.0
  0
VERTEX
  5
89C
330
88F
100
AcDbEntity
  8
001
370
    50
100
AcDbVertex
100
AcDb2dVertex
 10
423.773251
 20
281.769983
 30
0.0
  0
VERTEX
  5
89D
330
88F
100
AcDbEntity
  8
001
370
    50
100
AcDbVertex
100
AcDb2dVertex
 10
424.068802
 20
281.617999
 30
0.0
  0
VERTEX
  5
89E
330
88F
100
AcDbEntity
  8
001
370
    50
100
AcDbVertex
100
AcDb2dVertex
 10
424.356781
 20
281.454157
 30
0.0
  0
VERTEX
  5
89F
330
88F
100
AcDbEntity
  8
001
370
    50
100
AcDbVertex
100
AcDb2dVertex
 10
424.637492
 20
281.278147
 30
0.0
  0
VERTEX
  5
8A0
330
88F
100
AcDbEntity
  8
001
370
    50
100
AcDbVertex
100
AcDb2dVertex
 10
424.908087
 20
281.091646
 30
0.0
  0
VERTEX
  5
8A1
330
88F
100
AcDbEntity
  8
001
370
    50
100
AcDbVertex
100
AcDb2dVertex
 10
425.170088
 20
280.893278
 30
0.0
  0
VERTEX
  5
8A2
330
88F
100
AcDbEntity
  8
001
370
    50
100
AcDbVertex
100
AcDb2dVertex
 10
425.407969
 20
280.695957
 30
0.0
  0
VERTEX
  5
8A3
330
88F
100
AcDbEntity
  8
001
370
    50
100
AcDbVertex
100
AcDb2dVertex
 10
425.637171
 20
280.488614
 30
0.0
  0
VERTEX
  5
8A4
330
88F
100
AcDbEntity
  8
001
370
    50
100
AcDbVertex
100
AcDb2dVertex
 10
425.856584
 20
280.272505
 30
0.0
  0
VERTEX
  5
8A5
330
88F
100
AcDbEntity
  8
001
370
    50
100
AcDbVertex
100
AcDb2dVertex
 10
426.066664
 20
280.047315
 30
0.0
  0
VERTEX
  5
8A6
330
88F
100
AcDbEntity
  8
001
370
    50
100
AcDbVertex
100
AcDb2dVertex
 10
426.264891
 20
279.815982
 30
0.0
  0
VERTEX
  5
8A7
330
88F
100
AcDbEntity
  8
001
370
    50
100
AcDbVertex
100
AcDb2dVertex
 10
426.453053
 20
279.576394
 30
0.0
  0
VERTEX
  5
8A8
330
88F
100
AcDbEntity
  8
001
370
    50
100
AcDbVertex
100
AcDb2dVertex
 10
426.627419
 20
279.333379
 30
0.0
  0
VERTEX
  5
8A9
330
88F
100
AcDbEntity
  8
001
370
    50
100
AcDbVertex
100
AcDb2dVertex
 10
426.790824
 20
279.082864
 30
0.0
  0
VERTEX
  5
8AA
330
88F
100
AcDbEntity
  8
001
370
    50
100
AcDbVertex
100
AcDb2dVertex
 10
426.96791
 20
278.779516
 30
0.0
  0
VERTEX
  5
8AB
330
88F
100
AcDbEntity
  8
001
370
    50
100
AcDbVertex
100
AcDb2dVertex
 10
427.128705
 20
278.467193
 30
0.0
  0
VERTEX
  5
8AC
330
88F
100
AcDbEntity
  8
001
370
    50
100
AcDbVertex
100
AcDb2dVertex
 10
427.269954
 20
278.154089
 30
0.0
  0
VERTEX
  5
8AD
330
88F
100
AcDbEntity
  8
001
370
    50
100
AcDbVertex
100
AcDb2dVertex
 10
427.39496
 20
277.834165
 30
0.0
  0
VERTEX
  5
8AE
330
88F
100
AcDbEntity
  8
001
370
    50
100
AcDbVertex
100
AcDb2dVertex
 10
427.499889
 20
277.519005
 30
0.0
  0
VERTEX
  5
8AF
330
88F
100
AcDbEntity
  8
001
370
    50
100
AcDbVertex
100
AcDb2dVertex
 10
427.588427
 20
277.198875
 30
0.0
  0
VERTEX
  5
8B0
330
88F
100
AcDbEntity
  8
001
370
    50
100
AcDbVertex
100
AcDb2dVertex
 10
427.65724
 20
276.888656
 30
0.0
  0
VERTEX
  5
8B1
330
88F
100
AcDbEntity
  8
001
370
    50
100
AcDbVertex
100
AcDb2dVertex
 10
427.710539
 20
276.575384
 30
0.0
  0
VERTEX
  5
8B2
330
88F
100
AcDbEntity
  8
001
370
    50
100
AcDbVertex
100
AcDb2dVertex
 10
427.747393
 20
276.270621
 30
0.0
  0
VERTEX
  5
8B3
330
88F
100
AcDbEntity
  8
001
370
    50
100
AcDbVertex
100
AcDb2dVertex
 10
427.769705
 20
275.964473
 30
0.0
  0
VERTEX
  5
8B4
330
88F
100
AcDbEntity
  8
001
370
    50
100
AcDbVertex
100
AcDb2dVertex
 10
427.777331
 20
275.669988
 30
0.0
  0
VERTEX
  5
8B5
330
88F
100
AcDbEntity
  8
001
370
    50
100
AcDbVertex
100
AcDb2dVertex
 10
427.771729
 20
275.375435
 30
0.0
  0
VERTEX
  5
8B6
330
88F
100
AcDbEntity
  8
001
370
    50
100
AcDbVertex
100
AcDb2dVertex
 10
427.760123
 20
275.171738
 30
0.0
  0
VERTEX
  5
8B7
330
88F
100
AcDbEntity
  8
001
370
    50
100
AcDbVertex
100
AcDb2dVertex
 10
427.741449
 20
274.968636
 30
0.0
  0
VERTEX
  5
8B8
330
88F
100
AcDbEntity
  8
001
370
    50
100
AcDbVertex
100
AcDb2dVertex
 10
427.71646
 20
274.772189
 30
0.0
  0
VERTEX
  5
8B9
330
88F
100
AcDbEntity
  8
001
370
    50
100
AcDbVertex
100
AcDb2dVertex
 10
427.687714
 20
274.576188
 30
0.0
  0
SEQEND
  5
890
330
88F
100
AcDbEntity
  8
001
370
    50
  0
LINE
  5
8BA
330
1F
100
AcDbEntity
  8
001
370
    50
100
AcDbLine
 10
419.896536
 20
298.925459
 30
0.0
 11
419.896536
 21
282.576188
 31
0.0
  0
POLYLINE
  5
8BB
330
1F
100
AcDbEntity
  8
001
370
    50
100
AcDb2dPolyline
 66
     1
 10
0.0
 20
0.0
 30
0.0
  0
VERTEX
  5
8BD
330
8BB
100
AcDbEntity
  8
001
370
    50
100
AcDbVertex
100
AcDb2dVertex
 10
422.346147
 20
298.85602
 30
0.0
  0
VERTEX
  5
8BE
330
8BB
100
AcDbEntity
  8
001
370
    50
100
AcDbVertex
100
AcDb2dVertex
 10
421.849184
 20
298.871152
 30
0.0
  0
VERTEX
  5
8BF
330
8BB
100
AcDbEntity
  8
001
370
    50
100
AcDbVertex
100
AcDb2dVertex
 10
421.122827
 20
298.892368
 30
0.0
  0
VERTEX
  5
8C0
330
8BB
100
AcDbEntity
  8
001
370
    50
100
AcDbVertex
100
AcDb2dVertex
 10
420.394727
 20
298.912381
 30
0.0
  0
VERTEX
  5
8C1
330
8BB
100
AcDbEntity
  8
001
370
    50
100
AcDbVertex
100
AcDb2dVertex
 10
419.896536
 20
298.925459
 30
0.0
  0
SEQEND
  5
8BC
330
8BB
100
AcDbEntity
  8
001
370
    50
  0
POLYLINE
  5
8C2
330
1F
100
AcDbEntity
  8
001
370
    50
100
AcDb2dPolyline
 66
     1
 10
0.0
 20
0.0
 30
0.0
  0
VERTEX
  5
8C4
330
8C2
100
AcDbEntity
  8
001
370
    50
100
AcDbVertex
100
AcDb2dVertex
 10
422.346147
 20
298.85602
 30
0.0
  0
VERTEX
  5
8C5
330
8C2
100
AcDbEntity
  8
001
370
    50
100
AcDbVertex
100
AcDb2dVertex
 10
422.594534
 20
298.850892
 30
0.0
  0
VERTEX
  5
8C6
330
8C2
100
AcDbEntity
  8
001
370
    50
100
AcDbVertex
100
AcDb2dVertex
 10
422.84294
 20
298.848044
 30
0.0
  0
VERTEX
  5
8C7
330
8C2
100
AcDbEntity
  8
001
370
    50
100
AcDbVertex
100
AcDb2dVertex
 10
423.091698
 20
298.849294
 30
0.0
  0
VERTEX
  5
8C8
330
8C2
100
AcDbEntity
  8
001
370
    50
100
AcDbVertex
100
AcDb2dVertex
 10
423.340416
 20
298.854607
 30
0.0
  0
VERTEX
  5
8C9
330
8C2
100
AcDbEntity
  8
001
370
    50
100
AcDbVertex
100
AcDb2dVertex
 10
423.582388
 20
298.863269
 30
0.0
  0
VERTEX
  5
8CA
330
8C2
100
AcDbEntity
  8
001
370
    50
100
AcDbVertex
100
AcDb2dVertex
 10
423.824212
 20
298.875268
 30
0.0
  0
VERTEX
  5
8CB
330
8C2
100
AcDbEntity
  8
001
370
    50
100
AcDbVertex
100
AcDb2dVertex
 10
424.052855
 20
298.889665
 30
0.0
  0
VERTEX
  5
8CC
330
8C2
100
AcDbEntity
  8
001
370
    50
100
AcDbVertex
100
AcDb2dVertex
 10
424.281294
 20
298.907004
 30
0.0
  0
VERTEX
  5
8CD
330
8C2
100
AcDbEntity
  8
001
370
    50
100
AcDbVertex
100
AcDb2dVertex
 10
424.491422
 20
298.92552
 30
0.0
  0
VERTEX
  5
8CE
330
8C2
100
AcDbEntity
  8
001
370
    50
100
AcDbVertex
100
AcDb2dVertex
 10
424.701337
 20
298.946302
 30
0.0
  0
VERTEX
  5
8CF
330
8C2
100
AcDbEntity
  8
001
370
    50
100
AcDbVertex
100
AcDb2dVertex
 10
424.886021
 20
298.966313
 30
0.0
  0
VERTEX
  5
8D0
330
8C2
100
AcDbEntity
  8
001
370
    50
100
AcDbVertex
100
AcDb2dVertex
 10
425.070541
 20
298.987789
 30
0.0
  0
VERTEX
  5
8D1
330
8C2
100
AcDbEntity
  8
001
370
    50
100
AcDbVertex
100
AcDb2dVertex
 10
425.226126
 20
299.006893
 30
0.0
  0
VERTEX
  5
8D2
330
8C2
100
AcDbEntity
  8
001
370
    50
100
AcDbVertex
100
AcDb2dVertex
 10
425.381642
 20
299.02651
 30
0.0
  0
VERTEX
  5
8D3
330
8C2
100
AcDbEntity
  8
001
370
    50
100
AcDbVertex
100
AcDb2dVertex
 10
425.501625
 20
299.041712
 30
0.0
  0
VERTEX
  5
8D4
330
8C2
100
AcDbEntity
  8
001
370
    50
100
AcDbVertex
100
AcDb2dVertex
 10
425.621646
 20
299.056713
 30
0.0
  0
VERTEX
  5
8D5
330
8C2
100
AcDbEntity
  8
001
370
    50
100
AcDbVertex
100
AcDb2dVertex
 10
425.681238
 20
299.06386
 30
0.0
  0
VERTEX
  5
8D6
330
8C2
100
AcDbEntity
  8
001
370
    50
100
AcDbVertex
100
AcDb2dVertex
 10
425.740929
 20
299.06998
 30
0.0
  0
VERTEX
  5
8D7
330
8C2
100
AcDbEntity
  8
001
370
    50
100
AcDbVertex
100
AcDb2dVertex
 10
425.781202
 20
299.073183
 30
0.0
  0
VERTEX
  5
8D8
330
8C2
100
AcDbEntity
  8
001
370
    50
100
AcDbVertex
100
AcDb2dVertex
 10
425.821515
 20
299.075946
 30
0.0
  0
SEQEND
  5
8C3
330
8C2
100
AcDbEntity
  8
001
370
    50
  0
POLYLINE
  5
8D9
330
1F
100
AcDbEntity
  8
001
370
    50
100
AcDb2dPolyline
 66
     1
 10
0.0
 20
0.0
 30
0.0
  0
VERTEX
  5
8DB
330
8D9
100
AcDbEntity
  8
001
370
    50
100
AcDbVertex
100
AcDb2dVertex
 10
416.312779
 20
298.89626
 30
0.0
  0
VERTEX
  5
8DC
330
8D9
100
AcDbEntity
  8
001
370
    50
100
AcDbVertex
100
AcDb2dVertex
 10
416.046788
 20
298.814666
 30
0.0
  0
VERTEX
  5
8DD
330
8D9
100
AcDbEntity
  8
001
370
    50
100
AcDbVertex
100
AcDb2dVertex
 10
415.671588
 20
298.661748
 30
0.0
  0
VERTEX
  5
8DE
330
8D9
100
AcDbEntity
  8
001
370
    50
100
AcDbVertex
100
AcDb2dVertex
 10
415.298981
 20
298.453065
 30
0.0
  0
VERTEX
  5
8DF
330
8D9
100
AcDbEntity
  8
001
370
    50
100
AcDbVertex
100
AcDb2dVertex
 10
415.05631
 20
298.288191
 30
0.0
  0
SEQEND
  5
8DA
330
8D9
100
AcDbEntity
  8
001
370
    50
  0
POLYLINE
  5
8E0
330
1F
100
AcDbEntity
  8
001
370
    50
100
AcDb2dPolyline
 66
     1
 10
0.0
 20
0.0
 30
0.0
  0
VERTEX
  5
8E2
330
8E0
100
AcDbEntity
  8
001
370
    50
100
AcDbVertex
100
AcDb2dVertex
 10
419.896536
 20
298.925459
 30
0.0
  0
VERTEX
  5
8E3
330
8E0
100
AcDbEntity
  8
001
370
    50
100
AcDbVertex
100
AcDb2dVertex
 10
419.16821
 20
298.921644
 30
0.0
  0
VERTEX
  5
8E4
330
8E0
100
AcDbEntity
  8
001
370
    50
100
AcDbVertex
100
AcDb2dVertex
 10
418.103745
 20
298.914243
 30
0.0
  0
VERTEX
  5
8E5
330
8E0
100
AcDbEntity
  8
001
370
    50
100
AcDbVertex
100
AcDb2dVertex
 10
417.040352
 20
298.904307
 30
0.0
  0
VERTEX
  5
8E6
330
8E0
100
AcDbEntity
  8
001
370
    50
100
AcDbVertex
100
AcDb2dVertex
 10
416.312779
 20
298.89626
 30
0.0
  0
SEQEND
  5
8E1
330
8E0
100
AcDbEntity
  8
001
370
    50
  0
POLYLINE
  5
8E7
330
1F
100
AcDbEntity
  8
001
370
    50
100
AcDb2dPolyline
 66
     1
 10
0.0
 20
0.0
 30
0.0
  0
VERTEX
  5
8E9
330
8E7
100
AcDbEntity
  8
001
370
    50
100
AcDbVertex
100
AcDb2dVertex
 10
408.265158
 20
296.062694
 30
0.0
  0
VERTEX
  5
8EA
330
8E7
100
AcDbEntity
  8
001
370
    50
100
AcDbVertex
100
AcDb2dVertex
 10
408.201275
 20
296.101716
 30
0.0
  0
VERTEX
  5
8EB
330
8E7
100
AcDbEntity
  8
001
370
    50
100
AcDbVertex
100
AcDb2dVertex
 10
408.13606
 20
296.138278
 30
0.0
  0
VERTEX
  5
8EC
330
8E7
100
AcDbEntity
  8
001
370
    50
100
AcDbVertex
100
AcDb2dVertex
 10
408.064001
 20
296.17236
 30
0.0
  0
VERTEX
  5
8ED
330
8E7
100
AcDbEntity
  8
001
370
    50
100
AcDbVertex
100
AcDb2dVertex
 10
407.9897
 20
296.201444
 30
0.0
  0
VERTEX
  5
8EE
330
8E7
100
AcDbEntity
  8
001
370
    50
100
AcDbVertex
100
AcDb2dVertex
 10
407.90766
 20
296.227847
 30
0.0
  0
VERTEX
  5
8EF
330
8E7
100
AcDbEntity
  8
001
370
    50
100
AcDbVertex
100
AcDb2dVertex
 10
407.824192
 20
296.249311
 30
0.0
  0
VERTEX
  5
8F0
330
8E7
100
AcDbEntity
  8
001
370
    50
100
AcDbVertex
100
AcDb2dVertex
 10
407.734918
 20
296.266677
 30
0.0
  0
VERTEX
  5
8F1
330
8E7
100
AcDbEntity
  8
001
370
    50
100
AcDbVertex
100
AcDb2dVertex
 10
407.644755
 20
296.2781
 30
0.0
  0
VERTEX
  5
8F2
330
8E7
100
AcDbEntity
  8
001
370
    50
100
AcDbVertex
100
AcDb2dVertex
 10
407.56614
 20
296.283151
 30
0.0
  0
VERTEX
  5
8F3
330
8E7
100
AcDbEntity
  8
001
370
    50
100
AcDbVertex
100
AcDb2dVertex
 10
407.487339
 20
296.28571
 30
0.0
  0
SEQEND
  5
8E8
330
8E7
100
AcDbEntity
  8
001
370
    50
  0
ARC
  5
8F4
330
1F
100
AcDbEntity
  8
001
370
    50
100
AcDbCircle
 10
429.715106
 20
298.076188
 30
0.0
 40
0.9999999999999974
100
AcDbArc
 50
0.0
 51
90.0
  0
ARC
  5
8F5
330
1F
100
AcDbEntity
  8
001
370
    50
100
AcDbCircle
 10
429.715106
 20
271.076188
 30
0.0
 40
0.9999999999999974
100
AcDbArc
 50
270.0
 51
0.0
  0
LINE
  5
8F6
330
1F
100
AcDbEntity
  8
001
370
    50
100
AcDbLine
 10
430.715106
 20
298.076188
 30
0.0
 11
430.715106
 21
271.076188
 31
0.0
  0
LINE
  5
8F7
330
1F
100
AcDbEntity
  8
001
  6
DASHED
370
    50
100
AcDbLine
 10
401.369938
 20
282.576188
 30
0.0
 11
401.365112
 21
282.576188
 31
0.0
  0
POLYLINE
  5
8F8
330
1F
100
AcDbEntity
  8
001
370
    50
100
AcDb2dPolyline
 66
     1
 10
0.0
 20
0.0
 30
0.0
  0
VERTEX
  5
8FA
330
8F8
100
AcDbEntity
  8
001
370
    50
100
AcDbVertex
100
AcDb2dVertex
 10
406.88403
 20
292.98571
 30
0.0
  0
VERTEX
  5
8FB
330
8F8
100
AcDbEntity
  8
001
370
    50
100
AcDbVertex
100
AcDb2dVertex
 10
406.967579
 20
292.988657
 30
0.0
  0
VERTEX
  5
8FC
330
8F8
100
AcDbEntity
  8
001
370
    50
100
AcDbVertex
100
AcDb2dVertex
 10
407.05094
 20
292.994044
 30
0.0
  0
VERTEX
  5
8FD
330
8F8
100
AcDbEntity
  8
001
370
    50
100
AcDbVertex
100
AcDb2dVertex
 10
407.160005
 20
293.00784
 30
0.0
  0
VERTEX
  5
8FE
330
8F8
100
AcDbEntity
  8
001
370
    50
100
AcDbVertex
100
AcDb2dVertex
 10
407.268001
 20
293.028934
 30
0.0
  0
VERTEX
  5
8FF
330
8F8
100
AcDbEntity
  8
001
370
    50
100
AcDbVertex
100
AcDb2dVertex
 10
407.380374
 20
293.058054
 30
0.0
  0
VERTEX
  5
900
330
8F8
100
AcDbEntity
  8
001
370
    50
100
AcDbVertex
100
AcDb2dVertex
 10
407.490731
 20
293.093932
 30
0.0
  0
VERTEX
  5
901
330
8F8
100
AcDbEntity
  8
001
370
    50
100
AcDbVertex
100
AcDb2dVertex
 10
407.596778
 20
293.135619
 30
0.0
  0
VERTEX
  5
902
330
8F8
100
AcDbEntity
  8
001
370
    50
100
AcDbVertex
100
AcDb2dVertex
 10
407.700197
 20
293.18349
 30
0.0
  0
VERTEX
  5
903
330
8F8
100
AcDbEntity
  8
001
370
    50
100
AcDbVertex
100
AcDb2dVertex
 10
407.812155
 20
293.243928
 30
0.0
  0
VERTEX
  5
904
330
8F8
100
AcDbEntity
  8
001
370
    50
100
AcDbVertex
100
AcDb2dVertex
 10
407.920065
 20
293.311332
 30
0.0
  0
VERTEX
  5
905
330
8F8
100
AcDbEntity
  8
001
370
    50
100
AcDbVertex
100
AcDb2dVertex
 10
408.020416
 20
293.382884
 30
0.0
  0
VERTEX
  5
906
330
8F8
100
AcDbEntity
  8
001
370
    50
100
AcDbVertex
100
AcDb2dVertex
 10
408.116312
 20
293.46032
 30
0.0
  0
VERTEX
  5
907
330
8F8
100
AcDbEntity
  8
001
370
    50
100
AcDbVertex
100
AcDb2dVertex
 10
408.243886
 20
293.57953
 30
0.0
  0
VERTEX
  5
908
330
8F8
100
AcDbEntity
  8
001
370
    50
100
AcDbVertex
100
AcDb2dVertex
 10
408.361098
 20
293.709013
 30
0.0
  0
VERTEX
  5
909
330
8F8
100
AcDbEntity
  8
001
370
    50
100
AcDbVertex
100
AcDb2dVertex
 10
408.461894
 20
293.840259
 30
0.0
  0
VERTEX
  5
90A
330
8F8
100
AcDbEntity
  8
001
370
    50
100
AcDbVertex
100
AcDb2dVertex
 10
408.551933
 20
293.979047
 30
0.0
  0
VERTEX
  5
90B
330
8F8
100
AcDbEntity
  8
001
370
    50
100
AcDbVertex
100
AcDb2dVertex
 10
408.615998
 20
294.095565
 30
0.0
  0
VERTEX
  5
90C
330
8F8
100
AcDbEntity
  8
001
370
    50
100
AcDbVertex
100
AcDb2dVertex
 10
408.672279
 20
294.216029
 30
0.0
  0
VERTEX
  5
90D
330
8F8
100
AcDbEntity
  8
001
370
    50
100
AcDbVertex
100
AcDb2dVertex
 10
408.718649
 20
294.334923
 30
0.0
  0
VERTEX
  5
90E
330
8F8
100
AcDbEntity
  8
001
370
    50
100
AcDbVertex
100
AcDb2dVertex
 10
408.757167
 20
294.456573
 30
0.0
  0
VERTEX
  5
90F
330
8F8
100
AcDbEntity
  8
001
370
    50
100
AcDbVertex
100
AcDb2dVertex
 10
408.786331
 20
294.575157
 30
0.0
  0
VERTEX
  5
910
330
8F8
100
AcDbEntity
  8
001
370
    50
100
AcDbVertex
100
AcDb2dVertex
 10
408.807609
 20
294.695443
 30
0.0
  0
VERTEX
  5
911
330
8F8
100
AcDbEntity
  8
001
370
    50
100
AcDbVertex
100
AcDb2dVertex
 10
408.823719
 20
294.872388
 30
0.0
  0
VERTEX
  5
912
330
8F8
100
AcDbEntity
  8
001
370
    50
100
AcDbVertex
100
AcDb2dVertex
 10
408.821125
 20
295.05009
 30
0.0
  0
VERTEX
  5
913
330
8F8
100
AcDbEntity
  8
001
370
    50
100
AcDbVertex
100
AcDb2dVertex
 10
408.799755
 20
295.220343
 30
0.0
  0
VERTEX
  5
914
330
8F8
100
AcDbEntity
  8
001
370
    50
100
AcDbVertex
100
AcDb2dVertex
 10
408.759096
 20
295.386982
 30
0.0
  0
VERTEX
  5
915
330
8F8
100
AcDbEntity
  8
001
370
    50
100
AcDbVertex
100
AcDb2dVertex
 10
408.713199
 20
295.513697
 30
0.0
  0
VERTEX
  5
916
330
8F8
100
AcDbEntity
  8
001
370
    50
100
AcDbVertex
100
AcDb2dVertex
 10
408.6547
 20
295.635046
 30
0.0
  0
VERTEX
  5
917
330
8F8
100
AcDbEntity
  8
001
370
    50
100
AcDbVertex
100
AcDb2dVertex
 10
408.581288
 20
295.752691
 30
0.0
  0
VERTEX
  5
918
330
8F8
100
AcDbEntity
  8
001
370
    50
100
AcDbVertex
100
AcDb2dVertex
 10
408.495403
 20
295.861616
 30
0.0
  0
VERTEX
  5
919
330
8F8
100
AcDbEntity
  8
001
370
    50
100
AcDbVertex
100
AcDb2dVertex
 10
408.444272
 20
295.91615
 30
0.0
  0
VERTEX
  5
91A
330
8F8
100
AcDbEntity
  8
001
370
    50
100
AcDbVertex
100
AcDb2dVertex
 10
408.389607
 20
295.966964
 30
0.0
  0
VERTEX
  5
91B
330
8F8
100
AcDbEntity
  8
001
370
    50
100
AcDbVertex
100
AcDb2dVertex
 10
408.328429
 20
296.016079
 30
0.0
  0
VERTEX
  5
91C
330
8F8
100
AcDbEntity
  8
001
370
    50
100
AcDbVertex
100
AcDb2dVertex
 10
408.265158
 20
296.062694
 30
0.0
  0
SEQEND
  5
8F9
330
8F8
100
AcDbEntity
  8
001
370
    50
  0
POLYLINE
  5
91D
330
1F
100
AcDbEntity
  8
001
370
    50
100
AcDb2dPolyline
 66
     1
 10
0.0
 20
0.0
 30
0.0
  0
VERTEX
  5
91F
330
91D
100
AcDbEntity
  8
001
370
    50
100
AcDbVertex
100
AcDb2dVertex
 10
407.487339
 20
296.28571
 30
0.0
  0
VERTEX
  5
920
330
91D
100
AcDbEntity
  8
001
370
    50
100
AcDbVertex
100
AcDb2dVertex
 10
407.482181
 20
296.285642
 30
0.0
  0
VERTEX
  5
921
330
91D
100
AcDbEntity
  8
001
370
    50
100
AcDbVertex
100
AcDb2dVertex
 10
407.477022
 20
296.285569
 30
0.0
  0
VERTEX
  5
922
330
91D
100
AcDbEntity
  8
001
370
    50
100
AcDbVertex
100
AcDb2dVertex
 10
407.392497
 20
296.282744
 30
0.0
  0
VERTEX
  5
923
330
91D
100
AcDbEntity
  8
001
370
    50
100
AcDbVertex
100
AcDb2dVertex
 10
407.30817
 20
296.276316
 30
0.0
  0
VERTEX
  5
924
330
91D
100
AcDbEntity
  8
001
370
    50
100
AcDbVertex
100
AcDb2dVertex
 10
407.21154
 20
296.263758
 30
0.0
  0
VERTEX
  5
925
330
91D
100
AcDbEntity
  8
001
370
    50
100
AcDbVertex
100
AcDb2dVertex
 10
407.115699
 20
296.246034
 30
0.0
  0
VERTEX
  5
926
330
91D
100
AcDbEntity
  8
001
370
    50
100
AcDbVertex
100
AcDb2dVertex
 10
407.023691
 20
296.224405
 30
0.0
  0
VERTEX
  5
927
330
91D
100
AcDbEntity
  8
001
370
    50
100
AcDbVertex
100
AcDb2dVertex
 10
406.932784
 20
296.198557
 30
0.0
  0
VERTEX
  5
928
330
91D
100
AcDbEntity
  8
001
370
    50
100
AcDbVertex
100
AcDb2dVertex
 10
406.803751
 20
296.153958
 30
0.0
  0
VERTEX
  5
929
330
91D
100
AcDbEntity
  8
001
370
    50
100
AcDbVertex
100
AcDb2dVertex
 10
406.677815
 20
296.101181
 30
0.0
  0
VERTEX
  5
92A
330
91D
100
AcDbEntity
  8
001
370
    50
100
AcDbVertex
100
AcDb2dVertex
 10
406.56217
 20
296.044278
 30
0.0
  0
VERTEX
  5
92B
330
91D
100
AcDbEntity
  8
001
370
    50
100
AcDbVertex
100
AcDb2dVertex
 10
406.449972
 20
295.98086
 30
0.0
  0
VERTEX
  5
92C
330
91D
100
AcDbEntity
  8
001
370
    50
100
AcDbVertex
100
AcDb2dVertex
 10
406.335609
 20
295.907199
 30
0.0
  0
VERTEX
  5
92D
330
91D
100
AcDbEntity
  8
001
370
    50
100
AcDbVertex
100
AcDb2dVertex
 10
406.225845
 20
295.826843
 30
0.0
  0
VERTEX
  5
92E
330
91D
100
AcDbEntity
  8
001
370
    50
100
AcDbVertex
100
AcDb2dVertex
 10
406.125477
 20
295.743802
 30
0.0
  0
VERTEX
  5
92F
330
91D
100
AcDbEntity
  8
001
370
    50
100
AcDbVertex
100
AcDb2dVertex
 10
406.030155
 20
295.655035
 30
0.0
  0
VERTEX
  5
930
330
91D
100
AcDbEntity
  8
001
370
    50
100
AcDbVertex
100
AcDb2dVertex
 10
405.943557
 20
295.564438
 30
0.0
  0
VERTEX
  5
931
330
91D
100
AcDbEntity
  8
001
370
    50
100
AcDbVertex
100
AcDb2dVertex
 10
405.862309
 20
295.468971
 30
0.0
  0
VERTEX
  5
932
330
91D
100
AcDbEntity
  8
001
370
    50
100
AcDbVertex
100
AcDb2dVertex
 10
405.748621
 20
295.313116
 30
0.0
  0
VERTEX
  5
933
330
91D
100
AcDbEntity
  8
001
370
    50
100
AcDbVertex
100
AcDb2dVertex
 10
405.65025
 20
295.147118
 30
0.0
  0
VERTEX
  5
934
330
91D
100
AcDbEntity
  8
001
370
    50
100
AcDbVertex
100
AcDb2dVertex
 10
405.570659
 20
294.975822
 30
0.0
  0
VERTEX
  5
935
330
91D
100
AcDbEntity
  8
001
370
    50
100
AcDbVertex
100
AcDb2dVertex
 10
405.509355
 20
294.797219
 30
0.0
  0
VERTEX
  5
936
330
91D
100
AcDbEntity
  8
001
370
    50
100
AcDbVertex
100
AcDb2dVertex
 10
405.471955
 20
294.635385
 30
0.0
  0
VERTEX
  5
937
330
91D
100
AcDbEntity
  8
001
370
    50
100
AcDbVertex
100
AcDb2dVertex
 10
405.451294
 20
294.47057
 30
0.0
  0
VERTEX
  5
938
330
91D
100
AcDbEntity
  8
001
370
    50
100
AcDbVertex
100
AcDb2dVertex
 10
405.448658
 20
294.301189
 30
0.0
  0
VERTEX
  5
939
330
91D
100
AcDbEntity
  8
001
370
    50
100
AcDbVertex
100
AcDb2dVertex
 10
405.465529
 20
294.132712
 30
0.0
  0
VERTEX
  5
93A
330
91D
100
AcDbEntity
  8
001
370
    50
100
AcDbVertex
100
AcDb2dVertex
 10
405.491565
 20
294.007854
 30
0.0
  0
VERTEX
  5
93B
330
91D
100
AcDbEntity
  8
001
370
    50
100
AcDbVertex
100
AcDb2dVertex
 10
405.529075
 20
293.885956
 30
0.0
  0
VERTEX
  5
93C
330
91D
100
AcDbEntity
  8
001
370
    50
100
AcDbVertex
100
AcDb2dVertex
 10
405.580328
 20
293.763061
 30
0.0
  0
VERTEX
  5
93D
330
91D
100
AcDbEntity
  8
001
370
    50
100
AcDbVertex
100
AcDb2dVertex
 10
405.643649
 20
293.645963
 30
0.0
  0
VERTEX
  5
93E
330
91D
100
AcDbEntity
  8
001
370
    50
100
AcDbVertex
100
AcDb2dVertex
 10
405.705267
 20
293.55386
 30
0.0
  0
VERTEX
  5
93F
330
91D
100
AcDbEntity
  8
001
370
    50
100
AcDbVertex
100
AcDb2dVertex
 10
405.774417
 20
293.467261
 30
0.0
  0
VERTEX
  5
940
330
91D
100
AcDbEntity
  8
001
370
    50
100
AcDbVertex
100
AcDb2dVertex
 10
405.854359
 20
293.382954
 30
0.0
  0
VERTEX
  5
941
330
91D
100
AcDbEntity
  8
001
370
    50
100
AcDbVertex
100
AcDb2dVertex
 10
405.941349
 20
293.305964
 30
0.0
  0
VERTEX
  5
942
330
91D
100
AcDbEntity
  8
001
370
    50
100
AcDbVertex
100
AcDb2dVertex
 10
406.04052
 20
293.233038
 30
0.0
  0
VERTEX
  5
943
330
91D
100
AcDbEntity
  8
001
370
    50
100
AcDbVertex
100
AcDb2dVertex
 10
406.145836
 20
293.169211
 30
0.0
  0
VERTEX
  5
944
330
91D
100
AcDbEntity
  8
001
370
    50
100
AcDbVertex
100
AcDb2dVertex
 10
406.261084
 20
293.112465
 30
0.0
  0
VERTEX
  5
945
330
91D
100
AcDbEntity
  8
001
370
    50
100
AcDbVertex
100
AcDb2dVertex
 10
406.380861
 20
293.066194
 30
0.0
  0
VERTEX
  5
946
330
91D
100
AcDbEntity
  8
001
370
    50
100
AcDbVertex
100
AcDb2dVertex
 10
406.489822
 20
293.034267
 30
0.0
  0
VERTEX
  5
947
330
91D
100
AcDbEntity
  8
001
370
    50
100
AcDbVertex
100
AcDb2dVertex
 10
406.600887
 20
293.010456
 30
0.0
  0
VERTEX
  5
948
330
91D
100
AcDbEntity
  8
001
370
    50
100
AcDbVertex
100
AcDb2dVertex
 10
406.715345
 20
292.994252
 30
0.0
  0
VERTEX
  5
949
330
91D
100
AcDbEntity
  8
001
370
    50
100
AcDbVertex
100
AcDb2dVertex
 10
406.8306
 20
292.986558
 30
0.0
  0
VERTEX
  5
94A
330
91D
100
AcDbEntity
  8
001
370
    50
100
AcDbVertex
100
AcDb2dVertex
 10
406.857313
 20
292.986012
 30
0.0
  0
VERTEX
  5
94B
330
91D
100
AcDbEntity
  8
001
370
    50
100
AcDbVertex
100
AcDb2dVertex
 10
406.88403
 20
292.98571
 30
0.0
  0
SEQEND
  5
91E
330
91D
100
AcDbEntity
  8
001
370
    50
  0
POLYLINE
  5
94C
330
1F
100
AcDbEntity
  8
001
370
    50
100
AcDb2dPolyline
 66
     1
 10
0.0
 20
0.0
 30
0.0
  0
VERTEX
  5
94E
330
94C
100
AcDbEntity
  8
001
370
    50
100
AcDbVertex
100
AcDb2dVertex
 10
402.043658
 20
280.803509
 30
0.0
  0
VERTEX
  5
94F
330
94C
100
AcDbEntity
  8
001
370
    50
100
AcDbVertex
100
AcDb2dVertex
 10
402.030411
 20
280.60572
 30
0.0
  0
VERTEX
  5
950
330
94C
100
AcDbEntity
  8
001
370
    50
100
AcDbVertex
100
AcDb2dVertex
 10
402.016793
 20
280.407957
 30
0.0
  0
VERTEX
  5
951
330
94C
100
AcDbEntity
  8
001
370
    50
100
AcDbVertex
100
AcDb2dVertex
 10
402.001595
 20
280.197592
 30
0.0
  0
VERTEX
  5
952
330
94C
100
AcDbEntity
  8
001
370
    50
100
AcDbVertex
100
AcDb2dVertex
 10
401.985786
 20
279.987272
 30
0.0
  0
VERTEX
  5
953
330
94C
100
AcDbEntity
  8
001
370
    50
100
AcDbVertex
100
AcDb2dVertex
 10
401.969958
 20
279.781723
 30
0.0
  0
VERTEX
  5
954
330
94C
100
AcDbEntity
  8
001
370
    50
100
AcDbVertex
100
AcDb2dVertex
 10
401.953948
 20
279.576188
 30
0.0
  0
SEQEND
  5
94D
330
94C
100
AcDbEntity
  8
001
370
    50
  0
LINE
  5
955
330
1F
100
AcDbEntity
  8
001
370
    50
100
AcDbLine
 10
420.245171
 20
282.576188
 30
0.0
 11
401.365106
 21
282.576188
 31
0.0
  0
LINE
  5
956
330
1F
100
AcDbEntity
  8
001
  6
DASHED
370
    30
100
AcDbLine
 10
402.043658
 20
288.219665
 30
0.0
 11
402.043658
 21
282.576188
 31
0.0
  0
LINE
  5
957
330
1F
100
AcDbEntity
  8
001
370
    50
100
AcDbLine
 10
402.043658
 20
282.576188
 30
0.0
 11
402.043658
 21
280.803509
 31
0.0
  0
LINE
  5
958
330
1F
100
AcDbEntity
  8
001
370
    50
100
AcDbLine
 10
432.715106
 20
272.076188
 30
0.0
 11
432.715106
 21
297.076188
 31
0.0
  0
LINE
  5
959
330
1F
100
AcDbEntity
  8
001
370
    50
100
AcDbLine
 10
432.715106
 20
296.576188
 30
0.0
 11
430.715106
 21
296.576188
 31
0.0
  0
LINE
  5
95A
330
1F
100
AcDbEntity
  8
001
370
    50
100
AcDbLine
 10
430.715106
 20
272.576188
 30
0.0
 11
432.715106
 21
272.576188
 31
0.0
  0
LINE
  5
95B
330
1F
100
AcDbEntity
  8
001
370
    50
100
AcDbLine
 10
400.9015
 20
275.104336
 30
0.0
 11
401.20391
 21
278.830393
 31
0.0
  0
CIRCLE
  5
95C
330
1F
100
AcDbEntity
  8
001
370
    50
100
AcDbCircle
 10
408.81449
 20
274.480764
 30
0.0
 40
3.0
  0
LINE
  5
95D
330
1F
100
AcDbEntity
  8
001
370
    50
100
AcDbLine
 10
416.313692
 20
273.854591
 30
0.0
 11
416.011282
 21
270.128534
 31
0.0
  0
LINE
  5
95E
330
1F
100
AcDbEntity
  8
001
370
    50
100
AcDbLine
 10
411.298663
 20
279.258966
 30
0.0
 11
401.600086
 21
279.198028
 31
0.0
  0
CIRCLE
  5
95F
330
1F
100
AcDbEntity
  8
001
370
    50
100
AcDbCircle
 10
408.819487
 20
274.494026
 30
0.0
 40
2.5
  0
LINE
  5
960
330
1F
100
AcDbEntity
  8
001
370
    50
100
AcDbLine
 10
409.399754
 20
275.492337
 30
0.0
 11
409.083818
 21
276.043261
 31
0.0
  0
LINE
  5
961
330
1F
100
AcDbEntity
  8
001
370
    50
100
AcDbLine
 10
408.245058
 20
275.495707
 30
0.0
 11
408.564205
 21
276.044777
 31
0.0
  0
ARC
  5
962
330
1F
100
AcDbEntity
  8
001
370
    50
100
AcDbCircle
 10
408.823573
 20
275.89402
 30
0.0
 40
0.3
100
AcDbArc
 50
29.832778
 51
149.832778
  0
LINE
  5
963
330
1F
100
AcDbEntity
  8
001
370
    50
100
AcDbLine
 10
408.245058
 20
275.495707
 30
0.0
 11
407.609975
 21
275.49756
 31
0.0
  0
LINE
  5
964
330
1F
100
AcDbEntity
  8
001
370
    50
100
AcDbLine
 10
407.664792
 20
274.497396
 30
0.0
 11
407.348856
 21
275.04832
 31
0.0
  0
ARC
  5
965
330
1F
100
AcDbEntity
  8
001
370
    50
100
AcDbCircle
 10
407.6091
 20
275.197561
 30
0.0
 40
0.3
100
AcDbArc
 50
89.832778
 51
209.832778
  0
LINE
  5
966
330
1F
100
AcDbEntity
  8
001
370
    50
100
AcDbLine
 10
407.664792
 20
274.497396
 30
0.0
 11
407.345645
 21
273.948325
 31
0.0
  0
LINE
  5
967
330
1F
100
AcDbEntity
  8
001
370
    50
100
AcDbLine
 10
408.239221
 20
273.495715
 30
0.0
 11
407.604138
 21
273.497569
 31
0.0
  0
ARC
  5
968
330
1F
100
AcDbEntity
  8
001
370
    50
100
AcDbCircle
 10
407.605014
 20
273.797567
 30
0.0
 40
0.3
100
AcDbArc
 50
149.832778
 51
269.832778
  0
LINE
  5
969
330
1F
100
AcDbEntity
  8
001
370
    50
100
AcDbLine
 10
408.239221
 20
273.495715
 30
0.0
 11
408.555157
 21
272.944791
 31
0.0
  0
LINE
  5
96A
330
1F
100
AcDbEntity
  8
001
370
    50
100
AcDbLine
 10
409.393917
 20
273.492345
 30
0.0
 11
409.07477
 21
272.943274
 31
0.0
  0
ARC
  5
96B
330
1F
100
AcDbEntity
  8
001
370
    50
100
AcDbCircle
 10
408.815401
 20
273.094032
 30
0.0
 40
0.3
100
AcDbArc
 50
209.832778
 51
329.832778
  0
LINE
  5
96C
330
1F
100
AcDbEntity
  8
001
370
    50
100
AcDbLine
 10
409.393917
 20
273.492345
 30
0.0
 11
410.028999
 21
273.490491
 31
0.0
  0
LINE
  5
96D
330
1F
100
AcDbEntity
  8
001
370
    50
100
AcDbLine
 10
409.974183
 20
274.490656
 30
0.0
 11
410.290119
 21
273.939731
 31
0.0
  0
ARC
  5
96E
330
1F
100
AcDbEntity
  8
001
370
    50
100
AcDbCircle
 10
410.029875
 20
273.79049
 30
0.0
 40
0.3
100
AcDbArc
 50
269.832778
 51
29.832778
  0
LINE
  5
96F
330
1F
100
AcDbEntity
  8
001
370
    50
100
AcDbLine
 10
409.974183
 20
274.490656
 30
0.0
 11
410.293329
 21
275.039727
 31
0.0
  0
LINE
  5
970
330
1F
100
AcDbEntity
  8
001
370
    50
100
AcDbLine
 10
409.399754
 20
275.492337
 30
0.0
 11
410.034836
 21
275.490483
 31
0.0
  0
ARC
  5
971
330
1F
100
AcDbEntity
  8
001
370
    50
100
AcDbCircle
 10
410.033961
 20
275.190484
 30
0.0
 40
0.3
100
AcDbArc
 50
329.832778
 51
89.832778
  0
LINE
  5
972
330
1F
100
AcDbEntity
  8
001
370
    50
100
AcDbLine
 10
405.916529
 20
269.699961
 30
0.0
 11
415.615106
 21
269.7609
 31
0.0
  0
ARC
  5
973
330
1F
100
AcDbEntity
  8
001
370
    50
100
AcDbCircle
 10
401.602599
 20
278.798036
 30
0.0
 40
0.4
100
AcDbArc
 50
90.36
 51
175.36
  0
ARC
  5
974
330
1F
100
AcDbEntity
  8
001
370
    50
100
AcDbCircle
 10
415.612593
 20
270.160892
 30
0.0
 40
0.4
100
AcDbArc
 50
270.36
 51
355.36
  0
LINE
  5
975
330
1F
100
AcDbEntity
  8
001
370
    50
100
AcDbLine
 10
401.365106
 20
293.408837
 30
0.0
 11
401.365106
 21
279.1199
 31
0.0
  0
LINE
  5
976
330
1F
100
AcDbEntity
  8
001
370
    50
100
AcDbLine
 10
401.924234
 20
279.200064
 30
0.0
 11
401.953948
 21
279.576188
 31
0.0
  0
LINE
  5
977
330
1F
100
AcDbEntity
  8
001
370
    50
100
AcDbLine
 10
405.916529
 20
299.452415
 30
0.0
 11
415.893103
 21
299.38973
 31
0.0
  0
ARC
  5
978
330
1F
100
AcDbEntity
  8
001
370
    50
100
AcDbCircle
 10
415.89059
 20
298.989738
 30
0.0
 40
0.4
100
AcDbArc
 50
4.64
 51
89.64
  0
LINE
  5
979
330
1F
100
AcDbEntity
  8
001
370
    50
100
AcDbLine
 10
416.289279
 20
299.022096
 30
0.0
 11
416.299763
 21
298.892922
 31
0.0
  0
POLYLINE
  5
97A
330
1F
100
AcDbEntity
  8
001
370
    50
100
AcDb2dPolyline
 66
     1
 10
0.0
 20
0.0
 30
0.0
  0
VERTEX
  5
97C
330
97A
100
AcDbEntity
  8
001
370
    50
100
AcDbVertex
100
AcDb2dVertex
 10
415.05631
 20
298.288191
 30
0.0
  0
VERTEX
  5
97D
330
97A
100
AcDbEntity
  8
001
370
    50
100
AcDbVertex
100
AcDb2dVertex
 10
413.586897
 20
298.319782
 30
0.0
  0
VERTEX
  5
97E
330
97A
100
AcDbEntity
  8
001
370
    50
100
AcDbVertex
100
AcDb2dVertex
 10
411.439151
 20
298.358183
 30
0.0
  0
VERTEX
  5
97F
330
97A
100
AcDbEntity
  8
001
370
    50
100
AcDbVertex
100
AcDb2dVertex
 10
408.952146
 20
298.390898
 30
0.0
  0
VERTEX
  5
980
330
97A
100
AcDbEntity
  8
001
370
    50
100
AcDbVertex
100
AcDb2dVertex
 10
407.64599
 20
298.401881
 30
0.0
  0
VERTEX
  5
981
330
97A
100
AcDbEntity
  8
001
370
    50
100
AcDbVertex
100
AcDb2dVertex
 10
406.386135
 20
298.408792
 30
0.0
  0
SEQEND
  5
97B
330
97A
100
AcDbEntity
  8
001
370
    50
  0
ARC
  5
982
330
1F
100
AcDbEntity
  8
001
370
    50
100
AcDbCircle
 10
406.365106
 20
293.408837
 30
0.0
 40
5.0
100
AcDbArc
 50
89.759019
 51
180.0
  0
LINE
  5
983
330
1F
100
AcDbEntity
  8
001
370
    50
100
AcDbLine
 10
400.9015
 20
294.04804
 30
0.0
 11
401.365106
 21
288.335852
 31
0.0
  0
LINE
  5
984
330
1F
100
AcDbEntity
  8
001
  6
DASHED
370
    30
100
AcDbLine
 10
402.043658
 20
288.219665
 30
0.0
 11
401.535359
 21
294.70249
 31
0.0
  0
LINE
  5
985
330
1F
100
AcDbEntity
  8
001
370
     9
100
AcDbLine
 10
390.333591
 20
269.699961
 30
0.0
 11
405.916529
 21
269.699961
 31
0.0
  0
ARC
  5
986
330
1F
100
AcDbEntity
  8
001
370
    50
100
AcDbCircle
 10
415.253499
 20
277.538841
 30
0.0
 40
3.0
100
AcDbArc
 50
292.205407
 51
144.79356
  0
POLYLINE
  5
987
330
1F
100
AcDbEntity
  8
001
370
    50
100
AcDb2dPolyline
 66
     1
 10
0.0
 20
0.0
 30
0.0
  0
VERTEX
  5
989
330
987
100
AcDbEntity
  8
001
370
    50
100
AcDbVertex
100
AcDb2dVertex
 10
416.021888
 20
270.259211
 30
0.0
  0
VERTEX
  5
98A
330
987
100
AcDbEntity
  8
001
370
    50
100
AcDbVertex
100
AcDb2dVertex
 10
416.16069
 20
270.257674
 30
0.0
  0
VERTEX
  5
98B
330
987
100
AcDbEntity
  8
001
370
    50
100
AcDbVertex
100
AcDb2dVertex
 10
416.299493
 20
270.256136
 30
0.0
  0
VERTEX
  5
98C
330
987
100
AcDbEntity
  8
001
370
    50
100
AcDbVertex
100
AcDb2dVertex
 10
416.405429
 20
270.254963
 30
0.0
  0
VERTEX
  5
98D
330
987
100
AcDbEntity
  8
001
370
    50
100
AcDbVertex
100
AcDb2dVertex
 10
416.511364
 20
270.253789
 30
0.0
  0
VERTEX
  5
98E
330
987
100
AcDbEntity
  8
001
370
    50
100
AcDbVertex
100
AcDb2dVertex
 10
416.58055
 20
270.253023
 30
0.0
  0
VERTEX
  5
98F
330
987
100
AcDbEntity
  8
001
370
    50
100
AcDbVertex
100
AcDb2dVertex
 10
416.649735
 20
270.252257
 30
0.0
  0
VERTEX
  5
990
330
987
100
AcDbEntity
  8
001
370
    50
100
AcDbVertex
100
AcDb2dVertex
 10
417.31248
 20
270.245312
 30
0.0
  0
VERTEX
  5
991
330
987
100
AcDbEntity
  8
001
370
    50
100
AcDbVertex
100
AcDb2dVertex
 10
418.103745
 20
270.238134
 30
0.0
  0
VERTEX
  5
992
330
987
100
AcDbEntity
  8
001
370
    50
100
AcDbVertex
100
AcDb2dVertex
 10
419.16821
 20
270.230732
 30
0.0
  0
VERTEX
  5
993
330
987
100
AcDbEntity
  8
001
370
    50
100
AcDbVertex
100
AcDb2dVertex
 10
419.896536
 20
270.226917
 30
0.0
  0
SEQEND
  5
988
330
987
100
AcDbEntity
  8
001
370
    50
  0
LINE
  5
994
330
1F
100
AcDbEntity
  8
001
370
    50
100
AcDbLine
 10
441.167239
 20
297.076188
 30
0.0
 11
432.715106
 21
297.076188
 31
0.0
  0
LINE
  5
995
330
1F
100
AcDbEntity
  8
001
  6
CENTER
370
     9
100
AcDbLine
 10
400.141491
 20
284.576188
 30
0.0
 11
445.11711
 21
284.576188
 31
0.0
  0
LINE
  5
996
330
1F
100
AcDbEntity
  8
001
370
    50
100
AcDbLine
 10
441.167239
 20
272.076188
 30
0.0
 11
432.715106
 21
272.076188
 31
0.0
  0
ARC
  5
997
330
1F
100
AcDbEntity
  8
001
370
    50
100
AcDbCircle
 10
405.885114
 20
294.452514
 30
0.0
 40
5.0
100
AcDbArc
 50
89.64
 51
184.64
  0
ARC
  5
998
330
1F
100
AcDbEntity
  8
001
370
    50
100
AcDbCircle
 10
411.330078
 20
274.259065
 30
0.0
 40
5.0
100
AcDbArc
 50
355.36
 51
90.36
  0
ARC
  5
999
330
1F
100
AcDbEntity
  8
001
370
    50
100
AcDbCircle
 10
405.885114
 20
274.699862
 30
0.0
 40
5.0
100
AcDbArc
 50
175.36
 51
270.36
  0
ENDSEC
  0
SECTION
  2
OBJECTS
  0
DICTIONARY
  5
C
330
0
100
AcDbDictionary
281
     1
  3
ACAD_GROUP
350
D
  3
ACAD_LAYOUT
350
1A
  3
ACAD_MLEADERSTYLE
350
99D
  3
ACAD_MLINESTYLE
350
17
  3
ACAD_PLOTSETTINGS
350
19
  3
ACAD_PLOTSTYLENAME
350
E
  3
ACAD_SCALELIST
350
3B
  3
ACAD_TABLESTYLE
350
99C
  3
ACAD_VISUALSTYLE
350
2A
  3
AcDbVariableDictionary
350
99A
  0
DICTIONARY
  5
D
102
{ACAD_REACTORS
330
C
102
}
330
C
100
AcDbDictionary
281
     1
  0
DICTIONARY
  5
1A
102
{ACAD_REACTORS
330
C
102
}
330
C
100
AcDbDictionary
281
     1
  3
Layout1
350
1E
  3
Layout2
350
26
  3
Model
350
22
  0
DICTIONARY
  5
99D
102
{ACAD_REACTORS
330
C
102
}
330
C
100
AcDbDictionary
281
     1
  0
DICTIONARY
  5
17
102
{ACAD_REACTORS
330
C
102
}
330
C
100
AcDbDictionary
281
     1
  3
Standard
350
18
  0
DICTIONARY
  5
19
102
{ACAD_REACTORS
330
C
102
}
330
C
100
AcDbDictionary
281
     1
  0
ACDBDICTIONARYWDFLT
  5
E
102
{ACAD_REACTORS
330
C
102
}
330
C
100
AcDbDictionary
281
     1
  3
Normal
350
F
100
AcDbDictionaryWithDefault
340
F
  0
DICTIONARY
  5
3B
102
{ACAD_REACTORS
330
C
102
}
330
C
100
AcDbDictionary
281
     1
  3
A0
350
3C
  3
A1
350
3D
  3
A2
350
3E
  3
A3
350
3F
  3
A4
350
40
  3
A5
350
41
  3
A6
350
42
  3
A7
350
43
  3
A8
350
44
  3
A9
350
45
  3
B0
350
46
  3
B1
350
47
  3
B2
350
48
  3
B3
350
49
  3
B4
350
4A
  3
B5
350
4B
  3
B6
350
4C
  3
B7
350
4D
  3
B8
350
4E
  3
B9
350
4F
  3
C0
350
50
  3
C1
350
51
  3
C2
350
52
  3
C3
350
53
  3
C4
350
54
  3
C5
350
55
  3
C6
350
56
  3
C7
350
57
  3
C8
350
58
  3
C9
350
59
  3
D0
350
5A
  3
D1
350
5B
  3
D2
350
5C
  0
DICTIONARY
  5
99C
102
{ACAD_REACTORS
330
C
102
}
330
C
100
AcDbDictionary
281
     1
  0
DICTIONARY
  5
2A
102
{ACAD_REACTORS
330
C
102
}
330
C
100
AcDbDictionary
281
     1
  3
2dWireframe
350
2F
  3
3D Hidden
350
31
  3
3dWireframe
350
30
  3
Basic
350
32
  3
Brighten
350
36
  3
ColorChange
350
3A
  3
Conceptual
350
34
  3
Dim
350
35
  3
Facepattern
350
39
  3
Flat
350
2B
  3
FlatWithEdges
350
2C
  3
Gouraud
350
2D
  3
GouraudWithEdges
350
2E
  3
Linepattern
350
38
  3
Realistic
350
33
  3
Thicken
350
37
  0
DICTIONARY
  5
99A
102
{ACAD_REACTORS
330
C
102
}
330
C
100
AcDbDictionary
281
     1
  3
CANNOSCALE
350
99B
  3
PSOLHEIGHT
350
99F
  3
PSOLWIDTH
350
99E
  0
LAYOUT
  5
1E
102
{ACAD_REACTORS
330
1A
102
}
330
1A
100
AcDbPlotSettings
  1

  2
none_device
  4

  6

 40
0.0
 41
0.0
 42
0.0
 43
0.0
 44
0.0
 45
0.0
 46
0.0
 47
0.0
 48
0.0
 49
0.0
140
0.0
141
0.0
142
1.0
143
1.0
 70
   688
 72
     0
 73
     0
 74
     5
  7

 75
    16
147
1.0
148
0.0
149
0.0
100
AcDbLayout
  1
Layout1
 70
     1
 71
     1
 10
0.0
 20
0.0
 11
12.0
 21
9.0
 12
0.0
 22
0.0
 32
0.0
 14
1.000000E+20
 24
1.000000E+20
 34
0.0
 15
-1.000000E+20
 25
-1.000000E+20
 35
0.0
146
0.0
 13
0.0
 23
0.0
 33
0.0
 16
1.0
 26
0.0
 36
0.0
 17
0.0
 27
1.0
 37
0.0
 76
     0
330
1B
  0
LAYOUT
  5
26
102
{ACAD_REACTORS
330
1A
102
}
330
1A
100
AcDbPlotSettings
  1

  2
none_device
  4

  6

 40
0.0
 41
0.0
 42
0.0
 43
0.0
 44
0.0
 45
0.0
 46
0.0
 47
0.0
 48
0.0
 49
0.0
140
0.0
141
0.0
142
1.0
143
1.0
 70
   688
 72
     0
 73
     0
 74
     5
  7

 75
    16
147
1.0
148
0.0
149
0.0
100
AcDbLayout
  1
Layout2
 70
     1
 71
     2
 10
0.0
 20
0.0
 11
0.0
 21
0.0
 12
0.0
 22
0.0
 32
0.0
 14
0.0
 24
0.0
 34
0.0
 15
0.0
 25
0.0
 35
0.0
146
0.0
 13
0.0
 23
0.0
 33
0.0
 16
1.0
 26
0.0
 36
0.0
 17
0.0
 27
1.0
 37
0.0
 76
     0
330
23
  0
LAYOUT
  5
22
102
{ACAD_REACTORS
330
1A
102
}
330
1A
100
AcDbPlotSettings
  1

  2
none_device
  4

  6

 40
0.0
 41
0.0
 42
0.0
 43
0.0
 44
0.0
 45
0.0
 46
0.0
 47
0.0
 48
0.0
 49
0.0
140
0.0
141
0.0
142
1.0
143
1.0
 70
  1712
 72
     0
 73
     0
 74
     0
  7

 75
     0
147
1.0
148
0.0
149
0.0
100
AcDbLayout
  1
Model
 70
     1
 71
     0
 10
0.0
 20
0.0
 11
12.0
 21
9.0
 12
0.0
 22
0.0
 32
0.0
 14
50.049225
 24
57.473083
 34
0.0
 15
445.117096
 25
361.54892
 35
0.0
146
0.0
 13
0.0
 23
0.0
 33
0.0
 16
1.0
 26
0.0
 36
0.0
 17
0.0
 27
1.0
 37
0.0
 76
     0
330
1F
331
29
  0
MLINESTYLE
  5
18
102
{ACAD_REACTORS
330
17
102
}
330
17
100
AcDbMlineStyle
  2
Standard
 70
     0
  3

 62
   256
 51
90.0
 52
90.0
 71
     2
 49
0.5
 62
   256
  6
BYLAYER
 49
-0.5
 62
   256
  6
BYLAYER
  0
ACDBPLACEHOLDER
  5
F
102
{ACAD_REACTORS
330
E
102
}
330
E
  0
SCALE
  5
3C
102
{ACAD_REACTORS
330
3B
102
}
330
3B
100
AcDbScale
 70
     0
300
1:1
140
1.0
141
1.0
290
     1
  0
SCALE
  5
3D
102
{ACAD_REACTORS
330
3B
102
}
330
3B
100
AcDbScale
 70
     0
300
1:2
140
1.0
141
2.0
290
     0
  0
SCALE
  5
3E
102
{ACAD_REACTORS
330
3B
102
}
330
3B
100
AcDbScale
 70
     0
300
1:4
140
1.0
141
4.0
290
     0
  0
SCALE
  5
3F
102
{ACAD_REACTORS
330
3B
102
}
330
3B
100
AcDbScale
 70
     0
300
1:5
140
1.0
141
5.0
290
     0
  0
SCALE
  5
40
102
{ACAD_REACTORS
330
3B
102
}
330
3B
100
AcDbScale
 70
     0
300
1:8
140
1.0
141
8.0
290
     0
  0
SCALE
  5
41
102
{ACAD_REACTORS
330
3B
102
}
330
3B
100
AcDbScale
 70
     0
300
1:10
140
1.0
141
10.0
290
     0
  0
SCALE
  5
42
102
{ACAD_REACTORS
330
3B
102
}
330
3B
100
AcDbScale
 70
     0
300
1:16
140
1.0
141
16.0
290
     0
  0
SCALE
  5
43
102
{ACAD_REACTORS
330
3B
102
}
330
3B
100
AcDbScale
 70
     0
300
1:20
140
1.0
141
20.0
290
     0
  0
SCALE
  5
44
102
{ACAD_REACTORS
330
3B
102
}
330
3B
100
AcDbScale
 70
     0
300
1:30
140
1.0
141
30.0
290
     0
  0
SCALE
  5
45
102
{ACAD_REACTORS
330
3B
102
}
330
3B
100
AcDbScale
 70
     0
300
1:40
140
1.0
141
40.0
290
     0
  0
SCALE
  5
46
102
{ACAD_REACTORS
330
3B
102
}
330
3B
100
AcDbScale
 70
     0
300
1:50
140
1.0
141
50.0
290
     0
  0
SCALE
  5
47
102
{ACAD_REACTORS
330
3B
102
}
330
3B
100
AcDbScale
 70
     0
300
1:100
140
1.0
141
100.0
290
     0
  0
SCALE
  5
48
102
{ACAD_REACTORS
330
3B
102
}
330
3B
100
AcDbScale
 70
     0
300
2:1
140
2.0
141
1.0
290
     0
  0
SCALE
  5
49
102
{ACAD_REACTORS
330
3B
102
}
330
3B
100
AcDbScale
 70
     0
300
4:1
140
4.0
141
1.0
290
     0
  0
SCALE
  5
4A
102
{ACAD_REACTORS
330
3B
102
}
330
3B
100
AcDbScale
 70
     0
300
8:1
140
8.0
141
1.0
290
     0
  0
SCALE
  5
4B
102
{ACAD_REACTORS
330
3B
102
}
330
3B
100
AcDbScale
 70
     0
300
10:1
140
10.0
141
1.0
290
     0
  0
SCALE
  5
4C
102
{ACAD_REACTORS
330
3B
102
}
330
3B
100
AcDbScale
 70
     0
300
100:1
140
100.0
141
1.0
290
     0
  0
SCALE
  5
4D
102
{ACAD_REACTORS
330
3B
102
}
330
3B
100
AcDbScale
 70
     0
300
1/128" = 1'-0"
140
0.007812
141
12.0
290
     0
  0
SCALE
  5
4E
102
{ACAD_REACTORS
330
3B
102
}
330
3B
100
AcDbScale
 70
     0
300
1/64" = 1'-0"
140
0.015625
141
12.0
290
     0
  0
SCALE
  5
4F
102
{ACAD_REACTORS
330
3B
102
}
330
3B
100
AcDbScale
 70
     0
300
1/32" = 1'-0"
140
0.03125
141
12.0
290
     0
  0
SCALE
  5
50
102
{ACAD_REACTORS
330
3B
102
}
330
3B
100
AcDbScale
 70
     0
300
1/16" = 1'-0"
140
0.0625
141
12.0
290
     0
  0
SCALE
  5
51
102
{ACAD_REACTORS
330
3B
102
}
330
3B
100
AcDbScale
 70
     0
300
3/32" = 1'-0"
140
0.09375
141
12.0
290
     0
  0
SCALE
  5
52
102
{ACAD_REACTORS
330
3B
102
}
330
3B
100
AcDbScale
 70
     0
300
1/8" = 1'-0"
140
0.125
141
12.0
290
     0
  0
SCALE
  5
53
102
{ACAD_REACTORS
330
3B
102
}
330
3B
100
AcDbScale
 70
     0
300
3/16" = 1'-0"
140
0.1875
141
12.0
290
     0
  0
SCALE
  5
54
102
{ACAD_REACTORS
330
3B
102
}
330
3B
100
AcDbScale
 70
     0
300
1/4" = 1'-0"
140
0.25
141
12.0
290
     0
  0
SCALE
  5
55
102
{ACAD_REACTORS
330
3B
102
}
330
3B
100
AcDbScale
 70
     0
300
3/8" = 1'-0"
140
0.375
141
12.0
290
     0
  0
SCALE
  5
56
102
{ACAD_REACTORS
330
3B
102
}
330
3B
100
AcDbScale
 70
     0
300
1/2" = 1'-0"
140
0.5
141
12.0
290
     0
  0
SCALE
  5
57
102
{ACAD_REACTORS
330
3B
102
}
330
3B
100
AcDbScale
 70
     0
300
3/4" = 1'-0"
140
0.75
141
12.0
290
     0
  0
SCALE
  5
58
102
{ACAD_REACTORS
330
3B
102
}
330
3B
100
AcDbScale
 70
     0
300
1" = 1'-0"
140
1.0
141
12.0
290
     0
  0
SCALE
  5
59
102
{ACAD_REACTORS
330
3B
102
}
330
3B
100
AcDbScale
 70
     0
300
1-1/2" = 1'-0"
140
1.5
141
12.0
290
     0
  0
SCALE
  5
5A
102
{ACAD_REACTORS
330
3B
102
}
330
3B
100
AcDbScale
 70
     0
300
3" = 1'-0"
140
3.0
141
12.0
290
     0
  0
SCALE
  5
5B
102
{ACAD_REACTORS
330
3B
102
}
330
3B
100
AcDbScale
 70
     0
300
6" = 1'-0"
140
6.0
141
12.0
290
     0
  0
SCALE
  5
5C
102
{ACAD_REACTORS
330
3B
102
}
330
3B
100
AcDbScale
 70
     0
300
1'-0" = 1'-0"
140
12.0
141
12.0
290
     0
  0
VISUALSTYLE
  5
2F
102
{ACAD_REACTORS
330
2A
102
}
330
2A
100
AcDbVisualStyle
  2
2dWireframe
 70
     4
 71
     0
 72
     2
 73
     0
 90
        0
 40
-0.6
 41
-30.0
 62
     5
 63
     7
 74
     1
 91
        4
 64
     7
 65
   257
 75
     1
175
     1
 42
1.0
 92
        0
 66
   257
 43
1.0
 76
     1
 77
     6
 78
     2
 67
     7
 79
     5
170
     0
171
     0
290
     0
174
     0
 93
        1
 44
0.0
173
     0
291
     0
 45
0.0
1001
ACAD
1000
AcDbSavedByObjectVersion
1070
     0
  0
VISUALSTYLE
  5
31
102
{ACAD_REACTORS
330
2A
102
}
330
2A
100
AcDbVisualStyle
  2
3D Hidden
 70
     6
 71
     1
 72
     2
 73
     2
 90
        0
 40
-0.6
 41
-30.0
 62
     5
 63
     7
 74
     2
 91
        2
 64
     7
 65
   257
 75
     2
175
     1
 42
40.0
 92
        0
 66
   257
 43
1.0
 76
     1
 77
     6
 78
     2
 67
     7
 79
     3
170
     0
171
     0
290
     0
174
     0
 93
        1
 44
0.0
173
     0
291
     0
 45
0.0
1001
ACAD
1000
AcDbSavedByObjectVersion
1070
     0
  0
VISUALSTYLE
  5
30
102
{ACAD_REACTORS
330
2A
102
}
330
2A
100
AcDbVisualStyle
  2
3dWireframe
 70
     5
 71
     0
 72
     2
 73
     0
 90
        0
 40
-0.6
 41
-30.0
 62
     5
 63
     7
 74
     1
 91
        4
 64
     7
 65
   257
 75
     1
175
     1
 42
1.0
 92
        0
 66
   257
 43
1.0
 76
     1
 77
     6
 78
     2
 67
     7
 79
     5
170
     0
171
     0
290
     0
174
     0
 93
        1
 44
0.0
173
     0
291
     0
 45
0.0
1001
ACAD
1000
AcDbSavedByObjectVersion
1070
     0
  0
VISUALSTYLE
  5
32
102
{ACAD_REACTORS
330
2A
102
}
330
2A
100
AcDbVisualStyle
  2
Basic
 70
     7
 71
     1
 72
     0
 73
     1
 90
        0
 40
-0.6
 41
-30.0
 62
     5
 63
     7
 74
     0
 91
        4
 64
     7
 65
   257
 75
     1
175
     1
 42
1.0
 92
        8
 66
     7
 43
1.0
 76
     1
 77
     6
 78
     2
 67
     7
 79
     5
170
     0
171
     0
290
     0
174
     0
 93
        1
 44
0.0
173
     0
291
     1
 45
0.0
1001
ACAD
1000
AcDbSavedByObjectVersion
1070
     0
  0
VISUALSTYLE
  5
36
102
{ACAD_REACTORS
330
2A
102
}
330
2A
100
AcDbVisualStyle
  2
Brighten
 70
    12
 71
     2
 72
     2
 73
     0
 90
        0
 40
-0.6
 41
-30.0
 62
     5
 63
     7
 74
     1
 91
        4
 64
     7
 65
   257
 75
     1
175
     1
 42
1.0
 92
        8
 66
     7
 43
1.0
 76
     1
 77
     6
 78
     2
 67
     7
 79
     5
170
     0
171
     0
290
     0
174
     0
 93
        1
 44
50.0
173
     0
291
     1
 45
0.0
1001
ACAD
1000
AcDbSavedByObjectVersion
1070
     0
  0
VISUALSTYLE
  5
3A
102
{ACAD_REACTORS
330
2A
102
}
330
2A
100
AcDbVisualStyle
  2
ColorChange
 70
    16
 71
     2
 72
     2
 73
     3
 90
        0
 40
-0.6
 41
-30.0
 62
     5
 63
     8
 74
     1
 91
        4
 64
     7
 65
   257
 75
     1
175
     1
 42
1.0
 92
        8
 66
     8
 43
1.0
 76
     1
 77
     6
 78
     2
 67
     7
 79
     5
170
     0
171
     0
290
     0
174
     0
 93
        1
 44
0.0
173
     0
291
     1
 45
0.0
1001
ACAD
1000
AcDbSavedByObjectVersion
1070
     0
  0
VISUALSTYLE
  5
34
102
{ACAD_REACTORS
330
2A
102
}
330
2A
100
AcDbVisualStyle
  2
Conceptual
 70
     9
 71
     3
 72
     2
 73
     0
 90
        0
 40
-0.6
 41
-30.0
 62
     5
 63
     7
 74
     2
 91
        2
 64
     7
 65
   257
 75
     1
175
     1
 42
40.0
 92
        8
 66
     7
 43
1.0
 76
     1
 77
     6
 78
     2
 67
     7
 79
     3
170
     0
171
     0
290
     0
174
     0
 93
        1
 44
0.0
173
     0
291
     0
 45
0.0
1001
ACAD
1000
AcDbSavedByObjectVersion
1070
     0
  0
VISUALSTYLE
  5
35
102
{ACAD_REACTORS
330
2A
102
}
330
2A
100
AcDbVisualStyle
  2
Dim
 70
    11
 71
     2
 72
     2
 73
     0
 90
        0
 40
-0.6
 41
-30.0
 62
     5
 63
     7
 74
     1
 91
        4
 64
     7
 65
   257
 75
     1
175
     1
 42
1.0
 92
        8
 66
     7
 43
1.0
 76
     1
 77
     6
 78
     2
 67
     7
 79
     5
170
     0
171
     0
290
     0
174
     0
 93
        1
 44
-50.0
173
     0
291
     1
 45
0.0
1001
ACAD
1000
AcDbSavedByObjectVersion
1070
     0
  0
VISUALSTYLE
  5
39
102
{ACAD_REACTORS
330
2A
102
}
330
2A
100
AcDbVisualStyle
  2
Facepattern
 70
    15
 71
     2
 72
     2
 73
     0
 90
        0
 40
-0.6
 41
-30.0
 62
     5
 63
     7
 74
     1
 91
        4
 64
     7
 65
   257
 75
     1
175
     1
 42
1.0
 92
        8
 66
     7
 43
1.0
 76
     1
 77
     6
 78
     2
 67
     7
 79
     5
170
     0
171
     0
290
     0
174
     0
 93
        1
 44
0.0
173
     0
291
     1
 45
0.0
1001
ACAD
1000
AcDbSavedByObjectVersion
1070
     0
  0
VISUALSTYLE
  5
2B
102
{ACAD_REACTORS
330
2A
102
}
330
2A
100
AcDbVisualStyle
  2
Flat
 70
     0
 71
     2
 72
     1
 73
     1
 90
        2
 40
-0.6
 41
30.0
 62
     5
 63
     7
 74
     0
 91
        4
 64
     7
 65
   257
 75
     1
175
     1
 42
1.0
 92
        8
 66
     7
 43
1.0
 76
     1
 77
     6
 78
     2
 67
     7
 79
     5
170
     0
171
     0
290
     0
174
     0
 93
       13
 44
0.0
173
     0
291
     1
 45
0.0
1001
ACAD
1000
AcDbSavedByObjectVersion
1070
     0
  0
VISUALSTYLE
  5
2C
102
{ACAD_REACTORS
330
2A
102
}
330
2A
100
AcDbVisualStyle
  2
FlatWithEdges
 70
     1
 71
     2
 72
     1
 73
     1
 90
        2
 40
-0.6
 41
30.0
 62
     5
 63
     7
 74
     1
 91
        4
 64
     7
 65
   257
 75
     1
175
     1
 42
1.0
 92
        0
 66
   257
 43
1.0
 76
     1
 77
     6
 78
     2
 67
     7
 79
     5
170
     0
171
     0
290
     0
174
     0
 93
       13
 44
0.0
173
     0
291
     1
 45
0.0
1001
ACAD
1000
AcDbSavedByObjectVersion
1070
     0
  0
VISUALSTYLE
  5
2D
102
{ACAD_REACTORS
330
2A
102
}
330
2A
100
AcDbVisualStyle
  2
Gouraud
 70
     2
 71
     2
 72
     2
 73
     1
 90
        2
 40
-0.6
 41
30.0
 62
     5
 63
     7
 74
     0
 91
        4
 64
     7
 65
   257
 75
     1
175
     1
 42
1.0
 92
        0
 66
     7
 43
1.0
 76
     1
 77
     6
 78
     2
 67
     7
 79
     5
170
     0
171
     0
290
     0
174
     0
 93
       13
 44
0.0
173
     0
291
     1
 45
0.0
1001
ACAD
1000
AcDbSavedByObjectVersion
1070
     0
  0
VISUALSTYLE
  5
2E
102
{ACAD_REACTORS
330
2A
102
}
330
2A
100
AcDbVisualStyle
  2
GouraudWithEdges
 70
     3
 71
     2
 72
     2
 73
     1
 90
        2
 40
-0.6
 41
30.0
 62
     5
 63
     7
 74
     1
 91
        4
 64
     7
 65
   257
 75
     1
175
     1
 42
1.0
 92
        0
 66
   257
 43
1.0
 76
     1
 77
     6
 78
     2
 67
     7
 79
     5
170
     0
171
     0
290
     0
174
     0
 93
       13
 44
0.0
173
     0
291
     1
 45
0.0
1001
ACAD
1000
AcDbSavedByObjectVersion
1070
     0
  0
VISUALSTYLE
  5
38
102
{ACAD_REACTORS
330
2A
102
}
330
2A
100
AcDbVisualStyle
  2
Linepattern
 70
    14
 71
     2
 72
     2
 73
     0
 90
        0
 40
-0.6
 41
-30.0
 62
     5
 63
     7
 74
     1
 91
        4
 64
     7
 65
   257
 75
     7
175
     7
 42
1.0
 92
        8
 66
     7
 43
1.0
 76
     1
 77
     6
 78
     2
 67
     7
 79
     5
170
     0
171
     0
290
     0
174
     0
 93
        1
 44
0.0
173
     0
291
     1
 45
0.0
1001
ACAD
1000
AcDbSavedByObjectVersion
1070
     0
  0
VISUALSTYLE
  5
33
102
{ACAD_REACTORS
330
2A
102
}
330
2A
100
AcDbVisualStyle
  2
Realistic
 70
     8
 71
     2
 72
     2
 73
     0
 90
        0
 40
-0.6
 41
-30.0
 62
     5
 63
     7
 74
     1
 91
        0
 64
     7
 65
   257
 75
     1
175
     1
 42
1.0
 92
        8
 66
     8
 43
1.0
 76
     1
 77
     6
 78
     2
 67
     7
 79
     5
170
     0
171
     0
290
     0
174
     0
 93
       13
 44
0.0
173
     0
291
     0
 45
0.0
1001
ACAD
1000
AcDbSavedByObjectVersion
1070
     0
  0
VISUALSTYLE
  5
37
102
{ACAD_REACTORS
330
2A
102
}
330
2A
100
AcDbVisualStyle
  2
Thicken
 70
    13
 71
     2
 72
     2
 73
     0
 90
        0
 40
-0.6
 41
-30.0
 62
     5
 63
     7
 74
     1
 91
        4
 64
     7
 65
   257
 75
     1
175
     1
 42
1.0
 92
       12
 66
     7
 43
1.0
 76
     1
 77
     6
 78
     2
 67
     7
 79
     5
170
     0
171
     0
290
     0
174
     0
 93
        1
 44
0.0
173
     0
291
     1
 45
0.0
1001
ACAD
1000
AcDbSavedByObjectVersion
1070
     0
  0
DICTIONARYVAR
  5
99B
102
{ACAD_REACTORS
330
99A
102
}
330
99A
100
DictionaryVariables
280
     0
  1
1:1
  0
DICTIONARYVAR
  5
99F
102
{ACAD_REACTORS
330
99A
102
}
330
99A
100
DictionaryVariables
280
     0
  1
80.000000
  0
DICTIONARYVAR
  5
99E
102
{ACAD_REACTORS
330
99A
102
}
330
99A
100
DictionaryVariables
280
     0
  1
5.000000
  0
ENDSEC
  0
EOF
