  0
SECTION
  2
HEADER
  9
$ACADVER
  1
AC1015
  9
$ACADMAINTVER
 70
     6
  9
$DWGCODEPAGE
  3
ANSI_932
  9
$INSBASE
 10
0.0
 20
0.0
 30
0.0
  9
$EXTMIN
 10
50.049194
 20
59.202911
 30
0.0
  9
$EXTMAX
 10
492.256653
 20
415.62793
 30
0.0
  9
$LIMMIN
 10
0.0
 20
0.0
  9
$LIMMAX
 10
12.0
 20
9.0
  9
$ORTHOMODE
 70
     0
  9
$REGENMODE
 70
     1
  9
$FILLMODE
 70
     1
  9
$QTEXTMODE
 70
     0
  9
$MIRRTEXT
 70
     1
  9
$LTSCALE
 40
5.679668
  9
$ATTMODE
 70
     1
  9
$TEXTSIZE
 40
3.2
  9
$TRACEWID
 40
1.0
  9
$TEXTSTYLE
  7
Standard
  9
$CLAYER
  8
0
  9
$CELTYPE
  6
ByLayer
  9
$CECOLOR
 62
   256
  9
$CELTSCALE
 40
1.0
  9
$DISPSILH
 70
     0
  9
$DIMSCALE
 40
1.0
  9
$DIMASZ
 40
2.5
  9
$DIMEXO
 40
0.625
  9
$DIMDLI
 40
3.75
  9
$DIMRND
 40
0.0
  9
$DIMDLE
 40
0.0
  9
$DIMEXE
 40
1.25
  9
$DIMTP
 40
0.0
  9
$DIMTM
 40
0.0
  9
$DIMTXT
 40
2.5
  9
$DIMCEN
 40
0.09
  9
$DIMTSZ
 40
0.0
  9
$DIMTOL
 70
     0
  9
$DIMLIM
 70
     0
  9
$DIMTIH
 70
     0
  9
$DIMTOH
 70
     0
  9
$DIMSE1
 70
     0
  9
$DIMSE2
 70
     0
  9
$DIMTAD
 70
     0
  9
$DIMZIN
 70
     8
  9
$DIMBLK
  1

  9
$DIMASO
 70
     1
  9
$DIMSHO
 70
     0
  9
$DIMPOST
  1

  9
$DIMAPOST
  1

  9
$DIMALT
 70
     0
  9
$DIMALTD
 70
     3
  9
$DIMALTF
 40
0.03937
  9
$DIMLFAC
 40
1.0
  9
$DIMTOFL
 70
     1
  9
$DIMTVP
 40
0.0
  9
$DIMTIX
 70
     0
  9
$DIMSOXD
 70
     0
  9
$DIMSAH
 70
     0
  9
$DIMBLK1
  1

  9
$DIMBLK2
  1

  9
$DIMSTYLE
  2
ISO-25
  9
$DIMCLRD
 70
     0
  9
$DIMCLRE
 70
     0
  9
$DIMCLRT
 70
     0
  9
$DIMTFAC
 40
1.0
  9
$DIMGAP
 40
0.625
  9
$DIMJUST
 70
     0
  9
$DIMSD1
 70
     0
  9
$DIMSD2
 70
     0
  9
$DIMTOLJ
 70
     0
  9
$DIMTZIN
 70
     8
  9
$DIMALTZ
 70
     0
  9
$DIMALTTZ
 70
     0
  9
$DIMUPT
 70
     0
  9
$DIMDEC
 70
     2
  9
$DIMTDEC
 70
     2
  9
$DIMALTU
 70
     2
  9
$DIMALTTD
 70
     3
  9
$DIMTXSTY
  7
Standard
  9
$DIMAUNIT
 70
     0
  9
$DIMADEC
 70
     0
  9
$DIMALTRND
 40
0.0
  9
$DIMAZIN
 70
     0
  9
$DIMDSEP
 70
    44
  9
$DIMATFIT
 70
     3
  9
$DIMFRAC
 70
     0
  9
$DIMLDRBLK
  1

  9
$DIMLUNIT
 70
     2
  9
$DIMLWD
 70
    -2
  9
$DIMLWE
 70
    -2
  9
$DIMTMOVE
 70
     0
  9
$LUNITS
 70
     2
  9
$LUPREC
 70
     4
  9
$SKETCHINC
 40
1.0
  9
$FILLETRAD
 40
0.0
  9
$AUNITS
 70
     0
  9
$AUPREC
 70
     0
  9
$MENU
  1
.
  9
$ELEVATION
 40
0.0
  9
$PELEVATION
 40
0.0
  9
$THICKNESS
 40
0.0
  9
$LIMCHECK
 70
     0
  9
$CHAMFERA
 40
10.0
  9
$CHAMFERB
 40
10.0
  9
$CHAMFERC
 40
20.0
  9
$CHAMFERD
 40
0.0
  9
$SKPOLY
 70
     0
  9
$TDCREATE
 40
2454847.678787431
  9
$TDUCREATE
 40
2454847.303787431
  9
$TDUPDATE
 40
2454847.678787442
  9
$TDUUPDATE
 40
2454847.303787442
  9
$TDINDWG
 40
0.0000000116
  9
$TDUSRTIMER
 40
0.0000000116
  9
$USRTIMER
 70
     1
  9
$ANGBASE
 50
0.0
  9
$ANGDIR
 70
     0
  9
$PDMODE
 70
     0
  9
$PDSIZE
 40
0.0
  9
$PLINEWID
 40
0.0
  9
$SPLFRAME
 70
     0
  9
$SPLINETYPE
 70
     6
  9
$SPLINESEGS
 70
     8
  9
$HANDSEED
  5
88A
  9
$SURFTAB1
 70
     6
  9
$SURFTAB2
 70
     6
  9
$SURFTYPE
 70
     6
  9
$SURFU
 70
     6
  9
$SURFV
 70
     6
  9
$UCSBASE
  2

  9
$UCSNAME
  2

  9
$UCSORG
 10
0.0
 20
0.0
 30
0.0
  9
$UCSXDIR
 10
1.0
 20
0.0
 30
0.0
  9
$UCSYDIR
 10
0.0
 20
1.0
 30
0.0
  9
$UCSORTHOREF
  2

  9
$UCSORTHOVIEW
 70
     0
  9
$UCSORGTOP
 10
0.0
 20
0.0
 30
0.0
  9
$UCSORGBOTTOM
 10
0.0
 20
0.0
 30
0.0
  9
$UCSORGLEFT
 10
0.0
 20
0.0
 30
0.0
  9
$UCSORGRIGHT
 10
0.0
 20
0.0
 30
0.0
  9
$UCSORGFRONT
 10
0.0
 20
0.0
 30
0.0
  9
$UCSORGBACK
 10
0.0
 20
0.0
 30
0.0
  9
$PUCSBASE
  2

  9
$PUCSNAME
  2

  9
$PUCSORG
 10
0.0
 20
0.0
 30
0.0
  9
$PUCSXDIR
 10
1.0
 20
0.0
 30
0.0
  9
$PUCSYDIR
 10
0.0
 20
1.0
 30
0.0
  9
$PUCSORTHOREF
  2

  9
$PUCSORTHOVIEW
 70
     0
  9
$PUCSORGTOP
 10
0.0
 20
0.0
 30
0.0
  9
$PUCSORGBOTTOM
 10
0.0
 20
0.0
 30
0.0
  9
$PUCSORGLEFT
 10
0.0
 20
0.0
 30
0.0
  9
$PUCSORGRIGHT
 10
0.0
 20
0.0
 30
0.0
  9
$PUCSORGFRONT
 10
0.0
 20
0.0
 30
0.0
  9
$PUCSORGBACK
 10
0.0
 20
0.0
 30
0.0
  9
$USERI1
 70
     0
  9
$USERI2
 70
     0
  9
$USERI3
 70
     0
  9
$USERI4
 70
     0
  9
$USERI5
 70
     0
  9
$USERR1
 40
0.0
  9
$USERR2
 40
0.0
  9
$USERR3
 40
0.0
  9
$USERR4
 40
0.0
  9
$USERR5
 40
0.0
  9
$WORLDVIEW
 70
     1
  9
$SHADEDGE
 70
     3
  9
$SHADEDIF
 70
    70
  9
$TILEMODE
 70
     1
  9
$MAXACTVP
 70
    64
  9
$PINSBASE
 10
0.0
 20
0.0
 30
0.0
  9
$PLIMCHECK
 70
     0
  9
$PEXTMIN
 10
1.000000E+20
 20
1.000000E+20
 30
0.0
  9
$PEXTMAX
 10
-1.000000E+20
 20
-1.000000E+20
 30
0.0
  9
$PLIMMIN
 10
0.0
 20
0.0
  9
$PLIMMAX
 10
12.0
 20
9.0
  9
$UNITMODE
 70
     0
  9
$VISRETAIN
 70
     1
  9
$PLINEGEN
 70
     0
  9
$PSLTSCALE
 70
     1
  9
$TREEDEPTH
 70
  3020
  9
$CMLSTYLE
  2
Standard
  9
$CMLJUST
 70
     0
  9
$CMLSCALE
 40
20.0
  9
$PROXYGRAPHICS
 70
     1
  9
$MEASUREMENT
 70
     1
  9
$CELWEIGHT
370
    -1
  9
$ENDCAPS
280
     0
  9
$JOINSTYLE
280
     0
  9
$LWDISPLAY
290
     0
  9
$INSUNITS
 70
     4
  9
$HYPERLINKBASE
  1

  9
$STYLESHEET
  1

  9
$XEDIT
290
     1
  9
$CEPSNTYPE
380
     0
  9
$PSTYLEMODE
290
     1
  9
$FINGERPRINTGUID
  2
{C2E8BBE5-F2E8-4BDC-AFE8-0DE8D67C4BE8}
  9
$VERSIONGUID
  2
{FAEB1C32-E019-11D5-929B-00C0DF256EC4}
  9
$EXTNAMES
290
     1
  9
$PSVPSCALE
 40
0.0
  9
$OLESTARTUP
290
     0
  0
ENDSEC
  0
SECTION
  2
CLASSES
  0
CLASS
  1
ACDBDICTIONARYWDFLT
  2
AcDbDictionaryWithDefault
  3
ObjectDBX Classes
 90
        0
280
     0
281
     0
  0
CLASS
  1
VISUALSTYLE
  2
AcDbVisualStyle
  3
ObjectDBX Classes
 90
     4095
280
     0
281
     0
  0
CLASS
  1
SCALE
  2
AcDbScale
  3
ObjectDBX Classes
 90
     1153
280
     0
281
     0
  0
CLASS
  1
DICTIONARYVAR
  2
AcDbDictionaryVar
  3
ObjectDBX Classes
 90
        0
280
     0
281
     0
  0
CLASS
  1
ACDBPLACEHOLDER
  2
AcDbPlaceHolder
  3
ObjectDBX Classes
 90
        0
280
     0
281
     0
  0
CLASS
  1
LAYOUT
  2
AcDbLayout
  3
ObjectDBX Classes
 90
        0
280
     0
281
     0
  0
ENDSEC
  0
SECTION
  2
TABLES
  0
TABLE
  2
VPORT
  5
8
330
0
100
AcDbSymbolTable
 70
     1
  0
VPORT
  5
29
330
8
100
AcDbSymbolTableRecord
100
AcDbViewportTableRecord
  2
*Active
 70
     0
 10
0.0
 20
0.0
 11
1.0
 21
1.0
 12
271.152924
 22
237.415421
 13
0.0
 23
0.0
 14
1.0
 24
1.0
 15
0.0
 25
0.0
 16
0.0
 26
0.0
 36
1.0
 17
0.0
 27
0.0
 37
0.0
 40
359.989268
 41
1.691288
 42
50.0
 43
0.0
 44
0.0
 50
0.0
 51
0.0
 71
     0
 72
   100
 73
     1
 74
     3
 75
     0
 76
     0
 77
     0
 78
     0
281
     0
 65
     1
110
0.0
120
0.0
130
0.0
111
1.0
121
0.0
131
0.0
112
0.0
122
1.0
132
0.0
 79
     0
146
0.0
  0
ENDTAB
  0
TABLE
  2
LTYPE
  5
5
330
0
100
AcDbSymbolTable
 70
     5
  0
LTYPE
  5
14
330
5
100
AcDbSymbolTableRecord
100
AcDbLinetypeTableRecord
  2
ByBlock
 70
     0
  3

 72
    65
 73
     0
 40
0.0
  0
LTYPE
  5
15
330
5
100
AcDbSymbolTableRecord
100
AcDbLinetypeTableRecord
  2
ByLayer
 70
     0
  3

 72
    65
 73
     0
 40
0.0
  0
LTYPE
  5
16
330
5
100
AcDbSymbolTableRecord
100
AcDbLinetypeTableRecord
  2
Continuous
 70
     0
  3
Solid line
 72
    65
 73
     0
 40
0.0
  0
LTYPE
  5
5D
330
5
100
AcDbSymbolTableRecord
100
AcDbLinetypeTableRecord
  2
DASHED
 70
     0
  3
DASHED
 72
    83
 73
     2
 40
0.75
 49
0.5
 74
     0
 49
-0.25
 74
     0
  0
LTYPE
  5
5E
330
5
100
AcDbSymbolTableRecord
100
AcDbLinetypeTableRecord
  2
HIDDEN
 70
     0
  3
HIDDEN
 72
    83
 73
     2
 40
0.375
 49
0.25
 74
     0
 49
-0.125
 74
     0
  0
LTYPE
  5
5F
330
5
100
AcDbSymbolTableRecord
100
AcDbLinetypeTableRecord
  2
CENTER
 70
     0
  3
CENTER
 72
    83
 73
     4
 40
2.0
 49
1.25
 74
     0
 49
-0.25
 74
     0
 49
0.25
 74
     0
 49
-0.25
 74
     0
  0
LTYPE
  5
60
330
5
100
AcDbSymbolTableRecord
100
AcDbLinetypeTableRecord
  2
PHANTOM
 70
     0
  3
PHANTOM
 72
    83
 73
     6
 40
2.5
 49
1.25
 74
     0
 49
-0.25
 74
     0
 49
0.25
 74
     0
 49
-0.25
 74
     0
 49
0.25
 74
     0
 49
-0.25
 74
     0
  0
ENDTAB
  0
TABLE
  2
LAYER
  5
2
330
0
100
AcDbSymbolTable
 70
     2
  0
LAYER
  5
10
330
2
100
AcDbSymbolTableRecord
100
AcDbLayerTableRecord
  2
0
 70
     0
 62
     7
  6
Continuous
370
    -3
390
F
  0
LAYER
  5
61
330
2
100
AcDbSymbolTableRecord
100
AcDbLayerTableRecord
  2
001
 70
     0
 62
     7
  6
Continuous
370
    -3
390
F
  0
ENDTAB
  0
TABLE
  2
STYLE
  5
3
330
0
100
AcDbSymbolTable
 70
     2
  0
STYLE
  5
11
330
3
100
AcDbSymbolTableRecord
100
AcDbTextStyleTableRecord
  2
Standard
 70
     0
 40
0.0
 41
1.0
 50
0.0
 71
     0
 42
0.2
  3
TXT
  4
BIGFONT
  0
STYLE
  5
62
330
3
100
AcDbSymbolTableRecord
100
AcDbTextStyleTableRecord
  2
TATEGAKI
 70
     4
 40
1.0
 41
1.0
 50
0.0
 71
     0
 42
0.2
  3
TXT
  4
BIGFONT
  0
ENDTAB
  0
TABLE
  2
VIEW
  5
6
330
0
100
AcDbSymbolTable
 70
     0
  0
ENDTAB
  0
TABLE
  2
UCS
  5
7
330
0
100
AcDbSymbolTable
 70
     0
  0
ENDTAB
  0
TABLE
  2
APPID
  5
9
330
0
100
AcDbSymbolTable
 70
     1
  0
APPID
  5
12
330
9
100
AcDbSymbolTableRecord
100
AcDbRegAppTableRecord
  2
ACAD
 70
     0
  0
ENDTAB
  0
TABLE
  2
DIMSTYLE
  5
A
330
0
100
AcDbSymbolTable
 70
     2
100
AcDbDimStyleTable
  0
DIMSTYLE
105
27
330
A
100
AcDbSymbolTableRecord
100
AcDbDimStyleTableRecord
  2
ISO-25
 70
     0
 41
2.5
 42
0.625
 43
3.75
 44
1.25
 73
     0
 74
     0
 77
     1
 78
     8
140
2.5
141
2.5
143
0.03937
147
0.625
171
     3
172
     1
271
     2
272
     2
274
     3
278
    44
283
     0
284
     8
340
11
  0
DIMSTYLE
105
63
102
{ACAD_REACTORS
330
136
330
137
330
144
330
145
330
174
330
175
330
182
330
183
330
190
330
191
102
}
330
A
100
AcDbSymbolTableRecord
100
AcDbDimStyleTableRecord
  2
Standard
 70
     0
 41
1.5
 42
0.0
 44
2.75
 73
     0
 74
     0
 77
     1
 78
     8
 79
     2
140
4.0
146
0.8
147
1.0
172
     1
179
     1
271
     1
340
11
  0
ENDTAB
  0
TABLE
  2
BLOCK_RECORD
  5
1
330
0
100
AcDbSymbolTable
 70
    11
  0
BLOCK_RECORD
  5
1F
330
1
100
AcDbSymbolTableRecord
100
AcDbBlockTableRecord
  2
*Model_Space
340
22
  0
BLOCK_RECORD
  5
1B
330
1
100
AcDbSymbolTableRecord
100
AcDbBlockTableRecord
  2
*Paper_Space
340
1E
  0
BLOCK_RECORD
  5
23
330
1
100
AcDbSymbolTableRecord
100
AcDbBlockTableRecord
  2
*Paper_Space0
340
26
  0
BLOCK_RECORD
  5
64
330
1
100
AcDbSymbolTableRecord
100
AcDbBlockTableRecord
  2
*D1
340
0
  0
BLOCK_RECORD
  5
78
330
1
100
AcDbSymbolTableRecord
100
AcDbBlockTableRecord
  2
*D2
340
0
  0
BLOCK_RECORD
  5
8C
330
1
100
AcDbSymbolTableRecord
100
AcDbBlockTableRecord
  2
*D3
340
0
  0
BLOCK_RECORD
  5
A0
330
1
100
AcDbSymbolTableRecord
100
AcDbBlockTableRecord
  2
*D4
340
0
  0
BLOCK_RECORD
  5
B4
330
1
100
AcDbSymbolTableRecord
100
AcDbBlockTableRecord
  2
*D5
340
0
  0
BLOCK_RECORD
  5
C8
330
1
100
AcDbSymbolTableRecord
100
AcDbBlockTableRecord
  2
*D6
340
0
  0
BLOCK_RECORD
  5
DC
330
1
100
AcDbSymbolTableRecord
100
AcDbBlockTableRecord
  2
*D7
340
0
  0
BLOCK_RECORD
  5
F3
330
1
100
AcDbSymbolTableRecord
100
AcDbBlockTableRecord
  2
*D8
340
0
  0
BLOCK_RECORD
  5
10A
330
1
100
AcDbSymbolTableRecord
100
AcDbBlockTableRecord
  2
*D9
340
0
  0
BLOCK_RECORD
  5
120
330
1
100
AcDbSymbolTableRecord
100
AcDbBlockTableRecord
  2
*D10
340
0
  0
ENDTAB
  0
ENDSEC
  0
SECTION
  2
BLOCKS
  0
BLOCK
  5
20
330
1F
100
AcDbEntity
  8
0
100
AcDbBlockBegin
  2
*Model_Space
 70
     0
 10
0.0
 20
0.0
 30
0.0
  3
*Model_Space
  1

  0
ENDBLK
  5
21
330
1F
100
AcDbEntity
  8
0
100
AcDbBlockEnd
  0
BLOCK
  5
1C
330
1B
100
AcDbEntity
 67
     1
  8
0
100
AcDbBlockBegin
  2
*Paper_Space
 70
     0
 10
0.0
 20
0.0
 30
0.0
  3
*Paper_Space
  1

  0
ENDBLK
  5
1D
330
1B
100
AcDbEntity
 67
     1
  8
0
100
AcDbBlockEnd
  0
BLOCK
  5
24
330
23
100
AcDbEntity
  8
0
100
AcDbBlockBegin
  2
*Paper_Space0
 70
     0
 10
0.0
 20
0.0
 30
0.0
  3
*Paper_Space0
  1

  0
ENDBLK
  5
25
330
23
100
AcDbEntity
  8
0
100
AcDbBlockEnd
  0
BLOCK
  5
65
330
64
100
AcDbEntity
  8
0
100
AcDbBlockBegin
  2
*D1
 70
     1
 10
0.0
 20
0.0
 30
0.0
  3
*D1
  1

  0
LINE
  5
67
330
64
100
AcDbEntity
  8
001
370
     9
100
AcDbLine
 10
204.711223
 20
114.484562
 30
0.0
 11
204.711223
 21
69.928241
 31
0.0
  0
LINE
  5
68
330
64
100
AcDbEntity
  8
001
370
     9
100
AcDbLine
 10
124.711223
 20
100.884562
 30
0.0
 11
124.711223
 21
69.928241
 31
0.0
  0
LINE
  5
69
330
64
100
AcDbEntity
  8
001
370
     9
100
AcDbLine
 10
204.711223
 20
72.678241
 30
0.0
 11
124.711223
 21
72.678241
 31
0.0
  0
POLYLINE
  5
6A
330
64
100
AcDbEntity
  8
001
370
     9
100
AcDb2dPolyline
 66
     1
 10
0.0
 20
0.0
 30
0.0
  0
VERTEX
  5
6C
330
6A
100
AcDbEntity
  8
001
370
     9
100
AcDbVertex
100
AcDb2dVertex
 10
203.211223
 20
73.080165
 30
0.0
  0
VERTEX
  5
6D
330
6A
100
AcDbEntity
  8
001
370
     9
100
AcDbVertex
100
AcDb2dVertex
 10
204.711223
 20
72.678241
 30
0.0
  0
VERTEX
  5
6E
330
6A
100
AcDbEntity
  8
001
370
     9
100
AcDbVertex
100
AcDb2dVertex
 10
203.211223
 20
72.276317
 30
0.0
  0
SEQEND
  5
6B
330
6A
100
AcDbEntity
  8
001
370
     9
  0
POLYLINE
  5
6F
330
64
100
AcDbEntity
  8
001
370
     9
100
AcDb2dPolyline
 66
     1
 10
0.0
 20
0.0
 30
0.0
  0
VERTEX
  5
71
330
6F
100
AcDbEntity
  8
001
370
     9
100
AcDbVertex
100
AcDb2dVertex
 10
126.211223
 20
72.276317
 30
0.0
  0
VERTEX
  5
72
330
6F
100
AcDbEntity
  8
001
370
     9
100
AcDbVertex
100
AcDb2dVertex
 10
124.711223
 20
72.678241
 30
0.0
  0
VERTEX
  5
73
330
6F
100
AcDbEntity
  8
001
370
     9
100
AcDbVertex
100
AcDb2dVertex
 10
126.211223
 20
73.080165
 30
0.0
  0
SEQEND
  5
70
330
6F
100
AcDbEntity
  8
001
370
     9
  0
TEXT
  5
74
330
64
100
AcDbEntity
  8
001
370
    30
100
AcDbText
 10
160.711223
 20
73.678241
 30
0.0
 40
4.0
  1
８０
 41
0.833333
100
AcDbText
  0
POINT
  5
75
330
64
100
AcDbEntity
  8
001
370
     9
100
AcDbPoint
 10
204.711223
 20
114.484562
 30
0.0
  0
POINT
  5
76
330
64
100
AcDbEntity
  8
001
370
     9
100
AcDbPoint
 10
124.711223
 20
100.884562
 30
0.0
  0
POINT
  5
77
330
64
100
AcDbEntity
  8
001
370
     9
100
AcDbPoint
 10
124.711223
 20
72.678241
 30
0.0
  0
ENDBLK
  5
66
330
64
100
AcDbEntity
  8
0
100
AcDbBlockEnd
  0
BLOCK
  5
79
330
78
100
AcDbEntity
  8
0
100
AcDbBlockBegin
  2
*D2
 70
     1
 10
0.0
 20
0.0
 30
0.0
  3
*D2
  1

  0
LINE
  5
7B
330
78
100
AcDbEntity
  8
001
370
     9
100
AcDbLine
 10
204.711223
 20
114.484562
 30
0.0
 11
204.711223
 21
59.202907
 31
0.0
  0
LINE
  5
7C
330
78
100
AcDbEntity
  8
001
370
     9
100
AcDbLine
 10
99.711223
 20
72.678241
 30
0.0
 11
99.711223
 21
59.202907
 31
0.0
  0
LINE
  5
7D
330
78
100
AcDbEntity
  8
001
370
     9
100
AcDbLine
 10
204.711223
 20
61.952907
 30
0.0
 11
99.711223
 21
61.952907
 31
0.0
  0
POLYLINE
  5
7E
330
78
100
AcDbEntity
  8
001
370
     9
100
AcDb2dPolyline
 66
     1
 10
0.0
 20
0.0
 30
0.0
  0
VERTEX
  5
80
330
7E
100
AcDbEntity
  8
001
370
     9
100
AcDbVertex
100
AcDb2dVertex
 10
203.211223
 20
62.354831
 30
0.0
  0
VERTEX
  5
81
330
7E
100
AcDbEntity
  8
001
370
     9
100
AcDbVertex
100
AcDb2dVertex
 10
204.711223
 20
61.952907
 30
0.0
  0
VERTEX
  5
82
330
7E
100
AcDbEntity
  8
001
370
     9
100
AcDbVertex
100
AcDb2dVertex
 10
203.211223
 20
61.550983
 30
0.0
  0
SEQEND
  5
7F
330
7E
100
AcDbEntity
  8
001
370
     9
  0
POLYLINE
  5
83
330
78
100
AcDbEntity
  8
001
370
     9
100
AcDb2dPolyline
 66
     1
 10
0.0
 20
0.0
 30
0.0
  0
VERTEX
  5
85
330
83
100
AcDbEntity
  8
001
370
     9
100
AcDbVertex
100
AcDb2dVertex
 10
101.211223
 20
61.550983
 30
0.0
  0
VERTEX
  5
86
330
83
100
AcDbEntity
  8
001
370
     9
100
AcDbVertex
100
AcDb2dVertex
 10
99.711223
 20
61.952907
 30
0.0
  0
VERTEX
  5
87
330
83
100
AcDbEntity
  8
001
370
     9
100
AcDbVertex
100
AcDb2dVertex
 10
101.211223
 20
62.354831
 30
0.0
  0
SEQEND
  5
84
330
83
100
AcDbEntity
  8
001
370
     9
  0
TEXT
  5
88
330
78
100
AcDbEntity
  8
001
370
    30
100
AcDbText
 10
146.211223
 20
62.952907
 30
0.0
 40
4.0
  1
１０５
 41
0.833333
100
AcDbText
  0
POINT
  5
89
330
78
100
AcDbEntity
  8
001
370
     9
100
AcDbPoint
 10
204.711223
 20
114.484562
 30
0.0
  0
POINT
  5
8A
330
78
100
AcDbEntity
  8
001
370
     9
100
AcDbPoint
 10
99.711223
 20
72.678241
 30
0.0
  0
POINT
  5
8B
330
78
100
AcDbEntity
  8
001
370
     9
100
AcDbPoint
 10
99.711223
 20
61.952907
 30
0.0
  0
ENDBLK
  5
7A
330
78
100
AcDbEntity
  8
0
100
AcDbBlockEnd
  0
BLOCK
  5
8D
330
8C
100
AcDbEntity
  8
0
100
AcDbBlockBegin
  2
*D3
 70
     1
 10
0.0
 20
0.0
 30
0.0
  3
*D3
  1

  0
LINE
  5
8F
330
8C
100
AcDbEntity
  8
001
370
     9
100
AcDbLine
 10
198.711223
 20
140.484562
 30
0.0
 11
232.364868
 21
140.484562
 31
0.0
  0
LINE
  5
90
330
8C
100
AcDbEntity
  8
001
370
     9
100
AcDbLine
 10
198.711223
 20
108.484562
 30
0.0
 11
232.364868
 21
108.484562
 31
0.0
  0
LINE
  5
91
330
8C
100
AcDbEntity
  8
001
370
     9
100
AcDbLine
 10
229.614868
 20
140.484562
 30
0.0
 11
229.614868
 21
108.484562
 31
0.0
  0
POLYLINE
  5
92
330
8C
100
AcDbEntity
  8
001
370
     9
100
AcDb2dPolyline
 66
     1
 10
0.0
 20
0.0
 30
0.0
  0
VERTEX
  5
94
330
92
100
AcDbEntity
  8
001
370
     9
100
AcDbVertex
100
AcDb2dVertex
 10
229.212944
 20
138.984562
 30
0.0
  0
VERTEX
  5
95
330
92
100
AcDbEntity
  8
001
370
     9
100
AcDbVertex
100
AcDb2dVertex
 10
229.614868
 20
140.484562
 30
0.0
  0
VERTEX
  5
96
330
92
100
AcDbEntity
  8
001
370
     9
100
AcDbVertex
100
AcDb2dVertex
 10
230.016792
 20
138.984562
 30
0.0
  0
SEQEND
  5
93
330
92
100
AcDbEntity
  8
001
370
     9
  0
POLYLINE
  5
97
330
8C
100
AcDbEntity
  8
001
370
     9
100
AcDb2dPolyline
 66
     1
 10
0.0
 20
0.0
 30
0.0
  0
VERTEX
  5
99
330
97
100
AcDbEntity
  8
001
370
     9
100
AcDbVertex
100
AcDb2dVertex
 10
230.016792
 20
109.984562
 30
0.0
  0
VERTEX
  5
9A
330
97
100
AcDbEntity
  8
001
370
     9
100
AcDbVertex
100
AcDb2dVertex
 10
229.614868
 20
108.484562
 30
0.0
  0
VERTEX
  5
9B
330
97
100
AcDbEntity
  8
001
370
     9
100
AcDbVertex
100
AcDb2dVertex
 10
229.212944
 20
109.984562
 30
0.0
  0
SEQEND
  5
98
330
97
100
AcDbEntity
  8
001
370
     9
  0
TEXT
  5
9C
330
8C
100
AcDbEntity
  8
001
370
    30
100
AcDbText
 10
228.614868
 20
118.484562
 30
0.0
 40
4.0
  1
%%c３２
 50
90.000003
 41
0.882353
100
AcDbText
  0
POINT
  5
9D
330
8C
100
AcDbEntity
  8
001
370
     9
100
AcDbPoint
 10
198.711223
 20
140.484562
 30
0.0
  0
POINT
  5
9E
330
8C
100
AcDbEntity
  8
001
370
     9
100
AcDbPoint
 10
198.711223
 20
108.484562
 30
0.0
  0
POINT
  5
9F
330
8C
100
AcDbEntity
  8
001
370
     9
100
AcDbPoint
 10
229.614868
 20
108.484562
 30
0.0
  0
ENDBLK
  5
8E
330
8C
100
AcDbEntity
  8
0
100
AcDbBlockEnd
  0
BLOCK
  5
A1
330
A0
100
AcDbEntity
  8
0
100
AcDbBlockBegin
  2
*D4
 70
     1
 10
0.0
 20
0.0
 30
0.0
  3
*D4
  1

  0
LINE
  5
A3
330
A0
100
AcDbEntity
  8
001
370
     9
100
AcDbLine
 10
268.711223
 20
331.90291
 30
0.0
 11
302.364868
 21
331.90291
 31
0.0
  0
LINE
  5
A4
330
A0
100
AcDbEntity
  8
001
370
     9
100
AcDbLine
 10
268.711223
 20
299.90291
 30
0.0
 11
302.364868
 21
299.90291
 31
0.0
  0
LINE
  5
A5
330
A0
100
AcDbEntity
  8
001
370
     9
100
AcDbLine
 10
299.614868
 20
331.90291
 30
0.0
 11
299.614868
 21
299.90291
 31
0.0
  0
POLYLINE
  5
A6
330
A0
100
AcDbEntity
  8
001
370
     9
100
AcDb2dPolyline
 66
     1
 10
0.0
 20
0.0
 30
0.0
  0
VERTEX
  5
A8
330
A6
100
AcDbEntity
  8
001
370
     9
100
AcDbVertex
100
AcDb2dVertex
 10
299.212944
 20
330.40291
 30
0.0
  0
VERTEX
  5
A9
330
A6
100
AcDbEntity
  8
001
370
     9
100
AcDbVertex
100
AcDb2dVertex
 10
299.614868
 20
331.90291
 30
0.0
  0
VERTEX
  5
AA
330
A6
100
AcDbEntity
  8
001
370
     9
100
AcDbVertex
100
AcDb2dVertex
 10
300.016792
 20
330.40291
 30
0.0
  0
SEQEND
  5
A7
330
A6
100
AcDbEntity
  8
001
370
     9
  0
POLYLINE
  5
AB
330
A0
100
AcDbEntity
  8
001
370
     9
100
AcDb2dPolyline
 66
     1
 10
0.0
 20
0.0
 30
0.0
  0
VERTEX
  5
AD
330
AB
100
AcDbEntity
  8
001
370
     9
100
AcDbVertex
100
AcDb2dVertex
 10
300.016792
 20
301.40291
 30
0.0
  0
VERTEX
  5
AE
330
AB
100
AcDbEntity
  8
001
370
     9
100
AcDbVertex
100
AcDb2dVertex
 10
299.614868
 20
299.90291
 30
0.0
  0
VERTEX
  5
AF
330
AB
100
AcDbEntity
  8
001
370
     9
100
AcDbVertex
100
AcDb2dVertex
 10
299.212944
 20
301.40291
 30
0.0
  0
SEQEND
  5
AC
330
AB
100
AcDbEntity
  8
001
370
     9
  0
TEXT
  5
B0
330
A0
100
AcDbEntity
  8
001
370
    30
100
AcDbText
 10
298.614868
 20
309.90291
 30
0.0
 40
4.0
  1
%%c３２
 50
90.000003
 41
0.882353
100
AcDbText
  0
POINT
  5
B1
330
A0
100
AcDbEntity
  8
001
370
     9
100
AcDbPoint
 10
268.711223
 20
331.90291
 30
0.0
  0
POINT
  5
B2
330
A0
100
AcDbEntity
  8
001
370
     9
100
AcDbPoint
 10
268.711223
 20
299.90291
 30
0.0
  0
POINT
  5
B3
330
A0
100
AcDbEntity
  8
001
370
     9
100
AcDbPoint
 10
299.614868
 20
299.90291
 30
0.0
  0
ENDBLK
  5
A2
330
A0
100
AcDbEntity
  8
0
100
AcDbBlockEnd
  0
BLOCK
  5
B5
330
B4
100
AcDbEntity
  8
0
100
AcDbBlockBegin
  2
*D5
 70
     1
 10
0.0
 20
0.0
 30
0.0
  3
*D5
  1

  0
LINE
  5
B7
330
B4
100
AcDbEntity
  8
001
370
     9
100
AcDbLine
 10
274.711223
 20
305.90291
 30
0.0
 11
274.711223
 21
250.621255
 31
0.0
  0
LINE
  5
B8
330
B4
100
AcDbEntity
  8
001
370
     9
100
AcDbLine
 10
99.711223
 20
264.096589
 30
0.0
 11
99.711223
 21
250.621255
 31
0.0
  0
LINE
  5
B9
330
B4
100
AcDbEntity
  8
001
370
     9
100
AcDbLine
 10
274.711223
 20
253.371255
 30
0.0
 11
99.711223
 21
253.371255
 31
0.0
  0
POLYLINE
  5
BA
330
B4
100
AcDbEntity
  8
001
370
     9
100
AcDb2dPolyline
 66
     1
 10
0.0
 20
0.0
 30
0.0
  0
VERTEX
  5
BC
330
BA
100
AcDbEntity
  8
001
370
     9
100
AcDbVertex
100
AcDb2dVertex
 10
273.211223
 20
253.773179
 30
0.0
  0
VERTEX
  5
BD
330
BA
100
AcDbEntity
  8
001
370
     9
100
AcDbVertex
100
AcDb2dVertex
 10
274.711223
 20
253.371255
 30
0.0
  0
VERTEX
  5
BE
330
BA
100
AcDbEntity
  8
001
370
     9
100
AcDbVertex
100
AcDb2dVertex
 10
273.211223
 20
252.969331
 30
0.0
  0
SEQEND
  5
BB
330
BA
100
AcDbEntity
  8
001
370
     9
  0
POLYLINE
  5
BF
330
B4
100
AcDbEntity
  8
001
370
     9
100
AcDb2dPolyline
 66
     1
 10
0.0
 20
0.0
 30
0.0
  0
VERTEX
  5
C1
330
BF
100
AcDbEntity
  8
001
370
     9
100
AcDbVertex
100
AcDb2dVertex
 10
101.211223
 20
252.969331
 30
0.0
  0
VERTEX
  5
C2
330
BF
100
AcDbEntity
  8
001
370
     9
100
AcDbVertex
100
AcDb2dVertex
 10
99.711223
 20
253.371255
 30
0.0
  0
VERTEX
  5
C3
330
BF
100
AcDbEntity
  8
001
370
     9
100
AcDbVertex
100
AcDb2dVertex
 10
101.211223
 20
253.773179
 30
0.0
  0
SEQEND
  5
C0
330
BF
100
AcDbEntity
  8
001
370
     9
  0
TEXT
  5
C4
330
B4
100
AcDbEntity
  8
001
370
    30
100
AcDbText
 10
181.211223
 20
254.371255
 30
0.0
 40
4.0
  1
１７５
 41
0.833333
100
AcDbText
  0
POINT
  5
C5
330
B4
100
AcDbEntity
  8
001
370
     9
100
AcDbPoint
 10
274.711223
 20
305.90291
 30
0.0
  0
POINT
  5
C6
330
B4
100
AcDbEntity
  8
001
370
     9
100
AcDbPoint
 10
99.711223
 20
264.096589
 30
0.0
  0
POINT
  5
C7
330
B4
100
AcDbEntity
  8
001
370
     9
100
AcDbPoint
 10
99.711223
 20
253.371255
 30
0.0
  0
ENDBLK
  5
B6
330
B4
100
AcDbEntity
  8
0
100
AcDbBlockEnd
  0
BLOCK
  5
C9
330
C8
100
AcDbEntity
  8
0
100
AcDbBlockBegin
  2
*D6
 70
     1
 10
0.0
 20
0.0
 30
0.0
  3
*D6
  1

  0
LINE
  5
CB
330
C8
100
AcDbEntity
  8
001
370
     9
100
AcDbLine
 10
274.711223
 20
305.90291
 30
0.0
 11
274.711223
 21
261.346589
 31
0.0
  0
LINE
  5
CC
330
C8
100
AcDbEntity
  8
001
370
     9
100
AcDbLine
 10
124.711223
 20
292.30291
 30
0.0
 11
124.711223
 21
261.346589
 31
0.0
  0
LINE
  5
CD
330
C8
100
AcDbEntity
  8
001
370
     9
100
AcDbLine
 10
274.711223
 20
264.096589
 30
0.0
 11
124.711223
 21
264.096589
 31
0.0
  0
POLYLINE
  5
CE
330
C8
100
AcDbEntity
  8
001
370
     9
100
AcDb2dPolyline
 66
     1
 10
0.0
 20
0.0
 30
0.0
  0
VERTEX
  5
D0
330
CE
100
AcDbEntity
  8
001
370
     9
100
AcDbVertex
100
AcDb2dVertex
 10
273.211223
 20
264.498513
 30
0.0
  0
VERTEX
  5
D1
330
CE
100
AcDbEntity
  8
001
370
     9
100
AcDbVertex
100
AcDb2dVertex
 10
274.711223
 20
264.096589
 30
0.0
  0
VERTEX
  5
D2
330
CE
100
AcDbEntity
  8
001
370
     9
100
AcDbVertex
100
AcDb2dVertex
 10
273.211223
 20
263.694665
 30
0.0
  0
SEQEND
  5
CF
330
CE
100
AcDbEntity
  8
001
370
     9
  0
POLYLINE
  5
D3
330
C8
100
AcDbEntity
  8
001
370
     9
100
AcDb2dPolyline
 66
     1
 10
0.0
 20
0.0
 30
0.0
  0
VERTEX
  5
D5
330
D3
100
AcDbEntity
  8
001
370
     9
100
AcDbVertex
100
AcDb2dVertex
 10
126.211223
 20
263.694665
 30
0.0
  0
VERTEX
  5
D6
330
D3
100
AcDbEntity
  8
001
370
     9
100
AcDbVertex
100
AcDb2dVertex
 10
124.711223
 20
264.096589
 30
0.0
  0
VERTEX
  5
D7
330
D3
100
AcDbEntity
  8
001
370
     9
100
AcDbVertex
100
AcDb2dVertex
 10
126.211223
 20
264.498513
 30
0.0
  0
SEQEND
  5
D4
330
D3
100
AcDbEntity
  8
001
370
     9
  0
TEXT
  5
D8
330
C8
100
AcDbEntity
  8
001
370
    30
100
AcDbText
 10
193.711223
 20
265.096589
 30
0.0
 40
4.0
  1
１５０
 41
0.833333
100
AcDbText
  0
POINT
  5
D9
330
C8
100
AcDbEntity
  8
001
370
     9
100
AcDbPoint
 10
274.711223
 20
305.90291
 30
0.0
  0
POINT
  5
DA
330
C8
100
AcDbEntity
  8
001
370
     9
100
AcDbPoint
 10
124.711223
 20
292.30291
 30
0.0
  0
POINT
  5
DB
330
C8
100
AcDbEntity
  8
001
370
     9
100
AcDbPoint
 10
124.711223
 20
264.096589
 30
0.0
  0
ENDBLK
  5
CA
330
C8
100
AcDbEntity
  8
0
100
AcDbBlockEnd
  0
BLOCK
  5
DD
330
DC
100
AcDbEntity
  8
0
100
AcDbBlockBegin
  2
*D7
 70
     1
 10
0.0
 20
0.0
 30
0.0
  3
*D7
  1

  0
LINE
  5
DF
330
DC
100
AcDbEntity
  8
001
370
     9
100
AcDbLine
 10
99.711223
 20
282.13071
 30
0.0
 11
99.711223
 21
272.310603
 31
0.0
  0
LINE
  5
E0
330
DC
100
AcDbEntity
  8
001
370
     9
100
AcDbLine
 10
95.231487
 20
285.971969
 30
0.0
 11
86.049857
 21
285.971969
 31
0.0
  0
ARC
  5
E1
330
DC
100
AcDbEntity
  8
001
370
     9
100
AcDbCircle
 10
99.711223
 20
285.971969
 30
0.0
 40
10.91136606460211
100
AcDbArc
 50
180.0
 51
270.0
  0
POLYLINE
  5
E2
330
DC
100
AcDbEntity
  8
001
370
     9
100
AcDb2dPolyline
 66
     1
 10
0.0
 20
0.0
 30
0.0
  0
VERTEX
  5
E4
330
E2
100
AcDbEntity
  8
001
370
     9
100
AcDbVertex
100
AcDb2dVertex
 10
101.235286
 20
274.76265
 30
0.0
  0
VERTEX
  5
E5
330
E2
100
AcDbEntity
  8
001
370
     9
100
AcDbVertex
100
AcDb2dVertex
 10
99.711223
 20
275.060603
 30
0.0
  0
VERTEX
  5
E6
330
E2
100
AcDbEntity
  8
001
370
     9
100
AcDbVertex
100
AcDb2dVertex
 10
101.180076
 20
275.5646
 30
0.0
  0
SEQEND
  5
E3
330
E2
100
AcDbEntity
  8
001
370
     9
  0
POLYLINE
  5
E7
330
DC
100
AcDbEntity
  8
001
370
     9
100
AcDb2dPolyline
 66
     1
 10
0.0
 20
0.0
 30
0.0
  0
VERTEX
  5
E9
330
E7
100
AcDbEntity
  8
001
370
     9
100
AcDbVertex
100
AcDb2dVertex
 10
89.303854
 20
287.440822
 30
0.0
  0
VERTEX
  5
EA
330
E7
100
AcDbEntity
  8
001
370
     9
100
AcDbVertex
100
AcDb2dVertex
 10
88.799857
 20
285.971969
 30
0.0
  0
VERTEX
  5
EB
330
E7
100
AcDbEntity
  8
001
370
     9
100
AcDbVertex
100
AcDb2dVertex
 10
88.501904
 20
287.496031
 30
0.0
  0
SEQEND
  5
E8
330
E7
100
AcDbEntity
  8
001
370
     9
  0
TEXT
  5
EC
330
DC
100
AcDbEntity
  8
001
370
    30
100
AcDbText
 10
88.460188
 20
283.206215
 30
0.0
 40
4.0
  1
９０%%d
 50
314.999992
 41
0.978261
100
AcDbText
  0
POINT
  5
ED
330
DC
100
AcDbEntity
  8
001
370
     9
100
AcDbPoint
 10
99.711223
 20
282.13071
 30
0.0
  0
POINT
  5
EE
330
DC
100
AcDbEntity
  8
001
370
     9
100
AcDbPoint
 10
99.711223
 20
285.971969
 30
0.0
  0
POINT
  5
EF
330
DC
100
AcDbEntity
  8
001
370
     9
100
AcDbPoint
 10
99.711223
 20
285.971969
 30
0.0
  0
POINT
  5
F0
330
DC
100
AcDbEntity
  8
001
370
     9
100
AcDbPoint
 10
95.231487
 20
285.971969
 30
0.0
  0
ARC
  5
F1
330
DC
100
AcDbEntity
  8
001
370
     9
100
AcDbCircle
 10
99.711223
 20
285.971969
 30
0.0
 40
10.91136606460211
100
AcDbArc
 50
166.872455
 51
180.0
  0
ARC
  5
F2
330
DC
100
AcDbEntity
  8
001
370
     9
100
AcDbCircle
 10
99.711223
 20
285.971969
 30
0.0
 40
10.91136606460211
100
AcDbArc
 50
270.0
 51
283.127545
  0
ENDBLK
  5
DE
330
DC
100
AcDbEntity
  8
0
100
AcDbBlockEnd
  0
BLOCK
  5
F4
330
F3
100
AcDbEntity
  8
0
100
AcDbBlockBegin
  2
*D8
 70
     1
 10
0.0
 20
0.0
 30
0.0
  3
*D8
  1

  0
LINE
  5
F6
330
F3
100
AcDbEntity
  8
001
370
     9
100
AcDbLine
 10
99.711223
 20
90.712362
 30
0.0
 11
99.711223
 21
82.456341
 31
0.0
  0
LINE
  5
F7
330
F3
100
AcDbEntity
  8
001
370
     9
100
AcDbLine
 10
95.231487
 20
94.553621
 30
0.0
 11
87.613943
 21
94.553621
 31
0.0
  0
ARC
  5
F8
330
F3
100
AcDbEntity
  8
001
370
     9
100
AcDbCircle
 10
99.711223
 20
94.553621
 30
0.0
 40
9.347279867449643
100
AcDbArc
 50
180.0
 51
270.0
  0
POLYLINE
  5
F9
330
F3
100
AcDbEntity
  8
001
370
     9
100
AcDb2dPolyline
 66
     1
 10
0.0
 20
0.0
 30
0.0
  0
VERTEX
  5
FB
330
F9
100
AcDbEntity
  8
001
370
     9
100
AcDbVertex
100
AcDb2dVertex
 10
101.238612
 20
84.925937
 30
0.0
  0
VERTEX
  5
FC
330
F9
100
AcDbEntity
  8
001
370
     9
100
AcDbVertex
100
AcDb2dVertex
 10
99.711223
 20
85.206341
 30
0.0
  0
VERTEX
  5
FD
330
F9
100
AcDbEntity
  8
001
370
     9
100
AcDbVertex
100
AcDb2dVertex
 10
101.174182
 20
85.727198
 30
0.0
  0
SEQEND
  5
FA
330
F9
100
AcDbEntity
  8
001
370
     9
  0
POLYLINE
  5
FE
330
F3
100
AcDbEntity
  8
001
370
     9
100
AcDb2dPolyline
 66
     1
 10
0.0
 20
0.0
 30
0.0
  0
VERTEX
  5
100
330
FE
100
AcDbEntity
  8
001
370
     9
100
AcDbVertex
100
AcDb2dVertex
 10
90.8848
 20
96.01658
 30
0.0
  0
VERTEX
  5
101
330
FE
100
AcDbEntity
  8
001
370
     9
100
AcDbVertex
100
AcDb2dVertex
 10
90.363943
 20
94.553621
 30
0.0
  0
VERTEX
  5
102
330
FE
100
AcDbEntity
  8
001
370
     9
100
AcDbVertex
100
AcDb2dVertex
 10
90.083539
 20
96.081009
 30
0.0
  0
SEQEND
  5
FF
330
FE
100
AcDbEntity
  8
001
370
     9
  0
TEXT
  5
103
330
F3
100
AcDbEntity
  8
001
370
    30
100
AcDbText
 10
89.566164
 20
92.893843
 30
0.0
 40
4.0
  1
９０%%d
 50
314.999992
 41
0.978261
100
AcDbText
  0
POINT
  5
104
330
F3
100
AcDbEntity
  8
001
370
     9
100
AcDbPoint
 10
99.711223
 20
90.712362
 30
0.0
  0
POINT
  5
105
330
F3
100
AcDbEntity
  8
001
370
     9
100
AcDbPoint
 10
99.711223
 20
94.553621
 30
0.0
  0
POINT
  5
106
330
F3
100
AcDbEntity
  8
001
370
     9
100
AcDbPoint
 10
99.711223
 20
94.553621
 30
0.0
  0
POINT
  5
107
330
F3
100
AcDbEntity
  8
001
370
     9
100
AcDbPoint
 10
95.231487
 20
94.553621
 30
0.0
  0
ARC
  5
108
330
F3
100
AcDbEntity
  8
001
370
     9
100
AcDbCircle
 10
99.711223
 20
94.553621
 30
0.0
 40
9.347279867449643
100
AcDbArc
 50
164.675815
 51
180.0
  0
ARC
  5
109
330
F3
100
AcDbEntity
  8
001
370
     9
100
AcDbCircle
 10
99.711223
 20
94.553621
 30
0.0
 40
9.347279867449643
100
AcDbArc
 50
270.0
 51
285.324185
  0
ENDBLK
  5
F5
330
F3
100
AcDbEntity
  8
0
100
AcDbBlockEnd
  0
BLOCK
  5
10B
330
10A
100
AcDbEntity
  8
0
100
AcDbBlockBegin
  2
*D9
 70
     1
 10
0.0
 20
0.0
 30
0.0
  3
*D9
  1

  0
LINE
  5
10D
330
10A
100
AcDbEntity
  8
001
370
     9
100
AcDbLine
 10
114.611223
 20
286.054901
 30
0.0
 11
114.611223
 21
268.941191
 31
0.0
  0
LINE
  5
10E
330
10A
100
AcDbEntity
  8
001
370
     9
100
AcDbLine
 10
99.711223
 20
282.13071
 30
0.0
 11
99.711223
 21
268.941191
 31
0.0
  0
LINE
  5
10F
330
10A
100
AcDbEntity
  8
001
370
     9
100
AcDbLine
 10
114.611223
 20
271.691191
 30
0.0
 11
99.711223
 21
271.691191
 31
0.0
  0
POLYLINE
  5
110
330
10A
100
AcDbEntity
  8
001
370
     9
100
AcDb2dPolyline
 66
     1
 10
0.0
 20
0.0
 30
0.0
  0
VERTEX
  5
112
330
110
100
AcDbEntity
  8
001
370
     9
100
AcDbVertex
100
AcDb2dVertex
 10
116.111223
 20
271.289268
 30
0.0
  0
VERTEX
  5
113
330
110
100
AcDbEntity
  8
001
370
     9
100
AcDbVertex
100
AcDb2dVertex
 10
114.611223
 20
271.691191
 30
0.0
  0
VERTEX
  5
114
330
110
100
AcDbEntity
  8
001
370
     9
100
AcDbVertex
100
AcDb2dVertex
 10
116.111223
 20
272.093115
 30
0.0
  0
SEQEND
  5
111
330
110
100
AcDbEntity
  8
001
370
     9
  0
POLYLINE
  5
115
330
10A
100
AcDbEntity
  8
001
370
     9
100
AcDb2dPolyline
 66
     1
 10
0.0
 20
0.0
 30
0.0
  0
VERTEX
  5
117
330
115
100
AcDbEntity
  8
001
370
     9
100
AcDbVertex
100
AcDb2dVertex
 10
98.211223
 20
272.093115
 30
0.0
  0
VERTEX
  5
118
330
115
100
AcDbEntity
  8
001
370
     9
100
AcDbVertex
100
AcDb2dVertex
 10
99.711223
 20
271.691191
 30
0.0
  0
VERTEX
  5
119
330
115
100
AcDbEntity
  8
001
370
     9
100
AcDbVertex
100
AcDb2dVertex
 10
98.211223
 20
271.289268
 30
0.0
  0
SEQEND
  5
116
330
115
100
AcDbEntity
  8
001
370
     9
  0
TEXT
  5
11A
330
10A
100
AcDbEntity
  8
001
370
    30
100
AcDbText
 10
75.11227
 20
272.691191
 30
0.0
 40
4.0
  1
１４．９
 41
0.833333
100
AcDbText
  0
POINT
  5
11B
330
10A
100
AcDbEntity
  8
001
370
     9
100
AcDbPoint
 10
114.611223
 20
286.054901
 30
0.0
  0
POINT
  5
11C
330
10A
100
AcDbEntity
  8
001
370
     9
100
AcDbPoint
 10
99.711223
 20
282.13071
 30
0.0
  0
POINT
  5
11D
330
10A
100
AcDbEntity
  8
001
370
     9
100
AcDbPoint
 10
99.711223
 20
271.691191
 30
0.0
  0
LINE
  5
11E
330
10A
100
AcDbEntity
  8
001
370
     9
100
AcDbLine
 10
114.611223
 20
271.691191
 30
0.0
 11
117.111223
 21
271.691191
 31
0.0
  0
LINE
  5
11F
330
10A
100
AcDbEntity
  8
001
370
     9
100
AcDbLine
 10
99.711223
 20
271.691191
 30
0.0
 11
72.11227
 21
271.691191
 31
0.0
  0
ENDBLK
  5
10C
330
10A
100
AcDbEntity
  8
0
100
AcDbBlockEnd
  0
BLOCK
  5
121
330
120
100
AcDbEntity
  8
0
100
AcDbBlockBegin
  2
*D10
 70
     1
 10
0.0
 20
0.0
 30
0.0
  3
*D10
  1

  0
LINE
  5
123
330
120
100
AcDbEntity
  8
001
370
     9
100
AcDbLine
 10
114.611223
 20
94.636553
 30
0.0
 11
114.611223
 21
77.972083
 31
0.0
  0
LINE
  5
124
330
120
100
AcDbEntity
  8
001
370
     9
100
AcDbLine
 10
99.711223
 20
94.553621
 30
0.0
 11
99.711223
 21
77.972083
 31
0.0
  0
LINE
  5
125
330
120
100
AcDbEntity
  8
001
370
     9
100
AcDbLine
 10
114.611223
 20
80.722083
 30
0.0
 11
99.711223
 21
80.722083
 31
0.0
  0
POLYLINE
  5
126
330
120
100
AcDbEntity
  8
001
370
     9
100
AcDb2dPolyline
 66
     1
 10
0.0
 20
0.0
 30
0.0
  0
VERTEX
  5
128
330
126
100
AcDbEntity
  8
001
370
     9
100
AcDbVertex
100
AcDb2dVertex
 10
116.111223
 20
80.320159
 30
0.0
  0
VERTEX
  5
129
330
126
100
AcDbEntity
  8
001
370
     9
100
AcDbVertex
100
AcDb2dVertex
 10
114.611223
 20
80.722083
 30
0.0
  0
VERTEX
  5
12A
330
126
100
AcDbEntity
  8
001
370
     9
100
AcDbVertex
100
AcDb2dVertex
 10
116.111223
 20
81.124007
 30
0.0
  0
SEQEND
  5
127
330
126
100
AcDbEntity
  8
001
370
     9
  0
POLYLINE
  5
12B
330
120
100
AcDbEntity
  8
001
370
     9
100
AcDb2dPolyline
 66
     1
 10
0.0
 20
0.0
 30
0.0
  0
VERTEX
  5
12D
330
12B
100
AcDbEntity
  8
001
370
     9
100
AcDbVertex
100
AcDb2dVertex
 10
98.211223
 20
81.124007
 30
0.0
  0
VERTEX
  5
12E
330
12B
100
AcDbEntity
  8
001
370
     9
100
AcDbVertex
100
AcDb2dVertex
 10
99.711223
 20
80.722083
 30
0.0
  0
VERTEX
  5
12F
330
12B
100
AcDbEntity
  8
001
370
     9
100
AcDbVertex
100
AcDb2dVertex
 10
98.211223
 20
80.320159
 30
0.0
  0
SEQEND
  5
12C
330
12B
100
AcDbEntity
  8
001
370
     9
  0
TEXT
  5
130
330
120
100
AcDbEntity
  8
001
370
    30
100
AcDbText
 10
74.816141
 20
81.722083
 30
0.0
 40
4.0
  1
１４．９
 41
0.833333
100
AcDbText
  0
POINT
  5
131
330
120
100
AcDbEntity
  8
001
370
     9
100
AcDbPoint
 10
114.611223
 20
94.636553
 30
0.0
  0
POINT
  5
132
330
120
100
AcDbEntity
  8
001
370
     9
100
AcDbPoint
 10
99.711223
 20
94.553621
 30
0.0
  0
POINT
  5
133
330
120
100
AcDbEntity
  8
001
370
     9
100
AcDbPoint
 10
99.711223
 20
80.722083
 30
0.0
  0
LINE
  5
134
330
120
100
AcDbEntity
  8
001
370
     9
100
AcDbLine
 10
114.611223
 20
80.722083
 30
0.0
 11
117.111223
 21
80.722083
 31
0.0
  0
LINE
  5
135
330
120
100
AcDbEntity
  8
001
370
     9
100
AcDbLine
 10
99.711223
 20
80.722083
 30
0.0
 11
71.816141
 21
80.722083
 31
0.0
  0
ENDBLK
  5
122
330
120
100
AcDbEntity
  8
0
100
AcDbBlockEnd
  0
ENDSEC
  0
SECTION
  2
ENTITIES
  0
DIMENSION
  5
136
330
1F
100
AcDbEntity
  8
001
370
     9
100
AcDbDimension
  2
*D1
 10
124.711223
 20
72.678241
 30
0.0
 11
164.711223
 21
75.678241
 31
0.0
 70
   160
 71
     5
 42
-1.0
  3
Standard
100
AcDbAlignedDimension
 13
204.711223
 23
114.484562
 33
0.0
 14
124.711223
 24
100.884562
 34
0.0
 50
180.0
100
AcDbRotatedDimension
  0
DIMENSION
  5
137
330
1F
100
AcDbEntity
  8
001
370
     9
100
AcDbDimension
  2
*D2
 10
99.711223
 20
61.952907
 30
0.0
 11
152.211223
 21
64.952907
 31
0.0
 70
   160
 71
     5
 42
-1.0
  3
Standard
100
AcDbAlignedDimension
 13
204.711223
 23
114.484562
 33
0.0
 14
99.711223
 24
72.678241
 34
0.0
 50
180.0
100
AcDbRotatedDimension
  0
TEXT
  5
138
330
1F
100
AcDbEntity
  8
001
370
    30
100
AcDbText
 10
75.054273
 20
118.553621
 30
0.0
 40
4.0
  1
%%c６０
 50
90.000003
 41
0.882353
100
AcDbText
  0
POLYLINE
  5
139
330
1F
100
AcDbEntity
  8
001
370
     9
100
AcDb2dPolyline
 66
     1
 10
0.0
 20
0.0
 30
0.0
  0
VERTEX
  5
13B
330
139
100
AcDbEntity
  8
001
370
     9
100
AcDbVertex
100
AcDb2dVertex
 10
76.456197
 20
96.053621
 30
0.0
  0
VERTEX
  5
13C
330
139
100
AcDbEntity
  8
001
370
     9
100
AcDbVertex
100
AcDb2dVertex
 10
76.054273
 20
94.553621
 30
0.0
  0
VERTEX
  5
13D
330
139
100
AcDbEntity
  8
001
370
     9
100
AcDbVertex
100
AcDb2dVertex
 10
75.652349
 20
96.053621
 30
0.0
  0
SEQEND
  5
13A
330
139
100
AcDbEntity
  8
001
370
     9
  0
LINE
  5
13E
330
1F
100
AcDbEntity
  8
001
370
     9
100
AcDbLine
 10
76.054273
 20
94.553621
 30
0.0
 11
76.054273
 21
154.553621
 31
0.0
  0
POLYLINE
  5
13F
330
1F
100
AcDbEntity
  8
001
370
     9
100
AcDb2dPolyline
 66
     1
 10
0.0
 20
0.0
 30
0.0
  0
VERTEX
  5
141
330
13F
100
AcDbEntity
  8
001
370
     9
100
AcDbVertex
100
AcDb2dVertex
 10
95.231487
 20
94.553621
 30
0.0
  0
VERTEX
  5
142
330
13F
100
AcDbEntity
  8
001
370
     9
100
AcDbVertex
100
AcDb2dVertex
 10
76.054273
 20
94.553621
 30
0.0
  0
VERTEX
  5
143
330
13F
100
AcDbEntity
  8
001
370
     9
100
AcDbVertex
100
AcDb2dVertex
 10
73.304273
 20
94.553621
 30
0.0
  0
SEQEND
  5
140
330
13F
100
AcDbEntity
  8
001
370
     9
  0
DIMENSION
  5
144
330
1F
100
AcDbEntity
  8
001
370
     9
100
AcDbDimension
  2
*D3
 10
229.614868
 20
108.484562
 30
0.0
 11
226.614868
 21
124.484562
 31
0.0
 70
   160
 71
     5
 42
-1.0
  3
Standard
100
AcDbAlignedDimension
 13
198.711223
 23
140.484562
 33
0.0
 14
198.711223
 24
108.484562
 34
0.0
 50
270.0
100
AcDbRotatedDimension
  0
DIMENSION
  5
145
330
1F
100
AcDbEntity
  8
001
370
     9
100
AcDbDimension
  2
*D4
 10
299.614868
 20
299.90291
 30
0.0
 11
296.614868
 21
315.90291
 31
0.0
 70
   160
 71
     5
 42
-1.0
  3
Standard
100
AcDbAlignedDimension
 13
268.711223
 23
331.90291
 33
0.0
 14
268.711223
 24
299.90291
 34
0.0
 50
270.0
100
AcDbRotatedDimension
  0
TEXT
  5
146
330
1F
100
AcDbEntity
  8
001
370
    30
100
AcDbText
 10
108.211223
 20
73.678241
 30
0.0
 40
4.0
  1
２５
 41
0.833333
100
AcDbText
  0
POLYLINE
  5
147
330
1F
100
AcDbEntity
  8
001
370
     9
100
AcDb2dPolyline
 66
     1
 10
0.0
 20
0.0
 30
0.0
  0
VERTEX
  5
149
330
147
100
AcDbEntity
  8
001
370
     9
100
AcDbVertex
100
AcDb2dVertex
 10
123.211223
 20
73.080165
 30
0.0
  0
VERTEX
  5
14A
330
147
100
AcDbEntity
  8
001
370
     9
100
AcDbVertex
100
AcDb2dVertex
 10
124.711223
 20
72.678241
 30
0.0
  0
VERTEX
  5
14B
330
147
100
AcDbEntity
  8
001
370
     9
100
AcDbVertex
100
AcDb2dVertex
 10
123.211223
 20
72.276317
 30
0.0
  0
SEQEND
  5
148
330
147
100
AcDbEntity
  8
001
370
     9
  0
POLYLINE
  5
14C
330
1F
100
AcDbEntity
  8
001
370
     9
100
AcDb2dPolyline
 66
     1
 10
0.0
 20
0.0
 30
0.0
  0
VERTEX
  5
14E
330
14C
100
AcDbEntity
  8
001
370
     9
100
AcDbVertex
100
AcDb2dVertex
 10
101.211223
 20
72.276317
 30
0.0
  0
VERTEX
  5
14F
330
14C
100
AcDbEntity
  8
001
370
     9
100
AcDbVertex
100
AcDb2dVertex
 10
99.711223
 20
72.678241
 30
0.0
  0
VERTEX
  5
150
330
14C
100
AcDbEntity
  8
001
370
     9
100
AcDbVertex
100
AcDb2dVertex
 10
101.211223
 20
73.080165
 30
0.0
  0
SEQEND
  5
14D
330
14C
100
AcDbEntity
  8
001
370
     9
  0
LINE
  5
151
330
1F
100
AcDbEntity
  8
001
370
     9
100
AcDbLine
 10
124.711223
 20
72.678241
 30
0.0
 11
99.711223
 21
72.678241
 31
0.0
  0
POLYLINE
  5
152
330
1F
100
AcDbEntity
  8
001
370
     9
100
AcDb2dPolyline
 66
     1
 10
0.0
 20
0.0
 30
0.0
  0
VERTEX
  5
154
330
152
100
AcDbEntity
  8
001
370
     9
100
AcDbVertex
100
AcDb2dVertex
 10
99.711223
 20
90.712362
 30
0.0
  0
VERTEX
  5
155
330
152
100
AcDbEntity
  8
001
370
     9
100
AcDbVertex
100
AcDb2dVertex
 10
99.711223
 20
72.678241
 30
0.0
  0
VERTEX
  5
156
330
152
100
AcDbEntity
  8
001
370
     9
100
AcDbVertex
100
AcDb2dVertex
 10
99.711223
 20
69.928241
 30
0.0
  0
SEQEND
  5
153
330
152
100
AcDbEntity
  8
001
370
     9
  0
TEXT
  5
157
330
1F
100
AcDbEntity
  8
001
370
    30
100
AcDbText
 10
75.054273
 20
309.971969
 30
0.0
 40
4.0
  1
%%c６０
 50
90.000003
 41
0.882353
100
AcDbText
  0
POLYLINE
  5
158
330
1F
100
AcDbEntity
  8
001
370
     9
100
AcDb2dPolyline
 66
     1
 10
0.0
 20
0.0
 30
0.0
  0
VERTEX
  5
15A
330
158
100
AcDbEntity
  8
001
370
     9
100
AcDbVertex
100
AcDb2dVertex
 10
76.456197
 20
287.471969
 30
0.0
  0
VERTEX
  5
15B
330
158
100
AcDbEntity
  8
001
370
     9
100
AcDbVertex
100
AcDb2dVertex
 10
76.054273
 20
285.971969
 30
0.0
  0
VERTEX
  5
15C
330
158
100
AcDbEntity
  8
001
370
     9
100
AcDbVertex
100
AcDb2dVertex
 10
75.652349
 20
287.471969
 30
0.0
  0
SEQEND
  5
159
330
158
100
AcDbEntity
  8
001
370
     9
  0
LINE
  5
15D
330
1F
100
AcDbEntity
  8
001
370
     9
100
AcDbLine
 10
76.054273
 20
285.971969
 30
0.0
 11
76.054273
 21
345.971969
 31
0.0
  0
POLYLINE
  5
15E
330
1F
100
AcDbEntity
  8
001
370
     9
100
AcDb2dPolyline
 66
     1
 10
0.0
 20
0.0
 30
0.0
  0
VERTEX
  5
160
330
15E
100
AcDbEntity
  8
001
370
     9
100
AcDbVertex
100
AcDb2dVertex
 10
95.231487
 20
285.971969
 30
0.0
  0
VERTEX
  5
161
330
15E
100
AcDbEntity
  8
001
370
     9
100
AcDbVertex
100
AcDb2dVertex
 10
76.054273
 20
285.971969
 30
0.0
  0
VERTEX
  5
162
330
15E
100
AcDbEntity
  8
001
370
     9
100
AcDbVertex
100
AcDb2dVertex
 10
73.304273
 20
285.971969
 30
0.0
  0
SEQEND
  5
15F
330
15E
100
AcDbEntity
  8
001
370
     9
  0
TEXT
  5
163
330
1F
100
AcDbEntity
  8
001
370
    30
100
AcDbText
 10
108.211223
 20
265.096589
 30
0.0
 40
4.0
  1
２５
 41
0.833333
100
AcDbText
  0
POLYLINE
  5
164
330
1F
100
AcDbEntity
  8
001
370
     9
100
AcDb2dPolyline
 66
     1
 10
0.0
 20
0.0
 30
0.0
  0
VERTEX
  5
166
330
164
100
AcDbEntity
  8
001
370
     9
100
AcDbVertex
100
AcDb2dVertex
 10
123.211223
 20
264.498513
 30
0.0
  0
VERTEX
  5
167
330
164
100
AcDbEntity
  8
001
370
     9
100
AcDbVertex
100
AcDb2dVertex
 10
124.711223
 20
264.096589
 30
0.0
  0
VERTEX
  5
168
330
164
100
AcDbEntity
  8
001
370
     9
100
AcDbVertex
100
AcDb2dVertex
 10
123.211223
 20
263.694665
 30
0.0
  0
SEQEND
  5
165
330
164
100
AcDbEntity
  8
001
370
     9
  0
POLYLINE
  5
169
330
1F
100
AcDbEntity
  8
001
370
     9
100
AcDb2dPolyline
 66
     1
 10
0.0
 20
0.0
 30
0.0
  0
VERTEX
  5
16B
330
169
100
AcDbEntity
  8
001
370
     9
100
AcDbVertex
100
AcDb2dVertex
 10
101.211223
 20
263.694665
 30
0.0
  0
VERTEX
  5
16C
330
169
100
AcDbEntity
  8
001
370
     9
100
AcDbVertex
100
AcDb2dVertex
 10
99.711223
 20
264.096589
 30
0.0
  0
VERTEX
  5
16D
330
169
100
AcDbEntity
  8
001
370
     9
100
AcDbVertex
100
AcDb2dVertex
 10
101.211223
 20
264.498513
 30
0.0
  0
SEQEND
  5
16A
330
169
100
AcDbEntity
  8
001
370
     9
  0
LINE
  5
16E
330
1F
100
AcDbEntity
  8
001
370
     9
100
AcDbLine
 10
124.711223
 20
264.096589
 30
0.0
 11
99.711223
 21
264.096589
 31
0.0
  0
POLYLINE
  5
16F
330
1F
100
AcDbEntity
  8
001
370
     9
100
AcDb2dPolyline
 66
     1
 10
0.0
 20
0.0
 30
0.0
  0
VERTEX
  5
171
330
16F
100
AcDbEntity
  8
001
370
     9
100
AcDbVertex
100
AcDb2dVertex
 10
99.711223
 20
282.13071
 30
0.0
  0
VERTEX
  5
172
330
16F
100
AcDbEntity
  8
001
370
     9
100
AcDbVertex
100
AcDb2dVertex
 10
99.711223
 20
264.096589
 30
0.0
  0
VERTEX
  5
173
330
16F
100
AcDbEntity
  8
001
370
     9
100
AcDbVertex
100
AcDb2dVertex
 10
99.711223
 20
261.346589
 30
0.0
  0
SEQEND
  5
170
330
16F
100
AcDbEntity
  8
001
370
     9
  0
DIMENSION
  5
174
330
1F
100
AcDbEntity
  8
001
370
     9
100
AcDbDimension
  2
*D5
 10
99.711223
 20
253.371255
 30
0.0
 11
187.211223
 21
256.371255
 31
0.0
 70
   160
 71
     5
 42
-1.0
  3
Standard
100
AcDbAlignedDimension
 13
274.711223
 23
305.90291
 33
0.0
 14
99.711223
 24
264.096589
 34
0.0
 50
180.0
100
AcDbRotatedDimension
  0
DIMENSION
  5
175
330
1F
100
AcDbEntity
  8
001
370
     9
100
AcDbDimension
  2
*D6
 10
124.711223
 20
264.096589
 30
0.0
 11
199.711223
 21
267.096589
 31
0.0
 70
   160
 71
     5
 42
-1.0
  3
Standard
100
AcDbAlignedDimension
 13
274.711223
 23
305.90291
 33
0.0
 14
124.711223
 24
292.30291
 34
0.0
 50
180.0
100
AcDbRotatedDimension
  0
ARC
  5
176
330
1F
100
AcDbEntity
  8
001
370
     9
100
AcDbCircle
 10
102.711223
 20
288.971896
 30
0.0
 40
2.999999999999993
100
AcDbArc
 50
113.946727
 51
175.4
  0
TEXT
  5
177
330
1F
100
AcDbEntity
  8
001
370
    30
100
AcDbText
 10
61.936068
 20
297.378618
 30
0.0
 40
4.0
  1
Ｒ３
 41
0.833333
100
AcDbText
  0
POLYLINE
  5
178
330
1F
100
AcDbEntity
  8
001
370
     9
100
AcDb2dPolyline
 66
     1
 10
0.0
 20
0.0
 30
0.0
  0
VERTEX
  5
17A
330
178
100
AcDbEntity
  8
001
370
     9
100
AcDbVertex
100
AcDb2dVertex
 10
98.430195
 20
290.41562
 30
0.0
  0
VERTEX
  5
17B
330
178
100
AcDbEntity
  8
001
370
     9
100
AcDbVertex
100
AcDb2dVertex
 10
99.794506
 20
289.673868
 30
0.0
  0
VERTEX
  5
17C
330
178
100
AcDbEntity
  8
001
370
     9
100
AcDbVertex
100
AcDb2dVertex
 10
98.242102
 20
289.634088
 30
0.0
  0
SEQEND
  5
179
330
178
100
AcDbEntity
  8
001
370
     9
  0
POLYLINE
  5
17D
330
1F
100
AcDbEntity
  8
001
370
     9
100
AcDb2dPolyline
 66
     1
 10
0.0
 20
0.0
 30
0.0
  0
VERTEX
  5
17F
330
17D
100
AcDbEntity
  8
001
370
     9
100
AcDbVertex
100
AcDb2dVertex
 10
99.794506
 20
289.673868
 30
0.0
  0
VERTEX
  5
180
330
17D
100
AcDbEntity
  8
001
370
     9
100
AcDbVertex
100
AcDb2dVertex
 10
71.936068
 20
296.378618
 30
0.0
  0
VERTEX
  5
181
330
17D
100
AcDbEntity
  8
001
370
     9
100
AcDbVertex
100
AcDb2dVertex
 10
59.936068
 20
296.378618
 30
0.0
  0
SEQEND
  5
17E
330
17D
100
AcDbEntity
  8
001
370
     9
  0
DIMENSION
  5
182
330
1F
100
AcDbEntity
  8
001
370
     9
100
AcDbDimension
  2
*D7
 10
99.711223
 20
285.971969
 30
0.0
 11
94.117042
 21
280.377787
 31
0.0
 70
    34
 71
     5
 42
-1.0
  3
Standard
100
AcDb2LineAngularDimension
 13
99.711223
 23
282.13071
 33
0.0
 14
99.711223
 24
285.971969
 34
0.0
 15
95.231487
 25
285.971969
 35
0.0
 16
91.995722
 26
278.256468
 36
0.0
  0
DIMENSION
  5
183
330
1F
100
AcDbEntity
  8
001
370
     9
100
AcDbDimension
  2
*D8
 10
99.711223
 20
94.553621
 30
0.0
 11
95.223018
 21
90.065415
 31
0.0
 70
    34
 71
     5
 42
-1.0
  3
Standard
100
AcDb2LineAngularDimension
 13
99.711223
 23
90.712362
 33
0.0
 14
99.711223
 24
94.553621
 34
0.0
 15
95.231487
 25
94.553621
 35
0.0
 16
93.101698
 26
87.944096
 36
0.0
  0
ARC
  5
184
330
1F
100
AcDbEntity
  8
001
370
     9
100
AcDbCircle
 10
102.711223
 20
97.553547
 30
0.0
 40
2.999999999999993
100
AcDbArc
 50
110.778623
 51
175.4
  0
TEXT
  5
185
330
1F
100
AcDbEntity
  8
001
370
    30
100
AcDbText
 10
62.220647
 20
107.701301
 30
0.0
 40
4.0
  1
Ｒ３
 41
0.833333
100
AcDbText
  0
POLYLINE
  5
186
330
1F
100
AcDbEntity
  8
001
370
     9
100
AcDb2dPolyline
 66
     1
 10
0.0
 20
0.0
 30
0.0
  0
VERTEX
  5
188
330
186
100
AcDbEntity
  8
001
370
     9
100
AcDbVertex
100
AcDb2dVertex
 10
98.516526
 20
99.231659
 30
0.0
  0
VERTEX
  5
189
330
186
100
AcDbEntity
  8
001
370
     9
100
AcDbVertex
100
AcDb2dVertex
 10
99.837759
 20
98.415641
 30
0.0
  0
VERTEX
  5
18A
330
186
100
AcDbEntity
  8
001
370
     9
100
AcDbVertex
100
AcDb2dVertex
 10
98.285528
 20
98.461717
 30
0.0
  0
SEQEND
  5
187
330
186
100
AcDbEntity
  8
001
370
     9
  0
POLYLINE
  5
18B
330
1F
100
AcDbEntity
  8
001
370
     9
100
AcDb2dPolyline
 66
     1
 10
0.0
 20
0.0
 30
0.0
  0
VERTEX
  5
18D
330
18B
100
AcDbEntity
  8
001
370
     9
100
AcDbVertex
100
AcDb2dVertex
 10
99.837759
 20
98.415641
 30
0.0
  0
VERTEX
  5
18E
330
18B
100
AcDbEntity
  8
001
370
     9
100
AcDbVertex
100
AcDb2dVertex
 10
72.220647
 20
106.701301
 30
0.0
  0
VERTEX
  5
18F
330
18B
100
AcDbEntity
  8
001
370
     9
100
AcDbVertex
100
AcDb2dVertex
 10
60.220647
 20
106.701301
 30
0.0
  0
SEQEND
  5
18C
330
18B
100
AcDbEntity
  8
001
370
     9
  0
DIMENSION
  5
190
330
1F
100
AcDbEntity
  8
001
370
     9
100
AcDbDimension
  2
*D9
 10
99.711223
 20
271.691191
 30
0.0
 11
83.11227
 21
274.691191
 31
0.0
 70
   160
 71
     5
 42
-1.0
  3
Standard
100
AcDbAlignedDimension
 13
114.611223
 23
286.054901
 33
0.0
 14
99.711223
 24
282.13071
 34
0.0
 50
180.0
100
AcDbRotatedDimension
  0
DIMENSION
  5
191
330
1F
100
AcDbEntity
  8
001
370
     9
100
AcDbDimension
  2
*D10
 10
99.711223
 20
80.722083
 30
0.0
 11
82.816141
 21
83.722083
 31
0.0
 70
   160
 71
     5
 42
-1.0
  3
Standard
100
AcDbAlignedDimension
 13
114.611223
 23
94.636553
 33
0.0
 14
99.711223
 24
94.553621
 34
0.0
 50
180.0
100
AcDbRotatedDimension
  0
TEXT
  5
192
330
1F
100
AcDbEntity
  8
001
370
    30
100
AcDbText
 10
418.359557
 20
98.838546
 30
0.0
 40
4.0
  1
%%c６０
 50
90.000003
 41
0.882353
100
AcDbText
  0
POLYLINE
  5
193
330
1F
100
AcDbEntity
  8
001
370
     9
100
AcDb2dPolyline
 66
     1
 10
0.0
 20
0.0
 30
0.0
  0
VERTEX
  5
195
330
193
100
AcDbEntity
  8
001
370
     9
100
AcDbVertex
100
AcDb2dVertex
 10
419.761481
 20
76.338546
 30
0.0
  0
VERTEX
  5
196
330
193
100
AcDbEntity
  8
001
370
     9
100
AcDbVertex
100
AcDb2dVertex
 10
419.359557
 20
74.838546
 30
0.0
  0
VERTEX
  5
197
330
193
100
AcDbEntity
  8
001
370
     9
100
AcDbVertex
100
AcDb2dVertex
 10
418.957633
 20
76.338546
 30
0.0
  0
SEQEND
  5
194
330
193
100
AcDbEntity
  8
001
370
     9
  0
LINE
  5
198
330
1F
100
AcDbEntity
  8
001
370
     9
100
AcDbLine
 10
419.359557
 20
74.838546
 30
0.0
 11
419.359557
 21
134.838546
 31
0.0
  0
POLYLINE
  5
199
330
1F
100
AcDbEntity
  8
001
370
     9
100
AcDb2dPolyline
 66
     1
 10
0.0
 20
0.0
 30
0.0
  0
VERTEX
  5
19B
330
199
100
AcDbEntity
  8
001
370
     9
100
AcDbVertex
100
AcDb2dVertex
 10
438.536771
 20
74.838546
 30
0.0
  0
VERTEX
  5
19C
330
199
100
AcDbEntity
  8
001
370
     9
100
AcDbVertex
100
AcDb2dVertex
 10
419.359557
 20
74.838546
 30
0.0
  0
VERTEX
  5
19D
330
199
100
AcDbEntity
  8
001
370
     9
100
AcDbVertex
100
AcDb2dVertex
 10
416.609557
 20
74.838546
 30
0.0
  0
SEQEND
  5
19A
330
199
100
AcDbEntity
  8
001
370
     9
  0
TEXT
  5
19E
330
1F
100
AcDbEntity
  8
001
370
    30
100
AcDbText
 10
412.588525
 20
61.534323
 30
0.0
 40
4.0
  1
Ｒ３．５
 41
0.833333
100
AcDbText
  0
POLYLINE
  5
19F
330
1F
100
AcDbEntity
  8
001
370
     9
100
AcDb2dPolyline
 66
     1
 10
0.0
 20
0.0
 30
0.0
  0
VERTEX
  5
1A1
330
19F
100
AcDbEntity
  8
001
370
     9
100
AcDbVertex
100
AcDb2dVertex
 10
442.435284
 20
74.822586
 30
0.0
  0
VERTEX
  5
1A2
330
19F
100
AcDbEntity
  8
001
370
     9
100
AcDbVertex
100
AcDb2dVertex
 10
443.721248
 20
75.693125
 30
0.0
  0
VERTEX
  5
1A3
330
19F
100
AcDbEntity
  8
001
370
     9
100
AcDbVertex
100
AcDb2dVertex
 10
443.04284
 20
74.296234
 30
0.0
  0
SEQEND
  5
1A0
330
19F
100
AcDbEntity
  8
001
370
     9
  0
POLYLINE
  5
1A4
330
1F
100
AcDbEntity
  8
001
370
     9
100
AcDb2dPolyline
 66
     1
 10
0.0
 20
0.0
 30
0.0
  0
VERTEX
  5
1A6
330
1A4
100
AcDbEntity
  8
001
370
     9
100
AcDbVertex
100
AcDb2dVertex
 10
443.721248
 20
75.693125
 30
0.0
  0
VERTEX
  5
1A7
330
1A4
100
AcDbEntity
  8
001
370
     9
100
AcDbVertex
100
AcDb2dVertex
 10
430.588525
 20
60.534323
 30
0.0
  0
VERTEX
  5
1A8
330
1A4
100
AcDbEntity
  8
001
370
     9
100
AcDbVertex
100
AcDb2dVertex
 10
410.588525
 20
60.534323
 30
0.0
  0
SEQEND
  5
1A5
330
1A4
100
AcDbEntity
  8
001
370
     9
  0
TEXT
  5
1A9
330
1F
100
AcDbEntity
  8
001
370
    30
100
AcDbText
 10
418.905198
 20
198.538635
 30
0.0
 40
4.0
  1
%%c６０
 50
90.000003
 41
0.882353
100
AcDbText
  0
POLYLINE
  5
1AA
330
1F
100
AcDbEntity
  8
001
370
     9
100
AcDb2dPolyline
 66
     1
 10
0.0
 20
0.0
 30
0.0
  0
VERTEX
  5
1AC
330
1AA
100
AcDbEntity
  8
001
370
     9
100
AcDbVertex
100
AcDb2dVertex
 10
420.307122
 20
176.038635
 30
0.0
  0
VERTEX
  5
1AD
330
1AA
100
AcDbEntity
  8
001
370
     9
100
AcDbVertex
100
AcDb2dVertex
 10
419.905198
 20
174.538635
 30
0.0
  0
VERTEX
  5
1AE
330
1AA
100
AcDbEntity
  8
001
370
     9
100
AcDbVertex
100
AcDb2dVertex
 10
419.503274
 20
176.038635
 30
0.0
  0
SEQEND
  5
1AB
330
1AA
100
AcDbEntity
  8
001
370
     9
  0
LINE
  5
1AF
330
1F
100
AcDbEntity
  8
001
370
     9
100
AcDbLine
 10
419.905198
 20
174.538635
 30
0.0
 11
419.905198
 21
234.538635
 31
0.0
  0
POLYLINE
  5
1B0
330
1F
100
AcDbEntity
  8
001
370
     9
100
AcDb2dPolyline
 66
     1
 10
0.0
 20
0.0
 30
0.0
  0
VERTEX
  5
1B2
330
1B0
100
AcDbEntity
  8
001
370
     9
100
AcDbVertex
100
AcDb2dVertex
 10
439.082412
 20
174.538635
 30
0.0
  0
VERTEX
  5
1B3
330
1B0
100
AcDbEntity
  8
001
370
     9
100
AcDbVertex
100
AcDb2dVertex
 10
419.905198
 20
174.538635
 30
0.0
  0
VERTEX
  5
1B4
330
1B0
100
AcDbEntity
  8
001
370
     9
100
AcDbVertex
100
AcDb2dVertex
 10
417.155198
 20
174.538635
 30
0.0
  0
SEQEND
  5
1B1
330
1B0
100
AcDbEntity
  8
001
370
     9
  0
TEXT
  5
1B5
330
1F
100
AcDbEntity
  8
001
370
    30
100
AcDbText
 10
419.450839
 20
286.963546
 30
0.0
 40
4.0
  1
%%c６０
 50
90.000003
 41
0.882353
100
AcDbText
  0
POLYLINE
  5
1B6
330
1F
100
AcDbEntity
  8
001
370
     9
100
AcDb2dPolyline
 66
     1
 10
0.0
 20
0.0
 30
0.0
  0
VERTEX
  5
1B8
330
1B6
100
AcDbEntity
  8
001
370
     9
100
AcDbVertex
100
AcDb2dVertex
 10
420.852763
 20
264.463546
 30
0.0
  0
VERTEX
  5
1B9
330
1B6
100
AcDbEntity
  8
001
370
     9
100
AcDbVertex
100
AcDb2dVertex
 10
420.450839
 20
262.963546
 30
0.0
  0
VERTEX
  5
1BA
330
1B6
100
AcDbEntity
  8
001
370
     9
100
AcDbVertex
100
AcDb2dVertex
 10
420.048915
 20
264.463546
 30
0.0
  0
SEQEND
  5
1B7
330
1B6
100
AcDbEntity
  8
001
370
     9
  0
LINE
  5
1BB
330
1F
100
AcDbEntity
  8
001
370
     9
100
AcDbLine
 10
420.450839
 20
262.963546
 30
0.0
 11
420.450839
 21
322.963546
 31
0.0
  0
POLYLINE
  5
1BC
330
1F
100
AcDbEntity
  8
001
370
     9
100
AcDb2dPolyline
 66
     1
 10
0.0
 20
0.0
 30
0.0
  0
VERTEX
  5
1BE
330
1BC
100
AcDbEntity
  8
001
370
     9
100
AcDbVertex
100
AcDb2dVertex
 10
439.628052
 20
262.963546
 30
0.0
  0
VERTEX
  5
1BF
330
1BC
100
AcDbEntity
  8
001
370
     9
100
AcDbVertex
100
AcDb2dVertex
 10
420.450839
 20
262.963546
 30
0.0
  0
VERTEX
  5
1C0
330
1BC
100
AcDbEntity
  8
001
370
     9
100
AcDbVertex
100
AcDb2dVertex
 10
417.700839
 20
262.963546
 30
0.0
  0
SEQEND
  5
1BD
330
1BC
100
AcDbEntity
  8
001
370
     9
  0
TEXT
  5
1C1
330
1F
100
AcDbEntity
  8
001
370
    30
100
AcDbText
 10
405.766856
 20
161.311116
 30
0.0
 40
4.0
  1
Ｒ４
 41
0.833333
100
AcDbText
  0
POLYLINE
  5
1C2
330
1F
100
AcDbEntity
  8
001
370
     9
100
AcDb2dPolyline
 66
     1
 10
0.0
 20
0.0
 30
0.0
  0
VERTEX
  5
1C4
330
1C2
100
AcDbEntity
  8
001
370
     9
100
AcDbVertex
100
AcDb2dVertex
 10
441.617627
 20
176.082474
 30
0.0
  0
VERTEX
  5
1C5
330
1C2
100
AcDbEntity
  8
001
370
     9
100
AcDbVertex
100
AcDb2dVertex
 10
443.113142
 20
176.500777
 30
0.0
  0
VERTEX
  5
1C6
330
1C2
100
AcDbEntity
  8
001
370
     9
100
AcDbVertex
100
AcDb2dVertex
 10
442.027139
 20
175.390758
 30
0.0
  0
SEQEND
  5
1C3
330
1C2
100
AcDbEntity
  8
001
370
     9
  0
POLYLINE
  5
1C7
330
1F
100
AcDbEntity
  8
001
370
     9
100
AcDb2dPolyline
 66
     1
 10
0.0
 20
0.0
 30
0.0
  0
VERTEX
  5
1C9
330
1C7
100
AcDbEntity
  8
001
370
     9
100
AcDbVertex
100
AcDb2dVertex
 10
443.113142
 20
176.500777
 30
0.0
  0
VERTEX
  5
1CA
330
1C7
100
AcDbEntity
  8
001
370
     9
100
AcDbVertex
100
AcDb2dVertex
 10
415.766856
 20
160.311116
 30
0.0
  0
VERTEX
  5
1CB
330
1C7
100
AcDbEntity
  8
001
370
     9
100
AcDbVertex
100
AcDb2dVertex
 10
403.766856
 20
160.311116
 30
0.0
  0
SEQEND
  5
1C8
330
1C7
100
AcDbEntity
  8
001
370
     9
  0
TEXT
  5
1CC
330
1F
100
AcDbEntity
  8
001
370
    30
100
AcDbText
 10
409.017046
 20
251.738767
 30
0.0
 40
4.0
  1
Ｒ４．５
 41
0.833333
100
AcDbText
  0
POLYLINE
  5
1CD
330
1F
100
AcDbEntity
  8
001
370
     9
100
AcDb2dPolyline
 66
     1
 10
0.0
 20
0.0
 30
0.0
  0
VERTEX
  5
1CF
330
1CD
100
AcDbEntity
  8
001
370
     9
100
AcDbVertex
100
AcDb2dVertex
 10
442.229761
 20
263.932368
 30
0.0
  0
VERTEX
  5
1D0
330
1CD
100
AcDbEntity
  8
001
370
     9
100
AcDbVertex
100
AcDb2dVertex
 10
443.639568
 20
264.58351
 30
0.0
  0
VERTEX
  5
1D1
330
1CD
100
AcDbEntity
  8
001
370
     9
100
AcDbVertex
100
AcDb2dVertex
 10
442.74421
 20
263.314701
 30
0.0
  0
SEQEND
  5
1CE
330
1CD
100
AcDbEntity
  8
001
370
     9
  0
POLYLINE
  5
1D2
330
1F
100
AcDbEntity
  8
001
370
     9
100
AcDb2dPolyline
 66
     1
 10
0.0
 20
0.0
 30
0.0
  0
VERTEX
  5
1D4
330
1D2
100
AcDbEntity
  8
001
370
     9
100
AcDbVertex
100
AcDb2dVertex
 10
443.639568
 20
264.58351
 30
0.0
  0
VERTEX
  5
1D5
330
1D2
100
AcDbEntity
  8
001
370
     9
100
AcDbVertex
100
AcDb2dVertex
 10
427.017046
 20
250.738767
 30
0.0
  0
VERTEX
  5
1D6
330
1D2
100
AcDbEntity
  8
001
370
     9
100
AcDbVertex
100
AcDb2dVertex
 10
407.017046
 20
250.738767
 30
0.0
  0
SEQEND
  5
1D3
330
1D2
100
AcDbEntity
  8
001
370
     9
  0
TEXT
  5
1D7
330
1F
100
AcDbEntity
  8
001
370
    30
100
AcDbText
 10
419.99648
 20
379.627936
 30
0.0
 40
4.0
  1
%%c６０
 50
90.000003
 41
0.882353
100
AcDbText
  0
POLYLINE
  5
1D8
330
1F
100
AcDbEntity
  8
001
370
     9
100
AcDb2dPolyline
 66
     1
 10
0.0
 20
0.0
 30
0.0
  0
VERTEX
  5
1DA
330
1D8
100
AcDbEntity
  8
001
370
     9
100
AcDbVertex
100
AcDb2dVertex
 10
421.398404
 20
357.127936
 30
0.0
  0
VERTEX
  5
1DB
330
1D8
100
AcDbEntity
  8
001
370
     9
100
AcDbVertex
100
AcDb2dVertex
 10
420.99648
 20
355.627936
 30
0.0
  0
VERTEX
  5
1DC
330
1D8
100
AcDbEntity
  8
001
370
     9
100
AcDbVertex
100
AcDb2dVertex
 10
420.594556
 20
357.127936
 30
0.0
  0
SEQEND
  5
1D9
330
1D8
100
AcDbEntity
  8
001
370
     9
  0
LINE
  5
1DD
330
1F
100
AcDbEntity
  8
001
370
     9
100
AcDbLine
 10
420.99648
 20
355.627936
 30
0.0
 11
420.99648
 21
415.627936
 31
0.0
  0
POLYLINE
  5
1DE
330
1F
100
AcDbEntity
  8
001
370
     9
100
AcDb2dPolyline
 66
     1
 10
0.0
 20
0.0
 30
0.0
  0
VERTEX
  5
1E0
330
1DE
100
AcDbEntity
  8
001
370
     9
100
AcDbVertex
100
AcDb2dVertex
 10
440.173693
 20
355.627936
 30
0.0
  0
VERTEX
  5
1E1
330
1DE
100
AcDbEntity
  8
001
370
     9
100
AcDbVertex
100
AcDb2dVertex
 10
420.99648
 20
355.627936
 30
0.0
  0
VERTEX
  5
1E2
330
1DE
100
AcDbEntity
  8
001
370
     9
100
AcDbVertex
100
AcDb2dVertex
 10
418.24648
 20
355.627936
 30
0.0
  0
SEQEND
  5
1DF
330
1DE
100
AcDbEntity
  8
001
370
     9
  0
TEXT
  5
1E3
330
1F
100
AcDbEntity
  8
001
370
    30
100
AcDbText
 10
417.65402
 20
346.950429
 30
0.0
 40
4.0
  1
Ｒ５
 41
0.833333
100
AcDbText
  0
POLYLINE
  5
1E4
330
1F
100
AcDbEntity
  8
001
370
     9
100
AcDb2dPolyline
 66
     1
 10
0.0
 20
0.0
 30
0.0
  0
VERTEX
  5
1E6
330
1E4
100
AcDbEntity
  8
001
370
     9
100
AcDbVertex
100
AcDb2dVertex
 10
442.162601
 20
357.104253
 30
0.0
  0
VERTEX
  5
1E7
330
1E4
100
AcDbEntity
  8
001
370
     9
100
AcDbVertex
100
AcDb2dVertex
 10
443.6095
 20
357.668191
 30
0.0
  0
VERTEX
  5
1E8
330
1E4
100
AcDbEntity
  8
001
370
     9
100
AcDbVertex
100
AcDb2dVertex
 10
442.638418
 20
356.456357
 30
0.0
  0
SEQEND
  5
1E5
330
1E4
100
AcDbEntity
  8
001
370
     9
  0
POLYLINE
  5
1E9
330
1F
100
AcDbEntity
  8
001
370
     9
100
AcDb2dPolyline
 66
     1
 10
0.0
 20
0.0
 30
0.0
  0
VERTEX
  5
1EB
330
1E9
100
AcDbEntity
  8
001
370
     9
100
AcDbVertex
100
AcDb2dVertex
 10
443.6095
 20
357.668191
 30
0.0
  0
VERTEX
  5
1EC
330
1E9
100
AcDbEntity
  8
001
370
     9
100
AcDbVertex
100
AcDb2dVertex
 10
427.65402
 20
345.950429
 30
0.0
  0
VERTEX
  5
1ED
330
1E9
100
AcDbEntity
  8
001
370
     9
100
AcDbVertex
100
AcDb2dVertex
 10
415.65402
 20
345.950429
 30
0.0
  0
SEQEND
  5
1EA
330
1E9
100
AcDbEntity
  8
001
370
     9
  0
POLYLINE
  5
1EE
330
1F
100
AcDbEntity
  8
001
370
    50
100
AcDb2dPolyline
 66
     1
 10
0.0
 20
0.0
 30
0.0
  0
VERTEX
  5
1F0
330
1EE
100
AcDbEntity
  8
001
370
    50
100
AcDbVertex
100
AcDb2dVertex
 10
115.592286
 20
112.484562
 30
0.0
  0
VERTEX
  5
1F1
330
1EE
100
AcDbEntity
  8
001
370
    50
100
AcDbVertex
100
AcDb2dVertex
 10
116.107467
 20
112.47289
 30
0.0
  0
VERTEX
  5
1F2
330
1EE
100
AcDbEntity
  8
001
370
    50
100
AcDbVertex
100
AcDb2dVertex
 10
116.62202
 20
112.450055
 30
0.0
  0
VERTEX
  5
1F3
330
1EE
100
AcDbEntity
  8
001
370
    50
100
AcDbVertex
100
AcDb2dVertex
 10
117.137716
 20
112.407109
 30
0.0
  0
VERTEX
  5
1F4
330
1EE
100
AcDbEntity
  8
001
370
    50
100
AcDbVertex
100
AcDb2dVertex
 10
117.651754
 20
112.345271
 30
0.0
  0
VERTEX
  5
1F5
330
1EE
100
AcDbEntity
  8
001
370
    50
100
AcDbVertex
100
AcDb2dVertex
 10
118.171629
 20
112.265557
 30
0.0
  0
VERTEX
  5
1F6
330
1EE
100
AcDbEntity
  8
001
370
    50
100
AcDbVertex
100
AcDb2dVertex
 10
118.687802
 20
112.166103
 30
0.0
  0
VERTEX
  5
1F7
330
1EE
100
AcDbEntity
  8
001
370
    50
100
AcDbVertex
100
AcDb2dVertex
 10
119.200842
 20
112.045181
 30
0.0
  0
VERTEX
  5
1F8
330
1EE
100
AcDbEntity
  8
001
370
    50
100
AcDbVertex
100
AcDb2dVertex
 10
119.711223
 20
111.912319
 30
0.0
  0
SEQEND
  5
1EF
330
1EE
100
AcDbEntity
  8
001
370
    50
  0
POLYLINE
  5
1F9
330
1F
100
AcDbEntity
  8
001
370
    50
100
AcDb2dPolyline
 66
     1
 10
0.0
 20
0.0
 30
0.0
  0
VERTEX
  5
1FB
330
1F9
100
AcDbEntity
  8
001
370
    50
100
AcDbVertex
100
AcDb2dVertex
 10
119.711223
 20
111.912319
 30
0.0
  0
VERTEX
  5
1FC
330
1F9
100
AcDbEntity
  8
001
370
    50
100
AcDbVertex
100
AcDb2dVertex
 10
120.087108
 20
111.795318
 30
0.0
  0
VERTEX
  5
1FD
330
1F9
100
AcDbEntity
  8
001
370
    50
100
AcDbVertex
100
AcDb2dVertex
 10
120.460341
 20
111.67055
 30
0.0
  0
VERTEX
  5
1FE
330
1F9
100
AcDbEntity
  8
001
370
    50
100
AcDbVertex
100
AcDb2dVertex
 10
120.809329
 20
111.5395
 30
0.0
  0
VERTEX
  5
1FF
330
1F9
100
AcDbEntity
  8
001
370
    50
100
AcDbVertex
100
AcDb2dVertex
 10
121.153392
 20
111.395805
 30
0.0
  0
VERTEX
  5
200
330
1F9
100
AcDbEntity
  8
001
370
    50
100
AcDbVertex
100
AcDb2dVertex
 10
121.411979
 20
111.278532
 30
0.0
  0
VERTEX
  5
201
330
1F9
100
AcDbEntity
  8
001
370
    50
100
AcDbVertex
100
AcDb2dVertex
 10
121.667279
 20
111.15434
 30
0.0
  0
VERTEX
  5
202
330
1F9
100
AcDbEntity
  8
001
370
    50
100
AcDbVertex
100
AcDb2dVertex
 10
121.902806
 20
111.031654
 30
0.0
  0
VERTEX
  5
203
330
1F9
100
AcDbEntity
  8
001
370
    50
100
AcDbVertex
100
AcDb2dVertex
 10
122.134889
 20
110.902562
 30
0.0
  0
VERTEX
  5
204
330
1F9
100
AcDbEntity
  8
001
370
    50
100
AcDbVertex
100
AcDb2dVertex
 10
122.34625
 20
110.777377
 30
0.0
  0
VERTEX
  5
205
330
1F9
100
AcDbEntity
  8
001
370
    50
100
AcDbVertex
100
AcDb2dVertex
 10
122.55414
 20
110.646506
 30
0.0
  0
VERTEX
  5
206
330
1F9
100
AcDbEntity
  8
001
370
    50
100
AcDbVertex
100
AcDb2dVertex
 10
122.826534
 20
110.462124
 30
0.0
  0
VERTEX
  5
207
330
1F9
100
AcDbEntity
  8
001
370
    50
100
AcDbVertex
100
AcDb2dVertex
 10
123.091373
 20
110.267002
 30
0.0
  0
VERTEX
  5
208
330
1F9
100
AcDbEntity
  8
001
370
    50
100
AcDbVertex
100
AcDb2dVertex
 10
123.319393
 20
110.084566
 30
0.0
  0
VERTEX
  5
209
330
1F9
100
AcDbEntity
  8
001
370
    50
100
AcDbVertex
100
AcDb2dVertex
 10
123.539815
 20
109.893126
 30
0.0
  0
VERTEX
  5
20A
330
1F9
100
AcDbEntity
  8
001
370
    50
100
AcDbVertex
100
AcDb2dVertex
 10
123.726216
 20
109.717474
 30
0.0
  0
VERTEX
  5
20B
330
1F9
100
AcDbEntity
  8
001
370
    50
100
AcDbVertex
100
AcDb2dVertex
 10
123.90557
 20
109.534425
 30
0.0
  0
VERTEX
  5
20C
330
1F9
100
AcDbEntity
  8
001
370
    50
100
AcDbVertex
100
AcDb2dVertex
 10
124.110274
 20
109.304545
 30
0.0
  0
VERTEX
  5
20D
330
1F9
100
AcDbEntity
  8
001
370
    50
100
AcDbVertex
100
AcDb2dVertex
 10
124.29966
 20
109.062529
 30
0.0
  0
VERTEX
  5
20E
330
1F9
100
AcDbEntity
  8
001
370
    50
100
AcDbVertex
100
AcDb2dVertex
 10
124.436791
 20
108.859979
 30
0.0
  0
VERTEX
  5
20F
330
1F9
100
AcDbEntity
  8
001
370
    50
100
AcDbVertex
100
AcDb2dVertex
 10
124.560094
 20
108.647398
 30
0.0
  0
VERTEX
  5
210
330
1F9
100
AcDbEntity
  8
001
370
    50
100
AcDbVertex
100
AcDb2dVertex
 10
124.638856
 20
108.482786
 30
0.0
  0
VERTEX
  5
211
330
1F9
100
AcDbEntity
  8
001
370
    50
100
AcDbVertex
100
AcDb2dVertex
 10
124.692347
 20
108.310273
 30
0.0
  0
VERTEX
  5
212
330
1F9
100
AcDbEntity
  8
001
370
    50
100
AcDbVertex
100
AcDb2dVertex
 10
124.703404
 20
108.240447
 30
0.0
  0
VERTEX
  5
213
330
1F9
100
AcDbEntity
  8
001
370
    50
100
AcDbVertex
100
AcDb2dVertex
 10
124.711223
 20
108.169897
 30
0.0
  0
SEQEND
  5
1FA
330
1F9
100
AcDbEntity
  8
001
370
    50
  0
LINE
  5
214
330
1F
100
AcDbEntity
  8
001
  6
DASHED
370
    30
100
AcDbLine
 10
102.200243
 20
134.484562
 30
0.0
 11
102.200243
 21
114.484562
 31
0.0
  0
LINE
  5
215
330
1F
100
AcDbEntity
  8
001
  6
DASHED
370
    50
100
AcDbLine
 10
100.41944
 20
126.135704
 30
0.0
 11
100.41944
 21
126.137141
 31
0.0
  0
POLYLINE
  5
216
330
1F
100
AcDbEntity
  8
001
370
    50
100
AcDb2dPolyline
 66
     1
 10
0.0
 20
0.0
 30
0.0
  0
VERTEX
  5
218
330
216
100
AcDbEntity
  8
001
370
    50
100
AcDbVertex
100
AcDb2dVertex
 10
124.711223
 20
107.218464
 30
0.0
  0
VERTEX
  5
219
330
216
100
AcDbEntity
  8
001
370
    50
100
AcDbVertex
100
AcDb2dVertex
 10
124.711268
 20
107.209811
 30
0.0
  0
VERTEX
  5
21A
330
216
100
AcDbEntity
  8
001
370
    50
100
AcDbVertex
100
AcDb2dVertex
 10
124.711336
 20
107.201158
 30
0.0
  0
VERTEX
  5
21B
330
216
100
AcDbEntity
  8
001
370
    50
100
AcDbVertex
100
AcDb2dVertex
 10
124.72009
 20
107.032389
 30
0.0
  0
VERTEX
  5
21C
330
216
100
AcDbEntity
  8
001
370
    50
100
AcDbVertex
100
AcDb2dVertex
 10
124.738347
 20
106.86416
 30
0.0
  0
VERTEX
  5
21D
330
216
100
AcDbEntity
  8
001
370
    50
100
AcDbVertex
100
AcDb2dVertex
 10
124.763258
 20
106.671526
 30
0.0
  0
VERTEX
  5
21E
330
216
100
AcDbEntity
  8
001
370
    50
100
AcDbVertex
100
AcDb2dVertex
 10
124.788626
 20
106.479053
 30
0.0
  0
VERTEX
  5
21F
330
216
100
AcDbEntity
  8
001
370
    50
100
AcDbVertex
100
AcDb2dVertex
 10
124.833785
 20
106.073743
 30
0.0
  0
VERTEX
  5
220
330
216
100
AcDbEntity
  8
001
370
    50
100
AcDbVertex
100
AcDb2dVertex
 10
124.860125
 20
105.666828
 30
0.0
  0
VERTEX
  5
221
330
216
100
AcDbEntity
  8
001
370
    50
100
AcDbVertex
100
AcDb2dVertex
 10
124.861492
 20
105.27324
 30
0.0
  0
VERTEX
  5
222
330
216
100
AcDbEntity
  8
001
370
    50
100
AcDbVertex
100
AcDb2dVertex
 10
124.839968
 20
104.880204
 30
0.0
  0
VERTEX
  5
223
330
216
100
AcDbEntity
  8
001
370
    50
100
AcDbVertex
100
AcDb2dVertex
 10
124.799734
 20
104.492243
 30
0.0
  0
VERTEX
  5
224
330
216
100
AcDbEntity
  8
001
370
    50
100
AcDbVertex
100
AcDb2dVertex
 10
124.749464
 20
104.105349
 30
0.0
  0
SEQEND
  5
217
330
216
100
AcDbEntity
  8
001
370
    50
  0
POLYLINE
  5
225
330
1F
100
AcDbEntity
  8
001
370
    50
100
AcDb2dPolyline
 66
     1
 10
0.0
 20
0.0
 30
0.0
  0
VERTEX
  5
227
330
225
100
AcDbEntity
  8
001
370
    50
100
AcDbVertex
100
AcDb2dVertex
 10
124.749464
 20
104.105349
 30
0.0
  0
VERTEX
  5
228
330
225
100
AcDbEntity
  8
001
370
    50
100
AcDbVertex
100
AcDb2dVertex
 10
124.184718
 20
105.125469
 30
0.0
  0
VERTEX
  5
229
330
225
100
AcDbEntity
  8
001
370
    50
100
AcDbVertex
100
AcDb2dVertex
 10
123.31852
 20
106.475563
 30
0.0
  0
VERTEX
  5
22A
330
225
100
AcDbEntity
  8
001
370
    50
100
AcDbVertex
100
AcDb2dVertex
 10
122.420995
 20
107.601625
 30
0.0
  0
VERTEX
  5
22B
330
225
100
AcDbEntity
  8
001
370
    50
100
AcDbVertex
100
AcDb2dVertex
 10
121.481389
 20
108.53692
 30
0.0
  0
VERTEX
  5
22C
330
225
100
AcDbEntity
  8
001
370
    50
100
AcDbVertex
100
AcDb2dVertex
 10
120.441498
 20
109.414455
 30
0.0
  0
VERTEX
  5
22D
330
225
100
AcDbEntity
  8
001
370
    50
100
AcDbVertex
100
AcDb2dVertex
 10
119.301178
 20
110.218607
 30
0.0
  0
VERTEX
  5
22E
330
225
100
AcDbEntity
  8
001
370
    50
100
AcDbVertex
100
AcDb2dVertex
 10
118.088588
 20
110.901811
 30
0.0
  0
VERTEX
  5
22F
330
225
100
AcDbEntity
  8
001
370
    50
100
AcDbVertex
100
AcDb2dVertex
 10
116.852782
 20
111.462855
 30
0.0
  0
VERTEX
  5
230
330
225
100
AcDbEntity
  8
001
370
    50
100
AcDbVertex
100
AcDb2dVertex
 10
115.613398
 20
111.905771
 30
0.0
  0
VERTEX
  5
231
330
225
100
AcDbEntity
  8
001
370
    50
100
AcDbVertex
100
AcDb2dVertex
 10
114.220308
 20
112.226922
 30
0.0
  0
VERTEX
  5
232
330
225
100
AcDbEntity
  8
001
370
    50
100
AcDbVertex
100
AcDb2dVertex
 10
112.645555
 20
112.42014
 30
0.0
  0
VERTEX
  5
233
330
225
100
AcDbEntity
  8
001
370
    50
100
AcDbVertex
100
AcDb2dVertex
 10
111.494186
 20
112.484562
 30
0.0
  0
SEQEND
  5
226
330
225
100
AcDbEntity
  8
001
370
    50
  0
LINE
  5
234
330
1F
100
AcDbEntity
  8
001
370
    50
100
AcDbLine
 10
129.711223
 20
140.484562
 30
0.0
 11
129.711223
 21
108.484562
 31
0.0
  0
ARC
  5
235
330
1F
100
AcDbEntity
  8
001
370
    50
100
AcDbCircle
 10
129.711223
 20
145.484562
 30
0.0
 40
5.000000000000001
100
AcDbArc
 50
180.0
 51
270.0
  0
ARC
  5
236
330
1F
100
AcDbEntity
  8
001
370
    50
100
AcDbCircle
 10
129.711223
 20
103.484562
 30
0.0
 40
5.000000000000001
100
AcDbArc
 50
90.0
 51
180.0
  0
POLYLINE
  5
237
330
1F
100
AcDbEntity
  8
001
370
    50
100
AcDb2dPolyline
 66
     1
 10
0.0
 20
0.0
 30
0.0
  0
VERTEX
  5
239
330
237
100
AcDbEntity
  8
001
370
    50
100
AcDbVertex
100
AcDb2dVertex
 10
115.592286
 20
150.445301
 30
0.0
  0
VERTEX
  5
23A
330
237
100
AcDbEntity
  8
001
370
    50
100
AcDbVertex
100
AcDb2dVertex
 10
116.107222
 20
150.439929
 30
0.0
  0
VERTEX
  5
23B
330
237
100
AcDbEntity
  8
001
370
    50
100
AcDbVertex
100
AcDb2dVertex
 10
116.62202
 20
150.429323
 30
0.0
  0
VERTEX
  5
23C
330
237
100
AcDbEntity
  8
001
370
    50
100
AcDbVertex
100
AcDb2dVertex
 10
117.137067
 20
150.409357
 30
0.0
  0
VERTEX
  5
23D
330
237
100
AcDbEntity
  8
001
370
    50
100
AcDbVertex
100
AcDb2dVertex
 10
117.651754
 20
150.380461
 30
0.0
  0
VERTEX
  5
23E
330
237
100
AcDbEntity
  8
001
370
    50
100
AcDbVertex
100
AcDb2dVertex
 10
118.170232
 20
150.343158
 30
0.0
  0
VERTEX
  5
23F
330
237
100
AcDbEntity
  8
001
370
    50
100
AcDbVertex
100
AcDb2dVertex
 10
118.687802
 20
150.295714
 30
0.0
  0
VERTEX
  5
240
330
237
100
AcDbEntity
  8
001
370
    50
100
AcDbVertex
100
AcDb2dVertex
 10
119.199848
 20
150.237528
 30
0.0
  0
VERTEX
  5
241
330
237
100
AcDbEntity
  8
001
370
    50
100
AcDbVertex
100
AcDb2dVertex
 10
119.711223
 20
150.173055
 30
0.0
  0
SEQEND
  5
238
330
237
100
AcDbEntity
  8
001
370
    50
  0
POLYLINE
  5
242
330
1F
100
AcDbEntity
  8
001
370
    50
100
AcDb2dPolyline
 66
     1
 10
0.0
 20
0.0
 30
0.0
  0
VERTEX
  5
244
330
242
100
AcDbEntity
  8
001
370
    50
100
AcDbVertex
100
AcDb2dVertex
 10
119.711223
 20
150.173055
 30
0.0
  0
VERTEX
  5
245
330
242
100
AcDbEntity
  8
001
370
    50
100
AcDbVertex
100
AcDb2dVertex
 10
120.089197
 20
150.092526
 30
0.0
  0
VERTEX
  5
246
330
242
100
AcDbEntity
  8
001
370
    50
100
AcDbVertex
100
AcDb2dVertex
 10
120.460341
 20
149.989621
 30
0.0
  0
VERTEX
  5
247
330
242
100
AcDbEntity
  8
001
370
    50
100
AcDbVertex
100
AcDb2dVertex
 10
120.814203
 20
149.849344
 30
0.0
  0
VERTEX
  5
248
330
242
100
AcDbEntity
  8
001
370
    50
100
AcDbVertex
100
AcDb2dVertex
 10
121.153392
 20
149.674531
 30
0.0
  0
VERTEX
  5
249
330
242
100
AcDbEntity
  8
001
370
    50
100
AcDbVertex
100
AcDb2dVertex
 10
121.415813
 20
149.513574
 30
0.0
  0
VERTEX
  5
24A
330
242
100
AcDbEntity
  8
001
370
    50
100
AcDbVertex
100
AcDb2dVertex
 10
121.667279
 20
149.336556
 30
0.0
  0
VERTEX
  5
24B
330
242
100
AcDbEntity
  8
001
370
    50
100
AcDbVertex
100
AcDb2dVertex
 10
121.906839
 20
149.144684
 30
0.0
  0
VERTEX
  5
24C
330
242
100
AcDbEntity
  8
001
370
    50
100
AcDbVertex
100
AcDb2dVertex
 10
122.134889
 20
148.939118
 30
0.0
  0
VERTEX
  5
24D
330
242
100
AcDbEntity
  8
001
370
    50
100
AcDbVertex
100
AcDb2dVertex
 10
122.350212
 20
148.72269
 30
0.0
  0
VERTEX
  5
24E
330
242
100
AcDbEntity
  8
001
370
    50
100
AcDbVertex
100
AcDb2dVertex
 10
122.55414
 20
148.495511
 30
0.0
  0
VERTEX
  5
24F
330
242
100
AcDbEntity
  8
001
370
    50
100
AcDbVertex
100
AcDb2dVertex
 10
122.834657
 20
148.142745
 30
0.0
  0
VERTEX
  5
250
330
242
100
AcDbEntity
  8
001
370
    50
100
AcDbVertex
100
AcDb2dVertex
 10
123.091373
 20
147.772145
 30
0.0
  0
VERTEX
  5
251
330
242
100
AcDbEntity
  8
001
370
    50
100
AcDbVertex
100
AcDb2dVertex
 10
123.326706
 20
147.384006
 30
0.0
  0
VERTEX
  5
252
330
242
100
AcDbEntity
  8
001
370
    50
100
AcDbVertex
100
AcDb2dVertex
 10
123.539815
 20
146.983289
 30
0.0
  0
VERTEX
  5
253
330
242
100
AcDbEntity
  8
001
370
    50
100
AcDbVertex
100
AcDb2dVertex
 10
123.732657
 20
146.570258
 30
0.0
  0
VERTEX
  5
254
330
242
100
AcDbEntity
  8
001
370
    50
100
AcDbVertex
100
AcDb2dVertex
 10
123.90557
 20
146.148434
 30
0.0
  0
VERTEX
  5
255
330
242
100
AcDbEntity
  8
001
370
    50
100
AcDbVertex
100
AcDb2dVertex
 10
124.120773
 20
145.532267
 30
0.0
  0
VERTEX
  5
256
330
242
100
AcDbEntity
  8
001
370
    50
100
AcDbVertex
100
AcDb2dVertex
 10
124.29966
 20
144.904552
 30
0.0
  0
VERTEX
  5
257
330
242
100
AcDbEntity
  8
001
370
    50
100
AcDbVertex
100
AcDb2dVertex
 10
124.446437
 20
144.256396
 30
0.0
  0
VERTEX
  5
258
330
242
100
AcDbEntity
  8
001
370
    50
100
AcDbVertex
100
AcDb2dVertex
 10
124.560094
 20
143.601501
 30
0.0
  0
VERTEX
  5
259
330
242
100
AcDbEntity
  8
001
370
    50
100
AcDbVertex
100
AcDb2dVertex
 10
124.643322
 20
142.933174
 30
0.0
  0
VERTEX
  5
25A
330
242
100
AcDbEntity
  8
001
370
    50
100
AcDbVertex
100
AcDb2dVertex
 10
124.692347
 20
142.261748
 30
0.0
  0
VERTEX
  5
25B
330
242
100
AcDbEntity
  8
001
370
    50
100
AcDbVertex
100
AcDb2dVertex
 10
124.704485
 20
141.899564
 30
0.0
  0
VERTEX
  5
25C
330
242
100
AcDbEntity
  8
001
370
    50
100
AcDbVertex
100
AcDb2dVertex
 10
124.711223
 20
141.537178
 30
0.0
  0
SEQEND
  5
243
330
242
100
AcDbEntity
  8
001
370
    50
  0
ARC
  5
25D
330
1F
100
AcDbEntity
  8
001
370
    50
100
AcDbCircle
 10
119.711223
 20
148.084562
 30
0.0
 40
5.000000000000001
100
AcDbArc
 50
0.0
 51
90.0
  0
LINE
  5
25E
330
1F
100
AcDbEntity
  8
001
370
    50
100
AcDbLine
 10
204.711223
 20
114.484562
 30
0.0
 11
204.711223
 21
134.484562
 31
0.0
  0
POLYLINE
  5
25F
330
1F
100
AcDbEntity
  8
001
370
    50
100
AcDb2dPolyline
 66
     1
 10
0.0
 20
0.0
 30
0.0
  0
VERTEX
  5
261
330
25F
100
AcDbEntity
  8
001
370
    50
100
AcDbVertex
100
AcDb2dVertex
 10
114.426123
 20
153.084562
 30
0.0
  0
VERTEX
  5
262
330
25F
100
AcDbEntity
  8
001
370
    50
100
AcDbVertex
100
AcDb2dVertex
 10
114.354331
 20
153.084094
 30
0.0
  0
VERTEX
  5
263
330
25F
100
AcDbEntity
  8
001
370
    50
100
AcDbVertex
100
AcDb2dVertex
 10
114.249428
 20
153.08206
 30
0.0
  0
VERTEX
  5
264
330
25F
100
AcDbEntity
  8
001
370
    50
100
AcDbVertex
100
AcDb2dVertex
 10
114.144835
 20
153.078154
 30
0.0
  0
VERTEX
  5
265
330
25F
100
AcDbEntity
  8
001
370
    50
100
AcDbVertex
100
AcDb2dVertex
 10
114.073306
 20
153.074557
 30
0.0
  0
SEQEND
  5
260
330
25F
100
AcDbEntity
  8
001
370
    50
  0
LINE
  5
266
330
1F
100
AcDbEntity
  8
001
370
    50
100
AcDbLine
 10
105.411223
 20
153.084562
 30
0.0
 11
109.783536
 21
153.084562
 31
0.0
  0
LINE
  5
267
330
1F
100
AcDbEntity
  8
001
370
    50
100
AcDbLine
 10
119.711223
 20
153.084562
 30
0.0
 11
114.426123
 21
153.084562
 31
0.0
  0
LINE
  5
268
330
1F
100
AcDbEntity
  8
001
370
    50
100
AcDbLine
 10
103.540309
 20
150.445301
 30
0.0
 11
115.592286
 21
150.445301
 31
0.0
  0
POLYLINE
  5
269
330
1F
100
AcDbEntity
  8
001
370
    50
100
AcDb2dPolyline
 66
     1
 10
0.0
 20
0.0
 30
0.0
  0
VERTEX
  5
26B
330
269
100
AcDbEntity
  8
001
370
    50
100
AcDbVertex
100
AcDb2dVertex
 10
114.073306
 20
153.074557
 30
0.0
  0
VERTEX
  5
26C
330
269
100
AcDbEntity
  8
001
370
    50
100
AcDbVertex
100
AcDb2dVertex
 10
113.202024
 20
153.078153
 30
0.0
  0
VERTEX
  5
26D
330
269
100
AcDbEntity
  8
001
370
    50
100
AcDbVertex
100
AcDb2dVertex
 10
111.928608
 20
153.08206
 30
0.0
  0
VERTEX
  5
26E
330
269
100
AcDbEntity
  8
001
370
    50
100
AcDbVertex
100
AcDb2dVertex
 10
110.654972
 20
153.084093
 30
0.0
  0
VERTEX
  5
26F
330
269
100
AcDbEntity
  8
001
370
    50
100
AcDbVertex
100
AcDb2dVertex
 10
109.783536
 20
153.084562
 30
0.0
  0
SEQEND
  5
26A
330
269
100
AcDbEntity
  8
001
370
    50
  0
POLYLINE
  5
270
330
1F
100
AcDbEntity
  8
001
370
    50
100
AcDb2dPolyline
 66
     1
 10
0.0
 20
0.0
 30
0.0
  0
VERTEX
  5
272
330
270
100
AcDbEntity
  8
001
370
    50
100
AcDbVertex
100
AcDb2dVertex
 10
124.711223
 20
100.887764
 30
0.0
  0
VERTEX
  5
273
330
270
100
AcDbEntity
  8
001
370
    50
100
AcDbVertex
100
AcDb2dVertex
 10
124.693268
 20
100.525991
 30
0.0
  0
VERTEX
  5
274
330
270
100
AcDbEntity
  8
001
370
    50
100
AcDbVertex
100
AcDb2dVertex
 10
124.658864
 20
100.16612
 30
0.0
  0
VERTEX
  5
275
330
270
100
AcDbEntity
  8
001
370
    50
100
AcDbVertex
100
AcDb2dVertex
 10
124.583156
 20
99.758205
 30
0.0
  0
VERTEX
  5
276
330
270
100
AcDbEntity
  8
001
370
    50
100
AcDbVertex
100
AcDb2dVertex
 10
124.470773
 20
99.357999
 30
0.0
  0
VERTEX
  5
277
330
270
100
AcDbEntity
  8
001
370
    50
100
AcDbVertex
100
AcDb2dVertex
 10
124.327274
 20
98.968812
 30
0.0
  0
VERTEX
  5
278
330
270
100
AcDbEntity
  8
001
370
    50
100
AcDbVertex
100
AcDb2dVertex
 10
124.152783
 20
98.592942
 30
0.0
  0
VERTEX
  5
279
330
270
100
AcDbEntity
  8
001
370
    50
100
AcDbVertex
100
AcDb2dVertex
 10
123.947155
 20
98.233601
 30
0.0
  0
VERTEX
  5
27A
330
270
100
AcDbEntity
  8
001
370
    50
100
AcDbVertex
100
AcDb2dVertex
 10
123.712102
 20
97.892538
 30
0.0
  0
VERTEX
  5
27B
330
270
100
AcDbEntity
  8
001
370
    50
100
AcDbVertex
100
AcDb2dVertex
 10
123.45056
 20
97.572663
 30
0.0
  0
VERTEX
  5
27C
330
270
100
AcDbEntity
  8
001
370
    50
100
AcDbVertex
100
AcDb2dVertex
 10
123.163457
 20
97.27569
 30
0.0
  0
VERTEX
  5
27D
330
270
100
AcDbEntity
  8
001
370
    50
100
AcDbVertex
100
AcDb2dVertex
 10
122.8504
 20
97.002515
 30
0.0
  0
VERTEX
  5
27E
330
270
100
AcDbEntity
  8
001
370
    50
100
AcDbVertex
100
AcDb2dVertex
 10
122.515486
 20
96.756415
 30
0.0
  0
VERTEX
  5
27F
330
270
100
AcDbEntity
  8
001
370
    50
100
AcDbVertex
100
AcDb2dVertex
 10
122.162194
 20
96.539268
 30
0.0
  0
VERTEX
  5
280
330
270
100
AcDbEntity
  8
001
370
    50
100
AcDbVertex
100
AcDb2dVertex
 10
121.792071
 20
96.35263
 30
0.0
  0
VERTEX
  5
281
330
270
100
AcDbEntity
  8
001
370
    50
100
AcDbVertex
100
AcDb2dVertex
 10
121.403677
 20
96.196993
 30
0.0
  0
VERTEX
  5
282
330
270
100
AcDbEntity
  8
001
370
    50
100
AcDbVertex
100
AcDb2dVertex
 10
121.003384
 20
96.074036
 30
0.0
  0
VERTEX
  5
283
330
270
100
AcDbEntity
  8
001
370
    50
100
AcDbVertex
100
AcDb2dVertex
 10
120.594705
 20
95.984079
 30
0.0
  0
VERTEX
  5
284
330
270
100
AcDbEntity
  8
001
370
    50
100
AcDbVertex
100
AcDb2dVertex
 10
120.180218
 20
95.931296
 30
0.0
  0
VERTEX
  5
285
330
270
100
AcDbEntity
  8
001
370
    50
100
AcDbVertex
100
AcDb2dVertex
 10
119.945938
 20
95.918686
 30
0.0
  0
VERTEX
  5
286
330
270
100
AcDbEntity
  8
001
370
    50
100
AcDbVertex
100
AcDb2dVertex
 10
119.711223
 20
95.91279
 30
0.0
  0
SEQEND
  5
271
330
270
100
AcDbEntity
  8
001
370
    50
  0
LINE
  5
287
330
1F
100
AcDbEntity
  8
001
  6
DASHED
370
    50
100
AcDbLine
 10
101.911223
 20
112.484562
 30
0.0
 11
101.907574
 21
112.484562
 31
0.0
  0
ARC
  5
288
330
1F
100
AcDbEntity
  8
001
370
    50
100
AcDbCircle
 10
119.711223
 20
100.884562
 30
0.0
 40
5.000000000000001
100
AcDbArc
 50
270.0
 51
0.0
  0
LINE
  5
289
330
1F
100
AcDbEntity
  8
001
370
    50
100
AcDbLine
 10
124.711223
 20
103.48816
 30
0.0
 11
124.711223
 21
100.884562
 31
0.0
  0
LINE
  5
28A
330
1F
100
AcDbEntity
  8
001
  6
DASHED
370
    50
100
AcDbLine
 10
100.411223
 20
126.138089
 30
0.0
 11
100.411223
 21
126.135504
 31
0.0
  0
LINE
  5
28B
330
1F
100
AcDbEntity
  8
001
  6
CENTER
370
     9
100
AcDbLine
 10
208.868706
 20
124.484562
 30
0.0
 11
96.681547
 21
124.484562
 31
0.0
  0
LINE
  5
28C
330
1F
100
AcDbEntity
  8
001
370
    50
100
AcDbLine
 10
124.711223
 20
108.169897
 30
0.0
 11
124.711223
 21
107.218464
 31
0.0
  0
LINE
  5
28D
330
1F
100
AcDbEntity
  8
001
370
    50
100
AcDbLine
 10
100.411223
 20
112.484562
 30
0.0
 11
115.592286
 21
112.484562
 31
0.0
  0
LINE
  5
28E
330
1F
100
AcDbEntity
  8
001
370
    50
100
AcDbLine
 10
101.467555
 20
136.484562
 30
0.0
 11
100.411223
 21
136.484562
 31
0.0
  0
LINE
  5
28F
330
1F
100
AcDbEntity
  8
001
370
    50
100
AcDbLine
 10
124.711223
 20
148.084562
 30
0.0
 11
124.711223
 21
136.437882
 31
0.0
  0
LINE
  5
290
330
1F
100
AcDbEntity
  8
001
370
    50
100
AcDbLine
 10
132.711223
 20
108.484562
 30
0.0
 11
132.711223
 21
140.484562
 31
0.0
  0
LINE
  5
291
330
1F
100
AcDbEntity
  8
001
370
    50
100
AcDbLine
 10
132.711223
 20
139.984562
 30
0.0
 11
129.711223
 21
139.984562
 31
0.0
  0
LINE
  5
292
330
1F
100
AcDbEntity
  8
001
370
    50
100
AcDbLine
 10
129.711223
 20
108.984562
 30
0.0
 11
132.711223
 21
108.984562
 31
0.0
  0
LINE
  5
293
330
1F
100
AcDbEntity
  8
001
370
    50
100
AcDbLine
 10
198.711223
 20
140.484562
 30
0.0
 11
132.711223
 21
140.484562
 31
0.0
  0
LINE
  5
294
330
1F
100
AcDbEntity
  8
001
370
    50
100
AcDbLine
 10
198.711223
 20
108.484562
 30
0.0
 11
132.711223
 21
108.484562
 31
0.0
  0
LINE
  5
295
330
1F
100
AcDbEntity
  8
001
370
    50
100
AcDbLine
 10
204.711223
 20
124.484562
 30
0.0
 11
208.175324
 21
126.484562
 31
0.0
  0
LINE
  5
296
330
1F
100
AcDbEntity
  8
001
370
    50
100
AcDbLine
 10
204.711223
 20
124.484562
 30
0.0
 11
208.175324
 21
122.484562
 31
0.0
  0
ARC
  5
297
330
1F
100
AcDbEntity
  8
001
370
    50
100
AcDbCircle
 10
198.711223
 20
134.484562
 30
0.0
 40
6.0
100
AcDbArc
 50
0.0
 51
90.0
  0
ARC
  5
298
330
1F
100
AcDbEntity
  8
001
370
    50
100
AcDbCircle
 10
198.711223
 20
114.484562
 30
0.0
 40
6.0
100
AcDbArc
 50
270.0
 51
0.0
  0
LINE
  5
299
330
1F
100
AcDbEntity
  8
001
370
    50
100
AcDbLine
 10
99.720886
 20
97.794144
 30
0.0
 11
100.195738
 21
103.695998
 31
0.0
  0
CIRCLE
  5
29A
330
1F
100
AcDbEntity
  8
001
370
    50
100
AcDbCircle
 10
107.809353
 20
99.351683
 30
0.0
 40
3.0
  0
LINE
  5
29B
330
1F
100
AcDbEntity
  8
001
370
    50
100
AcDbLine
 10
115.481994
 20
100.906318
 30
0.0
 11
115.007142
 21
95.004464
 31
0.0
  0
LINE
  5
29C
330
1F
100
AcDbEntity
  8
001
370
    50
100
AcDbLine
 10
112.470713
 20
104.146842
 30
0.0
 11
100.591657
 21
104.063909
 31
0.0
  0
CIRCLE
  5
29D
330
1F
100
AcDbEntity
  8
001
370
    50
100
AcDbCircle
 10
107.814341
 20
99.364948
 30
0.0
 40
2.5
  0
LINE
  5
29E
330
1F
100
AcDbEntity
  8
001
370
    50
100
AcDbLine
 10
108.39391
 20
100.363664
 30
0.0
 11
108.077589
 21
100.914368
 31
0.0
  0
LINE
  5
29F
330
1F
100
AcDbEntity
  8
001
370
    50
100
AcDbLine
 10
107.239212
 20
100.366228
 30
0.0
 11
107.557976
 21
100.915521
 31
0.0
  0
ARC
  5
2A0
330
1F
100
AcDbEntity
  8
001
370
    50
100
AcDbCircle
 10
107.817449
 20
100.764945
 30
0.0
 40
0.3
100
AcDbArc
 50
29.872778
 51
149.872778
  0
LINE
  5
2A1
330
1F
100
AcDbEntity
  8
001
370
    50
100
AcDbLine
 10
107.239212
 20
100.366228
 30
0.0
 11
106.604129
 21
100.367638
 31
0.0
  0
LINE
  5
2A2
330
1F
100
AcDbEntity
  8
001
370
    50
100
AcDbLine
 10
106.659643
 20
99.367512
 30
0.0
 11
106.343322
 21
99.918216
 31
0.0
  0
ARC
  5
2A3
330
1F
100
AcDbEntity
  8
001
370
    50
100
AcDbCircle
 10
106.603463
 20
100.067639
 30
0.0
 40
0.3
100
AcDbArc
 50
89.872778
 51
209.872778
  0
LINE
  5
2A4
330
1F
100
AcDbEntity
  8
001
370
    50
100
AcDbLine
 10
106.659643
 20
99.367512
 30
0.0
 11
106.34088
 21
98.818219
 31
0.0
  0
LINE
  5
2A5
330
1F
100
AcDbEntity
  8
001
370
    50
100
AcDbLine
 10
107.234772
 20
98.366233
 30
0.0
 11
106.599688
 21
98.367643
 31
0.0
  0
ARC
  5
2A6
330
1F
100
AcDbEntity
  8
001
370
    50
100
AcDbCircle
 10
106.600354
 20
98.667642
 30
0.0
 40
0.3
100
AcDbArc
 50
149.872778
 51
269.872778
  0
LINE
  5
2A7
330
1F
100
AcDbEntity
  8
001
370
    50
100
AcDbLine
 10
107.234772
 20
98.366233
 30
0.0
 11
107.551092
 21
97.815529
 31
0.0
  0
LINE
  5
2A8
330
1F
100
AcDbEntity
  8
001
370
    50
100
AcDbLine
 10
108.389469
 20
98.363669
 30
0.0
 11
108.070706
 21
97.814375
 31
0.0
  0
ARC
  5
2A9
330
1F
100
AcDbEntity
  8
001
370
    50
100
AcDbCircle
 10
107.811232
 20
97.964952
 30
0.0
 40
0.3
100
AcDbArc
 50
209.872778
 51
329.872778
  0
LINE
  5
2AA
330
1F
100
AcDbEntity
  8
001
370
    50
100
AcDbLine
 10
108.389469
 20
98.363669
 30
0.0
 11
109.024553
 21
98.362259
 31
0.0
  0
LINE
  5
2AB
330
1F
100
AcDbEntity
  8
001
370
    50
100
AcDbLine
 10
108.969039
 20
99.362384
 30
0.0
 11
109.285359
 21
98.811681
 31
0.0
  0
ARC
  5
2AC
330
1F
100
AcDbEntity
  8
001
370
    50
100
AcDbCircle
 10
109.025219
 20
98.662258
 30
0.0
 40
0.3
100
AcDbArc
 50
269.872778
 51
29.872778
  0
LINE
  5
2AD
330
1F
100
AcDbEntity
  8
001
370
    50
100
AcDbLine
 10
108.969039
 20
99.362384
 30
0.0
 11
109.287802
 21
99.911678
 31
0.0
  0
LINE
  5
2AE
330
1F
100
AcDbEntity
  8
001
370
    50
100
AcDbLine
 10
108.39391
 20
100.363664
 30
0.0
 11
109.028994
 21
100.362254
 31
0.0
  0
ARC
  5
2AF
330
1F
100
AcDbEntity
  8
001
370
    50
100
AcDbCircle
 10
109.028328
 20
100.062254
 30
0.0
 40
0.3
100
AcDbArc
 50
329.872778
 51
89.872778
  0
LINE
  5
2B0
330
1F
100
AcDbEntity
  8
001
370
    50
100
AcDbLine
 10
114.611223
 20
94.636553
 30
0.0
 11
102.732167
 21
94.553621
 31
0.0
  0
ARC
  5
2B1
330
1F
100
AcDbEntity
  8
001
370
    50
100
AcDbCircle
 10
113.966191
 20
102.4123
 30
0.0
 40
3.0
100
AcDbArc
 50
298.349498
 51
144.83356
  0
ARC
  5
2B2
330
1F
100
AcDbEntity
  8
001
370
    50
100
AcDbCircle
 10
100.59445
 20
103.663919
 30
0.0
 40
0.4
100
AcDbArc
 50
90.4
 51
175.4
  0
ARC
  5
2B3
330
1F
100
AcDbEntity
  8
001
370
    50
100
AcDbCircle
 10
114.60843
 20
95.036544
 30
0.0
 40
0.4
100
AcDbArc
 50
270.4
 51
355.4
  0
POLYLINE
  5
2B4
330
1F
100
AcDbEntity
  8
001
370
    50
100
AcDb2dPolyline
 66
     1
 10
0.0
 20
0.0
 30
0.0
  0
VERTEX
  5
2B6
330
2B4
100
AcDbEntity
  8
001
370
    50
100
AcDbVertex
100
AcDb2dVertex
 10
101.467592
 20
112.484362
 30
0.0
  0
VERTEX
  5
2B7
330
2B4
100
AcDbEntity
  8
001
370
    50
100
AcDbVertex
100
AcDb2dVertex
 10
101.238925
 20
109.618203
 30
0.0
  0
VERTEX
  5
2B8
330
2B4
100
AcDbEntity
  8
001
370
    50
100
AcDbVertex
100
AcDb2dVertex
 10
101.00094
 20
106.752835
 30
0.0
  0
VERTEX
  5
2B9
330
2B4
100
AcDbEntity
  8
001
370
    50
100
AcDbVertex
100
AcDb2dVertex
 10
100.899209
 20
105.584201
 30
0.0
  0
VERTEX
  5
2BA
330
2B4
100
AcDbEntity
  8
001
370
    50
100
AcDbVertex
100
AcDb2dVertex
 10
100.79487
 20
104.41579
 30
0.0
  0
VERTEX
  5
2BB
330
2B4
100
AcDbEntity
  8
001
370
    50
100
AcDbVertex
100
AcDb2dVertex
 10
100.778973
 20
104.239712
 30
0.0
  0
VERTEX
  5
2BC
330
2B4
100
AcDbEntity
  8
001
370
    50
100
AcDbVertex
100
AcDb2dVertex
 10
100.763076
 20
104.063634
 30
0.0
  0
SEQEND
  5
2B5
330
2B4
100
AcDbEntity
  8
001
370
    50
  0
LINE
  5
2BD
330
1F
100
AcDbEntity
  8
001
370
    50
100
AcDbLine
 10
101.052772
 20
104.065657
 30
0.0
 11
101.907574
 21
112.484562
 31
0.0
  0
LINE
  5
2BE
330
1F
100
AcDbEntity
  8
001
  6
DASHED
370
    30
100
AcDbLine
 10
101.10521
 20
104.066023
 30
0.0
 11
102.200243
 21
114.484562
 31
0.0
  0
LINE
  5
2BF
330
1F
100
AcDbEntity
  8
001
370
    50
100
AcDbLine
 10
99.931638
 20
151.174979
 30
0.0
 11
100.40649
 21
145.273125
 31
0.0
  0
LINE
  5
2C0
330
1F
100
AcDbEntity
  8
001
370
    50
100
AcDbLine
 10
102.942918
 20
154.415503
 30
0.0
 11
115.010378
 21
154.331255
 31
0.0
  0
ARC
  5
2C1
330
1F
100
AcDbEntity
  8
001
370
    50
100
AcDbCircle
 10
115.007586
 20
153.931264
 30
0.0
 40
0.4
100
AcDbArc
 50
4.6
 51
89.6
  0
LINE
  5
2C2
330
1F
100
AcDbEntity
  8
001
370
    50
100
AcDbLine
 10
115.406298
 20
153.963344
 30
0.0
 11
115.477003
 21
153.084562
 31
0.0
  0
ARC
  5
2C3
330
1F
100
AcDbEntity
  8
001
370
    50
100
AcDbCircle
 10
100.805201
 20
145.305205
 30
0.0
 40
0.4
100
AcDbArc
 50
184.6
 51
263.661054
  0
LINE
  5
2C4
330
1F
100
AcDbEntity
  8
001
370
    50
100
AcDbLine
 10
274.711223
 20
305.90291
 30
0.0
 11
274.711223
 21
325.90291
 31
0.0
  0
LINE
  5
2C5
330
1F
100
AcDbEntity
  8
001
370
    50
100
AcDbLine
 10
268.711223
 20
331.90291
 30
0.0
 11
132.711223
 21
331.90291
 31
0.0
  0
LINE
  5
2C6
330
1F
100
AcDbEntity
  8
001
370
    50
100
AcDbLine
 10
268.711223
 20
299.90291
 30
0.0
 11
132.711223
 21
299.90291
 31
0.0
  0
LINE
  5
2C7
330
1F
100
AcDbEntity
  8
001
370
    50
100
AcDbLine
 10
274.711223
 20
315.90291
 30
0.0
 11
278.175324
 21
317.90291
 31
0.0
  0
LINE
  5
2C8
330
1F
100
AcDbEntity
  8
001
370
    50
100
AcDbLine
 10
274.711223
 20
315.90291
 30
0.0
 11
278.175324
 21
313.90291
 31
0.0
  0
ARC
  5
2C9
330
1F
100
AcDbEntity
  8
001
370
    50
100
AcDbCircle
 10
268.711223
 20
325.90291
 30
0.0
 40
6.0
100
AcDbArc
 50
0.0
 51
90.0
  0
ARC
  5
2CA
330
1F
100
AcDbEntity
  8
001
370
    50
100
AcDbCircle
 10
268.711223
 20
305.90291
 30
0.0
 40
6.0
100
AcDbArc
 50
270.0
 51
0.0
  0
LINE
  5
2CB
330
1F
100
AcDbEntity
  8
001
  6
CENTER
370
     9
100
AcDbLine
 10
281.00326
 20
315.90291
 30
0.0
 11
96.681547
 21
315.90291
 31
0.0
  0
TEXT
  5
2CC
330
1F
100
AcDbEntity
  8
001
370
    30
100
AcDbText
 10
50.04921
 20
378.253271
 30
0.0
 40
10.0
  1
すみっこ　ＳＫ３２－６０ＡＬＲＬ　（４枚刃）
 41
0.833333
100
AcDbText
  0
TEXT
  5
2CD
330
1F
100
AcDbEntity
  8
001
370
    30
100
AcDbText
 10
55.04921
 20
191.13729
 30
0.0
 40
10.0
  1
すみっこ　ＳＫ３２－６０ＡＬＲ　（４枚刃）
 41
0.833333
100
AcDbText
  0
ARC
  5
2CE
330
1F
100
AcDbEntity
  8
001
370
    50
100
AcDbCircle
 10
102.711223
 20
97.553547
 30
0.0
 40
3.0
100
AcDbArc
 50
175.4
 51
270.4
  0
ARC
  5
2CF
330
1F
100
AcDbEntity
  8
001
370
    50
100
AcDbCircle
 10
112.491657
 20
101.146915
 30
0.0
 40
3.0
100
AcDbArc
 50
355.4
 51
90.4
  0
LINE
  5
2D0
330
1F
100
AcDbEntity
  8
001
370
     9
100
AcDbLine
 10
102.732167
 20
94.553621
 30
0.0
 11
95.231487
 21
94.553621
 31
0.0
  0
ARC
  5
2D1
330
1F
100
AcDbEntity
  8
001
370
    50
100
AcDbCircle
 10
102.921974
 20
151.415576
 30
0.0
 40
3.0
100
AcDbArc
 50
89.6
 51
184.6
  0
ARC
  5
2D2
330
1F
100
AcDbEntity
  8
001
370
    50
100
AcDbCircle
 10
105.411223
 20
148.084562
 30
0.0
 40
5.0
100
AcDbArc
 50
90.0
 51
175.157618
  0
ARC
  5
2D3
330
1F
100
AcDbEntity
  8
001
370
    50
100
AcDbCircle
 10
103.540309
 20
147.445301
 30
0.0
 40
3.0
100
AcDbArc
 50
90.0
 51
185.294309
  0
LINE
  5
2D4
330
1F
100
AcDbEntity
  8
001
  6
DASHED
370
    30
100
AcDbLine
 10
102.200243
 20
134.484562
 30
0.0
 11
100.620409
 21
149.51568
 31
0.0
  0
LINE
  5
2D5
330
1F
100
AcDbEntity
  8
001
370
     9
100
AcDbLine
 10
99.711223
 20
97.553547
 30
0.0
 11
99.711223
 21
90.712362
 31
0.0
  0
POLYLINE
  5
2D6
330
1F
100
AcDbEntity
  8
001
370
    50
100
AcDb2dPolyline
 66
     1
 10
0.0
 20
0.0
 30
0.0
  0
VERTEX
  5
2D8
330
2D6
100
AcDbEntity
  8
001
370
    50
100
AcDbVertex
100
AcDb2dVertex
 10
115.592286
 20
303.90291
 30
0.0
  0
VERTEX
  5
2D9
330
2D6
100
AcDbEntity
  8
001
370
    50
100
AcDbVertex
100
AcDb2dVertex
 10
116.107467
 20
303.891238
 30
0.0
  0
VERTEX
  5
2DA
330
2D6
100
AcDbEntity
  8
001
370
    50
100
AcDbVertex
100
AcDb2dVertex
 10
116.62202
 20
303.868403
 30
0.0
  0
VERTEX
  5
2DB
330
2D6
100
AcDbEntity
  8
001
370
    50
100
AcDbVertex
100
AcDb2dVertex
 10
117.137716
 20
303.825457
 30
0.0
  0
VERTEX
  5
2DC
330
2D6
100
AcDbEntity
  8
001
370
    50
100
AcDbVertex
100
AcDb2dVertex
 10
117.651754
 20
303.763619
 30
0.0
  0
VERTEX
  5
2DD
330
2D6
100
AcDbEntity
  8
001
370
    50
100
AcDbVertex
100
AcDb2dVertex
 10
118.171629
 20
303.683905
 30
0.0
  0
VERTEX
  5
2DE
330
2D6
100
AcDbEntity
  8
001
370
    50
100
AcDbVertex
100
AcDb2dVertex
 10
118.687802
 20
303.584452
 30
0.0
  0
VERTEX
  5
2DF
330
2D6
100
AcDbEntity
  8
001
370
    50
100
AcDbVertex
100
AcDb2dVertex
 10
119.200842
 20
303.463529
 30
0.0
  0
VERTEX
  5
2E0
330
2D6
100
AcDbEntity
  8
001
370
    50
100
AcDbVertex
100
AcDb2dVertex
 10
119.711223
 20
303.330667
 30
0.0
  0
SEQEND
  5
2D7
330
2D6
100
AcDbEntity
  8
001
370
    50
  0
POLYLINE
  5
2E1
330
1F
100
AcDbEntity
  8
001
370
    50
100
AcDb2dPolyline
 66
     1
 10
0.0
 20
0.0
 30
0.0
  0
VERTEX
  5
2E3
330
2E1
100
AcDbEntity
  8
001
370
    50
100
AcDbVertex
100
AcDb2dVertex
 10
119.711223
 20
303.330667
 30
0.0
  0
VERTEX
  5
2E4
330
2E1
100
AcDbEntity
  8
001
370
    50
100
AcDbVertex
100
AcDb2dVertex
 10
120.087108
 20
303.213666
 30
0.0
  0
VERTEX
  5
2E5
330
2E1
100
AcDbEntity
  8
001
370
    50
100
AcDbVertex
100
AcDb2dVertex
 10
120.460341
 20
303.088898
 30
0.0
  0
VERTEX
  5
2E6
330
2E1
100
AcDbEntity
  8
001
370
    50
100
AcDbVertex
100
AcDb2dVertex
 10
120.809329
 20
302.957848
 30
0.0
  0
VERTEX
  5
2E7
330
2E1
100
AcDbEntity
  8
001
370
    50
100
AcDbVertex
100
AcDb2dVertex
 10
121.153392
 20
302.814153
 30
0.0
  0
VERTEX
  5
2E8
330
2E1
100
AcDbEntity
  8
001
370
    50
100
AcDbVertex
100
AcDb2dVertex
 10
121.411979
 20
302.696881
 30
0.0
  0
VERTEX
  5
2E9
330
2E1
100
AcDbEntity
  8
001
370
    50
100
AcDbVertex
100
AcDb2dVertex
 10
121.667279
 20
302.572688
 30
0.0
  0
VERTEX
  5
2EA
330
2E1
100
AcDbEntity
  8
001
370
    50
100
AcDbVertex
100
AcDb2dVertex
 10
121.902806
 20
302.450002
 30
0.0
  0
VERTEX
  5
2EB
330
2E1
100
AcDbEntity
  8
001
370
    50
100
AcDbVertex
100
AcDb2dVertex
 10
122.134889
 20
302.32091
 30
0.0
  0
VERTEX
  5
2EC
330
2E1
100
AcDbEntity
  8
001
370
    50
100
AcDbVertex
100
AcDb2dVertex
 10
122.34625
 20
302.195725
 30
0.0
  0
VERTEX
  5
2ED
330
2E1
100
AcDbEntity
  8
001
370
    50
100
AcDbVertex
100
AcDb2dVertex
 10
122.55414
 20
302.064854
 30
0.0
  0
VERTEX
  5
2EE
330
2E1
100
AcDbEntity
  8
001
370
    50
100
AcDbVertex
100
AcDb2dVertex
 10
122.826534
 20
301.880472
 30
0.0
  0
VERTEX
  5
2EF
330
2E1
100
AcDbEntity
  8
001
370
    50
100
AcDbVertex
100
AcDb2dVertex
 10
123.091373
 20
301.68535
 30
0.0
  0
VERTEX
  5
2F0
330
2E1
100
AcDbEntity
  8
001
370
    50
100
AcDbVertex
100
AcDb2dVertex
 10
123.319393
 20
301.502914
 30
0.0
  0
VERTEX
  5
2F1
330
2E1
100
AcDbEntity
  8
001
370
    50
100
AcDbVertex
100
AcDb2dVertex
 10
123.539815
 20
301.311474
 30
0.0
  0
VERTEX
  5
2F2
330
2E1
100
AcDbEntity
  8
001
370
    50
100
AcDbVertex
100
AcDb2dVertex
 10
123.726216
 20
301.135822
 30
0.0
  0
VERTEX
  5
2F3
330
2E1
100
AcDbEntity
  8
001
370
    50
100
AcDbVertex
100
AcDb2dVertex
 10
123.90557
 20
300.952773
 30
0.0
  0
VERTEX
  5
2F4
330
2E1
100
AcDbEntity
  8
001
370
    50
100
AcDbVertex
100
AcDb2dVertex
 10
124.110274
 20
300.722893
 30
0.0
  0
VERTEX
  5
2F5
330
2E1
100
AcDbEntity
  8
001
370
    50
100
AcDbVertex
100
AcDb2dVertex
 10
124.29966
 20
300.480877
 30
0.0
  0
VERTEX
  5
2F6
330
2E1
100
AcDbEntity
  8
001
370
    50
100
AcDbVertex
100
AcDb2dVertex
 10
124.436791
 20
300.278327
 30
0.0
  0
VERTEX
  5
2F7
330
2E1
100
AcDbEntity
  8
001
370
    50
100
AcDbVertex
100
AcDb2dVertex
 10
124.560094
 20
300.065746
 30
0.0
  0
VERTEX
  5
2F8
330
2E1
100
AcDbEntity
  8
001
370
    50
100
AcDbVertex
100
AcDb2dVertex
 10
124.638856
 20
299.901134
 30
0.0
  0
VERTEX
  5
2F9
330
2E1
100
AcDbEntity
  8
001
370
    50
100
AcDbVertex
100
AcDb2dVertex
 10
124.692347
 20
299.728621
 30
0.0
  0
VERTEX
  5
2FA
330
2E1
100
AcDbEntity
  8
001
370
    50
100
AcDbVertex
100
AcDb2dVertex
 10
124.703404
 20
299.658795
 30
0.0
  0
VERTEX
  5
2FB
330
2E1
100
AcDbEntity
  8
001
370
    50
100
AcDbVertex
100
AcDb2dVertex
 10
124.711223
 20
299.588245
 30
0.0
  0
SEQEND
  5
2E2
330
2E1
100
AcDbEntity
  8
001
370
    50
  0
LINE
  5
2FC
330
1F
100
AcDbEntity
  8
001
  6
DASHED
370
    30
100
AcDbLine
 10
102.200243
 20
325.90291
 30
0.0
 11
102.200243
 21
305.90291
 31
0.0
  0
LINE
  5
2FD
330
1F
100
AcDbEntity
  8
001
  6
DASHED
370
    50
100
AcDbLine
 10
100.41944
 20
317.554052
 30
0.0
 11
100.41944
 21
317.555489
 31
0.0
  0
POLYLINE
  5
2FE
330
1F
100
AcDbEntity
  8
001
370
    50
100
AcDb2dPolyline
 66
     1
 10
0.0
 20
0.0
 30
0.0
  0
VERTEX
  5
300
330
2FE
100
AcDbEntity
  8
001
370
    50
100
AcDbVertex
100
AcDb2dVertex
 10
124.711223
 20
298.636812
 30
0.0
  0
VERTEX
  5
301
330
2FE
100
AcDbEntity
  8
001
370
    50
100
AcDbVertex
100
AcDb2dVertex
 10
124.711268
 20
298.628159
 30
0.0
  0
VERTEX
  5
302
330
2FE
100
AcDbEntity
  8
001
370
    50
100
AcDbVertex
100
AcDb2dVertex
 10
124.711336
 20
298.619506
 30
0.0
  0
VERTEX
  5
303
330
2FE
100
AcDbEntity
  8
001
370
    50
100
AcDbVertex
100
AcDb2dVertex
 10
124.72009
 20
298.450737
 30
0.0
  0
VERTEX
  5
304
330
2FE
100
AcDbEntity
  8
001
370
    50
100
AcDbVertex
100
AcDb2dVertex
 10
124.738347
 20
298.282508
 30
0.0
  0
VERTEX
  5
305
330
2FE
100
AcDbEntity
  8
001
370
    50
100
AcDbVertex
100
AcDb2dVertex
 10
124.763258
 20
298.089874
 30
0.0
  0
VERTEX
  5
306
330
2FE
100
AcDbEntity
  8
001
370
    50
100
AcDbVertex
100
AcDb2dVertex
 10
124.788626
 20
297.897401
 30
0.0
  0
VERTEX
  5
307
330
2FE
100
AcDbEntity
  8
001
370
    50
100
AcDbVertex
100
AcDb2dVertex
 10
124.833785
 20
297.492091
 30
0.0
  0
VERTEX
  5
308
330
2FE
100
AcDbEntity
  8
001
370
    50
100
AcDbVertex
100
AcDb2dVertex
 10
124.860125
 20
297.085176
 30
0.0
  0
VERTEX
  5
309
330
2FE
100
AcDbEntity
  8
001
370
    50
100
AcDbVertex
100
AcDb2dVertex
 10
124.861492
 20
296.691588
 30
0.0
  0
VERTEX
  5
30A
330
2FE
100
AcDbEntity
  8
001
370
    50
100
AcDbVertex
100
AcDb2dVertex
 10
124.839968
 20
296.298552
 30
0.0
  0
VERTEX
  5
30B
330
2FE
100
AcDbEntity
  8
001
370
    50
100
AcDbVertex
100
AcDb2dVertex
 10
124.799734
 20
295.910591
 30
0.0
  0
VERTEX
  5
30C
330
2FE
100
AcDbEntity
  8
001
370
    50
100
AcDbVertex
100
AcDb2dVertex
 10
124.749464
 20
295.523697
 30
0.0
  0
SEQEND
  5
2FF
330
2FE
100
AcDbEntity
  8
001
370
    50
  0
POLYLINE
  5
30D
330
1F
100
AcDbEntity
  8
001
370
    50
100
AcDb2dPolyline
 66
     1
 10
0.0
 20
0.0
 30
0.0
  0
VERTEX
  5
30F
330
30D
100
AcDbEntity
  8
001
370
    50
100
AcDbVertex
100
AcDb2dVertex
 10
124.749464
 20
295.523697
 30
0.0
  0
VERTEX
  5
310
330
30D
100
AcDbEntity
  8
001
370
    50
100
AcDbVertex
100
AcDb2dVertex
 10
124.184718
 20
296.543817
 30
0.0
  0
VERTEX
  5
311
330
30D
100
AcDbEntity
  8
001
370
    50
100
AcDbVertex
100
AcDb2dVertex
 10
123.31852
 20
297.893911
 30
0.0
  0
VERTEX
  5
312
330
30D
100
AcDbEntity
  8
001
370
    50
100
AcDbVertex
100
AcDb2dVertex
 10
122.420995
 20
299.019973
 30
0.0
  0
VERTEX
  5
313
330
30D
100
AcDbEntity
  8
001
370
    50
100
AcDbVertex
100
AcDb2dVertex
 10
121.481389
 20
299.955268
 30
0.0
  0
VERTEX
  5
314
330
30D
100
AcDbEntity
  8
001
370
    50
100
AcDbVertex
100
AcDb2dVertex
 10
120.441498
 20
300.832803
 30
0.0
  0
VERTEX
  5
315
330
30D
100
AcDbEntity
  8
001
370
    50
100
AcDbVertex
100
AcDb2dVertex
 10
119.301178
 20
301.636955
 30
0.0
  0
VERTEX
  5
316
330
30D
100
AcDbEntity
  8
001
370
    50
100
AcDbVertex
100
AcDb2dVertex
 10
118.088588
 20
302.320159
 30
0.0
  0
VERTEX
  5
317
330
30D
100
AcDbEntity
  8
001
370
    50
100
AcDbVertex
100
AcDb2dVertex
 10
116.852782
 20
302.881203
 30
0.0
  0
VERTEX
  5
318
330
30D
100
AcDbEntity
  8
001
370
    50
100
AcDbVertex
100
AcDb2dVertex
 10
115.613398
 20
303.324119
 30
0.0
  0
VERTEX
  5
319
330
30D
100
AcDbEntity
  8
001
370
    50
100
AcDbVertex
100
AcDb2dVertex
 10
114.220308
 20
303.64527
 30
0.0
  0
VERTEX
  5
31A
330
30D
100
AcDbEntity
  8
001
370
    50
100
AcDbVertex
100
AcDb2dVertex
 10
112.645555
 20
303.838488
 30
0.0
  0
VERTEX
  5
31B
330
30D
100
AcDbEntity
  8
001
370
    50
100
AcDbVertex
100
AcDb2dVertex
 10
111.494186
 20
303.90291
 30
0.0
  0
SEQEND
  5
30E
330
30D
100
AcDbEntity
  8
001
370
    50
  0
LINE
  5
31C
330
1F
100
AcDbEntity
  8
001
370
    50
100
AcDbLine
 10
129.711223
 20
331.90291
 30
0.0
 11
129.711223
 21
299.90291
 31
0.0
  0
ARC
  5
31D
330
1F
100
AcDbEntity
  8
001
370
    50
100
AcDbCircle
 10
129.711223
 20
336.90291
 30
0.0
 40
5.000000000000001
100
AcDbArc
 50
180.0
 51
270.0
  0
ARC
  5
31E
330
1F
100
AcDbEntity
  8
001
370
    50
100
AcDbCircle
 10
129.711223
 20
294.90291
 30
0.0
 40
5.000000000000001
100
AcDbArc
 50
90.0
 51
180.0
  0
POLYLINE
  5
31F
330
1F
100
AcDbEntity
  8
001
370
    50
100
AcDb2dPolyline
 66
     1
 10
0.0
 20
0.0
 30
0.0
  0
VERTEX
  5
321
330
31F
100
AcDbEntity
  8
001
370
    50
100
AcDbVertex
100
AcDb2dVertex
 10
115.592286
 20
341.863649
 30
0.0
  0
VERTEX
  5
322
330
31F
100
AcDbEntity
  8
001
370
    50
100
AcDbVertex
100
AcDb2dVertex
 10
116.107222
 20
341.858277
 30
0.0
  0
VERTEX
  5
323
330
31F
100
AcDbEntity
  8
001
370
    50
100
AcDbVertex
100
AcDb2dVertex
 10
116.62202
 20
341.847671
 30
0.0
  0
VERTEX
  5
324
330
31F
100
AcDbEntity
  8
001
370
    50
100
AcDbVertex
100
AcDb2dVertex
 10
117.137067
 20
341.827705
 30
0.0
  0
VERTEX
  5
325
330
31F
100
AcDbEntity
  8
001
370
    50
100
AcDbVertex
100
AcDb2dVertex
 10
117.651754
 20
341.798809
 30
0.0
  0
VERTEX
  5
326
330
31F
100
AcDbEntity
  8
001
370
    50
100
AcDbVertex
100
AcDb2dVertex
 10
118.170232
 20
341.761506
 30
0.0
  0
VERTEX
  5
327
330
31F
100
AcDbEntity
  8
001
370
    50
100
AcDbVertex
100
AcDb2dVertex
 10
118.687802
 20
341.714062
 30
0.0
  0
VERTEX
  5
328
330
31F
100
AcDbEntity
  8
001
370
    50
100
AcDbVertex
100
AcDb2dVertex
 10
119.199848
 20
341.655876
 30
0.0
  0
VERTEX
  5
329
330
31F
100
AcDbEntity
  8
001
370
    50
100
AcDbVertex
100
AcDb2dVertex
 10
119.711223
 20
341.591403
 30
0.0
  0
SEQEND
  5
320
330
31F
100
AcDbEntity
  8
001
370
    50
  0
POLYLINE
  5
32A
330
1F
100
AcDbEntity
  8
001
370
    50
100
AcDb2dPolyline
 66
     1
 10
0.0
 20
0.0
 30
0.0
  0
VERTEX
  5
32C
330
32A
100
AcDbEntity
  8
001
370
    50
100
AcDbVertex
100
AcDb2dVertex
 10
119.711223
 20
341.591403
 30
0.0
  0
VERTEX
  5
32D
330
32A
100
AcDbEntity
  8
001
370
    50
100
AcDbVertex
100
AcDb2dVertex
 10
120.089197
 20
341.510874
 30
0.0
  0
VERTEX
  5
32E
330
32A
100
AcDbEntity
  8
001
370
    50
100
AcDbVertex
100
AcDb2dVertex
 10
120.460341
 20
341.407969
 30
0.0
  0
VERTEX
  5
32F
330
32A
100
AcDbEntity
  8
001
370
    50
100
AcDbVertex
100
AcDb2dVertex
 10
120.814203
 20
341.267692
 30
0.0
  0
VERTEX
  5
330
330
32A
100
AcDbEntity
  8
001
370
    50
100
AcDbVertex
100
AcDb2dVertex
 10
121.153392
 20
341.092879
 30
0.0
  0
VERTEX
  5
331
330
32A
100
AcDbEntity
  8
001
370
    50
100
AcDbVertex
100
AcDb2dVertex
 10
121.415813
 20
340.931922
 30
0.0
  0
VERTEX
  5
332
330
32A
100
AcDbEntity
  8
001
370
    50
100
AcDbVertex
100
AcDb2dVertex
 10
121.667279
 20
340.754904
 30
0.0
  0
VERTEX
  5
333
330
32A
100
AcDbEntity
  8
001
370
    50
100
AcDbVertex
100
AcDb2dVertex
 10
121.906839
 20
340.563033
 30
0.0
  0
VERTEX
  5
334
330
32A
100
AcDbEntity
  8
001
370
    50
100
AcDbVertex
100
AcDb2dVertex
 10
122.134889
 20
340.357466
 30
0.0
  0
VERTEX
  5
335
330
32A
100
AcDbEntity
  8
001
370
    50
100
AcDbVertex
100
AcDb2dVertex
 10
122.350212
 20
340.141038
 30
0.0
  0
VERTEX
  5
336
330
32A
100
AcDbEntity
  8
001
370
    50
100
AcDbVertex
100
AcDb2dVertex
 10
122.55414
 20
339.913859
 30
0.0
  0
VERTEX
  5
337
330
32A
100
AcDbEntity
  8
001
370
    50
100
AcDbVertex
100
AcDb2dVertex
 10
122.834657
 20
339.561093
 30
0.0
  0
VERTEX
  5
338
330
32A
100
AcDbEntity
  8
001
370
    50
100
AcDbVertex
100
AcDb2dVertex
 10
123.091373
 20
339.190493
 30
0.0
  0
VERTEX
  5
339
330
32A
100
AcDbEntity
  8
001
370
    50
100
AcDbVertex
100
AcDb2dVertex
 10
123.326706
 20
338.802355
 30
0.0
  0
VERTEX
  5
33A
330
32A
100
AcDbEntity
  8
001
370
    50
100
AcDbVertex
100
AcDb2dVertex
 10
123.539815
 20
338.401637
 30
0.0
  0
VERTEX
  5
33B
330
32A
100
AcDbEntity
  8
001
370
    50
100
AcDbVertex
100
AcDb2dVertex
 10
123.732657
 20
337.988606
 30
0.0
  0
VERTEX
  5
33C
330
32A
100
AcDbEntity
  8
001
370
    50
100
AcDbVertex
100
AcDb2dVertex
 10
123.90557
 20
337.566783
 30
0.0
  0
VERTEX
  5
33D
330
32A
100
AcDbEntity
  8
001
370
    50
100
AcDbVertex
100
AcDb2dVertex
 10
124.120773
 20
336.950615
 30
0.0
  0
VERTEX
  5
33E
330
32A
100
AcDbEntity
  8
001
370
    50
100
AcDbVertex
100
AcDb2dVertex
 10
124.29966
 20
336.3229
 30
0.0
  0
VERTEX
  5
33F
330
32A
100
AcDbEntity
  8
001
370
    50
100
AcDbVertex
100
AcDb2dVertex
 10
124.446437
 20
335.674744
 30
0.0
  0
VERTEX
  5
340
330
32A
100
AcDbEntity
  8
001
370
    50
100
AcDbVertex
100
AcDb2dVertex
 10
124.560094
 20
335.019849
 30
0.0
  0
VERTEX
  5
341
330
32A
100
AcDbEntity
  8
001
370
    50
100
AcDbVertex
100
AcDb2dVertex
 10
124.643322
 20
334.351522
 30
0.0
  0
VERTEX
  5
342
330
32A
100
AcDbEntity
  8
001
370
    50
100
AcDbVertex
100
AcDb2dVertex
 10
124.692347
 20
333.680096
 30
0.0
  0
VERTEX
  5
343
330
32A
100
AcDbEntity
  8
001
370
    50
100
AcDbVertex
100
AcDb2dVertex
 10
124.704485
 20
333.317912
 30
0.0
  0
VERTEX
  5
344
330
32A
100
AcDbEntity
  8
001
370
    50
100
AcDbVertex
100
AcDb2dVertex
 10
124.711223
 20
332.955526
 30
0.0
  0
SEQEND
  5
32B
330
32A
100
AcDbEntity
  8
001
370
    50
  0
ARC
  5
345
330
1F
100
AcDbEntity
  8
001
370
    50
100
AcDbCircle
 10
119.711223
 20
339.50291
 30
0.0
 40
5.000000000000001
100
AcDbArc
 50
0.0
 51
90.0
  0
POLYLINE
  5
346
330
1F
100
AcDbEntity
  8
001
370
    50
100
AcDb2dPolyline
 66
     1
 10
0.0
 20
0.0
 30
0.0
  0
VERTEX
  5
348
330
346
100
AcDbEntity
  8
001
370
    50
100
AcDbVertex
100
AcDb2dVertex
 10
114.426123
 20
344.50291
 30
0.0
  0
VERTEX
  5
349
330
346
100
AcDbEntity
  8
001
370
    50
100
AcDbVertex
100
AcDb2dVertex
 10
114.354331
 20
344.502442
 30
0.0
  0
VERTEX
  5
34A
330
346
100
AcDbEntity
  8
001
370
    50
100
AcDbVertex
100
AcDb2dVertex
 10
114.249428
 20
344.500409
 30
0.0
  0
VERTEX
  5
34B
330
346
100
AcDbEntity
  8
001
370
    50
100
AcDbVertex
100
AcDb2dVertex
 10
114.144835
 20
344.496502
 30
0.0
  0
VERTEX
  5
34C
330
346
100
AcDbEntity
  8
001
370
    50
100
AcDbVertex
100
AcDb2dVertex
 10
114.073306
 20
344.492905
 30
0.0
  0
SEQEND
  5
347
330
346
100
AcDbEntity
  8
001
370
    50
  0
LINE
  5
34D
330
1F
100
AcDbEntity
  8
001
370
    50
100
AcDbLine
 10
105.411223
 20
344.50291
 30
0.0
 11
109.783536
 21
344.50291
 31
0.0
  0
LINE
  5
34E
330
1F
100
AcDbEntity
  8
001
370
    50
100
AcDbLine
 10
119.711223
 20
344.50291
 30
0.0
 11
114.426123
 21
344.50291
 31
0.0
  0
LINE
  5
34F
330
1F
100
AcDbEntity
  8
001
370
    50
100
AcDbLine
 10
103.540309
 20
341.863649
 30
0.0
 11
115.592286
 21
341.863649
 31
0.0
  0
POLYLINE
  5
350
330
1F
100
AcDbEntity
  8
001
370
    50
100
AcDb2dPolyline
 66
     1
 10
0.0
 20
0.0
 30
0.0
  0
VERTEX
  5
352
330
350
100
AcDbEntity
  8
001
370
    50
100
AcDbVertex
100
AcDb2dVertex
 10
114.073306
 20
344.492905
 30
0.0
  0
VERTEX
  5
353
330
350
100
AcDbEntity
  8
001
370
    50
100
AcDbVertex
100
AcDb2dVertex
 10
113.202024
 20
344.496501
 30
0.0
  0
VERTEX
  5
354
330
350
100
AcDbEntity
  8
001
370
    50
100
AcDbVertex
100
AcDb2dVertex
 10
111.928608
 20
344.500409
 30
0.0
  0
VERTEX
  5
355
330
350
100
AcDbEntity
  8
001
370
    50
100
AcDbVertex
100
AcDb2dVertex
 10
110.654972
 20
344.502441
 30
0.0
  0
VERTEX
  5
356
330
350
100
AcDbEntity
  8
001
370
    50
100
AcDbVertex
100
AcDb2dVertex
 10
109.783536
 20
344.50291
 30
0.0
  0
SEQEND
  5
351
330
350
100
AcDbEntity
  8
001
370
    50
  0
POLYLINE
  5
357
330
1F
100
AcDbEntity
  8
001
370
    50
100
AcDb2dPolyline
 66
     1
 10
0.0
 20
0.0
 30
0.0
  0
VERTEX
  5
359
330
357
100
AcDbEntity
  8
001
370
    50
100
AcDbVertex
100
AcDb2dVertex
 10
124.711223
 20
292.306112
 30
0.0
  0
VERTEX
  5
35A
330
357
100
AcDbEntity
  8
001
370
    50
100
AcDbVertex
100
AcDb2dVertex
 10
124.693268
 20
291.944339
 30
0.0
  0
VERTEX
  5
35B
330
357
100
AcDbEntity
  8
001
370
    50
100
AcDbVertex
100
AcDb2dVertex
 10
124.658864
 20
291.584468
 30
0.0
  0
VERTEX
  5
35C
330
357
100
AcDbEntity
  8
001
370
    50
100
AcDbVertex
100
AcDb2dVertex
 10
124.583156
 20
291.176553
 30
0.0
  0
VERTEX
  5
35D
330
357
100
AcDbEntity
  8
001
370
    50
100
AcDbVertex
100
AcDb2dVertex
 10
124.470773
 20
290.776347
 30
0.0
  0
VERTEX
  5
35E
330
357
100
AcDbEntity
  8
001
370
    50
100
AcDbVertex
100
AcDb2dVertex
 10
124.327274
 20
290.38716
 30
0.0
  0
VERTEX
  5
35F
330
357
100
AcDbEntity
  8
001
370
    50
100
AcDbVertex
100
AcDb2dVertex
 10
124.152783
 20
290.01129
 30
0.0
  0
VERTEX
  5
360
330
357
100
AcDbEntity
  8
001
370
    50
100
AcDbVertex
100
AcDb2dVertex
 10
123.947155
 20
289.651949
 30
0.0
  0
VERTEX
  5
361
330
357
100
AcDbEntity
  8
001
370
    50
100
AcDbVertex
100
AcDb2dVertex
 10
123.712102
 20
289.310886
 30
0.0
  0
VERTEX
  5
362
330
357
100
AcDbEntity
  8
001
370
    50
100
AcDbVertex
100
AcDb2dVertex
 10
123.45056
 20
288.991011
 30
0.0
  0
VERTEX
  5
363
330
357
100
AcDbEntity
  8
001
370
    50
100
AcDbVertex
100
AcDb2dVertex
 10
123.163457
 20
288.694038
 30
0.0
  0
VERTEX
  5
364
330
357
100
AcDbEntity
  8
001
370
    50
100
AcDbVertex
100
AcDb2dVertex
 10
122.8504
 20
288.420863
 30
0.0
  0
VERTEX
  5
365
330
357
100
AcDbEntity
  8
001
370
    50
100
AcDbVertex
100
AcDb2dVertex
 10
122.515486
 20
288.174763
 30
0.0
  0
VERTEX
  5
366
330
357
100
AcDbEntity
  8
001
370
    50
100
AcDbVertex
100
AcDb2dVertex
 10
122.162194
 20
287.957616
 30
0.0
  0
VERTEX
  5
367
330
357
100
AcDbEntity
  8
001
370
    50
100
AcDbVertex
100
AcDb2dVertex
 10
121.792071
 20
287.770978
 30
0.0
  0
VERTEX
  5
368
330
357
100
AcDbEntity
  8
001
370
    50
100
AcDbVertex
100
AcDb2dVertex
 10
121.403677
 20
287.615341
 30
0.0
  0
VERTEX
  5
369
330
357
100
AcDbEntity
  8
001
370
    50
100
AcDbVertex
100
AcDb2dVertex
 10
121.003384
 20
287.492385
 30
0.0
  0
VERTEX
  5
36A
330
357
100
AcDbEntity
  8
001
370
    50
100
AcDbVertex
100
AcDb2dVertex
 10
120.594705
 20
287.402427
 30
0.0
  0
VERTEX
  5
36B
330
357
100
AcDbEntity
  8
001
370
    50
100
AcDbVertex
100
AcDb2dVertex
 10
120.180218
 20
287.349644
 30
0.0
  0
VERTEX
  5
36C
330
357
100
AcDbEntity
  8
001
370
    50
100
AcDbVertex
100
AcDb2dVertex
 10
119.945938
 20
287.337034
 30
0.0
  0
VERTEX
  5
36D
330
357
100
AcDbEntity
  8
001
370
    50
100
AcDbVertex
100
AcDb2dVertex
 10
119.711223
 20
287.331138
 30
0.0
  0
SEQEND
  5
358
330
357
100
AcDbEntity
  8
001
370
    50
  0
LINE
  5
36E
330
1F
100
AcDbEntity
  8
001
  6
DASHED
370
    50
100
AcDbLine
 10
101.911223
 20
303.90291
 30
0.0
 11
101.907574
 21
303.90291
 31
0.0
  0
ARC
  5
36F
330
1F
100
AcDbEntity
  8
001
370
    50
100
AcDbCircle
 10
119.711223
 20
292.30291
 30
0.0
 40
5.000000000000001
100
AcDbArc
 50
270.0
 51
0.0
  0
LINE
  5
370
330
1F
100
AcDbEntity
  8
001
370
    50
100
AcDbLine
 10
124.711223
 20
294.906508
 30
0.0
 11
124.711223
 21
292.30291
 31
0.0
  0
LINE
  5
371
330
1F
100
AcDbEntity
  8
001
  6
DASHED
370
    50
100
AcDbLine
 10
100.411223
 20
317.556437
 30
0.0
 11
100.411223
 21
317.553852
 31
0.0
  0
LINE
  5
372
330
1F
100
AcDbEntity
  8
001
370
    50
100
AcDbLine
 10
124.711223
 20
299.588245
 30
0.0
 11
124.711223
 21
298.636812
 31
0.0
  0
LINE
  5
373
330
1F
100
AcDbEntity
  8
001
370
    50
100
AcDbLine
 10
100.411223
 20
303.90291
 30
0.0
 11
115.592286
 21
303.90291
 31
0.0
  0
LINE
  5
374
330
1F
100
AcDbEntity
  8
001
370
    50
100
AcDbLine
 10
101.467555
 20
327.90291
 30
0.0
 11
100.411223
 21
327.90291
 31
0.0
  0
LINE
  5
375
330
1F
100
AcDbEntity
  8
001
370
    50
100
AcDbLine
 10
124.711223
 20
339.50291
 30
0.0
 11
124.711223
 21
327.85623
 31
0.0
  0
LINE
  5
376
330
1F
100
AcDbEntity
  8
001
370
    50
100
AcDbLine
 10
100.411223
 20
317.72791
 30
0.0
 11
100.411223
 21
303.90291
 31
0.0
  0
LINE
  5
377
330
1F
100
AcDbEntity
  8
001
370
    50
100
AcDbLine
 10
132.711223
 20
299.90291
 30
0.0
 11
132.711223
 21
331.90291
 31
0.0
  0
LINE
  5
378
330
1F
100
AcDbEntity
  8
001
370
    50
100
AcDbLine
 10
132.711223
 20
331.40291
 30
0.0
 11
129.711223
 21
331.40291
 31
0.0
  0
LINE
  5
379
330
1F
100
AcDbEntity
  8
001
370
    50
100
AcDbLine
 10
129.711223
 20
300.40291
 30
0.0
 11
132.711223
 21
300.40291
 31
0.0
  0
LINE
  5
37A
330
1F
100
AcDbEntity
  8
001
370
    50
100
AcDbLine
 10
99.720886
 20
289.212492
 30
0.0
 11
100.195738
 21
295.114346
 31
0.0
  0
CIRCLE
  5
37B
330
1F
100
AcDbEntity
  8
001
370
    50
100
AcDbCircle
 10
107.809353
 20
290.770031
 30
0.0
 40
3.0
  0
LINE
  5
37C
330
1F
100
AcDbEntity
  8
001
370
    50
100
AcDbLine
 10
112.659117
 20
295.566505
 30
0.0
 11
100.591657
 21
295.482257
 31
0.0
  0
CIRCLE
  5
37D
330
1F
100
AcDbEntity
  8
001
370
    50
100
AcDbCircle
 10
107.814341
 20
290.783296
 30
0.0
 40
2.5
  0
LINE
  5
37E
330
1F
100
AcDbEntity
  8
001
370
    50
100
AcDbLine
 10
108.39391
 20
291.782012
 30
0.0
 11
108.077589
 21
292.332716
 31
0.0
  0
LINE
  5
37F
330
1F
100
AcDbEntity
  8
001
370
    50
100
AcDbLine
 10
107.239212
 20
291.784576
 30
0.0
 11
107.557976
 21
292.333869
 31
0.0
  0
ARC
  5
380
330
1F
100
AcDbEntity
  8
001
370
    50
100
AcDbCircle
 10
107.817449
 20
292.183293
 30
0.0
 40
0.3
100
AcDbArc
 50
29.872778
 51
149.872778
  0
LINE
  5
381
330
1F
100
AcDbEntity
  8
001
370
    50
100
AcDbLine
 10
107.239212
 20
291.784576
 30
0.0
 11
106.604129
 21
291.785986
 31
0.0
  0
LINE
  5
382
330
1F
100
AcDbEntity
  8
001
370
    50
100
AcDbLine
 10
106.659643
 20
290.78586
 30
0.0
 11
106.343322
 21
291.336564
 31
0.0
  0
ARC
  5
383
330
1F
100
AcDbEntity
  8
001
370
    50
100
AcDbCircle
 10
106.603463
 20
291.485987
 30
0.0
 40
0.3
100
AcDbArc
 50
89.872778
 51
209.872778
  0
LINE
  5
384
330
1F
100
AcDbEntity
  8
001
370
    50
100
AcDbLine
 10
106.659643
 20
290.78586
 30
0.0
 11
106.34088
 21
290.236567
 31
0.0
  0
LINE
  5
385
330
1F
100
AcDbEntity
  8
001
370
    50
100
AcDbLine
 10
107.234772
 20
289.784581
 30
0.0
 11
106.599688
 21
289.785991
 31
0.0
  0
ARC
  5
386
330
1F
100
AcDbEntity
  8
001
370
    50
100
AcDbCircle
 10
106.600354
 20
290.08599
 30
0.0
 40
0.3
100
AcDbArc
 50
149.872778
 51
269.872778
  0
LINE
  5
387
330
1F
100
AcDbEntity
  8
001
370
    50
100
AcDbLine
 10
107.234772
 20
289.784581
 30
0.0
 11
107.551092
 21
289.233877
 31
0.0
  0
LINE
  5
388
330
1F
100
AcDbEntity
  8
001
370
    50
100
AcDbLine
 10
108.389469
 20
289.782017
 30
0.0
 11
108.070706
 21
289.232723
 31
0.0
  0
ARC
  5
389
330
1F
100
AcDbEntity
  8
001
370
    50
100
AcDbCircle
 10
107.811232
 20
289.3833
 30
0.0
 40
0.3
100
AcDbArc
 50
209.872778
 51
329.872778
  0
LINE
  5
38A
330
1F
100
AcDbEntity
  8
001
370
    50
100
AcDbLine
 10
108.389469
 20
289.782017
 30
0.0
 11
109.024553
 21
289.780607
 31
0.0
  0
LINE
  5
38B
330
1F
100
AcDbEntity
  8
001
370
    50
100
AcDbLine
 10
108.969039
 20
290.780732
 30
0.0
 11
109.285359
 21
290.230029
 31
0.0
  0
ARC
  5
38C
330
1F
100
AcDbEntity
  8
001
370
    50
100
AcDbCircle
 10
109.025219
 20
290.080606
 30
0.0
 40
0.3
100
AcDbArc
 50
269.872778
 51
29.872778
  0
LINE
  5
38D
330
1F
100
AcDbEntity
  8
001
370
    50
100
AcDbLine
 10
108.969039
 20
290.780732
 30
0.0
 11
109.287802
 21
291.330026
 31
0.0
  0
LINE
  5
38E
330
1F
100
AcDbEntity
  8
001
370
    50
100
AcDbLine
 10
108.39391
 20
291.782012
 30
0.0
 11
109.028994
 21
291.780602
 31
0.0
  0
ARC
  5
38F
330
1F
100
AcDbEntity
  8
001
370
    50
100
AcDbCircle
 10
109.028328
 20
291.480603
 30
0.0
 40
0.3
100
AcDbArc
 50
329.872778
 51
89.872778
  0
LINE
  5
390
330
1F
100
AcDbEntity
  8
001
370
    50
100
AcDbLine
 10
102.732167
 20
285.971969
 30
0.0
 11
114.799627
 21
286.056217
 31
0.0
  0
ARC
  5
391
330
1F
100
AcDbEntity
  8
001
370
    50
100
AcDbCircle
 10
100.59445
 20
295.082267
 30
0.0
 40
0.4
100
AcDbArc
 50
90.4
 51
175.4
  0
POLYLINE
  5
392
330
1F
100
AcDbEntity
  8
001
370
    50
100
AcDb2dPolyline
 66
     1
 10
0.0
 20
0.0
 30
0.0
  0
VERTEX
  5
394
330
392
100
AcDbEntity
  8
001
370
    50
100
AcDbVertex
100
AcDb2dVertex
 10
101.467592
 20
303.90271
 30
0.0
  0
VERTEX
  5
395
330
392
100
AcDbEntity
  8
001
370
    50
100
AcDbVertex
100
AcDb2dVertex
 10
101.238925
 20
301.036551
 30
0.0
  0
VERTEX
  5
396
330
392
100
AcDbEntity
  8
001
370
    50
100
AcDbVertex
100
AcDb2dVertex
 10
101.00094
 20
298.171184
 30
0.0
  0
VERTEX
  5
397
330
392
100
AcDbEntity
  8
001
370
    50
100
AcDbVertex
100
AcDb2dVertex
 10
100.899209
 20
297.002549
 30
0.0
  0
VERTEX
  5
398
330
392
100
AcDbEntity
  8
001
370
    50
100
AcDbVertex
100
AcDb2dVertex
 10
100.79487
 20
295.834138
 30
0.0
  0
VERTEX
  5
399
330
392
100
AcDbEntity
  8
001
370
    50
100
AcDbVertex
100
AcDb2dVertex
 10
100.778973
 20
295.65806
 30
0.0
  0
VERTEX
  5
39A
330
392
100
AcDbEntity
  8
001
370
    50
100
AcDbVertex
100
AcDb2dVertex
 10
100.763076
 20
295.481982
 30
0.0
  0
SEQEND
  5
393
330
392
100
AcDbEntity
  8
001
370
    50
  0
LINE
  5
39B
330
1F
100
AcDbEntity
  8
001
370
    50
100
AcDbLine
 10
101.052772
 20
295.484005
 30
0.0
 11
101.907574
 21
303.90291
 31
0.0
  0
LINE
  5
39C
330
1F
100
AcDbEntity
  8
001
  6
DASHED
370
    30
100
AcDbLine
 10
101.10521
 20
295.484371
 30
0.0
 11
102.200243
 21
305.90291
 31
0.0
  0
LINE
  5
39D
330
1F
100
AcDbEntity
  8
001
370
    50
100
AcDbLine
 10
99.931638
 20
342.593327
 30
0.0
 11
100.40649
 21
336.691473
 31
0.0
  0
LINE
  5
39E
330
1F
100
AcDbEntity
  8
001
370
    50
100
AcDbLine
 10
102.942918
 20
345.833851
 30
0.0
 11
115.010378
 21
345.749603
 31
0.0
  0
ARC
  5
39F
330
1F
100
AcDbEntity
  8
001
370
    50
100
AcDbCircle
 10
115.007586
 20
345.349612
 30
0.0
 40
0.4
100
AcDbArc
 50
4.6
 51
89.6
  0
LINE
  5
3A0
330
1F
100
AcDbEntity
  8
001
370
    50
100
AcDbLine
 10
115.406298
 20
345.381692
 30
0.0
 11
115.477003
 21
344.50291
 31
0.0
  0
ARC
  5
3A1
330
1F
100
AcDbEntity
  8
001
370
    50
100
AcDbCircle
 10
100.805201
 20
336.723553
 30
0.0
 40
0.4
100
AcDbArc
 50
184.6
 51
263.661054
  0
ARC
  5
3A2
330
1F
100
AcDbEntity
  8
001
370
    50
100
AcDbCircle
 10
102.711223
 20
288.971896
 30
0.0
 40
3.0
100
AcDbArc
 50
175.4
 51
270.4
  0
LINE
  5
3A3
330
1F
100
AcDbEntity
  8
001
370
     9
100
AcDbLine
 10
102.732167
 20
285.971969
 30
0.0
 11
95.231487
 21
285.971969
 31
0.0
  0
ARC
  5
3A4
330
1F
100
AcDbEntity
  8
001
370
    50
100
AcDbCircle
 10
102.921974
 20
342.833924
 30
0.0
 40
3.0
100
AcDbArc
 50
89.6
 51
184.6
  0
ARC
  5
3A5
330
1F
100
AcDbEntity
  8
001
370
    50
100
AcDbCircle
 10
105.411223
 20
339.50291
 30
0.0
 40
5.0
100
AcDbArc
 50
90.0
 51
175.157618
  0
ARC
  5
3A6
330
1F
100
AcDbEntity
  8
001
370
    50
100
AcDbCircle
 10
103.540309
 20
338.863649
 30
0.0
 40
3.0
100
AcDbArc
 50
90.0
 51
185.294309
  0
LINE
  5
3A7
330
1F
100
AcDbEntity
  8
001
  6
DASHED
370
    30
100
AcDbLine
 10
102.200243
 20
325.90291
 30
0.0
 11
100.620409
 21
340.934028
 31
0.0
  0
LINE
  5
3A8
330
1F
100
AcDbEntity
  8
001
370
     9
100
AcDbLine
 10
99.711223
 20
288.971896
 30
0.0
 11
99.711223
 21
282.13071
 31
0.0
  0
POLYLINE
  5
3A9
330
1F
100
AcDbEntity
  8
001
370
    50
100
AcDb2dPolyline
 66
     1
 10
0.0
 20
0.0
 30
0.0
  0
VERTEX
  5
3AB
330
3A9
100
AcDbEntity
  8
001
370
    50
100
AcDbVertex
100
AcDb2dVertex
 10
115.084074
 20
95.960646
 30
0.0
  0
VERTEX
  5
3AC
330
3A9
100
AcDbEntity
  8
001
370
    50
100
AcDbVertex
100
AcDb2dVertex
 10
115.283401
 20
95.958176
 30
0.0
  0
VERTEX
  5
3AD
330
3A9
100
AcDbEntity
  8
001
370
    50
100
AcDbVertex
100
AcDb2dVertex
 10
115.482727
 20
95.955705
 30
0.0
  0
VERTEX
  5
3AE
330
3A9
100
AcDbEntity
  8
001
370
    50
100
AcDbVertex
100
AcDb2dVertex
 10
116.357563
 20
95.945278
 30
0.0
  0
VERTEX
  5
3AF
330
3A9
100
AcDbEntity
  8
001
370
    50
100
AcDbVertex
100
AcDb2dVertex
 10
117.547388
 20
95.932308
 30
0.0
  0
VERTEX
  5
3B0
330
3A9
100
AcDbEntity
  8
001
370
    50
100
AcDbVertex
100
AcDb2dVertex
 10
118.83216
 20
95.92016
 30
0.0
  0
VERTEX
  5
3B1
330
3A9
100
AcDbEntity
  8
001
370
    50
100
AcDbVertex
100
AcDb2dVertex
 10
119.711223
 20
95.91279
 30
0.0
  0
SEQEND
  5
3AA
330
3A9
100
AcDbEntity
  8
001
370
    50
  0
LINE
  5
3B2
330
1F
100
AcDbEntity
  8
001
370
    50
100
AcDbLine
 10
115.077953
 20
95.884562
 30
0.0
 11
119.711223
 21
95.884562
 31
0.0
  0
LINE
  5
3B3
330
1F
100
AcDbEntity
  8
001
370
    50
100
AcDbLine
 10
115.481994
 20
292.324666
 30
0.0
 11
115.007142
 21
286.422812
 31
0.0
  0
ARC
  5
3B4
330
1F
100
AcDbEntity
  8
001
370
    50
100
AcDbCircle
 10
113.966191
 20
293.830648
 30
0.0
 40
3.0
100
AcDbArc
 50
298.349498
 51
144.83356
  0
ARC
  5
3B5
330
1F
100
AcDbEntity
  8
001
370
    50
100
AcDbCircle
 10
114.60843
 20
286.454892
 30
0.0
 40
0.4
100
AcDbArc
 50
270.4
 51
355.4
  0
ARC
  5
3B6
330
1F
100
AcDbEntity
  8
001
370
    50
100
AcDbCircle
 10
112.491657
 20
292.565263
 30
0.0
 40
3.0
100
AcDbArc
 50
355.4
 51
90.4
  0
LINE
  5
3B7
330
1F
100
AcDbEntity
  8
001
370
    50
100
AcDbLine
 10
115.077953
 20
287.30291
 30
0.0
 11
119.711223
 21
287.30291
 31
0.0
  0
POLYLINE
  5
3B8
330
1F
100
AcDbEntity
  8
001
370
    50
100
AcDb2dPolyline
 66
     1
 10
0.0
 20
0.0
 30
0.0
  0
VERTEX
  5
3BA
330
3B8
100
AcDbEntity
  8
001
370
    50
100
AcDbVertex
100
AcDb2dVertex
 10
115.084074
 20
287.378994
 30
0.0
  0
VERTEX
  5
3BB
330
3B8
100
AcDbEntity
  8
001
370
    50
100
AcDbVertex
100
AcDb2dVertex
 10
115.283401
 20
287.376524
 30
0.0
  0
VERTEX
  5
3BC
330
3B8
100
AcDbEntity
  8
001
370
    50
100
AcDbVertex
100
AcDb2dVertex
 10
115.482727
 20
287.374054
 30
0.0
  0
VERTEX
  5
3BD
330
3B8
100
AcDbEntity
  8
001
370
    50
100
AcDbVertex
100
AcDb2dVertex
 10
116.357563
 20
287.363626
 30
0.0
  0
VERTEX
  5
3BE
330
3B8
100
AcDbEntity
  8
001
370
    50
100
AcDbVertex
100
AcDb2dVertex
 10
117.547388
 20
287.350656
 30
0.0
  0
VERTEX
  5
3BF
330
3B8
100
AcDbEntity
  8
001
370
    50
100
AcDbVertex
100
AcDb2dVertex
 10
118.83216
 20
287.338508
 30
0.0
  0
VERTEX
  5
3C0
330
3B8
100
AcDbEntity
  8
001
370
    50
100
AcDbVertex
100
AcDb2dVertex
 10
119.711223
 20
287.331138
 30
0.0
  0
SEQEND
  5
3B9
330
3B8
100
AcDbEntity
  8
001
370
    50
  0
POLYLINE
  5
3C1
330
1F
100
AcDbEntity
  8
001
370
    50
100
AcDb2dPolyline
 66
     1
 10
0.0
 20
0.0
 30
0.0
  0
VERTEX
  5
3C3
330
3C1
100
AcDbEntity
  8
001
370
    50
100
AcDbVertex
100
AcDb2dVertex
 10
458.351929
 20
92.765678
 30
0.0
  0
VERTEX
  5
3C4
330
3C1
100
AcDbEntity
  8
001
370
    50
100
AcDbVertex
100
AcDb2dVertex
 10
458.86711
 20
92.754006
 30
0.0
  0
VERTEX
  5
3C5
330
3C1
100
AcDbEntity
  8
001
370
    50
100
AcDbVertex
100
AcDb2dVertex
 10
459.381663
 20
92.731171
 30
0.0
  0
VERTEX
  5
3C6
330
3C1
100
AcDbEntity
  8
001
370
    50
100
AcDbVertex
100
AcDb2dVertex
 10
459.897359
 20
92.688225
 30
0.0
  0
VERTEX
  5
3C7
330
3C1
100
AcDbEntity
  8
001
370
    50
100
AcDbVertex
100
AcDb2dVertex
 10
460.411397
 20
92.626387
 30
0.0
  0
VERTEX
  5
3C8
330
3C1
100
AcDbEntity
  8
001
370
    50
100
AcDbVertex
100
AcDb2dVertex
 10
460.931272
 20
92.546673
 30
0.0
  0
VERTEX
  5
3C9
330
3C1
100
AcDbEntity
  8
001
370
    50
100
AcDbVertex
100
AcDb2dVertex
 10
461.447445
 20
92.44722
 30
0.0
  0
VERTEX
  5
3CA
330
3C1
100
AcDbEntity
  8
001
370
    50
100
AcDbVertex
100
AcDb2dVertex
 10
461.960485
 20
92.326297
 30
0.0
  0
VERTEX
  5
3CB
330
3C1
100
AcDbEntity
  8
001
370
    50
100
AcDbVertex
100
AcDb2dVertex
 10
462.470866
 20
92.193435
 30
0.0
  0
SEQEND
  5
3C2
330
3C1
100
AcDbEntity
  8
001
370
    50
  0
POLYLINE
  5
3CC
330
1F
100
AcDbEntity
  8
001
370
    50
100
AcDb2dPolyline
 66
     1
 10
0.0
 20
0.0
 30
0.0
  0
VERTEX
  5
3CE
330
3CC
100
AcDbEntity
  8
001
370
    50
100
AcDbVertex
100
AcDb2dVertex
 10
462.470866
 20
92.193435
 30
0.0
  0
VERTEX
  5
3CF
330
3CC
100
AcDbEntity
  8
001
370
    50
100
AcDbVertex
100
AcDb2dVertex
 10
462.846751
 20
92.076434
 30
0.0
  0
VERTEX
  5
3D0
330
3CC
100
AcDbEntity
  8
001
370
    50
100
AcDbVertex
100
AcDb2dVertex
 10
463.219984
 20
91.951666
 30
0.0
  0
VERTEX
  5
3D1
330
3CC
100
AcDbEntity
  8
001
370
    50
100
AcDbVertex
100
AcDb2dVertex
 10
463.568972
 20
91.820616
 30
0.0
  0
VERTEX
  5
3D2
330
3CC
100
AcDbEntity
  8
001
370
    50
100
AcDbVertex
100
AcDb2dVertex
 10
463.913035
 20
91.676922
 30
0.0
  0
VERTEX
  5
3D3
330
3CC
100
AcDbEntity
  8
001
370
    50
100
AcDbVertex
100
AcDb2dVertex
 10
464.171622
 20
91.559649
 30
0.0
  0
VERTEX
  5
3D4
330
3CC
100
AcDbEntity
  8
001
370
    50
100
AcDbVertex
100
AcDb2dVertex
 10
464.426922
 20
91.435457
 30
0.0
  0
VERTEX
  5
3D5
330
3CC
100
AcDbEntity
  8
001
370
    50
100
AcDbVertex
100
AcDb2dVertex
 10
464.662448
 20
91.31277
 30
0.0
  0
VERTEX
  5
3D6
330
3CC
100
AcDbEntity
  8
001
370
    50
100
AcDbVertex
100
AcDb2dVertex
 10
464.894531
 20
91.183678
 30
0.0
  0
VERTEX
  5
3D7
330
3CC
100
AcDbEntity
  8
001
370
    50
100
AcDbVertex
100
AcDb2dVertex
 10
465.105892
 20
91.058493
 30
0.0
  0
VERTEX
  5
3D8
330
3CC
100
AcDbEntity
  8
001
370
    50
100
AcDbVertex
100
AcDb2dVertex
 10
465.313783
 20
90.927623
 30
0.0
  0
VERTEX
  5
3D9
330
3CC
100
AcDbEntity
  8
001
370
    50
100
AcDbVertex
100
AcDb2dVertex
 10
465.586177
 20
90.74324
 30
0.0
  0
VERTEX
  5
3DA
330
3CC
100
AcDbEntity
  8
001
370
    50
100
AcDbVertex
100
AcDb2dVertex
 10
465.851015
 20
90.548118
 30
0.0
  0
VERTEX
  5
3DB
330
3CC
100
AcDbEntity
  8
001
370
    50
100
AcDbVertex
100
AcDb2dVertex
 10
466.079035
 20
90.365682
 30
0.0
  0
VERTEX
  5
3DC
330
3CC
100
AcDbEntity
  8
001
370
    50
100
AcDbVertex
100
AcDb2dVertex
 10
466.299457
 20
90.174242
 30
0.0
  0
VERTEX
  5
3DD
330
3CC
100
AcDbEntity
  8
001
370
    50
100
AcDbVertex
100
AcDb2dVertex
 10
466.485858
 20
89.99859
 30
0.0
  0
VERTEX
  5
3DE
330
3CC
100
AcDbEntity
  8
001
370
    50
100
AcDbVertex
100
AcDb2dVertex
 10
466.665212
 20
89.815541
 30
0.0
  0
VERTEX
  5
3DF
330
3CC
100
AcDbEntity
  8
001
370
    50
100
AcDbVertex
100
AcDb2dVertex
 10
466.869916
 20
89.585661
 30
0.0
  0
VERTEX
  5
3E0
330
3CC
100
AcDbEntity
  8
001
370
    50
100
AcDbVertex
100
AcDb2dVertex
 10
467.059303
 20
89.343645
 30
0.0
  0
VERTEX
  5
3E1
330
3CC
100
AcDbEntity
  8
001
370
    50
100
AcDbVertex
100
AcDb2dVertex
 10
467.196434
 20
89.141095
 30
0.0
  0
VERTEX
  5
3E2
330
3CC
100
AcDbEntity
  8
001
370
    50
100
AcDbVertex
100
AcDb2dVertex
 10
467.319737
 20
88.928514
 30
0.0
  0
VERTEX
  5
3E3
330
3CC
100
AcDbEntity
  8
001
370
    50
100
AcDbVertex
100
AcDb2dVertex
 10
467.398498
 20
88.763902
 30
0.0
  0
VERTEX
  5
3E4
330
3CC
100
AcDbEntity
  8
001
370
    50
100
AcDbVertex
100
AcDb2dVertex
 10
467.451989
 20
88.591389
 30
0.0
  0
VERTEX
  5
3E5
330
3CC
100
AcDbEntity
  8
001
370
    50
100
AcDbVertex
100
AcDb2dVertex
 10
467.463046
 20
88.521563
 30
0.0
  0
VERTEX
  5
3E6
330
3CC
100
AcDbEntity
  8
001
370
    50
100
AcDbVertex
100
AcDb2dVertex
 10
467.470866
 20
88.451013
 30
0.0
  0
SEQEND
  5
3CD
330
3CC
100
AcDbEntity
  8
001
370
    50
  0
LINE
  5
3E7
330
1F
100
AcDbEntity
  8
001
  6
DASHED
370
    30
100
AcDbLine
 10
444.959886
 20
114.765678
 30
0.0
 11
444.959886
 21
94.765678
 31
0.0
  0
LINE
  5
3E8
330
1F
100
AcDbEntity
  8
001
  6
DASHED
370
    50
100
AcDbLine
 10
443.179083
 20
106.416821
 30
0.0
 11
443.179083
 21
106.418257
 31
0.0
  0
POLYLINE
  5
3E9
330
1F
100
AcDbEntity
  8
001
370
    50
100
AcDb2dPolyline
 66
     1
 10
0.0
 20
0.0
 30
0.0
  0
VERTEX
  5
3EB
330
3E9
100
AcDbEntity
  8
001
370
    50
100
AcDbVertex
100
AcDb2dVertex
 10
467.470866
 20
87.49958
 30
0.0
  0
VERTEX
  5
3EC
330
3E9
100
AcDbEntity
  8
001
370
    50
100
AcDbVertex
100
AcDb2dVertex
 10
467.470911
 20
87.490927
 30
0.0
  0
VERTEX
  5
3ED
330
3E9
100
AcDbEntity
  8
001
370
    50
100
AcDbVertex
100
AcDb2dVertex
 10
467.470978
 20
87.482275
 30
0.0
  0
VERTEX
  5
3EE
330
3E9
100
AcDbEntity
  8
001
370
    50
100
AcDbVertex
100
AcDb2dVertex
 10
467.479733
 20
87.313505
 30
0.0
  0
VERTEX
  5
3EF
330
3E9
100
AcDbEntity
  8
001
370
    50
100
AcDbVertex
100
AcDb2dVertex
 10
467.49799
 20
87.145276
 30
0.0
  0
VERTEX
  5
3F0
330
3E9
100
AcDbEntity
  8
001
370
    50
100
AcDbVertex
100
AcDb2dVertex
 10
467.522901
 20
86.952642
 30
0.0
  0
VERTEX
  5
3F1
330
3E9
100
AcDbEntity
  8
001
370
    50
100
AcDbVertex
100
AcDb2dVertex
 10
467.548269
 20
86.760169
 30
0.0
  0
VERTEX
  5
3F2
330
3E9
100
AcDbEntity
  8
001
370
    50
100
AcDbVertex
100
AcDb2dVertex
 10
467.593428
 20
86.354859
 30
0.0
  0
VERTEX
  5
3F3
330
3E9
100
AcDbEntity
  8
001
370
    50
100
AcDbVertex
100
AcDb2dVertex
 10
467.619768
 20
85.947945
 30
0.0
  0
VERTEX
  5
3F4
330
3E9
100
AcDbEntity
  8
001
370
    50
100
AcDbVertex
100
AcDb2dVertex
 10
467.621134
 20
85.554356
 30
0.0
  0
VERTEX
  5
3F5
330
3E9
100
AcDbEntity
  8
001
370
    50
100
AcDbVertex
100
AcDb2dVertex
 10
467.59961
 20
85.16132
 30
0.0
  0
VERTEX
  5
3F6
330
3E9
100
AcDbEntity
  8
001
370
    50
100
AcDbVertex
100
AcDb2dVertex
 10
467.559377
 20
84.773359
 30
0.0
  0
VERTEX
  5
3F7
330
3E9
100
AcDbEntity
  8
001
370
    50
100
AcDbVertex
100
AcDb2dVertex
 10
467.509106
 20
84.386465
 30
0.0
  0
SEQEND
  5
3EA
330
3E9
100
AcDbEntity
  8
001
370
    50
  0
POLYLINE
  5
3F8
330
1F
100
AcDbEntity
  8
001
370
    50
100
AcDb2dPolyline
 66
     1
 10
0.0
 20
0.0
 30
0.0
  0
VERTEX
  5
3FA
330
3F8
100
AcDbEntity
  8
001
370
    50
100
AcDbVertex
100
AcDb2dVertex
 10
467.509106
 20
84.386465
 30
0.0
  0
VERTEX
  5
3FB
330
3F8
100
AcDbEntity
  8
001
370
    50
100
AcDbVertex
100
AcDb2dVertex
 10
466.944361
 20
85.406585
 30
0.0
  0
VERTEX
  5
3FC
330
3F8
100
AcDbEntity
  8
001
370
    50
100
AcDbVertex
100
AcDb2dVertex
 10
466.078163
 20
86.75668
 30
0.0
  0
VERTEX
  5
3FD
330
3F8
100
AcDbEntity
  8
001
370
    50
100
AcDbVertex
100
AcDb2dVertex
 10
465.180637
 20
87.882741
 30
0.0
  0
VERTEX
  5
3FE
330
3F8
100
AcDbEntity
  8
001
370
    50
100
AcDbVertex
100
AcDb2dVertex
 10
464.241031
 20
88.818036
 30
0.0
  0
VERTEX
  5
3FF
330
3F8
100
AcDbEntity
  8
001
370
    50
100
AcDbVertex
100
AcDb2dVertex
 10
463.20114
 20
89.695571
 30
0.0
  0
VERTEX
  5
400
330
3F8
100
AcDbEntity
  8
001
370
    50
100
AcDbVertex
100
AcDb2dVertex
 10
462.06082
 20
90.499723
 30
0.0
  0
VERTEX
  5
401
330
3F8
100
AcDbEntity
  8
001
370
    50
100
AcDbVertex
100
AcDb2dVertex
 10
460.84823
 20
91.182927
 30
0.0
  0
VERTEX
  5
402
330
3F8
100
AcDbEntity
  8
001
370
    50
100
AcDbVertex
100
AcDb2dVertex
 10
459.612424
 20
91.743971
 30
0.0
  0
VERTEX
  5
403
330
3F8
100
AcDbEntity
  8
001
370
    50
100
AcDbVertex
100
AcDb2dVertex
 10
458.373041
 20
92.186887
 30
0.0
  0
VERTEX
  5
404
330
3F8
100
AcDbEntity
  8
001
370
    50
100
AcDbVertex
100
AcDb2dVertex
 10
456.97995
 20
92.508039
 30
0.0
  0
VERTEX
  5
405
330
3F8
100
AcDbEntity
  8
001
370
    50
100
AcDbVertex
100
AcDb2dVertex
 10
455.405198
 20
92.701256
 30
0.0
  0
VERTEX
  5
406
330
3F8
100
AcDbEntity
  8
001
370
    50
100
AcDbVertex
100
AcDb2dVertex
 10
454.253829
 20
92.765678
 30
0.0
  0
SEQEND
  5
3F9
330
3F8
100
AcDbEntity
  8
001
370
    50
  0
LINE
  5
407
330
1F
100
AcDbEntity
  8
001
370
    50
100
AcDbLine
 10
472.470866
 20
120.765678
 30
0.0
 11
472.470866
 21
88.765678
 31
0.0
  0
ARC
  5
408
330
1F
100
AcDbEntity
  8
001
370
    50
100
AcDbCircle
 10
472.470866
 20
125.765678
 30
0.0
 40
5.000000000000001
100
AcDbArc
 50
180.0
 51
270.0
  0
ARC
  5
409
330
1F
100
AcDbEntity
  8
001
370
    50
100
AcDbCircle
 10
472.470866
 20
83.765678
 30
0.0
 40
5.000000000000001
100
AcDbArc
 50
90.0
 51
180.0
  0
POLYLINE
  5
40A
330
1F
100
AcDbEntity
  8
001
370
    50
100
AcDb2dPolyline
 66
     1
 10
0.0
 20
0.0
 30
0.0
  0
VERTEX
  5
40C
330
40A
100
AcDbEntity
  8
001
370
    50
100
AcDbVertex
100
AcDb2dVertex
 10
458.351929
 20
130.726417
 30
0.0
  0
VERTEX
  5
40D
330
40A
100
AcDbEntity
  8
001
370
    50
100
AcDbVertex
100
AcDb2dVertex
 10
458.866865
 20
130.721045
 30
0.0
  0
VERTEX
  5
40E
330
40A
100
AcDbEntity
  8
001
370
    50
100
AcDbVertex
100
AcDb2dVertex
 10
459.381663
 20
130.710439
 30
0.0
  0
VERTEX
  5
40F
330
40A
100
AcDbEntity
  8
001
370
    50
100
AcDbVertex
100
AcDb2dVertex
 10
459.89671
 20
130.690473
 30
0.0
  0
VERTEX
  5
410
330
40A
100
AcDbEntity
  8
001
370
    50
100
AcDbVertex
100
AcDb2dVertex
 10
460.411397
 20
130.661578
 30
0.0
  0
VERTEX
  5
411
330
40A
100
AcDbEntity
  8
001
370
    50
100
AcDbVertex
100
AcDb2dVertex
 10
460.929875
 20
130.624274
 30
0.0
  0
VERTEX
  5
412
330
40A
100
AcDbEntity
  8
001
370
    50
100
AcDbVertex
100
AcDb2dVertex
 10
461.447445
 20
130.57683
 30
0.0
  0
VERTEX
  5
413
330
40A
100
AcDbEntity
  8
001
370
    50
100
AcDbVertex
100
AcDb2dVertex
 10
461.959491
 20
130.518644
 30
0.0
  0
VERTEX
  5
414
330
40A
100
AcDbEntity
  8
001
370
    50
100
AcDbVertex
100
AcDb2dVertex
 10
462.470866
 20
130.454171
 30
0.0
  0
SEQEND
  5
40B
330
40A
100
AcDbEntity
  8
001
370
    50
  0
POLYLINE
  5
415
330
1F
100
AcDbEntity
  8
001
370
    50
100
AcDb2dPolyline
 66
     1
 10
0.0
 20
0.0
 30
0.0
  0
VERTEX
  5
417
330
415
100
AcDbEntity
  8
001
370
    50
100
AcDbVertex
100
AcDb2dVertex
 10
462.470866
 20
130.454171
 30
0.0
  0
VERTEX
  5
418
330
415
100
AcDbEntity
  8
001
370
    50
100
AcDbVertex
100
AcDb2dVertex
 10
462.84884
 20
130.373642
 30
0.0
  0
VERTEX
  5
419
330
415
100
AcDbEntity
  8
001
370
    50
100
AcDbVertex
100
AcDb2dVertex
 10
463.219984
 20
130.270737
 30
0.0
  0
VERTEX
  5
41A
330
415
100
AcDbEntity
  8
001
370
    50
100
AcDbVertex
100
AcDb2dVertex
 10
463.573846
 20
130.130461
 30
0.0
  0
VERTEX
  5
41B
330
415
100
AcDbEntity
  8
001
370
    50
100
AcDbVertex
100
AcDb2dVertex
 10
463.913035
 20
129.955647
 30
0.0
  0
VERTEX
  5
41C
330
415
100
AcDbEntity
  8
001
370
    50
100
AcDbVertex
100
AcDb2dVertex
 10
464.175456
 20
129.79469
 30
0.0
  0
VERTEX
  5
41D
330
415
100
AcDbEntity
  8
001
370
    50
100
AcDbVertex
100
AcDb2dVertex
 10
464.426922
 20
129.617672
 30
0.0
  0
VERTEX
  5
41E
330
415
100
AcDbEntity
  8
001
370
    50
100
AcDbVertex
100
AcDb2dVertex
 10
464.666481
 20
129.425801
 30
0.0
  0
VERTEX
  5
41F
330
415
100
AcDbEntity
  8
001
370
    50
100
AcDbVertex
100
AcDb2dVertex
 10
464.894531
 20
129.220234
 30
0.0
  0
VERTEX
  5
420
330
415
100
AcDbEntity
  8
001
370
    50
100
AcDbVertex
100
AcDb2dVertex
 10
465.109854
 20
129.003806
 30
0.0
  0
VERTEX
  5
421
330
415
100
AcDbEntity
  8
001
370
    50
100
AcDbVertex
100
AcDb2dVertex
 10
465.313783
 20
128.776627
 30
0.0
  0
VERTEX
  5
422
330
415
100
AcDbEntity
  8
001
370
    50
100
AcDbVertex
100
AcDb2dVertex
 10
465.594299
 20
128.423861
 30
0.0
  0
VERTEX
  5
423
330
415
100
AcDbEntity
  8
001
370
    50
100
AcDbVertex
100
AcDb2dVertex
 10
465.851015
 20
128.053261
 30
0.0
  0
VERTEX
  5
424
330
415
100
AcDbEntity
  8
001
370
    50
100
AcDbVertex
100
AcDb2dVertex
 10
466.086349
 20
127.665123
 30
0.0
  0
VERTEX
  5
425
330
415
100
AcDbEntity
  8
001
370
    50
100
AcDbVertex
100
AcDb2dVertex
 10
466.299457
 20
127.264405
 30
0.0
  0
VERTEX
  5
426
330
415
100
AcDbEntity
  8
001
370
    50
100
AcDbVertex
100
AcDb2dVertex
 10
466.4923
 20
126.851374
 30
0.0
  0
VERTEX
  5
427
330
415
100
AcDbEntity
  8
001
370
    50
100
AcDbVertex
100
AcDb2dVertex
 10
466.665212
 20
126.429551
 30
0.0
  0
VERTEX
  5
428
330
415
100
AcDbEntity
  8
001
370
    50
100
AcDbVertex
100
AcDb2dVertex
 10
466.880416
 20
125.813383
 30
0.0
  0
VERTEX
  5
429
330
415
100
AcDbEntity
  8
001
370
    50
100
AcDbVertex
100
AcDb2dVertex
 10
467.059303
 20
125.185668
 30
0.0
  0
VERTEX
  5
42A
330
415
100
AcDbEntity
  8
001
370
    50
100
AcDbVertex
100
AcDb2dVertex
 10
467.20608
 20
124.537512
 30
0.0
  0
VERTEX
  5
42B
330
415
100
AcDbEntity
  8
001
370
    50
100
AcDbVertex
100
AcDb2dVertex
 10
467.319737
 20
123.882617
 30
0.0
  0
VERTEX
  5
42C
330
415
100
AcDbEntity
  8
001
370
    50
100
AcDbVertex
100
AcDb2dVertex
 10
467.402964
 20
123.21429
 30
0.0
  0
VERTEX
  5
42D
330
415
100
AcDbEntity
  8
001
370
    50
100
AcDbVertex
100
AcDb2dVertex
 10
467.451989
 20
122.542864
 30
0.0
  0
VERTEX
  5
42E
330
415
100
AcDbEntity
  8
001
370
    50
100
AcDbVertex
100
AcDb2dVertex
 10
467.464127
 20
122.18068
 30
0.0
  0
VERTEX
  5
42F
330
415
100
AcDbEntity
  8
001
370
    50
100
AcDbVertex
100
AcDb2dVertex
 10
467.470866
 20
121.818294
 30
0.0
  0
SEQEND
  5
416
330
415
100
AcDbEntity
  8
001
370
    50
  0
ARC
  5
430
330
1F
100
AcDbEntity
  8
001
370
    50
100
AcDbCircle
 10
462.470866
 20
128.365678
 30
0.0
 40
5.000000000000001
100
AcDbArc
 50
0.0
 51
90.0
  0
POLYLINE
  5
431
330
1F
100
AcDbEntity
  8
001
370
    50
100
AcDb2dPolyline
 66
     1
 10
0.0
 20
0.0
 30
0.0
  0
VERTEX
  5
433
330
431
100
AcDbEntity
  8
001
370
    50
100
AcDbVertex
100
AcDb2dVertex
 10
457.185766
 20
133.365678
 30
0.0
  0
VERTEX
  5
434
330
431
100
AcDbEntity
  8
001
370
    50
100
AcDbVertex
100
AcDb2dVertex
 10
457.113973
 20
133.36521
 30
0.0
  0
VERTEX
  5
435
330
431
100
AcDbEntity
  8
001
370
    50
100
AcDbVertex
100
AcDb2dVertex
 10
457.009071
 20
133.363177
 30
0.0
  0
VERTEX
  5
436
330
431
100
AcDbEntity
  8
001
370
    50
100
AcDbVertex
100
AcDb2dVertex
 10
456.904478
 20
133.35927
 30
0.0
  0
VERTEX
  5
437
330
431
100
AcDbEntity
  8
001
370
    50
100
AcDbVertex
100
AcDb2dVertex
 10
456.832948
 20
133.355674
 30
0.0
  0
SEQEND
  5
432
330
431
100
AcDbEntity
  8
001
370
    50
  0
LINE
  5
438
330
1F
100
AcDbEntity
  8
001
370
    50
100
AcDbLine
 10
448.170866
 20
133.365678
 30
0.0
 11
452.543178
 21
133.365678
 31
0.0
  0
LINE
  5
439
330
1F
100
AcDbEntity
  8
001
370
    50
100
AcDbLine
 10
462.470866
 20
133.365678
 30
0.0
 11
457.185766
 21
133.365678
 31
0.0
  0
LINE
  5
43A
330
1F
100
AcDbEntity
  8
001
370
    50
100
AcDbLine
 10
446.299952
 20
130.726417
 30
0.0
 11
458.351929
 21
130.726417
 31
0.0
  0
POLYLINE
  5
43B
330
1F
100
AcDbEntity
  8
001
370
    50
100
AcDb2dPolyline
 66
     1
 10
0.0
 20
0.0
 30
0.0
  0
VERTEX
  5
43D
330
43B
100
AcDbEntity
  8
001
370
    50
100
AcDbVertex
100
AcDb2dVertex
 10
456.832948
 20
133.355674
 30
0.0
  0
VERTEX
  5
43E
330
43B
100
AcDbEntity
  8
001
370
    50
100
AcDbVertex
100
AcDb2dVertex
 10
455.961667
 20
133.359269
 30
0.0
  0
VERTEX
  5
43F
330
43B
100
AcDbEntity
  8
001
370
    50
100
AcDbVertex
100
AcDb2dVertex
 10
454.688251
 20
133.363177
 30
0.0
  0
VERTEX
  5
440
330
43B
100
AcDbEntity
  8
001
370
    50
100
AcDbVertex
100
AcDb2dVertex
 10
453.414615
 20
133.365209
 30
0.0
  0
VERTEX
  5
441
330
43B
100
AcDbEntity
  8
001
370
    50
100
AcDbVertex
100
AcDb2dVertex
 10
452.543178
 20
133.365678
 30
0.0
  0
SEQEND
  5
43C
330
43B
100
AcDbEntity
  8
001
370
    50
  0
POLYLINE
  5
442
330
1F
100
AcDbEntity
  8
001
370
    50
100
AcDb2dPolyline
 66
     1
 10
0.0
 20
0.0
 30
0.0
  0
VERTEX
  5
444
330
442
100
AcDbEntity
  8
001
370
    50
100
AcDbVertex
100
AcDb2dVertex
 10
467.470866
 20
81.16888
 30
0.0
  0
VERTEX
  5
445
330
442
100
AcDbEntity
  8
001
370
    50
100
AcDbVertex
100
AcDb2dVertex
 10
467.452911
 20
80.807107
 30
0.0
  0
VERTEX
  5
446
330
442
100
AcDbEntity
  8
001
370
    50
100
AcDbVertex
100
AcDb2dVertex
 10
467.418507
 20
80.447236
 30
0.0
  0
VERTEX
  5
447
330
442
100
AcDbEntity
  8
001
370
    50
100
AcDbVertex
100
AcDb2dVertex
 10
467.342799
 20
80.039321
 30
0.0
  0
VERTEX
  5
448
330
442
100
AcDbEntity
  8
001
370
    50
100
AcDbVertex
100
AcDb2dVertex
 10
467.230416
 20
79.639115
 30
0.0
  0
VERTEX
  5
449
330
442
100
AcDbEntity
  8
001
370
    50
100
AcDbVertex
100
AcDb2dVertex
 10
467.086916
 20
79.249928
 30
0.0
  0
VERTEX
  5
44A
330
442
100
AcDbEntity
  8
001
370
    50
100
AcDbVertex
100
AcDb2dVertex
 10
466.912425
 20
78.874059
 30
0.0
  0
VERTEX
  5
44B
330
442
100
AcDbEntity
  8
001
370
    50
100
AcDbVertex
100
AcDb2dVertex
 10
466.706797
 20
78.514717
 30
0.0
  0
VERTEX
  5
44C
330
442
100
AcDbEntity
  8
001
370
    50
100
AcDbVertex
100
AcDb2dVertex
 10
466.471745
 20
78.173654
 30
0.0
  0
VERTEX
  5
44D
330
442
100
AcDbEntity
  8
001
370
    50
100
AcDbVertex
100
AcDb2dVertex
 10
466.210202
 20
77.853779
 30
0.0
  0
VERTEX
  5
44E
330
442
100
AcDbEntity
  8
001
370
    50
100
AcDbVertex
100
AcDb2dVertex
 10
465.9231
 20
77.556806
 30
0.0
  0
VERTEX
  5
44F
330
442
100
AcDbEntity
  8
001
370
    50
100
AcDbVertex
100
AcDb2dVertex
 10
465.610042
 20
77.283631
 30
0.0
  0
VERTEX
  5
450
330
442
100
AcDbEntity
  8
001
370
    50
100
AcDbVertex
100
AcDb2dVertex
 10
465.275129
 20
77.037531
 30
0.0
  0
VERTEX
  5
451
330
442
100
AcDbEntity
  8
001
370
    50
100
AcDbVertex
100
AcDb2dVertex
 10
464.921837
 20
76.820384
 30
0.0
  0
VERTEX
  5
452
330
442
100
AcDbEntity
  8
001
370
    50
100
AcDbVertex
100
AcDb2dVertex
 10
464.551713
 20
76.633746
 30
0.0
  0
VERTEX
  5
453
330
442
100
AcDbEntity
  8
001
370
    50
100
AcDbVertex
100
AcDb2dVertex
 10
464.16332
 20
76.478109
 30
0.0
  0
VERTEX
  5
454
330
442
100
AcDbEntity
  8
001
370
    50
100
AcDbVertex
100
AcDb2dVertex
 10
463.763027
 20
76.355153
 30
0.0
  0
VERTEX
  5
455
330
442
100
AcDbEntity
  8
001
370
    50
100
AcDbVertex
100
AcDb2dVertex
 10
463.354347
 20
76.265195
 30
0.0
  0
VERTEX
  5
456
330
442
100
AcDbEntity
  8
001
370
    50
100
AcDbVertex
100
AcDb2dVertex
 10
462.939861
 20
76.212412
 30
0.0
  0
VERTEX
  5
457
330
442
100
AcDbEntity
  8
001
370
    50
100
AcDbVertex
100
AcDb2dVertex
 10
462.70558
 20
76.199802
 30
0.0
  0
VERTEX
  5
458
330
442
100
AcDbEntity
  8
001
370
    50
100
AcDbVertex
100
AcDb2dVertex
 10
462.470866
 20
76.193906
 30
0.0
  0
SEQEND
  5
443
330
442
100
AcDbEntity
  8
001
370
    50
  0
LINE
  5
459
330
1F
100
AcDbEntity
  8
001
  6
DASHED
370
    50
100
AcDbLine
 10
444.670866
 20
92.765678
 30
0.0
 11
444.667217
 21
92.765678
 31
0.0
  0
ARC
  5
45A
330
1F
100
AcDbEntity
  8
001
370
    50
100
AcDbCircle
 10
462.470866
 20
81.165678
 30
0.0
 40
5.000000000000001
100
AcDbArc
 50
270.0
 51
0.0
  0
LINE
  5
45B
330
1F
100
AcDbEntity
  8
001
370
    50
100
AcDbLine
 10
467.470866
 20
83.769276
 30
0.0
 11
467.470866
 21
81.165678
 31
0.0
  0
LINE
  5
45C
330
1F
100
AcDbEntity
  8
001
  6
DASHED
370
    50
100
AcDbLine
 10
443.170866
 20
106.419205
 30
0.0
 11
443.170866
 21
106.41662
 31
0.0
  0
LINE
  5
45D
330
1F
100
AcDbEntity
  8
001
370
    50
100
AcDbLine
 10
467.470866
 20
88.451013
 30
0.0
 11
467.470866
 21
87.49958
 31
0.0
  0
LINE
  5
45E
330
1F
100
AcDbEntity
  8
001
370
    50
100
AcDbLine
 10
443.170866
 20
92.765678
 30
0.0
 11
458.351929
 21
92.765678
 31
0.0
  0
LINE
  5
45F
330
1F
100
AcDbEntity
  8
001
370
    50
100
AcDbLine
 10
444.227197
 20
116.765678
 30
0.0
 11
443.170866
 21
116.765678
 31
0.0
  0
LINE
  5
460
330
1F
100
AcDbEntity
  8
001
370
    50
100
AcDbLine
 10
467.470866
 20
128.365678
 30
0.0
 11
467.470866
 21
116.718998
 31
0.0
  0
LINE
  5
461
330
1F
100
AcDbEntity
  8
001
370
    50
100
AcDbLine
 10
475.470866
 20
88.765678
 30
0.0
 11
475.470866
 21
120.765678
 31
0.0
  0
LINE
  5
462
330
1F
100
AcDbEntity
  8
001
370
    50
100
AcDbLine
 10
475.470866
 20
120.265678
 30
0.0
 11
472.470866
 21
120.265678
 31
0.0
  0
LINE
  5
463
330
1F
100
AcDbEntity
  8
001
370
    50
100
AcDbLine
 10
472.470866
 20
89.265678
 30
0.0
 11
475.470866
 21
89.265678
 31
0.0
  0
LINE
  5
464
330
1F
100
AcDbEntity
  8
001
370
    50
100
AcDbLine
 10
442.52429
 20
78.619157
 30
0.0
 11
442.955381
 21
83.977114
 31
0.0
  0
CIRCLE
  5
465
330
1F
100
AcDbEntity
  8
001
370
    50
100
AcDbCircle
 10
450.568996
 20
79.632799
 30
0.0
 40
3.0
  0
LINE
  5
466
330
1F
100
AcDbEntity
  8
001
370
    50
100
AcDbLine
 10
458.197876
 20
80.643538
 30
0.0
 11
457.766785
 21
75.28558
 31
0.0
  0
LINE
  5
467
330
1F
100
AcDbEntity
  8
001
370
    50
100
AcDbLine
 10
454.684715
 20
84.424149
 30
0.0
 11
443.3513
 21
84.345025
 31
0.0
  0
CIRCLE
  5
468
330
1F
100
AcDbEntity
  8
001
370
    50
100
AcDbCircle
 10
450.573983
 20
79.646064
 30
0.0
 40
2.5
  0
LINE
  5
469
330
1F
100
AcDbEntity
  8
001
370
    50
100
AcDbLine
 10
451.153553
 20
80.64478
 30
0.0
 11
450.837232
 21
81.195484
 31
0.0
  0
LINE
  5
46A
330
1F
100
AcDbEntity
  8
001
370
    50
100
AcDbLine
 10
449.998855
 20
80.647344
 30
0.0
 11
450.317618
 21
81.196638
 31
0.0
  0
ARC
  5
46B
330
1F
100
AcDbEntity
  8
001
370
    50
100
AcDbCircle
 10
450.577092
 20
81.046061
 30
0.0
 40
0.3
100
AcDbArc
 50
29.872778
 51
149.872778
  0
LINE
  5
46C
330
1F
100
AcDbEntity
  8
001
370
    50
100
AcDbLine
 10
449.998855
 20
80.647344
 30
0.0
 11
449.363771
 21
80.648754
 31
0.0
  0
LINE
  5
46D
330
1F
100
AcDbEntity
  8
001
370
    50
100
AcDbLine
 10
449.419286
 20
79.648628
 30
0.0
 11
449.102965
 21
80.199332
 31
0.0
  0
ARC
  5
46E
330
1F
100
AcDbEntity
  8
001
370
    50
100
AcDbCircle
 10
449.363105
 20
80.348755
 30
0.0
 40
0.3
100
AcDbArc
 50
89.872778
 51
209.872778
  0
LINE
  5
46F
330
1F
100
AcDbEntity
  8
001
370
    50
100
AcDbLine
 10
449.419286
 20
79.648628
 30
0.0
 11
449.100523
 21
79.099335
 31
0.0
  0
LINE
  5
470
330
1F
100
AcDbEntity
  8
001
370
    50
100
AcDbLine
 10
449.994414
 20
78.647349
 30
0.0
 11
449.35933
 21
78.648759
 31
0.0
  0
ARC
  5
471
330
1F
100
AcDbEntity
  8
001
370
    50
100
AcDbCircle
 10
449.359997
 20
78.948758
 30
0.0
 40
0.3
100
AcDbArc
 50
149.872778
 51
269.872778
  0
LINE
  5
472
330
1F
100
AcDbEntity
  8
001
370
    50
100
AcDbLine
 10
449.994414
 20
78.647349
 30
0.0
 11
450.310735
 21
78.096645
 31
0.0
  0
LINE
  5
473
330
1F
100
AcDbEntity
  8
001
370
    50
100
AcDbLine
 10
451.149112
 20
78.644785
 30
0.0
 11
450.830349
 21
78.095491
 31
0.0
  0
ARC
  5
474
330
1F
100
AcDbEntity
  8
001
370
    50
100
AcDbCircle
 10
450.570875
 20
78.246068
 30
0.0
 40
0.3
100
AcDbArc
 50
209.872778
 51
329.872778
  0
LINE
  5
475
330
1F
100
AcDbEntity
  8
001
370
    50
100
AcDbLine
 10
451.149112
 20
78.644785
 30
0.0
 11
451.784196
 21
78.643375
 31
0.0
  0
LINE
  5
476
330
1F
100
AcDbEntity
  8
001
370
    50
100
AcDbLine
 10
451.728681
 20
79.643501
 30
0.0
 11
452.045002
 21
79.092797
 31
0.0
  0
ARC
  5
477
330
1F
100
AcDbEntity
  8
001
370
    50
100
AcDbCircle
 10
451.784862
 20
78.943374
 30
0.0
 40
0.3
100
AcDbArc
 50
269.872778
 51
29.872778
  0
LINE
  5
478
330
1F
100
AcDbEntity
  8
001
370
    50
100
AcDbLine
 10
451.728681
 20
79.643501
 30
0.0
 11
452.047444
 21
80.192794
 31
0.0
  0
LINE
  5
479
330
1F
100
AcDbEntity
  8
001
370
    50
100
AcDbLine
 10
451.153553
 20
80.64478
 30
0.0
 11
451.788636
 21
80.64337
 31
0.0
  0
ARC
  5
47A
330
1F
100
AcDbEntity
  8
001
370
    50
100
AcDbCircle
 10
451.78797
 20
80.343371
 30
0.0
 40
0.3
100
AcDbArc
 50
329.872778
 51
89.872778
  0
LINE
  5
47B
330
1F
100
AcDbEntity
  8
001
370
    50
100
AcDbLine
 10
446.03745
 20
74.838546
 30
0.0
 11
457.370866
 21
74.91767
 31
0.0
  0
ARC
  5
47C
330
1F
100
AcDbEntity
  8
001
370
    50
100
AcDbCircle
 10
443.354092
 20
83.945035
 30
0.0
 40
0.4
100
AcDbArc
 50
90.4
 51
175.4
  0
ARC
  5
47D
330
1F
100
AcDbEntity
  8
001
370
    50
100
AcDbCircle
 10
457.368073
 20
75.31766
 30
0.0
 40
0.4
100
AcDbArc
 50
270.4
 51
355.4
  0
POLYLINE
  5
47E
330
1F
100
AcDbEntity
  8
001
370
    50
100
AcDb2dPolyline
 66
     1
 10
0.0
 20
0.0
 30
0.0
  0
VERTEX
  5
480
330
47E
100
AcDbEntity
  8
001
370
    50
100
AcDbVertex
100
AcDb2dVertex
 10
444.227235
 20
92.765478
 30
0.0
  0
VERTEX
  5
481
330
47E
100
AcDbEntity
  8
001
370
    50
100
AcDbVertex
100
AcDb2dVertex
 10
443.998567
 20
89.899319
 30
0.0
  0
VERTEX
  5
482
330
47E
100
AcDbEntity
  8
001
370
    50
100
AcDbVertex
100
AcDb2dVertex
 10
443.760582
 20
87.033952
 30
0.0
  0
VERTEX
  5
483
330
47E
100
AcDbEntity
  8
001
370
    50
100
AcDbVertex
100
AcDb2dVertex
 10
443.658852
 20
85.865317
 30
0.0
  0
VERTEX
  5
484
330
47E
100
AcDbEntity
  8
001
370
    50
100
AcDbVertex
100
AcDb2dVertex
 10
443.554513
 20
84.696906
 30
0.0
  0
VERTEX
  5
485
330
47E
100
AcDbEntity
  8
001
370
    50
100
AcDbVertex
100
AcDb2dVertex
 10
443.538616
 20
84.520828
 30
0.0
  0
VERTEX
  5
486
330
47E
100
AcDbEntity
  8
001
370
    50
100
AcDbVertex
100
AcDb2dVertex
 10
443.522719
 20
84.34475
 30
0.0
  0
SEQEND
  5
47F
330
47E
100
AcDbEntity
  8
001
370
    50
  0
LINE
  5
487
330
1F
100
AcDbEntity
  8
001
370
    50
100
AcDbLine
 10
443.812414
 20
84.346773
 30
0.0
 11
444.667217
 21
92.765678
 31
0.0
  0
LINE
  5
488
330
1F
100
AcDbEntity
  8
001
  6
DASHED
370
    30
100
AcDbLine
 10
443.864853
 20
84.347139
 30
0.0
 11
444.959886
 21
94.765678
 31
0.0
  0
LINE
  5
489
330
1F
100
AcDbEntity
  8
001
370
    50
100
AcDbLine
 10
442.735041
 20
130.912199
 30
0.0
 11
443.166132
 21
125.554241
 31
0.0
  0
LINE
  5
48A
330
1F
100
AcDbEntity
  8
001
370
    50
100
AcDbLine
 10
446.248202
 20
134.692809
 30
0.0
 11
457.770021
 21
134.612371
 31
0.0
  0
ARC
  5
48B
330
1F
100
AcDbEntity
  8
001
370
    50
100
AcDbCircle
 10
457.767229
 20
134.21238
 30
0.0
 40
0.4
100
AcDbArc
 50
4.6
 51
89.6
  0
LINE
  5
48C
330
1F
100
AcDbEntity
  8
001
370
    50
100
AcDbLine
 10
458.16594
 20
134.24446
 30
0.0
 11
458.236645
 21
133.365678
 31
0.0
  0
ARC
  5
48D
330
1F
100
AcDbEntity
  8
001
370
    50
100
AcDbCircle
 10
443.564844
 20
125.586321
 30
0.0
 40
0.4
100
AcDbArc
 50
184.6
 51
263.661054
  0
ARC
  5
48E
330
1F
100
AcDbEntity
  8
001
370
    50
100
AcDbCircle
 10
448.170866
 20
128.365678
 30
0.0
 40
5.0
100
AcDbArc
 50
90.0
 51
175.157618
  0
ARC
  5
48F
330
1F
100
AcDbEntity
  8
001
370
    50
100
AcDbCircle
 10
446.299952
 20
127.726417
 30
0.0
 40
3.0
100
AcDbArc
 50
90.0
 51
185.294309
  0
LINE
  5
490
330
1F
100
AcDbEntity
  8
001
  6
DASHED
370
    30
100
AcDbLine
 10
444.959886
 20
114.765678
 30
0.0
 11
443.380051
 21
129.796796
 31
0.0
  0
POLYLINE
  5
491
330
1F
100
AcDbEntity
  8
001
370
    50
100
AcDb2dPolyline
 66
     1
 10
0.0
 20
0.0
 30
0.0
  0
VERTEX
  5
493
330
491
100
AcDbEntity
  8
001
370
    50
100
AcDbVertex
100
AcDb2dVertex
 10
457.843717
 20
76.241762
 30
0.0
  0
VERTEX
  5
494
330
491
100
AcDbEntity
  8
001
370
    50
100
AcDbVertex
100
AcDb2dVertex
 10
458.043043
 20
76.239292
 30
0.0
  0
VERTEX
  5
495
330
491
100
AcDbEntity
  8
001
370
    50
100
AcDbVertex
100
AcDb2dVertex
 10
458.242369
 20
76.236822
 30
0.0
  0
VERTEX
  5
496
330
491
100
AcDbEntity
  8
001
370
    50
100
AcDbVertex
100
AcDb2dVertex
 10
459.117206
 20
76.226394
 30
0.0
  0
VERTEX
  5
497
330
491
100
AcDbEntity
  8
001
370
    50
100
AcDbVertex
100
AcDb2dVertex
 10
460.307031
 20
76.213424
 30
0.0
  0
VERTEX
  5
498
330
491
100
AcDbEntity
  8
001
370
    50
100
AcDbVertex
100
AcDb2dVertex
 10
461.591802
 20
76.201276
 30
0.0
  0
VERTEX
  5
499
330
491
100
AcDbEntity
  8
001
370
    50
100
AcDbVertex
100
AcDb2dVertex
 10
462.470866
 20
76.193906
 30
0.0
  0
SEQEND
  5
492
330
491
100
AcDbEntity
  8
001
370
    50
  0
LINE
  5
49A
330
1F
100
AcDbEntity
  8
001
370
    50
100
AcDbLine
 10
457.837596
 20
76.165678
 30
0.0
 11
462.470866
 21
76.165678
 31
0.0
  0
ARC
  5
49B
330
1F
100
AcDbEntity
  8
001
370
    50
100
AcDbCircle
 10
446.223767
 20
131.192895
 30
0.0
 40
3.5
100
AcDbArc
 50
89.6
 51
184.6
  0
ARC
  5
49C
330
1F
100
AcDbEntity
  8
001
370
    50
100
AcDbCircle
 10
446.013016
 20
78.338461
 30
0.0
 40
3.5
100
AcDbArc
 50
175.4
 51
270.4
  0
ARC
  5
49D
330
1F
100
AcDbEntity
  8
001
370
    50
100
AcDbCircle
 10
454.709149
 20
80.924234
 30
0.0
 40
3.5
100
AcDbArc
 50
355.4
 51
90.4
  0
LINE
  5
49E
330
1F
100
AcDbEntity
  8
001
370
     9
100
AcDbLine
 10
446.03745
 20
74.838546
 30
0.0
 11
438.536771
 21
74.838546
 31
0.0
  0
LINE
  5
49F
330
1F
100
AcDbEntity
  8
001
370
    50
100
AcDbLine
 10
485.805093
 20
120.765678
 30
0.0
 11
475.470866
 21
120.765678
 31
0.0
  0
LINE
  5
4A0
330
1F
100
AcDbEntity
  8
001
  6
CENTER
370
     9
100
AcDbLine
 10
492.25665
 20
104.765678
 30
0.0
 11
439.44119
 21
104.765678
 31
0.0
  0
LINE
  5
4A1
330
1F
100
AcDbEntity
  8
001
370
    50
100
AcDbLine
 10
486.282986
 20
88.765678
 30
0.0
 11
475.470866
 21
88.765678
 31
0.0
  0
POLYLINE
  5
4A2
330
1F
100
AcDbEntity
  8
001
370
    50
100
AcDb2dPolyline
 66
     1
 10
0.0
 20
0.0
 30
0.0
  0
VERTEX
  5
4A4
330
4A2
100
AcDbEntity
  8
001
370
    50
100
AcDbVertex
100
AcDb2dVertex
 10
458.351929
 20
192.461958
 30
0.0
  0
VERTEX
  5
4A5
330
4A2
100
AcDbEntity
  8
001
370
    50
100
AcDbVertex
100
AcDb2dVertex
 10
458.86711
 20
192.450286
 30
0.0
  0
VERTEX
  5
4A6
330
4A2
100
AcDbEntity
  8
001
370
    50
100
AcDbVertex
100
AcDb2dVertex
 10
459.381663
 20
192.427451
 30
0.0
  0
VERTEX
  5
4A7
330
4A2
100
AcDbEntity
  8
001
370
    50
100
AcDbVertex
100
AcDb2dVertex
 10
459.897359
 20
192.384505
 30
0.0
  0
VERTEX
  5
4A8
330
4A2
100
AcDbEntity
  8
001
370
    50
100
AcDbVertex
100
AcDb2dVertex
 10
460.411397
 20
192.322667
 30
0.0
  0
VERTEX
  5
4A9
330
4A2
100
AcDbEntity
  8
001
370
    50
100
AcDbVertex
100
AcDb2dVertex
 10
460.931272
 20
192.242953
 30
0.0
  0
VERTEX
  5
4AA
330
4A2
100
AcDbEntity
  8
001
370
    50
100
AcDbVertex
100
AcDb2dVertex
 10
461.447445
 20
192.1435
 30
0.0
  0
VERTEX
  5
4AB
330
4A2
100
AcDbEntity
  8
001
370
    50
100
AcDbVertex
100
AcDb2dVertex
 10
461.960485
 20
192.022577
 30
0.0
  0
VERTEX
  5
4AC
330
4A2
100
AcDbEntity
  8
001
370
    50
100
AcDbVertex
100
AcDb2dVertex
 10
462.470866
 20
191.889715
 30
0.0
  0
SEQEND
  5
4A3
330
4A2
100
AcDbEntity
  8
001
370
    50
  0
POLYLINE
  5
4AD
330
1F
100
AcDbEntity
  8
001
370
    50
100
AcDb2dPolyline
 66
     1
 10
0.0
 20
0.0
 30
0.0
  0
VERTEX
  5
4AF
330
4AD
100
AcDbEntity
  8
001
370
    50
100
AcDbVertex
100
AcDb2dVertex
 10
462.470866
 20
191.889715
 30
0.0
  0
VERTEX
  5
4B0
330
4AD
100
AcDbEntity
  8
001
370
    50
100
AcDbVertex
100
AcDb2dVertex
 10
462.846751
 20
191.772714
 30
0.0
  0
VERTEX
  5
4B1
330
4AD
100
AcDbEntity
  8
001
370
    50
100
AcDbVertex
100
AcDb2dVertex
 10
463.219984
 20
191.647946
 30
0.0
  0
VERTEX
  5
4B2
330
4AD
100
AcDbEntity
  8
001
370
    50
100
AcDbVertex
100
AcDb2dVertex
 10
463.568972
 20
191.516896
 30
0.0
  0
VERTEX
  5
4B3
330
4AD
100
AcDbEntity
  8
001
370
    50
100
AcDbVertex
100
AcDb2dVertex
 10
463.913035
 20
191.373201
 30
0.0
  0
VERTEX
  5
4B4
330
4AD
100
AcDbEntity
  8
001
370
    50
100
AcDbVertex
100
AcDb2dVertex
 10
464.171622
 20
191.255929
 30
0.0
  0
VERTEX
  5
4B5
330
4AD
100
AcDbEntity
  8
001
370
    50
100
AcDbVertex
100
AcDb2dVertex
 10
464.426922
 20
191.131736
 30
0.0
  0
VERTEX
  5
4B6
330
4AD
100
AcDbEntity
  8
001
370
    50
100
AcDbVertex
100
AcDb2dVertex
 10
464.662448
 20
191.00905
 30
0.0
  0
VERTEX
  5
4B7
330
4AD
100
AcDbEntity
  8
001
370
    50
100
AcDbVertex
100
AcDb2dVertex
 10
464.894531
 20
190.879958
 30
0.0
  0
VERTEX
  5
4B8
330
4AD
100
AcDbEntity
  8
001
370
    50
100
AcDbVertex
100
AcDb2dVertex
 10
465.105892
 20
190.754773
 30
0.0
  0
VERTEX
  5
4B9
330
4AD
100
AcDbEntity
  8
001
370
    50
100
AcDbVertex
100
AcDb2dVertex
 10
465.313783
 20
190.623902
 30
0.0
  0
VERTEX
  5
4BA
330
4AD
100
AcDbEntity
  8
001
370
    50
100
AcDbVertex
100
AcDb2dVertex
 10
465.586177
 20
190.43952
 30
0.0
  0
VERTEX
  5
4BB
330
4AD
100
AcDbEntity
  8
001
370
    50
100
AcDbVertex
100
AcDb2dVertex
 10
465.851015
 20
190.244398
 30
0.0
  0
VERTEX
  5
4BC
330
4AD
100
AcDbEntity
  8
001
370
    50
100
AcDbVertex
100
AcDb2dVertex
 10
466.079035
 20
190.061962
 30
0.0
  0
VERTEX
  5
4BD
330
4AD
100
AcDbEntity
  8
001
370
    50
100
AcDbVertex
100
AcDb2dVertex
 10
466.299457
 20
189.870522
 30
0.0
  0
VERTEX
  5
4BE
330
4AD
100
AcDbEntity
  8
001
370
    50
100
AcDbVertex
100
AcDb2dVertex
 10
466.485858
 20
189.69487
 30
0.0
  0
VERTEX
  5
4BF
330
4AD
100
AcDbEntity
  8
001
370
    50
100
AcDbVertex
100
AcDb2dVertex
 10
466.665212
 20
189.511821
 30
0.0
  0
VERTEX
  5
4C0
330
4AD
100
AcDbEntity
  8
001
370
    50
100
AcDbVertex
100
AcDb2dVertex
 10
466.869916
 20
189.281941
 30
0.0
  0
VERTEX
  5
4C1
330
4AD
100
AcDbEntity
  8
001
370
    50
100
AcDbVertex
100
AcDb2dVertex
 10
467.059303
 20
189.039925
 30
0.0
  0
VERTEX
  5
4C2
330
4AD
100
AcDbEntity
  8
001
370
    50
100
AcDbVertex
100
AcDb2dVertex
 10
467.196434
 20
188.837375
 30
0.0
  0
VERTEX
  5
4C3
330
4AD
100
AcDbEntity
  8
001
370
    50
100
AcDbVertex
100
AcDb2dVertex
 10
467.319737
 20
188.624794
 30
0.0
  0
VERTEX
  5
4C4
330
4AD
100
AcDbEntity
  8
001
370
    50
100
AcDbVertex
100
AcDb2dVertex
 10
467.398498
 20
188.460182
 30
0.0
  0
VERTEX
  5
4C5
330
4AD
100
AcDbEntity
  8
001
370
    50
100
AcDbVertex
100
AcDb2dVertex
 10
467.451989
 20
188.287669
 30
0.0
  0
VERTEX
  5
4C6
330
4AD
100
AcDbEntity
  8
001
370
    50
100
AcDbVertex
100
AcDb2dVertex
 10
467.463046
 20
188.217843
 30
0.0
  0
VERTEX
  5
4C7
330
4AD
100
AcDbEntity
  8
001
370
    50
100
AcDbVertex
100
AcDb2dVertex
 10
467.470866
 20
188.147293
 30
0.0
  0
SEQEND
  5
4AE
330
4AD
100
AcDbEntity
  8
001
370
    50
  0
LINE
  5
4C8
330
1F
100
AcDbEntity
  8
001
  6
DASHED
370
    30
100
AcDbLine
 10
444.959886
 20
214.461958
 30
0.0
 11
444.959886
 21
194.461958
 31
0.0
  0
LINE
  5
4C9
330
1F
100
AcDbEntity
  8
001
  6
DASHED
370
    50
100
AcDbLine
 10
443.179083
 20
206.1131
 30
0.0
 11
443.179083
 21
206.114537
 31
0.0
  0
POLYLINE
  5
4CA
330
1F
100
AcDbEntity
  8
001
370
    50
100
AcDb2dPolyline
 66
     1
 10
0.0
 20
0.0
 30
0.0
  0
VERTEX
  5
4CC
330
4CA
100
AcDbEntity
  8
001
370
    50
100
AcDbVertex
100
AcDb2dVertex
 10
467.470866
 20
187.19586
 30
0.0
  0
VERTEX
  5
4CD
330
4CA
100
AcDbEntity
  8
001
370
    50
100
AcDbVertex
100
AcDb2dVertex
 10
467.470911
 20
187.187207
 30
0.0
  0
VERTEX
  5
4CE
330
4CA
100
AcDbEntity
  8
001
370
    50
100
AcDbVertex
100
AcDb2dVertex
 10
467.470978
 20
187.178554
 30
0.0
  0
VERTEX
  5
4CF
330
4CA
100
AcDbEntity
  8
001
370
    50
100
AcDbVertex
100
AcDb2dVertex
 10
467.479733
 20
187.009785
 30
0.0
  0
VERTEX
  5
4D0
330
4CA
100
AcDbEntity
  8
001
370
    50
100
AcDbVertex
100
AcDb2dVertex
 10
467.49799
 20
186.841556
 30
0.0
  0
VERTEX
  5
4D1
330
4CA
100
AcDbEntity
  8
001
370
    50
100
AcDbVertex
100
AcDb2dVertex
 10
467.522901
 20
186.648922
 30
0.0
  0
VERTEX
  5
4D2
330
4CA
100
AcDbEntity
  8
001
370
    50
100
AcDbVertex
100
AcDb2dVertex
 10
467.548269
 20
186.456449
 30
0.0
  0
VERTEX
  5
4D3
330
4CA
100
AcDbEntity
  8
001
370
    50
100
AcDbVertex
100
AcDb2dVertex
 10
467.593428
 20
186.051139
 30
0.0
  0
VERTEX
  5
4D4
330
4CA
100
AcDbEntity
  8
001
370
    50
100
AcDbVertex
100
AcDb2dVertex
 10
467.619768
 20
185.644224
 30
0.0
  0
VERTEX
  5
4D5
330
4CA
100
AcDbEntity
  8
001
370
    50
100
AcDbVertex
100
AcDb2dVertex
 10
467.621134
 20
185.250636
 30
0.0
  0
VERTEX
  5
4D6
330
4CA
100
AcDbEntity
  8
001
370
    50
100
AcDbVertex
100
AcDb2dVertex
 10
467.59961
 20
184.8576
 30
0.0
  0
VERTEX
  5
4D7
330
4CA
100
AcDbEntity
  8
001
370
    50
100
AcDbVertex
100
AcDb2dVertex
 10
467.559377
 20
184.469639
 30
0.0
  0
VERTEX
  5
4D8
330
4CA
100
AcDbEntity
  8
001
370
    50
100
AcDbVertex
100
AcDb2dVertex
 10
467.509106
 20
184.082745
 30
0.0
  0
SEQEND
  5
4CB
330
4CA
100
AcDbEntity
  8
001
370
    50
  0
POLYLINE
  5
4D9
330
1F
100
AcDbEntity
  8
001
370
    50
100
AcDb2dPolyline
 66
     1
 10
0.0
 20
0.0
 30
0.0
  0
VERTEX
  5
4DB
330
4D9
100
AcDbEntity
  8
001
370
    50
100
AcDbVertex
100
AcDb2dVertex
 10
467.509106
 20
184.082745
 30
0.0
  0
VERTEX
  5
4DC
330
4D9
100
AcDbEntity
  8
001
370
    50
100
AcDbVertex
100
AcDb2dVertex
 10
466.944361
 20
185.102865
 30
0.0
  0
VERTEX
  5
4DD
330
4D9
100
AcDbEntity
  8
001
370
    50
100
AcDbVertex
100
AcDb2dVertex
 10
466.078163
 20
186.452959
 30
0.0
  0
VERTEX
  5
4DE
330
4D9
100
AcDbEntity
  8
001
370
    50
100
AcDbVertex
100
AcDb2dVertex
 10
465.180637
 20
187.579021
 30
0.0
  0
VERTEX
  5
4DF
330
4D9
100
AcDbEntity
  8
001
370
    50
100
AcDbVertex
100
AcDb2dVertex
 10
464.241031
 20
188.514316
 30
0.0
  0
VERTEX
  5
4E0
330
4D9
100
AcDbEntity
  8
001
370
    50
100
AcDbVertex
100
AcDb2dVertex
 10
463.20114
 20
189.391851
 30
0.0
  0
VERTEX
  5
4E1
330
4D9
100
AcDbEntity
  8
001
370
    50
100
AcDbVertex
100
AcDb2dVertex
 10
462.06082
 20
190.196003
 30
0.0
  0
VERTEX
  5
4E2
330
4D9
100
AcDbEntity
  8
001
370
    50
100
AcDbVertex
100
AcDb2dVertex
 10
460.84823
 20
190.879207
 30
0.0
  0
VERTEX
  5
4E3
330
4D9
100
AcDbEntity
  8
001
370
    50
100
AcDbVertex
100
AcDb2dVertex
 10
459.612424
 20
191.440251
 30
0.0
  0
VERTEX
  5
4E4
330
4D9
100
AcDbEntity
  8
001
370
    50
100
AcDbVertex
100
AcDb2dVertex
 10
458.373041
 20
191.883167
 30
0.0
  0
VERTEX
  5
4E5
330
4D9
100
AcDbEntity
  8
001
370
    50
100
AcDbVertex
100
AcDb2dVertex
 10
456.97995
 20
192.204319
 30
0.0
  0
VERTEX
  5
4E6
330
4D9
100
AcDbEntity
  8
001
370
    50
100
AcDbVertex
100
AcDb2dVertex
 10
455.405198
 20
192.397536
 30
0.0
  0
VERTEX
  5
4E7
330
4D9
100
AcDbEntity
  8
001
370
    50
100
AcDbVertex
100
AcDb2dVertex
 10
454.253829
 20
192.461958
 30
0.0
  0
SEQEND
  5
4DA
330
4D9
100
AcDbEntity
  8
001
370
    50
  0
LINE
  5
4E8
330
1F
100
AcDbEntity
  8
001
370
    50
100
AcDbLine
 10
472.470866
 20
220.461958
 30
0.0
 11
472.470866
 21
188.461958
 31
0.0
  0
ARC
  5
4E9
330
1F
100
AcDbEntity
  8
001
370
    50
100
AcDbCircle
 10
472.470866
 20
225.461958
 30
0.0
 40
5.000000000000001
100
AcDbArc
 50
180.0
 51
270.0
  0
ARC
  5
4EA
330
1F
100
AcDbEntity
  8
001
370
    50
100
AcDbCircle
 10
472.470866
 20
183.461958
 30
0.0
 40
5.000000000000001
100
AcDbArc
 50
90.0
 51
180.0
  0
POLYLINE
  5
4EB
330
1F
100
AcDbEntity
  8
001
370
    50
100
AcDb2dPolyline
 66
     1
 10
0.0
 20
0.0
 30
0.0
  0
VERTEX
  5
4ED
330
4EB
100
AcDbEntity
  8
001
370
    50
100
AcDbVertex
100
AcDb2dVertex
 10
458.351929
 20
230.422697
 30
0.0
  0
VERTEX
  5
4EE
330
4EB
100
AcDbEntity
  8
001
370
    50
100
AcDbVertex
100
AcDb2dVertex
 10
458.866865
 20
230.417325
 30
0.0
  0
VERTEX
  5
4EF
330
4EB
100
AcDbEntity
  8
001
370
    50
100
AcDbVertex
100
AcDb2dVertex
 10
459.381663
 20
230.406719
 30
0.0
  0
VERTEX
  5
4F0
330
4EB
100
AcDbEntity
  8
001
370
    50
100
AcDbVertex
100
AcDb2dVertex
 10
459.89671
 20
230.386753
 30
0.0
  0
VERTEX
  5
4F1
330
4EB
100
AcDbEntity
  8
001
370
    50
100
AcDbVertex
100
AcDb2dVertex
 10
460.411397
 20
230.357858
 30
0.0
  0
VERTEX
  5
4F2
330
4EB
100
AcDbEntity
  8
001
370
    50
100
AcDbVertex
100
AcDb2dVertex
 10
460.929875
 20
230.320554
 30
0.0
  0
VERTEX
  5
4F3
330
4EB
100
AcDbEntity
  8
001
370
    50
100
AcDbVertex
100
AcDb2dVertex
 10
461.447445
 20
230.27311
 30
0.0
  0
VERTEX
  5
4F4
330
4EB
100
AcDbEntity
  8
001
370
    50
100
AcDbVertex
100
AcDb2dVertex
 10
461.959491
 20
230.214924
 30
0.0
  0
VERTEX
  5
4F5
330
4EB
100
AcDbEntity
  8
001
370
    50
100
AcDbVertex
100
AcDb2dVertex
 10
462.470866
 20
230.150451
 30
0.0
  0
SEQEND
  5
4EC
330
4EB
100
AcDbEntity
  8
001
370
    50
  0
POLYLINE
  5
4F6
330
1F
100
AcDbEntity
  8
001
370
    50
100
AcDb2dPolyline
 66
     1
 10
0.0
 20
0.0
 30
0.0
  0
VERTEX
  5
4F8
330
4F6
100
AcDbEntity
  8
001
370
    50
100
AcDbVertex
100
AcDb2dVertex
 10
462.470866
 20
230.150451
 30
0.0
  0
VERTEX
  5
4F9
330
4F6
100
AcDbEntity
  8
001
370
    50
100
AcDbVertex
100
AcDb2dVertex
 10
462.84884
 20
230.069922
 30
0.0
  0
VERTEX
  5
4FA
330
4F6
100
AcDbEntity
  8
001
370
    50
100
AcDbVertex
100
AcDb2dVertex
 10
463.219984
 20
229.967017
 30
0.0
  0
VERTEX
  5
4FB
330
4F6
100
AcDbEntity
  8
001
370
    50
100
AcDbVertex
100
AcDb2dVertex
 10
463.573846
 20
229.826741
 30
0.0
  0
VERTEX
  5
4FC
330
4F6
100
AcDbEntity
  8
001
370
    50
100
AcDbVertex
100
AcDb2dVertex
 10
463.913035
 20
229.651927
 30
0.0
  0
VERTEX
  5
4FD
330
4F6
100
AcDbEntity
  8
001
370
    50
100
AcDbVertex
100
AcDb2dVertex
 10
464.175456
 20
229.49097
 30
0.0
  0
VERTEX
  5
4FE
330
4F6
100
AcDbEntity
  8
001
370
    50
100
AcDbVertex
100
AcDb2dVertex
 10
464.426922
 20
229.313952
 30
0.0
  0
VERTEX
  5
4FF
330
4F6
100
AcDbEntity
  8
001
370
    50
100
AcDbVertex
100
AcDb2dVertex
 10
464.666481
 20
229.122081
 30
0.0
  0
VERTEX
  5
500
330
4F6
100
AcDbEntity
  8
001
370
    50
100
AcDbVertex
100
AcDb2dVertex
 10
464.894531
 20
228.916514
 30
0.0
  0
VERTEX
  5
501
330
4F6
100
AcDbEntity
  8
001
370
    50
100
AcDbVertex
100
AcDb2dVertex
 10
465.109854
 20
228.700086
 30
0.0
  0
VERTEX
  5
502
330
4F6
100
AcDbEntity
  8
001
370
    50
100
AcDbVertex
100
AcDb2dVertex
 10
465.313783
 20
228.472907
 30
0.0
  0
VERTEX
  5
503
330
4F6
100
AcDbEntity
  8
001
370
    50
100
AcDbVertex
100
AcDb2dVertex
 10
465.594299
 20
228.120141
 30
0.0
  0
VERTEX
  5
504
330
4F6
100
AcDbEntity
  8
001
370
    50
100
AcDbVertex
100
AcDb2dVertex
 10
465.851015
 20
227.749541
 30
0.0
  0
VERTEX
  5
505
330
4F6
100
AcDbEntity
  8
001
370
    50
100
AcDbVertex
100
AcDb2dVertex
 10
466.086349
 20
227.361403
 30
0.0
  0
VERTEX
  5
506
330
4F6
100
AcDbEntity
  8
001
370
    50
100
AcDbVertex
100
AcDb2dVertex
 10
466.299457
 20
226.960685
 30
0.0
  0
VERTEX
  5
507
330
4F6
100
AcDbEntity
  8
001
370
    50
100
AcDbVertex
100
AcDb2dVertex
 10
466.4923
 20
226.547654
 30
0.0
  0
VERTEX
  5
508
330
4F6
100
AcDbEntity
  8
001
370
    50
100
AcDbVertex
100
AcDb2dVertex
 10
466.665212
 20
226.125831
 30
0.0
  0
VERTEX
  5
509
330
4F6
100
AcDbEntity
  8
001
370
    50
100
AcDbVertex
100
AcDb2dVertex
 10
466.880416
 20
225.509663
 30
0.0
  0
VERTEX
  5
50A
330
4F6
100
AcDbEntity
  8
001
370
    50
100
AcDbVertex
100
AcDb2dVertex
 10
467.059303
 20
224.881948
 30
0.0
  0
VERTEX
  5
50B
330
4F6
100
AcDbEntity
  8
001
370
    50
100
AcDbVertex
100
AcDb2dVertex
 10
467.20608
 20
224.233792
 30
0.0
  0
VERTEX
  5
50C
330
4F6
100
AcDbEntity
  8
001
370
    50
100
AcDbVertex
100
AcDb2dVertex
 10
467.319737
 20
223.578897
 30
0.0
  0
VERTEX
  5
50D
330
4F6
100
AcDbEntity
  8
001
370
    50
100
AcDbVertex
100
AcDb2dVertex
 10
467.402964
 20
222.91057
 30
0.0
  0
VERTEX
  5
50E
330
4F6
100
AcDbEntity
  8
001
370
    50
100
AcDbVertex
100
AcDb2dVertex
 10
467.451989
 20
222.239144
 30
0.0
  0
VERTEX
  5
50F
330
4F6
100
AcDbEntity
  8
001
370
    50
100
AcDbVertex
100
AcDb2dVertex
 10
467.464127
 20
221.87696
 30
0.0
  0
VERTEX
  5
510
330
4F6
100
AcDbEntity
  8
001
370
    50
100
AcDbVertex
100
AcDb2dVertex
 10
467.470866
 20
221.514574
 30
0.0
  0
SEQEND
  5
4F7
330
4F6
100
AcDbEntity
  8
001
370
    50
  0
ARC
  5
511
330
1F
100
AcDbEntity
  8
001
370
    50
100
AcDbCircle
 10
462.470866
 20
228.061958
 30
0.0
 40
5.000000000000001
100
AcDbArc
 50
0.0
 51
90.0
  0
POLYLINE
  5
512
330
1F
100
AcDbEntity
  8
001
370
    50
100
AcDb2dPolyline
 66
     1
 10
0.0
 20
0.0
 30
0.0
  0
VERTEX
  5
514
330
512
100
AcDbEntity
  8
001
370
    50
100
AcDbVertex
100
AcDb2dVertex
 10
457.185766
 20
233.061958
 30
0.0
  0
VERTEX
  5
515
330
512
100
AcDbEntity
  8
001
370
    50
100
AcDbVertex
100
AcDb2dVertex
 10
457.113973
 20
233.06149
 30
0.0
  0
VERTEX
  5
516
330
512
100
AcDbEntity
  8
001
370
    50
100
AcDbVertex
100
AcDb2dVertex
 10
457.009071
 20
233.059457
 30
0.0
  0
VERTEX
  5
517
330
512
100
AcDbEntity
  8
001
370
    50
100
AcDbVertex
100
AcDb2dVertex
 10
456.904478
 20
233.05555
 30
0.0
  0
VERTEX
  5
518
330
512
100
AcDbEntity
  8
001
370
    50
100
AcDbVertex
100
AcDb2dVertex
 10
456.832948
 20
233.051953
 30
0.0
  0
SEQEND
  5
513
330
512
100
AcDbEntity
  8
001
370
    50
  0
LINE
  5
519
330
1F
100
AcDbEntity
  8
001
370
    50
100
AcDbLine
 10
448.170866
 20
233.061958
 30
0.0
 11
452.543178
 21
233.061958
 31
0.0
  0
LINE
  5
51A
330
1F
100
AcDbEntity
  8
001
370
    50
100
AcDbLine
 10
462.470866
 20
233.061958
 30
0.0
 11
457.185766
 21
233.061958
 31
0.0
  0
LINE
  5
51B
330
1F
100
AcDbEntity
  8
001
370
    50
100
AcDbLine
 10
446.299952
 20
230.422697
 30
0.0
 11
458.351929
 21
230.422697
 31
0.0
  0
POLYLINE
  5
51C
330
1F
100
AcDbEntity
  8
001
370
    50
100
AcDb2dPolyline
 66
     1
 10
0.0
 20
0.0
 30
0.0
  0
VERTEX
  5
51E
330
51C
100
AcDbEntity
  8
001
370
    50
100
AcDbVertex
100
AcDb2dVertex
 10
456.832948
 20
233.051953
 30
0.0
  0
VERTEX
  5
51F
330
51C
100
AcDbEntity
  8
001
370
    50
100
AcDbVertex
100
AcDb2dVertex
 10
455.961667
 20
233.055549
 30
0.0
  0
VERTEX
  5
520
330
51C
100
AcDbEntity
  8
001
370
    50
100
AcDbVertex
100
AcDb2dVertex
 10
454.688251
 20
233.059457
 30
0.0
  0
VERTEX
  5
521
330
51C
100
AcDbEntity
  8
001
370
    50
100
AcDbVertex
100
AcDb2dVertex
 10
453.414615
 20
233.061489
 30
0.0
  0
VERTEX
  5
522
330
51C
100
AcDbEntity
  8
001
370
    50
100
AcDbVertex
100
AcDb2dVertex
 10
452.543178
 20
233.061958
 30
0.0
  0
SEQEND
  5
51D
330
51C
100
AcDbEntity
  8
001
370
    50
  0
POLYLINE
  5
523
330
1F
100
AcDbEntity
  8
001
370
    50
100
AcDb2dPolyline
 66
     1
 10
0.0
 20
0.0
 30
0.0
  0
VERTEX
  5
525
330
523
100
AcDbEntity
  8
001
370
    50
100
AcDbVertex
100
AcDb2dVertex
 10
467.470866
 20
180.86516
 30
0.0
  0
VERTEX
  5
526
330
523
100
AcDbEntity
  8
001
370
    50
100
AcDbVertex
100
AcDb2dVertex
 10
467.452911
 20
180.503387
 30
0.0
  0
VERTEX
  5
527
330
523
100
AcDbEntity
  8
001
370
    50
100
AcDbVertex
100
AcDb2dVertex
 10
467.418507
 20
180.143516
 30
0.0
  0
VERTEX
  5
528
330
523
100
AcDbEntity
  8
001
370
    50
100
AcDbVertex
100
AcDb2dVertex
 10
467.342799
 20
179.735601
 30
0.0
  0
VERTEX
  5
529
330
523
100
AcDbEntity
  8
001
370
    50
100
AcDbVertex
100
AcDb2dVertex
 10
467.230416
 20
179.335395
 30
0.0
  0
VERTEX
  5
52A
330
523
100
AcDbEntity
  8
001
370
    50
100
AcDbVertex
100
AcDb2dVertex
 10
467.086916
 20
178.946208
 30
0.0
  0
VERTEX
  5
52B
330
523
100
AcDbEntity
  8
001
370
    50
100
AcDbVertex
100
AcDb2dVertex
 10
466.912425
 20
178.570338
 30
0.0
  0
VERTEX
  5
52C
330
523
100
AcDbEntity
  8
001
370
    50
100
AcDbVertex
100
AcDb2dVertex
 10
466.706797
 20
178.210997
 30
0.0
  0
VERTEX
  5
52D
330
523
100
AcDbEntity
  8
001
370
    50
100
AcDbVertex
100
AcDb2dVertex
 10
466.471745
 20
177.869934
 30
0.0
  0
VERTEX
  5
52E
330
523
100
AcDbEntity
  8
001
370
    50
100
AcDbVertex
100
AcDb2dVertex
 10
466.210202
 20
177.550059
 30
0.0
  0
VERTEX
  5
52F
330
523
100
AcDbEntity
  8
001
370
    50
100
AcDbVertex
100
AcDb2dVertex
 10
465.9231
 20
177.253086
 30
0.0
  0
VERTEX
  5
530
330
523
100
AcDbEntity
  8
001
370
    50
100
AcDbVertex
100
AcDb2dVertex
 10
465.610042
 20
176.979911
 30
0.0
  0
VERTEX
  5
531
330
523
100
AcDbEntity
  8
001
370
    50
100
AcDbVertex
100
AcDb2dVertex
 10
465.275129
 20
176.733811
 30
0.0
  0
VERTEX
  5
532
330
523
100
AcDbEntity
  8
001
370
    50
100
AcDbVertex
100
AcDb2dVertex
 10
464.921837
 20
176.516664
 30
0.0
  0
VERTEX
  5
533
330
523
100
AcDbEntity
  8
001
370
    50
100
AcDbVertex
100
AcDb2dVertex
 10
464.551713
 20
176.330026
 30
0.0
  0
VERTEX
  5
534
330
523
100
AcDbEntity
  8
001
370
    50
100
AcDbVertex
100
AcDb2dVertex
 10
464.16332
 20
176.174389
 30
0.0
  0
VERTEX
  5
535
330
523
100
AcDbEntity
  8
001
370
    50
100
AcDbVertex
100
AcDb2dVertex
 10
463.763027
 20
176.051433
 30
0.0
  0
VERTEX
  5
536
330
523
100
AcDbEntity
  8
001
370
    50
100
AcDbVertex
100
AcDb2dVertex
 10
463.354347
 20
175.961475
 30
0.0
  0
VERTEX
  5
537
330
523
100
AcDbEntity
  8
001
370
    50
100
AcDbVertex
100
AcDb2dVertex
 10
462.939861
 20
175.908692
 30
0.0
  0
VERTEX
  5
538
330
523
100
AcDbEntity
  8
001
370
    50
100
AcDbVertex
100
AcDb2dVertex
 10
462.70558
 20
175.896082
 30
0.0
  0
VERTEX
  5
539
330
523
100
AcDbEntity
  8
001
370
    50
100
AcDbVertex
100
AcDb2dVertex
 10
462.470866
 20
175.890186
 30
0.0
  0
SEQEND
  5
524
330
523
100
AcDbEntity
  8
001
370
    50
  0
LINE
  5
53A
330
1F
100
AcDbEntity
  8
001
  6
DASHED
370
    50
100
AcDbLine
 10
444.670866
 20
192.461958
 30
0.0
 11
444.667217
 21
192.461958
 31
0.0
  0
ARC
  5
53B
330
1F
100
AcDbEntity
  8
001
370
    50
100
AcDbCircle
 10
462.470866
 20
180.861958
 30
0.0
 40
5.000000000000001
100
AcDbArc
 50
270.0
 51
0.0
  0
LINE
  5
53C
330
1F
100
AcDbEntity
  8
001
370
    50
100
AcDbLine
 10
467.470866
 20
183.465556
 30
0.0
 11
467.470866
 21
180.861958
 31
0.0
  0
LINE
  5
53D
330
1F
100
AcDbEntity
  8
001
  6
DASHED
370
    50
100
AcDbLine
 10
443.170866
 20
206.115485
 30
0.0
 11
443.170866
 21
206.1129
 31
0.0
  0
LINE
  5
53E
330
1F
100
AcDbEntity
  8
001
370
    50
100
AcDbLine
 10
467.470866
 20
188.147293
 30
0.0
 11
467.470866
 21
187.19586
 31
0.0
  0
LINE
  5
53F
330
1F
100
AcDbEntity
  8
001
370
    50
100
AcDbLine
 10
443.170866
 20
192.461958
 30
0.0
 11
458.351929
 21
192.461958
 31
0.0
  0
LINE
  5
540
330
1F
100
AcDbEntity
  8
001
370
    50
100
AcDbLine
 10
444.227197
 20
216.461958
 30
0.0
 11
443.170866
 21
216.461958
 31
0.0
  0
LINE
  5
541
330
1F
100
AcDbEntity
  8
001
370
    50
100
AcDbLine
 10
467.470866
 20
228.061958
 30
0.0
 11
467.470866
 21
216.415278
 31
0.0
  0
LINE
  5
542
330
1F
100
AcDbEntity
  8
001
370
    50
100
AcDbLine
 10
475.470866
 20
188.461958
 30
0.0
 11
475.470866
 21
220.461958
 31
0.0
  0
LINE
  5
543
330
1F
100
AcDbEntity
  8
001
370
    50
100
AcDbLine
 10
475.470866
 20
219.961958
 30
0.0
 11
472.470866
 21
219.961958
 31
0.0
  0
LINE
  5
544
330
1F
100
AcDbEntity
  8
001
370
    50
100
AcDbLine
 10
472.470866
 20
188.961958
 30
0.0
 11
475.470866
 21
188.961958
 31
0.0
  0
LINE
  5
545
330
1F
100
AcDbEntity
  8
001
370
    50
100
AcDbLine
 10
442.568051
 20
178.859334
 30
0.0
 11
442.955381
 21
183.673394
 31
0.0
  0
CIRCLE
  5
546
330
1F
100
AcDbEntity
  8
001
370
    50
100
AcDbCircle
 10
450.568996
 20
179.329079
 30
0.0
 40
3.0
  0
LINE
  5
547
330
1F
100
AcDbEntity
  8
001
370
    50
100
AcDbLine
 10
458.154115
 20
179.795921
 30
0.0
 11
457.766785
 21
174.98186
 31
0.0
  0
LINE
  5
548
330
1F
100
AcDbEntity
  8
001
370
    50
100
AcDbLine
 10
454.139074
 20
184.116619
 30
0.0
 11
443.3513
 21
184.041305
 31
0.0
  0
CIRCLE
  5
549
330
1F
100
AcDbEntity
  8
001
370
    50
100
AcDbCircle
 10
450.573983
 20
179.342344
 30
0.0
 40
2.5
  0
LINE
  5
54A
330
1F
100
AcDbEntity
  8
001
370
    50
100
AcDbLine
 10
451.153553
 20
180.34106
 30
0.0
 11
450.837232
 21
180.891764
 31
0.0
  0
LINE
  5
54B
330
1F
100
AcDbEntity
  8
001
370
    50
100
AcDbLine
 10
449.998855
 20
180.343624
 30
0.0
 11
450.317618
 21
180.892917
 31
0.0
  0
ARC
  5
54C
330
1F
100
AcDbEntity
  8
001
370
    50
100
AcDbCircle
 10
450.577092
 20
180.742341
 30
0.0
 40
0.3
100
AcDbArc
 50
29.872778
 51
149.872778
  0
LINE
  5
54D
330
1F
100
AcDbEntity
  8
001
370
    50
100
AcDbLine
 10
449.998855
 20
180.343624
 30
0.0
 11
449.363771
 21
180.345034
 31
0.0
  0
LINE
  5
54E
330
1F
100
AcDbEntity
  8
001
370
    50
100
AcDbLine
 10
449.419286
 20
179.344908
 30
0.0
 11
449.102965
 21
179.895612
 31
0.0
  0
ARC
  5
54F
330
1F
100
AcDbEntity
  8
001
370
    50
100
AcDbCircle
 10
449.363105
 20
180.045035
 30
0.0
 40
0.3
100
AcDbArc
 50
89.872778
 51
209.872778
  0
LINE
  5
550
330
1F
100
AcDbEntity
  8
001
370
    50
100
AcDbLine
 10
449.419286
 20
179.344908
 30
0.0
 11
449.100523
 21
178.795615
 31
0.0
  0
LINE
  5
551
330
1F
100
AcDbEntity
  8
001
370
    50
100
AcDbLine
 10
449.994414
 20
178.343629
 30
0.0
 11
449.35933
 21
178.345039
 31
0.0
  0
ARC
  5
552
330
1F
100
AcDbEntity
  8
001
370
    50
100
AcDbCircle
 10
449.359997
 20
178.645038
 30
0.0
 40
0.3
100
AcDbArc
 50
149.872778
 51
269.872778
  0
LINE
  5
553
330
1F
100
AcDbEntity
  8
001
370
    50
100
AcDbLine
 10
449.994414
 20
178.343629
 30
0.0
 11
450.310735
 21
177.792925
 31
0.0
  0
LINE
  5
554
330
1F
100
AcDbEntity
  8
001
370
    50
100
AcDbLine
 10
451.149112
 20
178.341065
 30
0.0
 11
450.830349
 21
177.791771
 31
0.0
  0
ARC
  5
555
330
1F
100
AcDbEntity
  8
001
370
    50
100
AcDbCircle
 10
450.570875
 20
177.942348
 30
0.0
 40
0.3
100
AcDbArc
 50
209.872778
 51
329.872778
  0
LINE
  5
556
330
1F
100
AcDbEntity
  8
001
370
    50
100
AcDbLine
 10
451.149112
 20
178.341065
 30
0.0
 11
451.784196
 21
178.339655
 31
0.0
  0
LINE
  5
557
330
1F
100
AcDbEntity
  8
001
370
    50
100
AcDbLine
 10
451.728681
 20
179.33978
 30
0.0
 11
452.045002
 21
178.789077
 31
0.0
  0
ARC
  5
558
330
1F
100
AcDbEntity
  8
001
370
    50
100
AcDbCircle
 10
451.784862
 20
178.639654
 30
0.0
 40
0.3
100
AcDbArc
 50
269.872778
 51
29.872778
  0
LINE
  5
559
330
1F
100
AcDbEntity
  8
001
370
    50
100
AcDbLine
 10
451.728681
 20
179.33978
 30
0.0
 11
452.047444
 21
179.889074
 31
0.0
  0
LINE
  5
55A
330
1F
100
AcDbEntity
  8
001
370
    50
100
AcDbLine
 10
451.153553
 20
180.34106
 30
0.0
 11
451.788636
 21
180.33965
 31
0.0
  0
ARC
  5
55B
330
1F
100
AcDbEntity
  8
001
370
    50
100
AcDbCircle
 10
451.78797
 20
180.039651
 30
0.0
 40
0.3
100
AcDbArc
 50
329.872778
 51
89.872778
  0
LINE
  5
55C
330
1F
100
AcDbEntity
  8
001
370
    50
100
AcDbLine
 10
446.583091
 20
174.538635
 30
0.0
 11
457.370866
 21
174.61395
 31
0.0
  0
ARC
  5
55D
330
1F
100
AcDbEntity
  8
001
370
    50
100
AcDbCircle
 10
443.354092
 20
183.641315
 30
0.0
 40
0.4
100
AcDbArc
 50
90.4
 51
175.4
  0
ARC
  5
55E
330
1F
100
AcDbEntity
  8
001
370
    50
100
AcDbCircle
 10
457.368073
 20
175.01394
 30
0.0
 40
0.4
100
AcDbArc
 50
270.4
 51
355.4
  0
POLYLINE
  5
55F
330
1F
100
AcDbEntity
  8
001
370
    50
100
AcDb2dPolyline
 66
     1
 10
0.0
 20
0.0
 30
0.0
  0
VERTEX
  5
561
330
55F
100
AcDbEntity
  8
001
370
    50
100
AcDbVertex
100
AcDb2dVertex
 10
444.227235
 20
192.461758
 30
0.0
  0
VERTEX
  5
562
330
55F
100
AcDbEntity
  8
001
370
    50
100
AcDbVertex
100
AcDb2dVertex
 10
443.998567
 20
189.595599
 30
0.0
  0
VERTEX
  5
563
330
55F
100
AcDbEntity
  8
001
370
    50
100
AcDbVertex
100
AcDb2dVertex
 10
443.760582
 20
186.730232
 30
0.0
  0
VERTEX
  5
564
330
55F
100
AcDbEntity
  8
001
370
    50
100
AcDbVertex
100
AcDb2dVertex
 10
443.658852
 20
185.561597
 30
0.0
  0
VERTEX
  5
565
330
55F
100
AcDbEntity
  8
001
370
    50
100
AcDbVertex
100
AcDb2dVertex
 10
443.554513
 20
184.393186
 30
0.0
  0
VERTEX
  5
566
330
55F
100
AcDbEntity
  8
001
370
    50
100
AcDbVertex
100
AcDb2dVertex
 10
443.538616
 20
184.217108
 30
0.0
  0
VERTEX
  5
567
330
55F
100
AcDbEntity
  8
001
370
    50
100
AcDbVertex
100
AcDb2dVertex
 10
443.522719
 20
184.04103
 30
0.0
  0
SEQEND
  5
560
330
55F
100
AcDbEntity
  8
001
370
    50
  0
LINE
  5
568
330
1F
100
AcDbEntity
  8
001
370
    50
100
AcDbLine
 10
443.812414
 20
184.043053
 30
0.0
 11
444.667217
 21
192.461958
 31
0.0
  0
LINE
  5
569
330
1F
100
AcDbEntity
  8
001
  6
DASHED
370
    30
100
AcDbLine
 10
443.864853
 20
184.043419
 30
0.0
 11
444.959886
 21
194.461958
 31
0.0
  0
LINE
  5
56A
330
1F
100
AcDbEntity
  8
001
370
    50
100
AcDbLine
 10
442.778802
 20
230.064582
 30
0.0
 11
443.166132
 21
225.250521
 31
0.0
  0
LINE
  5
56B
330
1F
100
AcDbEntity
  8
001
370
    50
100
AcDbLine
 10
446.793843
 20
234.38528
 30
0.0
 11
457.770021
 21
234.308651
 31
0.0
  0
ARC
  5
56C
330
1F
100
AcDbEntity
  8
001
370
    50
100
AcDbCircle
 10
457.767229
 20
233.90866
 30
0.0
 40
0.4
100
AcDbArc
 50
4.6
 51
89.6
  0
LINE
  5
56D
330
1F
100
AcDbEntity
  8
001
370
    50
100
AcDbLine
 10
458.16594
 20
233.94074
 30
0.0
 11
458.236645
 21
233.061958
 31
0.0
  0
ARC
  5
56E
330
1F
100
AcDbEntity
  8
001
370
    50
100
AcDbCircle
 10
443.564844
 20
225.282601
 30
0.0
 40
0.4
100
AcDbArc
 50
184.6
 51
263.661054
  0
ARC
  5
56F
330
1F
100
AcDbEntity
  8
001
370
    50
100
AcDbCircle
 10
448.170866
 20
228.061958
 30
0.0
 40
5.0
100
AcDbArc
 50
90.0
 51
175.157618
  0
ARC
  5
570
330
1F
100
AcDbEntity
  8
001
370
    50
100
AcDbCircle
 10
446.299952
 20
227.422697
 30
0.0
 40
3.0
100
AcDbArc
 50
90.0
 51
185.294309
  0
LINE
  5
571
330
1F
100
AcDbEntity
  8
001
  6
DASHED
370
    30
100
AcDbLine
 10
444.959886
 20
214.461958
 30
0.0
 11
443.380051
 21
229.493076
 31
0.0
  0
POLYLINE
  5
572
330
1F
100
AcDbEntity
  8
001
370
    50
100
AcDb2dPolyline
 66
     1
 10
0.0
 20
0.0
 30
0.0
  0
VERTEX
  5
574
330
572
100
AcDbEntity
  8
001
370
    50
100
AcDbVertex
100
AcDb2dVertex
 10
457.843717
 20
175.938042
 30
0.0
  0
VERTEX
  5
575
330
572
100
AcDbEntity
  8
001
370
    50
100
AcDbVertex
100
AcDb2dVertex
 10
458.043043
 20
175.935572
 30
0.0
  0
VERTEX
  5
576
330
572
100
AcDbEntity
  8
001
370
    50
100
AcDbVertex
100
AcDb2dVertex
 10
458.242369
 20
175.933102
 30
0.0
  0
VERTEX
  5
577
330
572
100
AcDbEntity
  8
001
370
    50
100
AcDbVertex
100
AcDb2dVertex
 10
459.117206
 20
175.922674
 30
0.0
  0
VERTEX
  5
578
330
572
100
AcDbEntity
  8
001
370
    50
100
AcDbVertex
100
AcDb2dVertex
 10
460.307031
 20
175.909704
 30
0.0
  0
VERTEX
  5
579
330
572
100
AcDbEntity
  8
001
370
    50
100
AcDbVertex
100
AcDb2dVertex
 10
461.591802
 20
175.897556
 30
0.0
  0
VERTEX
  5
57A
330
572
100
AcDbEntity
  8
001
370
    50
100
AcDbVertex
100
AcDb2dVertex
 10
462.470866
 20
175.890186
 30
0.0
  0
SEQEND
  5
573
330
572
100
AcDbEntity
  8
001
370
    50
  0
LINE
  5
57B
330
1F
100
AcDbEntity
  8
001
370
    50
100
AcDbLine
 10
457.837596
 20
175.861958
 30
0.0
 11
462.470866
 21
175.861958
 31
0.0
  0
LINE
  5
57C
330
1F
100
AcDbEntity
  8
001
370
     9
100
AcDbLine
 10
446.583091
 20
174.538635
 30
0.0
 11
439.082412
 21
174.538635
 31
0.0
  0
LINE
  5
57D
330
1F
100
AcDbEntity
  8
001
370
    50
100
AcDbLine
 10
485.805093
 20
220.461958
 30
0.0
 11
475.470866
 21
220.461958
 31
0.0
  0
LINE
  5
57E
330
1F
100
AcDbEntity
  8
001
  6
CENTER
370
     9
100
AcDbLine
 10
492.25665
 20
204.461958
 30
0.0
 11
439.44119
 21
204.461958
 31
0.0
  0
LINE
  5
57F
330
1F
100
AcDbEntity
  8
001
370
    50
100
AcDbLine
 10
486.282986
 20
188.461958
 30
0.0
 11
475.470866
 21
188.461958
 31
0.0
  0
ARC
  5
580
330
1F
100
AcDbEntity
  8
001
370
    50
100
AcDbCircle
 10
446.555166
 20
178.538538
 30
0.0
 40
4.0
100
AcDbArc
 50
175.4
 51
270.4
  0
ARC
  5
581
330
1F
100
AcDbEntity
  8
001
370
    50
100
AcDbCircle
 10
454.166999
 20
180.116717
 30
0.0
 40
4.0
100
AcDbArc
 50
355.4
 51
90.4
  0
ARC
  5
582
330
1F
100
AcDbEntity
  8
001
370
    50
100
AcDbCircle
 10
446.765918
 20
230.385378
 30
0.0
 40
4.0
100
AcDbArc
 50
89.6
 51
184.6
  0
POLYLINE
  5
583
330
1F
100
AcDbEntity
  8
001
370
    50
100
AcDb2dPolyline
 66
     1
 10
0.0
 20
0.0
 30
0.0
  0
VERTEX
  5
585
330
583
100
AcDbEntity
  8
001
370
    50
100
AcDbVertex
100
AcDb2dVertex
 10
458.351929
 20
280.883059
 30
0.0
  0
VERTEX
  5
586
330
583
100
AcDbEntity
  8
001
370
    50
100
AcDbVertex
100
AcDb2dVertex
 10
458.86711
 20
280.871387
 30
0.0
  0
VERTEX
  5
587
330
583
100
AcDbEntity
  8
001
370
    50
100
AcDbVertex
100
AcDb2dVertex
 10
459.381663
 20
280.848552
 30
0.0
  0
VERTEX
  5
588
330
583
100
AcDbEntity
  8
001
370
    50
100
AcDbVertex
100
AcDb2dVertex
 10
459.897359
 20
280.805606
 30
0.0
  0
VERTEX
  5
589
330
583
100
AcDbEntity
  8
001
370
    50
100
AcDbVertex
100
AcDb2dVertex
 10
460.411397
 20
280.743768
 30
0.0
  0
VERTEX
  5
58A
330
583
100
AcDbEntity
  8
001
370
    50
100
AcDbVertex
100
AcDb2dVertex
 10
460.931272
 20
280.664055
 30
0.0
  0
VERTEX
  5
58B
330
583
100
AcDbEntity
  8
001
370
    50
100
AcDbVertex
100
AcDb2dVertex
 10
461.447445
 20
280.564601
 30
0.0
  0
VERTEX
  5
58C
330
583
100
AcDbEntity
  8
001
370
    50
100
AcDbVertex
100
AcDb2dVertex
 10
461.960485
 20
280.443678
 30
0.0
  0
VERTEX
  5
58D
330
583
100
AcDbEntity
  8
001
370
    50
100
AcDbVertex
100
AcDb2dVertex
 10
462.470866
 20
280.310816
 30
0.0
  0
SEQEND
  5
584
330
583
100
AcDbEntity
  8
001
370
    50
  0
POLYLINE
  5
58E
330
1F
100
AcDbEntity
  8
001
370
    50
100
AcDb2dPolyline
 66
     1
 10
0.0
 20
0.0
 30
0.0
  0
VERTEX
  5
590
330
58E
100
AcDbEntity
  8
001
370
    50
100
AcDbVertex
100
AcDb2dVertex
 10
462.470866
 20
280.310816
 30
0.0
  0
VERTEX
  5
591
330
58E
100
AcDbEntity
  8
001
370
    50
100
AcDbVertex
100
AcDb2dVertex
 10
462.846751
 20
280.193815
 30
0.0
  0
VERTEX
  5
592
330
58E
100
AcDbEntity
  8
001
370
    50
100
AcDbVertex
100
AcDb2dVertex
 10
463.219984
 20
280.069047
 30
0.0
  0
VERTEX
  5
593
330
58E
100
AcDbEntity
  8
001
370
    50
100
AcDbVertex
100
AcDb2dVertex
 10
463.568972
 20
279.937997
 30
0.0
  0
VERTEX
  5
594
330
58E
100
AcDbEntity
  8
001
370
    50
100
AcDbVertex
100
AcDb2dVertex
 10
463.913035
 20
279.794303
 30
0.0
  0
VERTEX
  5
595
330
58E
100
AcDbEntity
  8
001
370
    50
100
AcDbVertex
100
AcDb2dVertex
 10
464.171622
 20
279.67703
 30
0.0
  0
VERTEX
  5
596
330
58E
100
AcDbEntity
  8
001
370
    50
100
AcDbVertex
100
AcDb2dVertex
 10
464.426922
 20
279.552838
 30
0.0
  0
VERTEX
  5
597
330
58E
100
AcDbEntity
  8
001
370
    50
100
AcDbVertex
100
AcDb2dVertex
 10
464.662448
 20
279.430151
 30
0.0
  0
VERTEX
  5
598
330
58E
100
AcDbEntity
  8
001
370
    50
100
AcDbVertex
100
AcDb2dVertex
 10
464.894531
 20
279.301059
 30
0.0
  0
VERTEX
  5
599
330
58E
100
AcDbEntity
  8
001
370
    50
100
AcDbVertex
100
AcDb2dVertex
 10
465.105892
 20
279.175875
 30
0.0
  0
VERTEX
  5
59A
330
58E
100
AcDbEntity
  8
001
370
    50
100
AcDbVertex
100
AcDb2dVertex
 10
465.313783
 20
279.045004
 30
0.0
  0
VERTEX
  5
59B
330
58E
100
AcDbEntity
  8
001
370
    50
100
AcDbVertex
100
AcDb2dVertex
 10
465.586177
 20
278.860622
 30
0.0
  0
VERTEX
  5
59C
330
58E
100
AcDbEntity
  8
001
370
    50
100
AcDbVertex
100
AcDb2dVertex
 10
465.851015
 20
278.6655
 30
0.0
  0
VERTEX
  5
59D
330
58E
100
AcDbEntity
  8
001
370
    50
100
AcDbVertex
100
AcDb2dVertex
 10
466.079035
 20
278.483063
 30
0.0
  0
VERTEX
  5
59E
330
58E
100
AcDbEntity
  8
001
370
    50
100
AcDbVertex
100
AcDb2dVertex
 10
466.299457
 20
278.291623
 30
0.0
  0
VERTEX
  5
59F
330
58E
100
AcDbEntity
  8
001
370
    50
100
AcDbVertex
100
AcDb2dVertex
 10
466.485858
 20
278.115971
 30
0.0
  0
VERTEX
  5
5A0
330
58E
100
AcDbEntity
  8
001
370
    50
100
AcDbVertex
100
AcDb2dVertex
 10
466.665212
 20
277.932922
 30
0.0
  0
VERTEX
  5
5A1
330
58E
100
AcDbEntity
  8
001
370
    50
100
AcDbVertex
100
AcDb2dVertex
 10
466.869916
 20
277.703042
 30
0.0
  0
VERTEX
  5
5A2
330
58E
100
AcDbEntity
  8
001
370
    50
100
AcDbVertex
100
AcDb2dVertex
 10
467.059303
 20
277.461026
 30
0.0
  0
VERTEX
  5
5A3
330
58E
100
AcDbEntity
  8
001
370
    50
100
AcDbVertex
100
AcDb2dVertex
 10
467.196434
 20
277.258476
 30
0.0
  0
VERTEX
  5
5A4
330
58E
100
AcDbEntity
  8
001
370
    50
100
AcDbVertex
100
AcDb2dVertex
 10
467.319737
 20
277.045895
 30
0.0
  0
VERTEX
  5
5A5
330
58E
100
AcDbEntity
  8
001
370
    50
100
AcDbVertex
100
AcDb2dVertex
 10
467.398498
 20
276.881284
 30
0.0
  0
VERTEX
  5
5A6
330
58E
100
AcDbEntity
  8
001
370
    50
100
AcDbVertex
100
AcDb2dVertex
 10
467.451989
 20
276.70877
 30
0.0
  0
VERTEX
  5
5A7
330
58E
100
AcDbEntity
  8
001
370
    50
100
AcDbVertex
100
AcDb2dVertex
 10
467.463046
 20
276.638945
 30
0.0
  0
VERTEX
  5
5A8
330
58E
100
AcDbEntity
  8
001
370
    50
100
AcDbVertex
100
AcDb2dVertex
 10
467.470866
 20
276.568395
 30
0.0
  0
SEQEND
  5
58F
330
58E
100
AcDbEntity
  8
001
370
    50
  0
LINE
  5
5A9
330
1F
100
AcDbEntity
  8
001
  6
DASHED
370
    30
100
AcDbLine
 10
444.959886
 20
302.883059
 30
0.0
 11
444.959886
 21
282.883059
 31
0.0
  0
POLYLINE
  5
5AA
330
1F
100
AcDbEntity
  8
001
370
    50
100
AcDb2dPolyline
 66
     1
 10
0.0
 20
0.0
 30
0.0
  0
VERTEX
  5
5AC
330
5AA
100
AcDbEntity
  8
001
370
    50
100
AcDbVertex
100
AcDb2dVertex
 10
467.470866
 20
275.616961
 30
0.0
  0
VERTEX
  5
5AD
330
5AA
100
AcDbEntity
  8
001
370
    50
100
AcDbVertex
100
AcDb2dVertex
 10
467.470911
 20
275.608308
 30
0.0
  0
VERTEX
  5
5AE
330
5AA
100
AcDbEntity
  8
001
370
    50
100
AcDbVertex
100
AcDb2dVertex
 10
467.470978
 20
275.599656
 30
0.0
  0
VERTEX
  5
5AF
330
5AA
100
AcDbEntity
  8
001
370
    50
100
AcDbVertex
100
AcDb2dVertex
 10
467.479733
 20
275.430887
 30
0.0
  0
VERTEX
  5
5B0
330
5AA
100
AcDbEntity
  8
001
370
    50
100
AcDbVertex
100
AcDb2dVertex
 10
467.49799
 20
275.262658
 30
0.0
  0
VERTEX
  5
5B1
330
5AA
100
AcDbEntity
  8
001
370
    50
100
AcDbVertex
100
AcDb2dVertex
 10
467.522901
 20
275.070023
 30
0.0
  0
VERTEX
  5
5B2
330
5AA
100
AcDbEntity
  8
001
370
    50
100
AcDbVertex
100
AcDb2dVertex
 10
467.548269
 20
274.87755
 30
0.0
  0
VERTEX
  5
5B3
330
5AA
100
AcDbEntity
  8
001
370
    50
100
AcDbVertex
100
AcDb2dVertex
 10
467.593428
 20
274.47224
 30
0.0
  0
VERTEX
  5
5B4
330
5AA
100
AcDbEntity
  8
001
370
    50
100
AcDbVertex
100
AcDb2dVertex
 10
467.619768
 20
274.065326
 30
0.0
  0
VERTEX
  5
5B5
330
5AA
100
AcDbEntity
  8
001
370
    50
100
AcDbVertex
100
AcDb2dVertex
 10
467.621134
 20
273.671737
 30
0.0
  0
VERTEX
  5
5B6
330
5AA
100
AcDbEntity
  8
001
370
    50
100
AcDbVertex
100
AcDb2dVertex
 10
467.59961
 20
273.278701
 30
0.0
  0
VERTEX
  5
5B7
330
5AA
100
AcDbEntity
  8
001
370
    50
100
AcDbVertex
100
AcDb2dVertex
 10
467.559377
 20
272.89074
 30
0.0
  0
VERTEX
  5
5B8
330
5AA
100
AcDbEntity
  8
001
370
    50
100
AcDbVertex
100
AcDb2dVertex
 10
467.509106
 20
272.503846
 30
0.0
  0
SEQEND
  5
5AB
330
5AA
100
AcDbEntity
  8
001
370
    50
  0
POLYLINE
  5
5B9
330
1F
100
AcDbEntity
  8
001
370
    50
100
AcDb2dPolyline
 66
     1
 10
0.0
 20
0.0
 30
0.0
  0
VERTEX
  5
5BB
330
5B9
100
AcDbEntity
  8
001
370
    50
100
AcDbVertex
100
AcDb2dVertex
 10
467.509106
 20
272.503846
 30
0.0
  0
VERTEX
  5
5BC
330
5B9
100
AcDbEntity
  8
001
370
    50
100
AcDbVertex
100
AcDb2dVertex
 10
466.944361
 20
273.523967
 30
0.0
  0
VERTEX
  5
5BD
330
5B9
100
AcDbEntity
  8
001
370
    50
100
AcDbVertex
100
AcDb2dVertex
 10
466.078163
 20
274.874061
 30
0.0
  0
VERTEX
  5
5BE
330
5B9
100
AcDbEntity
  8
001
370
    50
100
AcDbVertex
100
AcDb2dVertex
 10
465.180637
 20
276.000122
 30
0.0
  0
VERTEX
  5
5BF
330
5B9
100
AcDbEntity
  8
001
370
    50
100
AcDbVertex
100
AcDb2dVertex
 10
464.241031
 20
276.935417
 30
0.0
  0
VERTEX
  5
5C0
330
5B9
100
AcDbEntity
  8
001
370
    50
100
AcDbVertex
100
AcDb2dVertex
 10
463.20114
 20
277.812952
 30
0.0
  0
VERTEX
  5
5C1
330
5B9
100
AcDbEntity
  8
001
370
    50
100
AcDbVertex
100
AcDb2dVertex
 10
462.06082
 20
278.617104
 30
0.0
  0
VERTEX
  5
5C2
330
5B9
100
AcDbEntity
  8
001
370
    50
100
AcDbVertex
100
AcDb2dVertex
 10
460.84823
 20
279.300308
 30
0.0
  0
VERTEX
  5
5C3
330
5B9
100
AcDbEntity
  8
001
370
    50
100
AcDbVertex
100
AcDb2dVertex
 10
459.612424
 20
279.861352
 30
0.0
  0
VERTEX
  5
5C4
330
5B9
100
AcDbEntity
  8
001
370
    50
100
AcDbVertex
100
AcDb2dVertex
 10
458.373041
 20
280.304268
 30
0.0
  0
VERTEX
  5
5C5
330
5B9
100
AcDbEntity
  8
001
370
    50
100
AcDbVertex
100
AcDb2dVertex
 10
456.97995
 20
280.62542
 30
0.0
  0
VERTEX
  5
5C6
330
5B9
100
AcDbEntity
  8
001
370
    50
100
AcDbVertex
100
AcDb2dVertex
 10
455.405198
 20
280.818637
 30
0.0
  0
VERTEX
  5
5C7
330
5B9
100
AcDbEntity
  8
001
370
    50
100
AcDbVertex
100
AcDb2dVertex
 10
454.253829
 20
280.883059
 30
0.0
  0
SEQEND
  5
5BA
330
5B9
100
AcDbEntity
  8
001
370
    50
  0
LINE
  5
5C8
330
1F
100
AcDbEntity
  8
001
370
    50
100
AcDbLine
 10
472.470866
 20
308.883059
 30
0.0
 11
472.470866
 21
276.883059
 31
0.0
  0
ARC
  5
5C9
330
1F
100
AcDbEntity
  8
001
370
    50
100
AcDbCircle
 10
472.470866
 20
313.883059
 30
0.0
 40
5.000000000000001
100
AcDbArc
 50
180.0
 51
270.0
  0
ARC
  5
5CA
330
1F
100
AcDbEntity
  8
001
370
    50
100
AcDbCircle
 10
472.470866
 20
271.883059
 30
0.0
 40
5.000000000000001
100
AcDbArc
 50
90.0
 51
180.0
  0
POLYLINE
  5
5CB
330
1F
100
AcDbEntity
  8
001
370
    50
100
AcDb2dPolyline
 66
     1
 10
0.0
 20
0.0
 30
0.0
  0
VERTEX
  5
5CD
330
5CB
100
AcDbEntity
  8
001
370
    50
100
AcDbVertex
100
AcDb2dVertex
 10
458.351929
 20
318.843799
 30
0.0
  0
VERTEX
  5
5CE
330
5CB
100
AcDbEntity
  8
001
370
    50
100
AcDbVertex
100
AcDb2dVertex
 10
458.866865
 20
318.838426
 30
0.0
  0
VERTEX
  5
5CF
330
5CB
100
AcDbEntity
  8
001
370
    50
100
AcDbVertex
100
AcDb2dVertex
 10
459.381663
 20
318.82782
 30
0.0
  0
VERTEX
  5
5D0
330
5CB
100
AcDbEntity
  8
001
370
    50
100
AcDbVertex
100
AcDb2dVertex
 10
459.89671
 20
318.807854
 30
0.0
  0
VERTEX
  5
5D1
330
5CB
100
AcDbEntity
  8
001
370
    50
100
AcDbVertex
100
AcDb2dVertex
 10
460.411397
 20
318.778959
 30
0.0
  0
VERTEX
  5
5D2
330
5CB
100
AcDbEntity
  8
001
370
    50
100
AcDbVertex
100
AcDb2dVertex
 10
460.929875
 20
318.741656
 30
0.0
  0
VERTEX
  5
5D3
330
5CB
100
AcDbEntity
  8
001
370
    50
100
AcDbVertex
100
AcDb2dVertex
 10
461.447445
 20
318.694211
 30
0.0
  0
VERTEX
  5
5D4
330
5CB
100
AcDbEntity
  8
001
370
    50
100
AcDbVertex
100
AcDb2dVertex
 10
461.959491
 20
318.636025
 30
0.0
  0
VERTEX
  5
5D5
330
5CB
100
AcDbEntity
  8
001
370
    50
100
AcDbVertex
100
AcDb2dVertex
 10
462.470866
 20
318.571553
 30
0.0
  0
SEQEND
  5
5CC
330
5CB
100
AcDbEntity
  8
001
370
    50
  0
POLYLINE
  5
5D6
330
1F
100
AcDbEntity
  8
001
370
    50
100
AcDb2dPolyline
 66
     1
 10
0.0
 20
0.0
 30
0.0
  0
VERTEX
  5
5D8
330
5D6
100
AcDbEntity
  8
001
370
    50
100
AcDbVertex
100
AcDb2dVertex
 10
462.470866
 20
318.571553
 30
0.0
  0
VERTEX
  5
5D9
330
5D6
100
AcDbEntity
  8
001
370
    50
100
AcDbVertex
100
AcDb2dVertex
 10
462.84884
 20
318.491023
 30
0.0
  0
VERTEX
  5
5DA
330
5D6
100
AcDbEntity
  8
001
370
    50
100
AcDbVertex
100
AcDb2dVertex
 10
463.219984
 20
318.388119
 30
0.0
  0
VERTEX
  5
5DB
330
5D6
100
AcDbEntity
  8
001
370
    50
100
AcDbVertex
100
AcDb2dVertex
 10
463.573846
 20
318.247842
 30
0.0
  0
VERTEX
  5
5DC
330
5D6
100
AcDbEntity
  8
001
370
    50
100
AcDbVertex
100
AcDb2dVertex
 10
463.913035
 20
318.073028
 30
0.0
  0
VERTEX
  5
5DD
330
5D6
100
AcDbEntity
  8
001
370
    50
100
AcDbVertex
100
AcDb2dVertex
 10
464.175456
 20
317.912071
 30
0.0
  0
VERTEX
  5
5DE
330
5D6
100
AcDbEntity
  8
001
370
    50
100
AcDbVertex
100
AcDb2dVertex
 10
464.426922
 20
317.735054
 30
0.0
  0
VERTEX
  5
5DF
330
5D6
100
AcDbEntity
  8
001
370
    50
100
AcDbVertex
100
AcDb2dVertex
 10
464.666481
 20
317.543182
 30
0.0
  0
VERTEX
  5
5E0
330
5D6
100
AcDbEntity
  8
001
370
    50
100
AcDbVertex
100
AcDb2dVertex
 10
464.894531
 20
317.337615
 30
0.0
  0
VERTEX
  5
5E1
330
5D6
100
AcDbEntity
  8
001
370
    50
100
AcDbVertex
100
AcDb2dVertex
 10
465.109854
 20
317.121188
 30
0.0
  0
VERTEX
  5
5E2
330
5D6
100
AcDbEntity
  8
001
370
    50
100
AcDbVertex
100
AcDb2dVertex
 10
465.313783
 20
316.894008
 30
0.0
  0
VERTEX
  5
5E3
330
5D6
100
AcDbEntity
  8
001
370
    50
100
AcDbVertex
100
AcDb2dVertex
 10
465.594299
 20
316.541242
 30
0.0
  0
VERTEX
  5
5E4
330
5D6
100
AcDbEntity
  8
001
370
    50
100
AcDbVertex
100
AcDb2dVertex
 10
465.851015
 20
316.170643
 30
0.0
  0
VERTEX
  5
5E5
330
5D6
100
AcDbEntity
  8
001
370
    50
100
AcDbVertex
100
AcDb2dVertex
 10
466.086349
 20
315.782504
 30
0.0
  0
VERTEX
  5
5E6
330
5D6
100
AcDbEntity
  8
001
370
    50
100
AcDbVertex
100
AcDb2dVertex
 10
466.299457
 20
315.381786
 30
0.0
  0
VERTEX
  5
5E7
330
5D6
100
AcDbEntity
  8
001
370
    50
100
AcDbVertex
100
AcDb2dVertex
 10
466.4923
 20
314.968755
 30
0.0
  0
VERTEX
  5
5E8
330
5D6
100
AcDbEntity
  8
001
370
    50
100
AcDbVertex
100
AcDb2dVertex
 10
466.665212
 20
314.546932
 30
0.0
  0
VERTEX
  5
5E9
330
5D6
100
AcDbEntity
  8
001
370
    50
100
AcDbVertex
100
AcDb2dVertex
 10
466.880416
 20
313.930764
 30
0.0
  0
VERTEX
  5
5EA
330
5D6
100
AcDbEntity
  8
001
370
    50
100
AcDbVertex
100
AcDb2dVertex
 10
467.059303
 20
313.303049
 30
0.0
  0
VERTEX
  5
5EB
330
5D6
100
AcDbEntity
  8
001
370
    50
100
AcDbVertex
100
AcDb2dVertex
 10
467.20608
 20
312.654893
 30
0.0
  0
VERTEX
  5
5EC
330
5D6
100
AcDbEntity
  8
001
370
    50
100
AcDbVertex
100
AcDb2dVertex
 10
467.319737
 20
311.999999
 30
0.0
  0
VERTEX
  5
5ED
330
5D6
100
AcDbEntity
  8
001
370
    50
100
AcDbVertex
100
AcDb2dVertex
 10
467.402964
 20
311.331671
 30
0.0
  0
VERTEX
  5
5EE
330
5D6
100
AcDbEntity
  8
001
370
    50
100
AcDbVertex
100
AcDb2dVertex
 10
467.451989
 20
310.660246
 30
0.0
  0
VERTEX
  5
5EF
330
5D6
100
AcDbEntity
  8
001
370
    50
100
AcDbVertex
100
AcDb2dVertex
 10
467.464127
 20
310.298061
 30
0.0
  0
VERTEX
  5
5F0
330
5D6
100
AcDbEntity
  8
001
370
    50
100
AcDbVertex
100
AcDb2dVertex
 10
467.470866
 20
309.935675
 30
0.0
  0
SEQEND
  5
5D7
330
5D6
100
AcDbEntity
  8
001
370
    50
  0
ARC
  5
5F1
330
1F
100
AcDbEntity
  8
001
370
    50
100
AcDbCircle
 10
462.470866
 20
316.483059
 30
0.0
 40
5.000000000000001
100
AcDbArc
 50
0.0
 51
90.0
  0
POLYLINE
  5
5F2
330
1F
100
AcDbEntity
  8
001
370
    50
100
AcDb2dPolyline
 66
     1
 10
0.0
 20
0.0
 30
0.0
  0
VERTEX
  5
5F4
330
5F2
100
AcDbEntity
  8
001
370
    50
100
AcDbVertex
100
AcDb2dVertex
 10
457.185766
 20
321.483059
 30
0.0
  0
VERTEX
  5
5F5
330
5F2
100
AcDbEntity
  8
001
370
    50
100
AcDbVertex
100
AcDb2dVertex
 10
457.113973
 20
321.482592
 30
0.0
  0
VERTEX
  5
5F6
330
5F2
100
AcDbEntity
  8
001
370
    50
100
AcDbVertex
100
AcDb2dVertex
 10
457.009071
 20
321.480558
 30
0.0
  0
VERTEX
  5
5F7
330
5F2
100
AcDbEntity
  8
001
370
    50
100
AcDbVertex
100
AcDb2dVertex
 10
456.904478
 20
321.476651
 30
0.0
  0
VERTEX
  5
5F8
330
5F2
100
AcDbEntity
  8
001
370
    50
100
AcDbVertex
100
AcDb2dVertex
 10
456.832948
 20
321.473055
 30
0.0
  0
SEQEND
  5
5F3
330
5F2
100
AcDbEntity
  8
001
370
    50
  0
LINE
  5
5F9
330
1F
100
AcDbEntity
  8
001
370
    50
100
AcDbLine
 10
448.170866
 20
321.483059
 30
0.0
 11
452.543178
 21
321.483059
 31
0.0
  0
LINE
  5
5FA
330
1F
100
AcDbEntity
  8
001
370
    50
100
AcDbLine
 10
462.470866
 20
321.483059
 30
0.0
 11
457.185766
 21
321.483059
 31
0.0
  0
LINE
  5
5FB
330
1F
100
AcDbEntity
  8
001
370
    50
100
AcDbLine
 10
446.299952
 20
318.843799
 30
0.0
 11
458.351929
 21
318.843799
 31
0.0
  0
POLYLINE
  5
5FC
330
1F
100
AcDbEntity
  8
001
370
    50
100
AcDb2dPolyline
 66
     1
 10
0.0
 20
0.0
 30
0.0
  0
VERTEX
  5
5FE
330
5FC
100
AcDbEntity
  8
001
370
    50
100
AcDbVertex
100
AcDb2dVertex
 10
456.832948
 20
321.473055
 30
0.0
  0
VERTEX
  5
5FF
330
5FC
100
AcDbEntity
  8
001
370
    50
100
AcDbVertex
100
AcDb2dVertex
 10
455.961667
 20
321.47665
 30
0.0
  0
VERTEX
  5
600
330
5FC
100
AcDbEntity
  8
001
370
    50
100
AcDbVertex
100
AcDb2dVertex
 10
454.688251
 20
321.480558
 30
0.0
  0
VERTEX
  5
601
330
5FC
100
AcDbEntity
  8
001
370
    50
100
AcDbVertex
100
AcDb2dVertex
 10
453.414615
 20
321.48259
 30
0.0
  0
VERTEX
  5
602
330
5FC
100
AcDbEntity
  8
001
370
    50
100
AcDbVertex
100
AcDb2dVertex
 10
452.543178
 20
321.483059
 30
0.0
  0
SEQEND
  5
5FD
330
5FC
100
AcDbEntity
  8
001
370
    50
  0
POLYLINE
  5
603
330
1F
100
AcDbEntity
  8
001
370
    50
100
AcDb2dPolyline
 66
     1
 10
0.0
 20
0.0
 30
0.0
  0
VERTEX
  5
605
330
603
100
AcDbEntity
  8
001
370
    50
100
AcDbVertex
100
AcDb2dVertex
 10
467.470866
 20
269.286261
 30
0.0
  0
VERTEX
  5
606
330
603
100
AcDbEntity
  8
001
370
    50
100
AcDbVertex
100
AcDb2dVertex
 10
467.452911
 20
268.924489
 30
0.0
  0
VERTEX
  5
607
330
603
100
AcDbEntity
  8
001
370
    50
100
AcDbVertex
100
AcDb2dVertex
 10
467.418507
 20
268.564617
 30
0.0
  0
VERTEX
  5
608
330
603
100
AcDbEntity
  8
001
370
    50
100
AcDbVertex
100
AcDb2dVertex
 10
467.342799
 20
268.156702
 30
0.0
  0
VERTEX
  5
609
330
603
100
AcDbEntity
  8
001
370
    50
100
AcDbVertex
100
AcDb2dVertex
 10
467.230416
 20
267.756497
 30
0.0
  0
VERTEX
  5
60A
330
603
100
AcDbEntity
  8
001
370
    50
100
AcDbVertex
100
AcDb2dVertex
 10
467.086916
 20
267.36731
 30
0.0
  0
VERTEX
  5
60B
330
603
100
AcDbEntity
  8
001
370
    50
100
AcDbVertex
100
AcDb2dVertex
 10
466.912425
 20
266.99144
 30
0.0
  0
VERTEX
  5
60C
330
603
100
AcDbEntity
  8
001
370
    50
100
AcDbVertex
100
AcDb2dVertex
 10
466.706797
 20
266.632098
 30
0.0
  0
VERTEX
  5
60D
330
603
100
AcDbEntity
  8
001
370
    50
100
AcDbVertex
100
AcDb2dVertex
 10
466.471745
 20
266.291036
 30
0.0
  0
VERTEX
  5
60E
330
603
100
AcDbEntity
  8
001
370
    50
100
AcDbVertex
100
AcDb2dVertex
 10
466.210202
 20
265.97116
 30
0.0
  0
VERTEX
  5
60F
330
603
100
AcDbEntity
  8
001
370
    50
100
AcDbVertex
100
AcDb2dVertex
 10
465.9231
 20
265.674187
 30
0.0
  0
VERTEX
  5
610
330
603
100
AcDbEntity
  8
001
370
    50
100
AcDbVertex
100
AcDb2dVertex
 10
465.610042
 20
265.401012
 30
0.0
  0
VERTEX
  5
611
330
603
100
AcDbEntity
  8
001
370
    50
100
AcDbVertex
100
AcDb2dVertex
 10
465.275129
 20
265.154913
 30
0.0
  0
VERTEX
  5
612
330
603
100
AcDbEntity
  8
001
370
    50
100
AcDbVertex
100
AcDb2dVertex
 10
464.921837
 20
264.937765
 30
0.0
  0
VERTEX
  5
613
330
603
100
AcDbEntity
  8
001
370
    50
100
AcDbVertex
100
AcDb2dVertex
 10
464.551713
 20
264.751128
 30
0.0
  0
VERTEX
  5
614
330
603
100
AcDbEntity
  8
001
370
    50
100
AcDbVertex
100
AcDb2dVertex
 10
464.16332
 20
264.59549
 30
0.0
  0
VERTEX
  5
615
330
603
100
AcDbEntity
  8
001
370
    50
100
AcDbVertex
100
AcDb2dVertex
 10
463.763027
 20
264.472534
 30
0.0
  0
VERTEX
  5
616
330
603
100
AcDbEntity
  8
001
370
    50
100
AcDbVertex
100
AcDb2dVertex
 10
463.354347
 20
264.382576
 30
0.0
  0
VERTEX
  5
617
330
603
100
AcDbEntity
  8
001
370
    50
100
AcDbVertex
100
AcDb2dVertex
 10
462.939861
 20
264.329793
 30
0.0
  0
VERTEX
  5
618
330
603
100
AcDbEntity
  8
001
370
    50
100
AcDbVertex
100
AcDb2dVertex
 10
462.70558
 20
264.317183
 30
0.0
  0
VERTEX
  5
619
330
603
100
AcDbEntity
  8
001
370
    50
100
AcDbVertex
100
AcDb2dVertex
 10
462.470866
 20
264.311287
 30
0.0
  0
SEQEND
  5
604
330
603
100
AcDbEntity
  8
001
370
    50
  0
LINE
  5
61A
330
1F
100
AcDbEntity
  8
001
  6
DASHED
370
    50
100
AcDbLine
 10
444.670866
 20
280.883059
 30
0.0
 11
444.667217
 21
280.883059
 31
0.0
  0
ARC
  5
61B
330
1F
100
AcDbEntity
  8
001
370
    50
100
AcDbCircle
 10
462.470866
 20
269.283059
 30
0.0
 40
5.000000000000001
100
AcDbArc
 50
270.0
 51
0.0
  0
LINE
  5
61C
330
1F
100
AcDbEntity
  8
001
370
    50
100
AcDbLine
 10
467.470866
 20
271.886657
 30
0.0
 11
467.470866
 21
269.283059
 31
0.0
  0
LINE
  5
61D
330
1F
100
AcDbEntity
  8
001
  6
DASHED
370
    50
100
AcDbLine
 10
443.170866
 20
294.536586
 30
0.0
 11
443.170866
 21
294.534001
 31
0.0
  0
LINE
  5
61E
330
1F
100
AcDbEntity
  8
001
370
    50
100
AcDbLine
 10
467.470866
 20
276.568395
 30
0.0
 11
467.470866
 21
275.616961
 31
0.0
  0
LINE
  5
61F
330
1F
100
AcDbEntity
  8
001
370
    50
100
AcDbLine
 10
443.170866
 20
280.883059
 30
0.0
 11
458.351929
 21
280.883059
 31
0.0
  0
LINE
  5
620
330
1F
100
AcDbEntity
  8
001
370
    50
100
AcDbLine
 10
444.227197
 20
304.883059
 30
0.0
 11
443.170866
 21
304.883059
 31
0.0
  0
LINE
  5
621
330
1F
100
AcDbEntity
  8
001
370
    50
100
AcDbLine
 10
467.470866
 20
316.483059
 30
0.0
 11
467.470866
 21
304.836379
 31
0.0
  0
LINE
  5
622
330
1F
100
AcDbEntity
  8
001
370
    50
100
AcDbLine
 10
475.470866
 20
276.883059
 30
0.0
 11
475.470866
 21
308.883059
 31
0.0
  0
LINE
  5
623
330
1F
100
AcDbEntity
  8
001
370
    50
100
AcDbLine
 10
475.470866
 20
308.383059
 30
0.0
 11
472.470866
 21
308.383059
 31
0.0
  0
LINE
  5
624
330
1F
100
AcDbEntity
  8
001
370
    50
100
AcDbLine
 10
472.470866
 20
277.383059
 30
0.0
 11
475.470866
 21
277.383059
 31
0.0
  0
LINE
  5
625
330
1F
100
AcDbEntity
  8
001
370
    50
100
AcDbLine
 10
442.611812
 20
267.824331
 30
0.0
 11
442.955381
 21
272.094496
 31
0.0
  0
CIRCLE
  5
626
330
1F
100
AcDbEntity
  8
001
370
    50
100
AcDbCircle
 10
450.568996
 20
267.75018
 30
0.0
 40
3.0
  0
LINE
  5
627
330
1F
100
AcDbEntity
  8
001
370
    50
100
AcDbLine
 10
458.110354
 20
267.673125
 30
0.0
 11
457.766785
 21
263.402961
 31
0.0
  0
LINE
  5
628
330
1F
100
AcDbEntity
  8
001
370
    50
100
AcDbLine
 10
453.593433
 20
272.533911
 30
0.0
 11
443.3513
 21
272.462406
 31
0.0
  0
CIRCLE
  5
629
330
1F
100
AcDbEntity
  8
001
370
    50
100
AcDbCircle
 10
450.573983
 20
267.763446
 30
0.0
 40
2.5
  0
LINE
  5
62A
330
1F
100
AcDbEntity
  8
001
370
    50
100
AcDbLine
 10
451.153553
 20
268.762161
 30
0.0
 11
450.837232
 21
269.312865
 31
0.0
  0
LINE
  5
62B
330
1F
100
AcDbEntity
  8
001
370
    50
100
AcDbLine
 10
449.998855
 20
268.764725
 30
0.0
 11
450.317618
 21
269.314019
 31
0.0
  0
ARC
  5
62C
330
1F
100
AcDbEntity
  8
001
370
    50
100
AcDbCircle
 10
450.577092
 20
269.163442
 30
0.0
 40
0.3
100
AcDbArc
 50
29.872778
 51
149.872778
  0
LINE
  5
62D
330
1F
100
AcDbEntity
  8
001
370
    50
100
AcDbLine
 10
449.998855
 20
268.764725
 30
0.0
 11
449.363771
 21
268.766135
 31
0.0
  0
LINE
  5
62E
330
1F
100
AcDbEntity
  8
001
370
    50
100
AcDbLine
 10
449.419286
 20
267.76601
 30
0.0
 11
449.102965
 21
268.316713
 31
0.0
  0
ARC
  5
62F
330
1F
100
AcDbEntity
  8
001
370
    50
100
AcDbCircle
 10
449.363105
 20
268.466136
 30
0.0
 40
0.3
100
AcDbArc
 50
89.872778
 51
209.872778
  0
LINE
  5
630
330
1F
100
AcDbEntity
  8
001
370
    50
100
AcDbLine
 10
449.419286
 20
267.76601
 30
0.0
 11
449.100523
 21
267.216716
 31
0.0
  0
LINE
  5
631
330
1F
100
AcDbEntity
  8
001
370
    50
100
AcDbLine
 10
449.994414
 20
266.76473
 30
0.0
 11
449.35933
 21
266.76614
 31
0.0
  0
ARC
  5
632
330
1F
100
AcDbEntity
  8
001
370
    50
100
AcDbCircle
 10
449.359997
 20
267.066139
 30
0.0
 40
0.3
100
AcDbArc
 50
149.872778
 51
269.872778
  0
LINE
  5
633
330
1F
100
AcDbEntity
  8
001
370
    50
100
AcDbLine
 10
449.994414
 20
266.76473
 30
0.0
 11
450.310735
 21
266.214026
 31
0.0
  0
LINE
  5
634
330
1F
100
AcDbEntity
  8
001
370
    50
100
AcDbLine
 10
451.149112
 20
266.762166
 30
0.0
 11
450.830349
 21
266.212873
 31
0.0
  0
ARC
  5
635
330
1F
100
AcDbEntity
  8
001
370
    50
100
AcDbCircle
 10
450.570875
 20
266.363449
 30
0.0
 40
0.3
100
AcDbArc
 50
209.872778
 51
329.872778
  0
LINE
  5
636
330
1F
100
AcDbEntity
  8
001
370
    50
100
AcDbLine
 10
451.149112
 20
266.762166
 30
0.0
 11
451.784196
 21
266.760756
 31
0.0
  0
LINE
  5
637
330
1F
100
AcDbEntity
  8
001
370
    50
100
AcDbLine
 10
451.728681
 20
267.760882
 30
0.0
 11
452.045002
 21
267.210178
 31
0.0
  0
ARC
  5
638
330
1F
100
AcDbEntity
  8
001
370
    50
100
AcDbCircle
 10
451.784862
 20
267.060755
 30
0.0
 40
0.3
100
AcDbArc
 50
269.872778
 51
29.872778
  0
LINE
  5
639
330
1F
100
AcDbEntity
  8
001
370
    50
100
AcDbLine
 10
451.728681
 20
267.760882
 30
0.0
 11
452.047444
 21
268.310175
 31
0.0
  0
LINE
  5
63A
330
1F
100
AcDbEntity
  8
001
370
    50
100
AcDbLine
 10
451.153553
 20
268.762161
 30
0.0
 11
451.788636
 21
268.760751
 31
0.0
  0
ARC
  5
63B
330
1F
100
AcDbEntity
  8
001
370
    50
100
AcDbCircle
 10
451.78797
 20
268.460752
 30
0.0
 40
0.3
100
AcDbArc
 50
329.872778
 51
89.872778
  0
LINE
  5
63C
330
1F
100
AcDbEntity
  8
001
370
    50
100
AcDbLine
 10
447.128732
 20
262.963546
 30
0.0
 11
457.370866
 21
263.035051
 31
0.0
  0
ARC
  5
63D
330
1F
100
AcDbEntity
  8
001
370
    50
100
AcDbCircle
 10
443.354092
 20
272.062416
 30
0.0
 40
0.4
100
AcDbArc
 50
90.4
 51
175.4
  0
ARC
  5
63E
330
1F
100
AcDbEntity
  8
001
370
    50
100
AcDbCircle
 10
457.368073
 20
263.435041
 30
0.0
 40
0.4
100
AcDbArc
 50
270.4
 51
355.4
  0
POLYLINE
  5
63F
330
1F
100
AcDbEntity
  8
001
370
    50
100
AcDb2dPolyline
 66
     1
 10
0.0
 20
0.0
 30
0.0
  0
VERTEX
  5
641
330
63F
100
AcDbEntity
  8
001
370
    50
100
AcDbVertex
100
AcDb2dVertex
 10
444.227235
 20
280.882859
 30
0.0
  0
VERTEX
  5
642
330
63F
100
AcDbEntity
  8
001
370
    50
100
AcDbVertex
100
AcDb2dVertex
 10
443.998567
 20
278.0167
 30
0.0
  0
VERTEX
  5
643
330
63F
100
AcDbEntity
  8
001
370
    50
100
AcDbVertex
100
AcDb2dVertex
 10
443.760582
 20
275.151333
 30
0.0
  0
VERTEX
  5
644
330
63F
100
AcDbEntity
  8
001
370
    50
100
AcDbVertex
100
AcDb2dVertex
 10
443.658852
 20
273.982698
 30
0.0
  0
VERTEX
  5
645
330
63F
100
AcDbEntity
  8
001
370
    50
100
AcDbVertex
100
AcDb2dVertex
 10
443.554513
 20
272.814287
 30
0.0
  0
VERTEX
  5
646
330
63F
100
AcDbEntity
  8
001
370
    50
100
AcDbVertex
100
AcDb2dVertex
 10
443.538616
 20
272.63821
 30
0.0
  0
VERTEX
  5
647
330
63F
100
AcDbEntity
  8
001
370
    50
100
AcDbVertex
100
AcDb2dVertex
 10
443.522719
 20
272.462132
 30
0.0
  0
SEQEND
  5
640
330
63F
100
AcDbEntity
  8
001
370
    50
  0
LINE
  5
648
330
1F
100
AcDbEntity
  8
001
370
    50
100
AcDbLine
 10
443.812414
 20
272.464154
 30
0.0
 11
444.667217
 21
280.883059
 31
0.0
  0
LINE
  5
649
330
1F
100
AcDbEntity
  8
001
  6
DASHED
370
    30
100
AcDbLine
 10
443.864853
 20
272.46452
 30
0.0
 11
444.959886
 21
282.883059
 31
0.0
  0
LINE
  5
64A
330
1F
100
AcDbEntity
  8
001
370
    50
100
AcDbLine
 10
442.822563
 20
317.941786
 30
0.0
 11
443.166132
 21
313.671622
 31
0.0
  0
LINE
  5
64B
330
1F
100
AcDbEntity
  8
001
370
    50
100
AcDbLine
 10
447.339484
 20
322.802572
 30
0.0
 11
457.770021
 21
322.729752
 31
0.0
  0
ARC
  5
64C
330
1F
100
AcDbEntity
  8
001
370
    50
100
AcDbCircle
 10
457.767229
 20
322.329762
 30
0.0
 40
0.4
100
AcDbArc
 50
4.6
 51
89.6
  0
LINE
  5
64D
330
1F
100
AcDbEntity
  8
001
370
    50
100
AcDbLine
 10
458.16594
 20
322.361841
 30
0.0
 11
458.236645
 21
321.483059
 31
0.0
  0
ARC
  5
64E
330
1F
100
AcDbEntity
  8
001
370
    50
100
AcDbCircle
 10
443.564844
 20
313.703702
 30
0.0
 40
0.4
100
AcDbArc
 50
184.6
 51
263.661054
  0
ARC
  5
64F
330
1F
100
AcDbEntity
  8
001
370
    50
100
AcDbCircle
 10
448.170866
 20
316.483059
 30
0.0
 40
5.0
100
AcDbArc
 50
90.0
 51
175.157618
  0
ARC
  5
650
330
1F
100
AcDbEntity
  8
001
370
    50
100
AcDbCircle
 10
446.299952
 20
315.843799
 30
0.0
 40
3.0
100
AcDbArc
 50
90.0
 51
185.294309
  0
LINE
  5
651
330
1F
100
AcDbEntity
  8
001
  6
DASHED
370
    30
100
AcDbLine
 10
444.959886
 20
302.883059
 30
0.0
 11
443.380051
 21
317.914177
 31
0.0
  0
POLYLINE
  5
652
330
1F
100
AcDbEntity
  8
001
370
    50
100
AcDb2dPolyline
 66
     1
 10
0.0
 20
0.0
 30
0.0
  0
VERTEX
  5
654
330
652
100
AcDbEntity
  8
001
370
    50
100
AcDbVertex
100
AcDb2dVertex
 10
457.843717
 20
264.359143
 30
0.0
  0
VERTEX
  5
655
330
652
100
AcDbEntity
  8
001
370
    50
100
AcDbVertex
100
AcDb2dVertex
 10
458.043043
 20
264.356673
 30
0.0
  0
VERTEX
  5
656
330
652
100
AcDbEntity
  8
001
370
    50
100
AcDbVertex
100
AcDb2dVertex
 10
458.242369
 20
264.354203
 30
0.0
  0
VERTEX
  5
657
330
652
100
AcDbEntity
  8
001
370
    50
100
AcDbVertex
100
AcDb2dVertex
 10
459.117206
 20
264.343776
 30
0.0
  0
VERTEX
  5
658
330
652
100
AcDbEntity
  8
001
370
    50
100
AcDbVertex
100
AcDb2dVertex
 10
460.307031
 20
264.330806
 30
0.0
  0
VERTEX
  5
659
330
652
100
AcDbEntity
  8
001
370
    50
100
AcDbVertex
100
AcDb2dVertex
 10
461.591802
 20
264.318657
 30
0.0
  0
VERTEX
  5
65A
330
652
100
AcDbEntity
  8
001
370
    50
100
AcDbVertex
100
AcDb2dVertex
 10
462.470866
 20
264.311287
 30
0.0
  0
SEQEND
  5
653
330
652
100
AcDbEntity
  8
001
370
    50
  0
LINE
  5
65B
330
1F
100
AcDbEntity
  8
001
370
    50
100
AcDbLine
 10
457.837596
 20
264.283059
 30
0.0
 11
462.470866
 21
264.283059
 31
0.0
  0
LINE
  5
65C
330
1F
100
AcDbEntity
  8
001
370
     9
100
AcDbLine
 10
447.128732
 20
262.963546
 30
0.0
 11
439.628052
 21
262.963546
 31
0.0
  0
LINE
  5
65D
330
1F
100
AcDbEntity
  8
001
370
    50
100
AcDbLine
 10
485.805093
 20
308.883059
 30
0.0
 11
475.470866
 21
308.883059
 31
0.0
  0
LINE
  5
65E
330
1F
100
AcDbEntity
  8
001
  6
CENTER
370
     9
100
AcDbLine
 10
492.25665
 20
292.883059
 30
0.0
 11
439.44119
 21
292.883059
 31
0.0
  0
LINE
  5
65F
330
1F
100
AcDbEntity
  8
001
370
    50
100
AcDbLine
 10
486.282986
 20
276.883059
 30
0.0
 11
475.470866
 21
276.883059
 31
0.0
  0
ARC
  5
660
330
1F
100
AcDbEntity
  8
001
370
    50
100
AcDbCircle
 10
447.308068
 20
318.302682
 30
0.0
 40
4.5
100
AcDbArc
 50
89.6
 51
184.6
  0
ARC
  5
661
330
1F
100
AcDbEntity
  8
001
370
    50
100
AcDbCircle
 10
453.624849
 20
268.034021
 30
0.0
 40
4.5
100
AcDbArc
 50
355.4
 51
90.4
  0
ARC
  5
662
330
1F
100
AcDbEntity
  8
001
370
    50
100
AcDbCircle
 10
447.097316
 20
267.463436
 30
0.0
 40
4.5
100
AcDbArc
 50
175.4
 51
270.4
  0
POLYLINE
  5
663
330
1F
100
AcDbEntity
  8
001
370
    50
100
AcDb2dPolyline
 66
     1
 10
0.0
 20
0.0
 30
0.0
  0
VERTEX
  5
665
330
663
100
AcDbEntity
  8
001
370
    50
100
AcDbVertex
100
AcDb2dVertex
 10
458.351929
 20
373.543639
 30
0.0
  0
VERTEX
  5
666
330
663
100
AcDbEntity
  8
001
370
    50
100
AcDbVertex
100
AcDb2dVertex
 10
458.86711
 20
373.531968
 30
0.0
  0
VERTEX
  5
667
330
663
100
AcDbEntity
  8
001
370
    50
100
AcDbVertex
100
AcDb2dVertex
 10
459.381663
 20
373.509133
 30
0.0
  0
VERTEX
  5
668
330
663
100
AcDbEntity
  8
001
370
    50
100
AcDbVertex
100
AcDb2dVertex
 10
459.897359
 20
373.466187
 30
0.0
  0
VERTEX
  5
669
330
663
100
AcDbEntity
  8
001
370
    50
100
AcDbVertex
100
AcDb2dVertex
 10
460.411397
 20
373.404349
 30
0.0
  0
VERTEX
  5
66A
330
663
100
AcDbEntity
  8
001
370
    50
100
AcDbVertex
100
AcDb2dVertex
 10
460.931272
 20
373.324635
 30
0.0
  0
VERTEX
  5
66B
330
663
100
AcDbEntity
  8
001
370
    50
100
AcDbVertex
100
AcDb2dVertex
 10
461.447445
 20
373.225181
 30
0.0
  0
VERTEX
  5
66C
330
663
100
AcDbEntity
  8
001
370
    50
100
AcDbVertex
100
AcDb2dVertex
 10
461.960485
 20
373.104259
 30
0.0
  0
VERTEX
  5
66D
330
663
100
AcDbEntity
  8
001
370
    50
100
AcDbVertex
100
AcDb2dVertex
 10
462.470866
 20
372.971396
 30
0.0
  0
SEQEND
  5
664
330
663
100
AcDbEntity
  8
001
370
    50
  0
POLYLINE
  5
66E
330
1F
100
AcDbEntity
  8
001
370
    50
100
AcDb2dPolyline
 66
     1
 10
0.0
 20
0.0
 30
0.0
  0
VERTEX
  5
670
330
66E
100
AcDbEntity
  8
001
370
    50
100
AcDbVertex
100
AcDb2dVertex
 10
462.470866
 20
372.971396
 30
0.0
  0
VERTEX
  5
671
330
66E
100
AcDbEntity
  8
001
370
    50
100
AcDbVertex
100
AcDb2dVertex
 10
462.846751
 20
372.854396
 30
0.0
  0
VERTEX
  5
672
330
66E
100
AcDbEntity
  8
001
370
    50
100
AcDbVertex
100
AcDb2dVertex
 10
463.219984
 20
372.729628
 30
0.0
  0
VERTEX
  5
673
330
66E
100
AcDbEntity
  8
001
370
    50
100
AcDbVertex
100
AcDb2dVertex
 10
463.568972
 20
372.598577
 30
0.0
  0
VERTEX
  5
674
330
66E
100
AcDbEntity
  8
001
370
    50
100
AcDbVertex
100
AcDb2dVertex
 10
463.913035
 20
372.454883
 30
0.0
  0
VERTEX
  5
675
330
66E
100
AcDbEntity
  8
001
370
    50
100
AcDbVertex
100
AcDb2dVertex
 10
464.171622
 20
372.33761
 30
0.0
  0
VERTEX
  5
676
330
66E
100
AcDbEntity
  8
001
370
    50
100
AcDbVertex
100
AcDb2dVertex
 10
464.426922
 20
372.213418
 30
0.0
  0
VERTEX
  5
677
330
66E
100
AcDbEntity
  8
001
370
    50
100
AcDbVertex
100
AcDb2dVertex
 10
464.662448
 20
372.090731
 30
0.0
  0
VERTEX
  5
678
330
66E
100
AcDbEntity
  8
001
370
    50
100
AcDbVertex
100
AcDb2dVertex
 10
464.894531
 20
371.961639
 30
0.0
  0
VERTEX
  5
679
330
66E
100
AcDbEntity
  8
001
370
    50
100
AcDbVertex
100
AcDb2dVertex
 10
465.105892
 20
371.836455
 30
0.0
  0
VERTEX
  5
67A
330
66E
100
AcDbEntity
  8
001
370
    50
100
AcDbVertex
100
AcDb2dVertex
 10
465.313783
 20
371.705584
 30
0.0
  0
VERTEX
  5
67B
330
66E
100
AcDbEntity
  8
001
370
    50
100
AcDbVertex
100
AcDb2dVertex
 10
465.586177
 20
371.521202
 30
0.0
  0
VERTEX
  5
67C
330
66E
100
AcDbEntity
  8
001
370
    50
100
AcDbVertex
100
AcDb2dVertex
 10
465.851015
 20
371.32608
 30
0.0
  0
VERTEX
  5
67D
330
66E
100
AcDbEntity
  8
001
370
    50
100
AcDbVertex
100
AcDb2dVertex
 10
466.079035
 20
371.143644
 30
0.0
  0
VERTEX
  5
67E
330
66E
100
AcDbEntity
  8
001
370
    50
100
AcDbVertex
100
AcDb2dVertex
 10
466.299457
 20
370.952204
 30
0.0
  0
VERTEX
  5
67F
330
66E
100
AcDbEntity
  8
001
370
    50
100
AcDbVertex
100
AcDb2dVertex
 10
466.485858
 20
370.776552
 30
0.0
  0
VERTEX
  5
680
330
66E
100
AcDbEntity
  8
001
370
    50
100
AcDbVertex
100
AcDb2dVertex
 10
466.665212
 20
370.593502
 30
0.0
  0
VERTEX
  5
681
330
66E
100
AcDbEntity
  8
001
370
    50
100
AcDbVertex
100
AcDb2dVertex
 10
466.869916
 20
370.363623
 30
0.0
  0
VERTEX
  5
682
330
66E
100
AcDbEntity
  8
001
370
    50
100
AcDbVertex
100
AcDb2dVertex
 10
467.059303
 20
370.121607
 30
0.0
  0
VERTEX
  5
683
330
66E
100
AcDbEntity
  8
001
370
    50
100
AcDbVertex
100
AcDb2dVertex
 10
467.196434
 20
369.919057
 30
0.0
  0
VERTEX
  5
684
330
66E
100
AcDbEntity
  8
001
370
    50
100
AcDbVertex
100
AcDb2dVertex
 10
467.319737
 20
369.706476
 30
0.0
  0
VERTEX
  5
685
330
66E
100
AcDbEntity
  8
001
370
    50
100
AcDbVertex
100
AcDb2dVertex
 10
467.398498
 20
369.541864
 30
0.0
  0
VERTEX
  5
686
330
66E
100
AcDbEntity
  8
001
370
    50
100
AcDbVertex
100
AcDb2dVertex
 10
467.451989
 20
369.369351
 30
0.0
  0
VERTEX
  5
687
330
66E
100
AcDbEntity
  8
001
370
    50
100
AcDbVertex
100
AcDb2dVertex
 10
467.463046
 20
369.299525
 30
0.0
  0
VERTEX
  5
688
330
66E
100
AcDbEntity
  8
001
370
    50
100
AcDbVertex
100
AcDb2dVertex
 10
467.470866
 20
369.228975
 30
0.0
  0
SEQEND
  5
66F
330
66E
100
AcDbEntity
  8
001
370
    50
  0
LINE
  5
689
330
1F
100
AcDbEntity
  8
001
  6
DASHED
370
    30
100
AcDbLine
 10
444.959886
 20
395.543639
 30
0.0
 11
444.959886
 21
375.543639
 31
0.0
  0
LINE
  5
68A
330
1F
100
AcDbEntity
  8
001
  6
DASHED
370
    50
100
AcDbLine
 10
443.179083
 20
387.194782
 30
0.0
 11
443.179083
 21
387.196219
 31
0.0
  0
POLYLINE
  5
68B
330
1F
100
AcDbEntity
  8
001
370
    50
100
AcDb2dPolyline
 66
     1
 10
0.0
 20
0.0
 30
0.0
  0
VERTEX
  5
68D
330
68B
100
AcDbEntity
  8
001
370
    50
100
AcDbVertex
100
AcDb2dVertex
 10
467.470866
 20
368.277542
 30
0.0
  0
VERTEX
  5
68E
330
68B
100
AcDbEntity
  8
001
370
    50
100
AcDbVertex
100
AcDb2dVertex
 10
467.470911
 20
368.268889
 30
0.0
  0
VERTEX
  5
68F
330
68B
100
AcDbEntity
  8
001
370
    50
100
AcDbVertex
100
AcDb2dVertex
 10
467.470978
 20
368.260236
 30
0.0
  0
VERTEX
  5
690
330
68B
100
AcDbEntity
  8
001
370
    50
100
AcDbVertex
100
AcDb2dVertex
 10
467.479733
 20
368.091467
 30
0.0
  0
VERTEX
  5
691
330
68B
100
AcDbEntity
  8
001
370
    50
100
AcDbVertex
100
AcDb2dVertex
 10
467.49799
 20
367.923238
 30
0.0
  0
VERTEX
  5
692
330
68B
100
AcDbEntity
  8
001
370
    50
100
AcDbVertex
100
AcDb2dVertex
 10
467.522901
 20
367.730604
 30
0.0
  0
VERTEX
  5
693
330
68B
100
AcDbEntity
  8
001
370
    50
100
AcDbVertex
100
AcDb2dVertex
 10
467.548269
 20
367.538131
 30
0.0
  0
VERTEX
  5
694
330
68B
100
AcDbEntity
  8
001
370
    50
100
AcDbVertex
100
AcDb2dVertex
 10
467.593428
 20
367.13282
 30
0.0
  0
VERTEX
  5
695
330
68B
100
AcDbEntity
  8
001
370
    50
100
AcDbVertex
100
AcDb2dVertex
 10
467.619768
 20
366.725906
 30
0.0
  0
VERTEX
  5
696
330
68B
100
AcDbEntity
  8
001
370
    50
100
AcDbVertex
100
AcDb2dVertex
 10
467.621134
 20
366.332317
 30
0.0
  0
VERTEX
  5
697
330
68B
100
AcDbEntity
  8
001
370
    50
100
AcDbVertex
100
AcDb2dVertex
 10
467.59961
 20
365.939281
 30
0.0
  0
VERTEX
  5
698
330
68B
100
AcDbEntity
  8
001
370
    50
100
AcDbVertex
100
AcDb2dVertex
 10
467.559377
 20
365.551321
 30
0.0
  0
VERTEX
  5
699
330
68B
100
AcDbEntity
  8
001
370
    50
100
AcDbVertex
100
AcDb2dVertex
 10
467.509106
 20
365.164427
 30
0.0
  0
SEQEND
  5
68C
330
68B
100
AcDbEntity
  8
001
370
    50
  0
POLYLINE
  5
69A
330
1F
100
AcDbEntity
  8
001
370
    50
100
AcDb2dPolyline
 66
     1
 10
0.0
 20
0.0
 30
0.0
  0
VERTEX
  5
69C
330
69A
100
AcDbEntity
  8
001
370
    50
100
AcDbVertex
100
AcDb2dVertex
 10
467.509106
 20
365.164427
 30
0.0
  0
VERTEX
  5
69D
330
69A
100
AcDbEntity
  8
001
370
    50
100
AcDbVertex
100
AcDb2dVertex
 10
466.944361
 20
366.184547
 30
0.0
  0
VERTEX
  5
69E
330
69A
100
AcDbEntity
  8
001
370
    50
100
AcDbVertex
100
AcDb2dVertex
 10
466.078163
 20
367.534641
 30
0.0
  0
VERTEX
  5
69F
330
69A
100
AcDbEntity
  8
001
370
    50
100
AcDbVertex
100
AcDb2dVertex
 10
465.180637
 20
368.660703
 30
0.0
  0
VERTEX
  5
6A0
330
69A
100
AcDbEntity
  8
001
370
    50
100
AcDbVertex
100
AcDb2dVertex
 10
464.241031
 20
369.595998
 30
0.0
  0
VERTEX
  5
6A1
330
69A
100
AcDbEntity
  8
001
370
    50
100
AcDbVertex
100
AcDb2dVertex
 10
463.20114
 20
370.473533
 30
0.0
  0
VERTEX
  5
6A2
330
69A
100
AcDbEntity
  8
001
370
    50
100
AcDbVertex
100
AcDb2dVertex
 10
462.06082
 20
371.277685
 30
0.0
  0
VERTEX
  5
6A3
330
69A
100
AcDbEntity
  8
001
370
    50
100
AcDbVertex
100
AcDb2dVertex
 10
460.84823
 20
371.960889
 30
0.0
  0
VERTEX
  5
6A4
330
69A
100
AcDbEntity
  8
001
370
    50
100
AcDbVertex
100
AcDb2dVertex
 10
459.612424
 20
372.521933
 30
0.0
  0
VERTEX
  5
6A5
330
69A
100
AcDbEntity
  8
001
370
    50
100
AcDbVertex
100
AcDb2dVertex
 10
458.373041
 20
372.964849
 30
0.0
  0
VERTEX
  5
6A6
330
69A
100
AcDbEntity
  8
001
370
    50
100
AcDbVertex
100
AcDb2dVertex
 10
456.97995
 20
373.286
 30
0.0
  0
VERTEX
  5
6A7
330
69A
100
AcDbEntity
  8
001
370
    50
100
AcDbVertex
100
AcDb2dVertex
 10
455.405198
 20
373.479218
 30
0.0
  0
VERTEX
  5
6A8
330
69A
100
AcDbEntity
  8
001
370
    50
100
AcDbVertex
100
AcDb2dVertex
 10
454.253829
 20
373.543639
 30
0.0
  0
SEQEND
  5
69B
330
69A
100
AcDbEntity
  8
001
370
    50
  0
LINE
  5
6A9
330
1F
100
AcDbEntity
  8
001
370
    50
100
AcDbLine
 10
472.470866
 20
401.543639
 30
0.0
 11
472.470866
 21
369.543639
 31
0.0
  0
ARC
  5
6AA
330
1F
100
AcDbEntity
  8
001
370
    50
100
AcDbCircle
 10
472.470866
 20
406.543639
 30
0.0
 40
5.000000000000001
100
AcDbArc
 50
180.0
 51
270.0
  0
ARC
  5
6AB
330
1F
100
AcDbEntity
  8
001
370
    50
100
AcDbCircle
 10
472.470866
 20
364.543639
 30
0.0
 40
5.000000000000001
100
AcDbArc
 50
90.0
 51
180.0
  0
POLYLINE
  5
6AC
330
1F
100
AcDbEntity
  8
001
370
    50
100
AcDb2dPolyline
 66
     1
 10
0.0
 20
0.0
 30
0.0
  0
VERTEX
  5
6AE
330
6AC
100
AcDbEntity
  8
001
370
    50
100
AcDbVertex
100
AcDb2dVertex
 10
467.470866
 20
397.49696
 30
0.0
  0
VERTEX
  5
6AF
330
6AC
100
AcDbEntity
  8
001
370
    50
100
AcDbVertex
100
AcDb2dVertex
 10
467.470909
 20
397.454845
 30
0.0
  0
VERTEX
  5
6B0
330
6AC
100
AcDbEntity
  8
001
370
    50
100
AcDbVertex
100
AcDb2dVertex
 10
467.470978
 20
397.41273
 30
0.0
  0
VERTEX
  5
6B1
330
6AC
100
AcDbEntity
  8
001
370
    50
100
AcDbVertex
100
AcDb2dVertex
 10
467.479289
 20
396.689042
 30
0.0
  0
VERTEX
  5
6B2
330
6AC
100
AcDbEntity
  8
001
370
    50
100
AcDbVertex
100
AcDb2dVertex
 10
467.49799
 20
395.965511
 30
0.0
  0
VERTEX
  5
6B3
330
6AC
100
AcDbEntity
  8
001
370
    50
100
AcDbVertex
100
AcDb2dVertex
 10
467.522295
 20
395.247918
 30
0.0
  0
VERTEX
  5
6B4
330
6AC
100
AcDbEntity
  8
001
370
    50
100
AcDbVertex
100
AcDb2dVertex
 10
467.548269
 20
394.530389
 30
0.0
  0
VERTEX
  5
6B5
330
6AC
100
AcDbEntity
  8
001
370
    50
100
AcDbVertex
100
AcDb2dVertex
 10
467.593085
 20
393.098757
 30
0.0
  0
VERTEX
  5
6B6
330
6AC
100
AcDbEntity
  8
001
370
    50
100
AcDbVertex
100
AcDb2dVertex
 10
467.619768
 20
391.666714
 30
0.0
  0
VERTEX
  5
6B7
330
6AC
100
AcDbEntity
  8
001
370
    50
100
AcDbVertex
100
AcDb2dVertex
 10
467.621381
 20
390.232391
 30
0.0
  0
VERTEX
  5
6B8
330
6AC
100
AcDbEntity
  8
001
370
    50
100
AcDbVertex
100
AcDb2dVertex
 10
467.59961
 20
388.798196
 30
0.0
  0
VERTEX
  5
6B9
330
6AC
100
AcDbEntity
  8
001
370
    50
100
AcDbVertex
100
AcDb2dVertex
 10
467.559245
 20
387.361769
 30
0.0
  0
VERTEX
  5
6BA
330
6AC
100
AcDbEntity
  8
001
370
    50
100
AcDbVertex
100
AcDb2dVertex
 10
467.509106
 20
385.925637
 30
0.0
  0
SEQEND
  5
6AD
330
6AC
100
AcDbEntity
  8
001
370
    50
  0
POLYLINE
  5
6BB
330
1F
100
AcDbEntity
  8
001
370
    50
100
AcDb2dPolyline
 66
     1
 10
0.0
 20
0.0
 30
0.0
  0
VERTEX
  5
6BD
330
6BB
100
AcDbEntity
  8
001
370
    50
100
AcDbVertex
100
AcDb2dVertex
 10
458.351929
 20
411.504379
 30
0.0
  0
VERTEX
  5
6BE
330
6BB
100
AcDbEntity
  8
001
370
    50
100
AcDbVertex
100
AcDb2dVertex
 10
458.866865
 20
411.499007
 30
0.0
  0
VERTEX
  5
6BF
330
6BB
100
AcDbEntity
  8
001
370
    50
100
AcDbVertex
100
AcDb2dVertex
 10
459.381663
 20
411.488401
 30
0.0
  0
VERTEX
  5
6C0
330
6BB
100
AcDbEntity
  8
001
370
    50
100
AcDbVertex
100
AcDb2dVertex
 10
459.89671
 20
411.468435
 30
0.0
  0
VERTEX
  5
6C1
330
6BB
100
AcDbEntity
  8
001
370
    50
100
AcDbVertex
100
AcDb2dVertex
 10
460.411397
 20
411.439539
 30
0.0
  0
VERTEX
  5
6C2
330
6BB
100
AcDbEntity
  8
001
370
    50
100
AcDbVertex
100
AcDb2dVertex
 10
460.929875
 20
411.402236
 30
0.0
  0
VERTEX
  5
6C3
330
6BB
100
AcDbEntity
  8
001
370
    50
100
AcDbVertex
100
AcDb2dVertex
 10
461.447445
 20
411.354792
 30
0.0
  0
VERTEX
  5
6C4
330
6BB
100
AcDbEntity
  8
001
370
    50
100
AcDbVertex
100
AcDb2dVertex
 10
461.959491
 20
411.296606
 30
0.0
  0
VERTEX
  5
6C5
330
6BB
100
AcDbEntity
  8
001
370
    50
100
AcDbVertex
100
AcDb2dVertex
 10
462.470866
 20
411.232133
 30
0.0
  0
SEQEND
  5
6BC
330
6BB
100
AcDbEntity
  8
001
370
    50
  0
POLYLINE
  5
6C6
330
1F
100
AcDbEntity
  8
001
370
    50
100
AcDb2dPolyline
 66
     1
 10
0.0
 20
0.0
 30
0.0
  0
VERTEX
  5
6C8
330
6C6
100
AcDbEntity
  8
001
370
    50
100
AcDbVertex
100
AcDb2dVertex
 10
462.470866
 20
411.232133
 30
0.0
  0
VERTEX
  5
6C9
330
6C6
100
AcDbEntity
  8
001
370
    50
100
AcDbVertex
100
AcDb2dVertex
 10
462.84884
 20
411.151604
 30
0.0
  0
VERTEX
  5
6CA
330
6C6
100
AcDbEntity
  8
001
370
    50
100
AcDbVertex
100
AcDb2dVertex
 10
463.219984
 20
411.048699
 30
0.0
  0
VERTEX
  5
6CB
330
6C6
100
AcDbEntity
  8
001
370
    50
100
AcDbVertex
100
AcDb2dVertex
 10
463.573846
 20
410.908422
 30
0.0
  0
VERTEX
  5
6CC
330
6C6
100
AcDbEntity
  8
001
370
    50
100
AcDbVertex
100
AcDb2dVertex
 10
463.913035
 20
410.733609
 30
0.0
  0
VERTEX
  5
6CD
330
6C6
100
AcDbEntity
  8
001
370
    50
100
AcDbVertex
100
AcDb2dVertex
 10
464.175456
 20
410.572652
 30
0.0
  0
VERTEX
  5
6CE
330
6C6
100
AcDbEntity
  8
001
370
    50
100
AcDbVertex
100
AcDb2dVertex
 10
464.426922
 20
410.395634
 30
0.0
  0
VERTEX
  5
6CF
330
6C6
100
AcDbEntity
  8
001
370
    50
100
AcDbVertex
100
AcDb2dVertex
 10
464.666481
 20
410.203762
 30
0.0
  0
VERTEX
  5
6D0
330
6C6
100
AcDbEntity
  8
001
370
    50
100
AcDbVertex
100
AcDb2dVertex
 10
464.894531
 20
409.998196
 30
0.0
  0
VERTEX
  5
6D1
330
6C6
100
AcDbEntity
  8
001
370
    50
100
AcDbVertex
100
AcDb2dVertex
 10
465.109854
 20
409.781768
 30
0.0
  0
VERTEX
  5
6D2
330
6C6
100
AcDbEntity
  8
001
370
    50
100
AcDbVertex
100
AcDb2dVertex
 10
465.313783
 20
409.554589
 30
0.0
  0
VERTEX
  5
6D3
330
6C6
100
AcDbEntity
  8
001
370
    50
100
AcDbVertex
100
AcDb2dVertex
 10
465.594299
 20
409.201822
 30
0.0
  0
VERTEX
  5
6D4
330
6C6
100
AcDbEntity
  8
001
370
    50
100
AcDbVertex
100
AcDb2dVertex
 10
465.851015
 20
408.831223
 30
0.0
  0
VERTEX
  5
6D5
330
6C6
100
AcDbEntity
  8
001
370
    50
100
AcDbVertex
100
AcDb2dVertex
 10
466.086349
 20
408.443084
 30
0.0
  0
VERTEX
  5
6D6
330
6C6
100
AcDbEntity
  8
001
370
    50
100
AcDbVertex
100
AcDb2dVertex
 10
466.299457
 20
408.042366
 30
0.0
  0
VERTEX
  5
6D7
330
6C6
100
AcDbEntity
  8
001
370
    50
100
AcDbVertex
100
AcDb2dVertex
 10
466.4923
 20
407.629336
 30
0.0
  0
VERTEX
  5
6D8
330
6C6
100
AcDbEntity
  8
001
370
    50
100
AcDbVertex
100
AcDb2dVertex
 10
466.665212
 20
407.207512
 30
0.0
  0
VERTEX
  5
6D9
330
6C6
100
AcDbEntity
  8
001
370
    50
100
AcDbVertex
100
AcDb2dVertex
 10
466.880416
 20
406.591345
 30
0.0
  0
VERTEX
  5
6DA
330
6C6
100
AcDbEntity
  8
001
370
    50
100
AcDbVertex
100
AcDb2dVertex
 10
467.059303
 20
405.96363
 30
0.0
  0
VERTEX
  5
6DB
330
6C6
100
AcDbEntity
  8
001
370
    50
100
AcDbVertex
100
AcDb2dVertex
 10
467.20608
 20
405.315473
 30
0.0
  0
VERTEX
  5
6DC
330
6C6
100
AcDbEntity
  8
001
370
    50
100
AcDbVertex
100
AcDb2dVertex
 10
467.319737
 20
404.660579
 30
0.0
  0
VERTEX
  5
6DD
330
6C6
100
AcDbEntity
  8
001
370
    50
100
AcDbVertex
100
AcDb2dVertex
 10
467.402964
 20
403.992251
 30
0.0
  0
VERTEX
  5
6DE
330
6C6
100
AcDbEntity
  8
001
370
    50
100
AcDbVertex
100
AcDb2dVertex
 10
467.451989
 20
403.320826
 30
0.0
  0
VERTEX
  5
6DF
330
6C6
100
AcDbEntity
  8
001
370
    50
100
AcDbVertex
100
AcDb2dVertex
 10
467.464127
 20
402.958642
 30
0.0
  0
VERTEX
  5
6E0
330
6C6
100
AcDbEntity
  8
001
370
    50
100
AcDbVertex
100
AcDb2dVertex
 10
467.470866
 20
402.596256
 30
0.0
  0
SEQEND
  5
6C7
330
6C6
100
AcDbEntity
  8
001
370
    50
  0
ARC
  5
6E1
330
1F
100
AcDbEntity
  8
001
370
    50
100
AcDbCircle
 10
462.470866
 20
409.143639
 30
0.0
 40
5.000000000000001
100
AcDbArc
 50
0.0
 51
90.0
  0
POLYLINE
  5
6E2
330
1F
100
AcDbEntity
  8
001
370
    50
100
AcDb2dPolyline
 66
     1
 10
0.0
 20
0.0
 30
0.0
  0
VERTEX
  5
6E4
330
6E2
100
AcDbEntity
  8
001
370
    50
100
AcDbVertex
100
AcDb2dVertex
 10
457.185766
 20
414.143639
 30
0.0
  0
VERTEX
  5
6E5
330
6E2
100
AcDbEntity
  8
001
370
    50
100
AcDbVertex
100
AcDb2dVertex
 10
457.113973
 20
414.143172
 30
0.0
  0
VERTEX
  5
6E6
330
6E2
100
AcDbEntity
  8
001
370
    50
100
AcDbVertex
100
AcDb2dVertex
 10
457.009071
 20
414.141138
 30
0.0
  0
VERTEX
  5
6E7
330
6E2
100
AcDbEntity
  8
001
370
    50
100
AcDbVertex
100
AcDb2dVertex
 10
456.904478
 20
414.137231
 30
0.0
  0
VERTEX
  5
6E8
330
6E2
100
AcDbEntity
  8
001
370
    50
100
AcDbVertex
100
AcDb2dVertex
 10
456.832948
 20
414.133635
 30
0.0
  0
SEQEND
  5
6E3
330
6E2
100
AcDbEntity
  8
001
370
    50
  0
LINE
  5
6E9
330
1F
100
AcDbEntity
  8
001
370
    50
100
AcDbLine
 10
448.170866
 20
414.143639
 30
0.0
 11
452.543178
 21
414.143639
 31
0.0
  0
LINE
  5
6EA
330
1F
100
AcDbEntity
  8
001
370
    50
100
AcDbLine
 10
462.470866
 20
414.143639
 30
0.0
 11
457.185766
 21
414.143639
 31
0.0
  0
LINE
  5
6EB
330
1F
100
AcDbEntity
  8
001
370
    50
100
AcDbLine
 10
446.299952
 20
411.504379
 30
0.0
 11
458.351929
 21
411.504379
 31
0.0
  0
POLYLINE
  5
6EC
330
1F
100
AcDbEntity
  8
001
370
    50
100
AcDb2dPolyline
 66
     1
 10
0.0
 20
0.0
 30
0.0
  0
VERTEX
  5
6EE
330
6EC
100
AcDbEntity
  8
001
370
    50
100
AcDbVertex
100
AcDb2dVertex
 10
456.832948
 20
414.133635
 30
0.0
  0
VERTEX
  5
6EF
330
6EC
100
AcDbEntity
  8
001
370
    50
100
AcDbVertex
100
AcDb2dVertex
 10
455.961667
 20
414.13723
 30
0.0
  0
VERTEX
  5
6F0
330
6EC
100
AcDbEntity
  8
001
370
    50
100
AcDbVertex
100
AcDb2dVertex
 10
454.688251
 20
414.141138
 30
0.0
  0
VERTEX
  5
6F1
330
6EC
100
AcDbEntity
  8
001
370
    50
100
AcDbVertex
100
AcDb2dVertex
 10
453.414615
 20
414.143171
 30
0.0
  0
VERTEX
  5
6F2
330
6EC
100
AcDbEntity
  8
001
370
    50
100
AcDbVertex
100
AcDb2dVertex
 10
452.543178
 20
414.143639
 30
0.0
  0
SEQEND
  5
6ED
330
6EC
100
AcDbEntity
  8
001
370
    50
  0
POLYLINE
  5
6F3
330
1F
100
AcDbEntity
  8
001
370
    50
100
AcDb2dPolyline
 66
     1
 10
0.0
 20
0.0
 30
0.0
  0
VERTEX
  5
6F5
330
6F3
100
AcDbEntity
  8
001
370
    50
100
AcDbVertex
100
AcDb2dVertex
 10
467.470866
 20
361.946841
 30
0.0
  0
VERTEX
  5
6F6
330
6F3
100
AcDbEntity
  8
001
370
    50
100
AcDbVertex
100
AcDb2dVertex
 10
467.452911
 20
361.585069
 30
0.0
  0
VERTEX
  5
6F7
330
6F3
100
AcDbEntity
  8
001
370
    50
100
AcDbVertex
100
AcDb2dVertex
 10
467.418507
 20
361.225198
 30
0.0
  0
VERTEX
  5
6F8
330
6F3
100
AcDbEntity
  8
001
370
    50
100
AcDbVertex
100
AcDb2dVertex
 10
467.342799
 20
360.817282
 30
0.0
  0
VERTEX
  5
6F9
330
6F3
100
AcDbEntity
  8
001
370
    50
100
AcDbVertex
100
AcDb2dVertex
 10
467.230416
 20
360.417077
 30
0.0
  0
VERTEX
  5
6FA
330
6F3
100
AcDbEntity
  8
001
370
    50
100
AcDbVertex
100
AcDb2dVertex
 10
467.086916
 20
360.02789
 30
0.0
  0
VERTEX
  5
6FB
330
6F3
100
AcDbEntity
  8
001
370
    50
100
AcDbVertex
100
AcDb2dVertex
 10
466.912425
 20
359.65202
 30
0.0
  0
VERTEX
  5
6FC
330
6F3
100
AcDbEntity
  8
001
370
    50
100
AcDbVertex
100
AcDb2dVertex
 10
466.706797
 20
359.292679
 30
0.0
  0
VERTEX
  5
6FD
330
6F3
100
AcDbEntity
  8
001
370
    50
100
AcDbVertex
100
AcDb2dVertex
 10
466.471745
 20
358.951616
 30
0.0
  0
VERTEX
  5
6FE
330
6F3
100
AcDbEntity
  8
001
370
    50
100
AcDbVertex
100
AcDb2dVertex
 10
466.210202
 20
358.63174
 30
0.0
  0
VERTEX
  5
6FF
330
6F3
100
AcDbEntity
  8
001
370
    50
100
AcDbVertex
100
AcDb2dVertex
 10
465.9231
 20
358.334768
 30
0.0
  0
VERTEX
  5
700
330
6F3
100
AcDbEntity
  8
001
370
    50
100
AcDbVertex
100
AcDb2dVertex
 10
465.610042
 20
358.061592
 30
0.0
  0
VERTEX
  5
701
330
6F3
100
AcDbEntity
  8
001
370
    50
100
AcDbVertex
100
AcDb2dVertex
 10
465.275129
 20
357.815493
 30
0.0
  0
VERTEX
  5
702
330
6F3
100
AcDbEntity
  8
001
370
    50
100
AcDbVertex
100
AcDb2dVertex
 10
464.921837
 20
357.598346
 30
0.0
  0
VERTEX
  5
703
330
6F3
100
AcDbEntity
  8
001
370
    50
100
AcDbVertex
100
AcDb2dVertex
 10
464.551713
 20
357.411708
 30
0.0
  0
VERTEX
  5
704
330
6F3
100
AcDbEntity
  8
001
370
    50
100
AcDbVertex
100
AcDb2dVertex
 10
464.16332
 20
357.256071
 30
0.0
  0
VERTEX
  5
705
330
6F3
100
AcDbEntity
  8
001
370
    50
100
AcDbVertex
100
AcDb2dVertex
 10
463.763027
 20
357.133114
 30
0.0
  0
VERTEX
  5
706
330
6F3
100
AcDbEntity
  8
001
370
    50
100
AcDbVertex
100
AcDb2dVertex
 10
463.354347
 20
357.043157
 30
0.0
  0
VERTEX
  5
707
330
6F3
100
AcDbEntity
  8
001
370
    50
100
AcDbVertex
100
AcDb2dVertex
 10
462.939861
 20
356.990374
 30
0.0
  0
VERTEX
  5
708
330
6F3
100
AcDbEntity
  8
001
370
    50
100
AcDbVertex
100
AcDb2dVertex
 10
462.70558
 20
356.977764
 30
0.0
  0
VERTEX
  5
709
330
6F3
100
AcDbEntity
  8
001
370
    50
100
AcDbVertex
100
AcDb2dVertex
 10
462.470866
 20
356.971868
 30
0.0
  0
SEQEND
  5
6F4
330
6F3
100
AcDbEntity
  8
001
370
    50
  0
LINE
  5
70A
330
1F
100
AcDbEntity
  8
001
  6
DASHED
370
    50
100
AcDbLine
 10
444.670866
 20
373.543639
 30
0.0
 11
444.667217
 21
373.543639
 31
0.0
  0
ARC
  5
70B
330
1F
100
AcDbEntity
  8
001
370
    50
100
AcDbCircle
 10
462.470866
 20
361.943639
 30
0.0
 40
5.000000000000001
100
AcDbArc
 50
270.0
 51
0.0
  0
LINE
  5
70C
330
1F
100
AcDbEntity
  8
001
370
    50
100
AcDbLine
 10
467.470866
 20
364.547238
 30
0.0
 11
467.470866
 21
361.943639
 31
0.0
  0
LINE
  5
70D
330
1F
100
AcDbEntity
  8
001
  6
DASHED
370
    50
100
AcDbLine
 10
443.170866
 20
387.197166
 30
0.0
 11
443.170866
 21
387.194581
 31
0.0
  0
LINE
  5
70E
330
1F
100
AcDbEntity
  8
001
370
    50
100
AcDbLine
 10
467.470866
 20
369.228975
 30
0.0
 11
467.470866
 21
368.277542
 31
0.0
  0
LINE
  5
70F
330
1F
100
AcDbEntity
  8
001
370
    50
100
AcDbLine
 10
443.170866
 20
373.543639
 30
0.0
 11
458.351929
 21
373.543639
 31
0.0
  0
LINE
  5
710
330
1F
100
AcDbEntity
  8
001
370
    50
100
AcDbLine
 10
444.227197
 20
397.543639
 30
0.0
 11
443.170866
 21
397.543639
 31
0.0
  0
LINE
  5
711
330
1F
100
AcDbEntity
  8
001
370
    50
100
AcDbLine
 10
467.470866
 20
409.143639
 30
0.0
 11
467.470866
 21
397.49696
 31
0.0
  0
LINE
  5
712
330
1F
100
AcDbEntity
  8
001
370
    50
100
AcDbLine
 10
475.470866
 20
369.543639
 30
0.0
 11
475.470866
 21
401.543639
 31
0.0
  0
LINE
  5
713
330
1F
100
AcDbEntity
  8
001
370
    50
100
AcDbLine
 10
475.470866
 20
401.043639
 30
0.0
 11
472.470866
 21
401.043639
 31
0.0
  0
LINE
  5
714
330
1F
100
AcDbEntity
  8
001
370
    50
100
AcDbLine
 10
472.470866
 20
370.043639
 30
0.0
 11
475.470866
 21
370.043639
 31
0.0
  0
LINE
  5
715
330
1F
100
AcDbEntity
  8
001
370
    50
100
AcDbLine
 10
442.655572
 20
361.028809
 30
0.0
 11
442.955381
 21
364.755076
 31
0.0
  0
CIRCLE
  5
716
330
1F
100
AcDbEntity
  8
001
370
    50
100
AcDbCircle
 10
450.568996
 20
360.41076
 30
0.0
 40
3.0
  0
LINE
  5
717
330
1F
100
AcDbEntity
  8
001
370
    50
100
AcDbLine
 10
458.066593
 20
359.789809
 30
0.0
 11
457.766785
 21
356.063542
 31
0.0
  0
LINE
  5
718
330
1F
100
AcDbEntity
  8
001
370
    50
100
AcDbLine
 10
453.047792
 20
365.190682
 30
0.0
 11
443.3513
 21
365.122987
 31
0.0
  0
CIRCLE
  5
719
330
1F
100
AcDbEntity
  8
001
370
    50
100
AcDbCircle
 10
450.573983
 20
360.424026
 30
0.0
 40
2.5
  0
LINE
  5
71A
330
1F
100
AcDbEntity
  8
001
370
    50
100
AcDbLine
 10
451.153553
 20
361.422742
 30
0.0
 11
450.837232
 21
361.973445
 31
0.0
  0
LINE
  5
71B
330
1F
100
AcDbEntity
  8
001
370
    50
100
AcDbLine
 10
449.998855
 20
361.425306
 30
0.0
 11
450.317618
 21
361.974599
 31
0.0
  0
ARC
  5
71C
330
1F
100
AcDbEntity
  8
001
370
    50
100
AcDbCircle
 10
450.577092
 20
361.824023
 30
0.0
 40
0.3
100
AcDbArc
 50
29.872778
 51
149.872778
  0
LINE
  5
71D
330
1F
100
AcDbEntity
  8
001
370
    50
100
AcDbLine
 10
449.998855
 20
361.425306
 30
0.0
 11
449.363771
 21
361.426716
 31
0.0
  0
LINE
  5
71E
330
1F
100
AcDbEntity
  8
001
370
    50
100
AcDbLine
 10
449.419286
 20
360.42659
 30
0.0
 11
449.102965
 21
360.977294
 31
0.0
  0
ARC
  5
71F
330
1F
100
AcDbEntity
  8
001
370
    50
100
AcDbCircle
 10
449.363105
 20
361.126716
 30
0.0
 40
0.3
100
AcDbArc
 50
89.872778
 51
209.872778
  0
LINE
  5
720
330
1F
100
AcDbEntity
  8
001
370
    50
100
AcDbLine
 10
449.419286
 20
360.42659
 30
0.0
 11
449.100523
 21
359.877296
 31
0.0
  0
LINE
  5
721
330
1F
100
AcDbEntity
  8
001
370
    50
100
AcDbLine
 10
449.994414
 20
359.425311
 30
0.0
 11
449.35933
 21
359.426721
 31
0.0
  0
ARC
  5
722
330
1F
100
AcDbEntity
  8
001
370
    50
100
AcDbCircle
 10
449.359997
 20
359.72672
 30
0.0
 40
0.3
100
AcDbArc
 50
149.872778
 51
269.872778
  0
LINE
  5
723
330
1F
100
AcDbEntity
  8
001
370
    50
100
AcDbLine
 10
449.994414
 20
359.425311
 30
0.0
 11
450.310735
 21
358.874607
 31
0.0
  0
LINE
  5
724
330
1F
100
AcDbEntity
  8
001
370
    50
100
AcDbLine
 10
451.149112
 20
359.422747
 30
0.0
 11
450.830349
 21
358.873453
 31
0.0
  0
ARC
  5
725
330
1F
100
AcDbEntity
  8
001
370
    50
100
AcDbCircle
 10
450.570875
 20
359.02403
 30
0.0
 40
0.3
100
AcDbArc
 50
209.872778
 51
329.872778
  0
LINE
  5
726
330
1F
100
AcDbEntity
  8
001
370
    50
100
AcDbLine
 10
451.149112
 20
359.422747
 30
0.0
 11
451.784196
 21
359.421336
 31
0.0
  0
LINE
  5
727
330
1F
100
AcDbEntity
  8
001
370
    50
100
AcDbLine
 10
451.728681
 20
360.421462
 30
0.0
 11
452.045002
 21
359.870758
 31
0.0
  0
ARC
  5
728
330
1F
100
AcDbEntity
  8
001
370
    50
100
AcDbCircle
 10
451.784862
 20
359.721336
 30
0.0
 40
0.3
100
AcDbArc
 50
269.872778
 51
29.872778
  0
LINE
  5
729
330
1F
100
AcDbEntity
  8
001
370
    50
100
AcDbLine
 10
451.728681
 20
360.421462
 30
0.0
 11
452.047444
 21
360.970756
 31
0.0
  0
LINE
  5
72A
330
1F
100
AcDbEntity
  8
001
370
    50
100
AcDbLine
 10
451.153553
 20
361.422742
 30
0.0
 11
451.788636
 21
361.421331
 31
0.0
  0
ARC
  5
72B
330
1F
100
AcDbEntity
  8
001
370
    50
100
AcDbCircle
 10
451.78797
 20
361.121332
 30
0.0
 40
0.3
100
AcDbArc
 50
329.872778
 51
89.872778
  0
LINE
  5
72C
330
1F
100
AcDbEntity
  8
001
370
    50
100
AcDbLine
 10
447.674373
 20
355.627936
 30
0.0
 11
457.370866
 21
355.695631
 31
0.0
  0
ARC
  5
72D
330
1F
100
AcDbEntity
  8
001
370
    50
100
AcDbCircle
 10
443.354092
 20
364.722996
 30
0.0
 40
0.4
100
AcDbArc
 50
90.4
 51
175.4
  0
ARC
  5
72E
330
1F
100
AcDbEntity
  8
001
370
    50
100
AcDbCircle
 10
457.368073
 20
356.095621
 30
0.0
 40
0.4
100
AcDbArc
 50
270.4
 51
355.4
  0
POLYLINE
  5
72F
330
1F
100
AcDbEntity
  8
001
370
    50
100
AcDb2dPolyline
 66
     1
 10
0.0
 20
0.0
 30
0.0
  0
VERTEX
  5
731
330
72F
100
AcDbEntity
  8
001
370
    50
100
AcDbVertex
100
AcDb2dVertex
 10
444.227235
 20
373.543439
 30
0.0
  0
VERTEX
  5
732
330
72F
100
AcDbEntity
  8
001
370
    50
100
AcDbVertex
100
AcDb2dVertex
 10
443.998567
 20
370.677281
 30
0.0
  0
VERTEX
  5
733
330
72F
100
AcDbEntity
  8
001
370
    50
100
AcDbVertex
100
AcDb2dVertex
 10
443.760582
 20
367.811913
 30
0.0
  0
VERTEX
  5
734
330
72F
100
AcDbEntity
  8
001
370
    50
100
AcDbVertex
100
AcDb2dVertex
 10
443.658852
 20
366.643278
 30
0.0
  0
VERTEX
  5
735
330
72F
100
AcDbEntity
  8
001
370
    50
100
AcDbVertex
100
AcDb2dVertex
 10
443.554513
 20
365.474868
 30
0.0
  0
VERTEX
  5
736
330
72F
100
AcDbEntity
  8
001
370
    50
100
AcDbVertex
100
AcDb2dVertex
 10
443.538616
 20
365.29879
 30
0.0
  0
VERTEX
  5
737
330
72F
100
AcDbEntity
  8
001
370
    50
100
AcDbVertex
100
AcDb2dVertex
 10
443.522719
 20
365.122712
 30
0.0
  0
SEQEND
  5
730
330
72F
100
AcDbEntity
  8
001
370
    50
  0
LINE
  5
738
330
1F
100
AcDbEntity
  8
001
370
    50
100
AcDbLine
 10
443.812414
 20
365.124735
 30
0.0
 11
444.667217
 21
373.543639
 31
0.0
  0
LINE
  5
739
330
1F
100
AcDbEntity
  8
001
  6
DASHED
370
    30
100
AcDbLine
 10
443.864853
 20
365.125101
 30
0.0
 11
444.959886
 21
375.543639
 31
0.0
  0
LINE
  5
73A
330
1F
100
AcDbEntity
  8
001
370
    50
100
AcDbLine
 10
442.866324
 20
410.05847
 30
0.0
 11
443.166132
 21
406.332203
 31
0.0
  0
LINE
  5
73B
330
1F
100
AcDbEntity
  8
001
370
    50
100
AcDbLine
 10
447.885125
 20
415.459343
 30
0.0
 11
457.770021
 21
415.390332
 31
0.0
  0
ARC
  5
73C
330
1F
100
AcDbEntity
  8
001
370
    50
100
AcDbCircle
 10
457.767229
 20
414.990342
 30
0.0
 40
0.4
100
AcDbArc
 50
4.6
 51
89.6
  0
LINE
  5
73D
330
1F
100
AcDbEntity
  8
001
370
    50
100
AcDbLine
 10
458.16594
 20
415.022422
 30
0.0
 11
458.236645
 21
414.143639
 31
0.0
  0
ARC
  5
73E
330
1F
100
AcDbEntity
  8
001
370
    50
100
AcDbCircle
 10
443.564844
 20
406.364282
 30
0.0
 40
0.4
100
AcDbArc
 50
184.6
 51
263.661054
  0
ARC
  5
73F
330
1F
100
AcDbEntity
  8
001
370
    50
100
AcDbCircle
 10
448.170866
 20
409.143639
 30
0.0
 40
5.0
100
AcDbArc
 50
90.0
 51
175.157618
  0
ARC
  5
740
330
1F
100
AcDbEntity
  8
001
370
    50
100
AcDbCircle
 10
446.299952
 20
408.504379
 30
0.0
 40
3.0
100
AcDbArc
 50
90.0
 51
185.294309
  0
LINE
  5
741
330
1F
100
AcDbEntity
  8
001
  6
DASHED
370
    30
100
AcDbLine
 10
444.959886
 20
395.543639
 30
0.0
 11
443.380051
 21
410.574758
 31
0.0
  0
POLYLINE
  5
742
330
1F
100
AcDbEntity
  8
001
370
    50
100
AcDb2dPolyline
 66
     1
 10
0.0
 20
0.0
 30
0.0
  0
VERTEX
  5
744
330
742
100
AcDbEntity
  8
001
370
    50
100
AcDbVertex
100
AcDb2dVertex
 10
457.843717
 20
357.019724
 30
0.0
  0
VERTEX
  5
745
330
742
100
AcDbEntity
  8
001
370
    50
100
AcDbVertex
100
AcDb2dVertex
 10
458.043043
 20
357.017253
 30
0.0
  0
VERTEX
  5
746
330
742
100
AcDbEntity
  8
001
370
    50
100
AcDbVertex
100
AcDb2dVertex
 10
458.242369
 20
357.014783
 30
0.0
  0
VERTEX
  5
747
330
742
100
AcDbEntity
  8
001
370
    50
100
AcDbVertex
100
AcDb2dVertex
 10
459.117206
 20
357.004356
 30
0.0
  0
VERTEX
  5
748
330
742
100
AcDbEntity
  8
001
370
    50
100
AcDbVertex
100
AcDb2dVertex
 10
460.307031
 20
356.991386
 30
0.0
  0
VERTEX
  5
749
330
742
100
AcDbEntity
  8
001
370
    50
100
AcDbVertex
100
AcDb2dVertex
 10
461.591802
 20
356.979238
 30
0.0
  0
VERTEX
  5
74A
330
742
100
AcDbEntity
  8
001
370
    50
100
AcDbVertex
100
AcDb2dVertex
 10
462.470866
 20
356.971868
 30
0.0
  0
SEQEND
  5
743
330
742
100
AcDbEntity
  8
001
370
    50
  0
LINE
  5
74B
330
1F
100
AcDbEntity
  8
001
370
    50
100
AcDbLine
 10
457.837596
 20
356.943639
 30
0.0
 11
462.470866
 21
356.943639
 31
0.0
  0
LINE
  5
74C
330
1F
100
AcDbEntity
  8
001
370
     9
100
AcDbLine
 10
447.674373
 20
355.627936
 30
0.0
 11
440.173693
 21
355.627936
 31
0.0
  0
LINE
  5
74D
330
1F
100
AcDbEntity
  8
001
370
    50
100
AcDbLine
 10
485.805093
 20
401.543639
 30
0.0
 11
475.470866
 21
401.543639
 31
0.0
  0
LINE
  5
74E
330
1F
100
AcDbEntity
  8
001
  6
CENTER
370
     9
100
AcDbLine
 10
492.25665
 20
385.543639
 30
0.0
 11
439.44119
 21
385.543639
 31
0.0
  0
LINE
  5
74F
330
1F
100
AcDbEntity
  8
001
370
    50
100
AcDbLine
 10
486.282986
 20
369.543639
 30
0.0
 11
475.470866
 21
369.543639
 31
0.0
  0
ARC
  5
750
330
1F
100
AcDbEntity
  8
001
370
    50
100
AcDbCircle
 10
453.082699
 20
360.190804
 30
0.0
 40
5.0
100
AcDbArc
 50
355.4
 51
90.4
  0
ARC
  5
751
330
1F
100
AcDbEntity
  8
001
370
    50
100
AcDbCircle
 10
447.639467
 20
360.627814
 30
0.0
 40
5.0
100
AcDbArc
 50
175.4
 51
270.4
  0
ARC
  5
752
330
1F
100
AcDbEntity
  8
001
370
    50
100
AcDbCircle
 10
447.850218
 20
410.459465
 30
0.0
 40
5.0
100
AcDbArc
 50
89.6
 51
184.6
  0
ARC
  5
753
330
1F
100
AcDbEntity
  8
001
370
    50
100
AcDbCircle
 10
456.725833
 20
363.471378
 30
0.0
 40
3.0
100
AcDbArc
 50
298.349498
 51
147.853976
  0
ARC
  5
754
330
1F
100
AcDbEntity
  8
001
370
    50
100
AcDbCircle
 10
456.725833
 20
270.810797
 30
0.0
 40
3.0
100
AcDbArc
 50
298.349498
 51
145.924585
  0
ARC
  5
755
330
1F
100
AcDbEntity
  8
001
370
    50
100
AcDbCircle
 10
456.725833
 20
182.389696
 30
0.0
 40
3.0
100
AcDbArc
 50
298.349498
 51
144.88527
  0
ARC
  5
756
330
1F
100
AcDbEntity
  8
001
370
    50
100
AcDbCircle
 10
456.725833
 20
82.693416
 30
0.0
 40
3.0
100
AcDbArc
 50
298.349498
 51
145.453965
  0
LINE
  5
757
330
1F
100
AcDbEntity
  8
001
370
    50
100
AcDbLine
 10
99.711223
 20
320.90291
 30
0.0
 11
116.503018
 21
320.90291
 31
0.0
  0
POLYLINE
  5
758
330
1F
100
AcDbEntity
  8
001
370
    50
100
AcDb2dPolyline
 66
     1
 10
0.0
 20
0.0
 30
0.0
  0
VERTEX
  5
75A
330
758
100
AcDbEntity
  8
001
370
    50
100
AcDbVertex
100
AcDb2dVertex
 10
115.66357
 20
320.70291
 30
0.0
  0
VERTEX
  5
75B
330
758
100
AcDbEntity
  8
001
370
    50
100
AcDbVertex
100
AcDb2dVertex
 10
115.496881
 20
320.099028
 30
0.0
  0
VERTEX
  5
75C
330
758
100
AcDbEntity
  8
001
370
    50
100
AcDbVertex
100
AcDb2dVertex
 10
115.254542
 20
319.216078
 30
0.0
  0
VERTEX
  5
75D
330
758
100
AcDbEntity
  8
001
370
    50
100
AcDbVertex
100
AcDb2dVertex
 10
115.013987
 20
318.33262
 30
0.0
  0
VERTEX
  5
75E
330
758
100
AcDbEntity
  8
001
370
    50
100
AcDbVertex
100
AcDb2dVertex
 10
114.850276
 20
317.72791
 30
0.0
  0
SEQEND
  5
759
330
758
100
AcDbEntity
  8
001
370
    50
  0
LINE
  5
75F
330
1F
100
AcDbEntity
  8
001
370
    50
100
AcDbLine
 10
116.503018
 20
320.90291
 30
0.0
 11
116.449428
 21
320.70291
 31
0.0
  0
LINE
  5
760
330
1F
100
AcDbEntity
  8
001
370
    50
100
AcDbLine
 10
100.411223
 20
317.72791
 30
0.0
 11
114.850276
 21
317.72791
 31
0.0
  0
LINE
  5
761
330
1F
100
AcDbEntity
  8
001
370
    50
100
AcDbLine
 10
99.711223
 20
320.90291
 30
0.0
 11
100.411223
 21
317.72791
 31
0.0
  0
LINE
  5
762
330
1F
100
AcDbEntity
  8
001
370
    50
100
AcDbLine
 10
124.8625
 20
320.70291
 30
0.0
 11
115.66357
 21
320.70291
 31
0.0
  0
LINE
  5
763
330
1F
100
AcDbEntity
  8
001
370
    50
100
AcDbLine
 10
99.711223
 20
310.90291
 30
0.0
 11
100.411223
 21
314.07791
 31
0.0
  0
LINE
  5
764
330
1F
100
AcDbEntity
  8
001
370
    50
100
AcDbLine
 10
99.711223
 20
310.90291
 30
0.0
 11
100.411223
 21
310.90291
 31
0.0
  0
POLYLINE
  5
765
330
1F
100
AcDbEntity
  8
001
370
    50
100
AcDb2dPolyline
 66
     1
 10
0.0
 20
0.0
 30
0.0
  0
VERTEX
  5
767
330
765
100
AcDbEntity
  8
001
370
    50
100
AcDbVertex
100
AcDb2dVertex
 10
124.711223
 20
327.85623
 30
0.0
  0
VERTEX
  5
768
330
765
100
AcDbEntity
  8
001
370
    50
100
AcDbVertex
100
AcDb2dVertex
 10
124.711266
 20
327.814115
 30
0.0
  0
VERTEX
  5
769
330
765
100
AcDbEntity
  8
001
370
    50
100
AcDbVertex
100
AcDb2dVertex
 10
124.711336
 20
327.772001
 30
0.0
  0
VERTEX
  5
76A
330
765
100
AcDbEntity
  8
001
370
    50
100
AcDbVertex
100
AcDb2dVertex
 10
124.719646
 20
327.048313
 30
0.0
  0
VERTEX
  5
76B
330
765
100
AcDbEntity
  8
001
370
    50
100
AcDbVertex
100
AcDb2dVertex
 10
124.738347
 20
326.324781
 30
0.0
  0
VERTEX
  5
76C
330
765
100
AcDbEntity
  8
001
370
    50
100
AcDbVertex
100
AcDb2dVertex
 10
124.762652
 20
325.607188
 30
0.0
  0
VERTEX
  5
76D
330
765
100
AcDbEntity
  8
001
370
    50
100
AcDbVertex
100
AcDb2dVertex
 10
124.788626
 20
324.889659
 30
0.0
  0
VERTEX
  5
76E
330
765
100
AcDbEntity
  8
001
370
    50
100
AcDbVertex
100
AcDb2dVertex
 10
124.833443
 20
323.458027
 30
0.0
  0
VERTEX
  5
76F
330
765
100
AcDbEntity
  8
001
370
    50
100
AcDbVertex
100
AcDb2dVertex
 10
124.860125
 20
322.025984
 30
0.0
  0
VERTEX
  5
770
330
765
100
AcDbEntity
  8
001
370
    50
100
AcDbVertex
100
AcDb2dVertex
 10
124.864024
 20
321.36446
 30
0.0
  0
VERTEX
  5
771
330
765
100
AcDbEntity
  8
001
370
    50
100
AcDbVertex
100
AcDb2dVertex
 10
124.8625
 20
320.70291
 30
0.0
  0
SEQEND
  5
766
330
765
100
AcDbEntity
  8
001
370
    50
  0
LINE
  5
772
330
1F
100
AcDbEntity
  8
001
370
    50
100
AcDbLine
 10
100.411223
 20
327.90291
 30
0.0
 11
100.411223
 21
320.90291
 31
0.0
  0
POLYLINE
  5
773
330
1F
100
AcDbEntity
  8
001
370
    50
100
AcDb2dPolyline
 66
     1
 10
0.0
 20
0.0
 30
0.0
  0
VERTEX
  5
775
330
773
100
AcDbEntity
  8
001
370
    50
100
AcDbVertex
100
AcDb2dVertex
 10
101.884182
 20
320.90291
 30
0.0
  0
VERTEX
  5
776
330
773
100
AcDbEntity
  8
001
370
    50
100
AcDbVertex
100
AcDb2dVertex
 10
101.86835
 20
321.288855
 30
0.0
  0
VERTEX
  5
777
330
773
100
AcDbEntity
  8
001
370
    50
100
AcDbVertex
100
AcDb2dVertex
 10
101.851723
 20
321.674765
 30
0.0
  0
VERTEX
  5
778
330
773
100
AcDbEntity
  8
001
370
    50
100
AcDbVertex
100
AcDb2dVertex
 10
101.768091
 20
323.341997
 30
0.0
  0
VERTEX
  5
779
330
773
100
AcDbEntity
  8
001
370
    50
100
AcDbVertex
100
AcDb2dVertex
 10
101.66828
 20
325.008374
 30
0.0
  0
VERTEX
  5
77A
330
773
100
AcDbEntity
  8
001
370
    50
100
AcDbVertex
100
AcDb2dVertex
 10
101.55641
 20
326.67401
 30
0.0
  0
VERTEX
  5
77B
330
773
100
AcDbEntity
  8
001
370
    50
100
AcDbVertex
100
AcDb2dVertex
 10
101.434911
 20
328.338958
 30
0.0
  0
VERTEX
  5
77C
330
773
100
AcDbEntity
  8
001
370
    50
100
AcDbVertex
100
AcDb2dVertex
 10
101.260879
 20
330.559133
 30
0.0
  0
VERTEX
  5
77D
330
773
100
AcDbEntity
  8
001
370
    50
100
AcDbVertex
100
AcDb2dVertex
 10
101.0755
 20
332.778407
 30
0.0
  0
VERTEX
  5
77E
330
773
100
AcDbEntity
  8
001
370
    50
100
AcDbVertex
100
AcDb2dVertex
 10
100.881003
 20
334.996906
 30
0.0
  0
VERTEX
  5
77F
330
773
100
AcDbEntity
  8
001
370
    50
100
AcDbVertex
100
AcDb2dVertex
 10
100.718506
 20
336.792007
 30
0.0
  0
VERTEX
  5
780
330
773
100
AcDbEntity
  8
001
370
    50
100
AcDbVertex
100
AcDb2dVertex
 10
100.553107
 20
338.586834
 30
0.0
  0
VERTEX
  5
781
330
773
100
AcDbEntity
  8
001
370
    50
100
AcDbVertex
100
AcDb2dVertex
 10
100.491106
 20
339.255908
 30
0.0
  0
VERTEX
  5
782
330
773
100
AcDbEntity
  8
001
370
    50
100
AcDbVertex
100
AcDb2dVertex
 10
100.429105
 20
339.924981
 30
0.0
  0
SEQEND
  5
774
330
773
100
AcDbEntity
  8
001
370
    50
  0
LINE
  5
783
330
1F
100
AcDbEntity
  8
001
370
    50
100
AcDbLine
 10
99.711223
 20
129.484562
 30
0.0
 11
116.503018
 21
129.484562
 31
0.0
  0
POLYLINE
  5
784
330
1F
100
AcDbEntity
  8
001
370
    50
100
AcDb2dPolyline
 66
     1
 10
0.0
 20
0.0
 30
0.0
  0
VERTEX
  5
786
330
784
100
AcDbEntity
  8
001
370
    50
100
AcDbVertex
100
AcDb2dVertex
 10
115.66357
 20
129.284562
 30
0.0
  0
VERTEX
  5
787
330
784
100
AcDbEntity
  8
001
370
    50
100
AcDbVertex
100
AcDb2dVertex
 10
115.496881
 20
128.68068
 30
0.0
  0
VERTEX
  5
788
330
784
100
AcDbEntity
  8
001
370
    50
100
AcDbVertex
100
AcDb2dVertex
 10
115.254542
 20
127.79773
 30
0.0
  0
VERTEX
  5
789
330
784
100
AcDbEntity
  8
001
370
    50
100
AcDbVertex
100
AcDb2dVertex
 10
115.013987
 20
126.914272
 30
0.0
  0
VERTEX
  5
78A
330
784
100
AcDbEntity
  8
001
370
    50
100
AcDbVertex
100
AcDb2dVertex
 10
114.850276
 20
126.309562
 30
0.0
  0
SEQEND
  5
785
330
784
100
AcDbEntity
  8
001
370
    50
  0
LINE
  5
78B
330
1F
100
AcDbEntity
  8
001
370
    50
100
AcDbLine
 10
116.503018
 20
129.484562
 30
0.0
 11
116.449428
 21
129.284562
 31
0.0
  0
LINE
  5
78C
330
1F
100
AcDbEntity
  8
001
370
    50
100
AcDbLine
 10
100.411223
 20
126.309562
 30
0.0
 11
114.850276
 21
126.309562
 31
0.0
  0
LINE
  5
78D
330
1F
100
AcDbEntity
  8
001
370
    50
100
AcDbLine
 10
99.711223
 20
129.484562
 30
0.0
 11
100.411223
 21
126.309562
 31
0.0
  0
LINE
  5
78E
330
1F
100
AcDbEntity
  8
001
370
    50
100
AcDbLine
 10
124.8625
 20
129.284562
 30
0.0
 11
115.66357
 21
129.284562
 31
0.0
  0
LINE
  5
78F
330
1F
100
AcDbEntity
  8
001
370
    50
100
AcDbLine
 10
99.711223
 20
119.484562
 30
0.0
 11
100.411223
 21
122.659562
 31
0.0
  0
LINE
  5
790
330
1F
100
AcDbEntity
  8
001
370
    50
100
AcDbLine
 10
99.711223
 20
119.484562
 30
0.0
 11
100.411223
 21
119.484562
 31
0.0
  0
LINE
  5
791
330
1F
100
AcDbEntity
  8
001
370
    50
100
AcDbLine
 10
100.411223
 20
136.484562
 30
0.0
 11
100.411223
 21
129.484562
 31
0.0
  0
LINE
  5
792
330
1F
100
AcDbEntity
  8
001
370
    50
100
AcDbLine
 10
100.411223
 20
126.309562
 30
0.0
 11
100.411223
 21
112.484562
 31
0.0
  0
POLYLINE
  5
793
330
1F
100
AcDbEntity
  8
001
370
    50
100
AcDb2dPolyline
 66
     1
 10
0.0
 20
0.0
 30
0.0
  0
VERTEX
  5
795
330
793
100
AcDbEntity
  8
001
370
    50
100
AcDbVertex
100
AcDb2dVertex
 10
124.711223
 20
136.437882
 30
0.0
  0
VERTEX
  5
796
330
793
100
AcDbEntity
  8
001
370
    50
100
AcDbVertex
100
AcDb2dVertex
 10
124.711266
 20
136.395767
 30
0.0
  0
VERTEX
  5
797
330
793
100
AcDbEntity
  8
001
370
    50
100
AcDbVertex
100
AcDb2dVertex
 10
124.711336
 20
136.353653
 30
0.0
  0
VERTEX
  5
798
330
793
100
AcDbEntity
  8
001
370
    50
100
AcDbVertex
100
AcDb2dVertex
 10
124.719646
 20
135.629965
 30
0.0
  0
VERTEX
  5
799
330
793
100
AcDbEntity
  8
001
370
    50
100
AcDbVertex
100
AcDb2dVertex
 10
124.738347
 20
134.906433
 30
0.0
  0
VERTEX
  5
79A
330
793
100
AcDbEntity
  8
001
370
    50
100
AcDbVertex
100
AcDb2dVertex
 10
124.762652
 20
134.18884
 30
0.0
  0
VERTEX
  5
79B
330
793
100
AcDbEntity
  8
001
370
    50
100
AcDbVertex
100
AcDb2dVertex
 10
124.788626
 20
133.471311
 30
0.0
  0
VERTEX
  5
79C
330
793
100
AcDbEntity
  8
001
370
    50
100
AcDbVertex
100
AcDb2dVertex
 10
124.833443
 20
132.039679
 30
0.0
  0
VERTEX
  5
79D
330
793
100
AcDbEntity
  8
001
370
    50
100
AcDbVertex
100
AcDb2dVertex
 10
124.860125
 20
130.607636
 30
0.0
  0
VERTEX
  5
79E
330
793
100
AcDbEntity
  8
001
370
    50
100
AcDbVertex
100
AcDb2dVertex
 10
124.864024
 20
129.946112
 30
0.0
  0
VERTEX
  5
79F
330
793
100
AcDbEntity
  8
001
370
    50
100
AcDbVertex
100
AcDb2dVertex
 10
124.8625
 20
129.284562
 30
0.0
  0
SEQEND
  5
794
330
793
100
AcDbEntity
  8
001
370
    50
  0
POLYLINE
  5
7A0
330
1F
100
AcDbEntity
  8
001
370
    50
100
AcDb2dPolyline
 66
     1
 10
0.0
 20
0.0
 30
0.0
  0
VERTEX
  5
7A2
330
7A0
100
AcDbEntity
  8
001
370
    50
100
AcDbVertex
100
AcDb2dVertex
 10
101.884182
 20
129.484562
 30
0.0
  0
VERTEX
  5
7A3
330
7A0
100
AcDbEntity
  8
001
370
    50
100
AcDbVertex
100
AcDb2dVertex
 10
101.86835
 20
129.870507
 30
0.0
  0
VERTEX
  5
7A4
330
7A0
100
AcDbEntity
  8
001
370
    50
100
AcDbVertex
100
AcDb2dVertex
 10
101.851723
 20
130.256417
 30
0.0
  0
VERTEX
  5
7A5
330
7A0
100
AcDbEntity
  8
001
370
    50
100
AcDbVertex
100
AcDb2dVertex
 10
101.768091
 20
131.923648
 30
0.0
  0
VERTEX
  5
7A6
330
7A0
100
AcDbEntity
  8
001
370
    50
100
AcDbVertex
100
AcDb2dVertex
 10
101.66828
 20
133.590026
 30
0.0
  0
VERTEX
  5
7A7
330
7A0
100
AcDbEntity
  8
001
370
    50
100
AcDbVertex
100
AcDb2dVertex
 10
101.55641
 20
135.255662
 30
0.0
  0
VERTEX
  5
7A8
330
7A0
100
AcDbEntity
  8
001
370
    50
100
AcDbVertex
100
AcDb2dVertex
 10
101.434911
 20
136.92061
 30
0.0
  0
VERTEX
  5
7A9
330
7A0
100
AcDbEntity
  8
001
370
    50
100
AcDbVertex
100
AcDb2dVertex
 10
101.260879
 20
139.140785
 30
0.0
  0
VERTEX
  5
7AA
330
7A0
100
AcDbEntity
  8
001
370
    50
100
AcDbVertex
100
AcDb2dVertex
 10
101.0755
 20
141.360059
 30
0.0
  0
VERTEX
  5
7AB
330
7A0
100
AcDbEntity
  8
001
370
    50
100
AcDbVertex
100
AcDb2dVertex
 10
100.881003
 20
143.578558
 30
0.0
  0
VERTEX
  5
7AC
330
7A0
100
AcDbEntity
  8
001
370
    50
100
AcDbVertex
100
AcDb2dVertex
 10
100.718506
 20
145.373658
 30
0.0
  0
VERTEX
  5
7AD
330
7A0
100
AcDbEntity
  8
001
370
    50
100
AcDbVertex
100
AcDb2dVertex
 10
100.553107
 20
147.168486
 30
0.0
  0
VERTEX
  5
7AE
330
7A0
100
AcDbEntity
  8
001
370
    50
100
AcDbVertex
100
AcDb2dVertex
 10
100.491106
 20
147.83756
 30
0.0
  0
VERTEX
  5
7AF
330
7A0
100
AcDbEntity
  8
001
370
    50
100
AcDbVertex
100
AcDb2dVertex
 10
100.429105
 20
148.506633
 30
0.0
  0
SEQEND
  5
7A1
330
7A0
100
AcDbEntity
  8
001
370
    50
  0
LINE
  5
7B0
330
1F
100
AcDbEntity
  8
001
370
    50
100
AcDbLine
 10
442.470866
 20
109.765678
 30
0.0
 11
459.262661
 21
109.765678
 31
0.0
  0
POLYLINE
  5
7B1
330
1F
100
AcDbEntity
  8
001
370
    50
100
AcDb2dPolyline
 66
     1
 10
0.0
 20
0.0
 30
0.0
  0
VERTEX
  5
7B3
330
7B1
100
AcDbEntity
  8
001
370
    50
100
AcDbVertex
100
AcDb2dVertex
 10
458.423213
 20
109.565678
 30
0.0
  0
VERTEX
  5
7B4
330
7B1
100
AcDbEntity
  8
001
370
    50
100
AcDbVertex
100
AcDb2dVertex
 10
458.256523
 20
108.961796
 30
0.0
  0
VERTEX
  5
7B5
330
7B1
100
AcDbEntity
  8
001
370
    50
100
AcDbVertex
100
AcDb2dVertex
 10
458.014185
 20
108.078847
 30
0.0
  0
VERTEX
  5
7B6
330
7B1
100
AcDbEntity
  8
001
370
    50
100
AcDbVertex
100
AcDb2dVertex
 10
457.77363
 20
107.195388
 30
0.0
  0
VERTEX
  5
7B7
330
7B1
100
AcDbEntity
  8
001
370
    50
100
AcDbVertex
100
AcDb2dVertex
 10
457.609919
 20
106.590678
 30
0.0
  0
SEQEND
  5
7B2
330
7B1
100
AcDbEntity
  8
001
370
    50
  0
LINE
  5
7B8
330
1F
100
AcDbEntity
  8
001
370
    50
100
AcDbLine
 10
459.262661
 20
109.765678
 30
0.0
 11
459.209071
 21
109.565678
 31
0.0
  0
LINE
  5
7B9
330
1F
100
AcDbEntity
  8
001
370
    50
100
AcDbLine
 10
443.170866
 20
106.590678
 30
0.0
 11
457.609919
 21
106.590678
 31
0.0
  0
LINE
  5
7BA
330
1F
100
AcDbEntity
  8
001
370
    50
100
AcDbLine
 10
442.470866
 20
109.765678
 30
0.0
 11
443.170866
 21
106.590678
 31
0.0
  0
LINE
  5
7BB
330
1F
100
AcDbEntity
  8
001
370
    50
100
AcDbLine
 10
467.622143
 20
109.565678
 30
0.0
 11
458.423213
 21
109.565678
 31
0.0
  0
LINE
  5
7BC
330
1F
100
AcDbEntity
  8
001
370
    50
100
AcDbLine
 10
442.470866
 20
99.765678
 30
0.0
 11
443.170866
 21
102.940678
 31
0.0
  0
LINE
  5
7BD
330
1F
100
AcDbEntity
  8
001
370
    50
100
AcDbLine
 10
442.470866
 20
99.765678
 30
0.0
 11
443.170866
 21
99.765678
 31
0.0
  0
POLYLINE
  5
7BE
330
1F
100
AcDbEntity
  8
001
370
    50
100
AcDb2dPolyline
 66
     1
 10
0.0
 20
0.0
 30
0.0
  0
VERTEX
  5
7C0
330
7BE
100
AcDbEntity
  8
001
370
    50
100
AcDbVertex
100
AcDb2dVertex
 10
467.470866
 20
116.718998
 30
0.0
  0
VERTEX
  5
7C1
330
7BE
100
AcDbEntity
  8
001
370
    50
100
AcDbVertex
100
AcDb2dVertex
 10
467.470909
 20
116.676884
 30
0.0
  0
VERTEX
  5
7C2
330
7BE
100
AcDbEntity
  8
001
370
    50
100
AcDbVertex
100
AcDb2dVertex
 10
467.470978
 20
116.634769
 30
0.0
  0
VERTEX
  5
7C3
330
7BE
100
AcDbEntity
  8
001
370
    50
100
AcDbVertex
100
AcDb2dVertex
 10
467.479289
 20
115.911081
 30
0.0
  0
VERTEX
  5
7C4
330
7BE
100
AcDbEntity
  8
001
370
    50
100
AcDbVertex
100
AcDb2dVertex
 10
467.49799
 20
115.187549
 30
0.0
  0
VERTEX
  5
7C5
330
7BE
100
AcDbEntity
  8
001
370
    50
100
AcDbVertex
100
AcDb2dVertex
 10
467.522295
 20
114.469956
 30
0.0
  0
VERTEX
  5
7C6
330
7BE
100
AcDbEntity
  8
001
370
    50
100
AcDbVertex
100
AcDb2dVertex
 10
467.548269
 20
113.752427
 30
0.0
  0
VERTEX
  5
7C7
330
7BE
100
AcDbEntity
  8
001
370
    50
100
AcDbVertex
100
AcDb2dVertex
 10
467.593085
 20
112.320795
 30
0.0
  0
VERTEX
  5
7C8
330
7BE
100
AcDbEntity
  8
001
370
    50
100
AcDbVertex
100
AcDb2dVertex
 10
467.619768
 20
110.888752
 30
0.0
  0
VERTEX
  5
7C9
330
7BE
100
AcDbEntity
  8
001
370
    50
100
AcDbVertex
100
AcDb2dVertex
 10
467.623666
 20
110.227228
 30
0.0
  0
VERTEX
  5
7CA
330
7BE
100
AcDbEntity
  8
001
370
    50
100
AcDbVertex
100
AcDb2dVertex
 10
467.622143
 20
109.565678
 30
0.0
  0
SEQEND
  5
7BF
330
7BE
100
AcDbEntity
  8
001
370
    50
  0
POLYLINE
  5
7CB
330
1F
100
AcDbEntity
  8
001
370
    50
100
AcDb2dPolyline
 66
     1
 10
0.0
 20
0.0
 30
0.0
  0
VERTEX
  5
7CD
330
7CB
100
AcDbEntity
  8
001
370
    50
100
AcDbVertex
100
AcDb2dVertex
 10
444.643824
 20
109.765678
 30
0.0
  0
VERTEX
  5
7CE
330
7CB
100
AcDbEntity
  8
001
370
    50
100
AcDbVertex
100
AcDb2dVertex
 10
444.627993
 20
110.151623
 30
0.0
  0
VERTEX
  5
7CF
330
7CB
100
AcDbEntity
  8
001
370
    50
100
AcDbVertex
100
AcDb2dVertex
 10
444.611366
 20
110.537533
 30
0.0
  0
VERTEX
  5
7D0
330
7CB
100
AcDbEntity
  8
001
370
    50
100
AcDbVertex
100
AcDb2dVertex
 10
444.527734
 20
112.204765
 30
0.0
  0
VERTEX
  5
7D1
330
7CB
100
AcDbEntity
  8
001
370
    50
100
AcDbVertex
100
AcDb2dVertex
 10
444.427923
 20
113.871142
 30
0.0
  0
VERTEX
  5
7D2
330
7CB
100
AcDbEntity
  8
001
370
    50
100
AcDbVertex
100
AcDb2dVertex
 10
444.316053
 20
115.536778
 30
0.0
  0
VERTEX
  5
7D3
330
7CB
100
AcDbEntity
  8
001
370
    50
100
AcDbVertex
100
AcDb2dVertex
 10
444.194554
 20
117.201726
 30
0.0
  0
VERTEX
  5
7D4
330
7CB
100
AcDbEntity
  8
001
370
    50
100
AcDbVertex
100
AcDb2dVertex
 10
444.020522
 20
119.421901
 30
0.0
  0
VERTEX
  5
7D5
330
7CB
100
AcDbEntity
  8
001
370
    50
100
AcDbVertex
100
AcDb2dVertex
 10
443.835143
 20
121.641175
 30
0.0
  0
VERTEX
  5
7D6
330
7CB
100
AcDbEntity
  8
001
370
    50
100
AcDbVertex
100
AcDb2dVertex
 10
443.640645
 20
123.859674
 30
0.0
  0
VERTEX
  5
7D7
330
7CB
100
AcDbEntity
  8
001
370
    50
100
AcDbVertex
100
AcDb2dVertex
 10
443.478149
 20
125.654775
 30
0.0
  0
VERTEX
  5
7D8
330
7CB
100
AcDbEntity
  8
001
370
    50
100
AcDbVertex
100
AcDb2dVertex
 10
443.31275
 20
127.449602
 30
0.0
  0
VERTEX
  5
7D9
330
7CB
100
AcDbEntity
  8
001
370
    50
100
AcDbVertex
100
AcDb2dVertex
 10
443.250749
 20
128.118676
 30
0.0
  0
VERTEX
  5
7DA
330
7CB
100
AcDbEntity
  8
001
370
    50
100
AcDbVertex
100
AcDb2dVertex
 10
443.188748
 20
128.787749
 30
0.0
  0
SEQEND
  5
7CC
330
7CB
100
AcDbEntity
  8
001
370
    50
  0
LINE
  5
7DB
330
1F
100
AcDbEntity
  8
001
370
    50
100
AcDbLine
 10
443.170866
 20
116.765678
 30
0.0
 11
443.170866
 21
109.765678
 31
0.0
  0
LINE
  5
7DC
330
1F
100
AcDbEntity
  8
001
370
    50
100
AcDbLine
 10
443.170866
 20
106.590678
 30
0.0
 11
443.170866
 21
92.765678
 31
0.0
  0
LINE
  5
7DD
330
1F
100
AcDbEntity
  8
001
370
    50
100
AcDbLine
 10
442.470866
 20
109.765678
 30
0.0
 11
459.262661
 21
109.765678
 31
0.0
  0
POLYLINE
  5
7DE
330
1F
100
AcDbEntity
  8
001
370
    50
100
AcDb2dPolyline
 66
     1
 10
0.0
 20
0.0
 30
0.0
  0
VERTEX
  5
7E0
330
7DE
100
AcDbEntity
  8
001
370
    50
100
AcDbVertex
100
AcDb2dVertex
 10
458.423213
 20
109.565678
 30
0.0
  0
VERTEX
  5
7E1
330
7DE
100
AcDbEntity
  8
001
370
    50
100
AcDbVertex
100
AcDb2dVertex
 10
458.256523
 20
108.961796
 30
0.0
  0
VERTEX
  5
7E2
330
7DE
100
AcDbEntity
  8
001
370
    50
100
AcDbVertex
100
AcDb2dVertex
 10
458.014185
 20
108.078847
 30
0.0
  0
VERTEX
  5
7E3
330
7DE
100
AcDbEntity
  8
001
370
    50
100
AcDbVertex
100
AcDb2dVertex
 10
457.77363
 20
107.195388
 30
0.0
  0
VERTEX
  5
7E4
330
7DE
100
AcDbEntity
  8
001
370
    50
100
AcDbVertex
100
AcDb2dVertex
 10
457.609919
 20
106.590678
 30
0.0
  0
SEQEND
  5
7DF
330
7DE
100
AcDbEntity
  8
001
370
    50
  0
LINE
  5
7E5
330
1F
100
AcDbEntity
  8
001
370
    50
100
AcDbLine
 10
459.262661
 20
109.765678
 30
0.0
 11
459.209071
 21
109.565678
 31
0.0
  0
LINE
  5
7E6
330
1F
100
AcDbEntity
  8
001
370
    50
100
AcDbLine
 10
443.170866
 20
106.590678
 30
0.0
 11
457.609919
 21
106.590678
 31
0.0
  0
LINE
  5
7E7
330
1F
100
AcDbEntity
  8
001
370
    50
100
AcDbLine
 10
442.470866
 20
109.765678
 30
0.0
 11
443.170866
 21
106.590678
 31
0.0
  0
LINE
  5
7E8
330
1F
100
AcDbEntity
  8
001
370
    50
100
AcDbLine
 10
467.622143
 20
109.565678
 30
0.0
 11
458.423213
 21
109.565678
 31
0.0
  0
LINE
  5
7E9
330
1F
100
AcDbEntity
  8
001
370
    50
100
AcDbLine
 10
442.470866
 20
99.765678
 30
0.0
 11
443.170866
 21
102.940678
 31
0.0
  0
LINE
  5
7EA
330
1F
100
AcDbEntity
  8
001
370
    50
100
AcDbLine
 10
442.470866
 20
99.765678
 30
0.0
 11
443.170866
 21
99.765678
 31
0.0
  0
LINE
  5
7EB
330
1F
100
AcDbEntity
  8
001
370
    50
100
AcDbLine
 10
442.470866
 20
209.461958
 30
0.0
 11
459.262661
 21
209.461958
 31
0.0
  0
POLYLINE
  5
7EC
330
1F
100
AcDbEntity
  8
001
370
    50
100
AcDb2dPolyline
 66
     1
 10
0.0
 20
0.0
 30
0.0
  0
VERTEX
  5
7EE
330
7EC
100
AcDbEntity
  8
001
370
    50
100
AcDbVertex
100
AcDb2dVertex
 10
458.423213
 20
209.261958
 30
0.0
  0
VERTEX
  5
7EF
330
7EC
100
AcDbEntity
  8
001
370
    50
100
AcDbVertex
100
AcDb2dVertex
 10
458.256523
 20
208.658076
 30
0.0
  0
VERTEX
  5
7F0
330
7EC
100
AcDbEntity
  8
001
370
    50
100
AcDbVertex
100
AcDb2dVertex
 10
458.014185
 20
207.775126
 30
0.0
  0
VERTEX
  5
7F1
330
7EC
100
AcDbEntity
  8
001
370
    50
100
AcDbVertex
100
AcDb2dVertex
 10
457.77363
 20
206.891668
 30
0.0
  0
VERTEX
  5
7F2
330
7EC
100
AcDbEntity
  8
001
370
    50
100
AcDbVertex
100
AcDb2dVertex
 10
457.609919
 20
206.286958
 30
0.0
  0
SEQEND
  5
7ED
330
7EC
100
AcDbEntity
  8
001
370
    50
  0
LINE
  5
7F3
330
1F
100
AcDbEntity
  8
001
370
    50
100
AcDbLine
 10
459.262661
 20
209.461958
 30
0.0
 11
459.209071
 21
209.261958
 31
0.0
  0
LINE
  5
7F4
330
1F
100
AcDbEntity
  8
001
370
    50
100
AcDbLine
 10
443.170866
 20
206.286958
 30
0.0
 11
457.609919
 21
206.286958
 31
0.0
  0
LINE
  5
7F5
330
1F
100
AcDbEntity
  8
001
370
    50
100
AcDbLine
 10
467.622143
 20
209.261958
 30
0.0
 11
458.423213
 21
209.261958
 31
0.0
  0
LINE
  5
7F6
330
1F
100
AcDbEntity
  8
001
370
    50
100
AcDbLine
 10
442.470866
 20
209.461958
 30
0.0
 11
459.262661
 21
209.461958
 31
0.0
  0
POLYLINE
  5
7F7
330
1F
100
AcDbEntity
  8
001
370
    50
100
AcDb2dPolyline
 66
     1
 10
0.0
 20
0.0
 30
0.0
  0
VERTEX
  5
7F9
330
7F7
100
AcDbEntity
  8
001
370
    50
100
AcDbVertex
100
AcDb2dVertex
 10
458.423213
 20
209.261958
 30
0.0
  0
VERTEX
  5
7FA
330
7F7
100
AcDbEntity
  8
001
370
    50
100
AcDbVertex
100
AcDb2dVertex
 10
458.256523
 20
208.658076
 30
0.0
  0
VERTEX
  5
7FB
330
7F7
100
AcDbEntity
  8
001
370
    50
100
AcDbVertex
100
AcDb2dVertex
 10
458.014185
 20
207.775126
 30
0.0
  0
VERTEX
  5
7FC
330
7F7
100
AcDbEntity
  8
001
370
    50
100
AcDbVertex
100
AcDb2dVertex
 10
457.77363
 20
206.891668
 30
0.0
  0
VERTEX
  5
7FD
330
7F7
100
AcDbEntity
  8
001
370
    50
100
AcDbVertex
100
AcDb2dVertex
 10
457.609919
 20
206.286958
 30
0.0
  0
SEQEND
  5
7F8
330
7F7
100
AcDbEntity
  8
001
370
    50
  0
LINE
  5
7FE
330
1F
100
AcDbEntity
  8
001
370
    50
100
AcDbLine
 10
459.262661
 20
209.461958
 30
0.0
 11
459.209071
 21
209.261958
 31
0.0
  0
LINE
  5
7FF
330
1F
100
AcDbEntity
  8
001
370
    50
100
AcDbLine
 10
443.170866
 20
206.286958
 30
0.0
 11
457.609919
 21
206.286958
 31
0.0
  0
LINE
  5
800
330
1F
100
AcDbEntity
  8
001
370
    50
100
AcDbLine
 10
442.470866
 20
209.461958
 30
0.0
 11
443.170866
 21
206.286958
 31
0.0
  0
LINE
  5
801
330
1F
100
AcDbEntity
  8
001
370
    50
100
AcDbLine
 10
467.622143
 20
209.261958
 30
0.0
 11
458.423213
 21
209.261958
 31
0.0
  0
LINE
  5
802
330
1F
100
AcDbEntity
  8
001
370
    50
100
AcDbLine
 10
442.470866
 20
199.461958
 30
0.0
 11
443.170866
 21
202.636958
 31
0.0
  0
LINE
  5
803
330
1F
100
AcDbEntity
  8
001
370
    50
100
AcDbLine
 10
442.470866
 20
199.461958
 30
0.0
 11
443.170866
 21
199.461958
 31
0.0
  0
LINE
  5
804
330
1F
100
AcDbEntity
  8
001
370
    50
100
AcDbLine
 10
443.170866
 20
216.461958
 30
0.0
 11
443.170866
 21
209.461958
 31
0.0
  0
LINE
  5
805
330
1F
100
AcDbEntity
  8
001
370
    50
100
AcDbLine
 10
443.170866
 20
206.286958
 30
0.0
 11
443.170866
 21
192.461958
 31
0.0
  0
POLYLINE
  5
806
330
1F
100
AcDbEntity
  8
001
370
    50
100
AcDb2dPolyline
 66
     1
 10
0.0
 20
0.0
 30
0.0
  0
VERTEX
  5
808
330
806
100
AcDbEntity
  8
001
370
    50
100
AcDbVertex
100
AcDb2dVertex
 10
444.643824
 20
209.461958
 30
0.0
  0
VERTEX
  5
809
330
806
100
AcDbEntity
  8
001
370
    50
100
AcDbVertex
100
AcDb2dVertex
 10
444.627993
 20
209.847903
 30
0.0
  0
VERTEX
  5
80A
330
806
100
AcDbEntity
  8
001
370
    50
100
AcDbVertex
100
AcDb2dVertex
 10
444.611366
 20
210.233813
 30
0.0
  0
VERTEX
  5
80B
330
806
100
AcDbEntity
  8
001
370
    50
100
AcDbVertex
100
AcDb2dVertex
 10
444.527734
 20
211.901045
 30
0.0
  0
VERTEX
  5
80C
330
806
100
AcDbEntity
  8
001
370
    50
100
AcDbVertex
100
AcDb2dVertex
 10
444.427923
 20
213.567422
 30
0.0
  0
VERTEX
  5
80D
330
806
100
AcDbEntity
  8
001
370
    50
100
AcDbVertex
100
AcDb2dVertex
 10
444.316053
 20
215.233058
 30
0.0
  0
VERTEX
  5
80E
330
806
100
AcDbEntity
  8
001
370
    50
100
AcDbVertex
100
AcDb2dVertex
 10
444.194554
 20
216.898006
 30
0.0
  0
VERTEX
  5
80F
330
806
100
AcDbEntity
  8
001
370
    50
100
AcDbVertex
100
AcDb2dVertex
 10
444.020522
 20
219.118181
 30
0.0
  0
VERTEX
  5
810
330
806
100
AcDbEntity
  8
001
370
    50
100
AcDbVertex
100
AcDb2dVertex
 10
443.835143
 20
221.337455
 30
0.0
  0
VERTEX
  5
811
330
806
100
AcDbEntity
  8
001
370
    50
100
AcDbVertex
100
AcDb2dVertex
 10
443.640645
 20
223.555954
 30
0.0
  0
VERTEX
  5
812
330
806
100
AcDbEntity
  8
001
370
    50
100
AcDbVertex
100
AcDb2dVertex
 10
443.478149
 20
225.351055
 30
0.0
  0
VERTEX
  5
813
330
806
100
AcDbEntity
  8
001
370
    50
100
AcDbVertex
100
AcDb2dVertex
 10
443.31275
 20
227.145882
 30
0.0
  0
VERTEX
  5
814
330
806
100
AcDbEntity
  8
001
370
    50
100
AcDbVertex
100
AcDb2dVertex
 10
443.250749
 20
227.814956
 30
0.0
  0
VERTEX
  5
815
330
806
100
AcDbEntity
  8
001
370
    50
100
AcDbVertex
100
AcDb2dVertex
 10
443.188748
 20
228.484029
 30
0.0
  0
SEQEND
  5
807
330
806
100
AcDbEntity
  8
001
370
    50
  0
POLYLINE
  5
816
330
1F
100
AcDbEntity
  8
001
370
    50
100
AcDb2dPolyline
 66
     1
 10
0.0
 20
0.0
 30
0.0
  0
VERTEX
  5
818
330
816
100
AcDbEntity
  8
001
370
    50
100
AcDbVertex
100
AcDb2dVertex
 10
467.470866
 20
216.415278
 30
0.0
  0
VERTEX
  5
819
330
816
100
AcDbEntity
  8
001
370
    50
100
AcDbVertex
100
AcDb2dVertex
 10
467.470909
 20
216.373163
 30
0.0
  0
VERTEX
  5
81A
330
816
100
AcDbEntity
  8
001
370
    50
100
AcDbVertex
100
AcDb2dVertex
 10
467.470978
 20
216.331049
 30
0.0
  0
VERTEX
  5
81B
330
816
100
AcDbEntity
  8
001
370
    50
100
AcDbVertex
100
AcDb2dVertex
 10
467.479289
 20
215.607361
 30
0.0
  0
VERTEX
  5
81C
330
816
100
AcDbEntity
  8
001
370
    50
100
AcDbVertex
100
AcDb2dVertex
 10
467.49799
 20
214.883829
 30
0.0
  0
VERTEX
  5
81D
330
816
100
AcDbEntity
  8
001
370
    50
100
AcDbVertex
100
AcDb2dVertex
 10
467.522295
 20
214.166236
 30
0.0
  0
VERTEX
  5
81E
330
816
100
AcDbEntity
  8
001
370
    50
100
AcDbVertex
100
AcDb2dVertex
 10
467.548269
 20
213.448707
 30
0.0
  0
VERTEX
  5
81F
330
816
100
AcDbEntity
  8
001
370
    50
100
AcDbVertex
100
AcDb2dVertex
 10
467.593085
 20
212.017075
 30
0.0
  0
VERTEX
  5
820
330
816
100
AcDbEntity
  8
001
370
    50
100
AcDbVertex
100
AcDb2dVertex
 10
467.619768
 20
210.585032
 30
0.0
  0
VERTEX
  5
821
330
816
100
AcDbEntity
  8
001
370
    50
100
AcDbVertex
100
AcDb2dVertex
 10
467.623666
 20
209.923508
 30
0.0
  0
VERTEX
  5
822
330
816
100
AcDbEntity
  8
001
370
    50
100
AcDbVertex
100
AcDb2dVertex
 10
467.622143
 20
209.261958
 30
0.0
  0
SEQEND
  5
817
330
816
100
AcDbEntity
  8
001
370
    50
  0
LINE
  5
823
330
1F
100
AcDbEntity
  8
001
370
    50
100
AcDbLine
 10
442.470866
 20
297.883059
 30
0.0
 11
459.262661
 21
297.883059
 31
0.0
  0
POLYLINE
  5
824
330
1F
100
AcDbEntity
  8
001
370
    50
100
AcDb2dPolyline
 66
     1
 10
0.0
 20
0.0
 30
0.0
  0
VERTEX
  5
826
330
824
100
AcDbEntity
  8
001
370
    50
100
AcDbVertex
100
AcDb2dVertex
 10
458.423213
 20
297.683059
 30
0.0
  0
VERTEX
  5
827
330
824
100
AcDbEntity
  8
001
370
    50
100
AcDbVertex
100
AcDb2dVertex
 10
458.256523
 20
297.079177
 30
0.0
  0
VERTEX
  5
828
330
824
100
AcDbEntity
  8
001
370
    50
100
AcDbVertex
100
AcDb2dVertex
 10
458.014185
 20
296.196228
 30
0.0
  0
VERTEX
  5
829
330
824
100
AcDbEntity
  8
001
370
    50
100
AcDbVertex
100
AcDb2dVertex
 10
457.77363
 20
295.31277
 30
0.0
  0
VERTEX
  5
82A
330
824
100
AcDbEntity
  8
001
370
    50
100
AcDbVertex
100
AcDb2dVertex
 10
457.609919
 20
294.708059
 30
0.0
  0
SEQEND
  5
825
330
824
100
AcDbEntity
  8
001
370
    50
  0
LINE
  5
82B
330
1F
100
AcDbEntity
  8
001
370
    50
100
AcDbLine
 10
459.262661
 20
297.883059
 30
0.0
 11
459.209071
 21
297.683059
 31
0.0
  0
LINE
  5
82C
330
1F
100
AcDbEntity
  8
001
370
    50
100
AcDbLine
 10
467.622143
 20
297.683059
 30
0.0
 11
458.423213
 21
297.683059
 31
0.0
  0
LINE
  5
82D
330
1F
100
AcDbEntity
  8
001
370
    50
100
AcDbLine
 10
442.470866
 20
297.883059
 30
0.0
 11
459.262661
 21
297.883059
 31
0.0
  0
POLYLINE
  5
82E
330
1F
100
AcDbEntity
  8
001
370
    50
100
AcDb2dPolyline
 66
     1
 10
0.0
 20
0.0
 30
0.0
  0
VERTEX
  5
830
330
82E
100
AcDbEntity
  8
001
370
    50
100
AcDbVertex
100
AcDb2dVertex
 10
458.423213
 20
297.683059
 30
0.0
  0
VERTEX
  5
831
330
82E
100
AcDbEntity
  8
001
370
    50
100
AcDbVertex
100
AcDb2dVertex
 10
458.256523
 20
297.079177
 30
0.0
  0
VERTEX
  5
832
330
82E
100
AcDbEntity
  8
001
370
    50
100
AcDbVertex
100
AcDb2dVertex
 10
458.014185
 20
296.196228
 30
0.0
  0
VERTEX
  5
833
330
82E
100
AcDbEntity
  8
001
370
    50
100
AcDbVertex
100
AcDb2dVertex
 10
457.77363
 20
295.31277
 30
0.0
  0
VERTEX
  5
834
330
82E
100
AcDbEntity
  8
001
370
    50
100
AcDbVertex
100
AcDb2dVertex
 10
457.609919
 20
294.708059
 30
0.0
  0
SEQEND
  5
82F
330
82E
100
AcDbEntity
  8
001
370
    50
  0
LINE
  5
835
330
1F
100
AcDbEntity
  8
001
370
    50
100
AcDbLine
 10
459.262661
 20
297.883059
 30
0.0
 11
459.209071
 21
297.683059
 31
0.0
  0
LINE
  5
836
330
1F
100
AcDbEntity
  8
001
370
    50
100
AcDbLine
 10
443.170866
 20
294.708059
 30
0.0
 11
457.609919
 21
294.708059
 31
0.0
  0
LINE
  5
837
330
1F
100
AcDbEntity
  8
001
370
    50
100
AcDbLine
 10
442.470866
 20
297.883059
 30
0.0
 11
443.170866
 21
294.708059
 31
0.0
  0
LINE
  5
838
330
1F
100
AcDbEntity
  8
001
370
    50
100
AcDbLine
 10
467.622143
 20
297.683059
 30
0.0
 11
458.423213
 21
297.683059
 31
0.0
  0
LINE
  5
839
330
1F
100
AcDbEntity
  8
001
370
    50
100
AcDbLine
 10
443.170866
 20
304.883059
 30
0.0
 11
443.170866
 21
297.883059
 31
0.0
  0
POLYLINE
  5
83A
330
1F
100
AcDbEntity
  8
001
370
    50
100
AcDb2dPolyline
 66
     1
 10
0.0
 20
0.0
 30
0.0
  0
VERTEX
  5
83C
330
83A
100
AcDbEntity
  8
001
370
    50
100
AcDbVertex
100
AcDb2dVertex
 10
444.643824
 20
297.883059
 30
0.0
  0
VERTEX
  5
83D
330
83A
100
AcDbEntity
  8
001
370
    50
100
AcDbVertex
100
AcDb2dVertex
 10
444.627993
 20
298.269004
 30
0.0
  0
VERTEX
  5
83E
330
83A
100
AcDbEntity
  8
001
370
    50
100
AcDbVertex
100
AcDb2dVertex
 10
444.611366
 20
298.654914
 30
0.0
  0
VERTEX
  5
83F
330
83A
100
AcDbEntity
  8
001
370
    50
100
AcDbVertex
100
AcDb2dVertex
 10
444.527734
 20
300.322146
 30
0.0
  0
VERTEX
  5
840
330
83A
100
AcDbEntity
  8
001
370
    50
100
AcDbVertex
100
AcDb2dVertex
 10
444.427923
 20
301.988523
 30
0.0
  0
VERTEX
  5
841
330
83A
100
AcDbEntity
  8
001
370
    50
100
AcDbVertex
100
AcDb2dVertex
 10
444.316053
 20
303.654159
 30
0.0
  0
VERTEX
  5
842
330
83A
100
AcDbEntity
  8
001
370
    50
100
AcDbVertex
100
AcDb2dVertex
 10
444.194554
 20
305.319107
 30
0.0
  0
VERTEX
  5
843
330
83A
100
AcDbEntity
  8
001
370
    50
100
AcDbVertex
100
AcDb2dVertex
 10
444.020522
 20
307.539282
 30
0.0
  0
VERTEX
  5
844
330
83A
100
AcDbEntity
  8
001
370
    50
100
AcDbVertex
100
AcDb2dVertex
 10
443.835143
 20
309.758556
 30
0.0
  0
VERTEX
  5
845
330
83A
100
AcDbEntity
  8
001
370
    50
100
AcDbVertex
100
AcDb2dVertex
 10
443.640645
 20
311.977055
 30
0.0
  0
VERTEX
  5
846
330
83A
100
AcDbEntity
  8
001
370
    50
100
AcDbVertex
100
AcDb2dVertex
 10
443.478149
 20
313.772156
 30
0.0
  0
VERTEX
  5
847
330
83A
100
AcDbEntity
  8
001
370
    50
100
AcDbVertex
100
AcDb2dVertex
 10
443.31275
 20
315.566983
 30
0.0
  0
VERTEX
  5
848
330
83A
100
AcDbEntity
  8
001
370
    50
100
AcDbVertex
100
AcDb2dVertex
 10
443.250749
 20
316.236057
 30
0.0
  0
VERTEX
  5
849
330
83A
100
AcDbEntity
  8
001
370
    50
100
AcDbVertex
100
AcDb2dVertex
 10
443.188748
 20
316.905131
 30
0.0
  0
SEQEND
  5
83B
330
83A
100
AcDbEntity
  8
001
370
    50
  0
LINE
  5
84A
330
1F
100
AcDbEntity
  8
001
370
    50
100
AcDbLine
 10
443.170866
 20
294.708059
 30
0.0
 11
443.170866
 21
280.883059
 31
0.0
  0
POLYLINE
  5
84B
330
1F
100
AcDbEntity
  8
001
370
    50
100
AcDb2dPolyline
 66
     1
 10
0.0
 20
0.0
 30
0.0
  0
VERTEX
  5
84D
330
84B
100
AcDbEntity
  8
001
370
    50
100
AcDbVertex
100
AcDb2dVertex
 10
467.470866
 20
304.836379
 30
0.0
  0
VERTEX
  5
84E
330
84B
100
AcDbEntity
  8
001
370
    50
100
AcDbVertex
100
AcDb2dVertex
 10
467.470909
 20
304.794265
 30
0.0
  0
VERTEX
  5
84F
330
84B
100
AcDbEntity
  8
001
370
    50
100
AcDbVertex
100
AcDb2dVertex
 10
467.470978
 20
304.75215
 30
0.0
  0
VERTEX
  5
850
330
84B
100
AcDbEntity
  8
001
370
    50
100
AcDbVertex
100
AcDb2dVertex
 10
467.479289
 20
304.028462
 30
0.0
  0
VERTEX
  5
851
330
84B
100
AcDbEntity
  8
001
370
    50
100
AcDbVertex
100
AcDb2dVertex
 10
467.49799
 20
303.30493
 30
0.0
  0
VERTEX
  5
852
330
84B
100
AcDbEntity
  8
001
370
    50
100
AcDbVertex
100
AcDb2dVertex
 10
467.522295
 20
302.587337
 30
0.0
  0
VERTEX
  5
853
330
84B
100
AcDbEntity
  8
001
370
    50
100
AcDbVertex
100
AcDb2dVertex
 10
467.548269
 20
301.869809
 30
0.0
  0
VERTEX
  5
854
330
84B
100
AcDbEntity
  8
001
370
    50
100
AcDbVertex
100
AcDb2dVertex
 10
467.593085
 20
300.438176
 30
0.0
  0
VERTEX
  5
855
330
84B
100
AcDbEntity
  8
001
370
    50
100
AcDbVertex
100
AcDb2dVertex
 10
467.619768
 20
299.006133
 30
0.0
  0
VERTEX
  5
856
330
84B
100
AcDbEntity
  8
001
370
    50
100
AcDbVertex
100
AcDb2dVertex
 10
467.623666
 20
298.344609
 30
0.0
  0
VERTEX
  5
857
330
84B
100
AcDbEntity
  8
001
370
    50
100
AcDbVertex
100
AcDb2dVertex
 10
467.622143
 20
297.683059
 30
0.0
  0
SEQEND
  5
84C
330
84B
100
AcDbEntity
  8
001
370
    50
  0
LINE
  5
858
330
1F
100
AcDbEntity
  8
001
370
    50
100
AcDbLine
 10
442.470866
 20
287.883059
 30
0.0
 11
443.170866
 21
291.058059
 31
0.0
  0
LINE
  5
859
330
1F
100
AcDbEntity
  8
001
370
    50
100
AcDbLine
 10
442.470866
 20
287.883059
 30
0.0
 11
443.170866
 21
287.883059
 31
0.0
  0
LINE
  5
85A
330
1F
100
AcDbEntity
  8
001
370
    50
100
AcDbLine
 10
442.470866
 20
390.543639
 30
0.0
 11
459.262661
 21
390.543639
 31
0.0
  0
POLYLINE
  5
85B
330
1F
100
AcDbEntity
  8
001
370
    50
100
AcDb2dPolyline
 66
     1
 10
0.0
 20
0.0
 30
0.0
  0
VERTEX
  5
85D
330
85B
100
AcDbEntity
  8
001
370
    50
100
AcDbVertex
100
AcDb2dVertex
 10
458.423213
 20
390.343639
 30
0.0
  0
VERTEX
  5
85E
330
85B
100
AcDbEntity
  8
001
370
    50
100
AcDbVertex
100
AcDb2dVertex
 10
458.256523
 20
389.739757
 30
0.0
  0
VERTEX
  5
85F
330
85B
100
AcDbEntity
  8
001
370
    50
100
AcDbVertex
100
AcDb2dVertex
 10
458.014185
 20
388.856808
 30
0.0
  0
VERTEX
  5
860
330
85B
100
AcDbEntity
  8
001
370
    50
100
AcDbVertex
100
AcDb2dVertex
 10
457.77363
 20
387.97335
 30
0.0
  0
VERTEX
  5
861
330
85B
100
AcDbEntity
  8
001
370
    50
100
AcDbVertex
100
AcDb2dVertex
 10
457.609919
 20
387.368639
 30
0.0
  0
SEQEND
  5
85C
330
85B
100
AcDbEntity
  8
001
370
    50
  0
LINE
  5
862
330
1F
100
AcDbEntity
  8
001
370
    50
100
AcDbLine
 10
459.262661
 20
390.543639
 30
0.0
 11
459.209071
 21
390.343639
 31
0.0
  0
LINE
  5
863
330
1F
100
AcDbEntity
  8
001
370
    50
100
AcDbLine
 10
467.622143
 20
390.343639
 30
0.0
 11
458.423213
 21
390.343639
 31
0.0
  0
LINE
  5
864
330
1F
100
AcDbEntity
  8
001
370
    50
100
AcDbLine
 10
442.470866
 20
390.543639
 30
0.0
 11
459.262661
 21
390.543639
 31
0.0
  0
POLYLINE
  5
865
330
1F
100
AcDbEntity
  8
001
370
    50
100
AcDb2dPolyline
 66
     1
 10
0.0
 20
0.0
 30
0.0
  0
VERTEX
  5
867
330
865
100
AcDbEntity
  8
001
370
    50
100
AcDbVertex
100
AcDb2dVertex
 10
458.423213
 20
390.343639
 30
0.0
  0
VERTEX
  5
868
330
865
100
AcDbEntity
  8
001
370
    50
100
AcDbVertex
100
AcDb2dVertex
 10
458.256523
 20
389.739757
 30
0.0
  0
VERTEX
  5
869
330
865
100
AcDbEntity
  8
001
370
    50
100
AcDbVertex
100
AcDb2dVertex
 10
458.014185
 20
388.856808
 30
0.0
  0
VERTEX
  5
86A
330
865
100
AcDbEntity
  8
001
370
    50
100
AcDbVertex
100
AcDb2dVertex
 10
457.77363
 20
387.97335
 30
0.0
  0
VERTEX
  5
86B
330
865
100
AcDbEntity
  8
001
370
    50
100
AcDbVertex
100
AcDb2dVertex
 10
457.609919
 20
387.368639
 30
0.0
  0
SEQEND
  5
866
330
865
100
AcDbEntity
  8
001
370
    50
  0
LINE
  5
86C
330
1F
100
AcDbEntity
  8
001
370
    50
100
AcDbLine
 10
459.262661
 20
390.543639
 30
0.0
 11
459.209071
 21
390.343639
 31
0.0
  0
LINE
  5
86D
330
1F
100
AcDbEntity
  8
001
370
    50
100
AcDbLine
 10
443.170866
 20
387.368639
 30
0.0
 11
457.609919
 21
387.368639
 31
0.0
  0
LINE
  5
86E
330
1F
100
AcDbEntity
  8
001
370
    50
100
AcDbLine
 10
442.470866
 20
390.543639
 30
0.0
 11
443.170866
 21
387.368639
 31
0.0
  0
LINE
  5
86F
330
1F
100
AcDbEntity
  8
001
370
    50
100
AcDbLine
 10
467.622143
 20
390.343639
 30
0.0
 11
458.423213
 21
390.343639
 31
0.0
  0
LINE
  5
870
330
1F
100
AcDbEntity
  8
001
370
    50
100
AcDbLine
 10
442.470866
 20
380.543639
 30
0.0
 11
443.170866
 21
383.718639
 31
0.0
  0
LINE
  5
871
330
1F
100
AcDbEntity
  8
001
370
    50
100
AcDbLine
 10
442.470866
 20
380.543639
 30
0.0
 11
443.170866
 21
380.543639
 31
0.0
  0
LINE
  5
872
330
1F
100
AcDbEntity
  8
001
370
    50
100
AcDbLine
 10
443.170866
 20
397.543639
 30
0.0
 11
443.170866
 21
390.543639
 31
0.0
  0
POLYLINE
  5
873
330
1F
100
AcDbEntity
  8
001
370
    50
100
AcDb2dPolyline
 66
     1
 10
0.0
 20
0.0
 30
0.0
  0
VERTEX
  5
875
330
873
100
AcDbEntity
  8
001
370
    50
100
AcDbVertex
100
AcDb2dVertex
 10
444.643824
 20
390.543639
 30
0.0
  0
VERTEX
  5
876
330
873
100
AcDbEntity
  8
001
370
    50
100
AcDbVertex
100
AcDb2dVertex
 10
444.627993
 20
390.929584
 30
0.0
  0
VERTEX
  5
877
330
873
100
AcDbEntity
  8
001
370
    50
100
AcDbVertex
100
AcDb2dVertex
 10
444.611366
 20
391.315495
 30
0.0
  0
VERTEX
  5
878
330
873
100
AcDbEntity
  8
001
370
    50
100
AcDbVertex
100
AcDb2dVertex
 10
444.527734
 20
392.982726
 30
0.0
  0
VERTEX
  5
879
330
873
100
AcDbEntity
  8
001
370
    50
100
AcDbVertex
100
AcDb2dVertex
 10
444.427923
 20
394.649104
 30
0.0
  0
VERTEX
  5
87A
330
873
100
AcDbEntity
  8
001
370
    50
100
AcDbVertex
100
AcDb2dVertex
 10
444.316053
 20
396.31474
 30
0.0
  0
VERTEX
  5
87B
330
873
100
AcDbEntity
  8
001
370
    50
100
AcDbVertex
100
AcDb2dVertex
 10
444.194554
 20
397.979688
 30
0.0
  0
VERTEX
  5
87C
330
873
100
AcDbEntity
  8
001
370
    50
100
AcDbVertex
100
AcDb2dVertex
 10
444.020522
 20
400.199863
 30
0.0
  0
VERTEX
  5
87D
330
873
100
AcDbEntity
  8
001
370
    50
100
AcDbVertex
100
AcDb2dVertex
 10
443.835143
 20
402.419136
 30
0.0
  0
VERTEX
  5
87E
330
873
100
AcDbEntity
  8
001
370
    50
100
AcDbVertex
100
AcDb2dVertex
 10
443.640645
 20
404.637635
 30
0.0
  0
VERTEX
  5
87F
330
873
100
AcDbEntity
  8
001
370
    50
100
AcDbVertex
100
AcDb2dVertex
 10
443.478149
 20
406.432736
 30
0.0
  0
VERTEX
  5
880
330
873
100
AcDbEntity
  8
001
370
    50
100
AcDbVertex
100
AcDb2dVertex
 10
443.31275
 20
408.227564
 30
0.0
  0
VERTEX
  5
881
330
873
100
AcDbEntity
  8
001
370
    50
100
AcDbVertex
100
AcDb2dVertex
 10
443.250749
 20
408.896637
 30
0.0
  0
VERTEX
  5
882
330
873
100
AcDbEntity
  8
001
370
    50
100
AcDbVertex
100
AcDb2dVertex
 10
443.188748
 20
409.565711
 30
0.0
  0
SEQEND
  5
874
330
873
100
AcDbEntity
  8
001
370
    50
  0
LINE
  5
883
330
1F
100
AcDbEntity
  8
001
370
    50
100
AcDbLine
 10
443.170866
 20
387.368639
 30
0.0
 11
443.170866
 21
373.543639
 31
0.0
  0
ENDSEC
  0
SECTION
  2
OBJECTS
  0
DICTIONARY
  5
C
330
0
100
AcDbDictionary
281
     1
  3
ACAD_GROUP
350
D
  3
ACAD_LAYOUT
350
1A
  3
ACAD_MLEADERSTYLE
350
887
  3
ACAD_MLINESTYLE
350
17
  3
ACAD_PLOTSETTINGS
350
19
  3
ACAD_PLOTSTYLENAME
350
E
  3
ACAD_SCALELIST
350
3B
  3
ACAD_TABLESTYLE
350
886
  3
ACAD_VISUALSTYLE
350
2A
  3
AcDbVariableDictionary
350
884
  0
DICTIONARY
  5
D
102
{ACAD_REACTORS
330
C
102
}
330
C
100
AcDbDictionary
281
     1
  0
DICTIONARY
  5
1A
102
{ACAD_REACTORS
330
C
102
}
330
C
100
AcDbDictionary
281
     1
  3
Layout1
350
1E
  3
Layout2
350
26
  3
Model
350
22
  0
DICTIONARY
  5
887
102
{ACAD_REACTORS
330
C
102
}
330
C
100
AcDbDictionary
281
     1
  0
DICTIONARY
  5
17
102
{ACAD_REACTORS
330
C
102
}
330
C
100
AcDbDictionary
281
     1
  3
Standard
350
18
  0
DICTIONARY
  5
19
102
{ACAD_REACTORS
330
C
102
}
330
C
100
AcDbDictionary
281
     1
  0
ACDBDICTIONARYWDFLT
  5
E
102
{ACAD_REACTORS
330
C
102
}
330
C
100
AcDbDictionary
281
     1
  3
Normal
350
F
100
AcDbDictionaryWithDefault
340
F
  0
DICTIONARY
  5
3B
102
{ACAD_REACTORS
330
C
102
}
330
C
100
AcDbDictionary
281
     1
  3
A0
350
3C
  3
A1
350
3D
  3
A2
350
3E
  3
A3
350
3F
  3
A4
350
40
  3
A5
350
41
  3
A6
350
42
  3
A7
350
43
  3
A8
350
44
  3
A9
350
45
  3
B0
350
46
  3
B1
350
47
  3
B2
350
48
  3
B3
350
49
  3
B4
350
4A
  3
B5
350
4B
  3
B6
350
4C
  3
B7
350
4D
  3
B8
350
4E
  3
B9
350
4F
  3
C0
350
50
  3
C1
350
51
  3
C2
350
52
  3
C3
350
53
  3
C4
350
54
  3
C5
350
55
  3
C6
350
56
  3
C7
350
57
  3
C8
350
58
  3
C9
350
59
  3
D0
350
5A
  3
D1
350
5B
  3
D2
350
5C
  0
DICTIONARY
  5
886
102
{ACAD_REACTORS
330
C
102
}
330
C
100
AcDbDictionary
281
     1
  0
DICTIONARY
  5
2A
102
{ACAD_REACTORS
330
C
102
}
330
C
100
AcDbDictionary
281
     1
  3
2dWireframe
350
2F
  3
3D Hidden
350
31
  3
3dWireframe
350
30
  3
Basic
350
32
  3
Brighten
350
36
  3
ColorChange
350
3A
  3
Conceptual
350
34
  3
Dim
350
35
  3
Facepattern
350
39
  3
Flat
350
2B
  3
FlatWithEdges
350
2C
  3
Gouraud
350
2D
  3
GouraudWithEdges
350
2E
  3
Linepattern
350
38
  3
Realistic
350
33
  3
Thicken
350
37
  0
DICTIONARY
  5
884
102
{ACAD_REACTORS
330
C
102
}
330
C
100
AcDbDictionary
281
     1
  3
CANNOSCALE
350
885
  3
PSOLHEIGHT
350
889
  3
PSOLWIDTH
350
888
  0
LAYOUT
  5
1E
102
{ACAD_REACTORS
330
1A
102
}
330
1A
100
AcDbPlotSettings
  1

  2
none_device
  4

  6

 40
0.0
 41
0.0
 42
0.0
 43
0.0
 44
0.0
 45
0.0
 46
0.0
 47
0.0
 48
0.0
 49
0.0
140
0.0
141
0.0
142
1.0
143
1.0
 70
   688
 72
     0
 73
     0
 74
     5
  7

 75
    16
147
1.0
148
0.0
149
0.0
100
AcDbLayout
  1
Layout1
 70
     1
 71
     1
 10
0.0
 20
0.0
 11
12.0
 21
9.0
 12
0.0
 22
0.0
 32
0.0
 14
1.000000E+20
 24
1.000000E+20
 34
0.0
 15
-1.000000E+20
 25
-1.000000E+20
 35
0.0
146
0.0
 13
0.0
 23
0.0
 33
0.0
 16
1.0
 26
0.0
 36
0.0
 17
0.0
 27
1.0
 37
0.0
 76
     0
330
1B
  0
LAYOUT
  5
26
102
{ACAD_REACTORS
330
1A
102
}
330
1A
100
AcDbPlotSettings
  1

  2
none_device
  4

  6

 40
0.0
 41
0.0
 42
0.0
 43
0.0
 44
0.0
 45
0.0
 46
0.0
 47
0.0
 48
0.0
 49
0.0
140
0.0
141
0.0
142
1.0
143
1.0
 70
   688
 72
     0
 73
     0
 74
     5
  7

 75
    16
147
1.0
148
0.0
149
0.0
100
AcDbLayout
  1
Layout2
 70
     1
 71
     2
 10
0.0
 20
0.0
 11
0.0
 21
0.0
 12
0.0
 22
0.0
 32
0.0
 14
0.0
 24
0.0
 34
0.0
 15
0.0
 25
0.0
 35
0.0
146
0.0
 13
0.0
 23
0.0
 33
0.0
 16
1.0
 26
0.0
 36
0.0
 17
0.0
 27
1.0
 37
0.0
 76
     0
330
23
  0
LAYOUT
  5
22
102
{ACAD_REACTORS
330
1A
102
}
330
1A
100
AcDbPlotSettings
  1

  2
none_device
  4

  6

 40
0.0
 41
0.0
 42
0.0
 43
0.0
 44
0.0
 45
0.0
 46
0.0
 47
0.0
 48
0.0
 49
0.0
140
0.0
141
0.0
142
1.0
143
1.0
 70
  1712
 72
     0
 73
     0
 74
     0
  7

 75
     0
147
1.0
148
0.0
149
0.0
100
AcDbLayout
  1
Model
 70
     1
 71
     0
 10
0.0
 20
0.0
 11
12.0
 21
9.0
 12
0.0
 22
0.0
 32
0.0
 14
50.049194
 24
59.202911
 34
0.0
 15
492.256653
 25
415.62793
 35
0.0
146
0.0
 13
0.0
 23
0.0
 33
0.0
 16
1.0
 26
0.0
 36
0.0
 17
0.0
 27
1.0
 37
0.0
 76
     0
330
1F
331
29
  0
MLINESTYLE
  5
18
102
{ACAD_REACTORS
330
17
102
}
330
17
100
AcDbMlineStyle
  2
Standard
 70
     0
  3

 62
   256
 51
90.0
 52
90.0
 71
     2
 49
0.5
 62
   256
  6
BYLAYER
 49
-0.5
 62
   256
  6
BYLAYER
  0
ACDBPLACEHOLDER
  5
F
102
{ACAD_REACTORS
330
E
102
}
330
E
  0
SCALE
  5
3C
102
{ACAD_REACTORS
330
3B
102
}
330
3B
100
AcDbScale
 70
     0
300
1:1
140
1.0
141
1.0
290
     1
  0
SCALE
  5
3D
102
{ACAD_REACTORS
330
3B
102
}
330
3B
100
AcDbScale
 70
     0
300
1:2
140
1.0
141
2.0
290
     0
  0
SCALE
  5
3E
102
{ACAD_REACTORS
330
3B
102
}
330
3B
100
AcDbScale
 70
     0
300
1:4
140
1.0
141
4.0
290
     0
  0
SCALE
  5
3F
102
{ACAD_REACTORS
330
3B
102
}
330
3B
100
AcDbScale
 70
     0
300
1:5
140
1.0
141
5.0
290
     0
  0
SCALE
  5
40
102
{ACAD_REACTORS
330
3B
102
}
330
3B
100
AcDbScale
 70
     0
300
1:8
140
1.0
141
8.0
290
     0
  0
SCALE
  5
41
102
{ACAD_REACTORS
330
3B
102
}
330
3B
100
AcDbScale
 70
     0
300
1:10
140
1.0
141
10.0
290
     0
  0
SCALE
  5
42
102
{ACAD_REACTORS
330
3B
102
}
330
3B
100
AcDbScale
 70
     0
300
1:16
140
1.0
141
16.0
290
     0
  0
SCALE
  5
43
102
{ACAD_REACTORS
330
3B
102
}
330
3B
100
AcDbScale
 70
     0
300
1:20
140
1.0
141
20.0
290
     0
  0
SCALE
  5
44
102
{ACAD_REACTORS
330
3B
102
}
330
3B
100
AcDbScale
 70
     0
300
1:30
140
1.0
141
30.0
290
     0
  0
SCALE
  5
45
102
{ACAD_REACTORS
330
3B
102
}
330
3B
100
AcDbScale
 70
     0
300
1:40
140
1.0
141
40.0
290
     0
  0
SCALE
  5
46
102
{ACAD_REACTORS
330
3B
102
}
330
3B
100
AcDbScale
 70
     0
300
1:50
140
1.0
141
50.0
290
     0
  0
SCALE
  5
47
102
{ACAD_REACTORS
330
3B
102
}
330
3B
100
AcDbScale
 70
     0
300
1:100
140
1.0
141
100.0
290
     0
  0
SCALE
  5
48
102
{ACAD_REACTORS
330
3B
102
}
330
3B
100
AcDbScale
 70
     0
300
2:1
140
2.0
141
1.0
290
     0
  0
SCALE
  5
49
102
{ACAD_REACTORS
330
3B
102
}
330
3B
100
AcDbScale
 70
     0
300
4:1
140
4.0
141
1.0
290
     0
  0
SCALE
  5
4A
102
{ACAD_REACTORS
330
3B
102
}
330
3B
100
AcDbScale
 70
     0
300
8:1
140
8.0
141
1.0
290
     0
  0
SCALE
  5
4B
102
{ACAD_REACTORS
330
3B
102
}
330
3B
100
AcDbScale
 70
     0
300
10:1
140
10.0
141
1.0
290
     0
  0
SCALE
  5
4C
102
{ACAD_REACTORS
330
3B
102
}
330
3B
100
AcDbScale
 70
     0
300
100:1
140
100.0
141
1.0
290
     0
  0
SCALE
  5
4D
102
{ACAD_REACTORS
330
3B
102
}
330
3B
100
AcDbScale
 70
     0
300
1/128" = 1'-0"
140
0.007812
141
12.0
290
     0
  0
SCALE
  5
4E
102
{ACAD_REACTORS
330
3B
102
}
330
3B
100
AcDbScale
 70
     0
300
1/64" = 1'-0"
140
0.015625
141
12.0
290
     0
  0
SCALE
  5
4F
102
{ACAD_REACTORS
330
3B
102
}
330
3B
100
AcDbScale
 70
     0
300
1/32" = 1'-0"
140
0.03125
141
12.0
290
     0
  0
SCALE
  5
50
102
{ACAD_REACTORS
330
3B
102
}
330
3B
100
AcDbScale
 70
     0
300
1/16" = 1'-0"
140
0.0625
141
12.0
290
     0
  0
SCALE
  5
51
102
{ACAD_REACTORS
330
3B
102
}
330
3B
100
AcDbScale
 70
     0
300
3/32" = 1'-0"
140
0.09375
141
12.0
290
     0
  0
SCALE
  5
52
102
{ACAD_REACTORS
330
3B
102
}
330
3B
100
AcDbScale
 70
     0
300
1/8" = 1'-0"
140
0.125
141
12.0
290
     0
  0
SCALE
  5
53
102
{ACAD_REACTORS
330
3B
102
}
330
3B
100
AcDbScale
 70
     0
300
3/16" = 1'-0"
140
0.1875
141
12.0
290
     0
  0
SCALE
  5
54
102
{ACAD_REACTORS
330
3B
102
}
330
3B
100
AcDbScale
 70
     0
300
1/4" = 1'-0"
140
0.25
141
12.0
290
     0
  0
SCALE
  5
55
102
{ACAD_REACTORS
330
3B
102
}
330
3B
100
AcDbScale
 70
     0
300
3/8" = 1'-0"
140
0.375
141
12.0
290
     0
  0
SCALE
  5
56
102
{ACAD_REACTORS
330
3B
102
}
330
3B
100
AcDbScale
 70
     0
300
1/2" = 1'-0"
140
0.5
141
12.0
290
     0
  0
SCALE
  5
57
102
{ACAD_REACTORS
330
3B
102
}
330
3B
100
AcDbScale
 70
     0
300
3/4" = 1'-0"
140
0.75
141
12.0
290
     0
  0
SCALE
  5
58
102
{ACAD_REACTORS
330
3B
102
}
330
3B
100
AcDbScale
 70
     0
300
1" = 1'-0"
140
1.0
141
12.0
290
     0
  0
SCALE
  5
59
102
{ACAD_REACTORS
330
3B
102
}
330
3B
100
AcDbScale
 70
     0
300
1-1/2" = 1'-0"
140
1.5
141
12.0
290
     0
  0
SCALE
  5
5A
102
{ACAD_REACTORS
330
3B
102
}
330
3B
100
AcDbScale
 70
     0
300
3" = 1'-0"
140
3.0
141
12.0
290
     0
  0
SCALE
  5
5B
102
{ACAD_REACTORS
330
3B
102
}
330
3B
100
AcDbScale
 70
     0
300
6" = 1'-0"
140
6.0
141
12.0
290
     0
  0
SCALE
  5
5C
102
{ACAD_REACTORS
330
3B
102
}
330
3B
100
AcDbScale
 70
     0
300
1'-0" = 1'-0"
140
12.0
141
12.0
290
     0
  0
VISUALSTYLE
  5
2F
102
{ACAD_REACTORS
330
2A
102
}
330
2A
100
AcDbVisualStyle
  2
2dWireframe
 70
     4
 71
     0
 72
     2
 73
     0
 90
        0
 40
-0.6
 41
-30.0
 62
     5
 63
     7
 74
     1
 91
        4
 64
     7
 65
   257
 75
     1
175
     1
 42
1.0
 92
        0
 66
   257
 43
1.0
 76
     1
 77
     6
 78
     2
 67
     7
 79
     5
170
     0
171
     0
290
     0
174
     0
 93
        1
 44
0.0
173
     0
291
     0
 45
0.0
1001
ACAD
1000
AcDbSavedByObjectVersion
1070
     0
  0
VISUALSTYLE
  5
31
102
{ACAD_REACTORS
330
2A
102
}
330
2A
100
AcDbVisualStyle
  2
3D Hidden
 70
     6
 71
     1
 72
     2
 73
     2
 90
        0
 40
-0.6
 41
-30.0
 62
     5
 63
     7
 74
     2
 91
        2
 64
     7
 65
   257
 75
     2
175
     1
 42
40.0
 92
        0
 66
   257
 43
1.0
 76
     1
 77
     6
 78
     2
 67
     7
 79
     3
170
     0
171
     0
290
     0
174
     0
 93
        1
 44
0.0
173
     0
291
     0
 45
0.0
1001
ACAD
1000
AcDbSavedByObjectVersion
1070
     0
  0
VISUALSTYLE
  5
30
102
{ACAD_REACTORS
330
2A
102
}
330
2A
100
AcDbVisualStyle
  2
3dWireframe
 70
     5
 71
     0
 72
     2
 73
     0
 90
        0
 40
-0.6
 41
-30.0
 62
     5
 63
     7
 74
     1
 91
        4
 64
     7
 65
   257
 75
     1
175
     1
 42
1.0
 92
        0
 66
   257
 43
1.0
 76
     1
 77
     6
 78
     2
 67
     7
 79
     5
170
     0
171
     0
290
     0
174
     0
 93
        1
 44
0.0
173
     0
291
     0
 45
0.0
1001
ACAD
1000
AcDbSavedByObjectVersion
1070
     0
  0
VISUALSTYLE
  5
32
102
{ACAD_REACTORS
330
2A
102
}
330
2A
100
AcDbVisualStyle
  2
Basic
 70
     7
 71
     1
 72
     0
 73
     1
 90
        0
 40
-0.6
 41
-30.0
 62
     5
 63
     7
 74
     0
 91
        4
 64
     7
 65
   257
 75
     1
175
     1
 42
1.0
 92
        8
 66
     7
 43
1.0
 76
     1
 77
     6
 78
     2
 67
     7
 79
     5
170
     0
171
     0
290
     0
174
     0
 93
        1
 44
0.0
173
     0
291
     1
 45
0.0
1001
ACAD
1000
AcDbSavedByObjectVersion
1070
     0
  0
VISUALSTYLE
  5
36
102
{ACAD_REACTORS
330
2A
102
}
330
2A
100
AcDbVisualStyle
  2
Brighten
 70
    12
 71
     2
 72
     2
 73
     0
 90
        0
 40
-0.6
 41
-30.0
 62
     5
 63
     7
 74
     1
 91
        4
 64
     7
 65
   257
 75
     1
175
     1
 42
1.0
 92
        8
 66
     7
 43
1.0
 76
     1
 77
     6
 78
     2
 67
     7
 79
     5
170
     0
171
     0
290
     0
174
     0
 93
        1
 44
50.0
173
     0
291
     1
 45
0.0
1001
ACAD
1000
AcDbSavedByObjectVersion
1070
     0
  0
VISUALSTYLE
  5
3A
102
{ACAD_REACTORS
330
2A
102
}
330
2A
100
AcDbVisualStyle
  2
ColorChange
 70
    16
 71
     2
 72
     2
 73
     3
 90
        0
 40
-0.6
 41
-30.0
 62
     5
 63
     8
 74
     1
 91
        4
 64
     7
 65
   257
 75
     1
175
     1
 42
1.0
 92
        8
 66
     8
 43
1.0
 76
     1
 77
     6
 78
     2
 67
     7
 79
     5
170
     0
171
     0
290
     0
174
     0
 93
        1
 44
0.0
173
     0
291
     1
 45
0.0
1001
ACAD
1000
AcDbSavedByObjectVersion
1070
     0
  0
VISUALSTYLE
  5
34
102
{ACAD_REACTORS
330
2A
102
}
330
2A
100
AcDbVisualStyle
  2
Conceptual
 70
     9
 71
     3
 72
     2
 73
     0
 90
        0
 40
-0.6
 41
-30.0
 62
     5
 63
     7
 74
     2
 91
        2
 64
     7
 65
   257
 75
     1
175
     1
 42
40.0
 92
        8
 66
     7
 43
1.0
 76
     1
 77
     6
 78
     2
 67
     7
 79
     3
170
     0
171
     0
290
     0
174
     0
 93
        1
 44
0.0
173
     0
291
     0
 45
0.0
1001
ACAD
1000
AcDbSavedByObjectVersion
1070
     0
  0
VISUALSTYLE
  5
35
102
{ACAD_REACTORS
330
2A
102
}
330
2A
100
AcDbVisualStyle
  2
Dim
 70
    11
 71
     2
 72
     2
 73
     0
 90
        0
 40
-0.6
 41
-30.0
 62
     5
 63
     7
 74
     1
 91
        4
 64
     7
 65
   257
 75
     1
175
     1
 42
1.0
 92
        8
 66
     7
 43
1.0
 76
     1
 77
     6
 78
     2
 67
     7
 79
     5
170
     0
171
     0
290
     0
174
     0
 93
        1
 44
-50.0
173
     0
291
     1
 45
0.0
1001
ACAD
1000
AcDbSavedByObjectVersion
1070
     0
  0
VISUALSTYLE
  5
39
102
{ACAD_REACTORS
330
2A
102
}
330
2A
100
AcDbVisualStyle
  2
Facepattern
 70
    15
 71
     2
 72
     2
 73
     0
 90
        0
 40
-0.6
 41
-30.0
 62
     5
 63
     7
 74
     1
 91
        4
 64
     7
 65
   257
 75
     1
175
     1
 42
1.0
 92
        8
 66
     7
 43
1.0
 76
     1
 77
     6
 78
     2
 67
     7
 79
     5
170
     0
171
     0
290
     0
174
     0
 93
        1
 44
0.0
173
     0
291
     1
 45
0.0
1001
ACAD
1000
AcDbSavedByObjectVersion
1070
     0
  0
VISUALSTYLE
  5
2B
102
{ACAD_REACTORS
330
2A
102
}
330
2A
100
AcDbVisualStyle
  2
Flat
 70
     0
 71
     2
 72
     1
 73
     1
 90
        2
 40
-0.6
 41
30.0
 62
     5
 63
     7
 74
     0
 91
        4
 64
     7
 65
   257
 75
     1
175
     1
 42
1.0
 92
        8
 66
     7
 43
1.0
 76
     1
 77
     6
 78
     2
 67
     7
 79
     5
170
     0
171
     0
290
     0
174
     0
 93
       13
 44
0.0
173
     0
291
     1
 45
0.0
1001
ACAD
1000
AcDbSavedByObjectVersion
1070
     0
  0
VISUALSTYLE
  5
2C
102
{ACAD_REACTORS
330
2A
102
}
330
2A
100
AcDbVisualStyle
  2
FlatWithEdges
 70
     1
 71
     2
 72
     1
 73
     1
 90
        2
 40
-0.6
 41
30.0
 62
     5
 63
     7
 74
     1
 91
        4
 64
     7
 65
   257
 75
     1
175
     1
 42
1.0
 92
        0
 66
   257
 43
1.0
 76
     1
 77
     6
 78
     2
 67
     7
 79
     5
170
     0
171
     0
290
     0
174
     0
 93
       13
 44
0.0
173
     0
291
     1
 45
0.0
1001
ACAD
1000
AcDbSavedByObjectVersion
1070
     0
  0
VISUALSTYLE
  5
2D
102
{ACAD_REACTORS
330
2A
102
}
330
2A
100
AcDbVisualStyle
  2
Gouraud
 70
     2
 71
     2
 72
     2
 73
     1
 90
        2
 40
-0.6
 41
30.0
 62
     5
 63
     7
 74
     0
 91
        4
 64
     7
 65
   257
 75
     1
175
     1
 42
1.0
 92
        0
 66
     7
 43
1.0
 76
     1
 77
     6
 78
     2
 67
     7
 79
     5
170
     0
171
     0
290
     0
174
     0
 93
       13
 44
0.0
173
     0
291
     1
 45
0.0
1001
ACAD
1000
AcDbSavedByObjectVersion
1070
     0
  0
VISUALSTYLE
  5
2E
102
{ACAD_REACTORS
330
2A
102
}
330
2A
100
AcDbVisualStyle
  2
GouraudWithEdges
 70
     3
 71
     2
 72
     2
 73
     1
 90
        2
 40
-0.6
 41
30.0
 62
     5
 63
     7
 74
     1
 91
        4
 64
     7
 65
   257
 75
     1
175
     1
 42
1.0
 92
        0
 66
   257
 43
1.0
 76
     1
 77
     6
 78
     2
 67
     7
 79
     5
170
     0
171
     0
290
     0
174
     0
 93
       13
 44
0.0
173
     0
291
     1
 45
0.0
1001
ACAD
1000
AcDbSavedByObjectVersion
1070
     0
  0
VISUALSTYLE
  5
38
102
{ACAD_REACTORS
330
2A
102
}
330
2A
100
AcDbVisualStyle
  2
Linepattern
 70
    14
 71
     2
 72
     2
 73
     0
 90
        0
 40
-0.6
 41
-30.0
 62
     5
 63
     7
 74
     1
 91
        4
 64
     7
 65
   257
 75
     7
175
     7
 42
1.0
 92
        8
 66
     7
 43
1.0
 76
     1
 77
     6
 78
     2
 67
     7
 79
     5
170
     0
171
     0
290
     0
174
     0
 93
        1
 44
0.0
173
     0
291
     1
 45
0.0
1001
ACAD
1000
AcDbSavedByObjectVersion
1070
     0
  0
VISUALSTYLE
  5
33
102
{ACAD_REACTORS
330
2A
102
}
330
2A
100
AcDbVisualStyle
  2
Realistic
 70
     8
 71
     2
 72
     2
 73
     0
 90
        0
 40
-0.6
 41
-30.0
 62
     5
 63
     7
 74
     1
 91
        0
 64
     7
 65
   257
 75
     1
175
     1
 42
1.0
 92
        8
 66
     8
 43
1.0
 76
     1
 77
     6
 78
     2
 67
     7
 79
     5
170
     0
171
     0
290
     0
174
     0
 93
       13
 44
0.0
173
     0
291
     0
 45
0.0
1001
ACAD
1000
AcDbSavedByObjectVersion
1070
     0
  0
VISUALSTYLE
  5
37
102
{ACAD_REACTORS
330
2A
102
}
330
2A
100
AcDbVisualStyle
  2
Thicken
 70
    13
 71
     2
 72
     2
 73
     0
 90
        0
 40
-0.6
 41
-30.0
 62
     5
 63
     7
 74
     1
 91
        4
 64
     7
 65
   257
 75
     1
175
     1
 42
1.0
 92
       12
 66
     7
 43
1.0
 76
     1
 77
     6
 78
     2
 67
     7
 79
     5
170
     0
171
     0
290
     0
174
     0
 93
        1
 44
0.0
173
     0
291
     1
 45
0.0
1001
ACAD
1000
AcDbSavedByObjectVersion
1070
     0
  0
DICTIONARYVAR
  5
885
102
{ACAD_REACTORS
330
884
102
}
330
884
100
DictionaryVariables
280
     0
  1
1:1
  0
DICTIONARYVAR
  5
889
102
{ACAD_REACTORS
330
884
102
}
330
884
100
DictionaryVariables
280
     0
  1
80.000000
  0
DICTIONARYVAR
  5
888
102
{ACAD_REACTORS
330
884
102
}
330
884
100
DictionaryVariables
280
     0
  1
5.000000
  0
ENDSEC
  0
EOF
