  0
SECTION
  2
HEADER
  9
$ACADVER
  1
AC1009
  9
$INSBASE
 10
0.0
 20
0.0
 30
0.0
  9
$EXTMIN
 10
26.473434000000001
 20
-0.496563
 30
0.0
  9
$EXTMAX
 10
634.008466
 20
457.69674300000048
 30
0.0
  9
$LIMMIN
 10
0.0
 20
0.0
  9
$LIMMAX
 10
12.0
 20
9.0
  9
$ORTHOMODE
 70
     0
  9
$REGENMODE
 70
     1
  9
$FILLMODE
 70
     1
  9
$QTEXTMODE
 70
     0
  9
$MIRRTEXT
 70
     1
  9
$DRAGMODE
 70
     2
  9
$LTSCALE
 40
7.6094669999999986
  9
$OSMODE
 70
  2999
  9
$ATTMODE
 70
     1
  9
$TEXTSIZE
 40
0.2
  9
$TRACEWID
 40
1.0
  9
$TEXTSTYLE
  7
STANDARD
  9
$CLAYER
  8
0
  9
$CELTYPE
  6
BYLAYER
  9
$CECOLOR
 62
   256
  9
$DIMSCALE
 40
1.0
  9
$DIMASZ
 40
2.5
  9
$DIMEXO
 40
0.625
  9
$DIMDLI
 40
3.75
  9
$DIMRND
 40
0.0
  9
$DIMDLE
 40
0.0
  9
$DIMEXE
 40
1.25
  9
$DIMTP
 40
0.0
  9
$DIMTM
 40
0.0
  9
$DIMTXT
 40
2.5
  9
$DIMCEN
 40
0.09
  9
$DIMTSZ
 40
0.0
  9
$DIMTOL
 70
     0
  9
$DIMLIM
 70
     0
  9
$DIMTIH
 70
     0
  9
$DIMTOH
 70
     0
  9
$DIMSE1
 70
     0
  9
$DIMSE2
 70
     0
  9
$DIMTAD
 70
     0
  9
$DIMZIN
 70
     8
  9
$DIMBLK
  1

  9
$DIMASO
 70
     1
  9
$DIMSHO
 70
     0
  9
$DIMPOST
  1

  9
$DIMAPOST
  1

  9
$DIMALT
 70
     0
  9
$DIMALTD
 70
     3
  9
$DIMALTF
 40
0.03937
  9
$DIMLFAC
 40
1.0
  9
$DIMTOFL
 70
     1
  9
$DIMTVP
 40
0.0
  9
$DIMTIX
 70
     0
  9
$DIMSOXD
 70
     0
  9
$DIMSAH
 70
     0
  9
$DIMBLK1
  1

  9
$DIMBLK2
  1

  9
$DIMSTYLE
  2
ISO-25
  9
$DIMCLRD
 70
     0
  9
$DIMCLRE
 70
     0
  9
$DIMCLRT
 70
     0
  9
$DIMTFAC
 40
1.0
  9
$DIMGAP
 40
0.625
  9
$LUNITS
 70
     2
  9
$LUPREC
 70
     4
  9
$SKETCHINC
 40
1.0
  9
$FILLETRAD
 40
0.0
  9
$AUNITS
 70
     0
  9
$AUPREC
 70
     0
  9
$MENU
  1
.
  9
$ELEVATION
 40
0.0
  9
$PELEVATION
 40
0.0
  9
$THICKNESS
 40
0.0
  9
$LIMCHECK
 70
     0
  9
$BLIPMODE
 70
     0
  9
$CHAMFERA
 40
10.0
  9
$CHAMFERB
 40
10.0
  9
$SKPOLY
 70
     0
  9
$TDCREATE
 40
2454764.4028927889
  9
$TDUPDATE
 40
2454764.4126238772
  9
$TDINDWG
 40
0.0009317245
  9
$TDUSRTIMER
 40
0.0009315509
  9
$USRTIMER
 70
     1
  9
$ANGBASE
 50
0.0
  9
$ANGDIR
 70
     0
  9
$PDMODE
 70
     0
  9
$PDSIZE
 40
0.0
  9
$PLINEWID
 40
0.0
  9
$COORDS
 70
     2
  9
$SPLFRAME
 70
     0
  9
$SPLINETYPE
 70
     6
  9
$SPLINESEGS
 70
     8
  9
$ATTDIA
 70
     0
  9
$ATTREQ
 70
     1
  9
$HANDLING
 70
     1
  9
$HANDSEED
  5
E74
  9
$SURFTAB1
 70
     6
  9
$SURFTAB2
 70
     6
  9
$SURFTYPE
 70
     6
  9
$SURFU
 70
     6
  9
$SURFV
 70
     6
  9
$UCSNAME
  2

  9
$UCSORG
 10
0.0
 20
0.0
 30
0.0
  9
$UCSXDIR
 10
1.0
 20
0.0
 30
0.0
  9
$UCSYDIR
 10
0.0
 20
1.0
 30
0.0
  9
$PUCSNAME
  2

  9
$PUCSORG
 10
0.0
 20
0.0
 30
0.0
  9
$PUCSXDIR
 10
1.0
 20
0.0
 30
0.0
  9
$PUCSYDIR
 10
0.0
 20
1.0
 30
0.0
  9
$USERI1
 70
     0
  9
$USERI2
 70
     0
  9
$USERI3
 70
     0
  9
$USERI4
 70
     0
  9
$USERI5
 70
     0
  9
$USERR1
 40
0.0
  9
$USERR2
 40
0.0
  9
$USERR3
 40
0.0
  9
$USERR4
 40
0.0
  9
$USERR5
 40
0.0
  9
$WORLDVIEW
 70
     1
  9
$SHADEDGE
 70
     3
  9
$SHADEDIF
 70
    70
  9
$TILEMODE
 70
     1
  9
$MAXACTVP
 70
    64
  9
$PLIMCHECK
 70
     0
  9
$PEXTMIN
 10
1.0000000000000000E+020
 20
1.0000000000000000E+020
 30
0.0
  9
$PEXTMAX
 10
-1.0000000000000000E+020
 20
-1.0000000000000000E+020
 30
0.0
  9
$PLIMMIN
 10
0.0
 20
0.0
  9
$PLIMMAX
 10
12.0
 20
9.0
  9
$UNITMODE
 70
     0
  9
$VISRETAIN
 70
     1
  9
$PLINEGEN
 70
     0
  9
$PSLTSCALE
 70
     1
  0
ENDSEC
  0
SECTION
  2
TABLES
  0
TABLE
  2
VPORT
 70
     2
  0
VPORT
  2
*ACTIVE
 70
     0
 10
0.0
 20
0.0
 11
1.0
 21
1.0
 12
300.0219108117825
 22
200.82320818355109
 13
0.0
 23
0.0
 14
1.0
 24
1.0
 15
0.0
 25
0.0
 16
0.0
 26
0.0
 36
1.0
 17
0.0
 27
0.0
 37
0.0
 40
829.45749192145547
 41
1.474874371859296
 42
50.0
 43
0.0
 44
0.0
 50
0.0
 51
0.0
 71
     0
 72
   100
 73
     1
 74
     3
 75
     0
 76
     0
 77
     0
 78
     0
  0
ENDTAB
  0
TABLE
  2
LTYPE
 70
     5
  0
LTYPE
  2
CONTINUOUS
 70
     0
  3
Solid line
 72
    65
 73
     0
 40
0.0
  0
LTYPE
  2
DASHED
 70
     0
  3
DASHED
 72
    83
 73
     2
 40
0.75
 49
0.5
 49
-0.25
  0
LTYPE
  2
HIDDEN
 70
     0
  3
HIDDEN
 72
    83
 73
     2
 40
0.375
 49
0.25
 49
-0.125
  0
LTYPE
  2
CENTER
 70
     0
  3
CENTER
 72
    83
 73
     4
 40
2.0
 49
1.25
 49
-0.25
 49
0.25
 49
-0.25
  0
LTYPE
  2
PHANTOM
 70
     0
  3
PHANTOM
 72
    83
 73
     6
 40
2.5
 49
1.25
 49
-0.25
 49
0.25
 49
-0.25
 49
0.25
 49
-0.25
  0
ENDTAB
  0
TABLE
  2
LAYER
 70
     2
  0
LAYER
  2
0
 70
     0
 62
     7
  6
CONTINUOUS
  0
LAYER
  2
001
 70
     0
 62
     7
  6
CONTINUOUS
  0
ENDTAB
  0
TABLE
  2
STYLE
 70
     2
  0
STYLE
  2
STANDARD
 70
     0
 40
0.0
 41
1.0
 50
0.0
 71
     0
 42
0.2
  3
TXT
  4
BIGFONT
  0
STYLE
  2
TATEGAKI
 70
     4
 40
1.0
 41
1.0
 50
0.0
 71
     0
 42
0.2
  3
TXT
  4
BIGFONT
  0
ENDTAB
  0
TABLE
  2
VIEW
 70
     0
  0
ENDTAB
  0
TABLE
  2
UCS
 70
     0
  0
ENDTAB
  0
TABLE
  2
APPID
 70
     1
  0
APPID
  2
ACAD
 70
     0
  0
ENDTAB
  0
TABLE
  2
DIMSTYLE
 70
     2
  0
DIMSTYLE
  2
ISO-25
 70
     0
  3

  4

  5

  6

  7

 40
1.0
 41
2.5
 42
0.625
 43
3.75
 44
1.25
 45
0.0
 46
0.0
 47
0.0
 48
0.0
140
2.5
141
2.5
142
0.0
143
0.03937
144
1.0
145
0.0
146
1.0
147
0.625
 71
     0
 72
     0
 73
     0
 74
     0
 75
     0
 76
     0
 77
     1
 78
     8
170
     0
171
     3
172
     1
173
     0
174
     0
175
     0
176
     0
177
     0
178
     0
  0
DIMSTYLE
  2
STANDARD
 70
     0
  3

  4

  5

  6

  7

 40
1.0
 41
1.5
 42
0.0
 43
0.38
 44
2.75
 45
0.0
 46
0.0
 47
0.0
 48
0.0
140
4.0
141
0.09
142
0.0
143
25.399999999999999
144
1.0
145
0.0
146
0.8
147
1.0
 71
     0
 72
     0
 73
     0
 74
     0
 75
     0
 76
     0
 77
     1
 78
     8
170
     0
171
     2
172
     1
173
     0
174
     0
175
     0
176
     0
177
     0
178
     0
  0
ENDTAB
  0
ENDSEC
  0
SECTION
  2
BLOCKS
  0
BLOCK
  8
0
  2
$MODEL_SPACE
 70
     0
 10
0.0
 20
0.0
 30
0.0
  3
$MODEL_SPACE
  1

  0
ENDBLK
  5
21
  8
0
  0
BLOCK
 67
     1
  8
0
  2
$PAPER_SPACE
 70
     0
 10
0.0
 20
0.0
 30
0.0
  3
$PAPER_SPACE
  1

  0
ENDBLK
  5
1D
 67
     1
  8
0
  0
BLOCK
  8
0
  2
*D1
 70
     1
 10
0.0
 20
0.0
 30
0.0
  3
*D1
  1

  0
LINE
  5
67
  8
001
 10
96.973434000000012
 20
40.724827000000012
 30
0.0
 11
96.973434000000012
 21
10.392931000000001
 31
0.0
  0
LINE
  5
68
  8
001
 10
56.973433999999997
 20
37.485914000000001
 30
0.0
 11
56.973433999999997
 21
10.392931000000001
 31
0.0
  0
LINE
  5
69
  8
001
 10
96.973434000000012
 20
13.142931000000001
 30
0.0
 11
56.973433999999997
 21
13.142931000000001
 31
0.0
  0
POLYLINE
  5
6A
  8
001
 66
     1
 10
0.0
 20
0.0
 30
0.0
  0
VERTEX
  5
6C
  8
001
 10
95.473433999999997
 20
13.544855
 30
0.0
  0
VERTEX
  5
6D
  8
001
 10
96.973434000000012
 20
13.142931000000001
 30
0.0
  0
VERTEX
  5
6E
  8
001
 10
95.473433999999997
 20
12.741008000000001
 30
0.0
  0
SEQEND
  5
6B
  8
001
  0
POLYLINE
  5
6F
  8
001
 66
     1
 10
0.0
 20
0.0
 30
0.0
  0
VERTEX
  5
71
  8
001
 10
58.47343399999999
 20
12.741008000000001
 30
0.0
  0
VERTEX
  5
72
  8
001
 10
56.973433999999997
 20
13.142931000000001
 30
0.0
  0
VERTEX
  5
73
  8
001
 10
58.47343399999999
 20
13.544855
 30
0.0
  0
SEQEND
  5
70
  8
001
  0
TEXT
  5
74
  8
001
 10
72.973433999999983
 20
14.142931000000001
 30
0.0
 40
4.0
  1
４０
 41
0.833333
  0
POINT
  5
75
  8
001
 10
96.973434000000012
 20
40.724827000000012
 30
0.0
  0
POINT
  5
76
  8
001
 10
56.973433999999997
 20
37.485914000000001
 30
0.0
  0
POINT
  5
77
  8
001
 10
56.973433999999997
 20
13.142931000000001
 30
0.0
  0
ENDBLK
  5
66
  8
0
  0
BLOCK
  8
0
  2
*D2
 70
     1
 10
0.0
 20
0.0
 30
0.0
  3
*D2
  1

  0
LINE
  5
7B
  8
001
 10
176.973434
 20
45.824826999999992
 30
0.0
 11
176.973434
 21
10.392931000000001
 31
0.0
  0
LINE
  5
7C
  8
001
 10
96.973434000000012
 20
40.724827000000012
 30
0.0
 11
96.973434000000012
 21
10.392931000000001
 31
0.0
  0
LINE
  5
7D
  8
001
 10
176.973434
 20
13.142931000000001
 30
0.0
 11
96.973434000000012
 21
13.142931000000001
 31
0.0
  0
POLYLINE
  5
7E
  8
001
 66
     1
 10
0.0
 20
0.0
 30
0.0
  0
VERTEX
  5
80
  8
001
 10
175.473434
 20
13.544855
 30
0.0
  0
VERTEX
  5
81
  8
001
 10
176.973434
 20
13.142931000000001
 30
0.0
  0
VERTEX
  5
82
  8
001
 10
175.473434
 20
12.741008000000001
 30
0.0
  0
SEQEND
  5
7F
  8
001
  0
POLYLINE
  5
83
  8
001
 66
     1
 10
0.0
 20
0.0
 30
0.0
  0
VERTEX
  5
85
  8
001
 10
98.473433999999983
 20
12.741008000000001
 30
0.0
  0
VERTEX
  5
86
  8
001
 10
96.973434000000012
 20
13.142931000000001
 30
0.0
  0
VERTEX
  5
87
  8
001
 10
98.473433999999983
 20
13.544855
 30
0.0
  0
SEQEND
  5
84
  8
001
  0
TEXT
  5
88
  8
001
 10
132.973434
 20
14.142931000000001
 30
0.0
 40
4.0
  1
８０
 41
0.833333
  0
POINT
  5
89
  8
001
 10
176.973434
 20
45.824826999999992
 30
0.0
  0
POINT
  5
8A
  8
001
 10
96.973434000000012
 20
40.724827000000012
 30
0.0
  0
POINT
  5
8B
  8
001
 10
96.973434000000012
 20
13.142931000000001
 30
0.0
  0
ENDBLK
  5
7A
  8
0
  0
BLOCK
  8
0
  2
*D3
 70
     1
 10
0.0
 20
0.0
 30
0.0
  3
*D3
  1

  0
LINE
  5
8F
  8
001
 10
59.133439000000003
 20
42.014831999999998
 30
0.0
 11
61.518979999999999
 21
45.225625999999991
 31
0.0
  0
POLYLINE
  5
90
  8
001
 66
     1
 10
0.0
 20
0.0
 30
0.0
  0
VERTEX
  5
92
  8
001
 10
60.301777999999999
 20
44.261279999999999
 30
0.0
  0
VERTEX
  5
93
  8
001
 10
61.518979999999999
 20
45.225625999999991
 30
0.0
  0
VERTEX
  5
94
  8
001
 10
60.947026000000001
 20
43.781877000000001
 30
0.0
  0
SEQEND
  5
91
  8
001
  0
TEXT
  5
95
  8
001
 10
56.28987399999999
 20
38.089071000000011
 30
0.0
 40
4.0
  1
Ｒ４
 50
53.388553000000002
 41
0.833333
  0
POINT
  5
96
  8
001
 10
61.518979999999999
 20
45.225625999999991
 30
0.0
  0
POINT
  5
97
  8
001
 10
59.133439000000003
 20
42.014831999999998
 30
0.0
  0
ENDBLK
  5
8E
  8
0
  0
BLOCK
  8
0
  2
*D4
 70
     1
 10
0.0
 20
0.0
 30
0.0
  3
*D4
  1

  0
LINE
  5
9B
  8
001
 10
63.133433999999987
 20
37.485914000000001
 30
0.0
 11
63.133433999999987
 21
21.81718
 31
0.0
  0
LINE
  5
9C
  8
001
 10
56.973433999999997
 20
37.485914000000001
 30
0.0
 11
56.973433999999997
 21
21.81718
 31
0.0
  0
LINE
  5
9D
  8
001
 10
63.133433999999987
 20
24.56718
 30
0.0
 11
56.973433999999997
 21
24.56718
 31
0.0
  0
POLYLINE
  5
9E
  8
001
 66
     1
 10
0.0
 20
0.0
 30
0.0
  0
VERTEX
  5
A0
  8
001
 10
64.633433999999994
 20
24.165255999999999
 30
0.0
  0
VERTEX
  5
A1
  8
001
 10
63.133433999999987
 20
24.56718
 30
0.0
  0
VERTEX
  5
A2
  8
001
 10
64.633433999999994
 20
24.969104000000002
 30
0.0
  0
SEQEND
  5
9F
  8
001
  0
POLYLINE
  5
A3
  8
001
 66
     1
 10
0.0
 20
0.0
 30
0.0
  0
VERTEX
  5
A5
  8
001
 10
55.47343399999999
 20
24.969104000000002
 30
0.0
  0
VERTEX
  5
A6
  8
001
 10
56.973433999999997
 20
24.56718
 30
0.0
  0
VERTEX
  5
A7
  8
001
 10
55.47343399999999
 20
24.165255999999999
 30
0.0
  0
SEQEND
  5
A4
  8
001
  0
TEXT
  5
A8
  8
001
 10
29.473434000000001
 20
25.56718
 30
0.0
 40
4.0
  1
（６．１６）
 41
0.833333
  0
POINT
  5
A9
  8
001
 10
63.133433999999987
 20
37.485914000000001
 30
0.0
  0
POINT
  5
AA
  8
001
 10
56.973433999999997
 20
37.485914000000001
 30
0.0
  0
POINT
  5
AB
  8
001
 10
56.973433999999997
 20
24.56718
 30
0.0
  0
LINE
  5
AC
  8
001
 10
63.133433999999987
 20
24.56718
 30
0.0
 11
65.633433999999994
 21
24.56718
 31
0.0
  0
LINE
  5
AD
  8
001
 10
56.973433999999997
 20
24.56718
 30
0.0
 11
26.473434000000001
 21
24.56718
 31
0.0
  0
ENDBLK
  5
9A
  8
0
  0
BLOCK
  8
0
  2
*D5
 70
     1
 10
0.0
 20
0.0
 30
0.0
  3
*D5
  1

  0
LINE
  5
B1
  8
001
 10
54.801954000000002
 20
52.324826999999999
 30
0.0
 11
48.505402000000011
 21
52.324826999999999
 31
0.0
  0
LINE
  5
B2
  8
001
 10
54.801954000000002
 20
46.014826999999997
 30
0.0
 11
48.505402000000011
 21
46.014826999999997
 31
0.0
  0
LINE
  5
B3
  8
001
 10
51.255401999999997
 20
52.324826999999999
 30
0.0
 11
51.255401999999997
 21
46.014826999999997
 31
0.0
  0
POLYLINE
  5
B4
  8
001
 66
     1
 10
0.0
 20
0.0
 30
0.0
  0
VERTEX
  5
B6
  8
001
 10
51.657325999999998
 20
53.824826999999999
 30
0.0
  0
VERTEX
  5
B7
  8
001
 10
51.255401999999997
 20
52.324826999999999
 30
0.0
  0
VERTEX
  5
B8
  8
001
 10
50.853478000000003
 20
53.824826999999999
 30
0.0
  0
SEQEND
  5
B5
  8
001
  0
POLYLINE
  5
B9
  8
001
 66
     1
 10
0.0
 20
0.0
 30
0.0
  0
VERTEX
  5
BB
  8
001
 10
50.853478000000003
 20
44.514826999999997
 30
0.0
  0
VERTEX
  5
BC
  8
001
 10
51.255401999999997
 20
46.014826999999997
 30
0.0
  0
VERTEX
  5
BD
  8
001
 10
51.657325999999998
 20
44.514826999999997
 30
0.0
  0
SEQEND
  5
BA
  8
001
  0
TEXT
  5
BE
  8
001
 10
50.255401999999997
 20
37.169827000000012
 30
0.0
 40
4.0
  1
（６．３１）
 50
90.000003000000007
 41
0.833333
  0
POINT
  5
BF
  8
001
 10
54.801954000000002
 20
52.324826999999999
 30
0.0
  0
POINT
  5
C0
  8
001
 10
54.801954000000002
 20
46.014826999999997
 30
0.0
  0
POINT
  5
C1
  8
001
 10
51.255401999999997
 20
46.014826999999997
 30
0.0
  0
LINE
  5
C2
  8
001
 10
51.255401999999997
 20
52.324826999999999
 30
0.0
 11
51.255401999999997
 21
54.824826999999999
 31
0.0
  0
LINE
  5
C3
  8
001
 10
51.255401999999997
 20
46.014826999999997
 30
0.0
 11
51.255401999999997
 21
43.514826999999997
 31
0.0
  0
ENDBLK
  5
B0
  8
0
  0
BLOCK
  8
0
  2
*D6
 70
     1
 10
0.0
 20
0.0
 30
0.0
  3
*D6
  1

  0
LINE
  5
C7
  8
001
 10
56.973433999999997
 20
164.56543300000001
 30
0.0
 11
56.973433999999997
 21
147.58855
 31
0.0
  0
LINE
  5
C8
  8
001
 10
62.643433999999999
 20
164.56543300000001
 30
0.0
 11
62.643433999999999
 21
147.58855
 31
0.0
  0
LINE
  5
C9
  8
001
 10
56.973433999999997
 20
150.33855
 30
0.0
 11
62.643433999999999
 21
150.33855
 31
0.0
  0
POLYLINE
  5
CA
  8
001
 66
     1
 10
0.0
 20
0.0
 30
0.0
  0
VERTEX
  5
CC
  8
001
 10
55.47343399999999
 20
150.74047400000001
 30
0.0
  0
VERTEX
  5
CD
  8
001
 10
56.973433999999997
 20
150.33855
 30
0.0
  0
VERTEX
  5
CE
  8
001
 10
55.47343399999999
 20
149.93662599999999
 30
0.0
  0
SEQEND
  5
CB
  8
001
  0
POLYLINE
  5
CF
  8
001
 66
     1
 10
0.0
 20
0.0
 30
0.0
  0
VERTEX
  5
D1
  8
001
 10
64.143433999999985
 20
149.93662599999999
 30
0.0
  0
VERTEX
  5
D2
  8
001
 10
62.643433999999999
 20
150.33855
 30
0.0
  0
VERTEX
  5
D3
  8
001
 10
64.143433999999985
 20
150.74047400000001
 30
0.0
  0
SEQEND
  5
D0
  8
001
  0
TEXT
  5
D4
  8
001
 10
29.473434000000001
 20
151.33855
 30
0.0
 40
4.0
  1
（５．６７）
 41
0.833333
  0
POINT
  5
D5
  8
001
 10
56.973433999999997
 20
164.56543300000001
 30
0.0
  0
POINT
  5
D6
  8
001
 10
62.643433999999999
 20
164.56543300000001
 30
0.0
  0
POINT
  5
D7
  8
001
 10
62.643433999999999
 20
150.33855
 30
0.0
  0
LINE
  5
D8
  8
001
 10
56.973433999999997
 20
150.33855
 30
0.0
 11
26.473434000000001
 21
150.33855
 31
0.0
  0
LINE
  5
D9
  8
001
 10
62.643433999999999
 20
150.33855
 30
0.0
 11
65.143433999999999
 21
150.33855
 31
0.0
  0
ENDBLK
  5
C6
  8
0
  0
BLOCK
  8
0
  2
*D7
 70
     1
 10
0.0
 20
0.0
 30
0.0
  3
*D7
  1

  0
LINE
  5
DD
  8
001
 10
54.801954000000002
 20
179.404346
 30
0.0
 11
48.315685999999999
 21
179.404346
 31
0.0
  0
LINE
  5
DE
  8
001
 10
54.801954000000002
 20
172.594346
 30
0.0
 11
48.315685999999999
 21
172.594346
 31
0.0
  0
LINE
  5
DF
  8
001
 10
51.065685999999999
 20
179.404346
 30
0.0
 11
51.065685999999999
 21
172.594346
 31
0.0
  0
POLYLINE
  5
E0
  8
001
 66
     1
 10
0.0
 20
0.0
 30
0.0
  0
VERTEX
  5
E2
  8
001
 10
51.467609000000003
 20
180.904346
 30
0.0
  0
VERTEX
  5
E3
  8
001
 10
51.065685999999999
 20
179.404346
 30
0.0
  0
VERTEX
  5
E4
  8
001
 10
50.663761999999998
 20
180.904346
 30
0.0
  0
SEQEND
  5
E1
  8
001
  0
POLYLINE
  5
E5
  8
001
 66
     1
 10
0.0
 20
0.0
 30
0.0
  0
VERTEX
  5
E7
  8
001
 10
50.663761999999998
 20
171.094346
 30
0.0
  0
VERTEX
  5
E8
  8
001
 10
51.065685999999999
 20
172.594346
 30
0.0
  0
VERTEX
  5
E9
  8
001
 10
51.467609000000003
 20
171.094346
 30
0.0
  0
SEQEND
  5
E6
  8
001
  0
TEXT
  5
EA
  8
001
 10
50.065685999999999
 20
182.904346
 30
0.0
 40
4.0
  1
（６．８１）
 50
90.000003000000007
 41
0.833333
  0
POINT
  5
EB
  8
001
 10
54.801954000000002
 20
179.404346
 30
0.0
  0
POINT
  5
EC
  8
001
 10
54.801954000000002
 20
172.594346
 30
0.0
  0
POINT
  5
ED
  8
001
 10
51.065685999999999
 20
172.594346
 30
0.0
  0
LINE
  5
EE
  8
001
 10
51.065685999999999
 20
179.404346
 30
0.0
 11
51.065685999999999
 21
209.904346
 31
0.0
  0
LINE
  5
EF
  8
001
 10
51.065685999999999
 20
172.594346
 30
0.0
 11
51.065685999999999
 21
170.094346
 31
0.0
  0
ENDBLK
  5
DC
  8
0
  0
BLOCK
  8
0
  2
*D8
 70
     1
 10
0.0
 20
0.0
 30
0.0
  3
*D8
  1

  0
LINE
  5
F3
  8
001
 10
59.643434999999997
 20
169.594348
 30
0.0
 11
61.579103000000011
 21
171.88633200000001
 31
0.0
  0
POLYLINE
  5
F4
  8
001
 66
     1
 10
0.0
 20
0.0
 30
0.0
  0
VERTEX
  5
F6
  8
001
 10
60.304200999999999
 20
170.99967000000001
 30
0.0
  0
VERTEX
  5
F7
  8
001
 10
61.579103000000011
 20
171.88633200000001
 30
0.0
  0
VERTEX
  5
F8
  8
001
 10
60.918337000000001
 20
170.48101
 30
0.0
  0
SEQEND
  5
F5
  8
001
  0
TEXT
  5
F9
  8
001
 10
54.389901999999999
 20
164.923598
 30
0.0
 40
4.0
  1
Ｒ３
 50
49.817650999999998
 41
0.833333
  0
POINT
  5
FA
  8
001
 10
61.579103000000011
 20
171.88633200000001
 30
0.0
  0
POINT
  5
FB
  8
001
 10
59.643434999999997
 20
169.594348
 30
0.0
  0
ENDBLK
  5
F2
  8
0
  0
BLOCK
  8
0
  2
*D9
 70
     1
 10
0.0
 20
0.0
 30
0.0
  3
*D9
  1

  0
LINE
  5
FF
  8
001
 10
54.801954000000002
 20
296.3100970000001
 30
0.0
 11
49.337094999999991
 21
296.3100970000001
 31
0.0
  0
LINE
  5
100
  8
001
 10
54.801954000000002
 20
289.01009699999997
 30
0.0
 11
49.337094999999991
 21
289.01009699999997
 31
0.0
  0
LINE
  5
101
  8
001
 10
52.087094999999998
 20
296.3100970000001
 30
0.0
 11
52.087094999999998
 21
289.01009699999997
 31
0.0
  0
POLYLINE
  5
102
  8
001
 66
     1
 10
0.0
 20
0.0
 30
0.0
  0
VERTEX
  5
104
  8
001
 10
52.489018999999992
 20
297.81009699999998
 30
0.0
  0
VERTEX
  5
105
  8
001
 10
52.087094999999998
 20
296.3100970000001
 30
0.0
  0
VERTEX
  5
106
  8
001
 10
51.685170999999997
 20
297.81009699999998
 30
0.0
  0
SEQEND
  5
103
  8
001
  0
POLYLINE
  5
107
  8
001
 66
     1
 10
0.0
 20
0.0
 30
0.0
  0
VERTEX
  5
109
  8
001
 10
51.685170999999997
 20
287.51009699999997
 30
0.0
  0
VERTEX
  5
10A
  8
001
 10
52.087094999999998
 20
289.01009699999997
 30
0.0
  0
VERTEX
  5
10B
  8
001
 10
52.489018999999992
 20
287.51009699999997
 30
0.0
  0
SEQEND
  5
108
  8
001
  0
TEXT
  5
10C
  8
001
 10
51.087094999999991
 20
299.81009699999998
 30
0.0
 40
4.0
  1
（７．３）
 50
90.000003000000007
 41
0.833333
  0
POINT
  5
10D
  8
001
 10
54.801954000000002
 20
296.3100970000001
 30
0.0
  0
POINT
  5
10E
  8
001
 10
54.801954000000002
 20
289.01009699999997
 30
0.0
  0
POINT
  5
10F
  8
001
 10
52.087094999999998
 20
289.01009699999997
 30
0.0
  0
LINE
  5
110
  8
001
 10
52.087094999999998
 20
296.3100970000001
 30
0.0
 11
52.087094999999998
 21
322.81009699999998
 31
0.0
  0
LINE
  5
111
  8
001
 10
52.087094999999998
 20
289.01009699999997
 30
0.0
 11
52.087094999999998
 21
286.51009699999997
 31
0.0
  0
ENDBLK
  5
FE
  8
0
  0
BLOCK
  8
0
  2
*D10
 70
     1
 10
0.0
 20
0.0
 30
0.0
  3
*D10
  1

  0
LINE
  5
115
  8
001
 10
56.973433999999997
 20
281.47118399999999
 30
0.0
 11
56.973433999999997
 21
264.89187800000002
 31
0.0
  0
LINE
  5
116
  8
001
 10
62.143433999999999
 20
282.38294400000001
 30
0.0
 11
62.143433999999999
 21
264.89187800000002
 31
0.0
  0
LINE
  5
117
  8
001
 10
56.973433999999997
 20
267.64187800000002
 30
0.0
 11
62.143433999999999
 21
267.64187800000002
 31
0.0
  0
POLYLINE
  5
118
  8
001
 66
     1
 10
0.0
 20
0.0
 30
0.0
  0
VERTEX
  5
11A
  8
001
 10
55.47343399999999
 20
268.04380200000003
 30
0.0
  0
VERTEX
  5
11B
  8
001
 10
56.973433999999997
 20
267.64187800000002
 30
0.0
  0
VERTEX
  5
11C
  8
001
 10
55.47343399999999
 20
267.23995400000001
 30
0.0
  0
SEQEND
  5
119
  8
001
  0
POLYLINE
  5
11D
  8
001
 66
     1
 10
0.0
 20
0.0
 30
0.0
  0
VERTEX
  5
11F
  8
001
 10
63.643433999999999
 20
267.23995400000001
 30
0.0
  0
VERTEX
  5
120
  8
001
 10
62.143433999999999
 20
267.64187800000002
 30
0.0
  0
VERTEX
  5
121
  8
001
 10
63.643433999999999
 20
268.04380200000003
 30
0.0
  0
SEQEND
  5
11E
  8
001
  0
TEXT
  5
122
  8
001
 10
29.473434000000001
 20
268.64187800000002
 30
0.0
 40
4.0
  1
（５．１７）
 41
0.833333
  0
POINT
  5
123
  8
001
 10
56.973433999999997
 20
281.47118399999999
 30
0.0
  0
POINT
  5
124
  8
001
 10
62.143433999999999
 20
282.38294400000001
 30
0.0
  0
POINT
  5
125
  8
001
 10
62.143433999999999
 20
267.64187800000002
 30
0.0
  0
LINE
  5
126
  8
001
 10
56.973433999999997
 20
267.64187800000002
 30
0.0
 11
26.473434000000001
 21
267.64187800000002
 31
0.0
  0
LINE
  5
127
  8
001
 10
62.143433999999999
 20
267.64187800000002
 30
0.0
 11
64.643433999999999
 21
267.64187800000002
 31
0.0
  0
ENDBLK
  5
114
  8
0
  0
BLOCK
  8
0
  2
*D11
 70
     1
 10
0.0
 20
0.0
 30
0.0
  3
*D11
  1

  0
LINE
  5
12B
  8
001
 10
60.143478999999999
 20
287.01014199999997
 30
0.0
 11
61.676330999999998
 21
288.29480699999999
 31
0.0
  0
POLYLINE
  5
12C
  8
001
 66
     1
 10
0.0
 20
0.0
 30
0.0
  0
VERTEX
  5
12E
  8
001
 10
60.268522999999988
 20
287.63935299999991
 30
0.0
  0
VERTEX
  5
12F
  8
001
 10
61.676330999999998
 20
288.29480699999999
 30
0.0
  0
VERTEX
  5
130
  8
001
 10
60.784860999999999
 20
287.02326299999999
 30
0.0
  0
SEQEND
  5
12D
  8
001
  0
TEXT
  5
131
  8
001
 10
53.583616000000013
 20
281.467375
 30
0.0
 40
4.0
  1
Ｒ２
 50
39.965954000000004
 41
0.833333
  0
POINT
  5
132
  8
001
 10
61.676330999999998
 20
288.29480699999999
 30
0.0
  0
POINT
  5
133
  8
001
 10
60.143478999999999
 20
287.01014199999997
 30
0.0
  0
ENDBLK
  5
12A
  8
0
  0
BLOCK
  8
0
  2
*D12
 70
     1
 10
0.0
 20
0.0
 30
0.0
  3
*D12
  1

  0
LINE
  5
137
  8
001
 10
60.643524999999997
 20
410.83922799999999
 30
0.0
 11
61.425781000000008
 21
411.46218499999998
 31
0.0
  0
POLYLINE
  5
138
  8
001
 66
     1
 10
0.0
 20
0.0
 30
0.0
  0
VERTEX
  5
13A
  8
001
 10
60.002015999999998
 20
410.84215699999987
 30
0.0
  0
VERTEX
  5
13B
  8
001
 10
61.425781000000008
 20
411.46218499999998
 30
0.0
  0
VERTEX
  5
13C
  8
001
 10
60.502777999999992
 20
410.21334300000001
 30
0.0
  0
SEQEND
  5
139
  8
001
  0
TEXT
  5
13D
  8
001
 10
53.311568000000008
 20
403.90429899999998
 30
0.0
 40
4.0
  1
Ｒ１
 50
38.532365000000013
 41
0.833333
  0
POINT
  5
13E
  8
001
 10
61.425781000000008
 20
411.46218499999998
 30
0.0
  0
POINT
  5
13F
  8
001
 10
60.643524999999997
 20
410.83922799999999
 30
0.0
  0
ENDBLK
  5
136
  8
0
  0
BLOCK
  8
0
  2
*D13
 70
     1
 10
0.0
 20
0.0
 30
0.0
  3
*D13
  1

  0
LINE
  5
143
  8
001
 10
54.801954000000002
 20
419.63913699999989
 30
0.0
 11
48.242193999999998
 21
419.63913699999989
 31
0.0
  0
LINE
  5
144
  8
001
 10
54.801954000000002
 20
411.83913699999999
 30
0.0
 11
48.242193999999998
 21
411.83913699999999
 31
0.0
  0
LINE
  5
145
  8
001
 10
50.992193999999991
 20
419.63913699999989
 30
0.0
 11
50.992193999999991
 21
411.83913699999999
 31
0.0
  0
POLYLINE
  5
146
  8
001
 66
     1
 10
0.0
 20
0.0
 30
0.0
  0
VERTEX
  5
148
  8
001
 10
51.394117999999999
 20
421.13913700000001
 30
0.0
  0
VERTEX
  5
149
  8
001
 10
50.992193999999991
 20
419.63913699999989
 30
0.0
  0
VERTEX
  5
14A
  8
001
 10
50.590271000000001
 20
421.13913700000001
 30
0.0
  0
SEQEND
  5
147
  8
001
  0
POLYLINE
  5
14B
  8
001
 66
     1
 10
0.0
 20
0.0
 30
0.0
  0
VERTEX
  5
14D
  8
001
 10
50.590271000000001
 20
410.33913699999988
 30
0.0
  0
VERTEX
  5
14E
  8
001
 10
50.992193999999991
 20
411.83913699999999
 30
0.0
  0
VERTEX
  5
14F
  8
001
 10
51.394117999999999
 20
410.33913699999988
 30
0.0
  0
SEQEND
  5
14C
  8
001
  0
TEXT
  5
150
  8
001
 10
49.992193999999998
 20
423.13913699999989
 30
0.0
 40
4.0
  1
（７．８）
 50
90.000003000000007
 41
0.833333
  0
POINT
  5
151
  8
001
 10
54.801954000000002
 20
419.63913699999989
 30
0.0
  0
POINT
  5
152
  8
001
 10
54.801954000000002
 20
411.83913699999999
 30
0.0
  0
POINT
  5
153
  8
001
 10
50.992193999999991
 20
411.83913699999999
 30
0.0
  0
LINE
  5
154
  8
001
 10
50.992193999999991
 20
419.63913699999989
 30
0.0
 11
50.992193999999991
 21
446.13913700000001
 31
0.0
  0
LINE
  5
155
  8
001
 10
50.992193999999991
 20
411.83913699999999
 30
0.0
 11
50.992193999999991
 21
409.33913699999988
 31
0.0
  0
ENDBLK
  5
142
  8
0
  0
BLOCK
  8
0
  2
*D14
 70
     1
 10
0.0
 20
0.0
 30
0.0
  3
*D14
  1

  0
LINE
  5
159
  8
001
 10
61.643433999999992
 20
404.80022400000001
 30
0.0
 11
61.643433999999992
 21
387.33381000000003
 31
0.0
  0
LINE
  5
15A
  8
001
 10
56.973433999999997
 20
404.80022400000001
 30
0.0
 11
56.973433999999997
 21
387.33381000000003
 31
0.0
  0
LINE
  5
15B
  8
001
 10
61.643433999999992
 20
390.08381000000008
 30
0.0
 11
56.973433999999997
 21
390.08381000000008
 31
0.0
  0
POLYLINE
  5
15C
  8
001
 66
     1
 10
0.0
 20
0.0
 30
0.0
  0
VERTEX
  5
15E
  8
001
 10
63.143433999999999
 20
389.68188700000002
 30
0.0
  0
VERTEX
  5
15F
  8
001
 10
61.643433999999992
 20
390.08381000000008
 30
0.0
  0
VERTEX
  5
160
  8
001
 10
63.143433999999999
 20
390.48573399999998
 30
0.0
  0
SEQEND
  5
15D
  8
001
  0
POLYLINE
  5
161
  8
001
 66
     1
 10
0.0
 20
0.0
 30
0.0
  0
VERTEX
  5
163
  8
001
 10
55.47343399999999
 20
390.48573399999998
 30
0.0
  0
VERTEX
  5
164
  8
001
 10
56.973433999999997
 20
390.08381000000008
 30
0.0
  0
VERTEX
  5
165
  8
001
 10
55.47343399999999
 20
389.68188700000002
 30
0.0
  0
SEQEND
  5
162
  8
001
  0
TEXT
  5
166
  8
001
 10
29.473434000000001
 20
391.08381000000003
 30
0.0
 40
4.0
  1
（４．６７）
 41
0.833333
  0
POINT
  5
167
  8
001
 10
61.643433999999992
 20
404.80022400000001
 30
0.0
  0
POINT
  5
168
  8
001
 10
56.973433999999997
 20
404.80022400000001
 30
0.0
  0
POINT
  5
169
  8
001
 10
56.973433999999997
 20
390.08381000000008
 30
0.0
  0
LINE
  5
16A
  8
001
 10
61.643433999999992
 20
390.08381000000008
 30
0.0
 11
64.143433999999985
 21
390.08381000000008
 31
0.0
  0
LINE
  5
16B
  8
001
 10
56.973433999999997
 20
390.08381000000008
 30
0.0
 11
26.473434000000001
 21
390.08381000000008
 31
0.0
  0
ENDBLK
  5
158
  8
0
  0
BLOCK
  8
0
  2
*D15
 70
     1
 10
0.0
 20
0.0
 30
0.0
  3
*D15
  1

  0
LINE
  5
16F
  8
001
 10
272.82469700000001
 20
41.504853999999987
 30
0.0
 11
276.72043200000002
 21
44.639060000000001
 31
0.0
  0
POLYLINE
  5
170
  8
001
 66
     1
 10
0.0
 20
0.0
 30
0.0
  0
VERTEX
  5
172
  8
001
 10
275.29976900000003
 20
44.011955999999998
 30
0.0
  0
VERTEX
  5
173
  8
001
 10
276.72043200000002
 20
44.639060000000001
 30
0.0
  0
VERTEX
  5
174
  8
001
 10
275.80365399999999
 20
43.385640000000002
 30
0.0
  0
SEQEND
  5
171
  8
001
  0
TEXT
  5
175
  8
001
 10
268.54584199999999
 20
38.708976
 30
0.0
 40
4.0
  1
Ｒ５
 50
38.817450999999998
 41
0.833333
  0
POINT
  5
176
  8
001
 10
276.72043200000002
 20
44.639060000000001
 30
0.0
  0
POINT
  5
177
  8
001
 10
272.82469700000001
 20
41.504853999999987
 30
0.0
  0
ENDBLK
  5
16E
  8
0
  0
BLOCK
  8
0
  2
*D16
 70
     1
 10
0.0
 20
0.0
 30
0.0
  3
*D16
  1

  0
LINE
  5
17B
  8
001
 10
268.99319000000003
 20
52.324826999999999
 30
0.0
 11
262.76639799999998
 21
52.324826999999999
 31
0.0
  0
LINE
  5
17C
  8
001
 10
268.99319000000003
 20
46.504826999999999
 30
0.0
 11
262.76639799999998
 21
46.504826999999999
 31
0.0
  0
LINE
  5
17D
  8
001
 10
265.51639799999998
 20
52.324826999999999
 30
0.0
 11
265.51639799999998
 21
46.504826999999999
 31
0.0
  0
POLYLINE
  5
17E
  8
001
 66
     1
 10
0.0
 20
0.0
 30
0.0
  0
VERTEX
  5
180
  8
001
 10
265.91832099999999
 20
53.824826999999999
 30
0.0
  0
VERTEX
  5
181
  8
001
 10
265.51639799999998
 20
52.324826999999999
 30
0.0
  0
VERTEX
  5
182
  8
001
 10
265.11447399999997
 20
53.824826999999999
 30
0.0
  0
SEQEND
  5
17F
  8
001
  0
POLYLINE
  5
183
  8
001
 66
     1
 10
0.0
 20
0.0
 30
0.0
  0
VERTEX
  5
185
  8
001
 10
265.11447399999997
 20
45.004826999999999
 30
0.0
  0
VERTEX
  5
186
  8
001
 10
265.51639799999998
 20
46.504826999999999
 30
0.0
  0
VERTEX
  5
187
  8
001
 10
265.91832099999999
 20
45.004826999999999
 30
0.0
  0
SEQEND
  5
184
  8
001
  0
TEXT
  5
188
  8
001
 10
264.51639799999998
 20
55.824826999999992
 30
0.0
 40
4.0
  1
（５．８２）
 50
90.000003000000007
 41
0.833333
  0
POINT
  5
189
  8
001
 10
268.99319000000003
 20
52.324826999999999
 30
0.0
  0
POINT
  5
18A
  8
001
 10
268.99319000000003
 20
46.504826999999999
 30
0.0
  0
POINT
  5
18B
  8
001
 10
265.51639799999998
 20
46.504826999999999
 30
0.0
  0
LINE
  5
18C
  8
001
 10
265.51639799999998
 20
52.324826999999999
 30
0.0
 11
265.51639799999998
 21
82.824826999999999
 31
0.0
  0
LINE
  5
18D
  8
001
 10
265.51639799999998
 20
46.504826999999999
 30
0.0
 11
265.51639799999998
 21
44.004826999999999
 31
0.0
  0
ENDBLK
  5
17A
  8
0
  0
BLOCK
  8
0
  2
*D17
 70
     1
 10
0.0
 20
0.0
 30
0.0
  3
*D17
  1

  0
LINE
  5
191
  8
001
 10
271.164669
 20
37.485914000000001
 30
0.0
 11
271.164669
 21
21.267344999999999
 31
0.0
  0
LINE
  5
192
  8
001
 10
277.82466899999997
 20
37.485914000000001
 30
0.0
 11
277.82466899999997
 21
21.267344999999999
 31
0.0
  0
LINE
  5
193
  8
001
 10
271.164669
 20
24.017344999999999
 30
0.0
 11
277.82466899999997
 21
24.017344999999999
 31
0.0
  0
POLYLINE
  5
194
  8
001
 66
     1
 10
0.0
 20
0.0
 30
0.0
  0
VERTEX
  5
196
  8
001
 10
269.664669
 20
24.419269
 30
0.0
  0
VERTEX
  5
197
  8
001
 10
271.164669
 20
24.017344999999999
 30
0.0
  0
VERTEX
  5
198
  8
001
 10
269.664669
 20
23.615421000000001
 30
0.0
  0
SEQEND
  5
195
  8
001
  0
POLYLINE
  5
199
  8
001
 66
     1
 10
0.0
 20
0.0
 30
0.0
  0
VERTEX
  5
19B
  8
001
 10
279.32466899999997
 20
23.615421000000001
 30
0.0
  0
VERTEX
  5
19C
  8
001
 10
277.82466899999997
 20
24.017344999999999
 30
0.0
  0
VERTEX
  5
19D
  8
001
 10
279.32466899999997
 20
24.419269
 30
0.0
  0
SEQEND
  5
19A
  8
001
  0
TEXT
  5
19E
  8
001
 10
243.664669
 20
25.017344999999999
 30
0.0
 40
4.0
  1
（６．６６）
 41
0.833333
  0
POINT
  5
19F
  8
001
 10
271.164669
 20
37.485914000000001
 30
0.0
  0
POINT
  5
1A0
  8
001
 10
277.82466899999997
 20
37.485914000000001
 30
0.0
  0
POINT
  5
1A1
  8
001
 10
277.82466899999997
 20
24.017344999999999
 30
0.0
  0
LINE
  5
1A2
  8
001
 10
271.164669
 20
24.017344999999999
 30
0.0
 11
240.664669
 21
24.017344999999999
 31
0.0
  0
LINE
  5
1A3
  8
001
 10
277.82466899999997
 20
24.017344999999999
 30
0.0
 11
280.32466899999997
 21
24.017344999999999
 31
0.0
  0
ENDBLK
  5
190
  8
0
  0
BLOCK
  8
0
  2
*D18
 70
     1
 10
0.0
 20
0.0
 30
0.0
  3
*D18
  1

  0
LINE
  5
1A7
  8
001
 10
273.07467400000002
 20
169.35233299999999
 30
0.0
 11
276.563852
 21
172.19409999999999
 31
0.0
  0
POLYLINE
  5
1A8
  8
001
 66
     1
 10
0.0
 20
0.0
 30
0.0
  0
VERTEX
  5
1AA
  8
001
 10
275.146976
 20
171.55848499999999
 30
0.0
  0
VERTEX
  5
1AB
  8
001
 10
276.563852
 20
172.19409999999999
 30
0.0
  0
VERTEX
  5
1AC
  8
001
 10
275.65460899999999
 20
170.935203
 30
0.0
  0
SEQEND
  5
1A9
  8
001
  0
TEXT
  5
1AD
  8
001
 10
260.92675700000001
 20
160.748144
 30
0.0
 40
4.0
  1
Ｒ４．５
 50
39.161149000000002
 41
0.833333
  0
POINT
  5
1AE
  8
001
 10
276.563852
 20
172.19409999999999
 30
0.0
  0
POINT
  5
1AF
  8
001
 10
273.07467400000002
 20
169.35233299999999
 30
0.0
  0
ENDBLK
  5
1A6
  8
0
  0
BLOCK
  8
0
  2
*D19
 70
     1
 10
0.0
 20
0.0
 30
0.0
  3
*D19
  1

  0
LINE
  5
1B3
  8
001
 10
268.99319000000003
 20
179.912328
 30
0.0
 11
262.115995
 21
179.912328
 31
0.0
  0
LINE
  5
1B4
  8
001
 10
268.99319000000003
 20
173.852328
 30
0.0
 11
262.115995
 21
173.852328
 31
0.0
  0
LINE
  5
1B5
  8
001
 10
264.865995
 20
179.912328
 30
0.0
 11
264.865995
 21
173.852328
 31
0.0
  0
POLYLINE
  5
1B6
  8
001
 66
     1
 10
0.0
 20
0.0
 30
0.0
  0
VERTEX
  5
1B8
  8
001
 10
265.26791900000001
 20
181.412328
 30
0.0
  0
VERTEX
  5
1B9
  8
001
 10
264.865995
 20
179.912328
 30
0.0
  0
VERTEX
  5
1BA
  8
001
 10
264.46407099999999
 20
181.412328
 30
0.0
  0
SEQEND
  5
1B7
  8
001
  0
POLYLINE
  5
1BB
  8
001
 66
     1
 10
0.0
 20
0.0
 30
0.0
  0
VERTEX
  5
1BD
  8
001
 10
264.46407099999999
 20
172.352328
 30
0.0
  0
VERTEX
  5
1BE
  8
001
 10
264.865995
 20
173.852328
 30
0.0
  0
VERTEX
  5
1BF
  8
001
 10
265.26791900000001
 20
172.352328
 30
0.0
  0
SEQEND
  5
1BC
  8
001
  0
TEXT
  5
1C0
  8
001
 10
263.865995
 20
183.412328
 30
0.0
 40
4.0
  1
（６．０６）
 50
90.000003000000007
 41
0.833333
  0
POINT
  5
1C1
  8
001
 10
268.99319000000003
 20
179.912328
 30
0.0
  0
POINT
  5
1C2
  8
001
 10
268.99319000000003
 20
173.852328
 30
0.0
  0
POINT
  5
1C3
  8
001
 10
264.865995
 20
173.852328
 30
0.0
  0
LINE
  5
1C4
  8
001
 10
264.865995
 20
179.912328
 30
0.0
 11
264.865995
 21
210.412328
 31
0.0
  0
LINE
  5
1C5
  8
001
 10
264.865995
 20
173.852328
 30
0.0
 11
264.865995
 21
171.352328
 31
0.0
  0
ENDBLK
  5
1B2
  8
0
  0
BLOCK
  8
0
  2
*D20
 70
     1
 10
0.0
 20
0.0
 30
0.0
  3
*D20
  1

  0
LINE
  5
1C9
  8
001
 10
271.164669
 20
165.07341600000001
 30
0.0
 11
271.164669
 21
148.51199700000001
 31
0.0
  0
LINE
  5
1CA
  8
001
 10
277.57466899999997
 20
165.07341600000001
 30
0.0
 11
277.57466899999997
 21
148.51199700000001
 31
0.0
  0
LINE
  5
1CB
  8
001
 10
271.164669
 20
151.26199700000001
 30
0.0
 11
277.57466899999997
 21
151.26199700000001
 31
0.0
  0
POLYLINE
  5
1CC
  8
001
 66
     1
 10
0.0
 20
0.0
 30
0.0
  0
VERTEX
  5
1CE
  8
001
 10
269.664669
 20
151.66391999999999
 30
0.0
  0
VERTEX
  5
1CF
  8
001
 10
271.164669
 20
151.26199700000001
 30
0.0
  0
VERTEX
  5
1D0
  8
001
 10
269.664669
 20
150.860073
 30
0.0
  0
SEQEND
  5
1CD
  8
001
  0
POLYLINE
  5
1D1
  8
001
 66
     1
 10
0.0
 20
0.0
 30
0.0
  0
VERTEX
  5
1D3
  8
001
 10
279.07466899999997
 20
150.860073
 30
0.0
  0
VERTEX
  5
1D4
  8
001
 10
277.57466899999997
 20
151.26199700000001
 30
0.0
  0
VERTEX
  5
1D5
  8
001
 10
279.07466899999997
 20
151.66391999999999
 30
0.0
  0
SEQEND
  5
1D2
  8
001
  0
TEXT
  5
1D6
  8
001
 10
243.664669
 20
152.26199700000001
 30
0.0
 40
4.0
  1
（６．４１）
 41
0.833333
  0
POINT
  5
1D7
  8
001
 10
271.164669
 20
165.07341600000001
 30
0.0
  0
POINT
  5
1D8
  8
001
 10
277.57466899999997
 20
165.07341600000001
 30
0.0
  0
POINT
  5
1D9
  8
001
 10
277.57466899999997
 20
151.26199700000001
 30
0.0
  0
LINE
  5
1DA
  8
001
 10
271.164669
 20
151.26199700000001
 30
0.0
 11
240.664669
 21
151.26199700000001
 31
0.0
  0
LINE
  5
1DB
  8
001
 10
277.57466899999997
 20
151.26199700000001
 30
0.0
 11
280.07466899999997
 21
151.26199700000001
 31
0.0
  0
ENDBLK
  5
1C8
  8
0
  0
BLOCK
  8
0
  2
*D21
 70
     1
 10
0.0
 20
0.0
 30
0.0
  3
*D21
  1

  0
LINE
  5
1DF
  8
001
 10
268.99319000000003
 20
295.63121899999999
 30
0.0
 11
262.22095000000002
 21
295.63121899999999
 31
0.0
  0
LINE
  5
1E0
  8
001
 10
268.99319000000003
 20
289.07121899999999
 30
0.0
 11
262.22095000000002
 21
289.07121899999999
 31
0.0
  0
LINE
  5
1E1
  8
001
 10
264.97095000000002
 20
295.63121899999999
 30
0.0
 11
264.97095000000002
 21
289.07121899999999
 31
0.0
  0
POLYLINE
  5
1E2
  8
001
 66
     1
 10
0.0
 20
0.0
 30
0.0
  0
VERTEX
  5
1E4
  8
001
 10
265.37287400000002
 20
297.13121899999999
 30
0.0
  0
VERTEX
  5
1E5
  8
001
 10
264.97095000000002
 20
295.63121899999999
 30
0.0
  0
VERTEX
  5
1E6
  8
001
 10
264.56902700000001
 20
297.13121899999999
 30
0.0
  0
SEQEND
  5
1E3
  8
001
  0
POLYLINE
  5
1E7
  8
001
 66
     1
 10
0.0
 20
0.0
 30
0.0
  0
VERTEX
  5
1E9
  8
001
 10
264.56902700000001
 20
287.57121899999999
 30
0.0
  0
VERTEX
  5
1EA
  8
001
 10
264.97095000000002
 20
289.07121899999999
 30
0.0
  0
VERTEX
  5
1EB
  8
001
 10
265.37287400000002
 20
287.57121899999999
 30
0.0
  0
SEQEND
  5
1E8
  8
001
  0
TEXT
  5
1EC
  8
001
 10
263.97095000000002
 20
299.13121899999999
 30
0.0
 40
4.0
  1
（６．５６）
 50
90.000003000000007
 41
0.833333
  0
POINT
  5
1ED
  8
001
 10
268.99319000000003
 20
295.63121899999999
 30
0.0
  0
POINT
  5
1EE
  8
001
 10
268.99319000000003
 20
289.07121899999999
 30
0.0
  0
POINT
  5
1EF
  8
001
 10
264.97095000000002
 20
289.07121899999999
 30
0.0
  0
LINE
  5
1F0
  8
001
 10
264.97095000000002
 20
295.63121899999999
 30
0.0
 11
264.97095000000002
 21
326.13121899999999
 31
0.0
  0
LINE
  5
1F1
  8
001
 10
264.97095000000002
 20
289.07121899999999
 30
0.0
 11
264.97095000000002
 21
286.57121899999999
 31
0.0
  0
ENDBLK
  5
1DE
  8
0
  0
BLOCK
  8
0
  2
*D22
 70
     1
 10
0.0
 20
0.0
 30
0.0
  3
*D22
  1

  0
LINE
  5
1F5
  8
001
 10
271.164669
 20
280.792306
 30
0.0
 11
271.164669
 21
264.15254499999998
 31
0.0
  0
LINE
  5
1F6
  8
001
 10
277.07466899999997
 20
280.792306
 30
0.0
 11
277.07466899999997
 21
264.15254499999998
 31
0.0
  0
LINE
  5
1F7
  8
001
 10
271.164669
 20
266.90254499999998
 30
0.0
 11
277.07466899999997
 21
266.90254499999998
 31
0.0
  0
POLYLINE
  5
1F8
  8
001
 66
     1
 10
0.0
 20
0.0
 30
0.0
  0
VERTEX
  5
1FA
  8
001
 10
269.664669
 20
267.30446799999999
 30
0.0
  0
VERTEX
  5
1FB
  8
001
 10
271.164669
 20
266.90254499999998
 30
0.0
  0
VERTEX
  5
1FC
  8
001
 10
269.664669
 20
266.50062100000002
 30
0.0
  0
SEQEND
  5
1F9
  8
001
  0
POLYLINE
  5
1FD
  8
001
 66
     1
 10
0.0
 20
0.0
 30
0.0
  0
VERTEX
  5
1FF
  8
001
 10
278.57466899999997
 20
266.50062100000002
 30
0.0
  0
VERTEX
  5
200
  8
001
 10
277.07466899999997
 20
266.90254499999998
 30
0.0
  0
VERTEX
  5
201
  8
001
 10
278.57466899999997
 20
267.30446799999999
 30
0.0
  0
SEQEND
  5
1FE
  8
001
  0
TEXT
  5
202
  8
001
 10
243.664669
 20
267.90254500000009
 30
0.0
 40
4.0
  1
（５．９１）
 41
0.833333
  0
POINT
  5
203
  8
001
 10
271.164669
 20
280.792306
 30
0.0
  0
POINT
  5
204
  8
001
 10
277.07466899999997
 20
280.792306
 30
0.0
  0
POINT
  5
205
  8
001
 10
277.07466899999997
 20
266.90254499999998
 30
0.0
  0
LINE
  5
206
  8
001
 10
271.164669
 20
266.90254499999998
 30
0.0
 11
240.664669
 21
266.90254499999998
 31
0.0
  0
LINE
  5
207
  8
001
 10
277.07466899999997
 20
266.90254499999998
 30
0.0
 11
279.57466899999997
 21
266.90254499999998
 31
0.0
  0
ENDBLK
  5
1F4
  8
0
  0
BLOCK
  8
0
  2
*D23
 70
     1
 10
0.0
 20
0.0
 30
0.0
  3
*D23
  1

  0
LINE
  5
20B
  8
001
 10
273.57467600000001
 20
285.57122500000003
 30
0.0
 11
275.84968700000002
 21
288.23098499999998
 31
0.0
  0
POLYLINE
  5
20C
  8
001
 66
     1
 10
0.0
 20
0.0
 30
0.0
  0
VERTEX
  5
20E
  8
001
 10
274.56924800000002
 20
287.35234000000003
 30
0.0
  0
VERTEX
  5
20F
  8
001
 10
275.84968700000002
 20
288.23098499999998
 30
0.0
  0
VERTEX
  5
210
  8
001
 10
275.180117
 20
286.829836
 30
0.0
  0
SEQEND
  5
20D
  8
001
  0
TEXT
  5
211
  8
001
 10
263.29258800000002
 20
275.08869499999997
 30
0.0
 40
4.0
  1
Ｒ３．５
 50
49.458140999999991
 41
0.833333
  0
POINT
  5
212
  8
001
 10
275.84968700000002
 20
288.23098499999998
 30
0.0
  0
POINT
  5
213
  8
001
 10
273.57467600000001
 20
285.57122500000003
 30
0.0
  0
ENDBLK
  5
20A
  8
0
  0
BLOCK
  8
0
  2
*D24
 70
     1
 10
0.0
 20
0.0
 30
0.0
  3
*D24
  1

  0
LINE
  5
217
  8
001
 10
268.99319000000003
 20
420.01419699999991
 30
0.0
 11
262.06978199999998
 21
420.01419699999991
 31
0.0
  0
LINE
  5
218
  8
001
 10
268.99319000000003
 20
412.95419700000002
 30
0.0
 11
262.06978199999998
 21
412.95419700000002
 31
0.0
  0
LINE
  5
219
  8
001
 10
264.81978199999998
 20
420.01419699999991
 30
0.0
 11
264.81978199999998
 21
412.95419700000002
 31
0.0
  0
POLYLINE
  5
21A
  8
001
 66
     1
 10
0.0
 20
0.0
 30
0.0
  0
VERTEX
  5
21C
  8
001
 10
265.22170599999998
 20
421.51419699999991
 30
0.0
  0
VERTEX
  5
21D
  8
001
 10
264.81978199999998
 20
420.01419699999991
 30
0.0
  0
VERTEX
  5
21E
  8
001
 10
264.41785800000002
 20
421.51419699999991
 30
0.0
  0
SEQEND
  5
21B
  8
001
  0
POLYLINE
  5
21F
  8
001
 66
     1
 10
0.0
 20
0.0
 30
0.0
  0
VERTEX
  5
221
  8
001
 10
264.41785800000002
 20
411.45419700000002
 30
0.0
  0
VERTEX
  5
222
  8
001
 10
264.81978199999998
 20
412.95419700000002
 30
0.0
  0
VERTEX
  5
223
  8
001
 10
265.22170599999998
 20
411.45419700000002
 30
0.0
  0
SEQEND
  5
220
  8
001
  0
TEXT
  5
224
  8
001
 10
263.81978199999998
 20
423.51419699999991
 30
0.0
 40
4.0
  1
（７．０６）
 50
90.000003000000007
 41
0.833333
  0
POINT
  5
225
  8
001
 10
268.99319000000003
 20
420.01419699999991
 30
0.0
  0
POINT
  5
226
  8
001
 10
268.99319000000003
 20
412.95419700000002
 30
0.0
  0
POINT
  5
227
  8
001
 10
264.81978199999998
 20
412.95419700000002
 30
0.0
  0
LINE
  5
228
  8
001
 10
264.81978199999998
 20
420.01419699999991
 30
0.0
 11
264.81978199999998
 21
450.51419699999991
 31
0.0
  0
LINE
  5
229
  8
001
 10
264.81978199999998
 20
412.95419700000002
 30
0.0
 11
264.81978199999998
 21
410.45419700000002
 31
0.0
  0
ENDBLK
  5
216
  8
0
  0
BLOCK
  8
0
  2
*D25
 70
     1
 10
0.0
 20
0.0
 30
0.0
  3
*D25
  1

  0
LINE
  5
22D
  8
001
 10
271.164669
 20
405.17528399999992
 30
0.0
 11
271.164669
 21
387.79417000000001
 31
0.0
  0
LINE
  5
22E
  8
001
 10
276.58466900000002
 20
405.17528399999992
 30
0.0
 11
276.58466900000002
 21
387.79417000000001
 31
0.0
  0
LINE
  5
22F
  8
001
 10
271.164669
 20
390.54417000000001
 30
0.0
 11
276.58466900000002
 21
390.54417000000001
 31
0.0
  0
POLYLINE
  5
230
  8
001
 66
     1
 10
0.0
 20
0.0
 30
0.0
  0
VERTEX
  5
232
  8
001
 10
269.664669
 20
390.94609400000002
 30
0.0
  0
VERTEX
  5
233
  8
001
 10
271.164669
 20
390.54417000000001
 30
0.0
  0
VERTEX
  5
234
  8
001
 10
269.664669
 20
390.142247
 30
0.0
  0
SEQEND
  5
231
  8
001
  0
POLYLINE
  5
235
  8
001
 66
     1
 10
0.0
 20
0.0
 30
0.0
  0
VERTEX
  5
237
  8
001
 10
278.08466900000002
 20
390.142247
 30
0.0
  0
VERTEX
  5
238
  8
001
 10
276.58466900000002
 20
390.54417000000001
 30
0.0
  0
VERTEX
  5
239
  8
001
 10
278.08466900000002
 20
390.94609400000002
 30
0.0
  0
SEQEND
  5
236
  8
001
  0
TEXT
  5
23A
  8
001
 10
243.664669
 20
391.54417000000001
 30
0.0
 40
4.0
  1
（５．４２）
 41
0.833333
  0
POINT
  5
23B
  8
001
 10
271.164669
 20
405.17528399999992
 30
0.0
  0
POINT
  5
23C
  8
001
 10
276.58466900000002
 20
405.17528399999992
 30
0.0
  0
POINT
  5
23D
  8
001
 10
276.58466900000002
 20
390.54417000000001
 30
0.0
  0
LINE
  5
23E
  8
001
 10
271.164669
 20
390.54417000000001
 30
0.0
 11
240.664669
 21
390.54417000000001
 31
0.0
  0
LINE
  5
23F
  8
001
 10
276.58466900000002
 20
390.54417000000001
 30
0.0
 11
279.08466900000002
 21
390.54417000000001
 31
0.0
  0
ENDBLK
  5
22C
  8
0
  0
BLOCK
  8
0
  2
*D26
 70
     1
 10
0.0
 20
0.0
 30
0.0
  3
*D26
  1

  0
LINE
  5
243
  8
001
 10
274.08467200000001
 20
410.45419900000002
 30
0.0
 11
275.70339999999999
 21
412.35938199999993
 31
0.0
  0
POLYLINE
  5
244
  8
001
 66
     1
 10
0.0
 20
0.0
 30
0.0
  0
VERTEX
  5
246
  8
001
 10
274.42586800000009
 20
411.47651500000001
 30
0.0
  0
VERTEX
  5
247
  8
001
 10
275.70339999999999
 20
412.35938199999993
 30
0.0
  0
VERTEX
  5
248
  8
001
 10
275.03845799999999
 20
410.95603
 30
0.0
  0
SEQEND
  5
245
  8
001
  0
TEXT
  5
249
  8
001
 10
263.353002
 20
399.36784599999999
 30
0.0
 40
4.0
  1
Ｒ２．５
 50
49.647289000000001
 41
0.833333
  0
POINT
  5
24A
  8
001
 10
275.70339999999999
 20
412.35938199999993
 30
0.0
  0
POINT
  5
24B
  8
001
 10
274.08467200000001
 20
410.45419900000002
 30
0.0
  0
ENDBLK
  5
242
  8
0
  0
BLOCK
  8
0
  2
*D27
 70
     1
 10
0.0
 20
0.0
 30
0.0
  3
*D27
  1

  0
LINE
  5
24F
  8
001
 10
489.30416700000001
 20
52.324826999999999
 30
0.0
 11
481.89252099999987
 21
52.324826999999999
 31
0.0
  0
LINE
  5
250
  8
001
 10
489.30416700000001
 20
44.774827000000002
 30
0.0
 11
481.89252099999987
 21
44.774827000000002
 31
0.0
  0
LINE
  5
251
  8
001
 10
484.64252099999987
 20
52.324826999999999
 30
0.0
 11
484.64252099999987
 21
44.774827000000002
 31
0.0
  0
POLYLINE
  5
252
  8
001
 66
     1
 10
0.0
 20
0.0
 30
0.0
  0
VERTEX
  5
254
  8
001
 10
485.044445
 20
53.824826999999999
 30
0.0
  0
VERTEX
  5
255
  8
001
 10
484.64252099999987
 20
52.324826999999999
 30
0.0
  0
VERTEX
  5
256
  8
001
 10
484.24059799999998
 20
53.824826999999999
 30
0.0
  0
SEQEND
  5
253
  8
001
  0
POLYLINE
  5
257
  8
001
 66
     1
 10
0.0
 20
0.0
 30
0.0
  0
VERTEX
  5
259
  8
001
 10
484.24059799999998
 20
43.274827000000002
 30
0.0
  0
VERTEX
  5
25A
  8
001
 10
484.64252099999987
 20
44.774827000000002
 30
0.0
  0
VERTEX
  5
25B
  8
001
 10
485.044445
 20
43.274827000000002
 30
0.0
  0
SEQEND
  5
258
  8
001
  0
TEXT
  5
25C
  8
001
 10
483.64252099999987
 20
55.824826999999992
 30
0.0
 40
4.0
  1
（７．５５）
 50
90.000003000000007
 41
0.833333
  0
POINT
  5
25D
  8
001
 10
489.30416700000001
 20
52.324826999999999
 30
0.0
  0
POINT
  5
25E
  8
001
 10
489.30416700000001
 20
44.774827000000002
 30
0.0
  0
POINT
  5
25F
  8
001
 10
484.64252099999987
 20
44.774827000000002
 30
0.0
  0
LINE
  5
260
  8
001
 10
484.64252099999987
 20
52.324826999999999
 30
0.0
 11
484.64252099999987
 21
82.824826999999999
 31
0.0
  0
LINE
  5
261
  8
001
 10
484.64252099999987
 20
44.774827000000002
 30
0.0
 11
484.64252099999987
 21
42.274827000000002
 31
0.0
  0
ENDBLK
  5
24E
  8
0
  0
BLOCK
  8
0
  2
*D28
 70
     1
 10
0.0
 20
0.0
 30
0.0
  3
*D28
  1

  0
LINE
  5
265
  8
001
 10
491.47564599999993
 20
37.485914000000001
 30
0.0
 11
491.47564599999993
 21
20.524502999999999
 31
0.0
  0
LINE
  5
266
  8
001
 10
496.395646
 20
37.485914000000001
 30
0.0
 11
496.395646
 21
20.524502999999999
 31
0.0
  0
LINE
  5
267
  8
001
 10
491.47564599999993
 20
23.274502999999999
 30
0.0
 11
496.395646
 21
23.274502999999999
 31
0.0
  0
POLYLINE
  5
268
  8
001
 66
     1
 10
0.0
 20
0.0
 30
0.0
  0
VERTEX
  5
26A
  8
001
 10
489.97564599999993
 20
23.676427
 30
0.0
  0
VERTEX
  5
26B
  8
001
 10
491.47564599999993
 20
23.274502999999999
 30
0.0
  0
VERTEX
  5
26C
  8
001
 10
489.97564599999993
 20
22.872579000000002
 30
0.0
  0
SEQEND
  5
269
  8
001
  0
POLYLINE
  5
26D
  8
001
 66
     1
 10
0.0
 20
0.0
 30
0.0
  0
VERTEX
  5
26F
  8
001
 10
497.895646
 20
22.872579000000002
 30
0.0
  0
VERTEX
  5
270
  8
001
 10
496.395646
 20
23.274502999999999
 30
0.0
  0
VERTEX
  5
271
  8
001
 10
497.895646
 20
23.676427
 30
0.0
  0
SEQEND
  5
26E
  8
001
  0
TEXT
  5
272
  8
001
 10
463.97564599999998
 20
24.274502999999999
 30
0.0
 40
4.0
  1
（４．９２）
 41
0.833333
  0
POINT
  5
273
  8
001
 10
491.47564599999993
 20
37.485914000000001
 30
0.0
  0
POINT
  5
274
  8
001
 10
496.395646
 20
37.485914000000001
 30
0.0
  0
POINT
  5
275
  8
001
 10
496.395646
 20
23.274502999999999
 30
0.0
  0
LINE
  5
276
  8
001
 10
491.47564599999993
 20
23.274502999999999
 30
0.0
 11
460.97564599999993
 21
23.274502999999999
 31
0.0
  0
LINE
  5
277
  8
001
 10
496.395646
 20
23.274502999999999
 30
0.0
 11
498.89564599999989
 21
23.274502999999999
 31
0.0
  0
ENDBLK
  5
264
  8
0
  0
BLOCK
  8
0
  2
*D29
 70
     1
 10
0.0
 20
0.0
 30
0.0
  3
*D29
  1

  0
LINE
  5
27B
  8
001
 10
494.89570700000002
 20
43.274887999999997
 30
0.0
 11
495.98228499999999
 21
44.308981000000003
 31
0.0
  0
POLYLINE
  5
27C
  8
001
 66
     1
 10
0.0
 20
0.0
 30
0.0
  0
VERTEX
  5
27E
  8
001
 10
494.6186219999999
 20
43.566034999999999
 30
0.0
  0
VERTEX
  5
27F
  8
001
 10
495.98228499999999
 20
44.308981000000003
 30
0.0
  0
VERTEX
  5
280
  8
001
 10
495.17279100000002
 20
42.983739999999997
 30
0.0
  0
SEQEND
  5
27D
  8
001
  0
TEXT
  5
281
  8
001
 10
483.13141799999988
 20
32.171748000000001
 30
0.0
 40
4.0
  1
Ｒ１．５
 50
43.582261999999993
 41
0.833333
  0
POINT
  5
282
  8
001
 10
495.98228499999999
 20
44.308981000000003
 30
0.0
  0
POINT
  5
283
  8
001
 10
494.89570700000002
 20
43.274887999999997
 30
0.0
  0
ENDBLK
  5
27A
  8
0
  0
BLOCK
  8
0
  2
*D30
 70
     1
 10
0.0
 20
0.0
 30
0.0
  3
*D30
  1

  0
LINE
  5
287
  8
001
 10
489.30416700000001
 20
178.132037
 30
0.0
 11
482.42617300000001
 21
178.132037
 31
0.0
  0
LINE
  5
288
  8
001
 10
489.30416700000001
 20
170.20203699999999
 30
0.0
 11
482.42617300000001
 21
170.20203699999999
 31
0.0
  0
LINE
  5
289
  8
001
 10
485.17617300000001
 20
178.132037
 30
0.0
 11
485.17617300000001
 21
170.20203699999999
 31
0.0
  0
POLYLINE
  5
28A
  8
001
 66
     1
 10
0.0
 20
0.0
 30
0.0
  0
VERTEX
  5
28C
  8
001
 10
485.5780969999999
 20
179.632037
 30
0.0
  0
VERTEX
  5
28D
  8
001
 10
485.17617300000001
 20
178.132037
 30
0.0
  0
VERTEX
  5
28E
  8
001
 10
484.77424899999988
 20
179.632037
 30
0.0
  0
SEQEND
  5
28B
  8
001
  0
POLYLINE
  5
28F
  8
001
 66
     1
 10
0.0
 20
0.0
 30
0.0
  0
VERTEX
  5
291
  8
001
 10
484.77424899999988
 20
168.70203699999999
 30
0.0
  0
VERTEX
  5
292
  8
001
 10
485.17617300000001
 20
170.20203699999999
 30
0.0
  0
VERTEX
  5
293
  8
001
 10
485.5780969999999
 20
168.70203699999999
 30
0.0
  0
SEQEND
  5
290
  8
001
  0
TEXT
  5
294
  8
001
 10
484.17617300000001
 20
181.632037
 30
0.0
 40
4.0
  1
（７．９３）
 50
90.000003000000007
 41
0.833333
  0
POINT
  5
295
  8
001
 10
489.30416700000001
 20
178.132037
 30
0.0
  0
POINT
  5
296
  8
001
 10
489.30416700000001
 20
170.20203699999999
 30
0.0
  0
POINT
  5
297
  8
001
 10
485.17617300000001
 20
170.20203699999999
 30
0.0
  0
LINE
  5
298
  8
001
 10
485.17617300000001
 20
178.132037
 30
0.0
 11
485.17617300000001
 21
208.632037
 31
0.0
  0
LINE
  5
299
  8
001
 10
485.17617300000001
 20
170.20203699999999
 30
0.0
 11
485.17617300000001
 21
167.70203699999999
 31
0.0
  0
ENDBLK
  5
286
  8
0
  0
BLOCK
  8
0
  2
*D31
 70
     1
 10
0.0
 20
0.0
 30
0.0
  3
*D31
  1

  0
LINE
  5
29D
  8
001
 10
491.47564599999993
 20
163.29312400000001
 30
0.0
 11
491.47564599999993
 21
146.604918
 31
0.0
  0
LINE
  5
29E
  8
001
 10
496.02564599999999
 20
163.29312400000001
 30
0.0
 11
496.02564599999999
 21
146.604918
 31
0.0
  0
LINE
  5
29F
  8
001
 10
491.47564599999993
 20
149.354918
 30
0.0
 11
496.02564599999999
 21
149.354918
 31
0.0
  0
POLYLINE
  5
2A0
  8
001
 66
     1
 10
0.0
 20
0.0
 30
0.0
  0
VERTEX
  5
2A2
  8
001
 10
489.97564599999993
 20
149.75684200000001
 30
0.0
  0
VERTEX
  5
2A3
  8
001
 10
491.47564599999993
 20
149.354918
 30
0.0
  0
VERTEX
  5
2A4
  8
001
 10
489.97564599999993
 20
148.95299499999999
 30
0.0
  0
SEQEND
  5
2A1
  8
001
  0
POLYLINE
  5
2A5
  8
001
 66
     1
 10
0.0
 20
0.0
 30
0.0
  0
VERTEX
  5
2A7
  8
001
 10
497.52564599999988
 20
148.95299499999999
 30
0.0
  0
VERTEX
  5
2A8
  8
001
 10
496.02564599999999
 20
149.354918
 30
0.0
  0
VERTEX
  5
2A9
  8
001
 10
497.52564599999988
 20
149.75684200000001
 30
0.0
  0
SEQEND
  5
2A6
  8
001
  0
TEXT
  5
2AA
  8
001
 10
463.97564599999998
 20
150.354918
 30
0.0
 40
4.0
  1
（４．５５）
 41
0.833333
  0
POINT
  5
2AB
  8
001
 10
491.47564599999993
 20
163.29312400000001
 30
0.0
  0
POINT
  5
2AC
  8
001
 10
496.02564599999999
 20
163.29312400000001
 30
0.0
  0
POINT
  5
2AD
  8
001
 10
496.02564599999999
 20
149.354918
 30
0.0
  0
LINE
  5
2AE
  8
001
 10
491.47564599999993
 20
149.354918
 30
0.0
 11
460.97564599999993
 21
149.354918
 31
0.0
  0
LINE
  5
2AF
  8
001
 10
496.02564599999999
 20
149.354918
 30
0.0
 11
498.52564599999999
 21
149.354918
 31
0.0
  0
ENDBLK
  5
29C
  8
0
  0
BLOCK
  8
0
  2
*D32
 70
     1
 10
0.0
 20
0.0
 30
0.0
  3
*D32
  1

  0
LINE
  5
2B3
  8
001
 10
495.27576799999991
 20
169.45215999999999
 30
0.0
 11
495.84091299999989
 21
169.945223
 31
0.0
  0
POLYLINE
  5
2B4
  8
001
 66
     1
 10
0.0
 20
0.0
 30
0.0
  0
VERTEX
  5
2B6
  8
001
 10
494.446392
 20
169.261956
 30
0.0
  0
VERTEX
  5
2B7
  8
001
 10
495.84091299999989
 20
169.945223
 30
0.0
  0
VERTEX
  5
2B8
  8
001
 10
494.97485599999987
 20
168.65623600000001
 30
0.0
  0
SEQEND
  5
2B5
  8
001
  0
TEXT
  5
2B9
  8
001
 10
479.88757199999992
 20
157.35373100000001
 30
0.0
 40
4.0
  1
Ｒ０．７５
 50
41.103262000000008
 41
0.833333
  0
POINT
  5
2BA
  8
001
 10
495.84091299999989
 20
169.945223
 30
0.0
  0
POINT
  5
2BB
  8
001
 10
495.27576799999991
 20
169.45215999999999
 30
0.0
  0
ENDBLK
  5
2B2
  8
0
  0
BLOCK
  8
0
  2
*D33
 70
     1
 10
0.0
 20
0.0
 30
0.0
  3
*D33
  1

  0
LINE
  5
2BF
  8
001
 10
495.39583099999987
 20
288.11539800000003
 30
0.0
 11
495.7493849999999
 21
288.468952
 31
0.0
  0
POLYLINE
  5
2C0
  8
001
 66
     1
 10
0.0
 20
0.0
 30
0.0
  0
VERTEX
  5
2C2
  8
001
 10
494.40452199999987
 20
287.69249500000001
 30
0.0
  0
VERTEX
  5
2C3
  8
001
 10
495.7493849999999
 20
288.468952
 30
0.0
  0
VERTEX
  5
2C4
  8
001
 10
494.97292800000002
 20
287.12408799999997
 30
0.0
  0
SEQEND
  5
2C1
  8
001
  0
TEXT
  5
2C5
  8
001
 10
483.27187400000003
 20
275.16500200000002
 30
0.0
 40
4.0
  1
Ｒ０．５
 50
45.000000999999997
 41
0.833333
  0
POINT
  5
2C6
  8
001
 10
495.7493849999999
 20
288.468952
 30
0.0
  0
POINT
  5
2C7
  8
001
 10
495.39583099999987
 20
288.11539800000003
 30
0.0
  0
ENDBLK
  5
2BE
  8
0
  0
BLOCK
  8
0
  2
*D34
 70
     1
 10
0.0
 20
0.0
 30
0.0
  3
*D34
  1

  0
LINE
  5
2CB
  8
001
 10
489.30416700000001
 20
296.66521299999999
 30
0.0
 11
483.20205800000002
 21
296.66521299999999
 31
0.0
  0
LINE
  5
2CC
  8
001
 10
489.30416700000001
 20
288.61521299999998
 30
0.0
 11
483.20205800000002
 21
288.61521299999998
 31
0.0
  0
LINE
  5
2CD
  8
001
 10
485.95205800000002
 20
296.66521299999999
 30
0.0
 11
485.95205800000002
 21
288.61521299999998
 31
0.0
  0
POLYLINE
  5
2CE
  8
001
 66
     1
 10
0.0
 20
0.0
 30
0.0
  0
VERTEX
  5
2D0
  8
001
 10
486.35398199999997
 20
298.16521299999999
 30
0.0
  0
VERTEX
  5
2D1
  8
001
 10
485.95205800000002
 20
296.66521299999999
 30
0.0
  0
VERTEX
  5
2D2
  8
001
 10
485.5501349999999
 20
298.16521299999999
 30
0.0
  0
SEQEND
  5
2CF
  8
001
  0
POLYLINE
  5
2D3
  8
001
 66
     1
 10
0.0
 20
0.0
 30
0.0
  0
VERTEX
  5
2D5
  8
001
 10
485.5501349999999
 20
287.11521299999998
 30
0.0
  0
VERTEX
  5
2D6
  8
001
 10
485.95205800000002
 20
288.61521299999998
 30
0.0
  0
VERTEX
  5
2D7
  8
001
 10
486.35398199999997
 20
287.11521299999998
 30
0.0
  0
SEQEND
  5
2D4
  8
001
  0
TEXT
  5
2D8
  8
001
 10
484.95205800000002
 20
300.16521299999999
 30
0.0
 40
4.0
  1
（８．０５）
 50
90.000003000000007
 41
0.833333
  0
POINT
  5
2D9
  8
001
 10
489.30416700000001
 20
296.66521299999999
 30
0.0
  0
POINT
  5
2DA
  8
001
 10
489.30416700000001
 20
288.61521299999998
 30
0.0
  0
POINT
  5
2DB
  8
001
 10
485.95205800000002
 20
288.61521299999998
 30
0.0
  0
LINE
  5
2DC
  8
001
 10
485.95205800000002
 20
296.66521299999999
 30
0.0
 11
485.95205800000002
 21
327.16521299999999
 31
0.0
  0
LINE
  5
2DD
  8
001
 10
485.95205800000002
 20
288.61521299999998
 30
0.0
 11
485.95205800000002
 21
286.11521299999998
 31
0.0
  0
ENDBLK
  5
2CA
  8
0
  0
BLOCK
  8
0
  2
*D35
 70
     1
 10
0.0
 20
0.0
 30
0.0
  3
*D35
  1

  0
LINE
  5
2E1
  8
001
 10
495.895646
 20
281.8263
 30
0.0
 11
495.895646
 21
264.95628500000009
 31
0.0
  0
LINE
  5
2E2
  8
001
 10
491.47564599999993
 20
267.70628499999998
 30
0.0
 11
495.895646
 21
267.70628499999998
 31
0.0
  0
POLYLINE
  5
2E3
  8
001
 66
     1
 10
0.0
 20
0.0
 30
0.0
  0
VERTEX
  5
2E5
  8
001
 10
489.97564599999993
 20
268.10820899999999
 30
0.0
  0
VERTEX
  5
2E6
  8
001
 10
491.47564599999993
 20
267.70628499999998
 30
0.0
  0
VERTEX
  5
2E7
  8
001
 10
489.97564599999993
 20
267.30436099999997
 30
0.0
  0
SEQEND
  5
2E4
  8
001
  0
POLYLINE
  5
2E8
  8
001
 66
     1
 10
0.0
 20
0.0
 30
0.0
  0
VERTEX
  5
2EA
  8
001
 10
497.395646
 20
267.30436099999997
 30
0.0
  0
VERTEX
  5
2EB
  8
001
 10
495.895646
 20
267.70628499999998
 30
0.0
  0
VERTEX
  5
2EC
  8
001
 10
497.395646
 20
268.10820899999999
 30
0.0
  0
SEQEND
  5
2E9
  8
001
  0
TEXT
  5
2ED
  8
001
 10
463.97564599999998
 20
268.70628499999998
 30
0.0
 40
4.0
  1
（４．４２）
 41
0.833333
  0
POINT
  5
2EE
  8
001
 10
491.47564599999993
 20
281.8263
 30
0.0
  0
POINT
  5
2EF
  8
001
 10
495.895646
 20
281.8263
 30
0.0
  0
POINT
  5
2F0
  8
001
 10
495.895646
 20
267.70628499999998
 30
0.0
  0
LINE
  5
2F1
  8
001
 10
491.47564599999993
 20
267.70628499999998
 30
0.0
 11
460.97564599999993
 21
267.70628499999998
 31
0.0
  0
LINE
  5
2F2
  8
001
 10
495.895646
 20
267.70628499999998
 30
0.0
 11
498.39564599999989
 21
267.70628499999998
 31
0.0
  0
ENDBLK
  5
2E0
  8
0
  0
BLOCK
  8
0
  2
*D36
 70
     1
 10
0.0
 20
0.0
 30
0.0
  3
*D36
  1

  0
LINE
  5
2F6
  8
001
 10
173.973434
 20
62.324826999999999
 30
0.0
 11
199.50625299999999
 21
62.324826999999999
 31
0.0
  0
LINE
  5
2F7
  8
001
 10
173.973434
 20
42.324826999999999
 30
0.0
 11
199.50625299999999
 21
42.324826999999999
 31
0.0
  0
LINE
  5
2F8
  8
001
 10
196.75625299999999
 20
62.324826999999999
 30
0.0
 11
196.75625299999999
 21
42.324826999999999
 31
0.0
  0
POLYLINE
  5
2F9
  8
001
 66
     1
 10
0.0
 20
0.0
 30
0.0
  0
VERTEX
  5
2FB
  8
001
 10
196.35432900000001
 20
60.824826999999992
 30
0.0
  0
VERTEX
  5
2FC
  8
001
 10
196.75625299999999
 20
62.324826999999999
 30
0.0
  0
VERTEX
  5
2FD
  8
001
 10
197.15817699999999
 20
60.824826999999992
 30
0.0
  0
SEQEND
  5
2FA
  8
001
  0
POLYLINE
  5
2FE
  8
001
 66
     1
 10
0.0
 20
0.0
 30
0.0
  0
VERTEX
  5
300
  8
001
 10
197.15817699999999
 20
43.824826999999992
 30
0.0
  0
VERTEX
  5
301
  8
001
 10
196.75625299999999
 20
42.324826999999999
 30
0.0
  0
VERTEX
  5
302
  8
001
 10
196.35432900000001
 20
43.824826999999992
 30
0.0
  0
SEQEND
  5
2FF
  8
001
  0
TEXT
  5
303
  8
001
 10
195.75625299999999
 20
46.324826999999992
 30
0.0
 40
4.0
  1
%%c２０
 50
90.000003000000007
 41
0.8823529999999999
  0
POINT
  5
304
  8
001
 10
173.973434
 20
62.324826999999999
 30
0.0
  0
POINT
  5
305
  8
001
 10
173.973434
 20
42.324826999999999
 30
0.0
  0
POINT
  5
306
  8
001
 10
196.75625299999999
 20
42.324826999999999
 30
0.0
  0
ENDBLK
  5
2F5
  8
0
  0
BLOCK
  8
0
  2
*D37
 70
     1
 10
0.0
 20
0.0
 30
0.0
  3
*D37
  1

  0
LINE
  5
30A
  8
001
 10
56.973433999999997
 20
37.485914000000001
 30
0.0
 11
56.973433999999997
 21
-0.496563
 31
0.0
  0
LINE
  5
30B
  8
001
 10
176.973434
 20
45.324826999999999
 30
0.0
 11
176.973434
 21
-0.496563
 31
0.0
  0
LINE
  5
30C
  8
001
 10
56.973433999999997
 20
2.253436999999999
 30
0.0
 11
176.973434
 21
2.253436999999999
 31
0.0
  0
POLYLINE
  5
30D
  8
001
 66
     1
 10
0.0
 20
0.0
 30
0.0
  0
VERTEX
  5
30F
  8
001
 10
58.47343399999999
 20
1.851513
 30
0.0
  0
VERTEX
  5
310
  8
001
 10
56.973433999999997
 20
2.253436999999999
 30
0.0
  0
VERTEX
  5
311
  8
001
 10
58.47343399999999
 20
2.6553599999999991
 30
0.0
  0
SEQEND
  5
30E
  8
001
  0
POLYLINE
  5
312
  8
001
 66
     1
 10
0.0
 20
0.0
 30
0.0
  0
VERTEX
  5
314
  8
001
 10
175.473434
 20
2.6553599999999991
 30
0.0
  0
VERTEX
  5
315
  8
001
 10
176.973434
 20
2.253436999999999
 30
0.0
  0
VERTEX
  5
316
  8
001
 10
175.473434
 20
1.851513
 30
0.0
  0
SEQEND
  5
313
  8
001
  0
TEXT
  5
317
  8
001
 10
110.973434
 20
3.253436999999999
 30
0.0
 40
4.0
  1
１２０
 41
0.833333
  0
POINT
  5
318
  8
001
 10
56.973433999999997
 20
37.485914000000001
 30
0.0
  0
POINT
  5
319
  8
001
 10
176.973434
 20
45.324826999999999
 30
0.0
  0
POINT
  5
31A
  8
001
 10
176.973434
 20
2.253436999999999
 30
0.0
  0
ENDBLK
  5
309
  8
0
  0
BLOCK
  8
0
  2
*D38
 70
     1
 10
0.0
 20
0.0
 30
0.0
  3
*D38
  1

  0
LINE
  5
31E
  8
001
 10
96.973434000000012
 20
167.80434600000001
 30
0.0
 11
96.973434000000012
 21
137.47245000000001
 31
0.0
  0
LINE
  5
31F
  8
001
 10
56.973433999999997
 20
164.56543300000001
 30
0.0
 11
56.973433999999997
 21
137.47245000000001
 31
0.0
  0
LINE
  5
320
  8
001
 10
96.973434000000012
 20
140.22245000000001
 30
0.0
 11
56.973433999999997
 21
140.22245000000001
 31
0.0
  0
POLYLINE
  5
321
  8
001
 66
     1
 10
0.0
 20
0.0
 30
0.0
  0
VERTEX
  5
323
  8
001
 10
95.473433999999997
 20
140.62437399999999
 30
0.0
  0
VERTEX
  5
324
  8
001
 10
96.973434000000012
 20
140.22245000000001
 30
0.0
  0
VERTEX
  5
325
  8
001
 10
95.473433999999997
 20
139.820526
 30
0.0
  0
SEQEND
  5
322
  8
001
  0
POLYLINE
  5
326
  8
001
 66
     1
 10
0.0
 20
0.0
 30
0.0
  0
VERTEX
  5
328
  8
001
 10
58.47343399999999
 20
139.820526
 30
0.0
  0
VERTEX
  5
329
  8
001
 10
56.973433999999997
 20
140.22245000000001
 30
0.0
  0
VERTEX
  5
32A
  8
001
 10
58.47343399999999
 20
140.62437399999999
 30
0.0
  0
SEQEND
  5
327
  8
001
  0
TEXT
  5
32B
  8
001
 10
72.973433999999983
 20
141.22245000000001
 30
0.0
 40
4.0
  1
４０
 41
0.833333
  0
POINT
  5
32C
  8
001
 10
96.973434000000012
 20
167.80434600000001
 30
0.0
  0
POINT
  5
32D
  8
001
 10
56.973433999999997
 20
164.56543300000001
 30
0.0
  0
POINT
  5
32E
  8
001
 10
56.973433999999997
 20
140.22245000000001
 30
0.0
  0
ENDBLK
  5
31D
  8
0
  0
BLOCK
  8
0
  2
*D39
 70
     1
 10
0.0
 20
0.0
 30
0.0
  3
*D39
  1

  0
LINE
  5
332
  8
001
 10
176.973434
 20
172.904346
 30
0.0
 11
176.973434
 21
137.47245000000001
 31
0.0
  0
LINE
  5
333
  8
001
 10
96.973434000000012
 20
167.80434600000001
 30
0.0
 11
96.973434000000012
 21
137.47245000000001
 31
0.0
  0
LINE
  5
334
  8
001
 10
176.973434
 20
140.22245000000001
 30
0.0
 11
96.973434000000012
 21
140.22245000000001
 31
0.0
  0
POLYLINE
  5
335
  8
001
 66
     1
 10
0.0
 20
0.0
 30
0.0
  0
VERTEX
  5
337
  8
001
 10
175.473434
 20
140.62437399999999
 30
0.0
  0
VERTEX
  5
338
  8
001
 10
176.973434
 20
140.22245000000001
 30
0.0
  0
VERTEX
  5
339
  8
001
 10
175.473434
 20
139.820526
 30
0.0
  0
SEQEND
  5
336
  8
001
  0
POLYLINE
  5
33A
  8
001
 66
     1
 10
0.0
 20
0.0
 30
0.0
  0
VERTEX
  5
33C
  8
001
 10
98.473433999999983
 20
139.820526
 30
0.0
  0
VERTEX
  5
33D
  8
001
 10
96.973434000000012
 20
140.22245000000001
 30
0.0
  0
VERTEX
  5
33E
  8
001
 10
98.473433999999983
 20
140.62437399999999
 30
0.0
  0
SEQEND
  5
33B
  8
001
  0
TEXT
  5
33F
  8
001
 10
132.973434
 20
141.22245000000001
 30
0.0
 40
4.0
  1
８０
 41
0.833333
  0
POINT
  5
340
  8
001
 10
176.973434
 20
172.904346
 30
0.0
  0
POINT
  5
341
  8
001
 10
96.973434000000012
 20
167.80434600000001
 30
0.0
  0
POINT
  5
342
  8
001
 10
96.973434000000012
 20
140.22245000000001
 30
0.0
  0
ENDBLK
  5
331
  8
0
  0
BLOCK
  8
0
  2
*D40
 70
     1
 10
0.0
 20
0.0
 30
0.0
  3
*D40
  1

  0
LINE
  5
346
  8
001
 10
173.973434
 20
189.404346
 30
0.0
 11
199.50625299999999
 21
189.404346
 31
0.0
  0
LINE
  5
347
  8
001
 10
173.973434
 20
169.404346
 30
0.0
 11
199.50625299999999
 21
169.404346
 31
0.0
  0
LINE
  5
348
  8
001
 10
196.75625299999999
 20
189.404346
 30
0.0
 11
196.75625299999999
 21
169.404346
 31
0.0
  0
POLYLINE
  5
349
  8
001
 66
     1
 10
0.0
 20
0.0
 30
0.0
  0
VERTEX
  5
34B
  8
001
 10
196.35432900000001
 20
187.904346
 30
0.0
  0
VERTEX
  5
34C
  8
001
 10
196.75625299999999
 20
189.404346
 30
0.0
  0
VERTEX
  5
34D
  8
001
 10
197.15817699999999
 20
187.904346
 30
0.0
  0
SEQEND
  5
34A
  8
001
  0
POLYLINE
  5
34E
  8
001
 66
     1
 10
0.0
 20
0.0
 30
0.0
  0
VERTEX
  5
350
  8
001
 10
197.15817699999999
 20
170.904346
 30
0.0
  0
VERTEX
  5
351
  8
001
 10
196.75625299999999
 20
169.404346
 30
0.0
  0
VERTEX
  5
352
  8
001
 10
196.35432900000001
 20
170.904346
 30
0.0
  0
SEQEND
  5
34F
  8
001
  0
TEXT
  5
353
  8
001
 10
195.75625299999999
 20
173.404346
 30
0.0
 40
4.0
  1
%%c２０
 50
90.000003000000007
 41
0.8823529999999999
  0
POINT
  5
354
  8
001
 10
173.973434
 20
189.404346
 30
0.0
  0
POINT
  5
355
  8
001
 10
173.973434
 20
169.404346
 30
0.0
  0
POINT
  5
356
  8
001
 10
196.75625299999999
 20
169.404346
 30
0.0
  0
ENDBLK
  5
345
  8
0
  0
BLOCK
  8
0
  2
*D41
 70
     1
 10
0.0
 20
0.0
 30
0.0
  3
*D41
  1

  0
LINE
  5
35A
  8
001
 10
56.973433999999997
 20
164.56543300000001
 30
0.0
 11
56.973433999999997
 21
126.582955
 31
0.0
  0
LINE
  5
35B
  8
001
 10
176.973434
 20
172.404346
 30
0.0
 11
176.973434
 21
126.582955
 31
0.0
  0
LINE
  5
35C
  8
001
 10
56.973433999999997
 20
129.332955
 30
0.0
 11
176.973434
 21
129.332955
 31
0.0
  0
POLYLINE
  5
35D
  8
001
 66
     1
 10
0.0
 20
0.0
 30
0.0
  0
VERTEX
  5
35F
  8
001
 10
58.47343399999999
 20
128.93103199999999
 30
0.0
  0
VERTEX
  5
360
  8
001
 10
56.973433999999997
 20
129.332955
 30
0.0
  0
VERTEX
  5
361
  8
001
 10
58.47343399999999
 20
129.73487900000001
 30
0.0
  0
SEQEND
  5
35E
  8
001
  0
POLYLINE
  5
362
  8
001
 66
     1
 10
0.0
 20
0.0
 30
0.0
  0
VERTEX
  5
364
  8
001
 10
175.473434
 20
129.73487900000001
 30
0.0
  0
VERTEX
  5
365
  8
001
 10
176.973434
 20
129.332955
 30
0.0
  0
VERTEX
  5
366
  8
001
 10
175.473434
 20
128.93103199999999
 30
0.0
  0
SEQEND
  5
363
  8
001
  0
TEXT
  5
367
  8
001
 10
110.973434
 20
130.332955
 30
0.0
 40
4.0
  1
１２０
 41
0.833333
  0
POINT
  5
368
  8
001
 10
56.973433999999997
 20
164.56543300000001
 30
0.0
  0
POINT
  5
369
  8
001
 10
176.973434
 20
172.404346
 30
0.0
  0
POINT
  5
36A
  8
001
 10
176.973434
 20
129.332955
 30
0.0
  0
ENDBLK
  5
359
  8
0
  0
BLOCK
  8
0
  2
*D42
 70
     1
 10
0.0
 20
0.0
 30
0.0
  3
*D42
  1

  0
LINE
  5
36E
  8
001
 10
96.973434000000012
 20
284.71009700000002
 30
0.0
 11
96.973434000000012
 21
254.37820099999999
 31
0.0
  0
LINE
  5
36F
  8
001
 10
56.973433999999997
 20
281.47118399999999
 30
0.0
 11
56.973433999999997
 21
254.37820099999999
 31
0.0
  0
LINE
  5
370
  8
001
 10
96.973434000000012
 20
257.12820099999999
 30
0.0
 11
56.973433999999997
 21
257.12820099999999
 31
0.0
  0
POLYLINE
  5
371
  8
001
 66
     1
 10
0.0
 20
0.0
 30
0.0
  0
VERTEX
  5
373
  8
001
 10
95.473433999999997
 20
257.530125
 30
0.0
  0
VERTEX
  5
374
  8
001
 10
96.973434000000012
 20
257.12820099999999
 30
0.0
  0
VERTEX
  5
375
  8
001
 10
95.473433999999997
 20
256.72627799999998
 30
0.0
  0
SEQEND
  5
372
  8
001
  0
POLYLINE
  5
376
  8
001
 66
     1
 10
0.0
 20
0.0
 30
0.0
  0
VERTEX
  5
378
  8
001
 10
58.47343399999999
 20
256.72627799999998
 30
0.0
  0
VERTEX
  5
379
  8
001
 10
56.973433999999997
 20
257.12820099999999
 30
0.0
  0
VERTEX
  5
37A
  8
001
 10
58.47343399999999
 20
257.530125
 30
0.0
  0
SEQEND
  5
377
  8
001
  0
TEXT
  5
37B
  8
001
 10
72.973433999999983
 20
258.12820099999999
 30
0.0
 40
4.0
  1
４０
 41
0.833333
  0
POINT
  5
37C
  8
001
 10
96.973434000000012
 20
284.71009700000002
 30
0.0
  0
POINT
  5
37D
  8
001
 10
56.973433999999997
 20
281.47118399999999
 30
0.0
  0
POINT
  5
37E
  8
001
 10
56.973433999999997
 20
257.12820099999999
 30
0.0
  0
ENDBLK
  5
36D
  8
0
  0
BLOCK
  8
0
  2
*D43
 70
     1
 10
0.0
 20
0.0
 30
0.0
  3
*D43
  1

  0
LINE
  5
382
  8
001
 10
176.973434
 20
289.8100970000001
 30
0.0
 11
176.973434
 21
254.37820099999999
 31
0.0
  0
LINE
  5
383
  8
001
 10
96.973434000000012
 20
284.71009700000002
 30
0.0
 11
96.973434000000012
 21
254.37820099999999
 31
0.0
  0
LINE
  5
384
  8
001
 10
176.973434
 20
257.12820099999999
 30
0.0
 11
96.973434000000012
 21
257.12820099999999
 31
0.0
  0
POLYLINE
  5
385
  8
001
 66
     1
 10
0.0
 20
0.0
 30
0.0
  0
VERTEX
  5
387
  8
001
 10
175.473434
 20
257.530125
 30
0.0
  0
VERTEX
  5
388
  8
001
 10
176.973434
 20
257.12820099999999
 30
0.0
  0
VERTEX
  5
389
  8
001
 10
175.473434
 20
256.72627799999998
 30
0.0
  0
SEQEND
  5
386
  8
001
  0
POLYLINE
  5
38A
  8
001
 66
     1
 10
0.0
 20
0.0
 30
0.0
  0
VERTEX
  5
38C
  8
001
 10
98.473433999999983
 20
256.72627799999998
 30
0.0
  0
VERTEX
  5
38D
  8
001
 10
96.973434000000012
 20
257.12820099999999
 30
0.0
  0
VERTEX
  5
38E
  8
001
 10
98.473433999999983
 20
257.530125
 30
0.0
  0
SEQEND
  5
38B
  8
001
  0
TEXT
  5
38F
  8
001
 10
132.973434
 20
258.12820099999999
 30
0.0
 40
4.0
  1
８０
 41
0.833333
  0
POINT
  5
390
  8
001
 10
176.973434
 20
289.8100970000001
 30
0.0
  0
POINT
  5
391
  8
001
 10
96.973434000000012
 20
284.71009700000002
 30
0.0
  0
POINT
  5
392
  8
001
 10
96.973434000000012
 20
257.12820099999999
 30
0.0
  0
ENDBLK
  5
381
  8
0
  0
BLOCK
  8
0
  2
*D44
 70
     1
 10
0.0
 20
0.0
 30
0.0
  3
*D44
  1

  0
LINE
  5
396
  8
001
 10
173.973434
 20
306.3100970000001
 30
0.0
 11
199.50625299999999
 21
306.3100970000001
 31
0.0
  0
LINE
  5
397
  8
001
 10
173.973434
 20
286.3100970000001
 30
0.0
 11
199.50625299999999
 21
286.3100970000001
 31
0.0
  0
LINE
  5
398
  8
001
 10
196.75625299999999
 20
306.3100970000001
 30
0.0
 11
196.75625299999999
 21
286.3100970000001
 31
0.0
  0
POLYLINE
  5
399
  8
001
 66
     1
 10
0.0
 20
0.0
 30
0.0
  0
VERTEX
  5
39B
  8
001
 10
196.35432900000001
 20
304.8100970000001
 30
0.0
  0
VERTEX
  5
39C
  8
001
 10
196.75625299999999
 20
306.3100970000001
 30
0.0
  0
VERTEX
  5
39D
  8
001
 10
197.15817699999999
 20
304.8100970000001
 30
0.0
  0
SEQEND
  5
39A
  8
001
  0
POLYLINE
  5
39E
  8
001
 66
     1
 10
0.0
 20
0.0
 30
0.0
  0
VERTEX
  5
3A0
  8
001
 10
197.15817699999999
 20
287.8100970000001
 30
0.0
  0
VERTEX
  5
3A1
  8
001
 10
196.75625299999999
 20
286.3100970000001
 30
0.0
  0
VERTEX
  5
3A2
  8
001
 10
196.35432900000001
 20
287.8100970000001
 30
0.0
  0
SEQEND
  5
39F
  8
001
  0
TEXT
  5
3A3
  8
001
 10
195.75625299999999
 20
290.31009699999998
 30
0.0
 40
4.0
  1
%%c２０
 50
90.000003000000007
 41
0.8823529999999999
  0
POINT
  5
3A4
  8
001
 10
173.973434
 20
306.3100970000001
 30
0.0
  0
POINT
  5
3A5
  8
001
 10
173.973434
 20
286.3100970000001
 30
0.0
  0
POINT
  5
3A6
  8
001
 10
196.75625299999999
 20
286.3100970000001
 30
0.0
  0
ENDBLK
  5
395
  8
0
  0
BLOCK
  8
0
  2
*D45
 70
     1
 10
0.0
 20
0.0
 30
0.0
  3
*D45
  1

  0
LINE
  5
3AA
  8
001
 10
56.973433999999997
 20
281.47118399999999
 30
0.0
 11
56.973433999999997
 21
243.48870700000001
 31
0.0
  0
LINE
  5
3AB
  8
001
 10
176.973434
 20
289.31009699999998
 30
0.0
 11
176.973434
 21
243.48870700000001
 31
0.0
  0
LINE
  5
3AC
  8
001
 10
56.973433999999997
 20
246.23870700000001
 30
0.0
 11
176.973434
 21
246.23870700000001
 31
0.0
  0
POLYLINE
  5
3AD
  8
001
 66
     1
 10
0.0
 20
0.0
 30
0.0
  0
VERTEX
  5
3AF
  8
001
 10
58.47343399999999
 20
245.836783
 30
0.0
  0
VERTEX
  5
3B0
  8
001
 10
56.973433999999997
 20
246.23870700000001
 30
0.0
  0
VERTEX
  5
3B1
  8
001
 10
58.47343399999999
 20
246.64062999999999
 30
0.0
  0
SEQEND
  5
3AE
  8
001
  0
POLYLINE
  5
3B2
  8
001
 66
     1
 10
0.0
 20
0.0
 30
0.0
  0
VERTEX
  5
3B4
  8
001
 10
175.473434
 20
246.64062999999999
 30
0.0
  0
VERTEX
  5
3B5
  8
001
 10
176.973434
 20
246.23870700000001
 30
0.0
  0
VERTEX
  5
3B6
  8
001
 10
175.473434
 20
245.836783
 30
0.0
  0
SEQEND
  5
3B3
  8
001
  0
TEXT
  5
3B7
  8
001
 10
110.973434
 20
247.23870700000001
 30
0.0
 40
4.0
  1
１２０
 41
0.833333
  0
POINT
  5
3B8
  8
001
 10
56.973433999999997
 20
281.47118399999999
 30
0.0
  0
POINT
  5
3B9
  8
001
 10
176.973434
 20
289.31009699999998
 30
0.0
  0
POINT
  5
3BA
  8
001
 10
176.973434
 20
246.23870700000001
 30
0.0
  0
ENDBLK
  5
3A9
  8
0
  0
BLOCK
  8
0
  2
*D46
 70
     1
 10
0.0
 20
0.0
 30
0.0
  3
*D46
  1

  0
LINE
  5
3BE
  8
001
 10
176.973434
 20
289.8100970000001
 30
0.0
 11
176.973434
 21
254.37820099999999
 31
0.0
  0
LINE
  5
3BF
  8
001
 10
96.973434000000012
 20
284.71009700000002
 30
0.0
 11
96.973434000000012
 21
254.37820099999999
 31
0.0
  0
LINE
  5
3C0
  8
001
 10
176.973434
 20
257.12820099999999
 30
0.0
 11
96.973434000000012
 21
257.12820099999999
 31
0.0
  0
POLYLINE
  5
3C1
  8
001
 66
     1
 10
0.0
 20
0.0
 30
0.0
  0
VERTEX
  5
3C3
  8
001
 10
175.473434
 20
257.530125
 30
0.0
  0
VERTEX
  5
3C4
  8
001
 10
176.973434
 20
257.12820099999999
 30
0.0
  0
VERTEX
  5
3C5
  8
001
 10
175.473434
 20
256.72627799999998
 30
0.0
  0
SEQEND
  5
3C2
  8
001
  0
POLYLINE
  5
3C6
  8
001
 66
     1
 10
0.0
 20
0.0
 30
0.0
  0
VERTEX
  5
3C8
  8
001
 10
98.473433999999983
 20
256.72627799999998
 30
0.0
  0
VERTEX
  5
3C9
  8
001
 10
96.973434000000012
 20
257.12820099999999
 30
0.0
  0
VERTEX
  5
3CA
  8
001
 10
98.473433999999983
 20
257.530125
 30
0.0
  0
SEQEND
  5
3C7
  8
001
  0
TEXT
  5
3CB
  8
001
 10
132.973434
 20
258.12820099999999
 30
0.0
 40
4.0
  1
８０
 41
0.833333
  0
POINT
  5
3CC
  8
001
 10
176.973434
 20
289.8100970000001
 30
0.0
  0
POINT
  5
3CD
  8
001
 10
96.973434000000012
 20
284.71009700000002
 30
0.0
  0
POINT
  5
3CE
  8
001
 10
96.973434000000012
 20
257.12820099999999
 30
0.0
  0
ENDBLK
  5
3BD
  8
0
  0
BLOCK
  8
0
  2
*D47
 70
     1
 10
0.0
 20
0.0
 30
0.0
  3
*D47
  1

  0
LINE
  5
3D2
  8
001
 10
173.973434
 20
306.3100970000001
 30
0.0
 11
199.50625299999999
 21
306.3100970000001
 31
0.0
  0
LINE
  5
3D3
  8
001
 10
173.973434
 20
286.3100970000001
 30
0.0
 11
199.50625299999999
 21
286.3100970000001
 31
0.0
  0
LINE
  5
3D4
  8
001
 10
196.75625299999999
 20
306.3100970000001
 30
0.0
 11
196.75625299999999
 21
286.3100970000001
 31
0.0
  0
POLYLINE
  5
3D5
  8
001
 66
     1
 10
0.0
 20
0.0
 30
0.0
  0
VERTEX
  5
3D7
  8
001
 10
196.35432900000001
 20
304.8100970000001
 30
0.0
  0
VERTEX
  5
3D8
  8
001
 10
196.75625299999999
 20
306.3100970000001
 30
0.0
  0
VERTEX
  5
3D9
  8
001
 10
197.15817699999999
 20
304.8100970000001
 30
0.0
  0
SEQEND
  5
3D6
  8
001
  0
POLYLINE
  5
3DA
  8
001
 66
     1
 10
0.0
 20
0.0
 30
0.0
  0
VERTEX
  5
3DC
  8
001
 10
197.15817699999999
 20
287.8100970000001
 30
0.0
  0
VERTEX
  5
3DD
  8
001
 10
196.75625299999999
 20
286.3100970000001
 30
0.0
  0
VERTEX
  5
3DE
  8
001
 10
196.35432900000001
 20
287.8100970000001
 30
0.0
  0
SEQEND
  5
3DB
  8
001
  0
TEXT
  5
3DF
  8
001
 10
195.75625299999999
 20
290.31009699999998
 30
0.0
 40
4.0
  1
%%c２０
 50
90.000003000000007
 41
0.8823529999999999
  0
POINT
  5
3E0
  8
001
 10
173.973434
 20
306.3100970000001
 30
0.0
  0
POINT
  5
3E1
  8
001
 10
173.973434
 20
286.3100970000001
 30
0.0
  0
POINT
  5
3E2
  8
001
 10
196.75625299999999
 20
286.3100970000001
 30
0.0
  0
ENDBLK
  5
3D1
  8
0
  0
BLOCK
  8
0
  2
*D48
 70
     1
 10
0.0
 20
0.0
 30
0.0
  3
*D48
  1

  0
LINE
  5
3E6
  8
001
 10
56.973433999999997
 20
281.47118399999999
 30
0.0
 11
56.973433999999997
 21
243.48870700000001
 31
0.0
  0
LINE
  5
3E7
  8
001
 10
176.973434
 20
289.31009699999998
 30
0.0
 11
176.973434
 21
243.48870700000001
 31
0.0
  0
LINE
  5
3E8
  8
001
 10
56.973433999999997
 20
246.23870700000001
 30
0.0
 11
176.973434
 21
246.23870700000001
 31
0.0
  0
POLYLINE
  5
3E9
  8
001
 66
     1
 10
0.0
 20
0.0
 30
0.0
  0
VERTEX
  5
3EB
  8
001
 10
58.47343399999999
 20
245.836783
 30
0.0
  0
VERTEX
  5
3EC
  8
001
 10
56.973433999999997
 20
246.23870700000001
 30
0.0
  0
VERTEX
  5
3ED
  8
001
 10
58.47343399999999
 20
246.64062999999999
 30
0.0
  0
SEQEND
  5
3EA
  8
001
  0
POLYLINE
  5
3EE
  8
001
 66
     1
 10
0.0
 20
0.0
 30
0.0
  0
VERTEX
  5
3F0
  8
001
 10
175.473434
 20
246.64062999999999
 30
0.0
  0
VERTEX
  5
3F1
  8
001
 10
176.973434
 20
246.23870700000001
 30
0.0
  0
VERTEX
  5
3F2
  8
001
 10
175.473434
 20
245.836783
 30
0.0
  0
SEQEND
  5
3EF
  8
001
  0
TEXT
  5
3F3
  8
001
 10
110.973434
 20
247.23870700000001
 30
0.0
 40
4.0
  1
１２０
 41
0.833333
  0
POINT
  5
3F4
  8
001
 10
56.973433999999997
 20
281.47118399999999
 30
0.0
  0
POINT
  5
3F5
  8
001
 10
176.973434
 20
289.31009699999998
 30
0.0
  0
POINT
  5
3F6
  8
001
 10
176.973434
 20
246.23870700000001
 30
0.0
  0
ENDBLK
  5
3E5
  8
0
  0
BLOCK
  8
0
  2
*D49
 70
     1
 10
0.0
 20
0.0
 30
0.0
  3
*D49
  1

  0
LINE
  5
3FA
  8
001
 10
176.973434
 20
413.13913700000001
 30
0.0
 11
176.973434
 21
377.70724100000001
 31
0.0
  0
LINE
  5
3FB
  8
001
 10
96.973434000000012
 20
408.03913699999998
 30
0.0
 11
96.973434000000012
 21
377.70724100000001
 31
0.0
  0
LINE
  5
3FC
  8
001
 10
176.973434
 20
380.45724100000001
 30
0.0
 11
96.973434000000012
 21
380.45724100000001
 31
0.0
  0
POLYLINE
  5
3FD
  8
001
 66
     1
 10
0.0
 20
0.0
 30
0.0
  0
VERTEX
  5
3FF
  8
001
 10
175.473434
 20
380.85916500000002
 30
0.0
  0
VERTEX
  5
400
  8
001
 10
176.973434
 20
380.45724100000001
 30
0.0
  0
VERTEX
  5
401
  8
001
 10
175.473434
 20
380.055318
 30
0.0
  0
SEQEND
  5
3FE
  8
001
  0
POLYLINE
  5
402
  8
001
 66
     1
 10
0.0
 20
0.0
 30
0.0
  0
VERTEX
  5
404
  8
001
 10
98.473433999999983
 20
380.055318
 30
0.0
  0
VERTEX
  5
405
  8
001
 10
96.973434000000012
 20
380.45724100000001
 30
0.0
  0
VERTEX
  5
406
  8
001
 10
98.473433999999983
 20
380.85916500000002
 30
0.0
  0
SEQEND
  5
403
  8
001
  0
TEXT
  5
407
  8
001
 10
132.973434
 20
381.45724100000001
 30
0.0
 40
4.0
  1
８０
 41
0.833333
  0
POINT
  5
408
  8
001
 10
176.973434
 20
413.13913700000001
 30
0.0
  0
POINT
  5
409
  8
001
 10
96.973434000000012
 20
408.03913699999998
 30
0.0
  0
POINT
  5
40A
  8
001
 10
96.973434000000012
 20
380.45724100000001
 30
0.0
  0
ENDBLK
  5
3F9
  8
0
  0
BLOCK
  8
0
  2
*D50
 70
     1
 10
0.0
 20
0.0
 30
0.0
  3
*D50
  1

  0
LINE
  5
40E
  8
001
 10
173.973434
 20
429.63913700000001
 30
0.0
 11
199.50625299999999
 21
429.63913700000001
 31
0.0
  0
LINE
  5
40F
  8
001
 10
173.973434
 20
409.63913700000001
 30
0.0
 11
199.50625299999999
 21
409.63913700000001
 31
0.0
  0
LINE
  5
410
  8
001
 10
196.75625299999999
 20
429.63913700000001
 30
0.0
 11
196.75625299999999
 21
409.63913700000001
 31
0.0
  0
POLYLINE
  5
411
  8
001
 66
     1
 10
0.0
 20
0.0
 30
0.0
  0
VERTEX
  5
413
  8
001
 10
196.35432900000001
 20
428.13913700000001
 30
0.0
  0
VERTEX
  5
414
  8
001
 10
196.75625299999999
 20
429.63913700000001
 30
0.0
  0
VERTEX
  5
415
  8
001
 10
197.15817699999999
 20
428.13913700000001
 30
0.0
  0
SEQEND
  5
412
  8
001
  0
POLYLINE
  5
416
  8
001
 66
     1
 10
0.0
 20
0.0
 30
0.0
  0
VERTEX
  5
418
  8
001
 10
197.15817699999999
 20
411.13913699999989
 30
0.0
  0
VERTEX
  5
419
  8
001
 10
196.75625299999999
 20
409.63913700000001
 30
0.0
  0
VERTEX
  5
41A
  8
001
 10
196.35432900000001
 20
411.13913699999989
 30
0.0
  0
SEQEND
  5
417
  8
001
  0
TEXT
  5
41B
  8
001
 10
195.75625299999999
 20
413.63913700000001
 30
0.0
 40
4.0
  1
%%c２０
 50
90.000003000000007
 41
0.8823529999999999
  0
POINT
  5
41C
  8
001
 10
173.973434
 20
429.63913700000001
 30
0.0
  0
POINT
  5
41D
  8
001
 10
173.973434
 20
409.63913700000001
 30
0.0
  0
POINT
  5
41E
  8
001
 10
196.75625299999999
 20
409.63913700000001
 30
0.0
  0
ENDBLK
  5
40D
  8
0
  0
BLOCK
  8
0
  2
*D51
 70
     1
 10
0.0
 20
0.0
 30
0.0
  3
*D51
  1

  0
LINE
  5
422
  8
001
 10
56.973433999999997
 20
404.80022400000001
 30
0.0
 11
56.973433999999997
 21
366.817747
 31
0.0
  0
LINE
  5
423
  8
001
 10
176.973434
 20
412.63913700000001
 30
0.0
 11
176.973434
 21
366.817747
 31
0.0
  0
LINE
  5
424
  8
001
 10
56.973433999999997
 20
369.567747
 30
0.0
 11
176.973434
 21
369.567747
 31
0.0
  0
POLYLINE
  5
425
  8
001
 66
     1
 10
0.0
 20
0.0
 30
0.0
  0
VERTEX
  5
427
  8
001
 10
58.47343399999999
 20
369.16582299999999
 30
0.0
  0
VERTEX
  5
428
  8
001
 10
56.973433999999997
 20
369.567747
 30
0.0
  0
VERTEX
  5
429
  8
001
 10
58.47343399999999
 20
369.96967000000001
 30
0.0
  0
SEQEND
  5
426
  8
001
  0
POLYLINE
  5
42A
  8
001
 66
     1
 10
0.0
 20
0.0
 30
0.0
  0
VERTEX
  5
42C
  8
001
 10
175.473434
 20
369.96967000000001
 30
0.0
  0
VERTEX
  5
42D
  8
001
 10
176.973434
 20
369.567747
 30
0.0
  0
VERTEX
  5
42E
  8
001
 10
175.473434
 20
369.16582299999999
 30
0.0
  0
SEQEND
  5
42B
  8
001
  0
TEXT
  5
42F
  8
001
 10
110.973434
 20
370.567747
 30
0.0
 40
4.0
  1
１２０
 41
0.833333
  0
POINT
  5
430
  8
001
 10
56.973433999999997
 20
404.80022400000001
 30
0.0
  0
POINT
  5
431
  8
001
 10
176.973434
 20
412.63913700000001
 30
0.0
  0
POINT
  5
432
  8
001
 10
176.973434
 20
369.567747
 30
0.0
  0
ENDBLK
  5
421
  8
0
  0
BLOCK
  8
0
  2
*D52
 70
     1
 10
0.0
 20
0.0
 30
0.0
  3
*D52
  1

  0
LINE
  5
436
  8
001
 10
391.164669
 20
413.51419700000002
 30
0.0
 11
391.164669
 21
378.08230200000003
 31
0.0
  0
LINE
  5
437
  8
001
 10
311.164669
 20
408.414197
 30
0.0
 11
311.164669
 21
378.08230200000003
 31
0.0
  0
LINE
  5
438
  8
001
 10
391.164669
 20
380.83230200000003
 30
0.0
 11
311.164669
 21
380.83230200000003
 31
0.0
  0
POLYLINE
  5
439
  8
001
 66
     1
 10
0.0
 20
0.0
 30
0.0
  0
VERTEX
  5
43B
  8
001
 10
389.664669
 20
381.23422599999998
 30
0.0
  0
VERTEX
  5
43C
  8
001
 10
391.164669
 20
380.83230200000003
 30
0.0
  0
VERTEX
  5
43D
  8
001
 10
389.664669
 20
380.43037800000002
 30
0.0
  0
SEQEND
  5
43A
  8
001
  0
POLYLINE
  5
43E
  8
001
 66
     1
 10
0.0
 20
0.0
 30
0.0
  0
VERTEX
  5
440
  8
001
 10
312.664669
 20
380.43037800000002
 30
0.0
  0
VERTEX
  5
441
  8
001
 10
311.164669
 20
380.83230200000003
 30
0.0
  0
VERTEX
  5
442
  8
001
 10
312.664669
 20
381.23422599999998
 30
0.0
  0
SEQEND
  5
43F
  8
001
  0
TEXT
  5
443
  8
001
 10
347.164669
 20
381.83230200000003
 30
0.0
 40
4.0
  1
８０
 41
0.833333
  0
POINT
  5
444
  8
001
 10
391.164669
 20
413.51419700000002
 30
0.0
  0
POINT
  5
445
  8
001
 10
311.164669
 20
408.414197
 30
0.0
  0
POINT
  5
446
  8
001
 10
311.164669
 20
380.83230200000003
 30
0.0
  0
ENDBLK
  5
435
  8
0
  0
BLOCK
  8
0
  2
*D53
 70
     1
 10
0.0
 20
0.0
 30
0.0
  3
*D53
  1

  0
LINE
  5
44A
  8
001
 10
388.164669
 20
430.01419699999991
 30
0.0
 11
413.69748900000002
 21
430.01419699999991
 31
0.0
  0
LINE
  5
44B
  8
001
 10
388.164669
 20
410.01419700000002
 30
0.0
 11
413.69748900000002
 21
410.01419700000002
 31
0.0
  0
LINE
  5
44C
  8
001
 10
410.94748900000002
 20
430.01419699999991
 30
0.0
 11
410.94748900000002
 21
410.01419700000002
 31
0.0
  0
POLYLINE
  5
44D
  8
001
 66
     1
 10
0.0
 20
0.0
 30
0.0
  0
VERTEX
  5
44F
  8
001
 10
410.54556500000001
 20
428.51419699999991
 30
0.0
  0
VERTEX
  5
450
  8
001
 10
410.94748900000002
 20
430.01419699999991
 30
0.0
  0
VERTEX
  5
451
  8
001
 10
411.34941299999991
 20
428.51419699999991
 30
0.0
  0
SEQEND
  5
44E
  8
001
  0
POLYLINE
  5
452
  8
001
 66
     1
 10
0.0
 20
0.0
 30
0.0
  0
VERTEX
  5
454
  8
001
 10
411.34941299999991
 20
411.51419700000002
 30
0.0
  0
VERTEX
  5
455
  8
001
 10
410.94748900000002
 20
410.01419700000002
 30
0.0
  0
VERTEX
  5
456
  8
001
 10
410.54556500000001
 20
411.51419700000002
 30
0.0
  0
SEQEND
  5
453
  8
001
  0
TEXT
  5
457
  8
001
 10
409.94748900000002
 20
414.01419700000002
 30
0.0
 40
4.0
  1
%%c２０
 50
90.000003000000007
 41
0.8823529999999999
  0
POINT
  5
458
  8
001
 10
388.164669
 20
430.01419699999991
 30
0.0
  0
POINT
  5
459
  8
001
 10
388.164669
 20
410.01419700000002
 30
0.0
  0
POINT
  5
45A
  8
001
 10
410.94748900000002
 20
410.01419700000002
 30
0.0
  0
ENDBLK
  5
449
  8
0
  0
BLOCK
  8
0
  2
*D54
 70
     1
 10
0.0
 20
0.0
 30
0.0
  3
*D54
  1

  0
LINE
  5
45E
  8
001
 10
271.164669
 20
405.17528399999992
 30
0.0
 11
271.164669
 21
367.19280700000002
 31
0.0
  0
LINE
  5
45F
  8
001
 10
391.164669
 20
413.01419700000002
 30
0.0
 11
391.164669
 21
367.19280700000002
 31
0.0
  0
LINE
  5
460
  8
001
 10
271.164669
 20
369.94280700000002
 30
0.0
 11
391.164669
 21
369.94280700000002
 31
0.0
  0
POLYLINE
  5
461
  8
001
 66
     1
 10
0.0
 20
0.0
 30
0.0
  0
VERTEX
  5
463
  8
001
 10
272.664669
 20
369.54088300000001
 30
0.0
  0
VERTEX
  5
464
  8
001
 10
271.164669
 20
369.94280700000002
 30
0.0
  0
VERTEX
  5
465
  8
001
 10
272.664669
 20
370.34473100000002
 30
0.0
  0
SEQEND
  5
462
  8
001
  0
POLYLINE
  5
466
  8
001
 66
     1
 10
0.0
 20
0.0
 30
0.0
  0
VERTEX
  5
468
  8
001
 10
389.664669
 20
370.34473100000002
 30
0.0
  0
VERTEX
  5
469
  8
001
 10
391.164669
 20
369.94280700000002
 30
0.0
  0
VERTEX
  5
46A
  8
001
 10
389.664669
 20
369.54088300000001
 30
0.0
  0
SEQEND
  5
467
  8
001
  0
TEXT
  5
46B
  8
001
 10
325.164669
 20
370.9428069999999
 30
0.0
 40
4.0
  1
１２０
 41
0.833333
  0
POINT
  5
46C
  8
001
 10
271.164669
 20
405.17528399999992
 30
0.0
  0
POINT
  5
46D
  8
001
 10
391.164669
 20
413.01419700000002
 30
0.0
  0
POINT
  5
46E
  8
001
 10
391.164669
 20
369.94280700000002
 30
0.0
  0
ENDBLK
  5
45D
  8
0
  0
BLOCK
  8
0
  2
*D55
 70
     1
 10
0.0
 20
0.0
 30
0.0
  3
*D55
  1

  0
LINE
  5
472
  8
001
 10
391.164669
 20
289.13121899999999
 30
0.0
 11
391.164669
 21
253.69932399999999
 31
0.0
  0
LINE
  5
473
  8
001
 10
311.164669
 20
284.03121900000002
 30
0.0
 11
311.164669
 21
253.69932399999999
 31
0.0
  0
LINE
  5
474
  8
001
 10
391.164669
 20
256.44932399999999
 30
0.0
 11
311.164669
 21
256.44932399999999
 31
0.0
  0
POLYLINE
  5
475
  8
001
 66
     1
 10
0.0
 20
0.0
 30
0.0
  0
VERTEX
  5
477
  8
001
 10
389.664669
 20
256.851248
 30
0.0
  0
VERTEX
  5
478
  8
001
 10
391.164669
 20
256.44932399999999
 30
0.0
  0
VERTEX
  5
479
  8
001
 10
389.664669
 20
256.04739999999998
 30
0.0
  0
SEQEND
  5
476
  8
001
  0
POLYLINE
  5
47A
  8
001
 66
     1
 10
0.0
 20
0.0
 30
0.0
  0
VERTEX
  5
47C
  8
001
 10
312.664669
 20
256.04739999999998
 30
0.0
  0
VERTEX
  5
47D
  8
001
 10
311.164669
 20
256.44932399999999
 30
0.0
  0
VERTEX
  5
47E
  8
001
 10
312.664669
 20
256.851248
 30
0.0
  0
SEQEND
  5
47B
  8
001
  0
TEXT
  5
47F
  8
001
 10
347.164669
 20
257.4493240000001
 30
0.0
 40
4.0
  1
８０
 41
0.833333
  0
POINT
  5
480
  8
001
 10
391.164669
 20
289.13121899999999
 30
0.0
  0
POINT
  5
481
  8
001
 10
311.164669
 20
284.03121900000002
 30
0.0
  0
POINT
  5
482
  8
001
 10
311.164669
 20
256.44932399999999
 30
0.0
  0
ENDBLK
  5
471
  8
0
  0
BLOCK
  8
0
  2
*D56
 70
     1
 10
0.0
 20
0.0
 30
0.0
  3
*D56
  1

  0
LINE
  5
486
  8
001
 10
388.164669
 20
305.63121899999999
 30
0.0
 11
413.69748900000002
 21
305.63121899999999
 31
0.0
  0
LINE
  5
487
  8
001
 10
388.164669
 20
285.63121899999999
 30
0.0
 11
413.69748900000002
 21
285.63121899999999
 31
0.0
  0
LINE
  5
488
  8
001
 10
410.94748900000002
 20
305.63121899999999
 30
0.0
 11
410.94748900000002
 21
285.63121899999999
 31
0.0
  0
POLYLINE
  5
489
  8
001
 66
     1
 10
0.0
 20
0.0
 30
0.0
  0
VERTEX
  5
48B
  8
001
 10
410.54556500000001
 20
304.13121899999999
 30
0.0
  0
VERTEX
  5
48C
  8
001
 10
410.94748900000002
 20
305.63121899999999
 30
0.0
  0
VERTEX
  5
48D
  8
001
 10
411.34941299999991
 20
304.13121899999999
 30
0.0
  0
SEQEND
  5
48A
  8
001
  0
POLYLINE
  5
48E
  8
001
 66
     1
 10
0.0
 20
0.0
 30
0.0
  0
VERTEX
  5
490
  8
001
 10
411.34941299999991
 20
287.13121899999999
 30
0.0
  0
VERTEX
  5
491
  8
001
 10
410.94748900000002
 20
285.63121899999999
 30
0.0
  0
VERTEX
  5
492
  8
001
 10
410.54556500000001
 20
287.13121899999999
 30
0.0
  0
SEQEND
  5
48F
  8
001
  0
TEXT
  5
493
  8
001
 10
409.94748900000002
 20
289.63121899999999
 30
0.0
 40
4.0
  1
%%c２０
 50
90.000003000000007
 41
0.8823529999999999
  0
POINT
  5
494
  8
001
 10
388.164669
 20
305.63121899999999
 30
0.0
  0
POINT
  5
495
  8
001
 10
388.164669
 20
285.63121899999999
 30
0.0
  0
POINT
  5
496
  8
001
 10
410.94748900000002
 20
285.63121899999999
 30
0.0
  0
ENDBLK
  5
485
  8
0
  0
BLOCK
  8
0
  2
*D57
 70
     1
 10
0.0
 20
0.0
 30
0.0
  3
*D57
  1

  0
LINE
  5
49A
  8
001
 10
271.164669
 20
280.792306
 30
0.0
 11
271.164669
 21
242.80982900000001
 31
0.0
  0
LINE
  5
49B
  8
001
 10
391.164669
 20
288.63121899999999
 30
0.0
 11
391.164669
 21
242.80982900000001
 31
0.0
  0
LINE
  5
49C
  8
001
 10
271.164669
 20
245.55982900000001
 30
0.0
 11
391.164669
 21
245.55982900000001
 31
0.0
  0
POLYLINE
  5
49D
  8
001
 66
     1
 10
0.0
 20
0.0
 30
0.0
  0
VERTEX
  5
49F
  8
001
 10
272.664669
 20
245.157905
 30
0.0
  0
VERTEX
  5
4A0
  8
001
 10
271.164669
 20
245.55982900000001
 30
0.0
  0
VERTEX
  5
4A1
  8
001
 10
272.664669
 20
245.96175299999999
 30
0.0
  0
SEQEND
  5
49E
  8
001
  0
POLYLINE
  5
4A2
  8
001
 66
     1
 10
0.0
 20
0.0
 30
0.0
  0
VERTEX
  5
4A4
  8
001
 10
389.664669
 20
245.96175299999999
 30
0.0
  0
VERTEX
  5
4A5
  8
001
 10
391.164669
 20
245.55982900000001
 30
0.0
  0
VERTEX
  5
4A6
  8
001
 10
389.664669
 20
245.157905
 30
0.0
  0
SEQEND
  5
4A3
  8
001
  0
TEXT
  5
4A7
  8
001
 10
325.164669
 20
246.55982900000001
 30
0.0
 40
4.0
  1
１２０
 41
0.833333
  0
POINT
  5
4A8
  8
001
 10
271.164669
 20
280.792306
 30
0.0
  0
POINT
  5
4A9
  8
001
 10
391.164669
 20
288.63121899999999
 30
0.0
  0
POINT
  5
4AA
  8
001
 10
391.164669
 20
245.55982900000001
 30
0.0
  0
ENDBLK
  5
499
  8
0
  0
BLOCK
  8
0
  2
*D58
 70
     1
 10
0.0
 20
0.0
 30
0.0
  3
*D58
  1

  0
LINE
  5
4AE
  8
001
 10
391.164669
 20
173.412328
 30
0.0
 11
391.164669
 21
137.980433
 31
0.0
  0
LINE
  5
4AF
  8
001
 10
311.164669
 20
168.31232800000001
 30
0.0
 11
311.164669
 21
137.980433
 31
0.0
  0
LINE
  5
4B0
  8
001
 10
391.164669
 20
140.730433
 30
0.0
 11
311.164669
 21
140.730433
 31
0.0
  0
POLYLINE
  5
4B1
  8
001
 66
     1
 10
0.0
 20
0.0
 30
0.0
  0
VERTEX
  5
4B3
  8
001
 10
389.664669
 20
141.13235700000001
 30
0.0
  0
VERTEX
  5
4B4
  8
001
 10
391.164669
 20
140.730433
 30
0.0
  0
VERTEX
  5
4B5
  8
001
 10
389.664669
 20
140.328509
 30
0.0
  0
SEQEND
  5
4B2
  8
001
  0
POLYLINE
  5
4B6
  8
001
 66
     1
 10
0.0
 20
0.0
 30
0.0
  0
VERTEX
  5
4B8
  8
001
 10
312.664669
 20
140.328509
 30
0.0
  0
VERTEX
  5
4B9
  8
001
 10
311.164669
 20
140.730433
 30
0.0
  0
VERTEX
  5
4BA
  8
001
 10
312.664669
 20
141.13235700000001
 30
0.0
  0
SEQEND
  5
4B7
  8
001
  0
TEXT
  5
4BB
  8
001
 10
347.164669
 20
141.730433
 30
0.0
 40
4.0
  1
８０
 41
0.833333
  0
POINT
  5
4BC
  8
001
 10
391.164669
 20
173.412328
 30
0.0
  0
POINT
  5
4BD
  8
001
 10
311.164669
 20
168.31232800000001
 30
0.0
  0
POINT
  5
4BE
  8
001
 10
311.164669
 20
140.730433
 30
0.0
  0
ENDBLK
  5
4AD
  8
0
  0
BLOCK
  8
0
  2
*D59
 70
     1
 10
0.0
 20
0.0
 30
0.0
  3
*D59
  1

  0
LINE
  5
4C2
  8
001
 10
388.164669
 20
189.912328
 30
0.0
 11
413.69748900000002
 21
189.912328
 31
0.0
  0
LINE
  5
4C3
  8
001
 10
388.164669
 20
169.912328
 30
0.0
 11
413.69748900000002
 21
169.912328
 31
0.0
  0
LINE
  5
4C4
  8
001
 10
410.94748900000002
 20
189.912328
 30
0.0
 11
410.94748900000002
 21
169.912328
 31
0.0
  0
POLYLINE
  5
4C5
  8
001
 66
     1
 10
0.0
 20
0.0
 30
0.0
  0
VERTEX
  5
4C7
  8
001
 10
410.54556500000001
 20
188.412328
 30
0.0
  0
VERTEX
  5
4C8
  8
001
 10
410.94748900000002
 20
189.912328
 30
0.0
  0
VERTEX
  5
4C9
  8
001
 10
411.34941299999991
 20
188.412328
 30
0.0
  0
SEQEND
  5
4C6
  8
001
  0
POLYLINE
  5
4CA
  8
001
 66
     1
 10
0.0
 20
0.0
 30
0.0
  0
VERTEX
  5
4CC
  8
001
 10
411.34941299999991
 20
171.412328
 30
0.0
  0
VERTEX
  5
4CD
  8
001
 10
410.94748900000002
 20
169.912328
 30
0.0
  0
VERTEX
  5
4CE
  8
001
 10
410.54556500000001
 20
171.412328
 30
0.0
  0
SEQEND
  5
4CB
  8
001
  0
TEXT
  5
4CF
  8
001
 10
409.94748900000002
 20
173.912328
 30
0.0
 40
4.0
  1
%%c２０
 50
90.000003000000007
 41
0.8823529999999999
  0
POINT
  5
4D0
  8
001
 10
388.164669
 20
189.912328
 30
0.0
  0
POINT
  5
4D1
  8
001
 10
388.164669
 20
169.912328
 30
0.0
  0
POINT
  5
4D2
  8
001
 10
410.94748900000002
 20
169.912328
 30
0.0
  0
ENDBLK
  5
4C1
  8
0
  0
BLOCK
  8
0
  2
*D60
 70
     1
 10
0.0
 20
0.0
 30
0.0
  3
*D60
  1

  0
LINE
  5
4D6
  8
001
 10
271.164669
 20
165.07341600000001
 30
0.0
 11
271.164669
 21
127.09093799999999
 31
0.0
  0
LINE
  5
4D7
  8
001
 10
391.164669
 20
172.912328
 30
0.0
 11
391.164669
 21
127.09093799999999
 31
0.0
  0
LINE
  5
4D8
  8
001
 10
271.164669
 20
129.84093799999999
 30
0.0
 11
391.164669
 21
129.84093799999999
 31
0.0
  0
POLYLINE
  5
4D9
  8
001
 66
     1
 10
0.0
 20
0.0
 30
0.0
  0
VERTEX
  5
4DB
  8
001
 10
272.664669
 20
129.43901399999999
 30
0.0
  0
VERTEX
  5
4DC
  8
001
 10
271.164669
 20
129.84093799999999
 30
0.0
  0
VERTEX
  5
4DD
  8
001
 10
272.664669
 20
130.242862
 30
0.0
  0
SEQEND
  5
4DA
  8
001
  0
POLYLINE
  5
4DE
  8
001
 66
     1
 10
0.0
 20
0.0
 30
0.0
  0
VERTEX
  5
4E0
  8
001
 10
389.664669
 20
130.242862
 30
0.0
  0
VERTEX
  5
4E1
  8
001
 10
391.164669
 20
129.84093799999999
 30
0.0
  0
VERTEX
  5
4E2
  8
001
 10
389.664669
 20
129.43901399999999
 30
0.0
  0
SEQEND
  5
4DF
  8
001
  0
TEXT
  5
4E3
  8
001
 10
325.164669
 20
130.84093799999999
 30
0.0
 40
4.0
  1
１２０
 41
0.833333
  0
POINT
  5
4E4
  8
001
 10
271.164669
 20
165.07341600000001
 30
0.0
  0
POINT
  5
4E5
  8
001
 10
391.164669
 20
172.912328
 30
0.0
  0
POINT
  5
4E6
  8
001
 10
391.164669
 20
129.84093799999999
 30
0.0
  0
ENDBLK
  5
4D5
  8
0
  0
BLOCK
  8
0
  2
*D61
 70
     1
 10
0.0
 20
0.0
 30
0.0
  3
*D61
  1

  0
LINE
  5
4EA
  8
001
 10
391.164669
 20
45.824826999999992
 30
0.0
 11
391.164669
 21
10.392931000000001
 31
0.0
  0
LINE
  5
4EB
  8
001
 10
311.164669
 20
40.724827000000012
 30
0.0
 11
311.164669
 21
10.392931000000001
 31
0.0
  0
LINE
  5
4EC
  8
001
 10
391.164669
 20
13.142931000000001
 30
0.0
 11
311.164669
 21
13.142931000000001
 31
0.0
  0
POLYLINE
  5
4ED
  8
001
 66
     1
 10
0.0
 20
0.0
 30
0.0
  0
VERTEX
  5
4EF
  8
001
 10
389.664669
 20
13.544855
 30
0.0
  0
VERTEX
  5
4F0
  8
001
 10
391.164669
 20
13.142931000000001
 30
0.0
  0
VERTEX
  5
4F1
  8
001
 10
389.664669
 20
12.741008000000001
 30
0.0
  0
SEQEND
  5
4EE
  8
001
  0
POLYLINE
  5
4F2
  8
001
 66
     1
 10
0.0
 20
0.0
 30
0.0
  0
VERTEX
  5
4F4
  8
001
 10
312.664669
 20
12.741008000000001
 30
0.0
  0
VERTEX
  5
4F5
  8
001
 10
311.164669
 20
13.142931000000001
 30
0.0
  0
VERTEX
  5
4F6
  8
001
 10
312.664669
 20
13.544855
 30
0.0
  0
SEQEND
  5
4F3
  8
001
  0
TEXT
  5
4F7
  8
001
 10
347.164669
 20
14.142931000000001
 30
0.0
 40
4.0
  1
８０
 41
0.833333
  0
POINT
  5
4F8
  8
001
 10
391.164669
 20
45.824826999999992
 30
0.0
  0
POINT
  5
4F9
  8
001
 10
311.164669
 20
40.724827000000012
 30
0.0
  0
POINT
  5
4FA
  8
001
 10
311.164669
 20
13.142931000000001
 30
0.0
  0
ENDBLK
  5
4E9
  8
0
  0
BLOCK
  8
0
  2
*D62
 70
     1
 10
0.0
 20
0.0
 30
0.0
  3
*D62
  1

  0
LINE
  5
4FE
  8
001
 10
388.164669
 20
62.324826999999999
 30
0.0
 11
413.69748900000002
 21
62.324826999999999
 31
0.0
  0
LINE
  5
4FF
  8
001
 10
388.164669
 20
42.324826999999999
 30
0.0
 11
413.69748900000002
 21
42.324826999999999
 31
0.0
  0
LINE
  5
500
  8
001
 10
410.94748900000002
 20
62.324826999999999
 30
0.0
 11
410.94748900000002
 21
42.324826999999999
 31
0.0
  0
POLYLINE
  5
501
  8
001
 66
     1
 10
0.0
 20
0.0
 30
0.0
  0
VERTEX
  5
503
  8
001
 10
410.54556500000001
 20
60.824826999999992
 30
0.0
  0
VERTEX
  5
504
  8
001
 10
410.94748900000002
 20
62.324826999999999
 30
0.0
  0
VERTEX
  5
505
  8
001
 10
411.34941299999991
 20
60.824826999999992
 30
0.0
  0
SEQEND
  5
502
  8
001
  0
POLYLINE
  5
506
  8
001
 66
     1
 10
0.0
 20
0.0
 30
0.0
  0
VERTEX
  5
508
  8
001
 10
411.34941299999991
 20
43.824826999999992
 30
0.0
  0
VERTEX
  5
509
  8
001
 10
410.94748900000002
 20
42.324826999999999
 30
0.0
  0
VERTEX
  5
50A
  8
001
 10
410.54556500000001
 20
43.824826999999992
 30
0.0
  0
SEQEND
  5
507
  8
001
  0
TEXT
  5
50B
  8
001
 10
409.94748900000002
 20
46.324826999999992
 30
0.0
 40
4.0
  1
%%c２０
 50
90.000003000000007
 41
0.8823529999999999
  0
POINT
  5
50C
  8
001
 10
388.164669
 20
62.324826999999999
 30
0.0
  0
POINT
  5
50D
  8
001
 10
388.164669
 20
42.324826999999999
 30
0.0
  0
POINT
  5
50E
  8
001
 10
410.94748900000002
 20
42.324826999999999
 30
0.0
  0
ENDBLK
  5
4FD
  8
0
  0
BLOCK
  8
0
  2
*D63
 70
     1
 10
0.0
 20
0.0
 30
0.0
  3
*D63
  1

  0
LINE
  5
512
  8
001
 10
271.164669
 20
37.485914000000001
 30
0.0
 11
271.164669
 21
-0.496563
 31
0.0
  0
LINE
  5
513
  8
001
 10
391.164669
 20
45.324826999999999
 30
0.0
 11
391.164669
 21
-0.496563
 31
0.0
  0
LINE
  5
514
  8
001
 10
271.164669
 20
2.253436999999999
 30
0.0
 11
391.164669
 21
2.253436999999999
 31
0.0
  0
POLYLINE
  5
515
  8
001
 66
     1
 10
0.0
 20
0.0
 30
0.0
  0
VERTEX
  5
517
  8
001
 10
272.664669
 20
1.851513
 30
0.0
  0
VERTEX
  5
518
  8
001
 10
271.164669
 20
2.253436999999999
 30
0.0
  0
VERTEX
  5
519
  8
001
 10
272.664669
 20
2.6553599999999991
 30
0.0
  0
SEQEND
  5
516
  8
001
  0
POLYLINE
  5
51A
  8
001
 66
     1
 10
0.0
 20
0.0
 30
0.0
  0
VERTEX
  5
51C
  8
001
 10
389.664669
 20
2.6553599999999991
 30
0.0
  0
VERTEX
  5
51D
  8
001
 10
391.164669
 20
2.253436999999999
 30
0.0
  0
VERTEX
  5
51E
  8
001
 10
389.664669
 20
1.851513
 30
0.0
  0
SEQEND
  5
51B
  8
001
  0
TEXT
  5
51F
  8
001
 10
325.164669
 20
3.253436999999999
 30
0.0
 40
4.0
  1
１２０
 41
0.833333
  0
POINT
  5
520
  8
001
 10
271.164669
 20
37.485914000000001
 30
0.0
  0
POINT
  5
521
  8
001
 10
391.164669
 20
45.324826999999999
 30
0.0
  0
POINT
  5
522
  8
001
 10
391.164669
 20
2.253436999999999
 30
0.0
  0
ENDBLK
  5
511
  8
0
  0
BLOCK
  8
0
  2
*D64
 70
     1
 10
0.0
 20
0.0
 30
0.0
  3
*D64
  1

  0
LINE
  5
526
  8
001
 10
611.47564599999987
 20
45.824826999999992
 30
0.0
 11
611.47564599999987
 21
10.392931000000001
 31
0.0
  0
LINE
  5
527
  8
001
 10
531.47564599999987
 20
40.724827000000012
 30
0.0
 11
531.47564599999987
 21
10.392931000000001
 31
0.0
  0
LINE
  5
528
  8
001
 10
611.47564599999987
 20
13.142931000000001
 30
0.0
 11
531.47564599999987
 21
13.142931000000001
 31
0.0
  0
POLYLINE
  5
529
  8
001
 66
     1
 10
0.0
 20
0.0
 30
0.0
  0
VERTEX
  5
52B
  8
001
 10
609.97564599999998
 20
13.544855
 30
0.0
  0
VERTEX
  5
52C
  8
001
 10
611.47564599999987
 20
13.142931000000001
 30
0.0
  0
VERTEX
  5
52D
  8
001
 10
609.97564599999998
 20
12.741008000000001
 30
0.0
  0
SEQEND
  5
52A
  8
001
  0
POLYLINE
  5
52E
  8
001
 66
     1
 10
0.0
 20
0.0
 30
0.0
  0
VERTEX
  5
530
  8
001
 10
532.97564599999987
 20
12.741008000000001
 30
0.0
  0
VERTEX
  5
531
  8
001
 10
531.47564599999987
 20
13.142931000000001
 30
0.0
  0
VERTEX
  5
532
  8
001
 10
532.97564599999987
 20
13.544855
 30
0.0
  0
SEQEND
  5
52F
  8
001
  0
TEXT
  5
533
  8
001
 10
567.47564599999998
 20
14.142931000000001
 30
0.0
 40
4.0
  1
８０
 41
0.833333
  0
POINT
  5
534
  8
001
 10
611.47564599999987
 20
45.824826999999992
 30
0.0
  0
POINT
  5
535
  8
001
 10
531.47564599999987
 20
40.724827000000012
 30
0.0
  0
POINT
  5
536
  8
001
 10
531.47564599999987
 20
13.142931000000001
 30
0.0
  0
ENDBLK
  5
525
  8
0
  0
BLOCK
  8
0
  2
*D65
 70
     1
 10
0.0
 20
0.0
 30
0.0
  3
*D65
  1

  0
LINE
  5
53A
  8
001
 10
608.47564599999998
 20
62.324826999999999
 30
0.0
 11
634.008466
 21
62.324826999999999
 31
0.0
  0
LINE
  5
53B
  8
001
 10
608.47564599999998
 20
42.324826999999999
 30
0.0
 11
634.008466
 21
42.324826999999999
 31
0.0
  0
LINE
  5
53C
  8
001
 10
631.25846599999988
 20
62.324826999999999
 30
0.0
 11
631.25846599999988
 21
42.324826999999999
 31
0.0
  0
POLYLINE
  5
53D
  8
001
 66
     1
 10
0.0
 20
0.0
 30
0.0
  0
VERTEX
  5
53F
  8
001
 10
630.85654199999988
 20
60.824826999999992
 30
0.0
  0
VERTEX
  5
540
  8
001
 10
631.25846599999988
 20
62.324826999999999
 30
0.0
  0
VERTEX
  5
541
  8
001
 10
631.66038900000001
 20
60.824826999999992
 30
0.0
  0
SEQEND
  5
53E
  8
001
  0
POLYLINE
  5
542
  8
001
 66
     1
 10
0.0
 20
0.0
 30
0.0
  0
VERTEX
  5
544
  8
001
 10
631.66038900000001
 20
43.824826999999992
 30
0.0
  0
VERTEX
  5
545
  8
001
 10
631.25846599999988
 20
42.324826999999999
 30
0.0
  0
VERTEX
  5
546
  8
001
 10
630.85654199999988
 20
43.824826999999992
 30
0.0
  0
SEQEND
  5
543
  8
001
  0
TEXT
  5
547
  8
001
 10
630.25846599999988
 20
46.324826999999992
 30
0.0
 40
4.0
  1
%%c２０
 50
90.000003000000007
 41
0.8823529999999999
  0
POINT
  5
548
  8
001
 10
608.47564599999998
 20
62.324826999999999
 30
0.0
  0
POINT
  5
549
  8
001
 10
608.47564599999998
 20
42.324826999999999
 30
0.0
  0
POINT
  5
54A
  8
001
 10
631.25846599999988
 20
42.324826999999999
 30
0.0
  0
ENDBLK
  5
539
  8
0
  0
BLOCK
  8
0
  2
*D66
 70
     1
 10
0.0
 20
0.0
 30
0.0
  3
*D66
  1

  0
LINE
  5
54E
  8
001
 10
491.47564599999993
 20
37.485914000000001
 30
0.0
 11
491.47564599999993
 21
-0.496563
 31
0.0
  0
LINE
  5
54F
  8
001
 10
611.47564599999987
 20
45.324826999999999
 30
0.0
 11
611.47564599999987
 21
-0.496563
 31
0.0
  0
LINE
  5
550
  8
001
 10
491.47564599999993
 20
2.253436999999999
 30
0.0
 11
611.47564599999987
 21
2.253436999999999
 31
0.0
  0
POLYLINE
  5
551
  8
001
 66
     1
 10
0.0
 20
0.0
 30
0.0
  0
VERTEX
  5
553
  8
001
 10
492.97564599999998
 20
1.851513
 30
0.0
  0
VERTEX
  5
554
  8
001
 10
491.47564599999993
 20
2.253436999999999
 30
0.0
  0
VERTEX
  5
555
  8
001
 10
492.97564599999998
 20
2.6553599999999991
 30
0.0
  0
SEQEND
  5
552
  8
001
  0
POLYLINE
  5
556
  8
001
 66
     1
 10
0.0
 20
0.0
 30
0.0
  0
VERTEX
  5
558
  8
001
 10
609.97564599999998
 20
2.6553599999999991
 30
0.0
  0
VERTEX
  5
559
  8
001
 10
611.47564599999987
 20
2.253436999999999
 30
0.0
  0
VERTEX
  5
55A
  8
001
 10
609.97564599999998
 20
1.851513
 30
0.0
  0
SEQEND
  5
557
  8
001
  0
TEXT
  5
55B
  8
001
 10
545.47564599999987
 20
3.253436999999999
 30
0.0
 40
4.0
  1
１２０
 41
0.833333
  0
POINT
  5
55C
  8
001
 10
491.47564599999993
 20
37.485914000000001
 30
0.0
  0
POINT
  5
55D
  8
001
 10
611.47564599999987
 20
45.324826999999999
 30
0.0
  0
POINT
  5
55E
  8
001
 10
611.47564599999987
 20
2.253436999999999
 30
0.0
  0
ENDBLK
  5
54D
  8
0
  0
BLOCK
  8
0
  2
*D67
 70
     1
 10
0.0
 20
0.0
 30
0.0
  3
*D67
  1

  0
LINE
  5
562
  8
001
 10
611.47564599999987
 20
171.632037
 30
0.0
 11
611.47564599999987
 21
136.200142
 31
0.0
  0
LINE
  5
563
  8
001
 10
531.47564599999987
 20
166.532037
 30
0.0
 11
531.47564599999987
 21
136.200142
 31
0.0
  0
LINE
  5
564
  8
001
 10
611.47564599999987
 20
138.950142
 30
0.0
 11
531.47564599999987
 21
138.950142
 31
0.0
  0
POLYLINE
  5
565
  8
001
 66
     1
 10
0.0
 20
0.0
 30
0.0
  0
VERTEX
  5
567
  8
001
 10
609.97564599999998
 20
139.35206600000001
 30
0.0
  0
VERTEX
  5
568
  8
001
 10
611.47564599999987
 20
138.950142
 30
0.0
  0
VERTEX
  5
569
  8
001
 10
609.97564599999998
 20
138.54821799999999
 30
0.0
  0
SEQEND
  5
566
  8
001
  0
POLYLINE
  5
56A
  8
001
 66
     1
 10
0.0
 20
0.0
 30
0.0
  0
VERTEX
  5
56C
  8
001
 10
532.97564599999987
 20
138.54821799999999
 30
0.0
  0
VERTEX
  5
56D
  8
001
 10
531.47564599999987
 20
138.950142
 30
0.0
  0
VERTEX
  5
56E
  8
001
 10
532.97564599999987
 20
139.35206600000001
 30
0.0
  0
SEQEND
  5
56B
  8
001
  0
TEXT
  5
56F
  8
001
 10
567.47564599999998
 20
139.950142
 30
0.0
 40
4.0
  1
８０
 41
0.833333
  0
POINT
  5
570
  8
001
 10
611.47564599999987
 20
171.632037
 30
0.0
  0
POINT
  5
571
  8
001
 10
531.47564599999987
 20
166.532037
 30
0.0
  0
POINT
  5
572
  8
001
 10
531.47564599999987
 20
138.950142
 30
0.0
  0
ENDBLK
  5
561
  8
0
  0
BLOCK
  8
0
  2
*D68
 70
     1
 10
0.0
 20
0.0
 30
0.0
  3
*D68
  1

  0
LINE
  5
576
  8
001
 10
608.47564599999998
 20
188.132037
 30
0.0
 11
634.008466
 21
188.132037
 31
0.0
  0
LINE
  5
577
  8
001
 10
608.47564599999998
 20
168.132037
 30
0.0
 11
634.008466
 21
168.132037
 31
0.0
  0
LINE
  5
578
  8
001
 10
631.25846599999988
 20
188.132037
 30
0.0
 11
631.25846599999988
 21
168.132037
 31
0.0
  0
POLYLINE
  5
579
  8
001
 66
     1
 10
0.0
 20
0.0
 30
0.0
  0
VERTEX
  5
57B
  8
001
 10
630.85654199999988
 20
186.632037
 30
0.0
  0
VERTEX
  5
57C
  8
001
 10
631.25846599999988
 20
188.132037
 30
0.0
  0
VERTEX
  5
57D
  8
001
 10
631.66038900000001
 20
186.632037
 30
0.0
  0
SEQEND
  5
57A
  8
001
  0
POLYLINE
  5
57E
  8
001
 66
     1
 10
0.0
 20
0.0
 30
0.0
  0
VERTEX
  5
580
  8
001
 10
631.66038900000001
 20
169.632037
 30
0.0
  0
VERTEX
  5
581
  8
001
 10
631.25846599999988
 20
168.132037
 30
0.0
  0
VERTEX
  5
582
  8
001
 10
630.85654199999988
 20
169.632037
 30
0.0
  0
SEQEND
  5
57F
  8
001
  0
TEXT
  5
583
  8
001
 10
630.25846599999988
 20
172.132037
 30
0.0
 40
4.0
  1
%%c２０
 50
90.000003000000007
 41
0.8823529999999999
  0
POINT
  5
584
  8
001
 10
608.47564599999998
 20
188.132037
 30
0.0
  0
POINT
  5
585
  8
001
 10
608.47564599999998
 20
168.132037
 30
0.0
  0
POINT
  5
586
  8
001
 10
631.25846599999988
 20
168.132037
 30
0.0
  0
ENDBLK
  5
575
  8
0
  0
BLOCK
  8
0
  2
*D69
 70
     1
 10
0.0
 20
0.0
 30
0.0
  3
*D69
  1

  0
LINE
  5
58A
  8
001
 10
491.47564599999993
 20
163.29312400000001
 30
0.0
 11
491.47564599999993
 21
125.310647
 31
0.0
  0
LINE
  5
58B
  8
001
 10
611.47564599999987
 20
171.132037
 30
0.0
 11
611.47564599999987
 21
125.310647
 31
0.0
  0
LINE
  5
58C
  8
001
 10
491.47564599999993
 20
128.06064699999999
 30
0.0
 11
611.47564599999987
 21
128.06064699999999
 31
0.0
  0
POLYLINE
  5
58D
  8
001
 66
     1
 10
0.0
 20
0.0
 30
0.0
  0
VERTEX
  5
58F
  8
001
 10
492.97564599999998
 20
127.65872299999999
 30
0.0
  0
VERTEX
  5
590
  8
001
 10
491.47564599999993
 20
128.06064699999999
 30
0.0
  0
VERTEX
  5
591
  8
001
 10
492.97564599999998
 20
128.462571
 30
0.0
  0
SEQEND
  5
58E
  8
001
  0
POLYLINE
  5
592
  8
001
 66
     1
 10
0.0
 20
0.0
 30
0.0
  0
VERTEX
  5
594
  8
001
 10
609.97564599999998
 20
128.462571
 30
0.0
  0
VERTEX
  5
595
  8
001
 10
611.47564599999987
 20
128.06064699999999
 30
0.0
  0
VERTEX
  5
596
  8
001
 10
609.97564599999998
 20
127.65872299999999
 30
0.0
  0
SEQEND
  5
593
  8
001
  0
TEXT
  5
597
  8
001
 10
545.47564599999987
 20
129.06064699999999
 30
0.0
 40
4.0
  1
１２０
 41
0.833333
  0
POINT
  5
598
  8
001
 10
491.47564599999993
 20
163.29312400000001
 30
0.0
  0
POINT
  5
599
  8
001
 10
611.47564599999987
 20
171.132037
 30
0.0
  0
POINT
  5
59A
  8
001
 10
611.47564599999987
 20
128.06064699999999
 30
0.0
  0
ENDBLK
  5
589
  8
0
  0
BLOCK
  8
0
  2
*D70
 70
     1
 10
0.0
 20
0.0
 30
0.0
  3
*D70
  1

  0
LINE
  5
59E
  8
001
 10
611.47564599999987
 20
290.16521299999999
 30
0.0
 11
611.47564599999987
 21
254.733317
 31
0.0
  0
LINE
  5
59F
  8
001
 10
531.47564599999987
 20
285.06521300000003
 30
0.0
 11
531.47564599999987
 21
254.733317
 31
0.0
  0
LINE
  5
5A0
  8
001
 10
611.47564599999987
 20
257.483317
 30
0.0
 11
531.47564599999987
 21
257.483317
 31
0.0
  0
POLYLINE
  5
5A1
  8
001
 66
     1
 10
0.0
 20
0.0
 30
0.0
  0
VERTEX
  5
5A3
  8
001
 10
609.97564599999998
 20
257.88524100000001
 30
0.0
  0
VERTEX
  5
5A4
  8
001
 10
611.47564599999987
 20
257.483317
 30
0.0
  0
VERTEX
  5
5A5
  8
001
 10
609.97564599999998
 20
257.08139399999999
 30
0.0
  0
SEQEND
  5
5A2
  8
001
  0
POLYLINE
  5
5A6
  8
001
 66
     1
 10
0.0
 20
0.0
 30
0.0
  0
VERTEX
  5
5A8
  8
001
 10
532.97564599999987
 20
257.08139399999999
 30
0.0
  0
VERTEX
  5
5A9
  8
001
 10
531.47564599999987
 20
257.483317
 30
0.0
  0
VERTEX
  5
5AA
  8
001
 10
532.97564599999987
 20
257.88524100000001
 30
0.0
  0
SEQEND
  5
5A7
  8
001
  0
TEXT
  5
5AB
  8
001
 10
567.47564599999998
 20
258.483317
 30
0.0
 40
4.0
  1
８０
 41
0.833333
  0
POINT
  5
5AC
  8
001
 10
611.47564599999987
 20
290.16521299999999
 30
0.0
  0
POINT
  5
5AD
  8
001
 10
531.47564599999987
 20
285.06521300000003
 30
0.0
  0
POINT
  5
5AE
  8
001
 10
531.47564599999987
 20
257.483317
 30
0.0
  0
ENDBLK
  5
59D
  8
0
  0
BLOCK
  8
0
  2
*D71
 70
     1
 10
0.0
 20
0.0
 30
0.0
  3
*D71
  1

  0
LINE
  5
5B2
  8
001
 10
608.47564599999998
 20
306.66521299999999
 30
0.0
 11
634.008466
 21
306.66521299999999
 31
0.0
  0
LINE
  5
5B3
  8
001
 10
608.47564599999998
 20
286.66521299999999
 30
0.0
 11
634.008466
 21
286.66521299999999
 31
0.0
  0
LINE
  5
5B4
  8
001
 10
631.25846599999988
 20
306.66521299999999
 30
0.0
 11
631.25846599999988
 21
286.66521299999999
 31
0.0
  0
POLYLINE
  5
5B5
  8
001
 66
     1
 10
0.0
 20
0.0
 30
0.0
  0
VERTEX
  5
5B7
  8
001
 10
630.85654199999988
 20
305.16521299999999
 30
0.0
  0
VERTEX
  5
5B8
  8
001
 10
631.25846599999988
 20
306.66521299999999
 30
0.0
  0
VERTEX
  5
5B9
  8
001
 10
631.66038900000001
 20
305.16521299999999
 30
0.0
  0
SEQEND
  5
5B6
  8
001
  0
POLYLINE
  5
5BA
  8
001
 66
     1
 10
0.0
 20
0.0
 30
0.0
  0
VERTEX
  5
5BC
  8
001
 10
631.66038900000001
 20
288.16521299999999
 30
0.0
  0
VERTEX
  5
5BD
  8
001
 10
631.25846599999988
 20
286.66521299999999
 30
0.0
  0
VERTEX
  5
5BE
  8
001
 10
630.85654199999988
 20
288.16521299999999
 30
0.0
  0
SEQEND
  5
5BB
  8
001
  0
TEXT
  5
5BF
  8
001
 10
630.25846599999988
 20
290.66521299999999
 30
0.0
 40
4.0
  1
%%c２０
 50
90.000003000000007
 41
0.8823529999999999
  0
POINT
  5
5C0
  8
001
 10
608.47564599999998
 20
306.66521299999999
 30
0.0
  0
POINT
  5
5C1
  8
001
 10
608.47564599999998
 20
286.66521299999999
 30
0.0
  0
POINT
  5
5C2
  8
001
 10
631.25846599999988
 20
286.66521299999999
 30
0.0
  0
ENDBLK
  5
5B1
  8
0
  0
BLOCK
  8
0
  2
*D72
 70
     1
 10
0.0
 20
0.0
 30
0.0
  3
*D72
  1

  0
LINE
  5
5C6
  8
001
 10
491.47564599999993
 20
281.8263
 30
0.0
 11
491.47564599999993
 21
243.84382299999999
 31
0.0
  0
LINE
  5
5C7
  8
001
 10
611.47564599999987
 20
289.66521299999999
 30
0.0
 11
611.47564599999987
 21
243.84382299999999
 31
0.0
  0
LINE
  5
5C8
  8
001
 10
491.47564599999993
 20
246.59382299999999
 30
0.0
 11
611.47564599999987
 21
246.59382299999999
 31
0.0
  0
POLYLINE
  5
5C9
  8
001
 66
     1
 10
0.0
 20
0.0
 30
0.0
  0
VERTEX
  5
5CB
  8
001
 10
492.97564599999998
 20
246.19189900000001
 30
0.0
  0
VERTEX
  5
5CC
  8
001
 10
491.47564599999993
 20
246.59382299999999
 30
0.0
  0
VERTEX
  5
5CD
  8
001
 10
492.97564599999998
 20
246.995746
 30
0.0
  0
SEQEND
  5
5CA
  8
001
  0
POLYLINE
  5
5CE
  8
001
 66
     1
 10
0.0
 20
0.0
 30
0.0
  0
VERTEX
  5
5D0
  8
001
 10
609.97564599999998
 20
246.995746
 30
0.0
  0
VERTEX
  5
5D1
  8
001
 10
611.47564599999987
 20
246.59382299999999
 30
0.0
  0
VERTEX
  5
5D2
  8
001
 10
609.97564599999998
 20
246.19189900000001
 30
0.0
  0
SEQEND
  5
5CF
  8
001
  0
TEXT
  5
5D3
  8
001
 10
545.47564599999987
 20
247.59382299999999
 30
0.0
 40
4.0
  1
１２０
 41
0.833333
  0
POINT
  5
5D4
  8
001
 10
491.47564599999993
 20
281.8263
 30
0.0
  0
POINT
  5
5D5
  8
001
 10
611.47564599999987
 20
289.66521299999999
 30
0.0
  0
POINT
  5
5D6
  8
001
 10
611.47564599999987
 20
246.59382299999999
 30
0.0
  0
ENDBLK
  5
5C5
  8
0
  0
ENDSEC
  0
SECTION
  2
ENTITIES
  0
TEXT
  5
5D7
  8
001
 10
42.513529999999989
 20
46.324826999999992
 30
0.0
 40
4.0
  1
%%c２５
 50
90.000003000000007
 41
0.8823529999999999
  0
POLYLINE
  5
5D8
  8
001
 66
     1
 10
0.0
 20
0.0
 30
0.0
  0
VERTEX
  5
5DA
  8
001
 10
43.915453999999997
 20
41.324826999999992
 30
0.0
  0
VERTEX
  5
5DB
  8
001
 10
43.513529999999989
 20
39.824826999999999
 30
0.0
  0
VERTEX
  5
5DC
  8
001
 10
43.111606000000002
 20
41.324826999999992
 30
0.0
  0
SEQEND
  5
5D9
  8
001
  0
LINE
  5
5DD
  8
001
 10
43.513529999999989
 20
64.824826999999999
 30
0.0
 11
43.513529999999989
 21
39.824826999999999
 31
0.0
  0
POLYLINE
  5
5DE
  8
001
 66
     1
 10
0.0
 20
0.0
 30
0.0
  0
VERTEX
  5
5E0
  8
001
 10
54.801954000000002
 20
39.824826999999999
 30
0.0
  0
VERTEX
  5
5E1
  8
001
 10
43.513529999999989
 20
39.824826999999999
 30
0.0
  0
VERTEX
  5
5E2
  8
001
 10
40.763530000000003
 20
39.824826999999999
 30
0.0
  0
SEQEND
  5
5DF
  8
001
  0
DIMENSION
  5
5E3
  8
001
  2
*D1
 10
56.973433999999997
 20
13.142931000000001
 30
0.0
 11
76.973433999999997
 21
16.142931000000001
 31
0.0
 70
   128
 13
96.973434000000012
 23
40.724827000000012
 33
0.0
 14
56.973433999999997
 24
37.485914000000001
 34
0.0
 50
180.0
  0
DIMENSION
  5
5E4
  8
001
  2
*D2
 10
96.973434000000012
 20
13.142931000000001
 30
0.0
 11
136.973434
 21
16.142931000000001
 31
0.0
 70
   128
 13
176.973434
 23
45.824826999999992
 33
0.0
 14
96.973434000000012
 24
40.724827000000012
 34
0.0
 50
180.0
  0
DIMENSION
  5
5E5
  8
001
  2
*D3
 10
59.133439000000003
 20
42.014831999999998
 30
0.0
 11
57.070018999999988
 21
42.492635
 31
0.0
 70
   132
 15
61.518979999999999
 25
45.225625999999991
 35
0.0
 40
0.0
  0
DIMENSION
  5
5E6
  8
001
  2
*D4
 10
56.973433999999997
 20
24.56718
 30
0.0
 11
41.473433999999997
 21
27.56718
 31
0.0
 70
   128
 13
63.133433999999987
 23
37.485914000000001
 33
0.0
 14
56.973433999999997
 24
37.485914000000001
 34
0.0
 50
180.0
  0
DIMENSION
  5
5E7
  8
001
  2
*D5
 10
51.255401999999997
 20
46.014826999999997
 30
0.0
 11
48.255400999999999
 21
49.169827000000012
 31
0.0
 70
   128
 13
54.801954000000002
 23
52.324826999999999
 33
0.0
 14
54.801954000000002
 24
46.014826999999997
 34
0.0
 50
270.0
  0
TEXT
  5
5E8
  8
001
 10
42.513529999999989
 20
173.404346
 30
0.0
 40
4.0
  1
%%c２５
 50
90.000003000000007
 41
0.8823529999999999
  0
POLYLINE
  5
5E9
  8
001
 66
     1
 10
0.0
 20
0.0
 30
0.0
  0
VERTEX
  5
5EB
  8
001
 10
43.915453999999997
 20
168.404346
 30
0.0
  0
VERTEX
  5
5EC
  8
001
 10
43.513529999999989
 20
166.904346
 30
0.0
  0
VERTEX
  5
5ED
  8
001
 10
43.111606000000002
 20
168.404346
 30
0.0
  0
SEQEND
  5
5EA
  8
001
  0
LINE
  5
5EE
  8
001
 10
43.513529999999989
 20
191.904346
 30
0.0
 11
43.513529999999989
 21
166.904346
 31
0.0
  0
POLYLINE
  5
5EF
  8
001
 66
     1
 10
0.0
 20
0.0
 30
0.0
  0
VERTEX
  5
5F1
  8
001
 10
54.801954000000002
 20
166.904346
 30
0.0
  0
VERTEX
  5
5F2
  8
001
 10
43.513529999999989
 20
166.904346
 30
0.0
  0
VERTEX
  5
5F3
  8
001
 10
40.763530000000003
 20
166.904346
 30
0.0
  0
SEQEND
  5
5F0
  8
001
  0
DIMENSION
  5
5F4
  8
001
  2
*D6
 10
62.643433999999999
 20
150.33855
 30
0.0
 11
41.473433999999997
 21
153.33855
 31
0.0
 70
   128
 13
56.973433999999997
 23
164.56543300000001
 33
0.0
 14
62.643433999999999
 24
164.56543300000001
 34
0.0
  0
DIMENSION
  5
5F5
  8
001
  2
*D7
 10
51.065685999999999
 20
172.594346
 30
0.0
 11
48.065685000000002
 21
194.904346
 31
0.0
 70
   128
 13
54.801954000000002
 23
179.404346
 33
0.0
 14
54.801954000000002
 24
172.594346
 34
0.0
 50
270.0
  0
DIMENSION
  5
5F6
  8
001
  2
*D8
 10
59.643434999999997
 20
169.594348
 30
0.0
 11
55.442802
 21
169.27002200000001
 31
0.0
 70
   132
 15
61.579103000000011
 25
171.88633200000001
 35
0.0
 40
0.0
  0
TEXT
  5
5F7
  8
001
 10
42.513529999999989
 20
290.31009699999998
 30
0.0
 40
4.0
  1
%%c２５
 50
90.000003000000007
 41
0.8823529999999999
  0
POLYLINE
  5
5F8
  8
001
 66
     1
 10
0.0
 20
0.0
 30
0.0
  0
VERTEX
  5
5FA
  8
001
 10
43.915453999999997
 20
285.31009699999998
 30
0.0
  0
VERTEX
  5
5FB
  8
001
 10
43.513529999999989
 20
283.8100970000001
 30
0.0
  0
VERTEX
  5
5FC
  8
001
 10
43.111606000000002
 20
285.31009699999998
 30
0.0
  0
SEQEND
  5
5F9
  8
001
  0
LINE
  5
5FD
  8
001
 10
43.513529999999989
 20
308.8100970000001
 30
0.0
 11
43.513529999999989
 21
283.8100970000001
 31
0.0
  0
POLYLINE
  5
5FE
  8
001
 66
     1
 10
0.0
 20
0.0
 30
0.0
  0
VERTEX
  5
600
  8
001
 10
54.801954000000002
 20
283.8100970000001
 30
0.0
  0
VERTEX
  5
601
  8
001
 10
43.513529999999989
 20
283.8100970000001
 30
0.0
  0
VERTEX
  5
602
  8
001
 10
40.763530000000003
 20
283.8100970000001
 30
0.0
  0
SEQEND
  5
5FF
  8
001
  0
DIMENSION
  5
603
  8
001
  2
*D9
 10
52.087094999999998
 20
289.01009699999997
 30
0.0
 11
49.087094999999998
 21
309.81009699999998
 31
0.0
 70
   128
 13
54.801954000000002
 23
296.3100970000001
 33
0.0
 14
54.801954000000002
 24
289.01009699999997
 34
0.0
 50
270.0
  0
DIMENSION
  5
604
  8
001
  2
*D10
 10
62.143433999999999
 20
267.64187800000002
 30
0.0
 11
41.473433999999997
 21
270.64187799999991
 31
0.0
 70
   128
 13
56.973433999999997
 23
281.47118399999999
 33
0.0
 14
62.143433999999999
 24
282.38294400000001
 34
0.0
  0
DIMENSION
  5
605
  8
001
  2
*D11
 10
60.143478999999999
 20
287.01014199999997
 30
0.0
 11
55.364655999999997
 21
285.56955599999998
 31
0.0
 70
   132
 15
61.676330999999998
 25
288.29480699999999
 35
0.0
 40
0.0
  0
TEXT
  5
606
  8
001
 10
42.513529999999989
 20
413.63913700000001
 30
0.0
 40
4.0
  1
%%c２５
 50
90.000003000000007
 41
0.8823529999999999
  0
POLYLINE
  5
607
  8
001
 66
     1
 10
0.0
 20
0.0
 30
0.0
  0
VERTEX
  5
609
  8
001
 10
43.915453999999997
 20
408.63913700000001
 30
0.0
  0
VERTEX
  5
60A
  8
001
 10
43.513529999999989
 20
407.13913699999989
 30
0.0
  0
VERTEX
  5
60B
  8
001
 10
43.111606000000002
 20
408.63913700000001
 30
0.0
  0
SEQEND
  5
608
  8
001
  0
LINE
  5
60C
  8
001
 10
43.513529999999989
 20
432.13913699999989
 30
0.0
 11
43.513529999999989
 21
407.13913699999989
 31
0.0
  0
POLYLINE
  5
60D
  8
001
 66
     1
 10
0.0
 20
0.0
 30
0.0
  0
VERTEX
  5
60F
  8
001
 10
54.801954000000002
 20
407.13913699999989
 30
0.0
  0
VERTEX
  5
610
  8
001
 10
43.513529999999989
 20
407.13913699999989
 30
0.0
  0
VERTEX
  5
611
  8
001
 10
40.763530000000003
 20
407.13913699999989
 30
0.0
  0
SEQEND
  5
60E
  8
001
  0
DIMENSION
  5
612
  8
001
  2
*D12
 10
60.643524999999997
 20
410.83922799999999
 30
0.0
 11
55.194679999999998
 21
407.96063800000002
 31
0.0
 70
   132
 15
61.425781000000008
 25
411.46218499999998
 35
0.0
 40
0.0
  0
DIMENSION
  5
613
  8
001
  2
*D13
 10
50.992193999999991
 20
411.83913699999999
 30
0.0
 11
47.992193999999998
 21
433.13913700000001
 31
0.0
 70
   128
 13
54.801954000000002
 23
419.63913699999989
 33
0.0
 14
54.801954000000002
 24
411.83913699999999
 34
0.0
 50
270.0
  0
DIMENSION
  5
614
  8
001
  2
*D14
 10
56.973433999999997
 20
390.08381000000008
 30
0.0
 11
41.473433999999997
 21
393.08381000000003
 31
0.0
 70
   128
 13
61.643433999999992
 23
404.80022400000001
 33
0.0
 14
56.973433999999997
 24
404.80022400000001
 34
0.0
 50
180.0
  0
TEXT
  5
615
  8
001
 10
256.70476600000001
 20
46.324826999999992
 30
0.0
 40
4.0
  1
%%c２５
 50
90.000003000000007
 41
0.8823529999999999
  0
POLYLINE
  5
616
  8
001
 66
     1
 10
0.0
 20
0.0
 30
0.0
  0
VERTEX
  5
618
  8
001
 10
258.10669000000001
 20
41.324826999999992
 30
0.0
  0
VERTEX
  5
619
  8
001
 10
257.70476600000001
 20
39.824826999999999
 30
0.0
  0
VERTEX
  5
61A
  8
001
 10
257.302842
 20
41.324826999999992
 30
0.0
  0
SEQEND
  5
617
  8
001
  0
LINE
  5
61B
  8
001
 10
257.70476600000001
 20
64.824826999999999
 30
0.0
 11
257.70476600000001
 21
39.824826999999999
 31
0.0
  0
POLYLINE
  5
61C
  8
001
 66
     1
 10
0.0
 20
0.0
 30
0.0
  0
VERTEX
  5
61E
  8
001
 10
268.99319000000003
 20
39.824826999999999
 30
0.0
  0
VERTEX
  5
61F
  8
001
 10
257.70476600000001
 20
39.824826999999999
 30
0.0
  0
VERTEX
  5
620
  8
001
 10
254.95476600000001
 20
39.824826999999999
 30
0.0
  0
SEQEND
  5
61D
  8
001
  0
DIMENSION
  5
621
  8
001
  2
*D15
 10
272.82469700000001
 20
41.504853999999987
 30
0.0
 11
270.408748
 21
42.774634999999989
 31
0.0
 70
   132
 15
276.72043200000002
 25
44.639060000000001
 35
0.0
 40
0.0
  0
DIMENSION
  5
622
  8
001
  2
*D16
 10
265.51639799999998
 20
46.504826999999999
 30
0.0
 11
262.51639699999998
 21
67.824826999999999
 31
0.0
 70
   128
 13
268.99319000000003
 23
52.324826999999999
 33
0.0
 14
268.99319000000003
 24
46.504826999999999
 34
0.0
 50
270.0
  0
DIMENSION
  5
623
  8
001
  2
*D17
 10
277.82466899999997
 20
24.017344999999999
 30
0.0
 11
255.664669
 21
27.017345000000009
 31
0.0
 70
   128
 13
271.164669
 23
37.485914000000001
 33
0.0
 14
277.82466899999997
 24
37.485914000000001
 34
0.0
  0
TEXT
  5
624
  8
001
 10
256.70476600000001
 20
173.912328
 30
0.0
 40
4.0
  1
%%c２５
 50
90.000003000000007
 41
0.8823529999999999
  0
POLYLINE
  5
625
  8
001
 66
     1
 10
0.0
 20
0.0
 30
0.0
  0
VERTEX
  5
627
  8
001
 10
258.10669000000001
 20
168.912328
 30
0.0
  0
VERTEX
  5
628
  8
001
 10
257.70476600000001
 20
167.412328
 30
0.0
  0
VERTEX
  5
629
  8
001
 10
257.302842
 20
168.912328
 30
0.0
  0
SEQEND
  5
626
  8
001
  0
LINE
  5
62A
  8
001
 10
257.70476600000001
 20
192.412328
 30
0.0
 11
257.70476600000001
 21
167.412328
 31
0.0
  0
POLYLINE
  5
62B
  8
001
 66
     1
 10
0.0
 20
0.0
 30
0.0
  0
VERTEX
  5
62D
  8
001
 10
268.99319000000003
 20
167.412328
 30
0.0
  0
VERTEX
  5
62E
  8
001
 10
257.70476600000001
 20
167.412328
 30
0.0
  0
VERTEX
  5
62F
  8
001
 10
254.95476600000001
 20
167.412328
 30
0.0
  0
SEQEND
  5
62C
  8
001
  0
DIMENSION
  5
630
  8
001
  2
*D18
 10
273.07467400000002
 20
169.35233299999999
 30
0.0
 11
265.86673300000001
 21
167.35092
 31
0.0
 70
   132
 15
276.563852
 25
172.19409999999999
 35
0.0
 40
0.0
  0
DIMENSION
  5
631
  8
001
  2
*D19
 10
264.865995
 20
173.852328
 30
0.0
 11
261.865995
 21
195.412328
 31
0.0
 70
   128
 13
268.99319000000003
 23
179.912328
 33
0.0
 14
268.99319000000003
 24
173.852328
 34
0.0
 50
270.0
  0
DIMENSION
  5
632
  8
001
  2
*D20
 10
277.57466899999997
 20
151.26199700000001
 30
0.0
 11
255.664669
 21
154.26199700000001
 31
0.0
 70
   128
 13
271.164669
 23
165.07341600000001
 33
0.0
 14
277.57466899999997
 24
165.07341600000001
 34
0.0
  0
TEXT
  5
633
  8
001
 10
256.70476600000001
 20
289.63121899999999
 30
0.0
 40
4.0
  1
%%c２５
 50
90.000003000000007
 41
0.8823529999999999
  0
POLYLINE
  5
634
  8
001
 66
     1
 10
0.0
 20
0.0
 30
0.0
  0
VERTEX
  5
636
  8
001
 10
258.10669000000001
 20
284.63121899999999
 30
0.0
  0
VERTEX
  5
637
  8
001
 10
257.70476600000001
 20
283.13121899999999
 30
0.0
  0
VERTEX
  5
638
  8
001
 10
257.302842
 20
284.63121899999999
 30
0.0
  0
SEQEND
  5
635
  8
001
  0
LINE
  5
639
  8
001
 10
257.70476600000001
 20
308.13121899999999
 30
0.0
 11
257.70476600000001
 21
283.13121899999999
 31
0.0
  0
POLYLINE
  5
63A
  8
001
 66
     1
 10
0.0
 20
0.0
 30
0.0
  0
VERTEX
  5
63C
  8
001
 10
268.99319000000003
 20
283.13121899999999
 30
0.0
  0
VERTEX
  5
63D
  8
001
 10
257.70476600000001
 20
283.13121899999999
 30
0.0
  0
VERTEX
  5
63E
  8
001
 10
254.95476600000001
 20
283.13121899999999
 30
0.0
  0
SEQEND
  5
63B
  8
001
  0
DIMENSION
  5
63F
  8
001
  2
*D21
 10
264.97095000000002
 20
289.07121899999999
 30
0.0
 11
261.97095000000002
 21
311.13121899999999
 31
0.0
 70
   128
 13
268.99319000000003
 23
295.63121899999999
 33
0.0
 14
268.99319000000003
 24
289.07121899999999
 34
0.0
 50
270.0
  0
DIMENSION
  5
640
  8
001
  2
*D22
 10
277.07466899999997
 20
266.90254499999998
 30
0.0
 11
255.664669
 21
269.90254499999998
 31
0.0
 70
   128
 13
271.164669
 23
280.792306
 33
0.0
 14
277.07466899999997
 24
280.792306
 34
0.0
  0
DIMENSION
  5
641
  8
001
  2
*D23
 10
273.57467600000001
 20
285.57122500000003
 30
0.0
 11
266.9727529999999
 21
282.46815199999998
 31
0.0
 70
   132
 15
275.84968700000002
 25
288.23098499999998
 35
0.0
 40
0.0
  0
TEXT
  5
642
  8
001
 10
256.70476600000001
 20
414.01419700000002
 30
0.0
 40
4.0
  1
%%c２５
 50
90.000003000000007
 41
0.8823529999999999
  0
POLYLINE
  5
643
  8
001
 66
     1
 10
0.0
 20
0.0
 30
0.0
  0
VERTEX
  5
645
  8
001
 10
258.10669000000001
 20
409.01419700000002
 30
0.0
  0
VERTEX
  5
646
  8
001
 10
257.70476600000001
 20
407.51419700000002
 30
0.0
  0
VERTEX
  5
647
  8
001
 10
257.302842
 20
409.01419700000002
 30
0.0
  0
SEQEND
  5
644
  8
001
  0
LINE
  5
648
  8
001
 10
257.70476600000001
 20
432.51419699999991
 30
0.0
 11
257.70476600000001
 21
407.51419700000002
 31
0.0
  0
POLYLINE
  5
649
  8
001
 66
     1
 10
0.0
 20
0.0
 30
0.0
  0
VERTEX
  5
64B
  8
001
 10
268.99319000000003
 20
407.51419700000002
 30
0.0
  0
VERTEX
  5
64C
  8
001
 10
257.70476600000001
 20
407.51419700000002
 30
0.0
  0
VERTEX
  5
64D
  8
001
 10
254.95476600000001
 20
407.51419700000002
 30
0.0
  0
SEQEND
  5
64A
  8
001
  0
DIMENSION
  5
64E
  8
001
  2
*D24
 10
264.81978199999998
 20
412.95419700000002
 30
0.0
 11
261.81978099999998
 21
435.51419700000002
 31
0.0
 70
   128
 13
268.99319000000003
 23
420.01419699999991
 33
0.0
 14
268.99319000000003
 24
412.95419700000002
 34
0.0
 50
270.0
  0
DIMENSION
  5
64F
  8
001
  2
*D25
 10
276.58466900000002
 20
390.54417000000001
 30
0.0
 11
255.664669
 21
393.54417000000001
 31
0.0
 70
   128
 13
271.164669
 23
405.17528399999992
 33
0.0
 14
276.58466900000002
 24
405.17528399999992
 34
0.0
  0
DIMENSION
  5
650
  8
001
  2
*D26
 10
274.08467200000001
 20
410.45419900000002
 30
0.0
 11
267.00878499999999
 21
406.75941199999988
 31
0.0
 70
   132
 15
275.70339999999999
 25
412.35938199999993
 35
0.0
 40
0.0
  0
TEXT
  5
651
  8
001
 10
477.01574299999999
 20
46.324826999999992
 30
0.0
 40
4.0
  1
%%c２５
 50
90.000003000000007
 41
0.8823529999999999
  0
POLYLINE
  5
652
  8
001
 66
     1
 10
0.0
 20
0.0
 30
0.0
  0
VERTEX
  5
654
  8
001
 10
478.41766599999988
 20
41.324826999999992
 30
0.0
  0
VERTEX
  5
655
  8
001
 10
478.01574299999999
 20
39.824826999999999
 30
0.0
  0
VERTEX
  5
656
  8
001
 10
477.61381899999998
 20
41.324826999999992
 30
0.0
  0
SEQEND
  5
653
  8
001
  0
LINE
  5
657
  8
001
 10
478.01574299999999
 20
64.824826999999999
 30
0.0
 11
478.01574299999999
 21
39.824826999999999
 31
0.0
  0
POLYLINE
  5
658
  8
001
 66
     1
 10
0.0
 20
0.0
 30
0.0
  0
VERTEX
  5
65A
  8
001
 10
489.30416700000001
 20
39.824826999999999
 30
0.0
  0
VERTEX
  5
65B
  8
001
 10
478.01574299999999
 20
39.824826999999999
 30
0.0
  0
VERTEX
  5
65C
  8
001
 10
475.26574299999999
 20
39.824826999999999
 30
0.0
  0
SEQEND
  5
659
  8
001
  0
DIMENSION
  5
65D
  8
001
  2
*D27
 10
484.64252099999987
 20
44.774827000000002
 30
0.0
 11
481.64252099999999
 21
67.824826999999999
 31
0.0
 70
   128
 13
489.30416700000001
 23
52.324826999999999
 33
0.0
 14
489.30416700000001
 24
44.774827000000002
 34
0.0
 50
270.0
  0
DIMENSION
  5
65E
  8
001
  2
*D28
 10
496.395646
 20
23.274502999999999
 30
0.0
 11
475.97564599999998
 21
26.274502999999999
 31
0.0
 70
   128
 13
491.47564599999993
 23
37.485914000000001
 33
0.0
 14
496.395646
 24
37.485914000000001
 34
0.0
  0
DIMENSION
  5
65F
  8
001
  2
*D29
 10
494.89570700000002
 20
43.274887999999997
 30
0.0
 11
487.54770999999988
 21
39.135680999999998
 31
0.0
 70
   132
 15
495.98228499999999
 25
44.308981000000003
 35
0.0
 40
0.0
  0
TEXT
  5
660
  8
001
 10
477.01574299999999
 20
172.132037
 30
0.0
 40
4.0
  1
%%c２５
 50
90.000003000000007
 41
0.8823529999999999
  0
POLYLINE
  5
661
  8
001
 66
     1
 10
0.0
 20
0.0
 30
0.0
  0
VERTEX
  5
663
  8
001
 10
478.41766599999988
 20
167.132037
 30
0.0
  0
VERTEX
  5
664
  8
001
 10
478.01574299999999
 20
165.632037
 30
0.0
  0
VERTEX
  5
665
  8
001
 10
477.61381899999998
 20
167.132037
 30
0.0
  0
SEQEND
  5
662
  8
001
  0
LINE
  5
666
  8
001
 10
478.01574299999999
 20
190.632037
 30
0.0
 11
478.01574299999999
 21
165.632037
 31
0.0
  0
POLYLINE
  5
667
  8
001
 66
     1
 10
0.0
 20
0.0
 30
0.0
  0
VERTEX
  5
669
  8
001
 10
489.30416700000001
 20
165.632037
 30
0.0
  0
VERTEX
  5
66A
  8
001
 10
478.01574299999999
 20
165.632037
 30
0.0
  0
VERTEX
  5
66B
  8
001
 10
475.26574299999999
 20
165.632037
 30
0.0
  0
SEQEND
  5
668
  8
001
  0
DIMENSION
  5
66C
  8
001
  2
*D30
 10
485.17617300000001
 20
170.20203699999999
 30
0.0
 11
482.17617300000001
 21
193.632037
 31
0.0
 70
   128
 13
489.30416700000001
 23
178.132037
 33
0.0
 14
489.30416700000001
 24
170.20203699999999
 34
0.0
 50
270.0
  0
DIMENSION
  5
66D
  8
001
  2
*D31
 10
496.02564599999999
 20
149.354918
 30
0.0
 11
475.97564599999998
 21
152.354918
 31
0.0
 70
   128
 13
491.47564599999993
 23
163.29312400000001
 33
0.0
 14
496.02564599999999
 24
163.29312400000001
 34
0.0
  0
DIMENSION
  5
66E
  8
001
  2
*D32
 10
495.27576799999991
 20
169.45215999999999
 30
0.0
 11
486.10799500000002
 21
165.43496399999989
 31
0.0
 70
   132
 15
495.84091299999989
 25
169.945223
 35
0.0
 40
0.0
  0
TEXT
  5
66F
  8
001
 10
477.01574299999999
 20
290.66521299999999
 30
0.0
 40
4.0
  1
%%c２５
 50
90.000003000000007
 41
0.8823529999999999
  0
POLYLINE
  5
670
  8
001
 66
     1
 10
0.0
 20
0.0
 30
0.0
  0
VERTEX
  5
672
  8
001
 10
478.41766599999988
 20
285.66521299999999
 30
0.0
  0
VERTEX
  5
673
  8
001
 10
478.01574299999999
 20
284.16521299999999
 30
0.0
  0
VERTEX
  5
674
  8
001
 10
477.61381899999998
 20
285.66521299999999
 30
0.0
  0
SEQEND
  5
671
  8
001
  0
LINE
  5
675
  8
001
 10
478.01574299999999
 20
309.16521299999999
 30
0.0
 11
478.01574299999999
 21
284.16521299999999
 31
0.0
  0
POLYLINE
  5
676
  8
001
 66
     1
 10
0.0
 20
0.0
 30
0.0
  0
VERTEX
  5
678
  8
001
 10
489.30416700000001
 20
284.16521299999999
 30
0.0
  0
VERTEX
  5
679
  8
001
 10
478.01574299999999
 20
284.16521299999999
 30
0.0
  0
VERTEX
  5
67A
  8
001
 10
475.26574299999999
 20
284.16521299999999
 30
0.0
  0
SEQEND
  5
677
  8
001
  0
DIMENSION
  5
67B
  8
001
  2
*D33
 10
495.39583099999987
 20
288.11539800000003
 30
0.0
 11
487.51451500000002
 21
282.23606999999998
 31
0.0
 70
   132
 15
495.7493849999999
 25
288.468952
 35
0.0
 40
0.0
  0
DIMENSION
  5
67C
  8
001
  2
*D34
 10
485.95205800000002
 20
288.61521299999998
 30
0.0
 11
482.95205800000002
 21
312.16521299999999
 31
0.0
 70
   128
 13
489.30416700000001
 23
296.66521299999999
 33
0.0
 14
489.30416700000001
 24
288.61521299999998
 34
0.0
 50
270.0
  0
DIMENSION
  5
67D
  8
001
  2
*D35
 10
495.895646
 20
267.70628499999998
 30
0.0
 11
475.97564599999998
 21
270.70628499999998
 31
0.0
 70
   128
 13
491.47564599999993
 23
281.8263
 33
0.0
 14
495.895646
 24
281.8263
 34
0.0
  0
DIMENSION
  5
67E
  8
001
  2
*D36
 10
196.75625299999999
 20
42.324826999999999
 30
0.0
 11
193.75625299999999
 21
52.324826999999999
 31
0.0
 70
   128
 13
173.973434
 23
62.324826999999999
 33
0.0
 14
173.973434
 24
42.324826999999999
 34
0.0
 50
270.0
  0
DIMENSION
  5
67F
  8
001
  2
*D37
 10
176.973434
 20
2.253436999999999
 30
0.0
 11
116.973434
 21
5.253436999999999
 31
0.0
 70
   128
 13
56.973433999999997
 23
37.485914000000001
 33
0.0
 14
176.973434
 24
45.324826999999999
 34
0.0
  0
DIMENSION
  5
680
  8
001
  2
*D38
 10
56.973433999999997
 20
140.22245000000001
 30
0.0
 11
76.973433999999997
 21
143.22245000000001
 31
0.0
 70
   128
 13
96.973434000000012
 23
167.80434600000001
 33
0.0
 14
56.973433999999997
 24
164.56543300000001
 34
0.0
 50
180.0
  0
DIMENSION
  5
681
  8
001
  2
*D39
 10
96.973434000000012
 20
140.22245000000001
 30
0.0
 11
136.973434
 21
143.22245000000001
 31
0.0
 70
   128
 13
176.973434
 23
172.904346
 33
0.0
 14
96.973434000000012
 24
167.80434600000001
 34
0.0
 50
180.0
  0
DIMENSION
  5
682
  8
001
  2
*D40
 10
196.75625299999999
 20
169.404346
 30
0.0
 11
193.75625299999999
 21
179.404346
 31
0.0
 70
   128
 13
173.973434
 23
189.404346
 33
0.0
 14
173.973434
 24
169.404346
 34
0.0
 50
270.0
  0
DIMENSION
  5
683
  8
001
  2
*D41
 10
176.973434
 20
129.332955
 30
0.0
 11
116.973434
 21
132.332955
 31
0.0
 70
   128
 13
56.973433999999997
 23
164.56543300000001
 33
0.0
 14
176.973434
 24
172.404346
 34
0.0
  0
DIMENSION
  5
684
  8
001
  2
*D42
 10
56.973433999999997
 20
257.12820099999999
 30
0.0
 11
76.973433999999997
 21
260.12820099999999
 31
0.0
 70
   128
 13
96.973434000000012
 23
284.71009700000002
 33
0.0
 14
56.973433999999997
 24
281.47118399999999
 34
0.0
 50
180.0
  0
DIMENSION
  5
685
  8
001
  2
*D43
 10
96.973434000000012
 20
257.12820099999999
 30
0.0
 11
136.973434
 21
260.12820099999999
 31
0.0
 70
   128
 13
176.973434
 23
289.8100970000001
 33
0.0
 14
96.973434000000012
 24
284.71009700000002
 34
0.0
 50
180.0
  0
DIMENSION
  5
686
  8
001
  2
*D44
 10
196.75625299999999
 20
286.3100970000001
 30
0.0
 11
193.75625299999999
 21
296.3100970000001
 31
0.0
 70
   128
 13
173.973434
 23
306.3100970000001
 33
0.0
 14
173.973434
 24
286.3100970000001
 34
0.0
 50
270.0
  0
DIMENSION
  5
687
  8
001
  2
*D45
 10
176.973434
 20
246.23870700000001
 30
0.0
 11
116.973434
 21
249.23870700000001
 31
0.0
 70
   128
 13
56.973433999999997
 23
281.47118399999999
 33
0.0
 14
176.973434
 24
289.31009699999998
 34
0.0
  0
DIMENSION
  5
688
  8
001
  2
*D46
 10
96.973434000000012
 20
257.12820099999999
 30
0.0
 11
136.973434
 21
260.12820099999999
 31
0.0
 70
   128
 13
176.973434
 23
289.8100970000001
 33
0.0
 14
96.973434000000012
 24
284.71009700000002
 34
0.0
 50
180.0
  0
DIMENSION
  5
689
  8
001
  2
*D47
 10
196.75625299999999
 20
286.3100970000001
 30
0.0
 11
193.75625299999999
 21
296.3100970000001
 31
0.0
 70
   128
 13
173.973434
 23
306.3100970000001
 33
0.0
 14
173.973434
 24
286.3100970000001
 34
0.0
 50
270.0
  0
DIMENSION
  5
68A
  8
001
  2
*D48
 10
176.973434
 20
246.23870700000001
 30
0.0
 11
116.973434
 21
249.23870700000001
 31
0.0
 70
   128
 13
56.973433999999997
 23
281.47118399999999
 33
0.0
 14
176.973434
 24
289.31009699999998
 34
0.0
  0
DIMENSION
  5
68B
  8
001
  2
*D49
 10
96.973434000000012
 20
380.45724100000001
 30
0.0
 11
136.973434
 21
383.45724100000001
 31
0.0
 70
   128
 13
176.973434
 23
413.13913700000001
 33
0.0
 14
96.973434000000012
 24
408.03913699999998
 34
0.0
 50
180.0
  0
DIMENSION
  5
68C
  8
001
  2
*D50
 10
196.75625299999999
 20
409.63913700000001
 30
0.0
 11
193.75625299999999
 21
419.63913699999989
 31
0.0
 70
   128
 13
173.973434
 23
429.63913700000001
 33
0.0
 14
173.973434
 24
409.63913700000001
 34
0.0
 50
270.0
  0
DIMENSION
  5
68D
  8
001
  2
*D51
 10
176.973434
 20
369.567747
 30
0.0
 11
116.973434
 21
372.567747
 31
0.0
 70
   128
 13
56.973433999999997
 23
404.80022400000001
 33
0.0
 14
176.973434
 24
412.63913700000001
 34
0.0
  0
DIMENSION
  5
68E
  8
001
  2
*D52
 10
311.164669
 20
380.83230200000003
 30
0.0
 11
351.164669
 21
383.83230200000003
 31
0.0
 70
   128
 13
391.164669
 23
413.51419700000002
 33
0.0
 14
311.164669
 24
408.414197
 34
0.0
 50
180.0
  0
DIMENSION
  5
68F
  8
001
  2
*D53
 10
410.94748900000002
 20
410.01419700000002
 30
0.0
 11
407.94748900000002
 21
420.01419699999991
 31
0.0
 70
   128
 13
388.164669
 23
430.01419699999991
 33
0.0
 14
388.164669
 24
410.01419700000002
 34
0.0
 50
270.0
  0
DIMENSION
  5
690
  8
001
  2
*D54
 10
391.164669
 20
369.94280700000002
 30
0.0
 11
331.164669
 21
372.9428069999999
 31
0.0
 70
   128
 13
271.164669
 23
405.17528399999992
 33
0.0
 14
391.164669
 24
413.01419700000002
 34
0.0
  0
DIMENSION
  5
691
  8
001
  2
*D55
 10
311.164669
 20
256.44932399999999
 30
0.0
 11
351.164669
 21
259.4493240000001
 31
0.0
 70
   128
 13
391.164669
 23
289.13121899999999
 33
0.0
 14
311.164669
 24
284.03121900000002
 34
0.0
 50
180.0
  0
DIMENSION
  5
692
  8
001
  2
*D56
 10
410.94748900000002
 20
285.63121899999999
 30
0.0
 11
407.94748900000002
 21
295.63121899999999
 31
0.0
 70
   128
 13
388.164669
 23
305.63121899999999
 33
0.0
 14
388.164669
 24
285.63121899999999
 34
0.0
 50
270.0
  0
DIMENSION
  5
693
  8
001
  2
*D57
 10
391.164669
 20
245.55982900000001
 30
0.0
 11
331.164669
 21
248.55982900000001
 31
0.0
 70
   128
 13
271.164669
 23
280.792306
 33
0.0
 14
391.164669
 24
288.63121899999999
 34
0.0
  0
DIMENSION
  5
694
  8
001
  2
*D58
 10
311.164669
 20
140.730433
 30
0.0
 11
351.164669
 21
143.730433
 31
0.0
 70
   128
 13
391.164669
 23
173.412328
 33
0.0
 14
311.164669
 24
168.31232800000001
 34
0.0
 50
180.0
  0
DIMENSION
  5
695
  8
001
  2
*D59
 10
410.94748900000002
 20
169.912328
 30
0.0
 11
407.94748900000002
 21
179.912328
 31
0.0
 70
   128
 13
388.164669
 23
189.912328
 33
0.0
 14
388.164669
 24
169.912328
 34
0.0
 50
270.0
  0
DIMENSION
  5
696
  8
001
  2
*D60
 10
391.164669
 20
129.84093799999999
 30
0.0
 11
331.164669
 21
132.84093799999999
 31
0.0
 70
   128
 13
271.164669
 23
165.07341600000001
 33
0.0
 14
391.164669
 24
172.912328
 34
0.0
  0
DIMENSION
  5
697
  8
001
  2
*D61
 10
311.164669
 20
13.142931000000001
 30
0.0
 11
351.164669
 21
16.142931000000001
 31
0.0
 70
   128
 13
391.164669
 23
45.824826999999992
 33
0.0
 14
311.164669
 24
40.724827000000012
 34
0.0
 50
180.0
  0
DIMENSION
  5
698
  8
001
  2
*D62
 10
410.94748900000002
 20
42.324826999999999
 30
0.0
 11
407.94748900000002
 21
52.324826999999999
 31
0.0
 70
   128
 13
388.164669
 23
62.324826999999999
 33
0.0
 14
388.164669
 24
42.324826999999999
 34
0.0
 50
270.0
  0
DIMENSION
  5
699
  8
001
  2
*D63
 10
391.164669
 20
2.253436999999999
 30
0.0
 11
331.164669
 21
5.253436999999999
 31
0.0
 70
   128
 13
271.164669
 23
37.485914000000001
 33
0.0
 14
391.164669
 24
45.324826999999999
 34
0.0
  0
DIMENSION
  5
69A
  8
001
  2
*D64
 10
531.47564599999987
 20
13.142931000000001
 30
0.0
 11
571.47564599999998
 21
16.142931000000001
 31
0.0
 70
   128
 13
611.47564599999987
 23
45.824826999999992
 33
0.0
 14
531.47564599999987
 24
40.724827000000012
 34
0.0
 50
180.0
  0
DIMENSION
  5
69B
  8
001
  2
*D65
 10
631.25846599999988
 20
42.324826999999999
 30
0.0
 11
628.258465
 21
52.324826999999999
 31
0.0
 70
   128
 13
608.47564599999998
 23
62.324826999999999
 33
0.0
 14
608.47564599999998
 24
42.324826999999999
 34
0.0
 50
270.0
  0
DIMENSION
  5
69C
  8
001
  2
*D66
 10
611.47564599999987
 20
2.253436999999999
 30
0.0
 11
551.47564599999998
 21
5.253436999999999
 31
0.0
 70
   128
 13
491.47564599999993
 23
37.485914000000001
 33
0.0
 14
611.47564599999987
 24
45.324826999999999
 34
0.0
  0
DIMENSION
  5
69D
  8
001
  2
*D67
 10
531.47564599999987
 20
138.950142
 30
0.0
 11
571.47564599999998
 21
141.950142
 31
0.0
 70
   128
 13
611.47564599999987
 23
171.632037
 33
0.0
 14
531.47564599999987
 24
166.532037
 34
0.0
 50
180.0
  0
DIMENSION
  5
69E
  8
001
  2
*D68
 10
631.25846599999988
 20
168.132037
 30
0.0
 11
628.258465
 21
178.132037
 31
0.0
 70
   128
 13
608.47564599999998
 23
188.132037
 33
0.0
 14
608.47564599999998
 24
168.132037
 34
0.0
 50
270.0
  0
DIMENSION
  5
69F
  8
001
  2
*D69
 10
611.47564599999987
 20
128.06064699999999
 30
0.0
 11
551.47564599999998
 21
131.06064699999999
 31
0.0
 70
   128
 13
491.47564599999993
 23
163.29312400000001
 33
0.0
 14
611.47564599999987
 24
171.132037
 34
0.0
  0
DIMENSION
  5
6A0
  8
001
  2
*D70
 10
531.47564599999987
 20
257.483317
 30
0.0
 11
571.47564599999998
 21
260.483317
 31
0.0
 70
   128
 13
611.47564599999987
 23
290.16521299999999
 33
0.0
 14
531.47564599999987
 24
285.06521300000003
 34
0.0
 50
180.0
  0
DIMENSION
  5
6A1
  8
001
  2
*D71
 10
631.25846599999988
 20
286.66521299999999
 30
0.0
 11
628.258465
 21
296.66521299999999
 31
0.0
 70
   128
 13
608.47564599999998
 23
306.66521299999999
 33
0.0
 14
608.47564599999998
 24
286.66521299999999
 34
0.0
 50
270.0
  0
DIMENSION
  5
6A2
  8
001
  2
*D72
 10
611.47564599999987
 20
246.59382299999999
 30
0.0
 11
551.47564599999998
 21
249.59382299999999
 31
0.0
 70
   128
 13
491.47564599999993
 23
281.8263
 33
0.0
 14
611.47564599999987
 24
289.66521299999999
 34
0.0
  0
LINE
  5
6A3
  8
001
 10
71.489140000000006
 20
49.592533000000003
 30
0.0
 11
76.360468999999995
 21
54.612991000000001
 31
0.0
  0
LINE
  5
6A4
  8
001
 10
71.610101
 20
49.592533000000003
 30
0.0
 11
71.489140000000006
 21
49.592533000000003
 31
0.0
  0
LINE
  5
6A5
  8
001
 10
70.718168000000006
 20
48.673293999999999
 30
0.0
 11
71.610101
 21
49.592533000000003
 31
0.0
  0
LINE
  5
6A6
  8
001
 10
70.678505000000001
 20
49.380400999999999
 30
0.0
 11
70.234324000000001
 21
48.673293999999999
 31
0.0
  0
LINE
  5
6A7
  8
001
 10
70.678505000000001
 20
49.380400999999999
 30
0.0
 11
73.971797999999993
 21
52.774512999999999
 31
0.0
  0
LINE
  5
6A8
  8
001
 10
73.971797999999993
 20
52.774512999999999
 30
0.0
 11
75.755664999999993
 21
54.612991000000001
 31
0.0
  0
LINE
  5
6A9
  8
001
 10
75.755664999999993
 20
57.441418000000013
 30
0.0
 11
72.325151000000005
 21
60.976951999999997
 31
0.0
  0
LINE
  5
6AA
  8
001
 10
75.755664999999993
 20
54.612991000000001
 30
0.0
 11
75.755664999999993
 21
57.441418000000013
 31
0.0
  0
LINE
  5
6AB
  8
001
 10
64.503581000000011
 20
55.744362000000002
 30
0.0
 11
70.678505000000001
 21
49.380400999999999
 31
0.0
  0
LINE
  5
6AC
  8
001
 10
69.580740000000006
 20
60.976951999999997
 30
0.0
 11
67.796873000000005
 21
59.138474000000002
 31
0.0
  0
LINE
  5
6AD
  8
001
 10
67.796873000000005
 20
59.138474000000002
 30
0.0
 11
64.503581000000011
 21
55.744362000000002
 31
0.0
  0
LINE
  5
6AE
  8
001
 10
76.481430000000003
 20
57.441418000000013
 30
0.0
 11
75.755664999999993
 21
57.441418000000013
 31
0.0
  0
LINE
  5
6AF
  8
001
 10
76.481430000000003
 20
54.612991000000001
 30
0.0
 11
76.481430000000003
 21
57.441418000000013
 31
0.0
  0
LINE
  5
6B0
  8
001
 10
76.481430000000003
 20
57.441418000000013
 30
0.0
 11
73.050916999999998
 21
60.976951999999997
 31
0.0
  0
LINE
  5
6B1
  8
001
 10
64.059399999999997
 20
55.037255000000002
 30
0.0
 11
64.503581000000011
 21
55.744362000000002
 31
0.0
  0
LINE
  5
6B2
  8
001
 10
69.104039999999983
 20
48.673293999999999
 30
0.0
 11
64.301321999999999
 21
53.623041000000001
 31
0.0
  0
LINE
  5
6B3
  8
001
 10
64.301321999999999
 20
53.623041000000001
 30
0.0
 11
64.059399999999997
 21
55.037255000000002
 31
0.0
  0
LINE
  5
6B4
  8
001
 10
71.610101
 20
49.592533000000003
 30
0.0
 11
71.549621000000002
 21
49.654865000000001
 31
0.0
  0
POLYLINE
  5
6B5
  8
001
 66
     1
 10
0.0
 20
0.0
 30
0.0
  0
VERTEX
  5
6B7
  8
001
 10
67.796873000000005
 20
59.138474000000002
 30
0.0
  0
VERTEX
  5
6B8
  8
001
 10
67.485721999999996
 20
58.763246000000002
 30
0.0
  0
VERTEX
  5
6B9
  8
001
 10
67.102981999999997
 20
58.206493999999992
 30
0.0
  0
VERTEX
  5
6BA
  8
001
 10
66.757171999999997
 20
57.469225999999999
 30
0.0
  0
VERTEX
  5
6BB
  8
001
 10
66.584339
 20
56.73791099999999
 30
0.0
  0
VERTEX
  5
6BC
  8
001
 10
66.536935999999997
 20
56.350887
 30
0.0
  0
VERTEX
  5
6BD
  8
001
 10
66.518005000000002
 20
55.956493999999992
 30
0.0
  0
VERTEX
  5
6BE
  8
001
 10
66.533899000000005
 20
55.563802000000003
 30
0.0
  0
VERTEX
  5
6BF
  8
001
 10
66.584339
 20
55.175077000000002
 30
0.0
  0
VERTEX
  5
6C0
  8
001
 10
66.781214000000006
 20
54.420202000000003
 30
0.0
  0
VERTEX
  5
6C1
  8
001
 10
67.102981999999997
 20
53.706493999999992
 30
0.0
  0
VERTEX
  5
6C2
  8
001
 10
67.791798999999983
 20
52.778153000000003
 30
0.0
  0
VERTEX
  5
6C3
  8
001
 10
68.701169999999991
 20
52.059379
 30
0.0
  0
VERTEX
  5
6C4
  8
001
 10
69.043805000000006
 20
51.877946999999999
 30
0.0
  0
VERTEX
  5
6C5
  8
001
 10
69.390962000000002
 20
51.727876999999999
 30
0.0
  0
VERTEX
  5
6C6
  8
001
 10
69.737550999999996
 20
51.609999000000002
 30
0.0
  0
VERTEX
  5
6C7
  8
001
 10
70.126130000000003
 20
51.524858999999999
 30
0.0
  0
VERTEX
  5
6C8
  8
001
 10
70.564238000000003
 20
51.473621999999992
 30
0.0
  0
VERTEX
  5
6C9
  8
001
 10
70.884336000000005
 20
51.456493999999992
 30
0.0
  0
SEQEND
  5
6B6
  8
001
  0
POLYLINE
  5
6CA
  8
001
 66
     1
 10
0.0
 20
0.0
 30
0.0
  0
VERTEX
  5
6CC
  8
001
 10
70.884336000000005
 20
51.456493999999992
 30
0.0
  0
VERTEX
  5
6CD
  8
001
 10
71.204432999999995
 20
51.473621000000001
 30
0.0
  0
VERTEX
  5
6CE
  8
001
 10
71.642540999999994
 20
51.524858999999999
 30
0.0
  0
VERTEX
  5
6CF
  8
001
 10
72.031118000000006
 20
51.610000999999997
 30
0.0
  0
VERTEX
  5
6D0
  8
001
 10
72.377708999999996
 20
51.727876999999999
 30
0.0
  0
VERTEX
  5
6D1
  8
001
 10
72.724874999999997
 20
51.877938
 30
0.0
  0
VERTEX
  5
6D2
  8
001
 10
73.067501000000007
 20
52.059379
 30
0.0
  0
VERTEX
  5
6D3
  8
001
 10
73.976697000000001
 20
52.778337000000001
 30
0.0
  0
VERTEX
  5
6D4
  8
001
 10
74.665689
 20
53.706493999999992
 30
0.0
  0
VERTEX
  5
6D5
  8
001
 10
74.987904
 20
54.419732999999987
 30
0.0
  0
VERTEX
  5
6D6
  8
001
 10
75.184331999999998
 20
55.175077000000002
 30
0.0
  0
VERTEX
  5
6D7
  8
001
 10
75.234109000000004
 20
55.564498
 30
0.0
  0
VERTEX
  5
6D8
  8
001
 10
75.25066600000001
 20
55.956493999999992
 30
0.0
  0
VERTEX
  5
6D9
  8
001
 10
75.234018000000006
 20
56.348489999999998
 30
0.0
  0
VERTEX
  5
6DA
  8
001
 10
75.184331999999998
 20
56.73791099999999
 30
0.0
  0
VERTEX
  5
6DB
  8
001
 10
74.988624999999999
 20
57.493252000000012
 30
0.0
  0
VERTEX
  5
6DC
  8
001
 10
74.665689
 20
58.206493999999992
 30
0.0
  0
VERTEX
  5
6DD
  8
001
 10
73.971695999999994
 20
59.134665000000012
 30
0.0
  0
VERTEX
  5
6DE
  8
001
 10
73.067501000000007
 20
59.853607999999987
 30
0.0
  0
VERTEX
  5
6DF
  8
001
 10
72.729810000000001
 20
60.035035000000001
 30
0.0
  0
VERTEX
  5
6E0
  8
001
 10
72.377708999999996
 20
60.185110999999999
 30
0.0
  0
VERTEX
  5
6E1
  8
001
 10
72.014756999999989
 20
60.303033999999997
 30
0.0
  0
VERTEX
  5
6E2
  8
001
 10
71.642540999999994
 20
60.388128999999999
 30
0.0
  0
VERTEX
  5
6E3
  8
001
 10
71.264786000000001
 20
60.439191000000001
 30
0.0
  0
VERTEX
  5
6E4
  8
001
 10
70.884336000000005
 20
60.456493999999992
 30
0.0
  0
VERTEX
  5
6E5
  8
001
 10
70.504359999999991
 20
60.440021999999999
 30
0.0
  0
VERTEX
  5
6E6
  8
001
 10
70.126130000000003
 20
60.388128999999999
 30
0.0
  0
VERTEX
  5
6E7
  8
001
 10
69.751530000000002
 20
60.300532999999987
 30
0.0
  0
VERTEX
  5
6E8
  8
001
 10
69.390962000000002
 20
60.185110999999999
 30
0.0
  0
VERTEX
  5
6E9
  8
001
 10
69.047965000000005
 20
60.044249999999998
 30
0.0
  0
VERTEX
  5
6EA
  8
001
 10
68.701169999999991
 20
59.853607999999987
 30
0.0
  0
VERTEX
  5
6EB
  8
001
 10
68.164175999999998
 20
59.462614000000002
 30
0.0
  0
VERTEX
  5
6EC
  8
001
 10
67.796873000000005
 20
59.138474000000002
 30
0.0
  0
SEQEND
  5
6CB
  8
001
  0
LINE
  5
6ED
  8
001
 10
95.973433999999983
 20
63.924827000000001
 30
0.0
 11
73.788697999999997
 21
63.924827000000001
 31
0.0
  0
POLYLINE
  5
6EE
  8
001
 66
     1
 10
0.0
 20
0.0
 30
0.0
  0
VERTEX
  5
6F0
  8
001
 10
83.219802999999985
 20
44.260053999999997
 30
0.0
  0
VERTEX
  5
6F1
  8
001
 10
83.68424499999999
 20
45.189819999999997
 30
0.0
  0
VERTEX
  5
6F2
  8
001
 10
84.246110000000002
 20
46.524827000000002
 30
0.0
  0
VERTEX
  5
6F3
  8
001
 10
84.813280000000006
 20
48.474080000000001
 30
0.0
  0
VERTEX
  5
6F4
  8
001
 10
85.074021000000002
 20
50.310507999999999
 30
0.0
  0
VERTEX
  5
6F5
  8
001
 10
85.150078000000008
 20
51.305990999999999
 30
0.0
  0
VERTEX
  5
6F6
  8
001
 10
85.179911000000004
 20
52.324826999999999
 30
0.0
  0
VERTEX
  5
6F7
  8
001
 10
85.150078000000008
 20
53.343662999999999
 30
0.0
  0
VERTEX
  5
6F8
  8
001
 10
85.074021000000002
 20
54.339146
 30
0.0
  0
VERTEX
  5
6F9
  8
001
 10
84.813280000000006
 20
56.175573
 30
0.0
  0
VERTEX
  5
6FA
  8
001
 10
84.246110000000002
 20
58.124827000000003
 30
0.0
  0
VERTEX
  5
6FB
  8
001
 10
83.68424499999999
 20
59.459832999999989
 30
0.0
  0
VERTEX
  5
6FC
  8
001
 10
83.219802999999985
 20
60.389598999999997
 30
0.0
  0
SEQEND
  5
6EF
  8
001
  0
LINE
  5
6FD
  8
001
 10
83.219802999999985
 20
60.389598999999997
 30
0.0
 11
83.219802999999985
 21
44.260053999999997
 31
0.0
  0
LINE
  5
6FE
  8
001
 10
65.742363999999995
 20
57.609434999999991
 30
0.0
 11
66.035182999999989
 21
57.322851999999997
 31
0.0
  0
LINE
  5
6FF
  8
001
 10
76.481430000000003
 20
54.612991000000001
 30
0.0
 11
75.755664999999993
 21
54.612991000000001
 31
0.0
  0
LINE
  5
700
  8
001
 10
70.718168000000006
 20
48.673293999999999
 30
0.0
 11
69.104039999999983
 21
48.673293999999999
 31
0.0
  0
LINE
  5
701
  8
001
 10
73.050916999999998
 20
60.976951999999997
 30
0.0
 11
69.580740000000006
 21
60.976951999999997
 31
0.0
  0
LINE
  5
702
  8
001
 10
72.347078999999994
 20
56.797899999999998
 30
0.0
 11
72.347078999999994
 21
55.065849999999998
 31
0.0
  0
LINE
  5
703
  8
001
 10
69.347079000000008
 20
55.065849999999998
 30
0.0
 11
69.347079000000008
 21
56.797899999999998
 31
0.0
  0
LINE
  5
704
  8
001
 10
69.347079000000008
 20
56.797899999999998
 30
0.0
 11
70.847079000000008
 21
57.663925999999996
 31
0.0
  0
LINE
  5
705
  8
001
 10
72.347078999999994
 20
55.065849999999998
 30
0.0
 11
70.847079000000008
 21
54.199824
 31
0.0
  0
LINE
  5
706
  8
001
 10
70.847079000000008
 20
54.199824
 30
0.0
 11
69.347079000000008
 21
55.065849999999998
 31
0.0
  0
LINE
  5
707
  8
001
 10
72.347078999999994
 20
56.797899999999998
 30
0.0
 11
70.847079000000008
 21
57.663925999999996
 31
0.0
  0
LINE
  5
708
  8
001
 10
176.973434
 20
52.324826999999999
 30
0.0
 11
179.57150999999999
 21
53.824826999999999
 31
0.0
  0
LINE
  5
709
  8
001
 10
176.973434
 20
52.324826999999999
 30
0.0
 11
179.57150999999999
 21
50.824826999999992
 31
0.0
  0
LINE
  5
70A
  8
001
 10
98.973433999999997
 20
42.324826999999999
 30
0.0
 11
98.973433999999997
 21
62.324826999999999
 31
0.0
  0
LINE
  5
70B
  8
001
 10
96.973434000000012
 20
61.824826999999999
 30
0.0
 11
98.973433999999997
 21
61.824826999999999
 31
0.0
  0
LINE
  5
70C
  8
001
 10
96.973434000000012
 20
42.824826999999999
 30
0.0
 11
98.973433999999997
 21
42.824826999999999
 31
0.0
  0
LINE
  5
70D
  8
001
 10
173.973434
 20
62.324826999999999
 30
0.0
 11
98.973433999999997
 21
62.324826999999999
 31
0.0
  0
LINE
  5
70E
  8
001
 10
173.973434
 20
42.324826999999999
 30
0.0
 11
98.973433999999997
 21
42.324826999999999
 31
0.0
  0
ARC
  5
70F
  8
001
 10
95.973433999999983
 20
62.924827000000001
 30
0.0
 40
1.0
 50
0.0
 51
90.0
  0
ARC
  5
710
  8
001
 10
95.973433999999983
 20
41.724826999999998
 30
0.0
 40
1.0
 50
270.0
 51
0.0
  0
LINE
  5
711
  8
001
 10
96.973434000000012
 20
41.724826999999998
 30
0.0
 11
96.973434000000012
 21
62.924827000000001
 31
0.0
  0
LINE
  5
712
  8
001
  6
CENTER
 10
54.801954000000002
 20
52.324826999999999
 30
0.0
 11
179.42412300000001
 21
52.324826999999999
 31
0.0
  0
CIRCLE
  5
713
  8
001
 10
500.12701699999991
 20
292.79409800000002
 30
0.0
 40
2.6000000000000001
  0
ARC
  5
714
  8
001
 10
492.26964600000002
 20
292.79409800000002
 30
0.0
 40
0.7940000000000002
 50
135.0
 51
225.0
  0
ARC
  5
715
  8
001
 10
500.12701699999991
 20
284.93672800000002
 30
0.0
 40
0.7940000000000002
 50
225.0
 51
315.0
  0
ARC
  5
716
  8
001
 10
507.98438700000003
 20
292.79409800000002
 30
0.0
 40
0.7940000000000002
 50
315.0
 51
45.0
  0
LINE
  5
717
  8
001
 10
504.935429
 20
288.622255
 30
0.0
 11
504.83886000000001
 21
288.58225499999998
 31
0.0
  0
ARC
  5
718
  8
001
 10
504.83886000000001
 20
288.08225499999998
 30
0.0
 40
0.5
 50
90.0
 51
180.0
  0
LINE
  5
719
  8
001
 10
504.29885999999999
 20
287.98568599999999
 30
0.0
 11
504.3388599999999
 21
288.08225499999998
 31
0.0
  0
LINE
  5
71A
  8
001
 10
508.54582999999991
 20
292.23265600000002
 30
0.0
 11
504.935429
 21
288.622255
 31
0.0
  0
LINE
  5
71B
  8
001
 10
504.29885999999999
 20
287.98568599999999
 30
0.0
 11
500.68845899999991
 21
284.37528500000002
 31
0.0
  0
LINE
  5
71C
  8
001
 10
495.31860399999999
 20
296.96594199999998
 30
0.0
 11
495.41517299999998
 21
297.005942
 31
0.0
  0
ARC
  5
71D
  8
001
 10
495.41517299999998
 20
297.505942
 30
0.0
 40
0.5
 50
270.0
 51
360.0
  0
LINE
  5
71E
  8
001
 10
495.955173
 20
297.60251099999999
 30
0.0
 11
495.91517299999998
 21
297.505942
 31
0.0
  0
LINE
  5
71F
  8
001
 10
495.93564600000002
 20
288.00521300000003
 30
0.0
 11
495.895646
 21
288.10178100000002
 31
0.0
  0
LINE
  5
720
  8
001
 10
495.28564599999987
 20
288.655213
 30
0.0
 11
495.38221399999992
 21
288.61521299999998
 31
0.0
  0
LINE
  5
721
  8
001
 10
495.955173
 20
297.60251099999999
 30
0.0
 11
499.56557400000003
 21
301.21291200000002
 31
0.0
  0
LINE
  5
722
  8
001
 10
491.70820300000003
 20
293.35554100000002
 30
0.0
 11
495.31860399999999
 21
296.96594199999998
 31
0.0
  0
LINE
  5
723
  8
001
 10
495.28564599999987
 20
288.655213
 30
0.0
 11
491.70820300000003
 21
292.23265600000002
 31
0.0
  0
LINE
  5
724
  8
001
 10
495.93564600000002
 20
288.00521300000003
 30
0.0
 11
499.56557400000003
 21
284.37528500000002
 31
0.0
  0
TEXT
  5
725
  8
001
 10
43.925880999999997
 20
80.326598000000004
 30
0.0
 40
5.0
  1
ＲスペシャルＪｒ．　ＮＫ２０－０５Ｒ　（４Ｒ）
 41
0.833333
  0
CIRCLE
  5
726
  8
001
 10
65.624803999999997
 20
48.453712000000003
 30
0.0
 40
2.6000000000000001
  0
ARC
  5
727
  8
001
 10
73.482174999999998
 20
48.453712000000003
 30
0.0
 40
0.7940000000000002
 50
315.0
 51
45.0
  0
ARC
  5
728
  8
001
 10
57.767433999999987
 20
48.453712000000003
 30
0.0
 40
0.7940000000000002
 50
135.0
 51
225.0
  0
ARC
  5
729
  8
001
 10
65.624803999999997
 20
40.596342
 30
0.0
 40
0.7940000000000002
 50
225.0
 51
315.0
  0
LINE
  5
72A
  8
001
 10
63.173433999999993
 20
41.924827000000001
 30
0.0
 11
63.133433999999987
 21
42.021394999999998
 31
0.0
  0
LINE
  5
72B
  8
001
 10
59.043433999999998
 20
46.054827000000003
 30
0.0
 11
59.140002000000003
 21
46.014826999999997
 31
0.0
  0
ARC
  5
72C
  8
001
 10
59.504896000000002
 20
47.007578000000002
 30
0.0
 40
0.7999999999999999
 50
78.147809999999993
 51
265.745069
  0
LINE
  5
72D
  8
001
 10
63.173433999999993
 20
41.924827000000001
 30
0.0
 11
65.063361
 21
40.034898999999989
 31
0.0
  0
LINE
  5
72E
  8
001
 10
68.546648000000005
 20
42.395299999999999
 30
0.0
 11
68.586647999999997
 21
42.491869000000001
 31
0.0
  0
LINE
  5
72F
  8
001
 10
71.683216000000002
 20
45.531869
 30
0.0
 11
71.586647999999997
 21
45.491869000000001
 31
0.0
  0
LINE
  5
730
  8
001
 10
61.702959999999997
 20
53.51212499999999
 30
0.0
 11
61.662959999999991
 21
53.415556000000002
 31
0.0
  0
LINE
  5
731
  8
001
 10
60.566392000000008
 20
52.375556000000003
 30
0.0
 11
60.662959999999998
 21
52.415556000000002
 31
0.0
  0
ARC
  5
732
  8
001
 10
71.586647999999997
 20
42.491869000000001
 30
0.0
 40
3.0
 50
90.0
 51
180.0
  0
ARC
  5
733
  8
001
 10
60.662959999999998
 20
53.415556000000002
 30
0.0
 40
1.0
 50
270.0
 51
360.0
  0
ARC
  5
734
  8
001
 10
71.211359000000002
 20
46.474223999999992
 30
0.0
 40
0.7999999999999999
 50
275.38353999999998
 51
95.383539999999996
  0
ARC
  5
735
  8
001
 10
67.604292000000001
 20
42.867158000000003
 30
0.0
 40
0.7999999999999999
 50
174.61645999999999
 51
354.61646000000002
  0
ARC
  5
736
  8
001
 10
71.586647999999997
 20
42.491869000000001
 30
0.0
 40
3.2000000000000002
 50
95.383539999999996
 51
174.61645999999999
  0
ARC
  5
737
  8
001
 10
71.586647999999997
 20
42.491869000000001
 30
0.0
 40
4.7999999999999989
 50
95.383539999999996
 51
174.61645999999999
  0
ARC
  5
738
  8
001
 10
62.623049000000002
 20
53.018000000000001
 30
0.0
 40
0.7999999999999999
 50
348.534494
 51
168.534494
  0
ARC
  5
739
  8
001
 10
61.060516
 20
51.455466999999999
 30
0.0
 40
0.7999999999999999
 50
101.465506
 51
281.465506
  0
ARC
  5
73A
  8
001
 10
60.662959999999998
 20
53.415556000000002
 30
0.0
 40
2.7999999999999989
 50
281.465506
 51
348.534494
  0
ARC
  5
73B
  8
001
 10
60.662959999999998
 20
53.415556000000002
 30
0.0
 40
1.1999999999999991
 50
281.465506
 51
348.534494
  0
LINE
  5
73C
  8
001
 10
66.186246999999995
 20
40.034898999999989
 30
0.0
 11
68.546648000000005
 21
42.395299999999999
 31
0.0
  0
LINE
  5
73D
  8
001
 10
71.683216000000002
 20
45.531869
 30
0.0
 11
74.043616999999983
 21
47.892270000000003
 31
0.0
  0
LINE
  5
73E
  8
001
 10
61.702959999999997
 20
53.51212499999999
 30
0.0
 11
65.063361
 21
56.872526000000001
 31
0.0
  0
LINE
  5
73F
  8
001
 10
57.205991000000012
 20
49.015155
 30
0.0
 11
60.566392000000008
 21
52.375556000000003
 31
0.0
  0
TEXT
  5
740
  8
001
 10
64.146152999999998
 20
41.469327999999997
 30
0.0
 40
2.0
  1
４
 50
314.99999200000002
 41
0.833333
  0
TEXT
  5
741
  8
001
 10
72.609189000000001
 20
46.975060999999997
 30
0.0
 40
2.0
  1
３
 50
45.000000999999997
 41
0.833333
  0
TEXT
  5
742
  8
001
 10
58.640419999999999
 20
49.932364
 30
0.0
 40
2.0
  1
１
 50
224.99999600000001
 41
0.833333
  0
LINE
  5
743
  8
001
  6
PHANTOM
 10
56.973433999999997
 20
48.124827000000003
 30
0.0
 11
56.973433999999997
 21
48.453712000000003
 31
0.0
  0
ARC
  5
744
  8
001
 10
59.133439000000003
 20
42.014831999999998
 30
0.0
 40
4.0
 50
0.09401
 51
89.905990000000017
  0
ARC
  5
745
  8
001
 10
59.133439000000003
 20
42.014831999999998
 30
0.0
 40
4.2065446450880133
 50
3.107939
 51
85.745069000000015
  0
ARC
  5
746
  8
001
 10
64.119616000000008
 20
42.392857999999997
 30
0.0
 40
0.7999999999999999
 50
190.80391299999999
 51
4.3355699999999988
  0
ARC
  5
747
  8
001
 10
59.133439000000003
 20
42.014831999999998
 30
0.0
 40
5.8004865080907608
 50
4.3355699999999988
 51
84.700268999999977
  0
LINE
  5
748
  8
001
 10
59.043433999999998
 20
46.054827000000003
 30
0.0
 11
57.205991000000012
 21
47.892270000000003
 31
0.0
  0
LINE
  5
749
  8
001
  6
PHANTOM
 10
57.205991000000012
 20
47.892270000000003
 30
0.0
 11
56.973433999999997
 21
48.124827000000003
 31
0.0
  0
LINE
  5
74A
  8
001
 10
54.801954000000002
 20
39.824826999999999
 30
0.0
 11
65.437185999999997
 21
39.824826999999999
 31
0.0
  0
LINE
  5
74B
  8
001
 10
54.801954000000002
 20
46.014826999999997
 30
0.0
 11
59.140002000000003
 21
46.014826999999997
 31
0.0
  0
LINE
  5
74C
  8
001
 10
63.133433999999987
 20
37.485914000000001
 30
0.0
 11
63.133433999999987
 21
42.021394999999998
 31
0.0
  0
LINE
  5
74D
  8
001
 10
56.973433999999997
 20
37.485914000000001
 30
0.0
 11
56.973433999999997
 21
48.124827000000003
 31
0.0
  0
LINE
  5
74E
  8
001
 10
70.448549
 20
62.716968999999992
 30
0.0
 11
65.742363999999995
 21
57.609434999999991
 31
0.0
  0
POLYLINE
  5
74F
  8
001
 66
     1
 10
0.0
 20
0.0
 30
0.0
  0
VERTEX
  5
751
  8
001
 10
83.219802999999985
 20
60.389598999999997
 30
0.0
  0
VERTEX
  5
752
  8
001
 10
81.929011000000003
 20
60.701689000000002
 30
0.0
  0
VERTEX
  5
753
  8
001
 10
80.145256000000003
 20
61.094507
 30
0.0
  0
VERTEX
  5
754
  8
001
 10
77.989027000000007
 20
61.529392000000001
 30
0.0
  0
VERTEX
  5
755
  8
001
 10
75.580815999999999
 20
61.967683999999991
 30
0.0
  0
VERTEX
  5
756
  8
001
 10
73.041113999999993
 20
62.370722000000001
 30
0.0
  0
VERTEX
  5
757
  8
001
 10
71.641696999999994
 20
62.564273
 30
0.0
  0
VERTEX
  5
758
  8
001
 10
70.448549
 20
62.716968999999992
 30
0.0
  0
SEQEND
  5
750
  8
001
  0
ARC
  5
759
  8
001
 10
73.788697999999997
 20
58.702557999999989
 30
0.0
 40
5.2222684577821958
 50
90.0
 51
129.76180500000001
  0
ARC
  5
75A
  8
001
 10
65.624803999999997
 20
56.311083000000004
 30
0.0
 40
0.7940000000000002
 50
76.956345999999996
 51
135.0
  0
LINE
  5
75B
  8
001
 10
72.462787000000006
 20
50.595986000000003
 30
0.0
 11
74.043616999999983
 21
49.015155
 31
0.0
  0
ARC
  5
75C
  8
001
 10
65.624803999999997
 20
48.453712000000003
 30
0.0
 40
3.1000000000000001
 50
75.397654000000003
 51
12.874889
  0
LINE
  5
75D
  8
001
 10
66.511259999999993
 20
39.802342000000003
 30
0.0
 11
65.624803999999997
 21
39.802342000000003
 31
0.0
  0
ARC
  5
75E
  8
001
 10
66.511259999999993
 20
40.311672999999992
 30
0.0
 40
0.5093312671580355
 50
270.0
 51
315.0
  0
LINE
  5
75F
  8
001
 10
66.871412000000007
 20
39.951521999999997
 30
0.0
 11
67.644717
 21
40.724827000000012
 31
0.0
  0
LINE
  5
760
  8
001
 10
95.973433999999983
 20
40.724827000000012
 30
0.0
 11
66.964884999999995
 21
40.724827000000012
 31
0.0
  0
POLYLINE
  5
761
  8
001
 66
     1
 10
0.0
 20
0.0
 30
0.0
  0
VERTEX
  5
763
  8
001
 10
67.879069000000001
 20
41.639009999999999
 30
0.0
  0
VERTEX
  5
764
  8
001
 10
70.214069999999992
 20
41.903515000000013
 30
0.0
  0
VERTEX
  5
765
  8
001
 10
73.041113999999993
 20
42.27893199999999
 30
0.0
  0
VERTEX
  5
766
  8
001
 10
75.580449999999985
 20
42.683540000000001
 30
0.0
  0
VERTEX
  5
767
  8
001
 10
77.988614999999996
 20
43.122028999999991
 30
0.0
  0
VERTEX
  5
768
  8
001
 10
80.144981000000001
 20
43.556325000000001
 30
0.0
  0
VERTEX
  5
769
  8
001
 10
81.928919999999977
 20
43.948357000000001
 30
0.0
  0
VERTEX
  5
76A
  8
001
 10
83.219802999999985
 20
44.260053999999997
 30
0.0
  0
SEQEND
  5
762
  8
001
  0
LINE
  5
76B
  8
001
 10
68.546648000000005
 20
42.395299999999999
 30
0.0
 11
68.546648000000005
 21
42.306589000000002
 31
0.0
  0
LINE
  5
76C
  8
001
 10
68.586647999999997
 20
42.491869000000001
 30
0.0
 11
68.586647999999997
 21
42.346589000000002
 31
0.0
  0
LINE
  5
76D
  8
001
 10
71.586647999999997
 20
45.491869000000001
 30
0.0
 11
71.586647999999997
 21
45.346589000000002
 31
0.0
  0
LINE
  5
76E
  8
001
 10
71.683216000000002
 20
45.531869
 30
0.0
 11
71.683216000000002
 21
45.443157999999997
 31
0.0
  0
LINE
  5
76F
  8
001
 10
73.280242000000001
 20
47.040184000000004
 30
0.0
 11
66.964884999999995
 21
40.724827000000012
 31
0.0
  0
ARC
  5
770
  8
001
 10
73.782174999999995
 20
48.453712000000003
 30
0.0
 40
1.5
 50
250.450469
 51
112.175361
  0
LINE
  5
771
  8
001
 10
71.489140000000006
 20
176.67205200000001
 30
0.0
 11
76.360468999999995
 21
181.69251
 31
0.0
  0
LINE
  5
772
  8
001
 10
71.610101
 20
176.67205200000001
 30
0.0
 11
71.489140000000006
 21
176.67205200000001
 31
0.0
  0
LINE
  5
773
  8
001
 10
70.718168000000006
 20
175.752813
 30
0.0
 11
71.610101
 21
176.67205200000001
 31
0.0
  0
LINE
  5
774
  8
001
 10
70.678505000000001
 20
176.45991900000001
 30
0.0
 11
70.234324000000001
 21
175.752813
 31
0.0
  0
LINE
  5
775
  8
001
 10
70.678505000000001
 20
176.45991900000001
 30
0.0
 11
73.971797999999993
 21
179.85403199999999
 31
0.0
  0
LINE
  5
776
  8
001
 10
73.971797999999993
 20
179.85403199999999
 30
0.0
 11
75.755664999999993
 21
181.69251
 31
0.0
  0
LINE
  5
777
  8
001
 10
75.755664999999993
 20
184.520937
 30
0.0
 11
72.325151000000005
 21
188.0564709999999
 31
0.0
  0
LINE
  5
778
  8
001
 10
75.755664999999993
 20
181.69251
 30
0.0
 11
75.755664999999993
 21
184.520937
 31
0.0
  0
LINE
  5
779
  8
001
 10
64.503581000000011
 20
182.823881
 30
0.0
 11
70.678505000000001
 21
176.45991900000001
 31
0.0
  0
LINE
  5
77A
  8
001
 10
69.580740000000006
 20
188.0564709999999
 30
0.0
 11
67.796873000000005
 21
186.21799300000001
 31
0.0
  0
LINE
  5
77B
  8
001
 10
67.796873000000005
 20
186.21799300000001
 30
0.0
 11
64.503581000000011
 21
182.823881
 31
0.0
  0
LINE
  5
77C
  8
001
 10
76.481430000000003
 20
184.520937
 30
0.0
 11
75.755664999999993
 21
184.520937
 31
0.0
  0
LINE
  5
77D
  8
001
 10
76.481430000000003
 20
181.69251
 30
0.0
 11
76.481430000000003
 21
184.520937
 31
0.0
  0
LINE
  5
77E
  8
001
 10
76.481430000000003
 20
184.520937
 30
0.0
 11
73.050916999999998
 21
188.0564709999999
 31
0.0
  0
LINE
  5
77F
  8
001
 10
64.059399999999997
 20
182.11677399999999
 30
0.0
 11
64.503581000000011
 21
182.823881
 31
0.0
  0
LINE
  5
780
  8
001
 10
69.104039999999983
 20
175.752813
 30
0.0
 11
64.301321999999999
 21
180.70256000000001
 31
0.0
  0
LINE
  5
781
  8
001
 10
64.301321999999999
 20
180.70256000000001
 30
0.0
 11
64.059399999999997
 21
182.11677399999999
 31
0.0
  0
LINE
  5
782
  8
001
 10
71.610101
 20
176.67205200000001
 30
0.0
 11
71.549621000000002
 21
176.73438400000001
 31
0.0
  0
POLYLINE
  5
783
  8
001
 66
     1
 10
0.0
 20
0.0
 30
0.0
  0
VERTEX
  5
785
  8
001
 10
67.796873000000005
 20
186.21799300000001
 30
0.0
  0
VERTEX
  5
786
  8
001
 10
67.485721999999996
 20
185.84276500000001
 30
0.0
  0
VERTEX
  5
787
  8
001
 10
67.102981999999997
 20
185.286013
 30
0.0
  0
VERTEX
  5
788
  8
001
 10
66.757171999999997
 20
184.548745
 30
0.0
  0
VERTEX
  5
789
  8
001
 10
66.584339
 20
183.817429
 30
0.0
  0
VERTEX
  5
78A
  8
001
 10
66.536935999999997
 20
183.430406
 30
0.0
  0
VERTEX
  5
78B
  8
001
 10
66.518005000000002
 20
183.036013
 30
0.0
  0
VERTEX
  5
78C
  8
001
 10
66.533899000000005
 20
182.64331999999999
 30
0.0
  0
VERTEX
  5
78D
  8
001
 10
66.584339
 20
182.25459599999999
 30
0.0
  0
VERTEX
  5
78E
  8
001
 10
66.781214000000006
 20
181.49972099999999
 30
0.0
  0
VERTEX
  5
78F
  8
001
 10
67.102981999999997
 20
180.786013
 30
0.0
  0
VERTEX
  5
790
  8
001
 10
67.791798999999983
 20
179.85767100000001
 30
0.0
  0
VERTEX
  5
791
  8
001
 10
68.701169999999991
 20
179.13889800000001
 30
0.0
  0
VERTEX
  5
792
  8
001
 10
69.043805000000006
 20
178.9574659999999
 30
0.0
  0
VERTEX
  5
793
  8
001
 10
69.390962000000002
 20
178.80739600000001
 30
0.0
  0
VERTEX
  5
794
  8
001
 10
69.737550999999996
 20
178.689517
 30
0.0
  0
VERTEX
  5
795
  8
001
 10
70.126130000000003
 20
178.604378
 30
0.0
  0
VERTEX
  5
796
  8
001
 10
70.564238000000003
 20
178.55314000000001
 30
0.0
  0
VERTEX
  5
797
  8
001
 10
70.884336000000005
 20
178.536013
 30
0.0
  0
SEQEND
  5
784
  8
001
  0
POLYLINE
  5
798
  8
001
 66
     1
 10
0.0
 20
0.0
 30
0.0
  0
VERTEX
  5
79A
  8
001
 10
70.884336000000005
 20
178.536013
 30
0.0
  0
VERTEX
  5
79B
  8
001
 10
71.204432999999995
 20
178.55314000000001
 30
0.0
  0
VERTEX
  5
79C
  8
001
 10
71.642540999999994
 20
178.604378
 30
0.0
  0
VERTEX
  5
79D
  8
001
 10
72.031118000000006
 20
178.68951999999999
 30
0.0
  0
VERTEX
  5
79E
  8
001
 10
72.377708999999996
 20
178.80739600000001
 30
0.0
  0
VERTEX
  5
79F
  8
001
 10
72.724874999999997
 20
178.95745700000001
 30
0.0
  0
VERTEX
  5
7A0
  8
001
 10
73.067501000000007
 20
179.13889800000001
 30
0.0
  0
VERTEX
  5
7A1
  8
001
 10
73.976697000000001
 20
179.857856
 30
0.0
  0
VERTEX
  5
7A2
  8
001
 10
74.665689
 20
180.786013
 30
0.0
  0
VERTEX
  5
7A3
  8
001
 10
74.987904
 20
181.49925200000001
 30
0.0
  0
VERTEX
  5
7A4
  8
001
 10
75.184331999999998
 20
182.25459599999999
 30
0.0
  0
VERTEX
  5
7A5
  8
001
 10
75.234109000000004
 20
182.64401699999999
 30
0.0
  0
VERTEX
  5
7A6
  8
001
 10
75.25066600000001
 20
183.036013
 30
0.0
  0
VERTEX
  5
7A7
  8
001
 10
75.234018000000006
 20
183.42800800000001
 30
0.0
  0
VERTEX
  5
7A8
  8
001
 10
75.184331999999998
 20
183.817429
 30
0.0
  0
VERTEX
  5
7A9
  8
001
 10
74.988624999999999
 20
184.57277099999999
 30
0.0
  0
VERTEX
  5
7AA
  8
001
 10
74.665689
 20
185.286013
 30
0.0
  0
VERTEX
  5
7AB
  8
001
 10
73.971695999999994
 20
186.21418399999999
 30
0.0
  0
VERTEX
  5
7AC
  8
001
 10
73.067501000000007
 20
186.93312700000001
 30
0.0
  0
VERTEX
  5
7AD
  8
001
 10
72.729810000000001
 20
187.114554
 30
0.0
  0
VERTEX
  5
7AE
  8
001
 10
72.377708999999996
 20
187.26462900000001
 30
0.0
  0
VERTEX
  5
7AF
  8
001
 10
72.014756999999989
 20
187.382553
 30
0.0
  0
VERTEX
  5
7B0
  8
001
 10
71.642540999999994
 20
187.467647
 30
0.0
  0
VERTEX
  5
7B1
  8
001
 10
71.264786000000001
 20
187.518709
 30
0.0
  0
VERTEX
  5
7B2
  8
001
 10
70.884336000000005
 20
187.536013
 30
0.0
  0
VERTEX
  5
7B3
  8
001
 10
70.504359999999991
 20
187.519541
 30
0.0
  0
VERTEX
  5
7B4
  8
001
 10
70.126130000000003
 20
187.467647
 30
0.0
  0
VERTEX
  5
7B5
  8
001
 10
69.751530000000002
 20
187.38005200000001
 30
0.0
  0
VERTEX
  5
7B6
  8
001
 10
69.390962000000002
 20
187.26462900000001
 30
0.0
  0
VERTEX
  5
7B7
  8
001
 10
69.047965000000005
 20
187.12376900000001
 30
0.0
  0
VERTEX
  5
7B8
  8
001
 10
68.701169999999991
 20
186.93312700000001
 30
0.0
  0
VERTEX
  5
7B9
  8
001
 10
68.164175999999998
 20
186.54213300000001
 30
0.0
  0
VERTEX
  5
7BA
  8
001
 10
67.796873000000005
 20
186.21799300000001
 30
0.0
  0
SEQEND
  5
799
  8
001
  0
POLYLINE
  5
7BB
  8
001
 66
     1
 10
0.0
 20
0.0
 30
0.0
  0
VERTEX
  5
7BD
  8
001
 10
83.219802999999985
 20
171.339573
 30
0.0
  0
VERTEX
  5
7BE
  8
001
 10
83.68424499999999
 20
172.269339
 30
0.0
  0
VERTEX
  5
7BF
  8
001
 10
84.246110000000002
 20
173.60434599999999
 30
0.0
  0
VERTEX
  5
7C0
  8
001
 10
84.813280000000006
 20
175.55359899999999
 30
0.0
  0
VERTEX
  5
7C1
  8
001
 10
85.074021000000002
 20
177.390027
 30
0.0
  0
VERTEX
  5
7C2
  8
001
 10
85.150078000000008
 20
178.38551000000001
 30
0.0
  0
VERTEX
  5
7C3
  8
001
 10
85.179911000000004
 20
179.404346
 30
0.0
  0
VERTEX
  5
7C4
  8
001
 10
85.150078000000008
 20
180.423182
 30
0.0
  0
VERTEX
  5
7C5
  8
001
 10
85.074021000000002
 20
181.41866399999989
 30
0.0
  0
VERTEX
  5
7C6
  8
001
 10
84.813280000000006
 20
183.25509199999999
 30
0.0
  0
VERTEX
  5
7C7
  8
001
 10
84.246110000000002
 20
185.20434599999999
 30
0.0
  0
VERTEX
  5
7C8
  8
001
 10
83.68424499999999
 20
186.53935200000001
 30
0.0
  0
VERTEX
  5
7C9
  8
001
 10
83.219802999999985
 20
187.46911800000001
 30
0.0
  0
SEQEND
  5
7BC
  8
001
  0
LINE
  5
7CA
  8
001
 10
83.219802999999985
 20
187.46911800000001
 30
0.0
 11
83.219802999999985
 21
171.339573
 31
0.0
  0
LINE
  5
7CB
  8
001
 10
65.742363999999995
 20
184.688953
 30
0.0
 11
66.035182999999989
 21
184.40237099999999
 31
0.0
  0
LINE
  5
7CC
  8
001
 10
76.481430000000003
 20
181.69251
 30
0.0
 11
75.755664999999993
 21
181.69251
 31
0.0
  0
LINE
  5
7CD
  8
001
 10
70.718168000000006
 20
175.752813
 30
0.0
 11
69.104039999999983
 21
175.752813
 31
0.0
  0
LINE
  5
7CE
  8
001
 10
73.050916999999998
 20
188.0564709999999
 30
0.0
 11
69.580740000000006
 21
188.0564709999999
 31
0.0
  0
LINE
  5
7CF
  8
001
 10
72.347078999999994
 20
183.877419
 30
0.0
 11
72.347078999999994
 21
182.14536799999999
 31
0.0
  0
LINE
  5
7D0
  8
001
 10
69.347079000000008
 20
182.14536799999999
 30
0.0
 11
69.347079000000008
 21
183.877419
 31
0.0
  0
LINE
  5
7D1
  8
001
 10
69.347079000000008
 20
183.877419
 30
0.0
 11
70.847079000000008
 21
184.74344500000001
 31
0.0
  0
LINE
  5
7D2
  8
001
 10
72.347078999999994
 20
182.14536799999999
 30
0.0
 11
70.847079000000008
 21
181.27934300000001
 31
0.0
  0
LINE
  5
7D3
  8
001
 10
70.847079000000008
 20
181.27934300000001
 30
0.0
 11
69.347079000000008
 21
182.14536799999999
 31
0.0
  0
LINE
  5
7D4
  8
001
 10
72.347078999999994
 20
183.877419
 30
0.0
 11
70.847079000000008
 21
184.74344500000001
 31
0.0
  0
LINE
  5
7D5
  8
001
 10
176.973434
 20
179.404346
 30
0.0
 11
179.57150999999999
 21
180.904346
 31
0.0
  0
LINE
  5
7D6
  8
001
 10
176.973434
 20
179.404346
 30
0.0
 11
179.57150999999999
 21
177.904346
 31
0.0
  0
LINE
  5
7D7
  8
001
  6
CENTER
 10
54.801954000000002
 20
179.404346
 30
0.0
 11
179.42412300000001
 21
179.404346
 31
0.0
  0
CIRCLE
  5
7D8
  8
001
 10
65.624803999999997
 20
175.533231
 30
0.0
 40
2.6000000000000001
  0
ARC
  5
7D9
  8
001
 10
73.482174999999998
 20
175.533231
 30
0.0
 40
0.7940000000000002
 50
315.0
 51
45.0
  0
ARC
  5
7DA
  8
001
 10
57.767433999999987
 20
175.533231
 30
0.0
 40
0.7940000000000002
 50
135.0
 51
225.0
  0
ARC
  5
7DB
  8
001
 10
65.624803999999997
 20
167.675861
 30
0.0
 40
0.7940000000000002
 50
225.0
 51
315.0
  0
LINE
  5
7DC
  8
001
 10
69.046648000000005
 20
169.974819
 30
0.0
 11
66.186246999999995
 21
167.114418
 31
0.0
  0
LINE
  5
7DD
  8
001
 10
71.183216000000002
 20
172.11138700000001
 30
0.0
 11
74.043616999999983
 21
174.97178799999989
 31
0.0
  0
LINE
  5
7DE
  8
001
 10
63.20295999999999
 20
182.091644
 30
0.0
 11
65.063361
 21
183.952045
 31
0.0
  0
LINE
  5
7DF
  8
001
 10
59.066392
 20
177.95507499999999
 30
0.0
 11
57.205991000000012
 21
176.094674
 31
0.0
  0
LINE
  5
7E0
  8
001
  6
PHANTOM
 10
56.973433999999997
 20
175.20434599999999
 30
0.0
 11
56.973433999999997
 21
175.533231
 31
0.0
  0
LINE
  5
7E1
  8
001
 10
59.543433999999991
 20
172.63434599999999
 30
0.0
 11
57.205991000000012
 21
174.97178799999989
 31
0.0
  0
LINE
  5
7E2
  8
001
  6
PHANTOM
 10
57.205991000000012
 20
174.97178799999989
 30
0.0
 11
56.973433999999997
 21
175.20434599999999
 31
0.0
  0
LINE
  5
7E3
  8
001
 10
54.801954000000002
 20
166.904346
 30
0.0
 11
65.437185999999997
 21
166.904346
 31
0.0
  0
LINE
  5
7E4
  8
001
 10
56.973433999999997
 20
164.56543300000001
 30
0.0
 11
56.973433999999997
 21
175.20434599999999
 31
0.0
  0
LINE
  5
7E5
  8
001
 10
70.448549
 20
189.79648800000001
 30
0.0
 11
65.742363999999995
 21
184.688953
 31
0.0
  0
POLYLINE
  5
7E6
  8
001
 66
     1
 10
0.0
 20
0.0
 30
0.0
  0
VERTEX
  5
7E8
  8
001
 10
83.219802999999985
 20
187.46911800000001
 30
0.0
  0
VERTEX
  5
7E9
  8
001
 10
81.929011000000003
 20
187.78120799999999
 30
0.0
  0
VERTEX
  5
7EA
  8
001
 10
80.145256000000003
 20
188.174026
 30
0.0
  0
VERTEX
  5
7EB
  8
001
 10
77.989027000000007
 20
188.60891100000001
 30
0.0
  0
VERTEX
  5
7EC
  8
001
 10
75.580815999999999
 20
189.047203
 30
0.0
  0
VERTEX
  5
7ED
  8
001
 10
73.041113999999993
 20
189.45024000000001
 30
0.0
  0
VERTEX
  5
7EE
  8
001
 10
71.641696999999994
 20
189.64379199999999
 30
0.0
  0
VERTEX
  5
7EF
  8
001
 10
70.448549
 20
189.79648800000001
 30
0.0
  0
SEQEND
  5
7E7
  8
001
  0
ARC
  5
7F0
  8
001
 10
73.788697999999997
 20
185.78207699999999
 30
0.0
 40
5.2222684577821958
 50
90.0
 51
129.76180500000001
  0
ARC
  5
7F1
  8
001
 10
65.624803999999997
 20
183.390602
 30
0.0
 40
0.7940000000000002
 50
76.956345999999996
 51
135.0
  0
LINE
  5
7F2
  8
001
 10
72.462787000000006
 20
177.67550499999999
 30
0.0
 11
74.043616999999983
 21
176.094674
 31
0.0
  0
ARC
  5
7F3
  8
001
 10
65.624803999999997
 20
175.533231
 30
0.0
 40
3.1000000000000001
 50
75.397654000000003
 51
12.874889
  0
LINE
  5
7F4
  8
001
 10
66.511259999999993
 20
166.88186099999999
 30
0.0
 11
65.624803999999997
 21
166.88186099999999
 31
0.0
  0
ARC
  5
7F5
  8
001
 10
66.511259999999993
 20
167.39119199999999
 30
0.0
 40
0.5093312671580355
 50
270.0
 51
315.0
  0
LINE
  5
7F6
  8
001
 10
66.871412000000007
 20
167.03103999999999
 30
0.0
 11
67.644717
 21
167.80434600000001
 31
0.0
  0
POLYLINE
  5
7F7
  8
001
 66
     1
 10
0.0
 20
0.0
 30
0.0
  0
VERTEX
  5
7F9
  8
001
 10
67.879069000000001
 20
168.71852899999999
 30
0.0
  0
VERTEX
  5
7FA
  8
001
 10
70.214069999999992
 20
168.983034
 30
0.0
  0
VERTEX
  5
7FB
  8
001
 10
73.041113999999993
 20
169.358451
 30
0.0
  0
VERTEX
  5
7FC
  8
001
 10
75.580449999999985
 20
169.763059
 30
0.0
  0
VERTEX
  5
7FD
  8
001
 10
77.988614999999996
 20
170.20154700000001
 30
0.0
  0
VERTEX
  5
7FE
  8
001
 10
80.144981000000001
 20
170.63584399999999
 30
0.0
  0
VERTEX
  5
7FF
  8
001
 10
81.928919999999977
 20
171.02787599999999
 30
0.0
  0
VERTEX
  5
800
  8
001
 10
83.219802999999985
 20
171.339573
 30
0.0
  0
SEQEND
  5
7F8
  8
001
  0
LINE
  5
801
  8
001
 10
73.280242000000001
 20
174.11970199999999
 30
0.0
 11
66.964884999999995
 21
167.80434600000001
 31
0.0
  0
ARC
  5
802
  8
001
 10
73.782174999999995
 20
175.533231
 30
0.0
 40
1.5
 50
250.450469
 51
112.175361
  0
TEXT
  5
803
  8
001
 10
43.925880999999997
 20
207.406116
 30
0.0
 40
5.0
  1
ＲスペシャルＪｒ．　ＮＫ２０－０５Ｒ　（３Ｒ）
 41
0.833333
  0
CIRCLE
  5
804
  8
001
 10
65.624803999999997
 20
415.76802199999997
 30
0.0
 40
2.6000000000000001
  0
ARC
  5
805
  8
001
 10
57.767433999999987
 20
415.76802199999997
 30
0.0
 40
0.7940000000000002
 50
135.0
 51
225.0
  0
ARC
  5
806
  8
001
 10
65.624803999999997
 20
407.91065200000003
 30
0.0
 40
0.7940000000000002
 50
225.0
 51
315.0
  0
ARC
  5
807
  8
001
 10
73.482174999999998
 20
415.76802199999997
 30
0.0
 40
0.7940000000000002
 50
315.0
 51
45.0
  0
LINE
  5
808
  8
001
 10
72.183216000000002
 20
413.34617900000001
 30
0.0
 11
72.086647999999997
 21
413.30617899999999
 31
0.0
  0
ARC
  5
809
  8
001
 10
72.086647999999997
 20
409.30617899999999
 30
0.0
 40
4.0
 50
90.0
 51
180.0
  0
LINE
  5
80A
  8
001
 10
68.046648000000005
 20
409.20961
 30
0.0
 11
68.086647999999997
 21
409.30617899999999
 31
0.0
  0
ARC
  5
80B
  8
001
 10
71.715184999999991
 20
414.29236099999991
 30
0.0
 40
0.7999999999999999
 50
274.26057300000002
 51
94.260572999999994
  0
ARC
  5
80C
  8
001
 10
67.100465
 20
409.67764099999999
 30
0.0
 40
0.7999999999999999
 50
175.73942700000001
 51
355.73942699999998
  0
ARC
  5
80D
  8
001
 10
72.086647999999997
 20
409.30617899999999
 30
0.0
 40
5.7999999999999989
 50
94.260572999999994
 51
175.73942700000001
  0
ARC
  5
80E
  8
001
 10
72.086647999999997
 20
409.30617899999999
 30
0.0
 40
4.2000000000000002
 50
94.260572999999994
 51
175.73942700000001
  0
LINE
  5
80F
  8
001
 10
74.043616999999983
 20
415.20657999999992
 30
0.0
 11
72.183216000000002
 21
413.34617900000001
 31
0.0
  0
LINE
  5
810
  8
001
 10
68.046648000000005
 20
409.20961
 30
0.0
 11
66.186246999999995
 21
407.34920899999997
 31
0.0
  0
LINE
  5
811
  8
001
 10
62.202959999999997
 20
421.32643499999989
 30
0.0
 11
62.162959999999991
 21
421.22986600000002
 31
0.0
  0
LINE
  5
812
  8
001
 10
60.066392000000008
 20
419.18986599999988
 30
0.0
 11
60.162959999999998
 21
419.22986600000002
 31
0.0
  0
LINE
  5
813
  8
001
 10
60.533434
 20
411.87913700000001
 30
0.0
 11
60.630002000000012
 21
411.83913699999999
 31
0.0
  0
LINE
  5
814
  8
001
 10
61.683433999999998
 20
410.72913699999998
 30
0.0
 11
61.643433999999992
 21
410.82570499999991
 31
0.0
  0
ARC
  5
815
  8
001
 10
60.162959999999998
 20
421.22986600000002
 30
0.0
 40
2.0
 50
270.0
 51
360.0
  0
ARC
  5
816
  8
001
 10
60.545034999999999
 20
418.25429600000001
 30
0.0
 40
0.7999999999999999
 50
97.316961000000006
 51
277.31696099999999
  0
ARC
  5
817
  8
001
 10
63.138531000000008
 20
420.84779199999991
 30
0.0
 40
0.7999999999999999
 50
352.68303900000001
 51
172.68303900000001
  0
ARC
  5
818
  8
001
 10
60.162959999999998
 20
421.22986600000002
 30
0.0
 40
3.7999999999999989
 50
277.31696099999999
 51
352.68303900000001
  0
ARC
  5
819
  8
001
 10
60.162959999999998
 20
421.22986600000002
 30
0.0
 40
2.2000000000000002
 50
277.31696099999999
 51
352.68303900000001
  0
ARC
  5
81A
  8
001
 10
61.027557999999999
 20
412.79922599999998
 30
0.0
 40
0.7999999999999999
 50
78.914166000000009
 51
258.91416600000002
  0
ARC
  5
81B
  8
001
 10
62.603523000000003
 20
411.22326099999992
 30
0.0
 40
0.7999999999999999
 50
191.08583400000001
 51
11.085834
  0
LINE
  5
81C
  8
001
 10
62.202959999999997
 20
421.32643499999989
 30
0.0
 11
65.063361
 21
424.18683600000003
 31
0.0
  0
LINE
  5
81D
  8
001
 10
57.205991000000012
 20
416.32946500000003
 30
0.0
 11
60.066392000000008
 21
419.18986599999988
 31
0.0
  0
LINE
  5
81E
  8
001
 10
60.533434
 20
411.87913700000001
 30
0.0
 11
57.205991000000012
 21
415.20657999999992
 31
0.0
  0
LINE
  5
81F
  8
001
 10
61.683433999999998
 20
410.72913699999998
 30
0.0
 11
65.063361
 21
407.34920899999997
 31
0.0
  0
LINE
  5
820
  8
001
 10
59.066392
 20
177.95507499999999
 30
0.0
 11
59.162959999999991
 21
177.99507500000001
 31
0.0
  0
ARC
  5
821
  8
001
 10
59.162959999999991
 20
181.99507500000001
 30
0.0
 40
4.0
 50
270.0
 51
360.0
  0
LINE
  5
822
  8
001
 10
63.20295999999999
 20
182.091644
 30
0.0
 11
63.162959999999998
 21
181.99507500000001
 31
0.0
  0
ARC
  5
823
  8
001
 10
59.53442299999999
 20
177.008893
 30
0.0
 40
0.7999999999999999
 50
94.260572999999994
 51
274.26057300000002
  0
ARC
  5
824
  8
001
 10
59.162959999999991
 20
181.99507500000001
 30
0.0
 40
4.2000000000000002
 50
274.26057300000002
 51
355.73942699999998
  0
LINE
  5
825
  8
001
 10
59.543433999999991
 20
172.63434599999999
 30
0.0
 11
59.640002000000003
 21
172.594346
 31
0.0
  0
LINE
  5
826
  8
001
 10
62.683433999999998
 20
169.49434600000001
 30
0.0
 11
62.643433999999999
 21
169.590914
 31
0.0
  0
LINE
  5
827
  8
001
 10
69.046648000000005
 20
169.974819
 30
0.0
 11
69.086647999999997
 21
170.07138699999999
 31
0.0
  0
LINE
  5
828
  8
001
 10
71.183216000000002
 20
172.11138700000001
 30
0.0
 11
71.086647999999997
 21
172.07138699999999
 31
0.0
  0
ARC
  5
829
  8
001
 10
71.086647999999997
 20
170.07138699999999
 30
0.0
 40
2.0
 50
90.0
 51
180.0
  0
ARC
  5
82A
  8
001
 10
63.625788999999997
 20
169.96620300000001
 30
0.0
 40
0.7999999999999999
 50
185.334575
 51
360.0
  0
ARC
  5
82B
  8
001
 10
60.015290999999998
 20
173.57670100000001
 30
0.0
 40
0.7999999999999999
 50
79.330849999999998
 51
264.66542500000003
  0
ARC
  5
82C
  8
001
 10
70.704572999999996
 20
173.04695799999999
 30
0.0
 40
0.7999999999999999
 50
277.31696099999999
 51
97.316961000000006
  0
ARC
  5
82D
  8
001
 10
68.111078000000006
 20
170.453462
 30
0.0
 40
0.7999999999999999
 50
172.68303900000001
 51
352.68303900000001
  0
ARC
  5
82E
  8
001
 10
71.086647999999997
 20
170.07138699999999
 30
0.0
 40
3.7999999999999989
 50
97.316961000000006
 51
172.68303900000001
  0
ARC
  5
82F
  8
001
 10
71.086647999999997
 20
170.07138699999999
 30
0.0
 40
2.2000000000000002
 50
97.316961000000006
 51
172.68303900000001
  0
LINE
  5
830
  8
001
 10
62.683433999999998
 20
169.49434600000001
 30
0.0
 11
65.063361
 21
167.114418
 31
0.0
  0
TEXT
  5
831
  8
001
 10
58.640419999999999
 20
177.01188200000001
 30
0.0
 40
2.0
  1
４
 50
224.99999600000001
 41
0.833333
  0
TEXT
  5
832
  8
001
 10
64.146152999999998
 20
168.54884699999999
 30
0.0
 40
2.0
  1
３
 50
314.99999200000002
 41
0.833333
  0
TEXT
  5
833
  8
001
 10
72.609189000000001
 20
174.05457999999999
 30
0.0
 40
2.0
  1
２
 50
45.000000999999997
 41
0.833333
  0
ARC
  5
834
  8
001
 10
59.162959999999991
 20
181.99507500000001
 30
0.0
 40
5.7999999999999989
 50
274.26057300000002
 51
342.86292900000001
  0
ARC
  5
835
  8
001
 10
64.149143000000009
 20
181.62361200000001
 30
0.0
 40
0.7999999999999999
 50
82.882052000000002
 51
175.73942700000001
  0
ARC
  5
836
  8
001
 10
59.643434999999997
 20
169.594348
 30
0.0
 40
3.0
 50
0.065574
 51
89.934425999999988
  0
LINE
  5
837
  8
001
 10
62.643433999999999
 20
164.56543300000001
 30
0.0
 11
62.643433999999999
 21
169.597781
 31
0.0
  0
LINE
  5
838
  8
001
 10
54.801954000000002
 20
172.594346
 30
0.0
 11
59.646869000000002
 21
172.594346
 31
0.0
  0
ARC
  5
839
  8
001
 10
59.643434999999997
 20
169.594348
 30
0.0
 40
3.1996773729329968
 50
5.3345750000000001
 51
84.665424999999999
  0
ARC
  5
83A
  8
001
 10
59.643434999999997
 20
169.594348
 30
0.0
 40
4.796789060084846
 50
4.4461329999999997
 51
83.776983000000016
  0
LINE
  5
83B
  8
001
 10
71.489140000000006
 20
293.57780300000002
 30
0.0
 11
76.360468999999995
 21
298.59826099999998
 31
0.0
  0
LINE
  5
83C
  8
001
 10
71.610101
 20
293.57780300000002
 30
0.0
 11
71.489140000000006
 21
293.57780300000002
 31
0.0
  0
LINE
  5
83D
  8
001
 10
70.718168000000006
 20
292.65856400000001
 30
0.0
 11
71.610101
 21
293.57780300000002
 31
0.0
  0
LINE
  5
83E
  8
001
 10
70.678505000000001
 20
293.36567100000002
 30
0.0
 11
70.234324000000001
 21
292.65856400000001
 31
0.0
  0
LINE
  5
83F
  8
001
 10
70.678505000000001
 20
293.36567100000002
 30
0.0
 11
73.971797999999993
 21
296.75978300000003
 31
0.0
  0
LINE
  5
840
  8
001
 10
73.971797999999993
 20
296.75978300000003
 30
0.0
 11
75.755664999999993
 21
298.59826099999998
 31
0.0
  0
LINE
  5
841
  8
001
 10
75.755664999999993
 20
301.42668800000001
 30
0.0
 11
72.325151000000005
 21
304.962222
 31
0.0
  0
LINE
  5
842
  8
001
 10
75.755664999999993
 20
298.59826099999998
 30
0.0
 11
75.755664999999993
 21
301.42668800000001
 31
0.0
  0
LINE
  5
843
  8
001
 10
64.503581000000011
 20
299.72963199999998
 30
0.0
 11
70.678505000000001
 21
293.36567100000002
 31
0.0
  0
LINE
  5
844
  8
001
 10
69.580740000000006
 20
304.962222
 30
0.0
 11
67.796873000000005
 21
303.12374399999999
 31
0.0
  0
LINE
  5
845
  8
001
 10
67.796873000000005
 20
303.12374399999999
 30
0.0
 11
64.503581000000011
 21
299.72963199999998
 31
0.0
  0
LINE
  5
846
  8
001
 10
76.481430000000003
 20
301.42668800000001
 30
0.0
 11
75.755664999999993
 21
301.42668800000001
 31
0.0
  0
LINE
  5
847
  8
001
 10
76.481430000000003
 20
298.59826099999998
 30
0.0
 11
76.481430000000003
 21
301.42668800000001
 31
0.0
  0
LINE
  5
848
  8
001
 10
76.481430000000003
 20
301.42668800000001
 30
0.0
 11
73.050916999999998
 21
304.962222
 31
0.0
  0
LINE
  5
849
  8
001
 10
64.059399999999997
 20
299.02252499999997
 30
0.0
 11
64.503581000000011
 21
299.72963199999998
 31
0.0
  0
LINE
  5
84A
  8
001
 10
69.104039999999983
 20
292.65856400000001
 30
0.0
 11
64.301321999999999
 21
297.60831100000001
 31
0.0
  0
LINE
  5
84B
  8
001
 10
64.301321999999999
 20
297.60831100000001
 30
0.0
 11
64.059399999999997
 21
299.02252499999997
 31
0.0
  0
LINE
  5
84C
  8
001
 10
71.610101
 20
293.57780300000002
 30
0.0
 11
71.549621000000002
 21
293.64013499999999
 31
0.0
  0
POLYLINE
  5
84D
  8
001
 66
     1
 10
0.0
 20
0.0
 30
0.0
  0
VERTEX
  5
84F
  8
001
 10
67.796873000000005
 20
303.12374399999999
 30
0.0
  0
VERTEX
  5
850
  8
001
 10
67.485721999999996
 20
302.748516
 30
0.0
  0
VERTEX
  5
851
  8
001
 10
67.102981999999997
 20
302.19176399999998
 30
0.0
  0
VERTEX
  5
852
  8
001
 10
66.757171999999997
 20
301.45449600000001
 30
0.0
  0
VERTEX
  5
853
  8
001
 10
66.584339
 20
300.72318100000001
 30
0.0
  0
VERTEX
  5
854
  8
001
 10
66.536935999999997
 20
300.33615700000001
 30
0.0
  0
VERTEX
  5
855
  8
001
 10
66.518005000000002
 20
299.94176399999998
 30
0.0
  0
VERTEX
  5
856
  8
001
 10
66.533899000000005
 20
299.54907200000002
 30
0.0
  0
VERTEX
  5
857
  8
001
 10
66.584339
 20
299.160347
 30
0.0
  0
VERTEX
  5
858
  8
001
 10
66.781214000000006
 20
298.40547200000009
 30
0.0
  0
VERTEX
  5
859
  8
001
 10
67.102981999999997
 20
297.69176399999998
 30
0.0
  0
VERTEX
  5
85A
  8
001
 10
67.791798999999983
 20
296.76342299999999
 30
0.0
  0
VERTEX
  5
85B
  8
001
 10
68.701169999999991
 20
296.04464999999999
 30
0.0
  0
VERTEX
  5
85C
  8
001
 10
69.043805000000006
 20
295.86321700000002
 30
0.0
  0
VERTEX
  5
85D
  8
001
 10
69.390962000000002
 20
295.71314699999999
 30
0.0
  0
VERTEX
  5
85E
  8
001
 10
69.737550999999996
 20
295.59526899999997
 30
0.0
  0
VERTEX
  5
85F
  8
001
 10
70.126130000000003
 20
295.51012900000001
 30
0.0
  0
VERTEX
  5
860
  8
001
 10
70.564238000000003
 20
295.45889199999999
 30
0.0
  0
VERTEX
  5
861
  8
001
 10
70.884336000000005
 20
295.44176399999998
 30
0.0
  0
SEQEND
  5
84E
  8
001
  0
POLYLINE
  5
862
  8
001
 66
     1
 10
0.0
 20
0.0
 30
0.0
  0
VERTEX
  5
864
  8
001
 10
70.884336000000005
 20
295.44176399999998
 30
0.0
  0
VERTEX
  5
865
  8
001
 10
71.204432999999995
 20
295.45889099999999
 30
0.0
  0
VERTEX
  5
866
  8
001
 10
71.642540999999994
 20
295.51012900000001
 30
0.0
  0
VERTEX
  5
867
  8
001
 10
72.031118000000006
 20
295.59527100000003
 30
0.0
  0
VERTEX
  5
868
  8
001
 10
72.377708999999996
 20
295.71314699999999
 30
0.0
  0
VERTEX
  5
869
  8
001
 10
72.724874999999997
 20
295.86320799999999
 30
0.0
  0
VERTEX
  5
86A
  8
001
 10
73.067501000000007
 20
296.04464999999999
 30
0.0
  0
VERTEX
  5
86B
  8
001
 10
73.976697000000001
 20
296.76360699999998
 30
0.0
  0
VERTEX
  5
86C
  8
001
 10
74.665689
 20
297.69176399999998
 30
0.0
  0
VERTEX
  5
86D
  8
001
 10
74.987904
 20
298.40500300000002
 30
0.0
  0
VERTEX
  5
86E
  8
001
 10
75.184331999999998
 20
299.160347
 30
0.0
  0
VERTEX
  5
86F
  8
001
 10
75.234109000000004
 20
299.54976799999997
 30
0.0
  0
VERTEX
  5
870
  8
001
 10
75.25066600000001
 20
299.94176399999998
 30
0.0
  0
VERTEX
  5
871
  8
001
 10
75.234018000000006
 20
300.33375999999998
 30
0.0
  0
VERTEX
  5
872
  8
001
 10
75.184331999999998
 20
300.72318100000001
 30
0.0
  0
VERTEX
  5
873
  8
001
 10
74.988624999999999
 20
301.478522
 30
0.0
  0
VERTEX
  5
874
  8
001
 10
74.665689
 20
302.19176399999998
 30
0.0
  0
VERTEX
  5
875
  8
001
 10
73.971695999999994
 20
303.119935
 30
0.0
  0
VERTEX
  5
876
  8
001
 10
73.067501000000007
 20
303.83887800000002
 30
0.0
  0
VERTEX
  5
877
  8
001
 10
72.729810000000001
 20
304.02030500000001
 30
0.0
  0
VERTEX
  5
878
  8
001
 10
72.377708999999996
 20
304.17038100000002
 30
0.0
  0
VERTEX
  5
879
  8
001
 10
72.014756999999989
 20
304.28830399999998
 30
0.0
  0
VERTEX
  5
87A
  8
001
 10
71.642540999999994
 20
304.37339900000001
 30
0.0
  0
VERTEX
  5
87B
  8
001
 10
71.264786000000001
 20
304.42446100000001
 30
0.0
  0
VERTEX
  5
87C
  8
001
 10
70.884336000000005
 20
304.44176399999998
 30
0.0
  0
VERTEX
  5
87D
  8
001
 10
70.504359999999991
 20
304.42529200000001
 30
0.0
  0
VERTEX
  5
87E
  8
001
 10
70.126130000000003
 20
304.37339900000001
 30
0.0
  0
VERTEX
  5
87F
  8
001
 10
69.751530000000002
 20
304.28580299999999
 30
0.0
  0
VERTEX
  5
880
  8
001
 10
69.390962000000002
 20
304.17038100000002
 30
0.0
  0
VERTEX
  5
881
  8
001
 10
69.047965000000005
 20
304.02951999999999
 30
0.0
  0
VERTEX
  5
882
  8
001
 10
68.701169999999991
 20
303.83887800000002
 30
0.0
  0
VERTEX
  5
883
  8
001
 10
68.164175999999998
 20
303.44788399999999
 30
0.0
  0
VERTEX
  5
884
  8
001
 10
67.796873000000005
 20
303.12374399999999
 30
0.0
  0
SEQEND
  5
863
  8
001
  0
LINE
  5
885
  8
001
 10
176.973434
 20
302.8100970000001
 30
0.0
 11
176.973434
 21
289.8100970000001
 31
0.0
  0
POLYLINE
  5
886
  8
001
 66
     1
 10
0.0
 20
0.0
 30
0.0
  0
VERTEX
  5
888
  8
001
 10
83.219802999999985
 20
288.24532399999998
 30
0.0
  0
VERTEX
  5
889
  8
001
 10
83.68424499999999
 20
289.17509000000001
 30
0.0
  0
VERTEX
  5
88A
  8
001
 10
84.246110000000002
 20
290.51009699999997
 30
0.0
  0
VERTEX
  5
88B
  8
001
 10
84.813280000000006
 20
292.45934999999997
 30
0.0
  0
VERTEX
  5
88C
  8
001
 10
85.074021000000002
 20
294.29577799999998
 30
0.0
  0
VERTEX
  5
88D
  8
001
 10
85.150078000000008
 20
295.29126100000002
 30
0.0
  0
VERTEX
  5
88E
  8
001
 10
85.179911000000004
 20
296.3100970000001
 30
0.0
  0
VERTEX
  5
88F
  8
001
 10
85.150078000000008
 20
297.32893300000001
 30
0.0
  0
VERTEX
  5
890
  8
001
 10
85.074021000000002
 20
298.32441599999999
 30
0.0
  0
VERTEX
  5
891
  8
001
 10
84.813280000000006
 20
300.160843
 30
0.0
  0
VERTEX
  5
892
  8
001
 10
84.246110000000002
 20
302.110097
 30
0.0
  0
VERTEX
  5
893
  8
001
 10
83.68424499999999
 20
303.44510300000002
 30
0.0
  0
VERTEX
  5
894
  8
001
 10
83.219802999999985
 20
304.37486899999999
 30
0.0
  0
SEQEND
  5
887
  8
001
  0
LINE
  5
895
  8
001
 10
83.219802999999985
 20
304.37486899999999
 30
0.0
 11
83.219802999999985
 21
288.24532399999998
 31
0.0
  0
LINE
  5
896
  8
001
 10
65.742363999999995
 20
301.59470499999998
 30
0.0
 11
66.035182999999989
 21
301.30812200000003
 31
0.0
  0
LINE
  5
897
  8
001
 10
76.481430000000003
 20
298.59826099999998
 30
0.0
 11
75.755664999999993
 21
298.59826099999998
 31
0.0
  0
LINE
  5
898
  8
001
 10
70.718168000000006
 20
292.65856400000001
 30
0.0
 11
69.104039999999983
 21
292.65856400000001
 31
0.0
  0
LINE
  5
899
  8
001
 10
73.050916999999998
 20
304.962222
 30
0.0
 11
69.580740000000006
 21
304.962222
 31
0.0
  0
LINE
  5
89A
  8
001
 10
72.347078999999994
 20
300.78317099999998
 30
0.0
 11
72.347078999999994
 21
299.05112000000003
 31
0.0
  0
LINE
  5
89B
  8
001
 10
69.347079000000008
 20
299.05112000000003
 30
0.0
 11
69.347079000000008
 21
300.78317099999998
 31
0.0
  0
LINE
  5
89C
  8
001
 10
69.347079000000008
 20
300.78317099999998
 30
0.0
 11
70.847079000000008
 21
301.64919600000002
 31
0.0
  0
LINE
  5
89D
  8
001
 10
72.347078999999994
 20
299.05112000000003
 30
0.0
 11
70.847079000000008
 21
298.18509399999999
 31
0.0
  0
LINE
  5
89E
  8
001
 10
70.847079000000008
 20
298.18509399999999
 30
0.0
 11
69.347079000000008
 21
299.05112000000003
 31
0.0
  0
LINE
  5
89F
  8
001
 10
72.347078999999994
 20
300.78317099999998
 30
0.0
 11
70.847079000000008
 21
301.64919600000002
 31
0.0
  0
LINE
  5
8A0
  8
001
 10
176.973434
 20
296.3100970000001
 30
0.0
 11
179.57150999999999
 21
297.81009699999998
 31
0.0
  0
LINE
  5
8A1
  8
001
 10
176.973434
 20
296.3100970000001
 30
0.0
 11
179.57150999999999
 21
294.81009699999998
 31
0.0
  0
LINE
  5
8A2
  8
001
  6
CENTER
 10
54.801954000000002
 20
296.3100970000001
 30
0.0
 11
179.42412300000001
 21
296.3100970000001
 31
0.0
  0
CIRCLE
  5
8A3
  8
001
 10
65.624803999999997
 20
292.43898200000001
 30
0.0
 40
2.6000000000000001
  0
LINE
  5
8A4
  8
001
  6
PHANTOM
 10
56.973433999999997
 20
292.110097
 30
0.0
 11
56.973433999999997
 21
292.43898200000001
 31
0.0
  0
LINE
  5
8A5
  8
001
  6
PHANTOM
 10
57.205991000000012
 20
291.87754000000001
 30
0.0
 11
56.973433999999997
 21
292.110097
 31
0.0
  0
LINE
  5
8A6
  8
001
 10
54.801954000000002
 20
283.8100970000001
 30
0.0
 11
65.437185999999997
 21
283.8100970000001
 31
0.0
  0
LINE
  5
8A7
  8
001
 10
56.973433999999997
 20
281.47118399999999
 30
0.0
 11
56.973433999999997
 21
292.110097
 31
0.0
  0
LINE
  5
8A8
  8
001
 10
70.448549
 20
306.70223900000002
 30
0.0
 11
65.742363999999995
 21
301.59470499999998
 31
0.0
  0
POLYLINE
  5
8A9
  8
001
 66
     1
 10
0.0
 20
0.0
 30
0.0
  0
VERTEX
  5
8AB
  8
001
 10
83.219802999999985
 20
304.37486899999999
 30
0.0
  0
VERTEX
  5
8AC
  8
001
 10
81.929011000000003
 20
304.686959
 30
0.0
  0
VERTEX
  5
8AD
  8
001
 10
80.145256000000003
 20
305.07977699999998
 30
0.0
  0
VERTEX
  5
8AE
  8
001
 10
77.989027000000007
 20
305.51466199999999
 30
0.0
  0
VERTEX
  5
8AF
  8
001
 10
75.580815999999999
 20
305.95295399999998
 30
0.0
  0
VERTEX
  5
8B0
  8
001
 10
73.041113999999993
 20
306.35599200000001
 30
0.0
  0
VERTEX
  5
8B1
  8
001
 10
71.641696999999994
 20
306.54954300000003
 30
0.0
  0
VERTEX
  5
8B2
  8
001
 10
70.448549
 20
306.70223900000002
 30
0.0
  0
SEQEND
  5
8AA
  8
001
  0
ARC
  5
8B3
  8
001
 10
73.788697999999997
 20
302.68782800000002
 30
0.0
 40
5.2222684577821958
 50
90.0
 51
129.76180500000001
  0
ARC
  5
8B4
  8
001
 10
65.624803999999997
 20
292.43898200000001
 30
0.0
 40
3.1000000000000001
 50
75.397654000000003
 51
12.874889
  0
LINE
  5
8B5
  8
001
 10
66.511259999999993
 20
283.78761200000002
 30
0.0
 11
65.624803999999997
 21
283.78761200000002
 31
0.0
  0
ARC
  5
8B6
  8
001
 10
66.511259999999993
 20
284.296943
 30
0.0
 40
0.5093312671580355
 50
270.0
 51
315.0
  0
LINE
  5
8B7
  8
001
 10
66.871412000000007
 20
283.93679200000003
 30
0.0
 11
67.644717
 21
284.71009700000002
 31
0.0
  0
POLYLINE
  5
8B8
  8
001
 66
     1
 10
0.0
 20
0.0
 30
0.0
  0
VERTEX
  5
8BA
  8
001
 10
67.879069000000001
 20
285.62428
 30
0.0
  0
VERTEX
  5
8BB
  8
001
 10
70.214069999999992
 20
285.88878499999998
 30
0.0
  0
VERTEX
  5
8BC
  8
001
 10
73.041113999999993
 20
286.26420200000001
 30
0.0
  0
VERTEX
  5
8BD
  8
001
 10
75.580449999999985
 20
286.66881000000001
 30
0.0
  0
VERTEX
  5
8BE
  8
001
 10
77.988614999999996
 20
287.10729900000001
 30
0.0
  0
VERTEX
  5
8BF
  8
001
 10
80.144981000000001
 20
287.54159499999997
 30
0.0
  0
VERTEX
  5
8C0
  8
001
 10
81.928919999999977
 20
287.933627
 30
0.0
  0
VERTEX
  5
8C1
  8
001
 10
83.219802999999985
 20
288.24532399999998
 30
0.0
  0
SEQEND
  5
8B9
  8
001
  0
ARC
  5
8C2
  8
001
 10
73.782174999999995
 20
292.43898200000001
 30
0.0
 40
1.5
 50
250.450469
 51
112.175361
  0
TEXT
  5
8C3
  8
001
 10
48.787261000000001
 20
329.36770300000001
 30
0.0
 40
5.0
  1
ＲスペシャルＪｒ．　ＮＫ２０－０５Ｒ　（２Ｒ）
 41
0.833333
  0
ARC
  5
8C4
  8
001
 10
57.767433999999987
 20
292.43898200000001
 30
0.0
 40
0.7940000000000002
 50
135.0
 51
225.0
  0
ARC
  5
8C5
  8
001
 10
65.624803999999997
 20
284.58161200000001
 30
0.0
 40
0.7940000000000002
 50
225.0
 51
315.0
  0
ARC
  5
8C6
  8
001
 10
73.482174999999998
 20
292.43898200000001
 30
0.0
 40
0.7940000000000002
 50
315.0
 51
45.0
  0
LINE
  5
8C7
  8
001
 10
62.702959999999997
 20
298.49739499999998
 30
0.0
 11
62.662959999999998
 21
298.400826
 31
0.0
  0
LINE
  5
8C8
  8
001
 10
59.566392000000008
 20
295.36082599999997
 30
0.0
 11
59.662959999999991
 21
295.400826
 31
0.0
  0
LINE
  5
8C9
  8
001
 10
60.033434
 20
289.05009699999999
 30
0.0
 11
60.130001999999998
 21
289.01009699999997
 31
0.0
  0
LINE
  5
8CA
  8
001
 10
62.183433999999998
 20
286.90009700000002
 30
0.0
 11
62.143433999999999
 21
286.99666500000001
 31
0.0
  0
LINE
  5
8CB
  8
001
 10
69.546648000000005
 20
287.38057000000009
 30
0.0
 11
69.586647999999997
 21
287.47713900000002
 31
0.0
  0
LINE
  5
8CC
  8
001
 10
70.683216000000002
 20
288.51713899999999
 30
0.0
 11
70.586647999999997
 21
288.47713900000002
 31
0.0
  0
ARC
  5
8CD
  8
001
 10
59.662959999999991
 20
298.400826
 30
0.0
 40
3.0
 50
270.0
 51
360.0
  0
ARC
  5
8CE
  8
001
 10
70.586647999999997
 20
287.47713900000002
 30
0.0
 40
1.0
 50
90.0
 51
180.0
  0
ARC
  5
8CF
  8
001
 10
60.038249
 20
294.41847000000001
 30
0.0
 40
0.7999999999999999
 50
95.383539999999996
 51
275.38353999999998
  0
ARC
  5
8D0
  8
001
 10
59.662959999999991
 20
298.400826
 30
0.0
 40
3.2000000000000002
 50
275.38353999999998
 51
354.61646000000002
  0
ARC
  5
8D1
  8
001
 10
63.119003999999997
 20
287.37873999999999
 30
0.0
 40
0.7999999999999999
 50
187.06163000000001
 51
7.0616300000000001
  0
ARC
  5
8D2
  8
001
 10
60.512076999999998
 20
289.98566699999998
 30
0.0
 40
0.7999999999999999
 50
82.938369999999992
 51
262.93837000000002
  0
ARC
  5
8D3
  8
001
 10
68.626559
 20
287.87469499999997
 30
0.0
 40
0.7999999999999999
 50
168.534494
 51
348.534494
  0
ARC
  5
8D4
  8
001
 10
70.189092000000002
 20
289.437228
 30
0.0
 40
0.7999999999999999
 50
281.465506
 51
101.465506
  0
ARC
  5
8D5
  8
001
 10
70.586647999999997
 20
287.47713900000002
 30
0.0
 40
2.7999999999999989
 50
101.465506
 51
168.534494
  0
ARC
  5
8D6
  8
001
 10
70.586647999999997
 20
287.47713900000002
 30
0.0
 40
1.1999999999999991
 50
101.465506
 51
168.534494
  0
LINE
  5
8D7
  8
001
 10
65.063361
 20
300.85779600000001
 30
0.0
 11
62.702959999999997
 21
298.49739499999998
 31
0.0
  0
LINE
  5
8D8
  8
001
 10
59.566392000000008
 20
295.36082599999997
 30
0.0
 11
57.205991000000012
 21
293.00042500000001
 31
0.0
  0
LINE
  5
8D9
  8
001
 10
60.033434
 20
289.05009699999999
 30
0.0
 11
57.205991000000012
 21
291.87754000000001
 31
0.0
  0
LINE
  5
8DA
  8
001
 10
62.183433999999998
 20
286.90009700000002
 30
0.0
 11
65.063361
 21
284.02016900000001
 31
0.0
  0
LINE
  5
8DB
  8
001
 10
69.546648000000005
 20
287.38057000000009
 30
0.0
 11
66.186246999999995
 21
284.02016900000001
 31
0.0
  0
LINE
  5
8DC
  8
001
 10
74.043616999999983
 20
291.87754000000001
 30
0.0
 11
70.683216000000002
 21
288.51713899999999
 31
0.0
  0
TEXT
  5
8DD
  8
001
 10
58.640419999999999
 20
293.91763399999991
 30
0.0
 40
2.0
  1
３
 50
224.99999600000001
 41
0.833333
  0
TEXT
  5
8DE
  8
001
 10
64.146152999999998
 20
285.45459799999998
 30
0.0
 40
2.0
  1
２
 50
314.99999200000002
 41
0.833333
  0
TEXT
  5
8DF
  8
001
 10
72.609189000000001
 20
290.960331
 30
0.0
 40
2.0
  1
１
 50
45.000000999999997
 41
0.833333
  0
ARC
  5
8E0
  8
001
 10
65.624803999999997
 20
300.29635300000001
 30
0.0
 40
0.7940000000000002
 50
76.956345999999996
 51
135.0
  0
ARC
  5
8E1
  8
001
 10
71.715184999999991
 20
293.91464400000001
 30
0.0
 40
0.7999999999999999
 50
265.73942699999998
 51
40.675973999999989
  0
ARC
  5
8E2
  8
001
 10
72.086647999999997
 20
298.900826
 30
0.0
 40
5.7999999999999989
 50
261.32359300000002
 51
265.73942699999998
  0
LINE
  5
8E3
  8
001
 10
72.462787000000006
 20
294.581256
 30
0.0
 11
74.043616999999983
 21
293.00042500000001
 31
0.0
  0
ARC
  5
8E4
  8
001
 10
63.645316000000001
 20
298.02553699999999
 30
0.0
 40
0.7999999999999999
 50
53.625774
 51
174.61645999999999
  0
ARC
  5
8E5
  8
001
 10
59.662959999999991
 20
298.400826
 30
0.0
 40
4.7999999999999989
 50
275.38353999999998
 51
349.48436400000003
  0
ARC
  5
8E6
  8
001
 10
60.143478999999999
 20
287.01014199999997
 30
0.0
 40
2.0
 50
359.61391300000003
 51
90.386087000000003
  0
ARC
  5
8E7
  8
001
 10
60.143478999999999
 20
287.01014199999997
 30
0.0
 40
2.198268345103418
 50
7.0616300000000001
 51
82.938369999999992
  0
ARC
  5
8E8
  8
001
 10
60.143478999999999
 20
287.01014199999997
 30
0.0
 40
3.7982683451034189
 50
7.0616300000000001
 51
82.938369999999992
  0
LINE
  5
8E9
  8
001
 10
54.801954000000002
 20
289.01009699999997
 30
0.0
 11
60.156956000000001
 21
289.01009699999997
 31
0.0
  0
LINE
  5
8EA
  8
001
 10
62.143433999999999
 20
282.38294400000001
 30
0.0
 11
62.143433999999999
 21
287.023619
 31
0.0
  0
LINE
  5
8EB
  8
001
 10
73.280242000000001
 20
291.02545400000002
 30
0.0
 11
66.964884999999995
 21
284.71009700000002
 31
0.0
  0
LINE
  5
8EC
  8
001
 10
71.489140000000006
 20
416.90684299999998
 30
0.0
 11
76.360468999999995
 21
421.927301
 31
0.0
  0
LINE
  5
8ED
  8
001
 10
71.610101
 20
416.90684299999998
 30
0.0
 11
71.489140000000006
 21
416.90684299999998
 31
0.0
  0
LINE
  5
8EE
  8
001
 10
70.718168000000006
 20
415.98760399999992
 30
0.0
 11
71.610101
 21
416.90684299999998
 31
0.0
  0
LINE
  5
8EF
  8
001
 10
70.678505000000001
 20
416.69471099999993
 30
0.0
 11
70.234324000000001
 21
415.98760399999992
 31
0.0
  0
LINE
  5
8F0
  8
001
 10
70.678505000000001
 20
416.69471099999993
 30
0.0
 11
73.971797999999993
 21
420.08882299999999
 31
0.0
  0
LINE
  5
8F1
  8
001
 10
73.971797999999993
 20
420.08882299999999
 30
0.0
 11
75.755664999999993
 21
421.927301
 31
0.0
  0
LINE
  5
8F2
  8
001
 10
75.755664999999993
 20
424.75572799999998
 30
0.0
 11
72.325151000000005
 21
428.29126200000002
 31
0.0
  0
LINE
  5
8F3
  8
001
 10
75.755664999999993
 20
421.927301
 30
0.0
 11
75.755664999999993
 21
424.75572799999998
 31
0.0
  0
LINE
  5
8F4
  8
001
 10
64.503581000000011
 20
423.05867199999989
 30
0.0
 11
70.678505000000001
 21
416.69471099999993
 31
0.0
  0
LINE
  5
8F5
  8
001
 10
69.580740000000006
 20
428.29126200000002
 30
0.0
 11
67.796873000000005
 21
426.45278400000001
 31
0.0
  0
LINE
  5
8F6
  8
001
 10
67.796873000000005
 20
426.45278400000001
 30
0.0
 11
64.503581000000011
 21
423.05867199999989
 31
0.0
  0
LINE
  5
8F7
  8
001
 10
76.481430000000003
 20
424.75572799999998
 30
0.0
 11
75.755664999999993
 21
424.75572799999998
 31
0.0
  0
LINE
  5
8F8
  8
001
 10
76.481430000000003
 20
421.927301
 30
0.0
 11
76.481430000000003
 21
424.75572799999998
 31
0.0
  0
LINE
  5
8F9
  8
001
 10
76.481430000000003
 20
424.75572799999998
 30
0.0
 11
73.050916999999998
 21
428.29126200000002
 31
0.0
  0
LINE
  5
8FA
  8
001
 10
64.059399999999997
 20
422.35156499999999
 30
0.0
 11
64.503581000000011
 21
423.05867199999989
 31
0.0
  0
LINE
  5
8FB
  8
001
 10
69.104039999999983
 20
415.98760399999992
 30
0.0
 11
64.301321999999999
 21
420.93735099999992
 31
0.0
  0
LINE
  5
8FC
  8
001
 10
64.301321999999999
 20
420.93735099999992
 30
0.0
 11
64.059399999999997
 21
422.35156499999999
 31
0.0
  0
LINE
  5
8FD
  8
001
 10
71.610101
 20
416.90684299999998
 30
0.0
 11
71.549621000000002
 21
416.96917500000001
 31
0.0
  0
POLYLINE
  5
8FE
  8
001
 66
     1
 10
0.0
 20
0.0
 30
0.0
  0
VERTEX
  5
900
  8
001
 10
67.796873000000005
 20
426.45278400000001
 30
0.0
  0
VERTEX
  5
901
  8
001
 10
67.485721999999996
 20
426.0775559999999
 30
0.0
  0
VERTEX
  5
902
  8
001
 10
67.102981999999997
 20
425.520804
 30
0.0
  0
VERTEX
  5
903
  8
001
 10
66.757171999999997
 20
424.78353600000003
 30
0.0
  0
VERTEX
  5
904
  8
001
 10
66.584339
 20
424.05222099999992
 30
0.0
  0
VERTEX
  5
905
  8
001
 10
66.536935999999997
 20
423.66519699999992
 30
0.0
  0
VERTEX
  5
906
  8
001
 10
66.518005000000002
 20
423.270804
 30
0.0
  0
VERTEX
  5
907
  8
001
 10
66.533899000000005
 20
422.87811199999987
 30
0.0
  0
VERTEX
  5
908
  8
001
 10
66.584339
 20
422.48938700000002
 30
0.0
  0
VERTEX
  5
909
  8
001
 10
66.781214000000006
 20
421.734512
 30
0.0
  0
VERTEX
  5
90A
  8
001
 10
67.102981999999997
 20
421.020804
 30
0.0
  0
VERTEX
  5
90B
  8
001
 10
67.791798999999983
 20
420.09246200000001
 30
0.0
  0
VERTEX
  5
90C
  8
001
 10
68.701169999999991
 20
419.37368900000001
 30
0.0
  0
VERTEX
  5
90D
  8
001
 10
69.043805000000006
 20
419.19225699999998
 30
0.0
  0
VERTEX
  5
90E
  8
001
 10
69.390962000000002
 20
419.0421869999999
 30
0.0
  0
VERTEX
  5
90F
  8
001
 10
69.737550999999996
 20
418.92430899999988
 30
0.0
  0
VERTEX
  5
910
  8
001
 10
70.126130000000003
 20
418.83916899999991
 30
0.0
  0
VERTEX
  5
911
  8
001
 10
70.564238000000003
 20
418.7879319999999
 30
0.0
  0
VERTEX
  5
912
  8
001
 10
70.884336000000005
 20
418.770804
 30
0.0
  0
SEQEND
  5
8FF
  8
001
  0
POLYLINE
  5
913
  8
001
 66
     1
 10
0.0
 20
0.0
 30
0.0
  0
VERTEX
  5
915
  8
001
 10
70.884336000000005
 20
418.770804
 30
0.0
  0
VERTEX
  5
916
  8
001
 10
71.204432999999995
 20
418.78793100000001
 30
0.0
  0
VERTEX
  5
917
  8
001
 10
71.642540999999994
 20
418.83916899999991
 30
0.0
  0
VERTEX
  5
918
  8
001
 10
72.031118000000006
 20
418.92431099999988
 30
0.0
  0
VERTEX
  5
919
  8
001
 10
72.377708999999996
 20
419.0421869999999
 30
0.0
  0
VERTEX
  5
91A
  8
001
 10
72.724874999999997
 20
419.19224800000001
 30
0.0
  0
VERTEX
  5
91B
  8
001
 10
73.067501000000007
 20
419.37368900000001
 30
0.0
  0
VERTEX
  5
91C
  8
001
 10
73.976697000000001
 20
420.09264699999989
 30
0.0
  0
VERTEX
  5
91D
  8
001
 10
74.665689
 20
421.020804
 30
0.0
  0
VERTEX
  5
91E
  8
001
 10
74.987904
 20
421.73404299999999
 30
0.0
  0
VERTEX
  5
91F
  8
001
 10
75.184331999999998
 20
422.48938700000002
 30
0.0
  0
VERTEX
  5
920
  8
001
 10
75.234109000000004
 20
422.87880799999999
 30
0.0
  0
VERTEX
  5
921
  8
001
 10
75.25066600000001
 20
423.270804
 30
0.0
  0
VERTEX
  5
922
  8
001
 10
75.234018000000006
 20
423.6628
 30
0.0
  0
VERTEX
  5
923
  8
001
 10
75.184331999999998
 20
424.05222099999992
 30
0.0
  0
VERTEX
  5
924
  8
001
 10
74.988624999999999
 20
424.8075619999999
 30
0.0
  0
VERTEX
  5
925
  8
001
 10
74.665689
 20
425.520804
 30
0.0
  0
VERTEX
  5
926
  8
001
 10
73.971695999999994
 20
426.44897500000002
 30
0.0
  0
VERTEX
  5
927
  8
001
 10
73.067501000000007
 20
427.16791799999987
 30
0.0
  0
VERTEX
  5
928
  8
001
 10
72.729810000000001
 20
427.34934500000003
 30
0.0
  0
VERTEX
  5
929
  8
001
 10
72.377708999999996
 20
427.49942099999998
 30
0.0
  0
VERTEX
  5
92A
  8
001
 10
72.014756999999989
 20
427.617344
 30
0.0
  0
VERTEX
  5
92B
  8
001
 10
71.642540999999994
 20
427.70243900000003
 30
0.0
  0
VERTEX
  5
92C
  8
001
 10
71.264786000000001
 20
427.75350100000003
 30
0.0
  0
VERTEX
  5
92D
  8
001
 10
70.884336000000005
 20
427.770804
 30
0.0
  0
VERTEX
  5
92E
  8
001
 10
70.504359999999991
 20
427.75433199999998
 30
0.0
  0
VERTEX
  5
92F
  8
001
 10
70.126130000000003
 20
427.70243900000003
 30
0.0
  0
VERTEX
  5
930
  8
001
 10
69.751530000000002
 20
427.61484299999989
 30
0.0
  0
VERTEX
  5
931
  8
001
 10
69.390962000000002
 20
427.49942099999998
 30
0.0
  0
VERTEX
  5
932
  8
001
 10
69.047965000000005
 20
427.3585599999999
 30
0.0
  0
VERTEX
  5
933
  8
001
 10
68.701169999999991
 20
427.16791799999987
 30
0.0
  0
VERTEX
  5
934
  8
001
 10
68.164175999999998
 20
426.77692399999989
 30
0.0
  0
VERTEX
  5
935
  8
001
 10
67.796873000000005
 20
426.45278400000001
 30
0.0
  0
SEQEND
  5
914
  8
001
  0
POLYLINE
  5
936
  8
001
 66
     1
 10
0.0
 20
0.0
 30
0.0
  0
VERTEX
  5
938
  8
001
 10
83.219802999999985
 20
411.57436399999989
 30
0.0
  0
VERTEX
  5
939
  8
001
 10
83.68424499999999
 20
412.50412999999992
 30
0.0
  0
VERTEX
  5
93A
  8
001
 10
84.246110000000002
 20
413.83913699999988
 30
0.0
  0
VERTEX
  5
93B
  8
001
 10
84.813280000000006
 20
415.78838999999988
 30
0.0
  0
VERTEX
  5
93C
  8
001
 10
85.074021000000002
 20
417.62481799999989
 30
0.0
  0
VERTEX
  5
93D
  8
001
 10
85.150078000000008
 20
418.62030099999993
 30
0.0
  0
VERTEX
  5
93E
  8
001
 10
85.179911000000004
 20
419.63913699999989
 30
0.0
  0
VERTEX
  5
93F
  8
001
 10
85.150078000000008
 20
420.65797300000003
 30
0.0
  0
VERTEX
  5
940
  8
001
 10
85.074021000000002
 20
421.65345599999989
 30
0.0
  0
VERTEX
  5
941
  8
001
 10
84.813280000000006
 20
423.48988300000002
 30
0.0
  0
VERTEX
  5
942
  8
001
 10
84.246110000000002
 20
425.43913700000002
 30
0.0
  0
VERTEX
  5
943
  8
001
 10
83.68424499999999
 20
426.77414299999998
 30
0.0
  0
VERTEX
  5
944
  8
001
 10
83.219802999999985
 20
427.70390900000001
 30
0.0
  0
SEQEND
  5
937
  8
001
  0
LINE
  5
945
  8
001
 10
83.219802999999985
 20
427.70390900000001
 30
0.0
 11
83.219802999999985
 21
411.57436399999989
 31
0.0
  0
LINE
  5
946
  8
001
 10
65.742363999999995
 20
424.92374499999988
 30
0.0
 11
66.035182999999989
 21
424.63716199999988
 31
0.0
  0
LINE
  5
947
  8
001
 10
76.481430000000003
 20
421.927301
 30
0.0
 11
75.755664999999993
 21
421.927301
 31
0.0
  0
LINE
  5
948
  8
001
 10
70.718168000000006
 20
415.98760399999992
 30
0.0
 11
69.104039999999983
 21
415.98760399999992
 31
0.0
  0
LINE
  5
949
  8
001
 10
73.050916999999998
 20
428.29126200000002
 30
0.0
 11
69.580740000000006
 21
428.29126200000002
 31
0.0
  0
LINE
  5
94A
  8
001
 10
72.347078999999994
 20
424.11220999999989
 30
0.0
 11
72.347078999999994
 21
422.38015999999988
 31
0.0
  0
LINE
  5
94B
  8
001
 10
69.347079000000008
 20
422.38015999999988
 30
0.0
 11
69.347079000000008
 21
424.11220999999989
 31
0.0
  0
LINE
  5
94C
  8
001
 10
69.347079000000008
 20
424.11220999999989
 30
0.0
 11
70.847079000000008
 21
424.97823599999998
 31
0.0
  0
LINE
  5
94D
  8
001
 10
72.347078999999994
 20
422.38015999999988
 30
0.0
 11
70.847079000000008
 21
421.51413400000001
 31
0.0
  0
LINE
  5
94E
  8
001
 10
70.847079000000008
 20
421.51413400000001
 30
0.0
 11
69.347079000000008
 21
422.38015999999988
 31
0.0
  0
LINE
  5
94F
  8
001
 10
72.347078999999994
 20
424.11220999999989
 30
0.0
 11
70.847079000000008
 21
424.97823599999998
 31
0.0
  0
LINE
  5
950
  8
001
 10
176.973434
 20
419.63913699999989
 30
0.0
 11
179.57150999999999
 21
421.13913700000001
 31
0.0
  0
LINE
  5
951
  8
001
 10
176.973434
 20
419.63913699999989
 30
0.0
 11
179.57150999999999
 21
418.13913700000001
 31
0.0
  0
LINE
  5
952
  8
001
  6
CENTER
 10
54.801954000000002
 20
419.63913699999989
 30
0.0
 11
179.42412300000001
 21
419.63913699999989
 31
0.0
  0
LINE
  5
953
  8
001
  6
PHANTOM
 10
56.973433999999997
 20
415.4391369999999
 30
0.0
 11
56.973433999999997
 21
415.76802199999997
 31
0.0
  0
LINE
  5
954
  8
001
  6
PHANTOM
 10
57.205991000000012
 20
415.20657999999992
 30
0.0
 11
56.973433999999997
 21
415.4391369999999
 31
0.0
  0
LINE
  5
955
  8
001
 10
54.801954000000002
 20
407.13913699999989
 30
0.0
 11
65.437185999999997
 21
407.13913699999989
 31
0.0
  0
LINE
  5
956
  8
001
 10
56.973433999999997
 20
404.80022400000001
 30
0.0
 11
56.973433999999997
 21
415.4391369999999
 31
0.0
  0
LINE
  5
957
  8
001
 10
70.448549
 20
430.03127899999993
 30
0.0
 11
65.742363999999995
 21
424.92374499999988
 31
0.0
  0
POLYLINE
  5
958
  8
001
 66
     1
 10
0.0
 20
0.0
 30
0.0
  0
VERTEX
  5
95A
  8
001
 10
83.219802999999985
 20
427.70390900000001
 30
0.0
  0
VERTEX
  5
95B
  8
001
 10
81.929011000000003
 20
428.01599900000002
 30
0.0
  0
VERTEX
  5
95C
  8
001
 10
80.145256000000003
 20
428.408817
 30
0.0
  0
VERTEX
  5
95D
  8
001
 10
77.989027000000007
 20
428.84370199999989
 30
0.0
  0
VERTEX
  5
95E
  8
001
 10
75.580815999999999
 20
429.281994
 30
0.0
  0
VERTEX
  5
95F
  8
001
 10
73.041113999999993
 20
429.68503199999998
 30
0.0
  0
VERTEX
  5
960
  8
001
 10
71.641696999999994
 20
429.87858299999988
 30
0.0
  0
VERTEX
  5
961
  8
001
 10
70.448549
 20
430.03127899999993
 30
0.0
  0
SEQEND
  5
959
  8
001
  0
ARC
  5
962
  8
001
 10
73.788697999999997
 20
426.01686799999987
 30
0.0
 40
5.2222684577821958
 50
90.0
 51
129.76180500000001
  0
ARC
  5
963
  8
001
 10
65.624803999999997
 20
415.76802199999997
 30
0.0
 40
3.1000000000000001
 50
75.397654000000003
 51
12.874889
  0
LINE
  5
964
  8
001
 10
66.511259999999993
 20
407.11665199999999
 30
0.0
 11
65.624803999999997
 21
407.11665199999999
 31
0.0
  0
ARC
  5
965
  8
001
 10
66.511259999999993
 20
407.62598300000002
 30
0.0
 40
0.5093312671580355
 50
270.0
 51
315.0
  0
LINE
  5
966
  8
001
 10
66.871412000000007
 20
407.26583199999999
 30
0.0
 11
67.644717
 21
408.03913699999998
 31
0.0
  0
POLYLINE
  5
967
  8
001
 66
     1
 10
0.0
 20
0.0
 30
0.0
  0
VERTEX
  5
969
  8
001
 10
67.879069000000001
 20
408.95331999999991
 30
0.0
  0
VERTEX
  5
96A
  8
001
 10
70.214069999999992
 20
409.21782499999989
 30
0.0
  0
VERTEX
  5
96B
  8
001
 10
73.041113999999993
 20
409.59324199999992
 30
0.0
  0
VERTEX
  5
96C
  8
001
 10
75.580449999999985
 20
409.99785000000003
 30
0.0
  0
VERTEX
  5
96D
  8
001
 10
77.988614999999996
 20
410.43633899999998
 30
0.0
  0
VERTEX
  5
96E
  8
001
 10
80.144981000000001
 20
410.87063499999999
 30
0.0
  0
VERTEX
  5
96F
  8
001
 10
81.928919999999977
 20
411.26266700000002
 30
0.0
  0
VERTEX
  5
970
  8
001
 10
83.219802999999985
 20
411.57436399999989
 30
0.0
  0
SEQEND
  5
968
  8
001
  0
ARC
  5
971
  8
001
 10
73.782174999999995
 20
415.76802199999997
 30
0.0
 40
1.5
 50
250.450469
 51
112.175361
  0
LINE
  5
972
  8
001
 10
73.280242000000001
 20
414.35449399999987
 30
0.0
 11
66.964884999999995
 21
408.03913699999998
 31
0.0
  0
TEXT
  5
973
  8
001
 10
48.787261000000001
 20
452.69674300000003
 30
0.0
 40
5.0
  1
ＲスペシャルＪｒ．　ＮＫ２０－０５Ｒ　（１Ｒ）
 41
0.833333
  0
TEXT
  5
974
  8
001
 10
72.609189000000001
 20
414.28937100000002
 30
0.0
 40
2.0
  1
４
 50
45.000000999999997
 41
0.833333
  0
TEXT
  5
975
  8
001
 10
58.640419999999999
 20
417.24667399999998
 30
0.0
 40
2.0
  1
２
 50
224.99999600000001
 41
0.833333
  0
TEXT
  5
976
  8
001
 10
64.146152999999998
 20
408.78363799999988
 30
0.0
 40
2.0
  1
１
 50
314.99999200000002
 41
0.833333
  0
LINE
  5
977
  8
001
 10
74.043616999999983
 20
416.32946500000003
 30
0.0
 11
72.462787000000006
 21
417.9102959999999
 31
0.0
  0
ARC
  5
978
  8
001
 10
65.624803999999997
 20
423.62539299999997
 30
0.0
 40
0.7940000000000002
 50
76.956345999999996
 51
135.0
  0
ARC
  5
979
  8
001
 10
60.643524999999997
 20
410.83922799999999
 30
0.0
 40
1.0
 50
359.2251720000001
 51
90.774827999999999
  0
ARC
  5
97A
  8
001
 10
60.643524999999997
 20
410.83922799999999
 30
0.0
 40
1.1972661835848819
 50
11.085834
 51
78.914166000000009
  0
ARC
  5
97B
  8
001
 10
60.643524999999997
 20
410.83922799999999
 30
0.0
 40
2.7972661835849042
 50
11.085834
 51
78.914166000000009
  0
LINE
  5
97C
  8
001
 10
54.801954000000002
 20
411.83913699999999
 30
0.0
 11
60.630002000000012
 21
411.83913699999999
 31
0.0
  0
LINE
  5
97D
  8
001
 10
61.643433999999992
 20
404.80022400000001
 30
0.0
 11
61.643433999999992
 21
410.85275100000001
 31
0.0
  0
LINE
  5
97E
  8
001
 10
285.68037600000002
 20
49.592533000000003
 30
0.0
 11
290.55170500000003
 21
54.612991000000001
 31
0.0
  0
LINE
  5
97F
  8
001
 10
285.80133699999999
 20
49.592533000000003
 30
0.0
 11
285.68037600000002
 21
49.592533000000003
 31
0.0
  0
LINE
  5
980
  8
001
 10
284.90940399999999
 20
48.673293999999999
 30
0.0
 11
285.80133699999999
 21
49.592533000000003
 31
0.0
  0
LINE
  5
981
  8
001
 10
284.86974099999998
 20
49.380400999999999
 30
0.0
 11
284.42556000000002
 21
48.673293999999999
 31
0.0
  0
LINE
  5
982
  8
001
 10
284.86974099999998
 20
49.380400999999999
 30
0.0
 11
288.16303399999998
 21
52.774512999999999
 31
0.0
  0
LINE
  5
983
  8
001
 10
288.16303399999998
 20
52.774512999999999
 30
0.0
 11
289.94690100000003
 21
54.612991000000001
 31
0.0
  0
LINE
  5
984
  8
001
 10
289.94690100000003
 20
57.441418000000013
 30
0.0
 11
286.51638700000001
 21
60.976951999999997
 31
0.0
  0
LINE
  5
985
  8
001
 10
289.94690100000003
 20
54.612991000000001
 30
0.0
 11
289.94690100000003
 21
57.441418000000013
 31
0.0
  0
LINE
  5
986
  8
001
 10
278.694816
 20
55.744362000000002
 30
0.0
 11
284.86974099999998
 21
49.380400999999999
 31
0.0
  0
LINE
  5
987
  8
001
 10
283.771976
 20
60.976951999999997
 30
0.0
 11
281.98810900000001
 21
59.138474000000002
 31
0.0
  0
LINE
  5
988
  8
001
 10
281.98810900000001
 20
59.138474000000002
 30
0.0
 11
278.694816
 21
55.744362000000002
 31
0.0
  0
LINE
  5
989
  8
001
 10
290.67266599999999
 20
57.441418000000013
 30
0.0
 11
289.94690100000003
 21
57.441418000000013
 31
0.0
  0
LINE
  5
98A
  8
001
 10
290.67266599999999
 20
54.612991000000001
 30
0.0
 11
290.67266599999999
 21
57.441418000000013
 31
0.0
  0
LINE
  5
98B
  8
001
 10
290.67266599999999
 20
57.441418000000013
 30
0.0
 11
287.24215299999997
 21
60.976951999999997
 31
0.0
  0
LINE
  5
98C
  8
001
 10
278.25063599999999
 20
55.037255000000002
 30
0.0
 11
278.694816
 21
55.744362000000002
 31
0.0
  0
LINE
  5
98D
  8
001
 10
283.295276
 20
48.673293999999999
 30
0.0
 11
278.49255799999997
 21
53.623041000000001
 31
0.0
  0
LINE
  5
98E
  8
001
 10
278.49255799999997
 20
53.623041000000001
 30
0.0
 11
278.25063599999999
 21
55.037255000000002
 31
0.0
  0
LINE
  5
98F
  8
001
 10
285.80133699999999
 20
49.592533000000003
 30
0.0
 11
285.74085700000001
 21
49.654865000000001
 31
0.0
  0
POLYLINE
  5
990
  8
001
 66
     1
 10
0.0
 20
0.0
 30
0.0
  0
VERTEX
  5
992
  8
001
 10
281.98810900000001
 20
59.138474000000002
 30
0.0
  0
VERTEX
  5
993
  8
001
 10
281.67695800000001
 20
58.763246000000002
 30
0.0
  0
VERTEX
  5
994
  8
001
 10
281.294218
 20
58.206493999999992
 30
0.0
  0
VERTEX
  5
995
  8
001
 10
280.94840799999997
 20
57.469225999999999
 30
0.0
  0
VERTEX
  5
996
  8
001
 10
280.775575
 20
56.73791099999999
 30
0.0
  0
VERTEX
  5
997
  8
001
 10
280.72817199999997
 20
56.350887
 30
0.0
  0
VERTEX
  5
998
  8
001
 10
280.70924100000002
 20
55.956493999999992
 30
0.0
  0
VERTEX
  5
999
  8
001
 10
280.72513500000008
 20
55.563802000000003
 30
0.0
  0
VERTEX
  5
99A
  8
001
 10
280.775575
 20
55.175077000000002
 30
0.0
  0
VERTEX
  5
99B
  8
001
 10
280.97244999999998
 20
54.420202000000003
 30
0.0
  0
VERTEX
  5
99C
  8
001
 10
281.294218
 20
53.706493999999992
 30
0.0
  0
VERTEX
  5
99D
  8
001
 10
281.98303499999997
 20
52.778153000000003
 30
0.0
  0
VERTEX
  5
99E
  8
001
 10
282.89240599999999
 20
52.059379
 30
0.0
  0
VERTEX
  5
99F
  8
001
 10
283.23504100000002
 20
51.877946999999999
 30
0.0
  0
VERTEX
  5
9A0
  8
001
 10
283.58219800000001
 20
51.727876999999999
 30
0.0
  0
VERTEX
  5
9A1
  8
001
 10
283.928787
 20
51.609999000000002
 30
0.0
  0
VERTEX
  5
9A2
  8
001
 10
284.31736599999999
 20
51.524858999999999
 30
0.0
  0
VERTEX
  5
9A3
  8
001
 10
284.75547400000011
 20
51.473621999999992
 30
0.0
  0
VERTEX
  5
9A4
  8
001
 10
285.07557099999991
 20
51.456493999999992
 30
0.0
  0
SEQEND
  5
991
  8
001
  0
POLYLINE
  5
9A5
  8
001
 66
     1
 10
0.0
 20
0.0
 30
0.0
  0
VERTEX
  5
9A7
  8
001
 10
285.07557099999991
 20
51.456493999999992
 30
0.0
  0
VERTEX
  5
9A8
  8
001
 10
285.395669
 20
51.473621000000001
 30
0.0
  0
VERTEX
  5
9A9
  8
001
 10
285.833777
 20
51.524858999999999
 30
0.0
  0
VERTEX
  5
9AA
  8
001
 10
286.222354
 20
51.610000999999997
 30
0.0
  0
VERTEX
  5
9AB
  8
001
 10
286.5689450000001
 20
51.727876999999999
 30
0.0
  0
VERTEX
  5
9AC
  8
001
 10
286.916111
 20
51.877938
 30
0.0
  0
VERTEX
  5
9AD
  8
001
 10
287.258737
 20
52.059379
 30
0.0
  0
VERTEX
  5
9AE
  8
001
 10
288.167933
 20
52.778337000000001
 30
0.0
  0
VERTEX
  5
9AF
  8
001
 10
288.85692499999999
 20
53.706493999999992
 30
0.0
  0
VERTEX
  5
9B0
  8
001
 10
289.17914000000002
 20
54.419732999999987
 30
0.0
  0
VERTEX
  5
9B1
  8
001
 10
289.37556799999999
 20
55.175077000000002
 30
0.0
  0
VERTEX
  5
9B2
  8
001
 10
289.42534499999999
 20
55.564498
 30
0.0
  0
VERTEX
  5
9B3
  8
001
 10
289.44190200000003
 20
55.956493999999992
 30
0.0
  0
VERTEX
  5
9B4
  8
001
 10
289.425253
 20
56.348489999999998
 30
0.0
  0
VERTEX
  5
9B5
  8
001
 10
289.37556799999999
 20
56.73791099999999
 30
0.0
  0
VERTEX
  5
9B6
  8
001
 10
289.17986100000002
 20
57.493252000000012
 30
0.0
  0
VERTEX
  5
9B7
  8
001
 10
288.85692499999999
 20
58.206493999999992
 30
0.0
  0
VERTEX
  5
9B8
  8
001
 10
288.16293200000001
 20
59.134665000000012
 30
0.0
  0
VERTEX
  5
9B9
  8
001
 10
287.258737
 20
59.853607999999987
 30
0.0
  0
VERTEX
  5
9BA
  8
001
 10
286.92104599999999
 20
60.035035000000001
 30
0.0
  0
VERTEX
  5
9BB
  8
001
 10
286.5689450000001
 20
60.185110999999999
 30
0.0
  0
VERTEX
  5
9BC
  8
001
 10
286.20599299999998
 20
60.303033999999997
 30
0.0
  0
VERTEX
  5
9BD
  8
001
 10
285.833777
 20
60.388128999999999
 30
0.0
  0
VERTEX
  5
9BE
  8
001
 10
285.45602200000002
 20
60.439191000000001
 30
0.0
  0
VERTEX
  5
9BF
  8
001
 10
285.07557099999991
 20
60.456493999999992
 30
0.0
  0
VERTEX
  5
9C0
  8
001
 10
284.69559600000002
 20
60.440021999999999
 30
0.0
  0
VERTEX
  5
9C1
  8
001
 10
284.31736599999999
 20
60.388128999999999
 30
0.0
  0
VERTEX
  5
9C2
  8
001
 10
283.94276600000001
 20
60.300532999999987
 30
0.0
  0
VERTEX
  5
9C3
  8
001
 10
283.58219800000001
 20
60.185110999999999
 30
0.0
  0
VERTEX
  5
9C4
  8
001
 10
283.23920099999998
 20
60.044249999999998
 30
0.0
  0
VERTEX
  5
9C5
  8
001
 10
282.89240599999999
 20
59.853607999999987
 30
0.0
  0
VERTEX
  5
9C6
  8
001
 10
282.355412
 20
59.462614000000002
 30
0.0
  0
VERTEX
  5
9C7
  8
001
 10
281.98810900000001
 20
59.138474000000002
 30
0.0
  0
SEQEND
  5
9A6
  8
001
  0
POLYLINE
  5
9C8
  8
001
 66
     1
 10
0.0
 20
0.0
 30
0.0
  0
VERTEX
  5
9CA
  8
001
 10
297.41103799999991
 20
44.260053999999997
 30
0.0
  0
VERTEX
  5
9CB
  8
001
 10
297.87548099999998
 20
45.189819999999997
 30
0.0
  0
VERTEX
  5
9CC
  8
001
 10
298.43734599999999
 20
46.524827000000002
 30
0.0
  0
VERTEX
  5
9CD
  8
001
 10
299.00451600000002
 20
48.474080000000001
 30
0.0
  0
VERTEX
  5
9CE
  8
001
 10
299.26525700000002
 20
50.310507999999999
 30
0.0
  0
VERTEX
  5
9CF
  8
001
 10
299.34131400000001
 20
51.305990999999999
 30
0.0
  0
VERTEX
  5
9D0
  8
001
 10
299.37114700000001
 20
52.324826999999999
 30
0.0
  0
VERTEX
  5
9D1
  8
001
 10
299.34131400000001
 20
53.343662999999999
 30
0.0
  0
VERTEX
  5
9D2
  8
001
 10
299.26525700000002
 20
54.339146
 30
0.0
  0
VERTEX
  5
9D3
  8
001
 10
299.00451600000002
 20
56.175573
 30
0.0
  0
VERTEX
  5
9D4
  8
001
 10
298.43734599999999
 20
58.124827000000003
 30
0.0
  0
VERTEX
  5
9D5
  8
001
 10
297.87548099999998
 20
59.459832999999989
 30
0.0
  0
VERTEX
  5
9D6
  8
001
 10
297.41103799999991
 20
60.389598999999997
 30
0.0
  0
SEQEND
  5
9C9
  8
001
  0
LINE
  5
9D7
  8
001
 10
297.41103799999991
 20
60.389598999999997
 30
0.0
 11
297.41103799999991
 21
44.260053999999997
 31
0.0
  0
LINE
  5
9D8
  8
001
 10
279.93360000000001
 20
57.609434999999991
 30
0.0
 11
280.22641900000002
 21
57.322851999999997
 31
0.0
  0
LINE
  5
9D9
  8
001
 10
290.67266599999999
 20
54.612991000000001
 30
0.0
 11
289.94690100000003
 21
54.612991000000001
 31
0.0
  0
LINE
  5
9DA
  8
001
 10
284.90940399999999
 20
48.673293999999999
 30
0.0
 11
283.295276
 21
48.673293999999999
 31
0.0
  0
LINE
  5
9DB
  8
001
 10
287.24215299999997
 20
60.976951999999997
 30
0.0
 11
283.771976
 21
60.976951999999997
 31
0.0
  0
LINE
  5
9DC
  8
001
 10
286.53831500000001
 20
56.797899999999998
 30
0.0
 11
286.53831500000001
 21
55.065849999999998
 31
0.0
  0
LINE
  5
9DD
  8
001
 10
283.53831500000001
 20
55.065849999999998
 30
0.0
 11
283.53831500000001
 21
56.797899999999998
 31
0.0
  0
LINE
  5
9DE
  8
001
 10
283.53831500000001
 20
56.797899999999998
 30
0.0
 11
285.03831500000001
 21
57.663925999999996
 31
0.0
  0
LINE
  5
9DF
  8
001
 10
286.53831500000001
 20
55.065849999999998
 30
0.0
 11
285.03831500000001
 21
54.199824
 31
0.0
  0
LINE
  5
9E0
  8
001
 10
285.03831500000001
 20
54.199824
 30
0.0
 11
283.53831500000001
 21
55.065849999999998
 31
0.0
  0
LINE
  5
9E1
  8
001
 10
286.53831500000001
 20
56.797899999999998
 30
0.0
 11
285.03831500000001
 21
57.663925999999996
 31
0.0
  0
LINE
  5
9E2
  8
001
 10
391.164669
 20
52.324826999999999
 30
0.0
 11
393.76274599999999
 21
53.824826999999999
 31
0.0
  0
LINE
  5
9E3
  8
001
 10
391.164669
 20
52.324826999999999
 30
0.0
 11
393.76274599999999
 21
50.824826999999992
 31
0.0
  0
LINE
  5
9E4
  8
001
  6
CENTER
 10
268.99319000000003
 20
52.324826999999999
 30
0.0
 11
393.61535900000001
 21
52.324826999999999
 31
0.0
  0
LINE
  5
9E5
  8
001
  6
PHANTOM
 10
271.164669
 20
48.124827000000003
 30
0.0
 11
271.164669
 21
48.453712000000003
 31
0.0
  0
LINE
  5
9E6
  8
001
  6
PHANTOM
 10
271.39722699999999
 20
47.892270000000003
 30
0.0
 11
271.164669
 21
48.124827000000003
 31
0.0
  0
LINE
  5
9E7
  8
001
 10
268.99319000000003
 20
39.824826999999999
 30
0.0
 11
279.628422
 21
39.824826999999999
 31
0.0
  0
LINE
  5
9E8
  8
001
 10
271.164669
 20
37.485914000000001
 30
0.0
 11
271.164669
 21
48.124827000000003
 31
0.0
  0
LINE
  5
9E9
  8
001
 10
284.63978500000002
 20
62.716968999999992
 30
0.0
 11
279.93360000000001
 21
57.609434999999991
 31
0.0
  0
POLYLINE
  5
9EA
  8
001
 66
     1
 10
0.0
 20
0.0
 30
0.0
  0
VERTEX
  5
9EC
  8
001
 10
297.41103799999991
 20
60.389598999999997
 30
0.0
  0
VERTEX
  5
9ED
  8
001
 10
296.12024700000001
 20
60.701689000000002
 30
0.0
  0
VERTEX
  5
9EE
  8
001
 10
294.33649200000002
 20
61.094507
 30
0.0
  0
VERTEX
  5
9EF
  8
001
 10
292.18026300000002
 20
61.529392000000001
 30
0.0
  0
VERTEX
  5
9F0
  8
001
 10
289.77205199999997
 20
61.967683999999991
 30
0.0
  0
VERTEX
  5
9F1
  8
001
 10
287.23235
 20
62.370722000000001
 30
0.0
  0
VERTEX
  5
9F2
  8
001
 10
285.83293300000003
 20
62.564273
 30
0.0
  0
VERTEX
  5
9F3
  8
001
 10
284.63978500000002
 20
62.716968999999992
 30
0.0
  0
SEQEND
  5
9EB
  8
001
  0
ARC
  5
9F4
  8
001
 10
287.9799339999999
 20
58.702557999999989
 30
0.0
 40
5.2222684577821958
 50
90.0
 51
129.76180500000001
  0
ARC
  5
9F5
  8
001
 10
279.81603999999999
 20
48.453712000000003
 30
0.0
 40
3.1000000000000001
 50
75.397654000000003
 51
12.874889
  0
LINE
  5
9F6
  8
001
 10
280.702496
 20
39.802342000000003
 30
0.0
 11
279.81603999999999
 21
39.802342000000003
 31
0.0
  0
ARC
  5
9F7
  8
001
 10
280.702496
 20
40.311672999999992
 30
0.0
 40
0.5093312671580355
 50
270.0
 51
315.0
  0
LINE
  5
9F8
  8
001
 10
281.06264800000002
 20
39.951521999999997
 30
0.0
 11
281.83595300000002
 21
40.724827000000012
 31
0.0
  0
POLYLINE
  5
9F9
  8
001
 66
     1
 10
0.0
 20
0.0
 30
0.0
  0
VERTEX
  5
9FB
  8
001
 10
282.07030500000002
 20
41.639009999999999
 30
0.0
  0
VERTEX
  5
9FC
  8
001
 10
284.405306
 20
41.903515000000013
 30
0.0
  0
VERTEX
  5
9FD
  8
001
 10
287.23235
 20
42.27893199999999
 30
0.0
  0
VERTEX
  5
9FE
  8
001
 10
289.77168599999999
 20
42.683540000000001
 30
0.0
  0
VERTEX
  5
9FF
  8
001
 10
292.17985099999999
 20
43.122028999999991
 30
0.0
  0
VERTEX
  5
A00
  8
001
 10
294.33621699999998
 20
43.556325000000001
 30
0.0
  0
VERTEX
  5
A01
  8
001
 10
296.12015600000001
 20
43.948357000000001
 30
0.0
  0
VERTEX
  5
A02
  8
001
 10
297.41103799999991
 20
44.260053999999997
 30
0.0
  0
SEQEND
  5
9FA
  8
001
  0
LINE
  5
A03
  8
001
 10
287.47147799999999
 20
47.040184000000004
 30
0.0
 11
281.15612099999998
 21
40.724827000000012
 31
0.0
  0
ARC
  5
A04
  8
001
 10
287.973411
 20
48.453712000000003
 30
0.0
 40
1.5
 50
250.450469
 51
112.175361
  0
CIRCLE
  5
A05
  8
001
 10
279.81603999999999
 20
48.453712000000003
 30
0.0
 40
2.6000000000000001
  0
ARC
  5
A06
  8
001
 10
271.95866899999999
 20
48.453712000000003
 30
0.0
 40
0.7940000000000002
 50
135.0
 51
225.0
  0
ARC
  5
A07
  8
001
 10
279.81603999999999
 20
40.596342
 30
0.0
 40
0.7940000000000002
 50
225.0
 51
315.0
  0
ARC
  5
A08
  8
001
 10
287.67341099999999
 20
48.453712000000003
 30
0.0
 40
0.7940000000000002
 50
315.0
 51
45.0
  0
LINE
  5
A09
  8
001
 10
286.87445200000002
 20
46.531869
 30
0.0
 11
286.77788399999997
 21
46.491869000000001
 31
0.0
  0
LINE
  5
A0A
  8
001
 10
281.73788400000001
 20
41.395299999999992
 30
0.0
 11
281.77788399999997
 21
41.491869000000001
 31
0.0
  0
ARC
  5
A0B
  8
001
 10
286.77788399999997
 20
41.491869000000001
 30
0.0
 40
5.0
 50
90.0
 51
180.0
  0
LINE
  5
A0C
  8
001
 10
281.73788400000001
 20
41.395299999999992
 30
0.0
 11
280.37748299999998
 21
40.034898999999989
 31
0.0
  0
LINE
  5
A0D
  8
001
 10
288.23485299999999
 20
47.892270000000003
 30
0.0
 11
286.87445200000002
 21
46.531869
 31
0.0
  0
LINE
  5
A0E
  8
001
 10
286.87445200000002
 20
50.37555600000001
 30
0.0
 11
286.77788399999997
 21
50.415556000000002
 31
0.0
  0
LINE
  5
A0F
  8
001
 10
272.75762800000001
 20
50.37555600000001
 30
0.0
 11
272.854196
 21
50.415556000000002
 31
0.0
  0
LINE
  5
A10
  8
001
 10
277.89419600000002
 20
55.512124999999997
 30
0.0
 11
277.854196
 21
55.415556000000002
 31
0.0
  0
ARC
  5
A11
  8
001
 10
272.854196
 20
55.415556000000002
 30
0.0
 40
5.0
 50
270.0
 51
360.0
  0
LINE
  5
A12
  8
001
 10
277.82466899999997
 20
41.521394999999991
 30
0.0
 11
277.86466899999999
 21
41.424827000000001
 31
0.0
  0
LINE
  5
A13
  8
001
 10
272.84123799999998
 20
46.504826999999999
 30
0.0
 11
272.74466899999999
 21
46.544826999999998
 31
0.0
  0
LINE
  5
A14
  8
001
 10
288.23485299999999
 20
49.015155
 30
0.0
 11
286.87445200000002
 21
50.37555600000001
 31
0.0
  0
LINE
  5
A15
  8
001
 10
277.89419600000002
 20
55.512124999999997
 30
0.0
 11
279.25459699999999
 21
56.872526000000001
 31
0.0
  0
LINE
  5
A16
  8
001
 10
271.39722699999999
 20
49.015155
 30
0.0
 11
272.75762800000001
 21
50.37555600000001
 31
0.0
  0
LINE
  5
A17
  8
001
 10
272.75762800000001
 20
46.531869
 30
0.0
 11
271.39722699999999
 21
47.892270000000003
 31
0.0
  0
LINE
  5
A18
  8
001
 10
277.86466899999999
 20
41.424827000000001
 30
0.0
 11
279.25459699999999
 21
40.034898999999989
 31
0.0
  0
ARC
  5
A19
  8
001
 10
279.81603999999999
 20
56.311083000000004
 30
0.0
 40
0.7940000000000002
 50
76.956345999999996
 51
135.0
  0
ARC
  5
A1A
  8
001
 10
286.77788399999997
 20
55.415556000000002
 30
0.0
 40
5.0
 50
266.666674
 51
270.0
  0
LINE
  5
A1B
  8
001
 10
277.82466899999997
 20
41.521394999999991
 30
0.0
 11
277.82466899999997
 21
37.485914000000001
 31
0.0
  0
LINE
  5
A1C
  8
001
 10
272.84123799999998
 20
46.504826999999999
 30
0.0
 11
268.99319000000003
 21
46.504826999999999
 31
0.0
  0
ARC
  5
A1D
  8
001
 10
272.82469700000001
 20
41.504853999999987
 30
0.0
 40
5.0
 50
0.189548
 51
89.810451999999998
  0
TEXT
  5
A1E
  8
001
 10
258.11711600000001
 20
83.632335999999995
 30
0.0
 40
5.0
  1
ＲスペシャルＪｒ．　ＮＫ２０－０５Ｒ　（５Ｒ）
 41
0.833333
  0
LINE
  5
A1F
  8
001
 10
285.68037600000002
 20
177.18003400000001
 30
0.0
 11
290.55170500000003
 21
182.200492
 31
0.0
  0
LINE
  5
A20
  8
001
 10
285.80133699999999
 20
177.18003400000001
 30
0.0
 11
285.68037600000002
 21
177.18003400000001
 31
0.0
  0
LINE
  5
A21
  8
001
 10
284.90940399999999
 20
176.260796
 30
0.0
 11
285.80133699999999
 21
177.18003400000001
 31
0.0
  0
LINE
  5
A22
  8
001
 10
284.86974099999998
 20
176.96790200000001
 30
0.0
 11
284.42556000000002
 21
176.260796
 31
0.0
  0
LINE
  5
A23
  8
001
 10
284.86974099999998
 20
176.96790200000001
 30
0.0
 11
288.16303399999998
 21
180.36201500000001
 31
0.0
  0
LINE
  5
A24
  8
001
 10
288.16303399999998
 20
180.36201500000001
 30
0.0
 11
289.94690100000003
 21
182.200492
 31
0.0
  0
LINE
  5
A25
  8
001
 10
289.94690100000003
 20
185.02892
 30
0.0
 11
286.51638700000001
 21
188.56445400000001
 31
0.0
  0
LINE
  5
A26
  8
001
 10
289.94690100000003
 20
182.200492
 30
0.0
 11
289.94690100000003
 21
185.02892
 31
0.0
  0
LINE
  5
A27
  8
001
 10
278.694816
 20
183.331863
 30
0.0
 11
284.86974099999998
 21
176.96790200000001
 31
0.0
  0
LINE
  5
A28
  8
001
 10
283.771976
 20
188.56445400000001
 30
0.0
 11
281.98810900000001
 21
186.725976
 31
0.0
  0
LINE
  5
A29
  8
001
 10
281.98810900000001
 20
186.725976
 30
0.0
 11
278.694816
 21
183.331863
 31
0.0
  0
LINE
  5
A2A
  8
001
 10
290.67266599999999
 20
185.02892
 30
0.0
 11
289.94690100000003
 21
185.02892
 31
0.0
  0
LINE
  5
A2B
  8
001
 10
290.67266599999999
 20
182.200492
 30
0.0
 11
290.67266599999999
 21
185.02892
 31
0.0
  0
LINE
  5
A2C
  8
001
 10
290.67266599999999
 20
185.02892
 30
0.0
 11
287.24215299999997
 21
188.56445400000001
 31
0.0
  0
LINE
  5
A2D
  8
001
 10
278.25063599999999
 20
182.62475699999999
 30
0.0
 11
278.694816
 21
183.331863
 31
0.0
  0
LINE
  5
A2E
  8
001
 10
283.295276
 20
176.260796
 30
0.0
 11
278.49255799999997
 21
181.210543
 31
0.0
  0
LINE
  5
A2F
  8
001
 10
278.49255799999997
 20
181.210543
 30
0.0
 11
278.25063599999999
 21
182.62475699999999
 31
0.0
  0
LINE
  5
A30
  8
001
 10
285.80133699999999
 20
177.18003400000001
 30
0.0
 11
285.74085700000001
 21
177.242366
 31
0.0
  0
POLYLINE
  5
A31
  8
001
 66
     1
 10
0.0
 20
0.0
 30
0.0
  0
VERTEX
  5
A33
  8
001
 10
281.98810900000001
 20
186.725976
 30
0.0
  0
VERTEX
  5
A34
  8
001
 10
281.67695800000001
 20
186.35074700000001
 30
0.0
  0
VERTEX
  5
A35
  8
001
 10
281.294218
 20
185.793995
 30
0.0
  0
VERTEX
  5
A36
  8
001
 10
280.94840799999997
 20
185.05672799999999
 30
0.0
  0
VERTEX
  5
A37
  8
001
 10
280.775575
 20
184.325412
 30
0.0
  0
VERTEX
  5
A38
  8
001
 10
280.72817199999997
 20
183.938389
 30
0.0
  0
VERTEX
  5
A39
  8
001
 10
280.70924100000002
 20
183.543995
 30
0.0
  0
VERTEX
  5
A3A
  8
001
 10
280.72513500000008
 20
183.15130300000001
 30
0.0
  0
VERTEX
  5
A3B
  8
001
 10
280.775575
 20
182.76257899999999
 30
0.0
  0
VERTEX
  5
A3C
  8
001
 10
280.97244999999998
 20
182.00770399999999
 30
0.0
  0
VERTEX
  5
A3D
  8
001
 10
281.294218
 20
181.293995
 30
0.0
  0
VERTEX
  5
A3E
  8
001
 10
281.98303499999997
 20
180.36565400000001
 30
0.0
  0
VERTEX
  5
A3F
  8
001
 10
282.89240599999999
 20
179.64688100000001
 30
0.0
  0
VERTEX
  5
A40
  8
001
 10
283.23504100000002
 20
179.46544900000001
 30
0.0
  0
VERTEX
  5
A41
  8
001
 10
283.58219800000001
 20
179.31537900000001
 30
0.0
  0
VERTEX
  5
A42
  8
001
 10
283.928787
 20
179.19749999999999
 30
0.0
  0
VERTEX
  5
A43
  8
001
 10
284.31736599999999
 20
179.11236
 30
0.0
  0
VERTEX
  5
A44
  8
001
 10
284.75547400000011
 20
179.06112300000001
 30
0.0
  0
VERTEX
  5
A45
  8
001
 10
285.07557099999991
 20
179.043995
 30
0.0
  0
SEQEND
  5
A32
  8
001
  0
POLYLINE
  5
A46
  8
001
 66
     1
 10
0.0
 20
0.0
 30
0.0
  0
VERTEX
  5
A48
  8
001
 10
285.07557099999991
 20
179.043995
 30
0.0
  0
VERTEX
  5
A49
  8
001
 10
285.395669
 20
179.06112300000001
 30
0.0
  0
VERTEX
  5
A4A
  8
001
 10
285.833777
 20
179.11236
 30
0.0
  0
VERTEX
  5
A4B
  8
001
 10
286.222354
 20
179.19750300000001
 30
0.0
  0
VERTEX
  5
A4C
  8
001
 10
286.5689450000001
 20
179.31537900000001
 30
0.0
  0
VERTEX
  5
A4D
  8
001
 10
286.916111
 20
179.465439
 30
0.0
  0
VERTEX
  5
A4E
  8
001
 10
287.258737
 20
179.64688100000001
 30
0.0
  0
VERTEX
  5
A4F
  8
001
 10
288.167933
 20
180.36583899999999
 30
0.0
  0
VERTEX
  5
A50
  8
001
 10
288.85692499999999
 20
181.293995
 30
0.0
  0
VERTEX
  5
A51
  8
001
 10
289.17914000000002
 20
182.00723500000001
 30
0.0
  0
VERTEX
  5
A52
  8
001
 10
289.37556799999999
 20
182.76257899999999
 30
0.0
  0
VERTEX
  5
A53
  8
001
 10
289.42534499999999
 20
183.15199999999999
 30
0.0
  0
VERTEX
  5
A54
  8
001
 10
289.44190200000003
 20
183.543995
 30
0.0
  0
VERTEX
  5
A55
  8
001
 10
289.425253
 20
183.935991
 30
0.0
  0
VERTEX
  5
A56
  8
001
 10
289.37556799999999
 20
184.325412
 30
0.0
  0
VERTEX
  5
A57
  8
001
 10
289.17986100000002
 20
185.08075400000001
 30
0.0
  0
VERTEX
  5
A58
  8
001
 10
288.85692499999999
 20
185.793995
 30
0.0
  0
VERTEX
  5
A59
  8
001
 10
288.16293200000001
 20
186.72216700000001
 30
0.0
  0
VERTEX
  5
A5A
  8
001
 10
287.258737
 20
187.44111000000001
 30
0.0
  0
VERTEX
  5
A5B
  8
001
 10
286.92104599999999
 20
187.62253699999999
 30
0.0
  0
VERTEX
  5
A5C
  8
001
 10
286.5689450000001
 20
187.77261200000001
 30
0.0
  0
VERTEX
  5
A5D
  8
001
 10
286.20599299999998
 20
187.890536
 30
0.0
  0
VERTEX
  5
A5E
  8
001
 10
285.833777
 20
187.97563
 30
0.0
  0
VERTEX
  5
A5F
  8
001
 10
285.45602200000002
 20
188.026692
 30
0.0
  0
VERTEX
  5
A60
  8
001
 10
285.07557099999991
 20
188.043995
 30
0.0
  0
VERTEX
  5
A61
  8
001
 10
284.69559600000002
 20
188.027524
 30
0.0
  0
VERTEX
  5
A62
  8
001
 10
284.31736599999999
 20
187.97563
 30
0.0
  0
VERTEX
  5
A63
  8
001
 10
283.94276600000001
 20
187.888035
 30
0.0
  0
VERTEX
  5
A64
  8
001
 10
283.58219800000001
 20
187.77261200000001
 30
0.0
  0
VERTEX
  5
A65
  8
001
 10
283.23920099999998
 20
187.63175200000001
 30
0.0
  0
VERTEX
  5
A66
  8
001
 10
282.89240599999999
 20
187.44111000000001
 30
0.0
  0
VERTEX
  5
A67
  8
001
 10
282.355412
 20
187.050116
 30
0.0
  0
VERTEX
  5
A68
  8
001
 10
281.98810900000001
 20
186.725976
 30
0.0
  0
SEQEND
  5
A47
  8
001
  0
POLYLINE
  5
A69
  8
001
 66
     1
 10
0.0
 20
0.0
 30
0.0
  0
VERTEX
  5
A6B
  8
001
 10
297.41103799999991
 20
171.847556
 30
0.0
  0
VERTEX
  5
A6C
  8
001
 10
297.87548099999998
 20
172.777322
 30
0.0
  0
VERTEX
  5
A6D
  8
001
 10
298.43734599999999
 20
174.11232799999999
 30
0.0
  0
VERTEX
  5
A6E
  8
001
 10
299.00451600000002
 20
176.06158199999999
 30
0.0
  0
VERTEX
  5
A6F
  8
001
 10
299.26525700000002
 20
177.89801
 30
0.0
  0
VERTEX
  5
A70
  8
001
 10
299.34131400000001
 20
178.8934919999999
 30
0.0
  0
VERTEX
  5
A71
  8
001
 10
299.37114700000001
 20
179.912328
 30
0.0
  0
VERTEX
  5
A72
  8
001
 10
299.34131400000001
 20
180.931164
 30
0.0
  0
VERTEX
  5
A73
  8
001
 10
299.26525700000002
 20
181.926647
 30
0.0
  0
VERTEX
  5
A74
  8
001
 10
299.00451600000002
 20
183.76307499999999
 30
0.0
  0
VERTEX
  5
A75
  8
001
 10
298.43734599999999
 20
185.71232800000001
 30
0.0
  0
VERTEX
  5
A76
  8
001
 10
297.87548099999998
 20
187.047335
 30
0.0
  0
VERTEX
  5
A77
  8
001
 10
297.41103799999991
 20
187.977101
 30
0.0
  0
SEQEND
  5
A6A
  8
001
  0
LINE
  5
A78
  8
001
 10
297.41103799999991
 20
187.977101
 30
0.0
 11
297.41103799999991
 21
171.847556
 31
0.0
  0
LINE
  5
A79
  8
001
 10
279.93360000000001
 20
185.19693599999999
 30
0.0
 11
280.22641900000002
 21
184.91035400000001
 31
0.0
  0
LINE
  5
A7A
  8
001
 10
290.67266599999999
 20
182.200492
 30
0.0
 11
289.94690100000003
 21
182.200492
 31
0.0
  0
LINE
  5
A7B
  8
001
 10
284.90940399999999
 20
176.260796
 30
0.0
 11
283.295276
 21
176.260796
 31
0.0
  0
LINE
  5
A7C
  8
001
 10
287.24215299999997
 20
188.56445400000001
 30
0.0
 11
283.771976
 21
188.56445400000001
 31
0.0
  0
LINE
  5
A7D
  8
001
 10
286.53831500000001
 20
184.385402
 30
0.0
 11
286.53831500000001
 21
182.65335099999999
 31
0.0
  0
LINE
  5
A7E
  8
001
 10
283.53831500000001
 20
182.65335099999999
 30
0.0
 11
283.53831500000001
 21
184.385402
 31
0.0
  0
LINE
  5
A7F
  8
001
 10
283.53831500000001
 20
184.385402
 30
0.0
 11
285.03831500000001
 21
185.25142700000001
 31
0.0
  0
LINE
  5
A80
  8
001
 10
286.53831500000001
 20
182.65335099999999
 30
0.0
 11
285.03831500000001
 21
181.78732600000001
 31
0.0
  0
LINE
  5
A81
  8
001
 10
285.03831500000001
 20
181.78732600000001
 30
0.0
 11
283.53831500000001
 21
182.65335099999999
 31
0.0
  0
LINE
  5
A82
  8
001
 10
286.53831500000001
 20
184.385402
 30
0.0
 11
285.03831500000001
 21
185.25142700000001
 31
0.0
  0
LINE
  5
A83
  8
001
 10
391.164669
 20
179.912328
 30
0.0
 11
393.76274599999999
 21
181.412328
 31
0.0
  0
LINE
  5
A84
  8
001
 10
391.164669
 20
179.912328
 30
0.0
 11
393.76274599999999
 21
178.412328
 31
0.0
  0
LINE
  5
A85
  8
001
  6
CENTER
 10
268.99319000000003
 20
179.912328
 30
0.0
 11
393.61535900000001
 21
179.912328
 31
0.0
  0
LINE
  5
A86
  8
001
  6
PHANTOM
 10
271.164669
 20
175.71232800000001
 30
0.0
 11
271.164669
 21
176.041214
 31
0.0
  0
LINE
  5
A87
  8
001
  6
PHANTOM
 10
271.39722699999999
 20
175.479771
 30
0.0
 11
271.164669
 21
175.71232800000001
 31
0.0
  0
LINE
  5
A88
  8
001
 10
268.99319000000003
 20
167.412328
 30
0.0
 11
279.628422
 21
167.412328
 31
0.0
  0
LINE
  5
A89
  8
001
 10
271.164669
 20
165.07341600000001
 30
0.0
 11
271.164669
 21
175.71232800000001
 31
0.0
  0
LINE
  5
A8A
  8
001
 10
284.63978500000002
 20
190.30447000000001
 30
0.0
 11
279.93360000000001
 21
185.19693599999999
 31
0.0
  0
POLYLINE
  5
A8B
  8
001
 66
     1
 10
0.0
 20
0.0
 30
0.0
  0
VERTEX
  5
A8D
  8
001
 10
297.41103799999991
 20
187.977101
 30
0.0
  0
VERTEX
  5
A8E
  8
001
 10
296.12024700000001
 20
188.28919099999999
 30
0.0
  0
VERTEX
  5
A8F
  8
001
 10
294.33649200000002
 20
188.68200899999999
 30
0.0
  0
VERTEX
  5
A90
  8
001
 10
292.18026300000002
 20
189.116894
 30
0.0
  0
VERTEX
  5
A91
  8
001
 10
289.77205199999997
 20
189.55518599999999
 30
0.0
  0
VERTEX
  5
A92
  8
001
 10
287.23235
 20
189.958223
 30
0.0
  0
VERTEX
  5
A93
  8
001
 10
285.83293300000003
 20
190.15177499999999
 30
0.0
  0
VERTEX
  5
A94
  8
001
 10
284.63978500000002
 20
190.30447000000001
 30
0.0
  0
SEQEND
  5
A8C
  8
001
  0
ARC
  5
A95
  8
001
 10
287.9799339999999
 20
186.29006000000001
 30
0.0
 40
5.2222684577821958
 50
90.0
 51
129.76180500000001
  0
ARC
  5
A96
  8
001
 10
279.81603999999999
 20
176.041214
 30
0.0
 40
3.1000000000000001
 50
75.397654000000003
 51
12.874889
  0
LINE
  5
A97
  8
001
 10
280.702496
 20
167.38984300000001
 30
0.0
 11
279.81603999999999
 21
167.38984300000001
 31
0.0
  0
ARC
  5
A98
  8
001
 10
280.702496
 20
167.89917500000001
 30
0.0
 40
0.5093312671580355
 50
270.0
 51
315.0
  0
LINE
  5
A99
  8
001
 10
281.06264800000002
 20
167.53902299999999
 30
0.0
 11
281.83595300000002
 21
168.31232800000001
 31
0.0
  0
POLYLINE
  5
A9A
  8
001
 66
     1
 10
0.0
 20
0.0
 30
0.0
  0
VERTEX
  5
A9C
  8
001
 10
282.07030500000002
 20
169.22651200000001
 30
0.0
  0
VERTEX
  5
A9D
  8
001
 10
284.405306
 20
169.491017
 30
0.0
  0
VERTEX
  5
A9E
  8
001
 10
287.23235
 20
169.866434
 30
0.0
  0
VERTEX
  5
A9F
  8
001
 10
289.77168599999999
 20
170.27104199999999
 30
0.0
  0
VERTEX
  5
AA0
  8
001
 10
292.17985099999999
 20
170.70953
 30
0.0
  0
VERTEX
  5
AA1
  8
001
 10
294.33621699999998
 20
171.14382599999999
 30
0.0
  0
VERTEX
  5
AA2
  8
001
 10
296.12015600000001
 20
171.53585899999999
 30
0.0
  0
VERTEX
  5
AA3
  8
001
 10
297.41103799999991
 20
171.847556
 30
0.0
  0
SEQEND
  5
A9B
  8
001
  0
LINE
  5
AA4
  8
001
 10
287.47147799999999
 20
174.62768500000001
 30
0.0
 11
281.15612099999998
 21
168.31232800000001
 31
0.0
  0
ARC
  5
AA5
  8
001
 10
287.973411
 20
176.041214
 30
0.0
 40
1.5
 50
250.450469
 51
112.175361
  0
CIRCLE
  5
AA6
  8
001
 10
279.81603999999999
 20
176.041214
 30
0.0
 40
2.6000000000000001
  0
TEXT
  5
AA7
  8
001
 10
253.11711600000001
 20
211.21983800000001
 30
0.0
 40
5.0
  1
ＲスペシャルＪｒ．　ＮＫ２０－０５Ｒ　（４．５Ｒ）
 41
0.833333
  0
ARC
  5
AA8
  8
001
 10
271.95866899999999
 20
176.041214
 30
0.0
 40
0.7940000000000002
 50
135.0
 51
225.0
  0
ARC
  5
AA9
  8
001
 10
279.81603999999999
 20
168.183843
 30
0.0
 40
0.7940000000000002
 50
225.0
 51
315.0
  0
ARC
  5
AAA
  8
001
 10
287.67341099999999
 20
176.041214
 30
0.0
 40
0.7940000000000002
 50
315.0
 51
45.0
  0
LINE
  5
AAB
  8
001
 10
286.62445200000002
 20
173.86937
 30
0.0
 11
286.52788399999997
 21
173.82937000000001
 31
0.0
  0
LINE
  5
AAC
  8
001
 10
281.98788400000001
 20
169.23280199999999
 30
0.0
 11
282.02788399999997
 21
169.32937000000001
 31
0.0
  0
ARC
  5
AAD
  8
001
 10
286.52788399999997
 20
169.32937000000001
 30
0.0
 40
4.5
 50
90.0
 51
180.0
  0
LINE
  5
AAE
  8
001
 10
281.98788400000001
 20
169.23280199999999
 30
0.0
 11
280.37748299999998
 21
167.622401
 31
0.0
  0
LINE
  5
AAF
  8
001
 10
288.23485299999999
 20
175.479771
 30
0.0
 11
286.62445200000002
 21
173.86937
 31
0.0
  0
LINE
  5
AB0
  8
001
 10
273.00762800000001
 20
178.21305799999999
 30
0.0
 11
273.104196
 21
178.25305800000001
 31
0.0
  0
LINE
  5
AB1
  8
001
 10
277.64419600000002
 20
182.849626
 30
0.0
 11
277.604196
 21
182.75305800000001
 31
0.0
  0
ARC
  5
AB2
  8
001
 10
273.104196
 20
182.75305800000001
 30
0.0
 40
4.5
 50
270.0
 51
360.0
  0
LINE
  5
AB3
  8
001
 10
277.61466899999999
 20
169.262328
 30
0.0
 11
277.57466899999997
 21
169.35889700000001
 31
0.0
  0
LINE
  5
AB4
  8
001
 10
272.984669
 20
173.89232799999999
 30
0.0
 11
273.08123799999998
 21
173.852328
 31
0.0
  0
LINE
  5
AB5
  8
001
 10
277.61466899999999
 20
169.262328
 30
0.0
 11
279.25459699999999
 21
167.622401
 31
0.0
  0
LINE
  5
AB6
  8
001
 10
272.984669
 20
173.89232799999999
 30
0.0
 11
271.39722699999999
 21
175.479771
 31
0.0
  0
LINE
  5
AB7
  8
001
 10
271.39722699999999
 20
176.60265699999999
 30
0.0
 11
273.00762800000001
 21
178.21305799999999
 31
0.0
  0
LINE
  5
AB8
  8
001
 10
277.64419600000002
 20
182.849626
 30
0.0
 11
279.25459699999999
 21
184.460027
 31
0.0
  0
LINE
  5
AB9
  8
001
 10
277.57466899999997
 20
169.35889700000001
 30
0.0
 11
277.57466899999997
 21
165.07341600000001
 31
0.0
  0
LINE
  5
ABA
  8
001
  6
CENTER
 10
273.08123799999998
 20
173.852328
 30
0.0
 11
268.99319000000003
 21
173.852328
 31
0.0
  0
ARC
  5
ABB
  8
001
 10
273.07467400000002
 20
169.35233299999999
 30
0.0
 40
4.5
 50
0.083572
 51
89.916427999999996
  0
ARC
  5
ABC
  8
001
 10
279.81603999999999
 20
183.898585
 30
0.0
 40
0.7940000000000002
 50
76.956345999999996
 51
135.0
  0
LINE
  5
ABD
  8
001
 10
288.23485299999999
 20
176.60265699999999
 30
0.0
 11
286.654023
 21
178.18348800000001
 31
0.0
  0
LINE
  5
ABE
  8
001
 10
285.68037600000002
 20
292.89892500000002
 30
0.0
 11
290.55170500000003
 21
297.91938299999998
 31
0.0
  0
LINE
  5
ABF
  8
001
 10
285.80133699999999
 20
292.89892500000002
 30
0.0
 11
285.68037600000002
 21
292.89892500000002
 31
0.0
  0
LINE
  5
AC0
  8
001
 10
284.90940399999999
 20
291.97968600000002
 30
0.0
 11
285.80133699999999
 21
292.89892500000002
 31
0.0
  0
LINE
  5
AC1
  8
001
 10
284.86974099999998
 20
292.68679300000002
 30
0.0
 11
284.42556000000002
 21
291.97968600000002
 31
0.0
  0
LINE
  5
AC2
  8
001
 10
284.86974099999998
 20
292.68679300000002
 30
0.0
 11
288.16303399999998
 21
296.08090600000003
 31
0.0
  0
LINE
  5
AC3
  8
001
 10
288.16303399999998
 20
296.08090600000003
 30
0.0
 11
289.94690100000003
 21
297.91938299999998
 31
0.0
  0
LINE
  5
AC4
  8
001
 10
289.94690100000003
 20
300.74781000000002
 30
0.0
 11
286.51638700000001
 21
304.283344
 31
0.0
  0
LINE
  5
AC5
  8
001
 10
289.94690100000003
 20
297.91938299999998
 30
0.0
 11
289.94690100000003
 21
300.74781000000002
 31
0.0
  0
LINE
  5
AC6
  8
001
 10
278.694816
 20
299.05075399999998
 30
0.0
 11
284.86974099999998
 21
292.68679300000002
 31
0.0
  0
LINE
  5
AC7
  8
001
 10
283.771976
 20
304.283344
 30
0.0
 11
281.98810900000001
 21
302.44486699999999
 31
0.0
  0
LINE
  5
AC8
  8
001
 10
281.98810900000001
 20
302.44486699999999
 30
0.0
 11
278.694816
 21
299.05075399999998
 31
0.0
  0
LINE
  5
AC9
  8
001
 10
290.67266599999999
 20
300.74781000000002
 30
0.0
 11
289.94690100000003
 21
300.74781000000002
 31
0.0
  0
LINE
  5
ACA
  8
001
 10
290.67266599999999
 20
297.91938299999998
 30
0.0
 11
290.67266599999999
 21
300.74781000000002
 31
0.0
  0
LINE
  5
ACB
  8
001
 10
290.67266599999999
 20
300.74781000000002
 30
0.0
 11
287.24215299999997
 21
304.283344
 31
0.0
  0
LINE
  5
ACC
  8
001
 10
278.25063599999999
 20
298.34364699999998
 30
0.0
 11
278.694816
 21
299.05075399999998
 31
0.0
  0
LINE
  5
ACD
  8
001
 10
283.295276
 20
291.97968600000002
 30
0.0
 11
278.49255799999997
 21
296.92943400000001
 31
0.0
  0
LINE
  5
ACE
  8
001
 10
278.49255799999997
 20
296.92943400000001
 30
0.0
 11
278.25063599999999
 21
298.34364699999998
 31
0.0
  0
LINE
  5
ACF
  8
001
 10
285.80133699999999
 20
292.89892500000002
 30
0.0
 11
285.74085700000001
 21
292.96125699999999
 31
0.0
  0
POLYLINE
  5
AD0
  8
001
 66
     1
 10
0.0
 20
0.0
 30
0.0
  0
VERTEX
  5
AD2
  8
001
 10
281.98810900000001
 20
302.44486699999999
 30
0.0
  0
VERTEX
  5
AD3
  8
001
 10
281.67695800000001
 20
302.069638
 30
0.0
  0
VERTEX
  5
AD4
  8
001
 10
281.294218
 20
301.51288599999998
 30
0.0
  0
VERTEX
  5
AD5
  8
001
 10
280.94840799999997
 20
300.77561900000001
 30
0.0
  0
VERTEX
  5
AD6
  8
001
 10
280.775575
 20
300.04430300000001
 30
0.0
  0
VERTEX
  5
AD7
  8
001
 10
280.72817199999997
 20
299.65728000000001
 30
0.0
  0
VERTEX
  5
AD8
  8
001
 10
280.70924100000002
 20
299.26288599999998
 30
0.0
  0
VERTEX
  5
AD9
  8
001
 10
280.72513500000008
 20
298.87019400000003
 30
0.0
  0
VERTEX
  5
ADA
  8
001
 10
280.775575
 20
298.481469
 30
0.0
  0
VERTEX
  5
ADB
  8
001
 10
280.97244999999998
 20
297.72659500000009
 30
0.0
  0
VERTEX
  5
ADC
  8
001
 10
281.294218
 20
297.01288599999998
 30
0.0
  0
VERTEX
  5
ADD
  8
001
 10
281.98303499999997
 20
296.08454499999999
 30
0.0
  0
VERTEX
  5
ADE
  8
001
 10
282.89240599999999
 20
295.36577199999999
 30
0.0
  0
VERTEX
  5
ADF
  8
001
 10
283.23504100000002
 20
295.18433999999991
 30
0.0
  0
VERTEX
  5
AE0
  8
001
 10
283.58219800000001
 20
295.03426899999999
 30
0.0
  0
VERTEX
  5
AE1
  8
001
 10
283.928787
 20
294.91639099999998
 30
0.0
  0
VERTEX
  5
AE2
  8
001
 10
284.31736599999999
 20
294.83125100000001
 30
0.0
  0
VERTEX
  5
AE3
  8
001
 10
284.75547400000011
 20
294.78001399999999
 30
0.0
  0
VERTEX
  5
AE4
  8
001
 10
285.07557099999991
 20
294.76288599999998
 30
0.0
  0
SEQEND
  5
AD1
  8
001
  0
POLYLINE
  5
AE5
  8
001
 66
     1
 10
0.0
 20
0.0
 30
0.0
  0
VERTEX
  5
AE7
  8
001
 10
285.07557099999991
 20
294.76288599999998
 30
0.0
  0
VERTEX
  5
AE8
  8
001
 10
285.395669
 20
294.78001399999999
 30
0.0
  0
VERTEX
  5
AE9
  8
001
 10
285.833777
 20
294.83125100000001
 30
0.0
  0
VERTEX
  5
AEA
  8
001
 10
286.222354
 20
294.91639400000003
 30
0.0
  0
VERTEX
  5
AEB
  8
001
 10
286.5689450000001
 20
295.03426899999999
 30
0.0
  0
VERTEX
  5
AEC
  8
001
 10
286.916111
 20
295.18432999999999
 30
0.0
  0
VERTEX
  5
AED
  8
001
 10
287.258737
 20
295.36577199999999
 30
0.0
  0
VERTEX
  5
AEE
  8
001
 10
288.167933
 20
296.08472999999998
 30
0.0
  0
VERTEX
  5
AEF
  8
001
 10
288.85692499999999
 20
297.01288599999998
 30
0.0
  0
VERTEX
  5
AF0
  8
001
 10
289.17914000000002
 20
297.72612600000002
 30
0.0
  0
VERTEX
  5
AF1
  8
001
 10
289.37556799999999
 20
298.481469
 30
0.0
  0
VERTEX
  5
AF2
  8
001
 10
289.42534499999999
 20
298.87089099999997
 30
0.0
  0
VERTEX
  5
AF3
  8
001
 10
289.44190200000003
 20
299.26288599999998
 30
0.0
  0
VERTEX
  5
AF4
  8
001
 10
289.425253
 20
299.65488199999999
 30
0.0
  0
VERTEX
  5
AF5
  8
001
 10
289.37556799999999
 20
300.04430300000001
 30
0.0
  0
VERTEX
  5
AF6
  8
001
 10
289.17986100000002
 20
300.799645
 30
0.0
  0
VERTEX
  5
AF7
  8
001
 10
288.85692499999999
 20
301.51288599999998
 30
0.0
  0
VERTEX
  5
AF8
  8
001
 10
288.16293200000001
 20
302.441057
 30
0.0
  0
VERTEX
  5
AF9
  8
001
 10
287.258737
 20
303.16000100000002
 30
0.0
  0
VERTEX
  5
AFA
  8
001
 10
286.92104599999999
 20
303.34142800000001
 30
0.0
  0
VERTEX
  5
AFB
  8
001
 10
286.5689450000001
 20
303.49150300000002
 30
0.0
  0
VERTEX
  5
AFC
  8
001
 10
286.20599299999998
 20
303.60942699999998
 30
0.0
  0
VERTEX
  5
AFD
  8
001
 10
285.833777
 20
303.69452100000001
 30
0.0
  0
VERTEX
  5
AFE
  8
001
 10
285.45602200000002
 20
303.74558300000001
 30
0.0
  0
VERTEX
  5
AFF
  8
001
 10
285.07557099999991
 20
303.76288599999998
 30
0.0
  0
VERTEX
  5
B00
  8
001
 10
284.69559600000002
 20
303.74641500000001
 30
0.0
  0
VERTEX
  5
B01
  8
001
 10
284.31736599999999
 20
303.69452100000001
 30
0.0
  0
VERTEX
  5
B02
  8
001
 10
283.94276600000001
 20
303.60692599999999
 30
0.0
  0
VERTEX
  5
B03
  8
001
 10
283.58219800000001
 20
303.49150300000002
 30
0.0
  0
VERTEX
  5
B04
  8
001
 10
283.23920099999998
 20
303.35064299999999
 30
0.0
  0
VERTEX
  5
B05
  8
001
 10
282.89240599999999
 20
303.16000100000002
 30
0.0
  0
VERTEX
  5
B06
  8
001
 10
282.355412
 20
302.76900699999999
 30
0.0
  0
VERTEX
  5
B07
  8
001
 10
281.98810900000001
 20
302.44486699999999
 30
0.0
  0
SEQEND
  5
AE6
  8
001
  0
POLYLINE
  5
B08
  8
001
 66
     1
 10
0.0
 20
0.0
 30
0.0
  0
VERTEX
  5
B0A
  8
001
 10
297.41103799999991
 20
287.56644699999998
 30
0.0
  0
VERTEX
  5
B0B
  8
001
 10
297.87548099999998
 20
288.49621300000001
 30
0.0
  0
VERTEX
  5
B0C
  8
001
 10
298.43734599999999
 20
289.83121899999998
 30
0.0
  0
VERTEX
  5
B0D
  8
001
 10
299.00451600000002
 20
291.78047299999997
 30
0.0
  0
VERTEX
  5
B0E
  8
001
 10
299.26525700000002
 20
293.61689999999999
 30
0.0
  0
VERTEX
  5
B0F
  8
001
 10
299.34131400000001
 20
294.61238300000002
 30
0.0
  0
VERTEX
  5
B10
  8
001
 10
299.37114700000001
 20
295.63121899999999
 30
0.0
  0
VERTEX
  5
B11
  8
001
 10
299.34131400000001
 20
296.65005500000001
 30
0.0
  0
VERTEX
  5
B12
  8
001
 10
299.26525700000002
 20
297.64553799999999
 30
0.0
  0
VERTEX
  5
B13
  8
001
 10
299.00451600000002
 20
299.481966
 30
0.0
  0
VERTEX
  5
B14
  8
001
 10
298.43734599999999
 20
301.431219
 30
0.0
  0
VERTEX
  5
B15
  8
001
 10
297.87548099999998
 20
302.76622600000002
 30
0.0
  0
VERTEX
  5
B16
  8
001
 10
297.41103799999991
 20
303.69599199999999
 30
0.0
  0
SEQEND
  5
B09
  8
001
  0
LINE
  5
B17
  8
001
 10
297.41103799999991
 20
303.69599199999999
 30
0.0
 11
297.41103799999991
 21
287.56644699999998
 31
0.0
  0
LINE
  5
B18
  8
001
 10
279.93360000000001
 20
300.91582699999998
 30
0.0
 11
280.22641900000002
 21
300.62924500000003
 31
0.0
  0
LINE
  5
B19
  8
001
 10
290.67266599999999
 20
297.91938299999998
 30
0.0
 11
289.94690100000003
 21
297.91938299999998
 31
0.0
  0
LINE
  5
B1A
  8
001
 10
284.90940399999999
 20
291.97968600000002
 30
0.0
 11
283.295276
 21
291.97968600000002
 31
0.0
  0
LINE
  5
B1B
  8
001
 10
287.24215299999997
 20
304.283344
 30
0.0
 11
283.771976
 21
304.283344
 31
0.0
  0
LINE
  5
B1C
  8
001
 10
286.53831500000001
 20
300.10429299999998
 30
0.0
 11
286.53831500000001
 21
298.37224200000003
 31
0.0
  0
LINE
  5
B1D
  8
001
 10
283.53831500000001
 20
298.37224200000003
 30
0.0
 11
283.53831500000001
 21
300.10429299999998
 31
0.0
  0
LINE
  5
B1E
  8
001
 10
283.53831500000001
 20
300.10429299999998
 30
0.0
 11
285.03831500000001
 21
300.97031800000002
 31
0.0
  0
LINE
  5
B1F
  8
001
 10
286.53831500000001
 20
298.37224200000003
 30
0.0
 11
285.03831500000001
 21
297.50621699999999
 31
0.0
  0
LINE
  5
B20
  8
001
 10
285.03831500000001
 20
297.50621699999999
 30
0.0
 11
283.53831500000001
 21
298.37224200000003
 31
0.0
  0
LINE
  5
B21
  8
001
 10
286.53831500000001
 20
300.10429299999998
 30
0.0
 11
285.03831500000001
 21
300.97031800000002
 31
0.0
  0
LINE
  5
B22
  8
001
 10
391.164669
 20
295.63121899999999
 30
0.0
 11
393.76274599999999
 21
297.13121899999999
 31
0.0
  0
LINE
  5
B23
  8
001
 10
391.164669
 20
295.63121899999999
 30
0.0
 11
393.76274599999999
 21
294.13121899999999
 31
0.0
  0
LINE
  5
B24
  8
001
  6
CENTER
 10
268.99319000000003
 20
295.63121899999999
 30
0.0
 11
393.61535900000001
 21
295.63121899999999
 31
0.0
  0
LINE
  5
B25
  8
001
  6
PHANTOM
 10
271.164669
 20
291.431219
 30
0.0
 11
271.164669
 21
291.76010500000001
 31
0.0
  0
LINE
  5
B26
  8
001
  6
PHANTOM
 10
271.39722699999999
 20
291.19866200000001
 30
0.0
 11
271.164669
 21
291.431219
 31
0.0
  0
LINE
  5
B27
  8
001
 10
268.99319000000003
 20
283.13121899999999
 30
0.0
 11
279.628422
 21
283.13121899999999
 31
0.0
  0
LINE
  5
B28
  8
001
 10
271.164669
 20
280.792306
 30
0.0
 11
271.164669
 21
291.431219
 31
0.0
  0
LINE
  5
B29
  8
001
 10
284.63978500000002
 20
306.02336100000002
 30
0.0
 11
279.93360000000001
 21
300.91582699999998
 31
0.0
  0
POLYLINE
  5
B2A
  8
001
 66
     1
 10
0.0
 20
0.0
 30
0.0
  0
VERTEX
  5
B2C
  8
001
 10
297.41103799999991
 20
303.69599199999999
 30
0.0
  0
VERTEX
  5
B2D
  8
001
 10
296.12024700000001
 20
304.008081
 30
0.0
  0
VERTEX
  5
B2E
  8
001
 10
294.33649200000002
 20
304.40089899999998
 30
0.0
  0
VERTEX
  5
B2F
  8
001
 10
292.18026300000002
 20
304.83578499999999
 30
0.0
  0
VERTEX
  5
B30
  8
001
 10
289.77205199999997
 20
305.27407699999998
 30
0.0
  0
VERTEX
  5
B31
  8
001
 10
287.23235
 20
305.67711400000002
 30
0.0
  0
VERTEX
  5
B32
  8
001
 10
285.83293300000003
 20
305.87066600000003
 30
0.0
  0
VERTEX
  5
B33
  8
001
 10
284.63978500000002
 20
306.02336100000002
 30
0.0
  0
SEQEND
  5
B2B
  8
001
  0
ARC
  5
B34
  8
001
 10
287.9799339999999
 20
302.00895100000002
 30
0.0
 40
5.2222684577821958
 50
90.0
 51
129.76180500000001
  0
ARC
  5
B35
  8
001
 10
279.81603999999999
 20
291.76010500000001
 30
0.0
 40
3.1000000000000001
 50
75.397654000000003
 51
12.874889
  0
LINE
  5
B36
  8
001
 10
280.702496
 20
283.10873400000003
 30
0.0
 11
279.81603999999999
 21
283.10873400000003
 31
0.0
  0
ARC
  5
B37
  8
001
 10
280.702496
 20
283.618066
 30
0.0
 40
0.5093312671580355
 50
270.0
 51
315.0
  0
LINE
  5
B38
  8
001
 10
281.06264800000002
 20
283.25791400000003
 30
0.0
 11
281.83595300000002
 21
284.03121900000002
 31
0.0
  0
POLYLINE
  5
B39
  8
001
 66
     1
 10
0.0
 20
0.0
 30
0.0
  0
VERTEX
  5
B3B
  8
001
 10
282.07030500000002
 20
284.945403
 30
0.0
  0
VERTEX
  5
B3C
  8
001
 10
284.405306
 20
285.20990799999998
 30
0.0
  0
VERTEX
  5
B3D
  8
001
 10
287.23235
 20
285.58532500000001
 30
0.0
  0
VERTEX
  5
B3E
  8
001
 10
289.77168599999999
 20
285.98993300000001
 30
0.0
  0
VERTEX
  5
B3F
  8
001
 10
292.17985099999999
 20
286.42842100000001
 30
0.0
  0
VERTEX
  5
B40
  8
001
 10
294.33621699999998
 20
286.86271699999998
 30
0.0
  0
VERTEX
  5
B41
  8
001
 10
296.12015600000001
 20
287.25475
 30
0.0
  0
VERTEX
  5
B42
  8
001
 10
297.41103799999991
 20
287.56644699999998
 30
0.0
  0
SEQEND
  5
B3A
  8
001
  0
LINE
  5
B43
  8
001
 10
287.47147799999999
 20
290.34657599999991
 30
0.0
 11
281.15612099999998
 21
284.03121900000002
 31
0.0
  0
ARC
  5
B44
  8
001
 10
287.973411
 20
291.76010500000001
 30
0.0
 40
1.5
 50
250.450469
 51
112.175361
  0
CIRCLE
  5
B45
  8
001
 10
279.81603999999999
 20
291.76010500000001
 30
0.0
 40
2.6000000000000001
  0
TEXT
  5
B46
  8
001
 10
253.11711600000001
 20
326.93872900000002
 30
0.0
 40
5.0
  1
ＲスペシャルＪｒ．　ＮＫ２０－０５Ｒ　（３．５Ｒ）
 41
0.833333
  0
ARC
  5
B47
  8
001
 10
271.95866899999999
 20
291.76010500000001
 30
0.0
 40
0.7940000000000002
 50
135.0
 51
225.0
  0
ARC
  5
B48
  8
001
 10
279.81603999999999
 20
283.90273400000001
 30
0.0
 40
0.7940000000000002
 50
225.0
 51
315.0
  0
ARC
  5
B49
  8
001
 10
287.67341099999999
 20
291.76010500000001
 30
0.0
 40
0.7940000000000002
 50
315.0
 51
45.0
  0
LINE
  5
B4A
  8
001
 10
286.12445200000002
 20
289.08826099999999
 30
0.0
 11
286.02788399999997
 21
289.04826100000002
 31
0.0
  0
LINE
  5
B4B
  8
001
 10
282.48788400000001
 20
285.45169299999998
 30
0.0
 11
282.52788399999997
 21
285.54826100000002
 31
0.0
  0
ARC
  5
B4C
  8
001
 10
286.02788399999997
 20
285.54826100000002
 30
0.0
 40
3.5
 50
90.0
 51
180.0
  0
LINE
  5
B4D
  8
001
 10
282.48788400000001
 20
285.45169299999998
 30
0.0
 11
280.37748299999998
 21
283.34129200000001
 31
0.0
  0
LINE
  5
B4E
  8
001
 10
288.23485299999999
 20
291.19866200000001
 30
0.0
 11
286.12445200000002
 21
289.08826099999999
 31
0.0
  0
LINE
  5
B4F
  8
001
 10
273.5076279999999
 20
294.43194899999997
 30
0.0
 11
273.604196
 21
294.471949
 31
0.0
  0
LINE
  5
B50
  8
001
 10
277.14419600000002
 20
298.06851699999999
 30
0.0
 11
277.104196
 21
297.971949
 31
0.0
  0
ARC
  5
B51
  8
001
 10
273.604196
 20
297.971949
 30
0.0
 40
3.5
 50
270.0
 51
360.0
  0
LINE
  5
B52
  8
001
 10
277.11466899999999
 20
285.48121900000001
 30
0.0
 11
277.07466899999997
 21
285.577788
 31
0.0
  0
LINE
  5
B53
  8
001
 10
273.484669
 20
289.11121900000001
 30
0.0
 11
273.58123799999998
 21
289.07121899999999
 31
0.0
  0
LINE
  5
B54
  8
001
 10
277.14419600000002
 20
298.06851699999999
 30
0.0
 11
279.25459699999999
 21
300.17891800000001
 31
0.0
  0
LINE
  5
B55
  8
001
 10
271.39722699999999
 20
292.32154800000001
 30
0.0
 11
273.5076279999999
 21
294.43194899999997
 31
0.0
  0
LINE
  5
B56
  8
001
 10
273.484669
 20
289.11121900000001
 30
0.0
 11
271.39722699999999
 21
291.19866200000001
 31
0.0
  0
LINE
  5
B57
  8
001
 10
277.11466899999999
 20
285.48121900000001
 30
0.0
 11
279.25459699999999
 21
283.34129200000001
 31
0.0
  0
LINE
  5
B58
  8
001
 10
288.23485299999999
 20
292.32154800000001
 30
0.0
 11
286.654023
 21
293.902378
 31
0.0
  0
ARC
  5
B59
  8
001
 10
279.81603999999999
 20
299.61747500000001
 30
0.0
 40
0.7940000000000002
 50
76.956345999999996
 51
135.0
  0
ARC
  5
B5A
  8
001
 10
273.57467600000001
 20
285.57122500000003
 30
0.0
 40
3.5
 50
0.0
 51
90.0
  0
LINE
  5
B5B
  8
001
 10
268.99319000000003
 20
289.07121899999999
 30
0.0
 11
273.57467600000001
 21
289.07121899999999
 31
0.0
  0
LINE
  5
B5C
  8
001
 10
277.07466899999997
 20
280.792306
 30
0.0
 11
277.07466899999997
 21
285.57122500000003
 31
0.0
  0
LINE
  5
B5D
  8
001
 10
285.68037600000002
 20
417.281903
 30
0.0
 11
290.55170500000003
 21
422.30236100000002
 31
0.0
  0
LINE
  5
B5E
  8
001
 10
285.80133699999999
 20
417.281903
 30
0.0
 11
285.68037600000002
 21
417.281903
 31
0.0
  0
LINE
  5
B5F
  8
001
 10
284.90940399999999
 20
416.362664
 30
0.0
 11
285.80133699999999
 21
417.281903
 31
0.0
  0
LINE
  5
B60
  8
001
 10
284.86974099999998
 20
417.06977099999989
 30
0.0
 11
284.42556000000002
 21
416.362664
 31
0.0
  0
LINE
  5
B61
  8
001
 10
284.86974099999998
 20
417.06977099999989
 30
0.0
 11
288.16303399999998
 21
420.46388400000001
 31
0.0
  0
LINE
  5
B62
  8
001
 10
288.16303399999998
 20
420.46388400000001
 30
0.0
 11
289.94690100000003
 21
422.30236100000002
 31
0.0
  0
LINE
  5
B63
  8
001
 10
289.94690100000003
 20
425.13078799999988
 30
0.0
 11
286.51638700000001
 21
428.66632199999998
 31
0.0
  0
LINE
  5
B64
  8
001
 10
289.94690100000003
 20
422.30236100000002
 30
0.0
 11
289.94690100000003
 21
425.13078799999988
 31
0.0
  0
LINE
  5
B65
  8
001
 10
278.694816
 20
423.43373199999991
 30
0.0
 11
284.86974099999998
 21
417.06977099999989
 31
0.0
  0
LINE
  5
B66
  8
001
 10
283.771976
 20
428.66632199999998
 30
0.0
 11
281.98810900000001
 21
426.82784500000002
 31
0.0
  0
LINE
  5
B67
  8
001
 10
281.98810900000001
 20
426.82784500000002
 30
0.0
 11
278.694816
 21
423.43373199999991
 31
0.0
  0
LINE
  5
B68
  8
001
 10
290.67266599999999
 20
425.13078799999988
 30
0.0
 11
289.94690100000003
 21
425.13078799999988
 31
0.0
  0
LINE
  5
B69
  8
001
 10
290.67266599999999
 20
422.30236100000002
 30
0.0
 11
290.67266599999999
 21
425.13078799999988
 31
0.0
  0
LINE
  5
B6A
  8
001
 10
290.67266599999999
 20
425.13078799999988
 30
0.0
 11
287.24215299999997
 21
428.66632199999998
 31
0.0
  0
LINE
  5
B6B
  8
001
 10
278.25063599999999
 20
422.72662500000001
 30
0.0
 11
278.694816
 21
423.43373199999991
 31
0.0
  0
LINE
  5
B6C
  8
001
 10
283.295276
 20
416.362664
 30
0.0
 11
278.49255799999997
 21
421.31241199999988
 31
0.0
  0
LINE
  5
B6D
  8
001
 10
278.49255799999997
 20
421.31241199999988
 30
0.0
 11
278.25063599999999
 21
422.72662500000001
 31
0.0
  0
LINE
  5
B6E
  8
001
 10
285.80133699999999
 20
417.281903
 30
0.0
 11
285.74085700000001
 21
417.34423500000003
 31
0.0
  0
POLYLINE
  5
B6F
  8
001
 66
     1
 10
0.0
 20
0.0
 30
0.0
  0
VERTEX
  5
B71
  8
001
 10
281.98810900000001
 20
426.82784500000002
 30
0.0
  0
VERTEX
  5
B72
  8
001
 10
281.67695800000001
 20
426.45261599999998
 30
0.0
  0
VERTEX
  5
B73
  8
001
 10
281.294218
 20
425.8958639999999
 30
0.0
  0
VERTEX
  5
B74
  8
001
 10
280.94840799999997
 20
425.15859599999987
 30
0.0
  0
VERTEX
  5
B75
  8
001
 10
280.775575
 20
424.42728099999988
 30
0.0
  0
VERTEX
  5
B76
  8
001
 10
280.72817199999997
 20
424.04025799999988
 30
0.0
  0
VERTEX
  5
B77
  8
001
 10
280.70924100000002
 20
423.6458639999999
 30
0.0
  0
VERTEX
  5
B78
  8
001
 10
280.72513500000008
 20
423.25317199999989
 30
0.0
  0
VERTEX
  5
B79
  8
001
 10
280.775575
 20
422.86444699999993
 30
0.0
  0
VERTEX
  5
B7A
  8
001
 10
280.97244999999998
 20
422.10957300000001
 30
0.0
  0
VERTEX
  5
B7B
  8
001
 10
281.294218
 20
421.3958639999999
 30
0.0
  0
VERTEX
  5
B7C
  8
001
 10
281.98303499999997
 20
420.46752300000003
 30
0.0
  0
VERTEX
  5
B7D
  8
001
 10
282.89240599999999
 20
419.74874999999992
 30
0.0
  0
VERTEX
  5
B7E
  8
001
 10
283.23504100000002
 20
419.56731799999989
 30
0.0
  0
VERTEX
  5
B7F
  8
001
 10
283.58219800000001
 20
419.41724699999997
 30
0.0
  0
VERTEX
  5
B80
  8
001
 10
283.928787
 20
419.2993689999999
 30
0.0
  0
VERTEX
  5
B81
  8
001
 10
284.31736599999999
 20
419.21422899999988
 30
0.0
  0
VERTEX
  5
B82
  8
001
 10
284.75547400000011
 20
419.16299199999992
 30
0.0
  0
VERTEX
  5
B83
  8
001
 10
285.07557099999991
 20
419.14586400000002
 30
0.0
  0
SEQEND
  5
B70
  8
001
  0
POLYLINE
  5
B84
  8
001
 66
     1
 10
0.0
 20
0.0
 30
0.0
  0
VERTEX
  5
B86
  8
001
 10
285.07557099999991
 20
419.14586400000002
 30
0.0
  0
VERTEX
  5
B87
  8
001
 10
285.395669
 20
419.16299099999998
 30
0.0
  0
VERTEX
  5
B88
  8
001
 10
285.833777
 20
419.21422899999988
 30
0.0
  0
VERTEX
  5
B89
  8
001
 10
286.222354
 20
419.29937100000001
 30
0.0
  0
VERTEX
  5
B8A
  8
001
 10
286.5689450000001
 20
419.41724699999997
 30
0.0
  0
VERTEX
  5
B8B
  8
001
 10
286.916111
 20
419.56730800000003
 30
0.0
  0
VERTEX
  5
B8C
  8
001
 10
287.258737
 20
419.74874999999992
 30
0.0
  0
VERTEX
  5
B8D
  8
001
 10
288.167933
 20
420.46770700000002
 30
0.0
  0
VERTEX
  5
B8E
  8
001
 10
288.85692499999999
 20
421.3958639999999
 30
0.0
  0
VERTEX
  5
B8F
  8
001
 10
289.17914000000002
 20
422.109104
 30
0.0
  0
VERTEX
  5
B90
  8
001
 10
289.37556799999999
 20
422.86444699999993
 30
0.0
  0
VERTEX
  5
B91
  8
001
 10
289.42534499999999
 20
423.2538679999999
 30
0.0
  0
VERTEX
  5
B92
  8
001
 10
289.44190200000003
 20
423.6458639999999
 30
0.0
  0
VERTEX
  5
B93
  8
001
 10
289.425253
 20
424.03785999999991
 30
0.0
  0
VERTEX
  5
B94
  8
001
 10
289.37556799999999
 20
424.42728099999988
 30
0.0
  0
VERTEX
  5
B95
  8
001
 10
289.17986100000002
 20
425.18262199999992
 30
0.0
  0
VERTEX
  5
B96
  8
001
 10
288.85692499999999
 20
425.8958639999999
 30
0.0
  0
VERTEX
  5
B97
  8
001
 10
288.16293200000001
 20
426.82403499999998
 30
0.0
  0
VERTEX
  5
B98
  8
001
 10
287.258737
 20
427.54297800000001
 30
0.0
  0
VERTEX
  5
B99
  8
001
 10
286.92104599999999
 20
427.72440599999987
 30
0.0
  0
VERTEX
  5
B9A
  8
001
 10
286.5689450000001
 20
427.87448099999989
 30
0.0
  0
VERTEX
  5
B9B
  8
001
 10
286.20599299999998
 20
427.99240400000002
 30
0.0
  0
VERTEX
  5
B9C
  8
001
 10
285.833777
 20
428.07749899999999
 30
0.0
  0
VERTEX
  5
B9D
  8
001
 10
285.45602200000002
 20
428.12856099999999
 30
0.0
  0
VERTEX
  5
B9E
  8
001
 10
285.07557099999991
 20
428.1458639999999
 30
0.0
  0
VERTEX
  5
B9F
  8
001
 10
284.69559600000002
 20
428.129392
 30
0.0
  0
VERTEX
  5
BA0
  8
001
 10
284.31736599999999
 20
428.07749899999999
 30
0.0
  0
VERTEX
  5
BA1
  8
001
 10
283.94276600000001
 20
427.98990400000002
 30
0.0
  0
VERTEX
  5
BA2
  8
001
 10
283.58219800000001
 20
427.87448099999989
 30
0.0
  0
VERTEX
  5
BA3
  8
001
 10
283.23920099999998
 20
427.73361999999997
 30
0.0
  0
VERTEX
  5
BA4
  8
001
 10
282.89240599999999
 20
427.54297800000001
 30
0.0
  0
VERTEX
  5
BA5
  8
001
 10
282.355412
 20
427.15198399999991
 30
0.0
  0
VERTEX
  5
BA6
  8
001
 10
281.98810900000001
 20
426.82784500000002
 30
0.0
  0
SEQEND
  5
B85
  8
001
  0
POLYLINE
  5
BA7
  8
001
 66
     1
 10
0.0
 20
0.0
 30
0.0
  0
VERTEX
  5
BA9
  8
001
 10
297.41103799999991
 20
411.94942500000002
 30
0.0
  0
VERTEX
  5
BAA
  8
001
 10
297.87548099999998
 20
412.87919099999999
 30
0.0
  0
VERTEX
  5
BAB
  8
001
 10
298.43734599999999
 20
414.2141969999999
 30
0.0
  0
VERTEX
  5
BAC
  8
001
 10
299.00451600000002
 20
416.1634509999999
 30
0.0
  0
VERTEX
  5
BAD
  8
001
 10
299.26525700000002
 20
417.99987800000002
 30
0.0
  0
VERTEX
  5
BAE
  8
001
 10
299.34131400000001
 20
418.99536099999989
 30
0.0
  0
VERTEX
  5
BAF
  8
001
 10
299.37114700000001
 20
420.01419699999991
 30
0.0
  0
VERTEX
  5
BB0
  8
001
 10
299.34131400000001
 20
421.03303299999988
 30
0.0
  0
VERTEX
  5
BB1
  8
001
 10
299.26525700000002
 20
422.02851600000002
 30
0.0
  0
VERTEX
  5
BB2
  8
001
 10
299.00451600000002
 20
423.86494399999998
 30
0.0
  0
VERTEX
  5
BB3
  8
001
 10
298.43734599999999
 20
425.81419699999992
 30
0.0
  0
VERTEX
  5
BB4
  8
001
 10
297.87548099999998
 20
427.149204
 30
0.0
  0
VERTEX
  5
BB5
  8
001
 10
297.41103799999991
 20
428.07897000000003
 30
0.0
  0
SEQEND
  5
BA8
  8
001
  0
LINE
  5
BB6
  8
001
 10
297.41103799999991
 20
428.07897000000003
 30
0.0
 11
297.41103799999991
 21
411.94942500000002
 31
0.0
  0
LINE
  5
BB7
  8
001
 10
279.93360000000001
 20
425.2988049999999
 30
0.0
 11
280.22641900000002
 21
425.01222300000001
 31
0.0
  0
LINE
  5
BB8
  8
001
 10
290.67266599999999
 20
422.30236100000002
 30
0.0
 11
289.94690100000003
 21
422.30236100000002
 31
0.0
  0
LINE
  5
BB9
  8
001
 10
284.90940399999999
 20
416.362664
 30
0.0
 11
283.295276
 21
416.362664
 31
0.0
  0
LINE
  5
BBA
  8
001
 10
287.24215299999997
 20
428.66632199999998
 30
0.0
 11
283.771976
 21
428.66632199999998
 31
0.0
  0
LINE
  5
BBB
  8
001
 10
286.53831500000001
 20
424.48727100000002
 30
0.0
 11
286.53831500000001
 21
422.75521999999989
 31
0.0
  0
LINE
  5
BBC
  8
001
 10
283.53831500000001
 20
422.75521999999989
 30
0.0
 11
283.53831500000001
 21
424.48727100000002
 31
0.0
  0
LINE
  5
BBD
  8
001
 10
283.53831500000001
 20
424.48727100000002
 30
0.0
 11
285.03831500000001
 21
425.353296
 31
0.0
  0
LINE
  5
BBE
  8
001
 10
286.53831500000001
 20
422.75521999999989
 30
0.0
 11
285.03831500000001
 21
421.88919499999997
 31
0.0
  0
LINE
  5
BBF
  8
001
 10
285.03831500000001
 20
421.88919499999997
 30
0.0
 11
283.53831500000001
 21
422.75521999999989
 31
0.0
  0
LINE
  5
BC0
  8
001
 10
286.53831500000001
 20
424.48727100000002
 30
0.0
 11
285.03831500000001
 21
425.353296
 31
0.0
  0
LINE
  5
BC1
  8
001
 10
391.164669
 20
420.01419699999991
 30
0.0
 11
393.76274599999999
 21
421.51419699999991
 31
0.0
  0
LINE
  5
BC2
  8
001
 10
391.164669
 20
420.01419699999991
 30
0.0
 11
393.76274599999999
 21
418.51419700000002
 31
0.0
  0
LINE
  5
BC3
  8
001
  6
CENTER
 10
268.99319000000003
 20
420.01419699999991
 30
0.0
 11
393.61535900000001
 21
420.01419699999991
 31
0.0
  0
LINE
  5
BC4
  8
001
  6
PHANTOM
 10
271.164669
 20
415.81419699999998
 30
0.0
 11
271.164669
 21
416.14308299999988
 31
0.0
  0
LINE
  5
BC5
  8
001
  6
PHANTOM
 10
271.39722699999999
 20
415.58163999999988
 30
0.0
 11
271.164669
 21
415.81419699999998
 31
0.0
  0
LINE
  5
BC6
  8
001
 10
268.99319000000003
 20
407.51419700000002
 30
0.0
 11
279.628422
 21
407.51419700000002
 31
0.0
  0
LINE
  5
BC7
  8
001
 10
271.164669
 20
405.17528399999992
 30
0.0
 11
271.164669
 21
415.81419699999998
 31
0.0
  0
LINE
  5
BC8
  8
001
 10
284.63978500000002
 20
430.40633899999989
 30
0.0
 11
279.93360000000001
 21
425.2988049999999
 31
0.0
  0
POLYLINE
  5
BC9
  8
001
 66
     1
 10
0.0
 20
0.0
 30
0.0
  0
VERTEX
  5
BCB
  8
001
 10
297.41103799999991
 20
428.07897000000003
 30
0.0
  0
VERTEX
  5
BCC
  8
001
 10
296.12024700000001
 20
428.39105899999993
 30
0.0
  0
VERTEX
  5
BCD
  8
001
 10
294.33649200000002
 20
428.7838769999999
 30
0.0
  0
VERTEX
  5
BCE
  8
001
 10
292.18026300000002
 20
429.21876299999991
 30
0.0
  0
VERTEX
  5
BCF
  8
001
 10
289.77205199999997
 20
429.65705400000002
 30
0.0
  0
VERTEX
  5
BD0
  8
001
 10
287.23235
 20
430.06009199999988
 30
0.0
  0
VERTEX
  5
BD1
  8
001
 10
285.83293300000003
 20
430.2536429999999
 30
0.0
  0
VERTEX
  5
BD2
  8
001
 10
284.63978500000002
 20
430.40633899999989
 30
0.0
  0
SEQEND
  5
BCA
  8
001
  0
ARC
  5
BD3
  8
001
 10
287.9799339999999
 20
426.391929
 30
0.0
 40
5.2222684577821958
 50
90.0
 51
129.76180500000001
  0
LINE
  5
BD4
  8
001
 10
280.702496
 20
407.49171200000001
 30
0.0
 11
279.81603999999999
 21
407.49171200000001
 31
0.0
  0
ARC
  5
BD5
  8
001
 10
280.702496
 20
408.00104299999998
 30
0.0
 40
0.5093312671580355
 50
270.0
 51
315.0
  0
LINE
  5
BD6
  8
001
 10
281.06264800000002
 20
407.64089200000001
 30
0.0
 11
281.83595300000002
 21
408.414197
 31
0.0
  0
POLYLINE
  5
BD7
  8
001
 66
     1
 10
0.0
 20
0.0
 30
0.0
  0
VERTEX
  5
BD9
  8
001
 10
282.07030500000002
 20
409.32838099999992
 30
0.0
  0
VERTEX
  5
BDA
  8
001
 10
284.405306
 20
409.59288499999991
 30
0.0
  0
VERTEX
  5
BDB
  8
001
 10
287.23235
 20
409.96830199999988
 30
0.0
  0
VERTEX
  5
BDC
  8
001
 10
289.77168599999999
 20
410.37291099999987
 30
0.0
  0
VERTEX
  5
BDD
  8
001
 10
292.17985099999999
 20
410.81139899999988
 30
0.0
  0
VERTEX
  5
BDE
  8
001
 10
294.33621699999998
 20
411.24569500000001
 30
0.0
  0
VERTEX
  5
BDF
  8
001
 10
296.12015600000001
 20
411.63772799999998
 30
0.0
  0
VERTEX
  5
BE0
  8
001
 10
297.41103799999991
 20
411.94942500000002
 30
0.0
  0
SEQEND
  5
BD8
  8
001
  0
LINE
  5
BE1
  8
001
 10
287.47147799999999
 20
414.72955400000001
 30
0.0
 11
281.15612099999998
 21
408.414197
 31
0.0
  0
ARC
  5
BE2
  8
001
 10
287.973411
 20
416.14308299999988
 30
0.0
 40
1.5
 50
250.450469
 51
112.175361
  0
CIRCLE
  5
BE3
  8
001
 10
279.81603999999999
 20
416.14308299999988
 30
0.0
 40
2.6000000000000001
  0
TEXT
  5
BE4
  8
001
 10
253.11711600000001
 20
451.321707
 30
0.0
 40
5.0
  1
ＲスペシャルＪｒ．　ＮＫ２０－０５Ｒ　（２．５Ｒ）
 41
0.833333
  0
ARC
  5
BE5
  8
001
 10
271.95866899999999
 20
416.14308299999988
 30
0.0
 40
0.7940000000000002
 50
135.0
 51
225.0
  0
ARC
  5
BE6
  8
001
 10
279.81603999999999
 20
408.28571199999988
 30
0.0
 40
0.7940000000000002
 50
225.0
 51
315.0
  0
ARC
  5
BE7
  8
001
 10
287.67341099999999
 20
416.14308299999988
 30
0.0
 40
0.7940000000000002
 50
315.0
 51
45.0
  0
LINE
  5
BE8
  8
001
 10
285.62445200000002
 20
412.97123899999991
 30
0.0
 11
285.52788399999997
 21
412.93123899999989
 31
0.0
  0
LINE
  5
BE9
  8
001
 10
282.98788400000001
 20
410.33467000000002
 30
0.0
 11
283.02788399999997
 21
410.43123900000001
 31
0.0
  0
ARC
  5
BEA
  8
001
 10
285.52788399999997
 20
410.43123900000001
 30
0.0
 40
2.5
 50
90.0
 51
180.0
  0
LINE
  5
BEB
  8
001
 10
282.98788400000001
 20
410.33467000000002
 30
0.0
 11
280.37748299999998
 21
407.72426899999999
 31
0.0
  0
LINE
  5
BEC
  8
001
 10
288.23485299999999
 20
415.58163999999988
 30
0.0
 11
285.62445200000002
 21
412.97123899999991
 31
0.0
  0
LINE
  5
BED
  8
001
 10
274.00762800000001
 20
419.3149259999999
 30
0.0
 11
274.104196
 21
419.35492599999998
 31
0.0
  0
LINE
  5
BEE
  8
001
 10
276.64419600000002
 20
421.95149500000002
 30
0.0
 11
276.604196
 21
421.85492599999992
 31
0.0
  0
ARC
  5
BEF
  8
001
 10
274.104196
 20
421.85492599999992
 30
0.0
 40
2.5
 50
270.0
 51
360.0
  0
LINE
  5
BF0
  8
001
 10
276.62466899999998
 20
410.354197
 30
0.0
 11
276.58466900000002
 21
410.45076599999999
 31
0.0
  0
LINE
  5
BF1
  8
001
 10
273.984669
 20
412.99419699999999
 30
0.0
 11
274.08123799999998
 21
412.95419700000002
 31
0.0
  0
LINE
  5
BF2
  8
001
 10
276.64419600000002
 20
421.95149500000002
 30
0.0
 11
279.25459699999999
 21
424.56189599999988
 31
0.0
  0
LINE
  5
BF3
  8
001
 10
271.39722699999999
 20
416.70452499999999
 30
0.0
 11
274.00762800000001
 21
419.3149259999999
 31
0.0
  0
LINE
  5
BF4
  8
001
 10
273.984669
 20
412.99419699999999
 30
0.0
 11
271.39722699999999
 21
415.58163999999988
 31
0.0
  0
LINE
  5
BF5
  8
001
 10
276.62466899999998
 20
410.354197
 30
0.0
 11
279.25459699999999
 21
407.72426899999999
 31
0.0
  0
ARC
  5
BF6
  8
001
 10
279.81603999999999
 20
416.14308299999988
 30
0.0
 40
3.1000000000000001
 50
75.397654000000003
 51
12.874889
  0
ARC
  5
BF7
  8
001
 10
274.08467200000001
 20
410.45419900000002
 30
0.0
 40
2.5
 50
359.92130300000002
 51
89.921303000000009
  0
LINE
  5
BF8
  8
001
 10
276.58466900000002
 20
405.17528399999992
 30
0.0
 11
276.58466900000002
 21
410.45076599999999
 31
0.0
  0
LINE
  5
BF9
  8
001
 10
268.99319000000003
 20
412.95419700000002
 30
0.0
 11
274.08123799999998
 21
412.95419700000002
 31
0.0
  0
LINE
  5
BFA
  8
001
 10
288.23485299999999
 20
416.70452499999999
 30
0.0
 11
286.654023
 21
418.28535599999992
 31
0.0
  0
ARC
  5
BFB
  8
001
 10
279.81603999999999
 20
424.00045299999999
 30
0.0
 40
0.7940000000000002
 50
76.956345999999996
 51
135.0
  0
LINE
  5
BFC
  8
001
 10
505.991353
 20
49.592533000000003
 30
0.0
 11
510.86268200000001
 21
54.612991000000001
 31
0.0
  0
LINE
  5
BFD
  8
001
 10
506.11231399999991
 20
49.592533000000003
 30
0.0
 11
505.991353
 21
49.592533000000003
 31
0.0
  0
LINE
  5
BFE
  8
001
 10
505.22037999999998
 20
48.673293999999999
 30
0.0
 11
506.11231399999991
 21
49.592533000000003
 31
0.0
  0
LINE
  5
BFF
  8
001
 10
505.18071700000002
 20
49.380400999999999
 30
0.0
 11
504.736536
 21
48.673293999999999
 31
0.0
  0
LINE
  5
C00
  8
001
 10
505.18071700000002
 20
49.380400999999999
 30
0.0
 11
508.47400999999991
 21
52.774512999999999
 31
0.0
  0
LINE
  5
C01
  8
001
 10
508.47400999999991
 20
52.774512999999999
 30
0.0
 11
510.25787700000001
 21
54.612991000000001
 31
0.0
  0
LINE
  5
C02
  8
001
 10
510.25787700000001
 20
57.441418000000013
 30
0.0
 11
506.82736399999999
 21
60.976951999999997
 31
0.0
  0
LINE
  5
C03
  8
001
 10
510.25787700000001
 20
54.612991000000001
 30
0.0
 11
510.25787700000001
 21
57.441418000000013
 31
0.0
  0
LINE
  5
C04
  8
001
 10
499.00579299999993
 20
55.744362000000002
 30
0.0
 11
505.18071700000002
 21
49.380400999999999
 31
0.0
  0
LINE
  5
C05
  8
001
 10
504.08295299999997
 20
60.976951999999997
 30
0.0
 11
502.29908599999999
 21
59.138474000000002
 31
0.0
  0
LINE
  5
C06
  8
001
 10
502.29908599999999
 20
59.138474000000002
 30
0.0
 11
499.00579299999993
 21
55.744362000000002
 31
0.0
  0
LINE
  5
C07
  8
001
 10
510.98364299999992
 20
57.441418000000013
 30
0.0
 11
510.25787700000001
 21
57.441418000000013
 31
0.0
  0
LINE
  5
C08
  8
001
 10
510.98364299999992
 20
54.612991000000001
 30
0.0
 11
510.98364299999992
 21
57.441418000000013
 31
0.0
  0
LINE
  5
C09
  8
001
 10
510.98364299999992
 20
57.441418000000013
 30
0.0
 11
507.5531289999999
 21
60.976951999999997
 31
0.0
  0
LINE
  5
C0A
  8
001
 10
498.56161200000003
 20
55.037255000000002
 30
0.0
 11
499.00579299999993
 21
55.744362000000002
 31
0.0
  0
LINE
  5
C0B
  8
001
 10
503.60625299999998
 20
48.673293999999999
 30
0.0
 11
498.80353400000001
 21
53.623041000000001
 31
0.0
  0
LINE
  5
C0C
  8
001
 10
498.80353400000001
 20
53.623041000000001
 30
0.0
 11
498.56161200000003
 21
55.037255000000002
 31
0.0
  0
LINE
  5
C0D
  8
001
 10
506.11231399999991
 20
49.592533000000003
 30
0.0
 11
506.05183299999987
 21
49.654865000000001
 31
0.0
  0
POLYLINE
  5
C0E
  8
001
 66
     1
 10
0.0
 20
0.0
 30
0.0
  0
VERTEX
  5
C10
  8
001
 10
502.29908599999999
 20
59.138474000000002
 30
0.0
  0
VERTEX
  5
C11
  8
001
 10
501.987934
 20
58.763246000000002
 30
0.0
  0
VERTEX
  5
C12
  8
001
 10
501.60519499999998
 20
58.206493999999992
 30
0.0
  0
VERTEX
  5
C13
  8
001
 10
501.25938500000001
 20
57.469225999999999
 30
0.0
  0
VERTEX
  5
C14
  8
001
 10
501.08655199999998
 20
56.73791099999999
 30
0.0
  0
VERTEX
  5
C15
  8
001
 10
501.0391489999999
 20
56.350887
 30
0.0
  0
VERTEX
  5
C16
  8
001
 10
501.020217
 20
55.956493999999992
 30
0.0
  0
VERTEX
  5
C17
  8
001
 10
501.03611199999989
 20
55.563802000000003
 30
0.0
  0
VERTEX
  5
C18
  8
001
 10
501.08655199999998
 20
55.175077000000002
 30
0.0
  0
VERTEX
  5
C19
  8
001
 10
501.28342599999991
 20
54.420202000000003
 30
0.0
  0
VERTEX
  5
C1A
  8
001
 10
501.60519499999998
 20
53.706493999999992
 30
0.0
  0
VERTEX
  5
C1B
  8
001
 10
502.29401100000001
 20
52.778153000000003
 30
0.0
  0
VERTEX
  5
C1C
  8
001
 10
503.20338299999997
 20
52.059379
 30
0.0
  0
VERTEX
  5
C1D
  8
001
 10
503.54601700000001
 20
51.877946999999999
 30
0.0
  0
VERTEX
  5
C1E
  8
001
 10
503.89317499999993
 20
51.727876999999999
 30
0.0
  0
VERTEX
  5
C1F
  8
001
 10
504.23976299999993
 20
51.609999000000002
 30
0.0
  0
VERTEX
  5
C20
  8
001
 10
504.62834299999992
 20
51.524858999999999
 30
0.0
  0
VERTEX
  5
C21
  8
001
 10
505.06645099999992
 20
51.473621999999992
 30
0.0
  0
VERTEX
  5
C22
  8
001
 10
505.386548
 20
51.456493999999992
 30
0.0
  0
SEQEND
  5
C0F
  8
001
  0
POLYLINE
  5
C23
  8
001
 66
     1
 10
0.0
 20
0.0
 30
0.0
  0
VERTEX
  5
C25
  8
001
 10
505.386548
 20
51.456493999999992
 30
0.0
  0
VERTEX
  5
C26
  8
001
 10
505.70664599999992
 20
51.473621000000001
 30
0.0
  0
VERTEX
  5
C27
  8
001
 10
506.14475299999998
 20
51.524858999999999
 30
0.0
  0
VERTEX
  5
C28
  8
001
 10
506.53332999999992
 20
51.610000999999997
 30
0.0
  0
VERTEX
  5
C29
  8
001
 10
506.87992100000002
 20
51.727876999999999
 30
0.0
  0
VERTEX
  5
C2A
  8
001
 10
507.22708799999992
 20
51.877938
 30
0.0
  0
VERTEX
  5
C2B
  8
001
 10
507.56971299999998
 20
52.059379
 30
0.0
  0
VERTEX
  5
C2C
  8
001
 10
508.47890899999999
 20
52.778337000000001
 30
0.0
  0
VERTEX
  5
C2D
  8
001
 10
509.16790099999997
 20
53.706493999999992
 30
0.0
  0
VERTEX
  5
C2E
  8
001
 10
509.490116
 20
54.419732999999987
 30
0.0
  0
VERTEX
  5
C2F
  8
001
 10
509.68654400000003
 20
55.175077000000002
 30
0.0
  0
VERTEX
  5
C30
  8
001
 10
509.73632099999998
 20
55.564498
 30
0.0
  0
VERTEX
  5
C31
  8
001
 10
509.75287900000001
 20
55.956493999999992
 30
0.0
  0
VERTEX
  5
C32
  8
001
 10
509.73622999999992
 20
56.348489999999998
 30
0.0
  0
VERTEX
  5
C33
  8
001
 10
509.68654400000003
 20
56.73791099999999
 30
0.0
  0
VERTEX
  5
C34
  8
001
 10
509.49083699999989
 20
57.493252000000012
 30
0.0
  0
VERTEX
  5
C35
  8
001
 10
509.16790099999997
 20
58.206493999999992
 30
0.0
  0
VERTEX
  5
C36
  8
001
 10
508.47390899999999
 20
59.134665000000012
 30
0.0
  0
VERTEX
  5
C37
  8
001
 10
507.56971299999998
 20
59.853607999999987
 30
0.0
  0
VERTEX
  5
C38
  8
001
 10
507.23202199999992
 20
60.035035000000001
 30
0.0
  0
VERTEX
  5
C39
  8
001
 10
506.87992100000002
 20
60.185110999999999
 30
0.0
  0
VERTEX
  5
C3A
  8
001
 10
506.51697000000001
 20
60.303033999999997
 30
0.0
  0
VERTEX
  5
C3B
  8
001
 10
506.14475299999998
 20
60.388128999999999
 30
0.0
  0
VERTEX
  5
C3C
  8
001
 10
505.76699899999988
 20
60.439191000000001
 30
0.0
  0
VERTEX
  5
C3D
  8
001
 10
505.386548
 20
60.456493999999992
 30
0.0
  0
VERTEX
  5
C3E
  8
001
 10
505.006573
 20
60.440021999999999
 30
0.0
  0
VERTEX
  5
C3F
  8
001
 10
504.62834299999992
 20
60.388128999999999
 30
0.0
  0
VERTEX
  5
C40
  8
001
 10
504.25374199999999
 20
60.300532999999987
 30
0.0
  0
VERTEX
  5
C41
  8
001
 10
503.89317499999993
 20
60.185110999999999
 30
0.0
  0
VERTEX
  5
C42
  8
001
 10
503.55017800000002
 20
60.044249999999998
 30
0.0
  0
VERTEX
  5
C43
  8
001
 10
503.20338299999997
 20
59.853607999999987
 30
0.0
  0
VERTEX
  5
C44
  8
001
 10
502.66638799999998
 20
59.462614000000002
 30
0.0
  0
VERTEX
  5
C45
  8
001
 10
502.29908599999999
 20
59.138474000000002
 30
0.0
  0
SEQEND
  5
C24
  8
001
  0
POLYLINE
  5
C46
  8
001
 66
     1
 10
0.0
 20
0.0
 30
0.0
  0
VERTEX
  5
C48
  8
001
 10
517.72201500000006
 20
44.260053999999997
 30
0.0
  0
VERTEX
  5
C49
  8
001
 10
518.18645700000002
 20
45.189819999999997
 30
0.0
  0
VERTEX
  5
C4A
  8
001
 10
518.74832300000003
 20
46.524827000000002
 30
0.0
  0
VERTEX
  5
C4B
  8
001
 10
519.31549299999995
 20
48.474080000000001
 30
0.0
  0
VERTEX
  5
C4C
  8
001
 10
519.57623299999989
 20
50.310507999999999
 30
0.0
  0
VERTEX
  5
C4D
  8
001
 10
519.65228999999988
 20
51.305990999999999
 30
0.0
  0
VERTEX
  5
C4E
  8
001
 10
519.68212300000005
 20
52.324826999999999
 30
0.0
  0
VERTEX
  5
C4F
  8
001
 10
519.65228999999988
 20
53.343662999999999
 30
0.0
  0
VERTEX
  5
C50
  8
001
 10
519.57623299999989
 20
54.339146
 30
0.0
  0
VERTEX
  5
C51
  8
001
 10
519.31549299999995
 20
56.175573
 30
0.0
  0
VERTEX
  5
C52
  8
001
 10
518.74832300000003
 20
58.124827000000003
 30
0.0
  0
VERTEX
  5
C53
  8
001
 10
518.18645700000002
 20
59.459832999999989
 30
0.0
  0
VERTEX
  5
C54
  8
001
 10
517.72201500000006
 20
60.389598999999997
 30
0.0
  0
SEQEND
  5
C47
  8
001
  0
LINE
  5
C55
  8
001
 10
517.72201500000006
 20
60.389598999999997
 30
0.0
 11
517.72201500000006
 21
44.260053999999997
 31
0.0
  0
LINE
  5
C56
  8
001
 10
500.24457599999988
 20
57.609434999999991
 30
0.0
 11
500.537396
 21
57.322851999999997
 31
0.0
  0
LINE
  5
C57
  8
001
 10
510.98364299999992
 20
54.612991000000001
 30
0.0
 11
510.25787700000001
 21
54.612991000000001
 31
0.0
  0
LINE
  5
C58
  8
001
 10
505.22037999999998
 20
48.673293999999999
 30
0.0
 11
503.60625299999998
 21
48.673293999999999
 31
0.0
  0
LINE
  5
C59
  8
001
 10
507.5531289999999
 20
60.976951999999997
 30
0.0
 11
504.08295299999997
 21
60.976951999999997
 31
0.0
  0
LINE
  5
C5A
  8
001
 10
506.84929199999988
 20
56.797899999999998
 30
0.0
 11
506.84929199999988
 21
55.065849999999998
 31
0.0
  0
LINE
  5
C5B
  8
001
 10
503.84929199999999
 20
55.065849999999998
 30
0.0
 11
503.84929199999999
 21
56.797899999999998
 31
0.0
  0
LINE
  5
C5C
  8
001
 10
503.84929199999999
 20
56.797899999999998
 30
0.0
 11
505.34929199999999
 21
57.663925999999996
 31
0.0
  0
LINE
  5
C5D
  8
001
 10
506.84929199999988
 20
55.065849999999998
 30
0.0
 11
505.34929199999999
 21
54.199824
 31
0.0
  0
LINE
  5
C5E
  8
001
 10
505.34929199999999
 20
54.199824
 30
0.0
 11
503.84929199999999
 21
55.065849999999998
 31
0.0
  0
LINE
  5
C5F
  8
001
 10
506.84929199999988
 20
56.797899999999998
 30
0.0
 11
505.34929199999999
 21
57.663925999999996
 31
0.0
  0
LINE
  5
C60
  8
001
 10
611.47564599999987
 20
52.324826999999999
 30
0.0
 11
614.07372199999998
 21
53.824826999999999
 31
0.0
  0
LINE
  5
C61
  8
001
 10
611.47564599999987
 20
52.324826999999999
 30
0.0
 11
614.07372199999998
 21
50.824826999999992
 31
0.0
  0
LINE
  5
C62
  8
001
  6
CENTER
 10
489.30416700000001
 20
52.324826999999999
 30
0.0
 11
613.92633599999999
 21
52.324826999999999
 31
0.0
  0
LINE
  5
C63
  8
001
  6
PHANTOM
 10
491.47564599999993
 20
48.124827000000003
 30
0.0
 11
491.47564599999993
 21
48.453712000000003
 31
0.0
  0
LINE
  5
C64
  8
001
  6
PHANTOM
 10
491.70820300000003
 20
47.892270000000003
 30
0.0
 11
491.47564599999993
 21
48.124827000000003
 31
0.0
  0
LINE
  5
C65
  8
001
 10
489.30416700000001
 20
39.824826999999999
 30
0.0
 11
499.93939799999998
 21
39.824826999999999
 31
0.0
  0
LINE
  5
C66
  8
001
 10
504.950761
 20
62.716968999999992
 30
0.0
 11
500.24457599999988
 21
57.609434999999991
 31
0.0
  0
POLYLINE
  5
C67
  8
001
 66
     1
 10
0.0
 20
0.0
 30
0.0
  0
VERTEX
  5
C69
  8
001
 10
517.72201500000006
 20
60.389598999999997
 30
0.0
  0
VERTEX
  5
C6A
  8
001
 10
516.43122400000004
 20
60.701689000000002
 30
0.0
  0
VERTEX
  5
C6B
  8
001
 10
514.64746799999989
 20
61.094507
 30
0.0
  0
VERTEX
  5
C6C
  8
001
 10
512.49123899999995
 20
61.529392000000001
 30
0.0
  0
VERTEX
  5
C6D
  8
001
 10
510.08302900000001
 20
61.967683999999991
 30
0.0
  0
VERTEX
  5
C6E
  8
001
 10
507.54332699999992
 20
62.370722000000001
 30
0.0
  0
VERTEX
  5
C6F
  8
001
 10
506.14390900000001
 20
62.564273
 30
0.0
  0
VERTEX
  5
C70
  8
001
 10
504.950761
 20
62.716968999999992
 30
0.0
  0
SEQEND
  5
C68
  8
001
  0
ARC
  5
C71
  8
001
 10
508.29091100000011
 20
58.702557999999989
 30
0.0
 40
5.2222684577821958
 50
90.0
 51
129.76180500000001
  0
LINE
  5
C72
  8
001
 10
501.01347299999998
 20
39.802342000000003
 30
0.0
 11
500.12701699999991
 21
39.802342000000003
 31
0.0
  0
ARC
  5
C73
  8
001
 10
501.01347299999998
 20
40.311672999999992
 30
0.0
 40
0.5093312671580355
 50
270.0
 51
315.0
  0
LINE
  5
C74
  8
001
 10
501.373625
 20
39.951521999999997
 30
0.0
 11
502.14692999999988
 21
40.724827000000012
 31
0.0
  0
POLYLINE
  5
C75
  8
001
 66
     1
 10
0.0
 20
0.0
 30
0.0
  0
VERTEX
  5
C77
  8
001
 10
502.38128099999989
 20
41.639009999999999
 30
0.0
  0
VERTEX
  5
C78
  8
001
 10
504.71628199999998
 20
41.903515000000013
 30
0.0
  0
VERTEX
  5
C79
  8
001
 10
507.54332699999992
 20
42.27893199999999
 30
0.0
  0
VERTEX
  5
C7A
  8
001
 10
510.08266299999991
 20
42.683540000000001
 30
0.0
  0
VERTEX
  5
C7B
  8
001
 10
512.49082799999996
 20
43.122028999999991
 30
0.0
  0
VERTEX
  5
C7C
  8
001
 10
514.64719400000001
 20
43.556325000000001
 30
0.0
  0
VERTEX
  5
C7D
  8
001
 10
516.43113200000005
 20
43.948357000000001
 30
0.0
  0
VERTEX
  5
C7E
  8
001
 10
517.72201500000006
 20
44.260053999999997
 30
0.0
  0
SEQEND
  5
C76
  8
001
  0
LINE
  5
C7F
  8
001
 10
507.78245499999991
 20
47.040184000000004
 30
0.0
 11
501.46709800000002
 21
40.724827000000012
 31
0.0
  0
ARC
  5
C80
  8
001
 10
508.28438699999998
 20
48.453712000000003
 30
0.0
 40
1.5
 50
250.450469
 51
112.175361
  0
CIRCLE
  5
C81
  8
001
 10
500.12701699999991
 20
48.453712000000003
 30
0.0
 40
2.6000000000000001
  0
ARC
  5
C82
  8
001
 10
500.12701699999991
 20
48.453712000000003
 30
0.0
 40
3.1000000000000001
 50
75.397654000000003
 51
12.874889
  0
TEXT
  5
C83
  8
001
 10
473.42809299999988
 20
83.632335999999995
 30
0.0
 40
5.0
  1
ＲスペシャルＪｒ．　ＮＫ２０－０５Ｒ　（１．５Ｒ）
 41
0.833333
  0
ARC
  5
C84
  8
001
 10
492.26964600000002
 20
48.453712000000003
 30
0.0
 40
0.7940000000000002
 50
135.0
 51
225.0
  0
ARC
  5
C85
  8
001
 10
500.12701699999991
 20
40.596342
 30
0.0
 40
0.7940000000000002
 50
225.0
 51
315.0
  0
ARC
  5
C86
  8
001
 10
507.98438700000003
 20
48.453712000000003
 30
0.0
 40
0.7940000000000002
 50
315.0
 51
45.0
  0
LINE
  5
C87
  8
001
 10
505.435429
 20
44.781868999999993
 30
0.0
 11
505.3388599999999
 21
44.741869000000001
 31
0.0
  0
LINE
  5
C88
  8
001
 10
503.79885999999999
 20
43.145299999999999
 30
0.0
 11
503.8388599999999
 21
43.241868999999987
 31
0.0
  0
ARC
  5
C89
  8
001
 10
505.3388599999999
 20
43.241868999999987
 30
0.0
 40
1.5
 50
90.0
 51
180.0
  0
LINE
  5
C8A
  8
001
 10
503.79885999999999
 20
43.145299999999999
 30
0.0
 11
500.68845899999991
 21
40.034898999999989
 31
0.0
  0
LINE
  5
C8B
  8
001
 10
508.54582999999991
 20
47.892270000000003
 30
0.0
 11
505.435429
 21
44.781868999999993
 31
0.0
  0
LINE
  5
C8C
  8
001
 10
494.81860399999999
 20
52.125556000000003
 30
0.0
 11
494.91517299999998
 21
52.165556000000002
 31
0.0
  0
LINE
  5
C8D
  8
001
 10
496.45517300000012
 20
53.762124999999997
 30
0.0
 11
496.41517299999998
 21
53.665556000000002
 31
0.0
  0
ARC
  5
C8E
  8
001
 10
494.91517299999998
 20
53.665556000000002
 30
0.0
 40
1.5
 50
270.0
 51
360.0
  0
LINE
  5
C8F
  8
001
 10
496.395646
 20
43.261395
 30
0.0
 11
496.43564600000002
 21
43.164827000000002
 31
0.0
  0
LINE
  5
C90
  8
001
 10
494.88221399999992
 20
44.774827000000002
 30
0.0
 11
494.78564599999987
 21
44.814826999999987
 31
0.0
  0
LINE
  5
C91
  8
001
 10
496.45517300000012
 20
53.762124999999997
 30
0.0
 11
499.56557400000003
 21
56.872526000000001
 31
0.0
  0
LINE
  5
C92
  8
001
 10
491.70820300000003
 20
49.015155
 30
0.0
 11
494.81860399999999
 21
52.125556000000003
 31
0.0
  0
LINE
  5
C93
  8
001
 10
494.78564599999987
 20
44.814826999999987
 30
0.0
 11
491.70820300000003
 21
47.892270000000003
 31
0.0
  0
LINE
  5
C94
  8
001
 10
496.43564600000002
 20
43.164827000000002
 30
0.0
 11
499.56557400000003
 21
40.034898999999989
 31
0.0
  0
LINE
  5
C95
  8
001
 10
491.47564599999993
 20
37.485914000000001
 30
0.0
 11
491.47564599999993
 21
48.453712000000003
 31
0.0
  0
LINE
  5
C96
  8
001
 10
496.395646
 20
43.261395
 30
0.0
 11
496.395646
 21
37.485914000000001
 31
0.0
  0
LINE
  5
C97
  8
001
 10
494.909199
 20
44.774827000000002
 30
0.0
 11
489.30416700000001
 21
44.774827000000002
 31
0.0
  0
ARC
  5
C98
  8
001
 10
494.89570700000002
 20
43.274887999999997
 30
0.0
 40
1.5
 50
359.48463099999998
 51
89.484631000000007
  0
ARC
  5
C99
  8
001
 10
500.12701699999991
 20
56.311083000000004
 30
0.0
 40
0.7940000000000002
 50
76.956345999999996
 51
135.0
  0
LINE
  5
C9A
  8
001
 10
508.54582999999991
 20
49.015155
 30
0.0
 11
506.96499899999998
 21
50.595986000000003
 31
0.0
  0
LINE
  5
C9B
  8
001
 10
505.991353
 20
175.399743
 30
0.0
 11
510.86268200000001
 21
180.42020099999999
 31
0.0
  0
LINE
  5
C9C
  8
001
 10
506.11231399999991
 20
175.399743
 30
0.0
 11
505.991353
 21
175.399743
 31
0.0
  0
LINE
  5
C9D
  8
001
 10
505.22037999999998
 20
174.480504
 30
0.0
 11
506.11231399999991
 21
175.399743
 31
0.0
  0
LINE
  5
C9E
  8
001
 10
505.18071700000002
 20
175.187611
 30
0.0
 11
504.736536
 21
174.480504
 31
0.0
  0
LINE
  5
C9F
  8
001
 10
505.18071700000002
 20
175.187611
 30
0.0
 11
508.47400999999991
 21
178.58172400000001
 31
0.0
  0
LINE
  5
CA0
  8
001
 10
508.47400999999991
 20
178.58172400000001
 30
0.0
 11
510.25787700000001
 21
180.42020099999999
 31
0.0
  0
LINE
  5
CA1
  8
001
 10
510.25787700000001
 20
183.248628
 30
0.0
 11
506.82736399999999
 21
186.78416200000001
 31
0.0
  0
LINE
  5
CA2
  8
001
 10
510.25787700000001
 20
180.42020099999999
 30
0.0
 11
510.25787700000001
 21
183.248628
 31
0.0
  0
LINE
  5
CA3
  8
001
 10
499.00579299999993
 20
181.55157199999999
 30
0.0
 11
505.18071700000002
 21
175.187611
 31
0.0
  0
LINE
  5
CA4
  8
001
 10
504.08295299999997
 20
186.78416200000001
 30
0.0
 11
502.29908599999999
 21
184.945685
 31
0.0
  0
LINE
  5
CA5
  8
001
 10
502.29908599999999
 20
184.945685
 30
0.0
 11
499.00579299999993
 21
181.55157199999999
 31
0.0
  0
LINE
  5
CA6
  8
001
 10
510.98364299999992
 20
183.248628
 30
0.0
 11
510.25787700000001
 21
183.248628
 31
0.0
  0
LINE
  5
CA7
  8
001
 10
510.98364299999992
 20
180.42020099999999
 30
0.0
 11
510.98364299999992
 21
183.248628
 31
0.0
  0
LINE
  5
CA8
  8
001
 10
510.98364299999992
 20
183.248628
 30
0.0
 11
507.5531289999999
 21
186.78416200000001
 31
0.0
  0
LINE
  5
CA9
  8
001
 10
498.56161200000003
 20
180.84446500000001
 30
0.0
 11
499.00579299999993
 21
181.55157199999999
 31
0.0
  0
LINE
  5
CAA
  8
001
 10
503.60625299999998
 20
174.480504
 30
0.0
 11
498.80353400000001
 21
179.430252
 31
0.0
  0
LINE
  5
CAB
  8
001
 10
498.80353400000001
 20
179.430252
 30
0.0
 11
498.56161200000003
 21
180.84446500000001
 31
0.0
  0
LINE
  5
CAC
  8
001
 10
506.11231399999991
 20
175.399743
 30
0.0
 11
506.05183299999987
 21
175.462075
 31
0.0
  0
POLYLINE
  5
CAD
  8
001
 66
     1
 10
0.0
 20
0.0
 30
0.0
  0
VERTEX
  5
CAF
  8
001
 10
502.29908599999999
 20
184.945685
 30
0.0
  0
VERTEX
  5
CB0
  8
001
 10
501.987934
 20
184.57045600000001
 30
0.0
  0
VERTEX
  5
CB1
  8
001
 10
501.60519499999998
 20
184.01370399999999
 30
0.0
  0
VERTEX
  5
CB2
  8
001
 10
501.25938500000001
 20
183.27643699999999
 30
0.0
  0
VERTEX
  5
CB3
  8
001
 10
501.08655199999998
 20
182.54512099999999
 30
0.0
  0
VERTEX
  5
CB4
  8
001
 10
501.0391489999999
 20
182.158098
 30
0.0
  0
VERTEX
  5
CB5
  8
001
 10
501.020217
 20
181.76370399999999
 30
0.0
  0
VERTEX
  5
CB6
  8
001
 10
501.03611199999989
 20
181.37101200000001
 30
0.0
  0
VERTEX
  5
CB7
  8
001
 10
501.08655199999998
 20
180.98228700000001
 30
0.0
  0
VERTEX
  5
CB8
  8
001
 10
501.28342599999991
 20
180.2274129999999
 30
0.0
  0
VERTEX
  5
CB9
  8
001
 10
501.60519499999998
 20
179.51370399999999
 30
0.0
  0
VERTEX
  5
CBA
  8
001
 10
502.29401100000001
 20
178.585363
 30
0.0
  0
VERTEX
  5
CBB
  8
001
 10
503.20338299999997
 20
177.86659
 30
0.0
  0
VERTEX
  5
CBC
  8
001
 10
503.54601700000001
 20
177.685158
 30
0.0
  0
VERTEX
  5
CBD
  8
001
 10
503.89317499999993
 20
177.535087
 30
0.0
  0
VERTEX
  5
CBE
  8
001
 10
504.23976299999993
 20
177.41720900000001
 30
0.0
  0
VERTEX
  5
CBF
  8
001
 10
504.62834299999992
 20
177.33206899999999
 30
0.0
  0
VERTEX
  5
CC0
  8
001
 10
505.06645099999992
 20
177.280832
 30
0.0
  0
VERTEX
  5
CC1
  8
001
 10
505.386548
 20
177.26370399999999
 30
0.0
  0
SEQEND
  5
CAE
  8
001
  0
POLYLINE
  5
CC2
  8
001
 66
     1
 10
0.0
 20
0.0
 30
0.0
  0
VERTEX
  5
CC4
  8
001
 10
505.386548
 20
177.26370399999999
 30
0.0
  0
VERTEX
  5
CC5
  8
001
 10
505.70664599999992
 20
177.280832
 30
0.0
  0
VERTEX
  5
CC6
  8
001
 10
506.14475299999998
 20
177.33206899999999
 30
0.0
  0
VERTEX
  5
CC7
  8
001
 10
506.53332999999992
 20
177.41721200000001
 30
0.0
  0
VERTEX
  5
CC8
  8
001
 10
506.87992100000002
 20
177.535087
 30
0.0
  0
VERTEX
  5
CC9
  8
001
 10
507.22708799999992
 20
177.685148
 30
0.0
  0
VERTEX
  5
CCA
  8
001
 10
507.56971299999998
 20
177.86659
 30
0.0
  0
VERTEX
  5
CCB
  8
001
 10
508.47890899999999
 20
178.58554799999999
 30
0.0
  0
VERTEX
  5
CCC
  8
001
 10
509.16790099999997
 20
179.51370399999999
 30
0.0
  0
VERTEX
  5
CCD
  8
001
 10
509.490116
 20
180.226944
 30
0.0
  0
VERTEX
  5
CCE
  8
001
 10
509.68654400000003
 20
180.98228700000001
 30
0.0
  0
VERTEX
  5
CCF
  8
001
 10
509.73632099999998
 20
181.37170900000001
 30
0.0
  0
VERTEX
  5
CD0
  8
001
 10
509.75287900000001
 20
181.76370399999999
 30
0.0
  0
VERTEX
  5
CD1
  8
001
 10
509.73622999999992
 20
182.1557
 30
0.0
  0
VERTEX
  5
CD2
  8
001
 10
509.68654400000003
 20
182.54512099999999
 30
0.0
  0
VERTEX
  5
CD3
  8
001
 10
509.49083699999989
 20
183.30046299999989
 30
0.0
  0
VERTEX
  5
CD4
  8
001
 10
509.16790099999997
 20
184.01370399999999
 30
0.0
  0
VERTEX
  5
CD5
  8
001
 10
508.47390899999999
 20
184.94187500000001
 30
0.0
  0
VERTEX
  5
CD6
  8
001
 10
507.56971299999998
 20
185.660819
 30
0.0
  0
VERTEX
  5
CD7
  8
001
 10
507.23202199999992
 20
185.84224599999999
 30
0.0
  0
VERTEX
  5
CD8
  8
001
 10
506.87992100000002
 20
185.992321
 30
0.0
  0
VERTEX
  5
CD9
  8
001
 10
506.51697000000001
 20
186.11024499999999
 30
0.0
  0
VERTEX
  5
CDA
  8
001
 10
506.14475299999998
 20
186.19533899999999
 30
0.0
  0
VERTEX
  5
CDB
  8
001
 10
505.76699899999988
 20
186.24640099999999
 30
0.0
  0
VERTEX
  5
CDC
  8
001
 10
505.386548
 20
186.26370399999999
 30
0.0
  0
VERTEX
  5
CDD
  8
001
 10
505.006573
 20
186.24723299999999
 30
0.0
  0
VERTEX
  5
CDE
  8
001
 10
504.62834299999992
 20
186.19533899999999
 30
0.0
  0
VERTEX
  5
CDF
  8
001
 10
504.25374199999999
 20
186.107744
 30
0.0
  0
VERTEX
  5
CE0
  8
001
 10
503.89317499999993
 20
185.992321
 30
0.0
  0
VERTEX
  5
CE1
  8
001
 10
503.55017800000002
 20
185.851461
 30
0.0
  0
VERTEX
  5
CE2
  8
001
 10
503.20338299999997
 20
185.660819
 30
0.0
  0
VERTEX
  5
CE3
  8
001
 10
502.66638799999998
 20
185.269825
 30
0.0
  0
VERTEX
  5
CE4
  8
001
 10
502.29908599999999
 20
184.945685
 30
0.0
  0
SEQEND
  5
CC3
  8
001
  0
POLYLINE
  5
CE5
  8
001
 66
     1
 10
0.0
 20
0.0
 30
0.0
  0
VERTEX
  5
CE7
  8
001
 10
517.72201500000006
 20
170.06726499999999
 30
0.0
  0
VERTEX
  5
CE8
  8
001
 10
518.18645700000002
 20
170.99703099999999
 30
0.0
  0
VERTEX
  5
CE9
  8
001
 10
518.74832300000003
 20
172.33203700000001
 30
0.0
  0
VERTEX
  5
CEA
  8
001
 10
519.31549299999995
 20
174.28129100000001
 30
0.0
  0
VERTEX
  5
CEB
  8
001
 10
519.57623299999989
 20
176.117718
 30
0.0
  0
VERTEX
  5
CEC
  8
001
 10
519.65228999999988
 20
177.113201
 30
0.0
  0
VERTEX
  5
CED
  8
001
 10
519.68212300000005
 20
178.132037
 30
0.0
  0
VERTEX
  5
CEE
  8
001
 10
519.65228999999988
 20
179.15087299999999
 30
0.0
  0
VERTEX
  5
CEF
  8
001
 10
519.57623299999989
 20
180.146356
 30
0.0
  0
VERTEX
  5
CF0
  8
001
 10
519.31549299999995
 20
181.98278400000001
 30
0.0
  0
VERTEX
  5
CF1
  8
001
 10
518.74832300000003
 20
183.93203700000001
 30
0.0
  0
VERTEX
  5
CF2
  8
001
 10
518.18645700000002
 20
185.267044
 30
0.0
  0
VERTEX
  5
CF3
  8
001
 10
517.72201500000006
 20
186.19681
 30
0.0
  0
SEQEND
  5
CE6
  8
001
  0
LINE
  5
CF4
  8
001
 10
517.72201500000006
 20
186.19681
 30
0.0
 11
517.72201500000006
 21
170.06726499999999
 31
0.0
  0
LINE
  5
CF5
  8
001
 10
500.24457599999988
 20
183.41664499999999
 30
0.0
 11
500.537396
 21
183.13006300000001
 31
0.0
  0
LINE
  5
CF6
  8
001
 10
510.98364299999992
 20
180.42020099999999
 30
0.0
 11
510.25787700000001
 21
180.42020099999999
 31
0.0
  0
LINE
  5
CF7
  8
001
 10
505.22037999999998
 20
174.480504
 30
0.0
 11
503.60625299999998
 21
174.480504
 31
0.0
  0
LINE
  5
CF8
  8
001
 10
507.5531289999999
 20
186.78416200000001
 30
0.0
 11
504.08295299999997
 21
186.78416200000001
 31
0.0
  0
LINE
  5
CF9
  8
001
 10
506.84929199999988
 20
182.60511099999999
 30
0.0
 11
506.84929199999988
 21
180.87306000000001
 31
0.0
  0
LINE
  5
CFA
  8
001
 10
503.84929199999999
 20
180.87306000000001
 30
0.0
 11
503.84929199999999
 21
182.60511099999999
 31
0.0
  0
LINE
  5
CFB
  8
001
 10
503.84929199999999
 20
182.60511099999999
 30
0.0
 11
505.34929199999999
 21
183.471136
 31
0.0
  0
LINE
  5
CFC
  8
001
 10
506.84929199999988
 20
180.87306000000001
 30
0.0
 11
505.34929199999999
 21
180.007035
 31
0.0
  0
LINE
  5
CFD
  8
001
 10
505.34929199999999
 20
180.007035
 30
0.0
 11
503.84929199999999
 21
180.87306000000001
 31
0.0
  0
LINE
  5
CFE
  8
001
 10
506.84929199999988
 20
182.60511099999999
 30
0.0
 11
505.34929199999999
 21
183.471136
 31
0.0
  0
LINE
  5
CFF
  8
001
 10
611.47564599999987
 20
178.132037
 30
0.0
 11
614.07372199999998
 21
179.632037
 31
0.0
  0
LINE
  5
D00
  8
001
 10
611.47564599999987
 20
178.132037
 30
0.0
 11
614.07372199999998
 21
176.632037
 31
0.0
  0
LINE
  5
D01
  8
001
  6
CENTER
 10
489.30416700000001
 20
178.132037
 30
0.0
 11
613.92633599999999
 21
178.132037
 31
0.0
  0
LINE
  5
D02
  8
001
  6
PHANTOM
 10
491.47564599999993
 20
173.93203700000001
 30
0.0
 11
491.47564599999993
 21
174.26092299999999
 31
0.0
  0
LINE
  5
D03
  8
001
  6
PHANTOM
 10
491.70820300000003
 20
173.69947999999999
 30
0.0
 11
491.47564599999993
 21
173.93203700000001
 31
0.0
  0
LINE
  5
D04
  8
001
 10
489.30416700000001
 20
165.632037
 30
0.0
 11
499.93939799999998
 21
165.632037
 31
0.0
  0
LINE
  5
D05
  8
001
 10
504.950761
 20
188.524179
 30
0.0
 11
500.24457599999988
 21
183.41664499999999
 31
0.0
  0
POLYLINE
  5
D06
  8
001
 66
     1
 10
0.0
 20
0.0
 30
0.0
  0
VERTEX
  5
D08
  8
001
 10
517.72201500000006
 20
186.19681
 30
0.0
  0
VERTEX
  5
D09
  8
001
 10
516.43122400000004
 20
186.50889900000001
 30
0.0
  0
VERTEX
  5
D0A
  8
001
 10
514.64746799999989
 20
186.90171699999999
 30
0.0
  0
VERTEX
  5
D0B
  8
001
 10
512.49123899999995
 20
187.336603
 30
0.0
  0
VERTEX
  5
D0C
  8
001
 10
510.08302900000001
 20
187.77489499999999
 30
0.0
  0
VERTEX
  5
D0D
  8
001
 10
507.54332699999992
 20
188.177932
 30
0.0
  0
VERTEX
  5
D0E
  8
001
 10
506.14390900000001
 20
188.37148400000001
 30
0.0
  0
VERTEX
  5
D0F
  8
001
 10
504.950761
 20
188.524179
 30
0.0
  0
SEQEND
  5
D07
  8
001
  0
ARC
  5
D10
  8
001
 10
508.29091100000011
 20
184.50976900000001
 30
0.0
 40
5.2222684577821958
 50
90.0
 51
129.76180500000001
  0
LINE
  5
D11
  8
001
 10
501.01347299999998
 20
165.60955200000001
 30
0.0
 11
500.12701699999991
 21
165.60955200000001
 31
0.0
  0
ARC
  5
D12
  8
001
 10
501.01347299999998
 20
166.11888400000001
 30
0.0
 40
0.5093312671580355
 50
270.0
 51
315.0
  0
LINE
  5
D13
  8
001
 10
501.373625
 20
165.75873200000001
 30
0.0
 11
502.14692999999988
 21
166.532037
 31
0.0
  0
POLYLINE
  5
D14
  8
001
 66
     1
 10
0.0
 20
0.0
 30
0.0
  0
VERTEX
  5
D16
  8
001
 10
502.38128099999989
 20
167.44622100000001
 30
0.0
  0
VERTEX
  5
D17
  8
001
 10
504.71628199999998
 20
167.71072599999999
 30
0.0
  0
VERTEX
  5
D18
  8
001
 10
507.54332699999992
 20
168.08614299999999
 30
0.0
  0
VERTEX
  5
D19
  8
001
 10
510.08266299999991
 20
168.49075099999999
 30
0.0
  0
VERTEX
  5
D1A
  8
001
 10
512.49082799999996
 20
168.929239
 30
0.0
  0
VERTEX
  5
D1B
  8
001
 10
514.64719400000001
 20
169.36353500000001
 30
0.0
  0
VERTEX
  5
D1C
  8
001
 10
516.43113200000005
 20
169.7555679999999
 30
0.0
  0
VERTEX
  5
D1D
  8
001
 10
517.72201500000006
 20
170.06726499999999
 30
0.0
  0
SEQEND
  5
D15
  8
001
  0
LINE
  5
D1E
  8
001
 10
507.78245499999991
 20
172.84739400000001
 30
0.0
 11
501.46709800000002
 21
166.532037
 31
0.0
  0
ARC
  5
D1F
  8
001
 10
508.28438699999998
 20
174.26092299999999
 30
0.0
 40
1.5
 50
250.450469
 51
112.175361
  0
CIRCLE
  5
D20
  8
001
 10
500.12701699999991
 20
174.26092299999999
 30
0.0
 40
2.6000000000000001
  0
ARC
  5
D21
  8
001
 10
500.12701699999991
 20
174.26092299999999
 30
0.0
 40
3.1000000000000001
 50
75.397654000000003
 51
12.874889
  0
LINE
  5
D22
  8
001
 10
491.47564599999993
 20
163.29312400000001
 30
0.0
 11
491.47564599999993
 21
174.26092299999999
 31
0.0
  0
TEXT
  5
D23
  8
001
 10
470.92809299999999
 20
209.439547
 30
0.0
 40
5.0
  1
ＲスペシャルＪｒ．　ＮＫ２０－０５Ｒ　（０．７５Ｒ）
 41
0.833333
  0
ARC
  5
D24
  8
001
 10
492.26964600000002
 20
174.26092299999999
 30
0.0
 40
0.7940000000000002
 50
135.0
 51
225.0
  0
ARC
  5
D25
  8
001
 10
500.12701699999991
 20
166.40355199999999
 30
0.0
 40
0.7940000000000002
 50
225.0
 51
315.0
  0
ARC
  5
D26
  8
001
 10
507.98438700000003
 20
174.26092299999999
 30
0.0
 40
0.7940000000000002
 50
315.0
 51
45.0
  0
LINE
  5
D27
  8
001
 10
505.06042899999989
 20
170.214079
 30
0.0
 11
504.9638599999999
 21
170.17407900000001
 31
0.0
  0
LINE
  5
D28
  8
001
 10
504.17385999999999
 20
169.32751099999999
 30
0.0
 11
504.2138599999999
 21
169.42407900000001
 31
0.0
  0
ARC
  5
D29
  8
001
 10
504.9638599999999
 20
169.42407900000001
 30
0.0
 40
0.75
 50
90.0
 51
180.0
  0
LINE
  5
D2A
  8
001
 10
508.54582999999991
 20
173.69947999999999
 30
0.0
 11
505.06042899999989
 21
170.214079
 31
0.0
  0
LINE
  5
D2B
  8
001
 10
504.17385999999999
 20
169.32751099999999
 30
0.0
 11
500.68845899999991
 21
165.84210999999999
 31
0.0
  0
LINE
  5
D2C
  8
001
 10
495.19360399999988
 20
178.30776700000001
 30
0.0
 11
495.29017299999998
 21
178.347767
 31
0.0
  0
LINE
  5
D2D
  8
001
 10
496.080173
 20
179.194335
 30
0.0
 11
496.04017299999998
 21
179.097767
 31
0.0
  0
ARC
  5
D2E
  8
001
 10
495.29017299999998
 20
179.097767
 30
0.0
 40
0.75
 50
270.0
 51
360.0
  0
LINE
  5
D2F
  8
001
 10
496.06564600000002
 20
169.342037
 30
0.0
 11
496.02564599999999
 21
169.43860599999999
 31
0.0
  0
LINE
  5
D30
  8
001
 10
495.16564599999992
 20
170.24203700000001
 30
0.0
 11
495.26221399999991
 21
170.20203699999999
 31
0.0
  0
LINE
  5
D31
  8
001
 10
496.080173
 20
179.194335
 30
0.0
 11
499.56557400000003
 21
182.67973599999999
 31
0.0
  0
LINE
  5
D32
  8
001
 10
491.70820300000003
 20
174.82236599999999
 30
0.0
 11
495.19360399999988
 21
178.30776700000001
 31
0.0
  0
LINE
  5
D33
  8
001
 10
495.16564599999992
 20
170.24203700000001
 30
0.0
 11
491.70820300000003
 21
173.69947999999999
 31
0.0
  0
LINE
  5
D34
  8
001
 10
496.06564600000002
 20
169.342037
 30
0.0
 11
499.56557400000003
 21
165.84210999999999
 31
0.0
  0
LINE
  5
D35
  8
001
 10
508.54582999999991
 20
174.82236599999999
 30
0.0
 11
506.96499899999998
 21
176.40319600000001
 31
0.0
  0
ARC
  5
D36
  8
001
 10
500.12701699999991
 20
182.11829299999999
 30
0.0
 40
0.7940000000000002
 50
76.956345999999996
 51
135.0
  0
ARC
  5
D37
  8
001
 10
495.27576799999991
 20
169.45215999999999
 30
0.0
 40
0.75
 50
358.96449899999999
 51
91.035500999999996
  0
LINE
  5
D38
  8
001
 10
489.30416700000001
 20
170.20203699999999
 30
0.0
 11
495.26221399999991
 21
170.20203699999999
 31
0.0
  0
LINE
  5
D39
  8
001
 10
496.02564599999999
 20
163.29312400000001
 30
0.0
 11
496.02564599999999
 21
169.43860599999999
 31
0.0
  0
LINE
  5
D3A
  8
001
 10
505.991353
 20
293.93291900000003
 30
0.0
 11
510.86268200000001
 21
298.95337699999999
 31
0.0
  0
LINE
  5
D3B
  8
001
 10
506.11231399999991
 20
293.93291900000003
 30
0.0
 11
505.991353
 21
293.93291900000003
 31
0.0
  0
LINE
  5
D3C
  8
001
 10
505.22037999999998
 20
293.01368000000002
 30
0.0
 11
506.11231399999991
 21
293.93291900000003
 31
0.0
  0
LINE
  5
D3D
  8
001
 10
505.18071700000002
 20
293.72078699999997
 30
0.0
 11
504.736536
 21
293.01368000000002
 31
0.0
  0
LINE
  5
D3E
  8
001
 10
505.18071700000002
 20
293.72078699999997
 30
0.0
 11
508.47400999999991
 21
297.11489900000009
 31
0.0
  0
LINE
  5
D3F
  8
001
 10
508.47400999999991
 20
297.11489900000009
 30
0.0
 11
510.25787700000001
 21
298.95337699999999
 31
0.0
  0
LINE
  5
D40
  8
001
 10
510.25787700000001
 20
301.78180400000002
 30
0.0
 11
506.82736399999999
 21
305.31733800000001
 31
0.0
  0
LINE
  5
D41
  8
001
 10
510.25787700000001
 20
298.95337699999999
 30
0.0
 11
510.25787700000001
 21
301.78180400000002
 31
0.0
  0
LINE
  5
D42
  8
001
 10
499.00579299999993
 20
300.08474799999999
 30
0.0
 11
505.18071700000002
 21
293.72078699999997
 31
0.0
  0
LINE
  5
D43
  8
001
 10
504.08295299999997
 20
305.31733800000001
 30
0.0
 11
502.29908599999999
 21
303.47886
 31
0.0
  0
LINE
  5
D44
  8
001
 10
502.29908599999999
 20
303.47886
 30
0.0
 11
499.00579299999993
 21
300.08474799999999
 31
0.0
  0
LINE
  5
D45
  8
001
 10
510.98364299999992
 20
301.78180400000002
 30
0.0
 11
510.25787700000001
 21
301.78180400000002
 31
0.0
  0
LINE
  5
D46
  8
001
 10
510.98364299999992
 20
298.95337699999999
 30
0.0
 11
510.98364299999992
 21
301.78180400000002
 31
0.0
  0
LINE
  5
D47
  8
001
 10
510.98364299999992
 20
301.78180400000002
 30
0.0
 11
507.5531289999999
 21
305.31733800000001
 31
0.0
  0
LINE
  5
D48
  8
001
 10
498.56161200000003
 20
299.37764099999998
 30
0.0
 11
499.00579299999993
 21
300.08474799999999
 31
0.0
  0
LINE
  5
D49
  8
001
 10
503.60625299999998
 20
293.01368000000002
 30
0.0
 11
498.80353400000001
 21
297.96342700000002
 31
0.0
  0
LINE
  5
D4A
  8
001
 10
498.80353400000001
 20
297.96342700000002
 30
0.0
 11
498.56161200000003
 21
299.37764099999998
 31
0.0
  0
LINE
  5
D4B
  8
001
 10
506.11231399999991
 20
293.93291900000003
 30
0.0
 11
506.05183299999987
 21
293.995251
 31
0.0
  0
POLYLINE
  5
D4C
  8
001
 66
     1
 10
0.0
 20
0.0
 30
0.0
  0
VERTEX
  5
D4E
  8
001
 10
502.29908599999999
 20
303.47886
 30
0.0
  0
VERTEX
  5
D4F
  8
001
 10
501.987934
 20
303.103632
 30
0.0
  0
VERTEX
  5
D50
  8
001
 10
501.60519499999998
 20
302.54687999999999
 30
0.0
  0
VERTEX
  5
D51
  8
001
 10
501.25938500000001
 20
301.80961200000002
 30
0.0
  0
VERTEX
  5
D52
  8
001
 10
501.08655199999998
 20
301.07829700000002
 30
0.0
  0
VERTEX
  5
D53
  8
001
 10
501.0391489999999
 20
300.69127300000002
 30
0.0
  0
VERTEX
  5
D54
  8
001
 10
501.020217
 20
300.29687999999999
 30
0.0
  0
VERTEX
  5
D55
  8
001
 10
501.03611199999989
 20
299.90418799999998
 30
0.0
  0
VERTEX
  5
D56
  8
001
 10
501.08655199999998
 20
299.51546300000001
 30
0.0
  0
VERTEX
  5
D57
  8
001
 10
501.28342599999991
 20
298.76058799999998
 30
0.0
  0
VERTEX
  5
D58
  8
001
 10
501.60519499999998
 20
298.04687999999999
 30
0.0
  0
VERTEX
  5
D59
  8
001
 10
502.29401100000001
 20
297.118538
 30
0.0
  0
VERTEX
  5
D5A
  8
001
 10
503.20338299999997
 20
296.399765
 30
0.0
  0
VERTEX
  5
D5B
  8
001
 10
503.54601700000001
 20
296.21833299999997
 30
0.0
  0
VERTEX
  5
D5C
  8
001
 10
503.89317499999993
 20
296.068263
 30
0.0
  0
VERTEX
  5
D5D
  8
001
 10
504.23976299999993
 20
295.95038499999998
 30
0.0
  0
VERTEX
  5
D5E
  8
001
 10
504.62834299999992
 20
295.86524500000002
 30
0.0
  0
VERTEX
  5
D5F
  8
001
 10
505.06645099999992
 20
295.814008
 30
0.0
  0
VERTEX
  5
D60
  8
001
 10
505.386548
 20
295.79687999999999
 30
0.0
  0
SEQEND
  5
D4D
  8
001
  0
POLYLINE
  5
D61
  8
001
 66
     1
 10
0.0
 20
0.0
 30
0.0
  0
VERTEX
  5
D63
  8
001
 10
505.386548
 20
295.79687999999999
 30
0.0
  0
VERTEX
  5
D64
  8
001
 10
505.70664599999992
 20
295.814007
 30
0.0
  0
VERTEX
  5
D65
  8
001
 10
506.14475299999998
 20
295.86524500000002
 30
0.0
  0
VERTEX
  5
D66
  8
001
 10
506.53332999999992
 20
295.95038699999998
 30
0.0
  0
VERTEX
  5
D67
  8
001
 10
506.87992100000002
 20
296.068263
 30
0.0
  0
VERTEX
  5
D68
  8
001
 10
507.22708799999992
 20
296.218324
 30
0.0
  0
VERTEX
  5
D69
  8
001
 10
507.56971299999998
 20
296.399765
 30
0.0
  0
VERTEX
  5
D6A
  8
001
 10
508.47890899999999
 20
297.11872299999999
 30
0.0
  0
VERTEX
  5
D6B
  8
001
 10
509.16790099999997
 20
298.04687999999999
 30
0.0
  0
VERTEX
  5
D6C
  8
001
 10
509.490116
 20
298.76011899999997
 30
0.0
  0
VERTEX
  5
D6D
  8
001
 10
509.68654400000003
 20
299.51546300000001
 30
0.0
  0
VERTEX
  5
D6E
  8
001
 10
509.73632099999998
 20
299.90488399999998
 30
0.0
  0
VERTEX
  5
D6F
  8
001
 10
509.75287900000001
 20
300.29687999999999
 30
0.0
  0
VERTEX
  5
D70
  8
001
 10
509.73622999999992
 20
300.68887599999999
 30
0.0
  0
VERTEX
  5
D71
  8
001
 10
509.68654400000003
 20
301.07829700000002
 30
0.0
  0
VERTEX
  5
D72
  8
001
 10
509.49083699999989
 20
301.83363800000001
 30
0.0
  0
VERTEX
  5
D73
  8
001
 10
509.16790099999997
 20
302.54687999999999
 30
0.0
  0
VERTEX
  5
D74
  8
001
 10
508.47390899999999
 20
303.47505099999989
 30
0.0
  0
VERTEX
  5
D75
  8
001
 10
507.56971299999998
 20
304.19399399999998
 30
0.0
  0
VERTEX
  5
D76
  8
001
 10
507.23202199999992
 20
304.37542100000002
 30
0.0
  0
VERTEX
  5
D77
  8
001
 10
506.87992100000002
 20
304.52549699999997
 30
0.0
  0
VERTEX
  5
D78
  8
001
 10
506.51697000000001
 20
304.64341999999999
 30
0.0
  0
VERTEX
  5
D79
  8
001
 10
506.14475299999998
 20
304.72851500000002
 30
0.0
  0
VERTEX
  5
D7A
  8
001
 10
505.76699899999988
 20
304.77957700000002
 30
0.0
  0
VERTEX
  5
D7B
  8
001
 10
505.386548
 20
304.79687999999999
 30
0.0
  0
VERTEX
  5
D7C
  8
001
 10
505.006573
 20
304.78040800000002
 30
0.0
  0
VERTEX
  5
D7D
  8
001
 10
504.62834299999992
 20
304.72851500000002
 30
0.0
  0
VERTEX
  5
D7E
  8
001
 10
504.25374199999999
 20
304.640919
 30
0.0
  0
VERTEX
  5
D7F
  8
001
 10
503.89317499999993
 20
304.52549699999997
 30
0.0
  0
VERTEX
  5
D80
  8
001
 10
503.55017800000002
 20
304.384636
 30
0.0
  0
VERTEX
  5
D81
  8
001
 10
503.20338299999997
 20
304.19399399999998
 30
0.0
  0
VERTEX
  5
D82
  8
001
 10
502.66638799999998
 20
303.803
 30
0.0
  0
VERTEX
  5
D83
  8
001
 10
502.29908599999999
 20
303.47886
 30
0.0
  0
SEQEND
  5
D62
  8
001
  0
POLYLINE
  5
D84
  8
001
 66
     1
 10
0.0
 20
0.0
 30
0.0
  0
VERTEX
  5
D86
  8
001
 10
517.72201500000006
 20
288.60043999999999
 30
0.0
  0
VERTEX
  5
D87
  8
001
 10
518.18645700000002
 20
289.53020600000002
 30
0.0
  0
VERTEX
  5
D88
  8
001
 10
518.74832300000003
 20
290.86521299999998
 30
0.0
  0
VERTEX
  5
D89
  8
001
 10
519.31549299999995
 20
292.81446599999998
 30
0.0
  0
VERTEX
  5
D8A
  8
001
 10
519.57623299999989
 20
294.65089399999999
 30
0.0
  0
VERTEX
  5
D8B
  8
001
 10
519.65228999999988
 20
295.64637699999997
 30
0.0
  0
VERTEX
  5
D8C
  8
001
 10
519.68212300000005
 20
296.66521299999999
 30
0.0
  0
VERTEX
  5
D8D
  8
001
 10
519.65228999999988
 20
297.68404900000002
 30
0.0
  0
VERTEX
  5
D8E
  8
001
 10
519.57623299999989
 20
298.67953199999999
 30
0.0
  0
VERTEX
  5
D8F
  8
001
 10
519.31549299999995
 20
300.51595900000001
 30
0.0
  0
VERTEX
  5
D90
  8
001
 10
518.74832300000003
 20
302.46521300000001
 30
0.0
  0
VERTEX
  5
D91
  8
001
 10
518.18645700000002
 20
303.80021900000003
 30
0.0
  0
VERTEX
  5
D92
  8
001
 10
517.72201500000006
 20
304.729985
 30
0.0
  0
SEQEND
  5
D85
  8
001
  0
LINE
  5
D93
  8
001
 10
517.72201500000006
 20
304.729985
 30
0.0
 11
517.72201500000006
 21
288.60043999999999
 31
0.0
  0
LINE
  5
D94
  8
001
 10
500.24457599999988
 20
301.94982099999999
 30
0.0
 11
500.537396
 21
301.66323799999998
 31
0.0
  0
LINE
  5
D95
  8
001
 10
510.98364299999992
 20
298.95337699999999
 30
0.0
 11
510.25787700000001
 21
298.95337699999999
 31
0.0
  0
LINE
  5
D96
  8
001
 10
505.22037999999998
 20
293.01368000000002
 30
0.0
 11
503.60625299999998
 21
293.01368000000002
 31
0.0
  0
LINE
  5
D97
  8
001
 10
507.5531289999999
 20
305.31733800000001
 30
0.0
 11
504.08295299999997
 21
305.31733800000001
 31
0.0
  0
LINE
  5
D98
  8
001
 10
506.84929199999988
 20
301.13828599999999
 30
0.0
 11
506.84929199999988
 21
299.40623599999998
 31
0.0
  0
LINE
  5
D99
  8
001
 10
503.84929199999999
 20
299.40623599999998
 30
0.0
 11
503.84929199999999
 21
301.13828599999999
 31
0.0
  0
LINE
  5
D9A
  8
001
 10
503.84929199999999
 20
301.13828599999999
 30
0.0
 11
505.34929199999999
 21
302.00431200000003
 31
0.0
  0
LINE
  5
D9B
  8
001
 10
506.84929199999988
 20
299.40623599999998
 30
0.0
 11
505.34929199999999
 21
298.54021
 31
0.0
  0
LINE
  5
D9C
  8
001
 10
505.34929199999999
 20
298.54021
 30
0.0
 11
503.84929199999999
 21
299.40623599999998
 31
0.0
  0
LINE
  5
D9D
  8
001
 10
506.84929199999988
 20
301.13828599999999
 30
0.0
 11
505.34929199999999
 21
302.00431200000003
 31
0.0
  0
LINE
  5
D9E
  8
001
 10
611.47564599999987
 20
296.66521299999999
 30
0.0
 11
614.07372199999998
 21
298.16521299999999
 31
0.0
  0
LINE
  5
D9F
  8
001
 10
611.47564599999987
 20
296.66521299999999
 30
0.0
 11
614.07372199999998
 21
295.16521299999999
 31
0.0
  0
LINE
  5
DA0
  8
001
  6
CENTER
 10
489.30416700000001
 20
296.66521299999999
 30
0.0
 11
613.92633599999999
 21
296.66521299999999
 31
0.0
  0
LINE
  5
DA1
  8
001
  6
PHANTOM
 10
491.47564599999993
 20
292.46521300000001
 30
0.0
 11
491.47564599999993
 21
292.79409800000002
 31
0.0
  0
LINE
  5
DA2
  8
001
  6
PHANTOM
 10
491.70820300000003
 20
292.23265600000002
 30
0.0
 11
491.47564599999993
 21
292.46521300000001
 31
0.0
  0
LINE
  5
DA3
  8
001
 10
489.30416700000001
 20
284.16521299999999
 30
0.0
 11
499.93939799999998
 21
284.16521299999999
 31
0.0
  0
LINE
  5
DA4
  8
001
 10
504.950761
 20
307.05735499999997
 30
0.0
 11
500.24457599999988
 21
301.94982099999999
 31
0.0
  0
POLYLINE
  5
DA5
  8
001
 66
     1
 10
0.0
 20
0.0
 30
0.0
  0
VERTEX
  5
DA7
  8
001
 10
517.72201500000006
 20
304.729985
 30
0.0
  0
VERTEX
  5
DA8
  8
001
 10
516.43122400000004
 20
305.04207500000001
 30
0.0
  0
VERTEX
  5
DA9
  8
001
 10
514.64746799999989
 20
305.4348930000001
 30
0.0
  0
VERTEX
  5
DAA
  8
001
 10
512.49123899999995
 20
305.869778
 30
0.0
  0
VERTEX
  5
DAB
  8
001
 10
510.08302900000001
 20
306.30806999999999
 30
0.0
  0
VERTEX
  5
DAC
  8
001
 10
507.54332699999992
 20
306.71110800000002
 30
0.0
  0
VERTEX
  5
DAD
  8
001
 10
506.14390900000001
 20
306.90465899999998
 30
0.0
  0
VERTEX
  5
DAE
  8
001
 10
504.950761
 20
307.05735499999997
 30
0.0
  0
SEQEND
  5
DA6
  8
001
  0
ARC
  5
DAF
  8
001
 10
508.29091100000011
 20
303.04294399999998
 30
0.0
 40
5.2222684577821958
 50
90.0
 51
129.76180500000001
  0
LINE
  5
DB0
  8
001
 10
501.01347299999998
 20
284.14272799999998
 30
0.0
 11
500.12701699999991
 21
284.14272799999998
 31
0.0
  0
ARC
  5
DB1
  8
001
 10
501.01347299999998
 20
284.65205900000001
 30
0.0
 40
0.5093312671580355
 50
270.0
 51
315.0
  0
LINE
  5
DB2
  8
001
 10
501.373625
 20
284.29190800000009
 30
0.0
 11
502.14692999999988
 21
285.06521300000003
 31
0.0
  0
POLYLINE
  5
DB3
  8
001
 66
     1
 10
0.0
 20
0.0
 30
0.0
  0
VERTEX
  5
DB5
  8
001
 10
502.38128099999989
 20
285.97939600000001
 30
0.0
  0
VERTEX
  5
DB6
  8
001
 10
504.71628199999998
 20
286.24390099999999
 30
0.0
  0
VERTEX
  5
DB7
  8
001
 10
507.54332699999992
 20
286.61931800000002
 30
0.0
  0
VERTEX
  5
DB8
  8
001
 10
510.08266299999991
 20
287.0239259999999
 30
0.0
  0
VERTEX
  5
DB9
  8
001
 10
512.49082799999996
 20
287.46241500000002
 30
0.0
  0
VERTEX
  5
DBA
  8
001
 10
514.64719400000001
 20
287.89671099999998
 30
0.0
  0
VERTEX
  5
DBB
  8
001
 10
516.43113200000005
 20
288.28874300000001
 30
0.0
  0
VERTEX
  5
DBC
  8
001
 10
517.72201500000006
 20
288.60043999999999
 30
0.0
  0
SEQEND
  5
DB4
  8
001
  0
LINE
  5
DBD
  8
001
 10
507.78245499999991
 20
291.38057000000009
 30
0.0
 11
501.46709800000002
 21
285.06521300000003
 31
0.0
  0
ARC
  5
DBE
  8
001
 10
508.28438699999998
 20
292.79409800000002
 30
0.0
 40
1.5
 50
250.450469
 51
112.175361
  0
ARC
  5
DBF
  8
001
 10
500.12701699999991
 20
292.79409800000002
 30
0.0
 40
3.1000000000000001
 50
75.397654000000003
 51
12.874889
  0
LINE
  5
DC0
  8
001
 10
491.47564599999993
 20
281.8263
 30
0.0
 11
491.47564599999993
 21
292.79409800000002
 31
0.0
  0
ARC
  5
DC1
  8
001
 10
500.12701699999991
 20
300.65146900000002
 30
0.0
 40
0.7940000000000002
 50
76.956345999999996
 51
135.0
  0
LINE
  5
DC2
  8
001
 10
508.54582999999991
 20
293.35554100000002
 30
0.0
 11
506.96499899999998
 21
294.93637200000001
 31
0.0
  0
LINE
  5
DC3
  8
001
 10
495.895646
 20
281.8263
 30
0.0
 11
495.895646
 21
288.10178100000002
 31
0.0
  0
LINE
  5
DC4
  8
001
 10
489.30416700000001
 20
288.61521299999998
 30
0.0
 11
495.38221399999992
 21
288.61521299999998
 31
0.0
  0
ARC
  5
DC5
  8
001
 10
495.39583099999987
 20
288.11539800000003
 30
0.0
 40
0.5
 50
358.43942399999997
 51
91.560575999999998
  0
TEXT
  5
DC6
  8
001
 10
473.42809299999988
 20
327.97272199999998
 30
0.0
 40
5.0
  1
ＲスペシャルＪｒ．　ＮＫ２０－０５Ｒ　（０．５Ｒ）
 41
0.833333
  0
LINE
  5
DC7
  8
001
 10
176.973434
 20
45.324826999999999
 30
0.0
 11
176.973434
 21
59.324826999999999
 31
0.0
  0
ARC
  5
DC8
  8
001
 10
173.973434
 20
59.324826999999999
 30
0.0
 40
3.0
 50
0.0
 51
90.0
  0
ARC
  5
DC9
  8
001
 10
173.973434
 20
45.324826999999999
 30
0.0
 40
3.0
 50
270.0
 51
0.0
  0
LINE
  5
DCA
  8
001
 10
95.973433999999983
 20
191.004346
 30
0.0
 11
73.788697999999997
 21
191.004346
 31
0.0
  0
LINE
  5
DCB
  8
001
 10
98.973433999999997
 20
169.404346
 30
0.0
 11
98.973433999999997
 21
189.404346
 31
0.0
  0
LINE
  5
DCC
  8
001
 10
96.973434000000012
 20
188.904346
 30
0.0
 11
98.973433999999997
 21
188.904346
 31
0.0
  0
LINE
  5
DCD
  8
001
 10
96.973434000000012
 20
169.904346
 30
0.0
 11
98.973433999999997
 21
169.904346
 31
0.0
  0
LINE
  5
DCE
  8
001
 10
173.973434
 20
189.404346
 30
0.0
 11
98.973433999999997
 21
189.404346
 31
0.0
  0
LINE
  5
DCF
  8
001
 10
173.973434
 20
169.404346
 30
0.0
 11
98.973433999999997
 21
169.404346
 31
0.0
  0
ARC
  5
DD0
  8
001
 10
95.973433999999983
 20
190.004346
 30
0.0
 40
1.0
 50
0.0
 51
90.0
  0
ARC
  5
DD1
  8
001
 10
95.973433999999983
 20
168.80434600000001
 30
0.0
 40
1.0
 50
270.0
 51
0.0
  0
LINE
  5
DD2
  8
001
 10
96.973434000000012
 20
168.80434600000001
 30
0.0
 11
96.973434000000012
 21
190.004346
 31
0.0
  0
LINE
  5
DD3
  8
001
 10
95.973433999999983
 20
167.80434600000001
 30
0.0
 11
66.964884999999995
 21
167.80434600000001
 31
0.0
  0
LINE
  5
DD4
  8
001
 10
176.973434
 20
172.404346
 30
0.0
 11
176.973434
 21
186.404346
 31
0.0
  0
ARC
  5
DD5
  8
001
 10
173.973434
 20
186.404346
 30
0.0
 40
3.0
 50
0.0
 51
90.0
  0
ARC
  5
DD6
  8
001
 10
173.973434
 20
172.404346
 30
0.0
 40
3.0
 50
270.0
 51
0.0
  0
LINE
  5
DD7
  8
001
 10
95.973433999999983
 20
307.91009700000001
 30
0.0
 11
73.788697999999997
 21
307.91009700000001
 31
0.0
  0
LINE
  5
DD8
  8
001
 10
98.973433999999997
 20
286.3100970000001
 30
0.0
 11
98.973433999999997
 21
306.3100970000001
 31
0.0
  0
LINE
  5
DD9
  8
001
 10
96.973434000000012
 20
305.81009699999998
 30
0.0
 11
98.973433999999997
 21
305.81009699999998
 31
0.0
  0
LINE
  5
DDA
  8
001
 10
96.973434000000012
 20
286.81009699999998
 30
0.0
 11
98.973433999999997
 21
286.81009699999998
 31
0.0
  0
LINE
  5
DDB
  8
001
 10
173.973434
 20
306.3100970000001
 30
0.0
 11
98.973433999999997
 21
306.3100970000001
 31
0.0
  0
LINE
  5
DDC
  8
001
 10
173.973434
 20
286.3100970000001
 30
0.0
 11
98.973433999999997
 21
286.3100970000001
 31
0.0
  0
ARC
  5
DDD
  8
001
 10
95.973433999999983
 20
306.91009700000001
 30
0.0
 40
1.0
 50
0.0
 51
90.0
  0
ARC
  5
DDE
  8
001
 10
95.973433999999983
 20
285.71009700000002
 30
0.0
 40
1.0
 50
270.0
 51
0.0
  0
LINE
  5
DDF
  8
001
 10
96.973434000000012
 20
285.71009700000002
 30
0.0
 11
96.973434000000012
 21
306.91009700000001
 31
0.0
  0
LINE
  5
DE0
  8
001
 10
95.973433999999983
 20
284.71009700000002
 30
0.0
 11
66.964884999999995
 21
284.71009700000002
 31
0.0
  0
ARC
  5
DE1
  8
001
 10
173.973434
 20
303.31009699999998
 30
0.0
 40
3.0
 50
0.0
 51
90.0
  0
ARC
  5
DE2
  8
001
 10
173.973434
 20
289.31009699999998
 30
0.0
 40
3.0
 50
270.0
 51
0.0
  0
LINE
  5
DE3
  8
001
 10
95.973433999999983
 20
307.91009700000001
 30
0.0
 11
73.788697999999997
 21
307.91009700000001
 31
0.0
  0
LINE
  5
DE4
  8
001
 10
98.973433999999997
 20
286.3100970000001
 30
0.0
 11
98.973433999999997
 21
306.3100970000001
 31
0.0
  0
LINE
  5
DE5
  8
001
 10
96.973434000000012
 20
305.81009699999998
 30
0.0
 11
98.973433999999997
 21
305.81009699999998
 31
0.0
  0
LINE
  5
DE6
  8
001
 10
96.973434000000012
 20
286.81009699999998
 30
0.0
 11
98.973433999999997
 21
286.81009699999998
 31
0.0
  0
LINE
  5
DE7
  8
001
 10
173.973434
 20
306.3100970000001
 30
0.0
 11
98.973433999999997
 21
306.3100970000001
 31
0.0
  0
LINE
  5
DE8
  8
001
 10
173.973434
 20
286.3100970000001
 30
0.0
 11
98.973433999999997
 21
286.3100970000001
 31
0.0
  0
ARC
  5
DE9
  8
001
 10
95.973433999999983
 20
306.91009700000001
 30
0.0
 40
1.0
 50
0.0
 51
90.0
  0
ARC
  5
DEA
  8
001
 10
95.973433999999983
 20
285.71009700000002
 30
0.0
 40
1.0
 50
270.0
 51
0.0
  0
LINE
  5
DEB
  8
001
 10
96.973434000000012
 20
285.71009700000002
 30
0.0
 11
96.973434000000012
 21
306.91009700000001
 31
0.0
  0
LINE
  5
DEC
  8
001
 10
95.973433999999983
 20
284.71009700000002
 30
0.0
 11
66.964884999999995
 21
284.71009700000002
 31
0.0
  0
LINE
  5
DED
  8
001
 10
176.973434
 20
289.31009699999998
 30
0.0
 11
176.973434
 21
303.31009699999998
 31
0.0
  0
ARC
  5
DEE
  8
001
 10
173.973434
 20
303.31009699999998
 30
0.0
 40
3.0
 50
0.0
 51
90.0
  0
ARC
  5
DEF
  8
001
 10
173.973434
 20
289.31009699999998
 30
0.0
 40
3.0
 50
270.0
 51
0.0
  0
LINE
  5
DF0
  8
001
 10
95.973433999999983
 20
431.23913700000003
 30
0.0
 11
73.788697999999997
 21
431.23913700000003
 31
0.0
  0
LINE
  5
DF1
  8
001
 10
98.973433999999997
 20
409.63913700000001
 30
0.0
 11
98.973433999999997
 21
429.63913700000001
 31
0.0
  0
LINE
  5
DF2
  8
001
 10
96.973434000000012
 20
429.13913700000001
 30
0.0
 11
98.973433999999997
 21
429.13913700000001
 31
0.0
  0
LINE
  5
DF3
  8
001
 10
96.973434000000012
 20
410.13913699999989
 30
0.0
 11
98.973433999999997
 21
410.13913699999989
 31
0.0
  0
LINE
  5
DF4
  8
001
 10
173.973434
 20
429.63913700000001
 30
0.0
 11
98.973433999999997
 21
429.63913700000001
 31
0.0
  0
LINE
  5
DF5
  8
001
 10
173.973434
 20
409.63913700000001
 30
0.0
 11
98.973433999999997
 21
409.63913700000001
 31
0.0
  0
ARC
  5
DF6
  8
001
 10
95.973433999999983
 20
430.23913700000003
 30
0.0
 40
1.0
 50
0.0
 51
90.0
  0
ARC
  5
DF7
  8
001
 10
95.973433999999983
 20
409.03913699999998
 30
0.0
 40
1.0
 50
270.0
 51
0.0
  0
LINE
  5
DF8
  8
001
 10
96.973434000000012
 20
409.03913699999998
 30
0.0
 11
96.973434000000012
 21
430.23913700000003
 31
0.0
  0
LINE
  5
DF9
  8
001
 10
95.973433999999983
 20
408.03913699999998
 30
0.0
 11
66.964884999999995
 21
408.03913699999998
 31
0.0
  0
LINE
  5
DFA
  8
001
 10
176.973434
 20
412.63913700000001
 30
0.0
 11
176.973434
 21
426.63913700000001
 31
0.0
  0
ARC
  5
DFB
  8
001
 10
173.973434
 20
426.63913700000001
 30
0.0
 40
3.0
 50
0.0
 51
90.0
  0
ARC
  5
DFC
  8
001
 10
173.973434
 20
412.63913700000001
 30
0.0
 40
3.0
 50
270.0
 51
0.0
  0
LINE
  5
DFD
  8
001
 10
310.164669
 20
431.61419699999999
 30
0.0
 11
287.9799339999999
 21
431.61419699999999
 31
0.0
  0
LINE
  5
DFE
  8
001
 10
313.164669
 20
410.01419700000002
 30
0.0
 11
313.164669
 21
430.01419699999991
 31
0.0
  0
LINE
  5
DFF
  8
001
 10
311.164669
 20
429.51419699999991
 30
0.0
 11
313.164669
 21
429.51419699999991
 31
0.0
  0
LINE
  5
E00
  8
001
 10
311.164669
 20
410.51419700000002
 30
0.0
 11
313.164669
 21
410.51419700000002
 31
0.0
  0
LINE
  5
E01
  8
001
 10
388.164669
 20
430.01419699999991
 30
0.0
 11
313.164669
 21
430.01419699999991
 31
0.0
  0
LINE
  5
E02
  8
001
 10
388.164669
 20
410.01419700000002
 30
0.0
 11
313.164669
 21
410.01419700000002
 31
0.0
  0
ARC
  5
E03
  8
001
 10
310.164669
 20
430.61419699999988
 30
0.0
 40
1.0
 50
0.0
 51
90.0
  0
ARC
  5
E04
  8
001
 10
310.164669
 20
409.41419699999989
 30
0.0
 40
1.0
 50
270.0
 51
0.0
  0
LINE
  5
E05
  8
001
 10
311.164669
 20
409.41419699999989
 30
0.0
 11
311.164669
 21
430.61419699999988
 31
0.0
  0
LINE
  5
E06
  8
001
 10
310.164669
 20
408.414197
 30
0.0
 11
281.15612099999998
 21
408.414197
 31
0.0
  0
LINE
  5
E07
  8
001
 10
391.164669
 20
413.01419700000002
 30
0.0
 11
391.164669
 21
427.01419700000002
 31
0.0
  0
ARC
  5
E08
  8
001
 10
388.164669
 20
427.01419700000002
 30
0.0
 40
3.0
 50
0.0
 51
90.0
  0
ARC
  5
E09
  8
001
 10
388.164669
 20
413.01419700000002
 30
0.0
 40
3.0
 50
270.0
 51
0.0
  0
LINE
  5
E0A
  8
001
 10
310.164669
 20
307.23121900000001
 30
0.0
 11
287.9799339999999
 21
307.23121900000001
 31
0.0
  0
LINE
  5
E0B
  8
001
 10
313.164669
 20
285.63121899999999
 30
0.0
 11
313.164669
 21
305.63121899999999
 31
0.0
  0
LINE
  5
E0C
  8
001
 10
311.164669
 20
305.13121899999999
 30
0.0
 11
313.164669
 21
305.13121899999999
 31
0.0
  0
LINE
  5
E0D
  8
001
 10
311.164669
 20
286.13121899999999
 30
0.0
 11
313.164669
 21
286.13121899999999
 31
0.0
  0
LINE
  5
E0E
  8
001
 10
388.164669
 20
305.63121899999999
 30
0.0
 11
313.164669
 21
305.63121899999999
 31
0.0
  0
LINE
  5
E0F
  8
001
 10
388.164669
 20
285.63121899999999
 30
0.0
 11
313.164669
 21
285.63121899999999
 31
0.0
  0
ARC
  5
E10
  8
001
 10
310.164669
 20
306.23121900000001
 30
0.0
 40
1.0
 50
0.0
 51
90.0
  0
ARC
  5
E11
  8
001
 10
310.164669
 20
285.03121900000002
 30
0.0
 40
1.0
 50
270.0
 51
0.0
  0
LINE
  5
E12
  8
001
 10
311.164669
 20
285.03121900000002
 30
0.0
 11
311.164669
 21
306.23121900000001
 31
0.0
  0
LINE
  5
E13
  8
001
 10
310.164669
 20
284.03121900000002
 30
0.0
 11
281.15612099999998
 21
284.03121900000002
 31
0.0
  0
LINE
  5
E14
  8
001
 10
391.164669
 20
288.63121899999999
 30
0.0
 11
391.164669
 21
302.63121899999999
 31
0.0
  0
ARC
  5
E15
  8
001
 10
388.164669
 20
302.63121899999999
 30
0.0
 40
3.0
 50
0.0
 51
90.0
  0
ARC
  5
E16
  8
001
 10
388.164669
 20
288.63121899999999
 30
0.0
 40
3.0
 50
270.0
 51
0.0
  0
LINE
  5
E17
  8
001
 10
310.164669
 20
191.512328
 30
0.0
 11
287.9799339999999
 21
191.512328
 31
0.0
  0
LINE
  5
E18
  8
001
 10
313.164669
 20
169.912328
 30
0.0
 11
313.164669
 21
189.912328
 31
0.0
  0
LINE
  5
E19
  8
001
 10
311.164669
 20
189.412328
 30
0.0
 11
313.164669
 21
189.412328
 31
0.0
  0
LINE
  5
E1A
  8
001
 10
311.164669
 20
170.412328
 30
0.0
 11
313.164669
 21
170.412328
 31
0.0
  0
LINE
  5
E1B
  8
001
 10
388.164669
 20
189.912328
 30
0.0
 11
313.164669
 21
189.912328
 31
0.0
  0
LINE
  5
E1C
  8
001
 10
388.164669
 20
169.912328
 30
0.0
 11
313.164669
 21
169.912328
 31
0.0
  0
ARC
  5
E1D
  8
001
 10
310.164669
 20
190.512328
 30
0.0
 40
1.0
 50
0.0
 51
90.0
  0
ARC
  5
E1E
  8
001
 10
310.164669
 20
169.31232800000001
 30
0.0
 40
1.0
 50
270.0
 51
0.0
  0
LINE
  5
E1F
  8
001
 10
311.164669
 20
169.31232800000001
 30
0.0
 11
311.164669
 21
190.512328
 31
0.0
  0
LINE
  5
E20
  8
001
 10
310.164669
 20
168.31232800000001
 30
0.0
 11
281.15612099999998
 21
168.31232800000001
 31
0.0
  0
LINE
  5
E21
  8
001
 10
391.164669
 20
172.912328
 30
0.0
 11
391.164669
 21
186.912328
 31
0.0
  0
ARC
  5
E22
  8
001
 10
388.164669
 20
186.912328
 30
0.0
 40
3.0
 50
0.0
 51
90.0
  0
ARC
  5
E23
  8
001
 10
388.164669
 20
172.912328
 30
0.0
 40
3.0
 50
270.0
 51
0.0
  0
LINE
  5
E24
  8
001
 10
310.164669
 20
63.924827000000001
 30
0.0
 11
287.9799339999999
 21
63.924827000000001
 31
0.0
  0
LINE
  5
E25
  8
001
 10
313.164669
 20
42.324826999999999
 30
0.0
 11
313.164669
 21
62.324826999999999
 31
0.0
  0
LINE
  5
E26
  8
001
 10
311.164669
 20
61.824826999999999
 30
0.0
 11
313.164669
 21
61.824826999999999
 31
0.0
  0
LINE
  5
E27
  8
001
 10
311.164669
 20
42.824826999999999
 30
0.0
 11
313.164669
 21
42.824826999999999
 31
0.0
  0
LINE
  5
E28
  8
001
 10
388.164669
 20
62.324826999999999
 30
0.0
 11
313.164669
 21
62.324826999999999
 31
0.0
  0
LINE
  5
E29
  8
001
 10
388.164669
 20
42.324826999999999
 30
0.0
 11
313.164669
 21
42.324826999999999
 31
0.0
  0
ARC
  5
E2A
  8
001
 10
310.164669
 20
62.924827000000001
 30
0.0
 40
1.0
 50
0.0
 51
90.0
  0
ARC
  5
E2B
  8
001
 10
310.164669
 20
41.724826999999998
 30
0.0
 40
1.0
 50
270.0
 51
0.0
  0
LINE
  5
E2C
  8
001
 10
311.164669
 20
41.724826999999998
 30
0.0
 11
311.164669
 21
62.924827000000001
 31
0.0
  0
LINE
  5
E2D
  8
001
 10
310.164669
 20
40.724827000000012
 30
0.0
 11
281.15612099999998
 21
40.724827000000012
 31
0.0
  0
LINE
  5
E2E
  8
001
 10
391.164669
 20
45.324826999999999
 30
0.0
 11
391.164669
 21
59.324826999999999
 31
0.0
  0
ARC
  5
E2F
  8
001
 10
388.164669
 20
59.324826999999999
 30
0.0
 40
3.0
 50
0.0
 51
90.0
  0
ARC
  5
E30
  8
001
 10
388.164669
 20
45.324826999999999
 30
0.0
 40
3.0
 50
270.0
 51
0.0
  0
LINE
  5
E31
  8
001
 10
530.47564599999998
 20
63.924827000000001
 30
0.0
 11
508.29091100000011
 21
63.924827000000001
 31
0.0
  0
LINE
  5
E32
  8
001
 10
533.47564599999998
 20
42.324826999999999
 30
0.0
 11
533.47564599999998
 21
62.324826999999999
 31
0.0
  0
LINE
  5
E33
  8
001
 10
531.47564599999987
 20
61.824826999999999
 30
0.0
 11
533.47564599999998
 21
61.824826999999999
 31
0.0
  0
LINE
  5
E34
  8
001
 10
531.47564599999987
 20
42.824826999999999
 30
0.0
 11
533.47564599999998
 21
42.824826999999999
 31
0.0
  0
LINE
  5
E35
  8
001
 10
608.47564599999998
 20
62.324826999999999
 30
0.0
 11
533.47564599999998
 21
62.324826999999999
 31
0.0
  0
LINE
  5
E36
  8
001
 10
608.47564599999998
 20
42.324826999999999
 30
0.0
 11
533.47564599999998
 21
42.324826999999999
 31
0.0
  0
ARC
  5
E37
  8
001
 10
530.47564599999998
 20
62.924827000000001
 30
0.0
 40
1.0
 50
0.0
 51
90.0
  0
ARC
  5
E38
  8
001
 10
530.47564599999998
 20
41.724826999999998
 30
0.0
 40
1.0
 50
270.0
 51
0.0
  0
LINE
  5
E39
  8
001
 10
531.47564599999987
 20
41.724826999999998
 30
0.0
 11
531.47564599999987
 21
62.924827000000001
 31
0.0
  0
LINE
  5
E3A
  8
001
 10
530.47564599999998
 20
40.724827000000012
 30
0.0
 11
501.46709800000002
 21
40.724827000000012
 31
0.0
  0
LINE
  5
E3B
  8
001
 10
611.47564599999987
 20
45.324826999999999
 30
0.0
 11
611.47564599999987
 21
59.324826999999999
 31
0.0
  0
ARC
  5
E3C
  8
001
 10
608.47564599999998
 20
59.324826999999999
 30
0.0
 40
3.0
 50
0.0
 51
90.0
  0
ARC
  5
E3D
  8
001
 10
608.47564599999998
 20
45.324826999999999
 30
0.0
 40
3.0
 50
270.0
 51
0.0
  0
LINE
  5
E3E
  8
001
 10
530.47564599999998
 20
189.73203699999999
 30
0.0
 11
508.29091100000011
 21
189.73203699999999
 31
0.0
  0
LINE
  5
E3F
  8
001
 10
533.47564599999998
 20
168.132037
 30
0.0
 11
533.47564599999998
 21
188.132037
 31
0.0
  0
LINE
  5
E40
  8
001
 10
531.47564599999987
 20
187.632037
 30
0.0
 11
533.47564599999998
 21
187.632037
 31
0.0
  0
LINE
  5
E41
  8
001
 10
531.47564599999987
 20
168.632037
 30
0.0
 11
533.47564599999998
 21
168.632037
 31
0.0
  0
LINE
  5
E42
  8
001
 10
608.47564599999998
 20
188.132037
 30
0.0
 11
533.47564599999998
 21
188.132037
 31
0.0
  0
LINE
  5
E43
  8
001
 10
608.47564599999998
 20
168.132037
 30
0.0
 11
533.47564599999998
 21
168.132037
 31
0.0
  0
ARC
  5
E44
  8
001
 10
530.47564599999998
 20
188.73203699999999
 30
0.0
 40
1.0
 50
0.0
 51
90.0
  0
ARC
  5
E45
  8
001
 10
530.47564599999998
 20
167.532037
 30
0.0
 40
1.0
 50
270.0
 51
0.0
  0
LINE
  5
E46
  8
001
 10
531.47564599999987
 20
167.532037
 30
0.0
 11
531.47564599999987
 21
188.73203699999999
 31
0.0
  0
LINE
  5
E47
  8
001
 10
530.47564599999998
 20
166.532037
 30
0.0
 11
501.46709800000002
 21
166.532037
 31
0.0
  0
LINE
  5
E48
  8
001
 10
611.47564599999987
 20
171.132037
 30
0.0
 11
611.47564599999987
 21
185.132037
 31
0.0
  0
ARC
  5
E49
  8
001
 10
608.47564599999998
 20
185.132037
 30
0.0
 40
3.0
 50
0.0
 51
90.0
  0
ARC
  5
E4A
  8
001
 10
608.47564599999998
 20
171.132037
 30
0.0
 40
3.0
 50
270.0
 51
0.0
  0
LINE
  5
E4B
  8
001
 10
530.47564599999998
 20
308.26521300000002
 30
0.0
 11
508.29091100000011
 21
308.26521300000002
 31
0.0
  0
LINE
  5
E4C
  8
001
 10
533.47564599999998
 20
286.66521299999999
 30
0.0
 11
533.47564599999998
 21
306.66521299999999
 31
0.0
  0
LINE
  5
E4D
  8
001
 10
531.47564599999987
 20
306.16521299999999
 30
0.0
 11
533.47564599999998
 21
306.16521299999999
 31
0.0
  0
LINE
  5
E4E
  8
001
 10
531.47564599999987
 20
287.16521299999999
 30
0.0
 11
533.47564599999998
 21
287.16521299999999
 31
0.0
  0
LINE
  5
E4F
  8
001
 10
608.47564599999998
 20
306.66521299999999
 30
0.0
 11
533.47564599999998
 21
306.66521299999999
 31
0.0
  0
LINE
  5
E50
  8
001
 10
608.47564599999998
 20
286.66521299999999
 30
0.0
 11
533.47564599999998
 21
286.66521299999999
 31
0.0
  0
ARC
  5
E51
  8
001
 10
530.47564599999998
 20
307.26521300000002
 30
0.0
 40
1.0
 50
0.0
 51
90.0
  0
ARC
  5
E52
  8
001
 10
530.47564599999998
 20
286.06521300000003
 30
0.0
 40
1.0
 50
270.0
 51
0.0
  0
LINE
  5
E53
  8
001
 10
531.47564599999987
 20
286.06521300000003
 30
0.0
 11
531.47564599999987
 21
307.26521300000002
 31
0.0
  0
LINE
  5
E54
  8
001
 10
530.47564599999998
 20
285.06521300000003
 30
0.0
 11
501.46709800000002
 21
285.06521300000003
 31
0.0
  0
LINE
  5
E55
  8
001
 10
611.47564599999987
 20
289.66521299999999
 30
0.0
 11
611.47564599999987
 21
303.66521299999999
 31
0.0
  0
ARC
  5
E56
  8
001
 10
608.47564599999998
 20
303.66521299999999
 30
0.0
 40
3.0
 50
0.0
 51
90.0
  0
ARC
  5
E57
  8
001
 10
608.47564599999998
 20
289.66521299999999
 30
0.0
 40
3.0
 50
270.0
 51
0.0
  0
ENDSEC
  0
EOF
