  0
SECTION
  2
HEADER
  9
$ACADVER
  1
AC1014
  9
$ACADMAINTVER
 70
     9
  9
$DWGCODEPAGE
  3
DOS932
  9
$INSBASE
 10
0.0
 20
0.0
 30
0.0
  9
$EXTMIN
 10
0.0
 20
0.0
 30
0.0
  9
$EXTMAX
 10
297.0
 20
210.0
 30
0.0
  9
$LIMMIN
 10
0.0
 20
0.0
  9
$LIMMAX
 10
297.0
 20
210.0
  9
$ORTHOMODE
 70
     0
  9
$REGENMODE
 70
     1
  9
$FILLMODE
 70
     1
  9
$QTEXTMODE
 70
     0
  9
$MIRRTEXT
 70
     1
  9
$DRAGMODE
 70
     2
  9
$LTSCALE
 40
1.0
  9
$OSMODE
 70
    37
  9
$ATTMODE
 70
     1
  9
$TEXTSIZE
 40
3.5
  9
$TRACEWID
 40
1.0
  9
$TEXTSTYLE
  7
STANDARD
  9
$CLAYER
  8
0
  9
$CELTYPE
  6
BYLAYER
  9
$CECOLOR
 62
   256
  9
$CELTSCALE
 40
1.0
  9
$DELOBJ
 70
     1
  9
$DISPSILH
 70
     0
  9
$DIMSCALE
 40
1.0
  9
$DIMASZ
 40
3.302
  9
$DIMEXO
 40
1.0
  9
$DIMDLI
 40
3.75
  9
$DIMRND
 40
0.0
  9
$DIMDLE
 40
0.0
  9
$DIMEXE
 40
1.0
  9
$DIMTP
 40
0.0
  9
$DIMTM
 40
0.0
  9
$DIMTXT
 40
3.5
  9
$DIMCEN
 40
2.5
  9
$DIMTSZ
 40
0.0
  9
$DIMTOL
 70
     0
  9
$DIMLIM
 70
     0
  9
$DIMTIH
 70
     1
  9
$DIMTOH
 70
     1
  9
$DIMSE1
 70
     0
  9
$DIMSE2
 70
     0
  9
$DIMTAD
 70
     1
  9
$DIMZIN
 70
     0
  9
$DIMBLK
  1

  9
$DIMASO
 70
     1
  9
$DIMSHO
 70
     1
  9
$DIMPOST
  1

  9
$DIMAPOST
  1

  9
$DIMALT
 70
     0
  9
$DIMALTD
 70
     3
  9
$DIMALTF
 40
0.0393700787
  9
$DIMLFAC
 40
1.0
  9
$DIMTOFL
 70
     1
  9
$DIMTVP
 40
0.0
  9
$DIMTIX
 70
     0
  9
$DIMSOXD
 70
     0
  9
$DIMSAH
 70
     0
  9
$DIMBLK1
  1

  9
$DIMBLK2
  1

  9
$DIMSTYLE
  2
ISO-25
  9
$DIMCLRD
 70
     0
  9
$DIMCLRE
 70
     0
  9
$DIMCLRT
 70
     0
  9
$DIMTFAC
 40
1.0
  9
$DIMGAP
 40
1.524
  9
$DIMJUST
 70
     0
  9
$DIMSD1
 70
     0
  9
$DIMSD2
 70
     0
  9
$DIMTOLJ
 70
     0
  9
$DIMTZIN
 70
     0
  9
$DIMALTZ
 70
     0
  9
$DIMALTTZ
 70
     0
  9
$DIMFIT
 70
     3
  9
$DIMUPT
 70
     0
  9
$DIMUNIT
 70
     2
  9
$DIMDEC
 70
     2
  9
$DIMTDEC
 70
     2
  9
$DIMALTU
 70
     2
  9
$DIMALTTD
 70
     3
  9
$DIMTXSTY
  7
STANDARD
  9
$DIMAUNIT
 70
     0
  9
$LUNITS
 70
     2
  9
$LUPREC
 70
     2
  9
$SKETCHINC
 40
1.0
  9
$FILLETRAD
 40
10.0
  9
$AUNITS
 70
     0
  9
$AUPREC
 70
     2
  9
$MENU
  1
.
  9
$ELEVATION
 40
0.0
  9
$PELEVATION
 40
0.0
  9
$THICKNESS
 40
0.0
  9
$LIMCHECK
 70
     0
  9
$CHAMFERA
 40
0.0
  9
$CHAMFERB
 40
0.0
  9
$CHAMFERC
 40
0.0
  9
$CHAMFERD
 40
0.0
  9
$SKPOLY
 70
     0
  9
$TDCREATE
 40
2457774.696930243
  9
$TDUPDATE
 40
2457774.696930961
  9
$TDINDWG
 40
0.0000000116
  9
$TDUSRTIMER
 40
0.0000000116
  9
$USRTIMER
 70
     1
  9
$ANGBASE
 50
0.0
  9
$ANGDIR
 70
     0
  9
$PDMODE
 70
     0
  9
$PDSIZE
 40
-1.0
  9
$PLINEWID
 40
0.0
  9
$COORDS
 70
     1
  9
$SPLFRAME
 70
     0
  9
$SPLINETYPE
 70
     6
  9
$SPLINESEGS
 70
     8
  9
$ATTDIA
 70
     0
  9
$ATTREQ
 70
     1
  9
$HANDLING
 70
     1
  9
$HANDSEED
  5
1DE
  9
$SURFTAB1
 70
     6
  9
$SURFTAB2
 70
     6
  9
$SURFTYPE
 70
     6
  9
$SURFU
 70
     6
  9
$SURFV
 70
     6
  9
$UCSNAME
  2

  9
$UCSORG
 10
0.0
 20
0.0
 30
0.0
  9
$UCSXDIR
 10
1.0
 20
0.0
 30
0.0
  9
$UCSYDIR
 10
0.0
 20
1.0
 30
0.0
  9
$PUCSNAME
  2

  9
$PUCSORG
 10
0.0
 20
0.0
 30
0.0
  9
$PUCSXDIR
 10
1.0
 20
0.0
 30
0.0
  9
$PUCSYDIR
 10
0.0
 20
1.0
 30
0.0
  9
$USERI1
 70
     0
  9
$USERI2
 70
     0
  9
$USERI3
 70
     0
  9
$USERI4
 70
     0
  9
$USERI5
 70
     0
  9
$USERR1
 40
0.0
  9
$USERR2
 40
0.0
  9
$USERR3
 40
0.0
  9
$USERR4
 40
0.0
  9
$USERR5
 40
0.0
  9
$WORLDVIEW
 70
     1
  9
$SHADEDGE
 70
     3
  9
$SHADEDIF
 70
    70
  9
$TILEMODE
 70
     1
  9
$MAXACTVP
 70
    64
  9
$PINSBASE
 10
0.0
 20
0.0
 30
0.0
  9
$PLIMCHECK
 70
     0
  9
$PEXTMIN
 10
1.0000000000E+20
 20
1.0000000000E+20
 30
1.0000000000E+20
  9
$PEXTMAX
 10
-1.0000000000E+20
 20
-1.0000000000E+20
 30
-1.0000000000E+20
  9
$PLIMMIN
 10
0.0
 20
0.0
  9
$PLIMMAX
 10
420.0
 20
297.0
  9
$UNITMODE
 70
     0
  9
$VISRETAIN
 70
     1
  9
$PLINEGEN
 70
     0
  9
$PSLTSCALE
 70
     1
  9
$TREEDEPTH
 70
  3020
  9
$PICKSTYLE
 70
     1
  9
$CMLSTYLE
  2
STANDARD
  9
$CMLJUST
 70
     0
  9
$CMLSCALE
 40
20.0
  9
$PROXYGRAPHICS
 70
     1
  9
$MEASUREMENT
 70
     1
  0
ENDSEC
  0
SECTION
  2
CLASSES
  0
CLASS
  1
ACDBDICTIONARYWDFLT
  2
AcDbDictionaryWithDefault
  3
ObjectDBX Classes
 90
        0
280
     0
281
     0
  0
CLASS
  1
VISUALSTYLE
  2
AcDbVisualStyle
  3
ObjectDBX Classes
 90
     4095
280
     0
281
     0
  0
CLASS
  1
MATERIAL
  2
AcDbMaterial
  3
ObjectDBX Classes
 90
     1153
280
     0
281
     0
  0
CLASS
  1
SCALE
  2
AcDbScale
  3
ObjectDBX Classes
 90
     1153
280
     0
281
     0
  0
CLASS
  1
TABLESTYLE
  2
AcDbTableStyle
  3
ObjectDBX Classes
 90
     4095
280
     0
281
     0
  0
CLASS
  1
MLEADERSTYLE
  2
AcDbMLeaderStyle
  3
ACDB_MLEADERSTYLE_CLASS
 90
     4095
280
     0
281
     0
  0
CLASS
  1
SUN
  2
AcDbSun
  3
SCENEOE
 90
     1153
280
     0
281
     0
  0
CLASS
  1
XRECORD
  2
AcDbXrecord
  3
ObjectDBX Classes
 90
        0
280
     0
281
     0
  0
CLASS
  1
LWPOLYLINE
  2
AcDbPolyline
  3
ObjectDBX Classes
 90
        0
280
     0
281
     1
  0
CLASS
  1
HATCH
  2
AcDbHatch
  3
ObjectDBX Classes
 90
        0
280
     0
281
     1
  0
ENDSEC
  0
SECTION
  2
TABLES
  0
TABLE
  2
VPORT
  5
8
330
0
100
AcDbSymbolTable
 70
     1
  0
VPORT
  5
29
330
8
100
AcDbSymbolTableRecord
100
AcDbViewportTableRecord
  2
*ACTIVE
 70
     0
 10
0.0
 20
0.0
 11
1.0
 21
1.0
 12
148.5
 22
105.0
 13
0.0
 23
0.0
 14
10.0
 24
10.0
 15
10.0
 25
10.0
 16
0.0
 26
0.0
 36
1.0
 17
0.0
 27
0.0
 37
0.0
 40
210.0
 41
1.4142857143
 42
50.0
 43
0.0
 44
0.0
 50
0.0
 51
0.0
 71
     0
 72
  2000
 73
     1
 74
     3
 75
     0
 76
     0
 77
     0
 78
     0
  0
ENDTAB
  0
TABLE
  2
LTYPE
  5
5
330
0
100
AcDbSymbolTable
 70
     6
  0
LTYPE
  5
14
330
5
100
AcDbSymbolTableRecord
100
AcDbLinetypeTableRecord
  2
BYBLOCK
 70
     0
  3

 72
    65
 73
     0
 40
0.0
  0
LTYPE
  5
15
330
5
100
AcDbSymbolTableRecord
100
AcDbLinetypeTableRecord
  2
BYLAYER
 70
     0
  3

 72
    65
 73
     0
 40
0.0
  0
LTYPE
  5
16
330
5
100
AcDbSymbolTableRecord
100
AcDbLinetypeTableRecord
  2
CONTINUOUS
 70
     0
  3
Solid line
 72
    65
 73
     0
 40
0.0
  0
LTYPE
  5
6E
330
5
100
AcDbSymbolTableRecord
100
AcDbLinetypeTableRecord
  2
HIDDEN
 70
     0
  3
Hidden __ __ __ __ __ __ __ __ __ __ __ __ __ __
 72
    65
 73
     2
 40
1.905
 49
1.27
 74
     0
 49
-0.635
 74
     0
  0
LTYPE
  5
6F
330
5
100
AcDbSymbolTableRecord
100
AcDbLinetypeTableRecord
  2
PHANTOM
 70
     0
  3
Phantom ______  __  __  ______  __  __  ______
 72
    65
 73
     6
 40
12.7
 49
6.35
 74
     0
 49
-1.27
 74
     0
 49
1.27
 74
     0
 49
-1.27
 74
     0
 49
1.27
 74
     0
 49
-1.27
 74
     0
  0
LTYPE
  5
70
330
5
100
AcDbSymbolTableRecord
100
AcDbLinetypeTableRecord
  2
CENTER
 70
     0
  3
Center ____ _ ____ _ ____ _ ____ _ ____ _ ____
 72
    65
 73
     4
 40
10.16
 49
6.35
 74
     0
 49
-1.27
 74
     0
 49
1.27
 74
     0
 49
-1.27
 74
     0
  0
LTYPE
  5
71
330
5
100
AcDbSymbolTableRecord
100
AcDbLinetypeTableRecord
  2
CENTERX2
 70
     0
  3
Center (2x) ________  __  ________  __  _____
 72
    65
 73
     4
 40
20.32
 49
12.7
 74
     0
 49
-2.54
 74
     0
 49
2.54
 74
     0
 49
-2.54
 74
     0
  0
LTYPE
  5
72
330
5
100
AcDbSymbolTableRecord
100
AcDbLinetypeTableRecord
  2
DOT2
 70
     0
  3
Dot (.5x) ........................................
 72
    65
 73
     2
 40
0.635
 49
0.0
 74
     0
 49
-0.635
 74
     0
  0
ENDTAB
  0
TABLE
  2
LAYER
  5
2
330
0
100
AcDbSymbolTable
 70
     1
  0
LAYER
  5
10
330
2
100
AcDbSymbolTableRecord
100
AcDbLayerTableRecord
  2
0
 70
     0
 62
     7
  6
CONTINUOUS
  0
ENDTAB
  0
TABLE
  2
STYLE
  5
3
330
0
100
AcDbSymbolTable
 70
     3
  0
STYLE
  5
11
330
3
100
AcDbSymbolTableRecord
100
AcDbTextStyleTableRecord
  2
STANDARD
 70
     0
 40
0.0
 41
1.0
 50
0.0
 71
     0
 42
3.5
  3
GOTHIC.TTF
  4

1001
ACAD
1000
CENTURY GOTHIC
1071
       34
  0
STYLE
  5
73
330
3
100
AcDbSymbolTableRecord
100
AcDbTextStyleTableRecord
  2
SLDTEXTSTYLE0
 70
     0
 40
0.0
 41
0.913
 50
0.0
 71
     0
 42
3.5
  3
GOTHIC.TTF
  4
bigfont
1001
ACAD
1000
Century Gothic
1071
      290
  0
STYLE
  5
A6
330
3
100
AcDbSymbolTableRecord
100
AcDbTextStyleTableRecord
  2
SLDTEXTSTYLE1
 70
     0
 40
0.0
 41
0.913
 50
0.0
 71
     0
 42
3.5
  3
GOTHIC.TTF
  4

1001
ACAD
1000
Century Gothic
1071
      290
  0
ENDTAB
  0
TABLE
  2
VIEW
  5
6
330
0
100
AcDbSymbolTable
 70
     0
  0
ENDTAB
  0
TABLE
  2
UCS
  5
7
330
0
100
AcDbSymbolTable
 70
     0
  0
ENDTAB
  0
TABLE
  2
APPID
  5
9
330
0
100
AcDbSymbolTable
 70
     1
  0
APPID
  5
12
330
9
100
AcDbSymbolTableRecord
100
AcDbRegAppTableRecord
  2
ACAD
 70
     0
  0
ENDTAB
  0
TABLE
  2
DIMSTYLE
  5
A
330
0
100
AcDbSymbolTable
 70
     4
  0
DIMSTYLE
105
27
330
A
100
AcDbSymbolTableRecord
100
AcDbDimStyleTableRecord
  2
ISO-25
 70
     0
  3

  4

  5

  6

  7

 40
1.0
 41
2.5
 42
0.625
 43
3.75
 44
1.25
 45
0.0
 46
0.0
 47
0.0
 48
0.0
140
2.5
141
2.5
142
0.0
143
0.0393700787
144
1.0
145
0.0
146
1.0
147
0.625
 71
     0
 72
     0
 73
     0
 74
     0
 75
     0
 76
     0
 77
     1
 78
     8
170
     0
171
     3
172
     1
173
     0
174
     0
175
     0
176
     0
177
     0
178
     0
270
     2
271
     2
272
     2
273
     2
274
     3
340
11
275
     0
280
     0
281
     0
282
     0
283
     0
284
     8
285
     0
286
     0
287
     3
288
     0
  0
DIMSTYLE
105
A7
102
{ACAD_REACTORS
330
A5
330
B9
330
C5
330
DC
330
115
330
1A3
330
1B7
330
1C4
102
}
330
A
100
AcDbSymbolTableRecord
100
AcDbDimStyleTableRecord
  2
SLDDIMSTYLE0
 70
     0
  3

  4

  5

  6
OPEN30
  7
OPEN30
 40
1.0
 41
3.302
 42
0.0625
 43
0.38
 44
0.0
 45
0.000000001
 46
0.0
 47
0.0
 48
0.0
140
3.5
141
0.09
142
0.0
143
25.4
144
1.0
145
0.0
146
1.0
147
0.875
 71
     0
 72
     0
 73
     0
 74
     0
 75
     0
 76
     0
 77
     3
 78
    12
170
     0
171
     2
172
     1
173
     1
174
     0
175
     0
176
     0
177
     0
178
     0
270
     2
271
     2
272
     2
273
     2
274
     2
340
A6
275
     0
280
     0
281
     0
282
     0
283
     1
284
    12
285
     0
286
     0
288
     0
  0
DIMSTYLE
105
D2
102
{ACAD_REACTORS
330
D1
330
1AD
102
}
330
A
100
AcDbSymbolTableRecord
100
AcDbDimStyleTableRecord
  2
SLDDIMSTYLE1
 70
     0
  3

  4

  5

  6
OPEN30
  7
OPEN30
 40
1.0
 41
3.302
 42
0.0625
 43
0.38
 44
0.0
 45
0.000000001
 46
0.0
 47
0.0
 48
0.0
140
3.5
141
0.09
142
0.0
143
25.4
144
1.0
145
0.0
146
1.0
147
0.875
 71
     0
 72
     0
 73
     0
 74
     0
 75
     0
 76
     0
 77
     3
 78
    12
170
     0
171
     2
172
     0
173
     1
174
     0
175
     0
176
     0
177
     0
178
     0
270
     2
271
     2
272
     2
273
     2
274
     2
340
A6
275
     0
280
     0
281
     0
282
     0
283
     1
284
    12
285
     0
286
     0
287
     3
288
     0
  0
DIMSTYLE
105
1D8
330
A
100
AcDbSymbolTableRecord
100
AcDbDimStyleTableRecord
  2
SLDDIMSTYLE2
 70
     0
  3

  4

  5

  6
OPEN30
  7
OPEN30
 40
1.0
 41
3.302
 42
0.0625
 43
0.38
 44
0.0
 45
0.000000001
 46
0.0
 47
0.0
 48
0.0
140
0.18
141
0.09
142
0.0
143
25.4
144
1.0
145
0.0
146
3.302
147
0.0
 71
     0
 72
     0
 73
     1
 74
     1
 75
     0
 76
     0
 77
     0
 78
     0
170
     0
171
     2
172
     0
173
     1
174
     0
175
     0
176
     0
177
     0
178
     0
270
     2
271
     0
272
     0
273
     2
274
     2
340
11
275
     0
280
     0
281
     0
282
     0
283
     1
284
     0
285
     0
286
     0
287
     3
288
     0
  0
ENDTAB
  0
TABLE
  2
BLOCK_RECORD
  5
1
330
0
100
AcDbSymbolTable
 70
    18
  0
BLOCK_RECORD
  5
1F
330
1
100
AcDbSymbolTableRecord
100
AcDbBlockTableRecord
  2
*MODEL_SPACE
  0
BLOCK_RECORD
  5
1B
330
1
100
AcDbSymbolTableRecord
100
AcDbBlockTableRecord
  2
*PAPER_SPACE
  0
BLOCK_RECORD
  5
23
330
1
100
AcDbSymbolTableRecord
100
AcDbBlockTableRecord
  2
*PAPER_SPACE0
  0
BLOCK_RECORD
  5
A8
330
1
100
AcDbSymbolTableRecord
100
AcDbBlockTableRecord
  2
_OPEN30
  0
BLOCK_RECORD
  5
AE
330
1
100
AcDbSymbolTableRecord
100
AcDbBlockTableRecord
  2
_D
  0
BLOCK_RECORD
  5
BA
330
1
100
AcDbSymbolTableRecord
100
AcDbBlockTableRecord
  2
_D_1
  0
BLOCK_RECORD
  5
C6
330
1
100
AcDbSymbolTableRecord
100
AcDbBlockTableRecord
  2
_D_2
  0
BLOCK_RECORD
  5
D3
330
1
100
AcDbSymbolTableRecord
100
AcDbBlockTableRecord
  2
_D_3
  0
BLOCK_RECORD
  5
DD
330
1
100
AcDbSymbolTableRecord
100
AcDbBlockTableRecord
  2
_D_4
  0
BLOCK_RECORD
  5
E9
330
1
100
AcDbSymbolTableRecord
100
AcDbBlockTableRecord
  2
SW_CENTERMARKSYMBOL_0
  0
BLOCK_RECORD
  5
F5
330
1
100
AcDbSymbolTableRecord
100
AcDbBlockTableRecord
  2
SW_CENTERMARKSYMBOL_1
  0
BLOCK_RECORD
  5
101
330
1
100
AcDbSymbolTableRecord
100
AcDbBlockTableRecord
  2
SW_CENTERMARKSYMBOL_2
  0
BLOCK_RECORD
  5
116
330
1
100
AcDbSymbolTableRecord
100
AcDbBlockTableRecord
  2
_D_5
  0
BLOCK_RECORD
  5
121
330
1
100
AcDbSymbolTableRecord
100
AcDbBlockTableRecord
  2
SW_CENTERMARKSYMBOL_3
  0
BLOCK_RECORD
  5
12D
330
1
100
AcDbSymbolTableRecord
100
AcDbBlockTableRecord
  2
SW_CENTERMARKSYMBOL_4
  0
BLOCK_RECORD
  5
1A4
330
1
100
AcDbSymbolTableRecord
100
AcDbBlockTableRecord
  2
_D_6
  0
BLOCK_RECORD
  5
1AE
330
1
100
AcDbSymbolTableRecord
100
AcDbBlockTableRecord
  2
_D_7
  0
BLOCK_RECORD
  5
1B8
330
1
100
AcDbSymbolTableRecord
100
AcDbBlockTableRecord
  2
_D_8
  0
BLOCK_RECORD
  5
1C5
330
1
100
AcDbSymbolTableRecord
100
AcDbBlockTableRecord
  2
_D_9
  0
BLOCK_RECORD
  5
1D1
330
1
100
AcDbSymbolTableRecord
100
AcDbBlockTableRecord
  2
SW_NOTE_0
  0
ENDTAB
  0
ENDSEC
  0
SECTION
  2
BLOCKS
  0
BLOCK
  5
20
330
1F
100
AcDbEntity
  8
0
100
AcDbBlockBegin
  2
*MODEL_SPACE
 70
     0
 10
0.0
 20
0.0
 30
0.0
  3
*MODEL_SPACE
  1

  0
ENDBLK
  5
21
330
1F
100
AcDbEntity
  8
0
100
AcDbBlockEnd
  0
BLOCK
  5
1C
330
1B
100
AcDbEntity
 67
     1
  8
0
100
AcDbBlockBegin
  2
*PAPER_SPACE
 70
     0
 10
0.0
 20
0.0
 30
0.0
  3
*PAPER_SPACE
  1

  0
ENDBLK
  5
1D
330
1B
100
AcDbEntity
 67
     1
  8
0
100
AcDbBlockEnd
  0
BLOCK
  5
24
330
23
100
AcDbEntity
  8
0
100
AcDbBlockBegin
  2
*PAPER_SPACE0
 70
     0
 10
0.0
 20
0.0
 30
0.0
  3
*PAPER_SPACE0
  1

  0
ENDBLK
  5
25
330
23
100
AcDbEntity
  8
0
100
AcDbBlockEnd
  0
BLOCK
  5
A9
330
A8
100
AcDbEntity
  8
0
100
AcDbBlockBegin
  2
_OPEN30
 70
     0
 10
0.0
 20
0.0
 30
0.0
  3
_OPEN30
  1

  0
LINE
  5
AB
330
A8
100
AcDbEntity
  8
0
  6
BYBLOCK
 62
     0
100
AcDbLine
 10
-1.0
 20
0.267949
 30
0.0
 11
0.0
 21
0.0
 31
0.0
  0
LINE
  5
AC
330
A8
100
AcDbEntity
  8
0
  6
BYBLOCK
 62
     0
100
AcDbLine
 10
0.0
 20
0.0
 30
0.0
 11
-1.0
 21
-0.267949
 31
0.0
  0
LINE
  5
AD
330
A8
100
AcDbEntity
  8
0
  6
BYBLOCK
 62
     0
100
AcDbLine
 10
0.0
 20
0.0
 30
0.0
 11
-1.0
 21
0.0
 31
0.0
  0
ENDBLK
  5
AA
330
A8
100
AcDbEntity
  8
0
100
AcDbBlockEnd
  0
BLOCK
  5
AF
330
AE
100
AcDbEntity
  8
0
100
AcDbBlockBegin
  2
_D
 70
     0
 10
0.0
 20
0.0
 30
0.0
  3
_D
  1

  0
INSERT
  5
B1
330
AE
100
AcDbEntity
  8
0
  6
CONTINUOUS
 62
     7
100
AcDbBlockReference
  2
_OPEN30
 10
122.4553418691
 20
121.8581011231
 30
0.0
 41
3.302
 42
3.302
 50
0.0
  0
INSERT
  5
B2
330
AE
100
AcDbEntity
  8
0
  6
CONTINUOUS
 62
     7
100
AcDbBlockReference
  2
_OPEN30
 10
127.4553418691
 20
121.8581011231
 30
0.0
 41
3.302
 42
3.302
 50
180.0
  0
LINE
  5
B3
330
AE
100
AcDbEntity
  8
0
  6
CONTINUOUS
 62
     7
100
AcDbLine
 10
122.4553418691
 20
112.523005529
 30
0.0
 11
122.4553418691
 21
122.8581011231
 31
0.0
  0
LINE
  5
B4
330
AE
100
AcDbEntity
  8
0
  6
CONTINUOUS
 62
     7
100
AcDbLine
 10
127.4553418691
 20
110.673005529
 30
0.0
 11
127.4553418691
 21
122.8581011231
 31
0.0
  0
LINE
  5
B5
330
AE
100
AcDbEntity
  8
0
  6
CONTINUOUS
 62
     7
100
AcDbLine
 10
122.4553418691
 20
121.8581011231
 30
0.0
 11
114.3021628244
 21
121.8581011231
 31
0.0
  0
LINE
  5
B6
330
AE
100
AcDbEntity
  8
0
  6
CONTINUOUS
 62
     7
100
AcDbLine
 10
122.4553418691
 20
121.8581011231
 30
0.0
 11
127.4553418691
 21
121.8581011231
 31
0.0
  0
LINE
  5
B7
330
AE
100
AcDbEntity
  8
0
  6
CONTINUOUS
 62
     7
100
AcDbLine
 10
127.4553418691
 20
121.8581011231
 30
0.0
 11
133.8053418691
 21
121.8581011231
 31
0.0
  0
MTEXT
  5
B8
330
AE
100
AcDbEntity
  8
0
  6
CONTINUOUS
 62
     7
100
AcDbMText
 10
114.3021628244
 20
126.3288040735
 30
0.0
 40
3.5
 41
0.0
 71
     1
 72
     1
  1
5
  7
SLDTEXTSTYLE1
  0
ENDBLK
  5
B0
330
AE
100
AcDbEntity
  8
0
100
AcDbBlockEnd
  0
BLOCK
  5
BB
330
BA
100
AcDbEntity
  8
0
100
AcDbBlockBegin
  2
_D_1
 70
     0
 10
0.0
 20
0.0
 30
0.0
  3
_D_1
  1

  0
INSERT
  5
BD
330
BA
100
AcDbEntity
  8
0
  6
CONTINUOUS
 62
     7
100
AcDbBlockReference
  2
_OPEN30
 10
122.4553418691
 20
129.523005529
 30
0.0
 41
3.302
 42
3.302
 50
0.0
  0
INSERT
  5
BE
330
BA
100
AcDbEntity
  8
0
  6
CONTINUOUS
 62
     7
100
AcDbBlockReference
  2
_OPEN30
 10
133.4553418691
 20
129.523005529
 30
0.0
 41
3.302
 42
3.302
 50
180.0
  0
LINE
  5
BF
330
BA
100
AcDbEntity
  8
0
  6
CONTINUOUS
 62
     7
100
AcDbLine
 10
122.4553418691
 20
112.523005529
 30
0.0
 11
122.4553418691
 21
130.523005529
 31
0.0
  0
LINE
  5
C0
330
BA
100
AcDbEntity
  8
0
  6
CONTINUOUS
 62
     7
100
AcDbLine
 10
133.4553418691
 20
110.673005529
 30
0.0
 11
133.4553418691
 21
130.523005529
 31
0.0
  0
LINE
  5
C1
330
BA
100
AcDbEntity
  8
0
  6
CONTINUOUS
 62
     7
100
AcDbLine
 10
122.4553418691
 20
129.523005529
 30
0.0
 11
116.1053418691
 21
129.523005529
 31
0.0
  0
LINE
  5
C2
330
BA
100
AcDbEntity
  8
0
  6
CONTINUOUS
 62
     7
100
AcDbLine
 10
122.4553418691
 20
129.523005529
 30
0.0
 11
133.4553418691
 21
129.523005529
 31
0.0
  0
LINE
  5
C3
330
BA
100
AcDbEntity
  8
0
  6
CONTINUOUS
 62
     7
100
AcDbLine
 10
133.4553418691
 20
129.523005529
 30
0.0
 11
139.8053418691
 21
129.523005529
 31
0.0
  0
MTEXT
  5
C4
330
BA
100
AcDbEntity
  8
0
  6
CONTINUOUS
 62
     7
100
AcDbMText
 10
124.8350689124
 20
133.9937084794
 30
0.0
 40
3.5
 41
0.0
 71
     1
 72
     1
  1
11
  7
SLDTEXTSTYLE1
  0
ENDBLK
  5
BC
330
BA
100
AcDbEntity
  8
0
100
AcDbBlockEnd
  0
BLOCK
  5
C7
330
C6
100
AcDbEntity
  8
0
100
AcDbBlockBegin
  2
_D_2
 70
     0
 10
0.0
 20
0.0
 30
0.0
  3
_D_2
  1

  0
INSERT
  5
C9
330
C6
100
AcDbEntity
  8
0
  6
CONTINUOUS
 62
     7
100
AcDbBlockReference
  2
_OPEN30
 10
122.4553418691
 20
137.9889555041
 30
0.0
 41
3.302
 42
3.302
 50
0.0
  0
INSERT
  5
CA
330
C6
100
AcDbEntity
  8
0
  6
CONTINUOUS
 62
     7
100
AcDbBlockReference
  2
_OPEN30
 10
139.4553418691
 20
137.9889555041
 30
0.0
 41
3.302
 42
3.302
 50
180.0
  0
LINE
  5
CB
330
C6
100
AcDbEntity
  8
0
  6
CONTINUOUS
 62
     7
100
AcDbLine
 10
122.4553418691
 20
112.523005529
 30
0.0
 11
122.4553418691
 21
138.9889555041
 31
0.0
  0
LINE
  5
CC
330
C6
100
AcDbEntity
  8
0
  6
CONTINUOUS
 62
     7
100
AcDbLine
 10
139.4553418691
 20
110.673005529
 30
0.0
 11
139.4553418691
 21
138.9889555041
 31
0.0
  0
LINE
  5
CD
330
C6
100
AcDbEntity
  8
0
  6
CONTINUOUS
 62
     7
100
AcDbLine
 10
122.4553418691
 20
137.9889555041
 30
0.0
 11
116.1053418691
 21
137.9889555041
 31
0.0
  0
LINE
  5
CE
330
C6
100
AcDbEntity
  8
0
  6
CONTINUOUS
 62
     7
100
AcDbLine
 10
122.4553418691
 20
137.9889555041
 30
0.0
 11
139.4553418691
 21
137.9889555041
 31
0.0
  0
LINE
  5
CF
330
C6
100
AcDbEntity
  8
0
  6
CONTINUOUS
 62
     7
100
AcDbLine
 10
139.4553418691
 20
137.9889555041
 30
0.0
 11
145.8053418691
 21
137.9889555041
 31
0.0
  0
MTEXT
  5
D0
330
C6
100
AcDbEntity
  8
0
  6
CONTINUOUS
 62
     7
100
AcDbMText
 10
128.2043414353
 20
142.4596584545
 30
0.0
 40
3.5
 41
0.0
 71
     1
 72
     1
  1
17
  7
SLDTEXTSTYLE1
  0
ENDBLK
  5
C8
330
C6
100
AcDbEntity
  8
0
100
AcDbBlockEnd
  0
BLOCK
  5
D4
330
D3
100
AcDbEntity
  8
0
100
AcDbBlockBegin
  2
_D_3
 70
     0
 10
0.0
 20
0.0
 30
0.0
  3
_D_3
  1

  0
INSERT
  5
D6
330
D3
100
AcDbEntity
  8
0
  6
CONTINUOUS
 62
     7
100
AcDbBlockReference
  2
_OPEN30
 10
122.4553418691
 20
147.523005529
 30
0.0
 41
3.302
 42
3.302
 50
180.0
  0
INSERT
  5
D7
330
D3
100
AcDbEntity
  8
0
  6
CONTINUOUS
 62
     7
100
AcDbBlockReference
  2
_OPEN30
 10
222.4553418691
 20
147.523005529
 30
0.0
 41
3.302
 42
3.302
 50
0.0
  0
LINE
  5
D8
330
D3
100
AcDbEntity
  8
0
  6
CONTINUOUS
 62
     7
100
AcDbLine
 10
122.4553418691
 20
112.523005529
 30
0.0
 11
122.4553418691
 21
148.523005529
 31
0.0
  0
LINE
  5
D9
330
D3
100
AcDbEntity
  8
0
  6
CONTINUOUS
 62
     7
100
AcDbLine
 10
222.4553418691
 20
113.523005529
 30
0.0
 11
222.4553418691
 21
148.523005529
 31
0.0
  0
LINE
  5
DA
330
D3
100
AcDbEntity
  8
0
  6
CONTINUOUS
 62
     7
100
AcDbLine
 10
122.4553418691
 20
147.523005529
 30
0.0
 11
222.4553418691
 21
147.523005529
 31
0.0
  0
MTEXT
  5
DB
330
D3
100
AcDbEntity
  8
0
  6
CONTINUOUS
 62
     7
100
AcDbMText
 10
164.4325030736
 20
151.9937084794
 30
0.0
 40
3.5
 41
0.0
 71
     1
 72
     1
  1
100
  7
SLDTEXTSTYLE1
  0
ENDBLK
  5
D5
330
D3
100
AcDbEntity
  8
0
100
AcDbBlockEnd
  0
BLOCK
  5
DE
330
DD
100
AcDbEntity
  8
0
100
AcDbBlockBegin
  2
_D_4
 70
     0
 10
0.0
 20
0.0
 30
0.0
  3
_D_4
  1

  0
INSERT
  5
E0
330
DD
100
AcDbEntity
  8
0
  6
CONTINUOUS
 62
     7
100
AcDbBlockReference
  2
_OPEN30
 10
241.2975090903
 20
113.523005529
 30
0.0
 41
3.302
 42
3.302
 50
270.0
  0
INSERT
  5
E1
330
DD
100
AcDbEntity
  8
0
  6
CONTINUOUS
 62
     7
100
AcDbBlockReference
  2
_OPEN30
 10
241.2975090903
 20
97.523005529
 30
0.0
 41
3.302
 42
3.302
 50
90.0
  0
LINE
  5
E2
330
DD
100
AcDbEntity
  8
0
  6
CONTINUOUS
 62
     7
100
AcDbLine
 10
222.4553418691
 20
113.523005529
 30
0.0
 11
242.2975090903
 21
113.523005529
 31
0.0
  0
LINE
  5
E3
330
DD
100
AcDbEntity
  8
0
  6
CONTINUOUS
 62
     7
100
AcDbLine
 10
222.4553418691
 20
97.523005529
 30
0.0
 11
242.2975090903
 21
97.523005529
 31
0.0
  0
LINE
  5
E4
330
DD
100
AcDbEntity
  8
0
  6
CONTINUOUS
 62
     7
100
AcDbLine
 10
241.2975090903
 20
113.523005529
 30
0.0
 11
241.2975090903
 21
119.873005529
 31
0.0
  0
LINE
  5
E5
330
DD
100
AcDbEntity
  8
0
  6
CONTINUOUS
 62
     7
100
AcDbLine
 10
241.2975090903
 20
113.523005529
 30
0.0
 11
241.2975090903
 21
97.523005529
 31
0.0
  0
LINE
  5
E6
330
DD
100
AcDbEntity
  8
0
  6
CONTINUOUS
 62
     7
100
AcDbLine
 10
241.2975090903
 20
97.523005529
 30
0.0
 11
241.2975090903
 21
91.173005529
 31
0.0
  0
MTEXT
  5
E7
330
DD
100
AcDbEntity
  8
0
  6
CONTINUOUS
 62
     7
100
AcDbMText
 10
236.8268059653
 20
100.1675206115
 30
0.0
 40
3.5
 41
0.0
 71
     1
 72
     1
  1
%%c
  7
SLDTEXTSTYLE1
 11
-7.044195017643634E-15
 21
1.0
 31
0.0
  0
MTEXT
  5
E8
330
DD
100
AcDbEntity
  8
0
  6
CONTINUOUS
 62
     7
100
AcDbMText
 10
236.7733337886
 20
105.4459580099
 30
0.0
 40
3.5
 41
0.0
 71
     1
 72
     1
  1
16
  7
SLDTEXTSTYLE1
 11
-7.044195017643634E-15
 21
1.0
 31
0.0
  0
ENDBLK
  5
DF
330
DD
100
AcDbEntity
  8
0
100
AcDbBlockEnd
  0
BLOCK
  5
EA
330
E9
100
AcDbEntity
  8
0
100
AcDbBlockBegin
  2
SW_CENTERMARKSYMBOL_0
 70
     0
 10
0.0
 20
0.0
 30
0.0
  3
SW_CENTERMARKSYMBOL_0
  1

  0
LINE
  5
EC
330
E9
100
AcDbEntity
  8
0
  6
CONTINUOUS
 62
     0
100
AcDbLine
 10
0.0
 20
0.0
 30
0.0
 11
0.0
 21
2.5
 31
0.0
  0
LINE
  5
ED
330
E9
100
AcDbEntity
  8
0
  6
CONTINUOUS
 62
     0
100
AcDbLine
 10
0.0
 20
0.0
 30
0.0
 11
-2.5
 21
0.0
 31
0.0
  0
LINE
  5
EE
330
E9
100
AcDbEntity
  8
0
  6
CONTINUOUS
 62
     0
100
AcDbLine
 10
0.0
 20
0.0
 30
0.0
 11
0.0
 21
-2.5
 31
0.0
  0
LINE
  5
EF
330
E9
100
AcDbEntity
  8
0
  6
CONTINUOUS
 62
     0
100
AcDbLine
 10
0.0
 20
0.0
 30
0.0
 11
2.5
 21
0.0
 31
0.0
  0
LINE
  5
F0
330
E9
100
AcDbEntity
  8
0
  6
CONTINUOUS
 62
     0
100
AcDbLine
 10
0.0
 20
2.5
 30
0.0
 11
0.0
 21
4.15
 31
0.0
  0
LINE
  5
F1
330
E9
100
AcDbEntity
  8
0
  6
CONTINUOUS
 62
     0
100
AcDbLine
 10
-2.5
 20
0.0
 30
0.0
 11
-4.15
 21
0.0
 31
0.0
  0
LINE
  5
F2
330
E9
100
AcDbEntity
  8
0
  6
CONTINUOUS
 62
     0
100
AcDbLine
 10
0.0
 20
-2.5
 30
0.0
 11
0.0
 21
-4.15
 31
0.0
  0
LINE
  5
F3
330
E9
100
AcDbEntity
  8
0
  6
CONTINUOUS
 62
     0
100
AcDbLine
 10
2.5
 20
0.0
 30
0.0
 11
4.15
 21
0.0
 31
0.0
  0
ENDBLK
  5
EB
330
E9
100
AcDbEntity
  8
0
100
AcDbBlockEnd
  0
BLOCK
  5
F6
330
F5
100
AcDbEntity
  8
0
100
AcDbBlockBegin
  2
SW_CENTERMARKSYMBOL_1
 70
     0
 10
0.0
 20
0.0
 30
0.0
  3
SW_CENTERMARKSYMBOL_1
  1

  0
LINE
  5
F8
330
F5
100
AcDbEntity
  8
0
  6
CONTINUOUS
 62
     0
100
AcDbLine
 10
0.0
 20
0.0
 30
0.0
 11
0.0
 21
2.5
 31
0.0
  0
LINE
  5
F9
330
F5
100
AcDbEntity
  8
0
  6
CONTINUOUS
 62
     0
100
AcDbLine
 10
0.0
 20
0.0
 30
0.0
 11
-2.5
 21
0.0
 31
0.0
  0
LINE
  5
FA
330
F5
100
AcDbEntity
  8
0
  6
CONTINUOUS
 62
     0
100
AcDbLine
 10
0.0
 20
0.0
 30
0.0
 11
0.0
 21
-2.5
 31
0.0
  0
LINE
  5
FB
330
F5
100
AcDbEntity
  8
0
  6
CONTINUOUS
 62
     0
100
AcDbLine
 10
0.0
 20
0.0
 30
0.0
 11
2.5
 21
0.0
 31
0.0
  0
LINE
  5
FC
330
F5
100
AcDbEntity
  8
0
  6
CONTINUOUS
 62
     0
100
AcDbLine
 10
0.0
 20
2.5
 30
0.0
 11
0.0
 21
4.15
 31
0.0
  0
LINE
  5
FD
330
F5
100
AcDbEntity
  8
0
  6
CONTINUOUS
 62
     0
100
AcDbLine
 10
-2.5
 20
0.0
 30
0.0
 11
-4.15
 21
0.0
 31
0.0
  0
LINE
  5
FE
330
F5
100
AcDbEntity
  8
0
  6
CONTINUOUS
 62
     0
100
AcDbLine
 10
0.0
 20
-2.5
 30
0.0
 11
0.0
 21
-4.15
 31
0.0
  0
LINE
  5
FF
330
F5
100
AcDbEntity
  8
0
  6
CONTINUOUS
 62
     0
100
AcDbLine
 10
2.5
 20
0.0
 30
0.0
 11
4.15
 21
0.0
 31
0.0
  0
ENDBLK
  5
F7
330
F5
100
AcDbEntity
  8
0
100
AcDbBlockEnd
  0
BLOCK
  5
102
330
101
100
AcDbEntity
  8
0
100
AcDbBlockBegin
  2
SW_CENTERMARKSYMBOL_2
 70
     0
 10
0.0
 20
0.0
 30
0.0
  3
SW_CENTERMARKSYMBOL_2
  1

  0
LINE
  5
104
330
101
100
AcDbEntity
  8
0
  6
CONTINUOUS
 62
     0
100
AcDbLine
 10
0.0
 20
0.0
 30
0.0
 11
0.0
 21
2.5
 31
0.0
  0
LINE
  5
105
330
101
100
AcDbEntity
  8
0
  6
CONTINUOUS
 62
     0
100
AcDbLine
 10
0.0
 20
0.0
 30
0.0
 11
-2.5
 21
0.0
 31
0.0
  0
LINE
  5
106
330
101
100
AcDbEntity
  8
0
  6
CONTINUOUS
 62
     0
100
AcDbLine
 10
0.0
 20
0.0
 30
0.0
 11
0.0
 21
-2.5
 31
0.0
  0
LINE
  5
107
330
101
100
AcDbEntity
  8
0
  6
CONTINUOUS
 62
     0
100
AcDbLine
 10
0.0
 20
0.0
 30
0.0
 11
2.5
 21
0.0
 31
0.0
  0
LINE
  5
108
330
101
100
AcDbEntity
  8
0
  6
CONTINUOUS
 62
     0
100
AcDbLine
 10
0.0
 20
2.5
 30
0.0
 11
0.0
 21
4.15
 31
0.0
  0
LINE
  5
109
330
101
100
AcDbEntity
  8
0
  6
CONTINUOUS
 62
     0
100
AcDbLine
 10
-2.5
 20
0.0
 30
0.0
 11
-4.15
 21
0.0
 31
0.0
  0
LINE
  5
10A
330
101
100
AcDbEntity
  8
0
  6
CONTINUOUS
 62
     0
100
AcDbLine
 10
0.0
 20
-2.5
 30
0.0
 11
0.0
 21
-4.15
 31
0.0
  0
LINE
  5
10B
330
101
100
AcDbEntity
  8
0
  6
CONTINUOUS
 62
     0
100
AcDbLine
 10
2.5
 20
0.0
 30
0.0
 11
4.15
 21
0.0
 31
0.0
  0
ENDBLK
  5
103
330
101
100
AcDbEntity
  8
0
100
AcDbBlockEnd
  0
BLOCK
  5
117
330
116
100
AcDbEntity
  8
0
100
AcDbBlockBegin
  2
_D_5
 70
     0
 10
0.0
 20
0.0
 30
0.0
  3
_D_5
  1

  0
INSERT
  5
119
330
116
100
AcDbEntity
  8
0
  6
CONTINUOUS
 62
     7
100
AcDbBlockReference
  2
_OPEN30
 10
57.3816394235
 20
123.523005529
 30
50.0
 41
3.302
 42
3.302
 50
0.0
  0
INSERT
  5
11A
330
116
100
AcDbEntity
  8
0
  6
CONTINUOUS
 62
     7
100
AcDbBlockReference
  2
_OPEN30
 10
72.3816394235
 20
123.523005529
 30
50.0
 41
3.302
 42
3.302
 50
180.0
  0
LINE
  5
11B
330
116
100
AcDbEntity
  8
0
  6
CONTINUOUS
 62
     7
100
AcDbLine
 10
57.3816394235
 20
109.3068877104
 30
0.0
 11
57.3816394235
 21
124.523005529
 31
0.0
  0
LINE
  5
11C
330
116
100
AcDbEntity
  8
0
  6
CONTINUOUS
 62
     7
100
AcDbLine
 10
72.3816394235
 20
109.3068877104
 30
0.0
 11
72.3816394235
 21
124.523005529
 31
0.0
  0
LINE
  5
11D
330
116
100
AcDbEntity
  8
0
  6
CONTINUOUS
 62
     7
100
AcDbLine
 10
57.3816394235
 20
123.523005529
 30
0.0
 11
51.0316394235
 21
123.523005529
 31
0.0
  0
LINE
  5
11E
330
116
100
AcDbEntity
  8
0
  6
CONTINUOUS
 62
     7
100
AcDbLine
 10
57.3816394235
 20
123.523005529
 30
0.0
 11
72.3816394235
 21
123.523005529
 31
0.0
  0
LINE
  5
11F
330
116
100
AcDbEntity
  8
0
  6
CONTINUOUS
 62
     7
100
AcDbLine
 10
72.3816394235
 20
123.523005529
 30
0.0
 11
78.7316394235
 21
123.523005529
 31
0.0
  0
MTEXT
  5
120
330
116
100
AcDbEntity
  8
0
  6
CONTINUOUS
 62
     7
100
AcDbMText
 10
62.1160502329
 20
127.9937084794
 30
0.0
 40
3.5
 41
0.0
 71
     1
 72
     1
  1
15
  7
SLDTEXTSTYLE1
  0
ENDBLK
  5
118
330
116
100
AcDbEntity
  8
0
100
AcDbBlockEnd
  0
BLOCK
  5
122
330
121
100
AcDbEntity
  8
0
100
AcDbBlockBegin
  2
SW_CENTERMARKSYMBOL_3
 70
     0
 10
0.0
 20
0.0
 30
0.0
  3
SW_CENTERMARKSYMBOL_3
  1

  0
LINE
  5
124
330
121
100
AcDbEntity
  8
0
  6
CONTINUOUS
 62
     0
100
AcDbLine
 10
0.0
 20
0.0
 30
0.0
 11
0.0
 21
2.5
 31
0.0
  0
LINE
  5
125
330
121
100
AcDbEntity
  8
0
  6
CONTINUOUS
 62
     0
100
AcDbLine
 10
0.0
 20
0.0
 30
0.0
 11
-2.5
 21
0.0
 31
0.0
  0
LINE
  5
126
330
121
100
AcDbEntity
  8
0
  6
CONTINUOUS
 62
     0
100
AcDbLine
 10
0.0
 20
0.0
 30
0.0
 11
0.0
 21
-2.5
 31
0.0
  0
LINE
  5
127
330
121
100
AcDbEntity
  8
0
  6
CONTINUOUS
 62
     0
100
AcDbLine
 10
0.0
 20
0.0
 30
0.0
 11
2.5
 21
0.0
 31
0.0
  0
LINE
  5
128
330
121
100
AcDbEntity
  8
0
  6
CONTINUOUS
 62
     0
100
AcDbLine
 10
0.0
 20
5.0
 30
0.0
 11
0.0
 21
5.5
 31
0.0
  0
LINE
  5
129
330
121
100
AcDbEntity
  8
0
  6
CONTINUOUS
 62
     0
100
AcDbLine
 10
-5.0
 20
0.0
 30
0.0
 11
-5.5
 21
0.0
 31
0.0
  0
LINE
  5
12A
330
121
100
AcDbEntity
  8
0
  6
CONTINUOUS
 62
     0
100
AcDbLine
 10
0.0
 20
-5.0
 30
0.0
 11
0.0
 21
-5.5
 31
0.0
  0
LINE
  5
12B
330
121
100
AcDbEntity
  8
0
  6
CONTINUOUS
 62
     0
100
AcDbLine
 10
5.0
 20
0.0
 30
0.0
 11
5.5
 21
0.0
 31
0.0
  0
ENDBLK
  5
123
330
121
100
AcDbEntity
  8
0
100
AcDbBlockEnd
  0
BLOCK
  5
12E
330
12D
100
AcDbEntity
  8
0
100
AcDbBlockBegin
  2
SW_CENTERMARKSYMBOL_4
 70
     0
 10
0.0
 20
0.0
 30
0.0
  3
SW_CENTERMARKSYMBOL_4
  1

  0
LINE
  5
130
330
12D
100
AcDbEntity
  8
0
  6
CONTINUOUS
 62
     0
100
AcDbLine
 10
0.0
 20
0.0
 30
0.0
 11
0.0
 21
2.5
 31
0.0
  0
LINE
  5
131
330
12D
100
AcDbEntity
  8
0
  6
CONTINUOUS
 62
     0
100
AcDbLine
 10
0.0
 20
0.0
 30
0.0
 11
-2.5
 21
0.0
 31
0.0
  0
LINE
  5
132
330
12D
100
AcDbEntity
  8
0
  6
CONTINUOUS
 62
     0
100
AcDbLine
 10
0.0
 20
0.0
 30
0.0
 11
0.0
 21
-2.5
 31
0.0
  0
LINE
  5
133
330
12D
100
AcDbEntity
  8
0
  6
CONTINUOUS
 62
     0
100
AcDbLine
 10
0.0
 20
0.0
 30
0.0
 11
2.5
 21
0.0
 31
0.0
  0
LINE
  5
134
330
12D
100
AcDbEntity
  8
0
  6
CONTINUOUS
 62
     0
100
AcDbLine
 10
0.0
 20
5.0
 30
0.0
 11
0.0
 21
10.5
 31
0.0
  0
LINE
  5
135
330
12D
100
AcDbEntity
  8
0
  6
CONTINUOUS
 62
     0
100
AcDbLine
 10
-5.0
 20
0.0
 30
0.0
 11
-10.5
 21
0.0
 31
0.0
  0
LINE
  5
136
330
12D
100
AcDbEntity
  8
0
  6
CONTINUOUS
 62
     0
100
AcDbLine
 10
0.0
 20
-5.0
 30
0.0
 11
0.0
 21
-10.5
 31
0.0
  0
LINE
  5
137
330
12D
100
AcDbEntity
  8
0
  6
CONTINUOUS
 62
     0
100
AcDbLine
 10
5.0
 20
0.0
 30
0.0
 11
10.5
 21
0.0
 31
0.0
  0
ENDBLK
  5
12F
330
12D
100
AcDbEntity
  8
0
100
AcDbBlockEnd
  0
BLOCK
  5
1A5
330
1A4
100
AcDbEntity
  8
0
100
AcDbBlockBegin
  2
_D_6
 70
     0
 10
0.0
 20
0.0
 30
0.0
  3
_D_6
  1

  0
INSERT
  5
1A7
330
1A4
100
AcDbEntity
  8
0
  6
CONTINUOUS
 62
     7
100
AcDbBlockReference
  2
_OPEN30
 10
122.4553418691
 20
70.1579141046
 30
0.0
 41
3.302
 42
3.302
 50
180.0
  0
INSERT
  5
1A8
330
1A4
100
AcDbEntity
  8
0
  6
CONTINUOUS
 62
     7
100
AcDbBlockReference
  2
_OPEN30
 10
142.4553418691
 20
70.1579141046
 30
0.0
 41
3.302
 42
3.302
 50
0.0
  0
LINE
  5
1A9
330
1A4
100
AcDbEntity
  8
0
  6
CONTINUOUS
 62
     7
100
AcDbLine
 10
122.4553418691
 20
57.8484485958
 30
0.0
 11
122.4553418691
 21
71.1579141046
 31
0.0
  0
LINE
  5
1AA
330
1A4
100
AcDbEntity
  8
0
  6
CONTINUOUS
 62
     7
100
AcDbLine
 10
142.4553418691
 20
56.8484485958
 30
0.0
 11
142.4553418691
 21
71.1579141046
 31
0.0
  0
LINE
  5
1AB
330
1A4
100
AcDbEntity
  8
0
  6
CONTINUOUS
 62
     7
100
AcDbLine
 10
122.4553418691
 20
70.1579141046
 30
0.0
 11
142.4553418691
 21
70.1579141046
 31
0.0
  0
MTEXT
  5
1AC
330
1A4
100
AcDbEntity
  8
0
  6
CONTINUOUS
 62
     7
100
AcDbMText
 10
130.1190258237
 20
74.628617055
 30
0.0
 40
3.5
 41
0.0
 71
     1
 72
     1
  1
20
  7
SLDTEXTSTYLE1
  0
ENDBLK
  5
1A6
330
1A4
100
AcDbEntity
  8
0
100
AcDbBlockEnd
  0
BLOCK
  5
1AF
330
1AE
100
AcDbEntity
  8
0
100
AcDbBlockBegin
  2
_D_7
 70
     0
 10
0.0
 20
0.0
 30
0.0
  3
_D_7
  1

  0
INSERT
  5
1B1
330
1AE
100
AcDbEntity
  8
0
  6
CONTINUOUS
 62
     7
100
AcDbBlockReference
  2
_OPEN30
 10
142.4553418691
 20
70.1579141046
 30
0.0
 41
3.302
 42
3.302
 50
180.0
  0
INSERT
  5
1B2
330
1AE
100
AcDbEntity
  8
0
  6
CONTINUOUS
 62
     7
100
AcDbBlockReference
  2
_OPEN30
 10
222.4553418691
 20
70.1579141046
 30
0.0
 41
3.302
 42
3.302
 50
0.0
  0
LINE
  5
1B3
330
1AE
100
AcDbEntity
  8
0
  6
CONTINUOUS
 62
     7
100
AcDbLine
 10
142.4553418691
 20
56.8484485958
 30
0.0
 11
142.4553418691
 21
71.1579141046
 31
0.0
  0
LINE
  5
1B4
330
1AE
100
AcDbEntity
  8
0
  6
CONTINUOUS
 62
     7
100
AcDbLine
 10
222.4553418691
 20
58.8484485958
 30
0.0
 11
222.4553418691
 21
71.1579141046
 31
0.0
  0
LINE
  5
1B5
330
1AE
100
AcDbEntity
  8
0
  6
CONTINUOUS
 62
     7
100
AcDbLine
 10
142.4553418691
 20
70.1579141046
 30
0.0
 11
222.4553418691
 21
70.1579141046
 31
0.0
  0
MTEXT
  5
1B6
330
1AE
100
AcDbEntity
  8
0
  6
CONTINUOUS
 62
     7
100
AcDbMText
 10
179.084007441
 20
74.628617055
 30
0.0
 40
3.5
 41
0.0
 71
     1
 72
     1
  1
80
  7
SLDTEXTSTYLE1
  0
ENDBLK
  5
1B0
330
1AE
100
AcDbEntity
  8
0
100
AcDbBlockEnd
  0
BLOCK
  5
1B9
330
1B8
100
AcDbEntity
  8
0
100
AcDbBlockBegin
  2
_D_8
 70
     0
 10
0.0
 20
0.0
 30
0.0
  3
_D_8
  1

  0
INSERT
  5
1BB
330
1B8
100
AcDbEntity
  8
0
  6
CONTINUOUS
 62
     7
100
AcDbBlockReference
  2
_OPEN30
 10
112.4553418691
 20
47.8484485958
 30
0.0
 41
3.302
 42
3.302
 50
90.0
  0
INSERT
  5
1BC
330
1B8
100
AcDbEntity
  8
0
  6
CONTINUOUS
 62
     7
100
AcDbBlockReference
  2
_OPEN30
 10
112.4553418691
 20
53.8484485958
 30
0.0
 41
3.302
 42
3.302
 50
270.0
  0
LINE
  5
1BD
330
1B8
100
AcDbEntity
  8
0
  6
CONTINUOUS
 62
     7
100
AcDbLine
 10
121.9553418691
 20
47.8484485958
 30
0.0
 11
111.4553418691
 21
47.8484485958
 31
0.0
  0
LINE
  5
1BE
330
1B8
100
AcDbEntity
  8
0
  6
CONTINUOUS
 62
     7
100
AcDbLine
 10
121.9553418691
 20
53.8484485958
 30
0.0
 11
111.4553418691
 21
53.8484485958
 31
0.0
  0
LINE
  5
1BF
330
1B8
100
AcDbEntity
  8
0
  6
CONTINUOUS
 62
     7
100
AcDbLine
 10
112.4553418691
 20
47.8484485958
 30
0.0
 11
112.4553418691
 21
31.230694024
 31
0.0
  0
LINE
  5
1C0
330
1B8
100
AcDbEntity
  8
0
  6
CONTINUOUS
 62
     7
100
AcDbLine
 10
112.4553418691
 20
47.8484485958
 30
0.0
 11
112.4553418691
 21
53.8484485958
 31
0.0
  0
LINE
  5
1C1
330
1B8
100
AcDbEntity
  8
0
  6
CONTINUOUS
 62
     7
100
AcDbLine
 10
112.4553418691
 20
53.8484485958
 30
0.0
 11
112.4553418691
 21
60.1984485958
 31
0.0
  0
MTEXT
  5
1C2
330
1B8
100
AcDbEntity
  8
0
  6
CONTINUOUS
 62
     7
100
AcDbMText
 10
107.9846387441
 20
31.230694024
 30
0.0
 40
3.5
 41
0.0
 71
     1
 72
     1
  1
%%c
  7
SLDTEXTSTYLE1
 11
6.123233995736766E-17
 21
1.0
 31
0.0
  0
MTEXT
  5
1C3
330
1B8
100
AcDbEntity
  8
0
  6
CONTINUOUS
 62
     7
100
AcDbMText
 10
107.9311665675
 20
36.5091314223
 30
0.0
 40
3.5
 41
0.0
 71
     1
 72
     1
  1
6
  7
SLDTEXTSTYLE1
 11
6.123233995736766E-17
 21
1.0
 31
0.0
  0
ENDBLK
  5
1BA
330
1B8
100
AcDbEntity
  8
0
100
AcDbBlockEnd
  0
BLOCK
  5
1C6
330
1C5
100
AcDbEntity
  8
0
100
AcDbBlockBegin
  2
_D_9
 70
     0
 10
0.0
 20
0.0
 30
0.0
  3
_D_9
  1

  0
INSERT
  5
1C8
330
1C5
100
AcDbEntity
  8
0
  6
CONTINUOUS
 62
     7
100
AcDbBlockReference
  2
_OPEN30
 10
239.8978826893
 20
45.8484485958
 30
0.0
 41
3.302
 42
3.302
 50
90.0
  0
INSERT
  5
1C9
330
1C5
100
AcDbEntity
  8
0
  6
CONTINUOUS
 62
     7
100
AcDbBlockReference
  2
_OPEN30
 10
239.8978826893
 20
55.8484485958
 30
0.0
 41
3.302
 42
3.302
 50
270.0
  0
LINE
  5
1CA
330
1C5
100
AcDbEntity
  8
0
  6
CONTINUOUS
 62
     7
100
AcDbLine
 10
222.9553418691
 20
45.8484485958
 30
0.0
 11
240.8978826893
 21
45.8484485958
 31
0.0
  0
LINE
  5
1CB
330
1C5
100
AcDbEntity
  8
0
  6
CONTINUOUS
 62
     7
100
AcDbLine
 10
222.9553418691
 20
55.8484485958
 30
0.0
 11
240.8978826893
 21
55.8484485958
 31
0.0
  0
LINE
  5
1CC
330
1C5
100
AcDbEntity
  8
0
  6
CONTINUOUS
 62
     7
100
AcDbLine
 10
239.8978826893
 20
45.8484485958
 30
0.0
 11
239.8978826893
 21
39.4984485958
 31
0.0
  0
LINE
  5
1CD
330
1C5
100
AcDbEntity
  8
0
  6
CONTINUOUS
 62
     7
100
AcDbLine
 10
239.8978826893
 20
45.8484485958
 30
0.0
 11
239.8978826893
 21
55.8484485958
 31
0.0
  0
LINE
  5
1CE
330
1C5
100
AcDbEntity
  8
0
  6
CONTINUOUS
 62
     7
100
AcDbLine
 10
239.8978826893
 20
55.8484485958
 30
0.0
 11
239.8978826893
 21
62.1984485958
 31
0.0
  0
MTEXT
  5
1CF
330
1C5
100
AcDbEntity
  8
0
  6
CONTINUOUS
 62
     7
100
AcDbMText
 10
235.4271795643
 20
44.9516552638
 30
0.0
 40
3.5
 41
0.0
 71
     1
 72
     1
  1
%%c
  7
SLDTEXTSTYLE1
 11
6.123233995736766E-17
 21
1.0
 31
0.0
  0
MTEXT
  5
1D0
330
1C5
100
AcDbEntity
  8
0
  6
CONTINUOUS
 62
     7
100
AcDbMText
 10
235.3737073876
 20
50.2300926622
 30
0.0
 40
3.5
 41
0.0
 71
     1
 72
     1
  1
10
  7
SLDTEXTSTYLE1
 11
6.123233995736766E-17
 21
1.0
 31
0.0
  0
ENDBLK
  5
1C7
330
1C5
100
AcDbEntity
  8
0
100
AcDbBlockEnd
  0
BLOCK
  5
1D2
330
1D1
100
AcDbEntity
  8
0
100
AcDbBlockBegin
  2
SW_NOTE_0
 70
     0
 10
0.0
 20
0.0
 30
0.0
  3
SW_NOTE_0
  1

  0
LINE
  5
1D4
330
1D1
100
AcDbEntity
  8
0
  6
CONTINUOUS
 62
     0
100
AcDbLine
 10
-32.9150855178
 20
0.0
 30
0.0
 11
0.0
 21
0.0
 31
0.0
  0
MTEXT
  5
1D5
330
1D1
100
AcDbEntity
  8
0
  6
CONTINUOUS
 62
     0
100
AcDbMText
 10
-33.3812754782
 20
8.8827138337
 30
0.0
 40
3.5
 41
0.0
 71
     1
 72
     1
  1
3-M4×0.7
  7
SLDTEXTSTYLE1
  0
MTEXT
  5
1D6
330
1D1
100
AcDbEntity
  8
0
  6
CONTINUOUS
 62
     0
100
AcDbMText
 10
-33.3812754782
 20
4.3570193033
 30
0.0
 40
3.5
 41
0.0
 71
     1
 72
     1
  1
止めネジ:ESH-1S
  7
SLDTEXTSTYLE0
  0
ENDBLK
  5
1D3
330
1D1
100
AcDbEntity
  8
0
100
AcDbBlockEnd
  0
ENDSEC
  0
SECTION
  2
ENTITIES
  0
MTEXT
  5
74
330
1F
100
AcDbEntity
  8
0
  6
CONTINUOUS
 62
     7
100
AcDbMText
 10
102.9384953684
 20
172.6026413035
 30
0.0
 40
6.35
 41
0.0
 71
     1
 72
     1
  1
イースリーブ　ESL0616
  7
SLDTEXTSTYLE0
  0
LINE
  5
75
330
1F
100
AcDbEntity
  8
0
  6
CONTINUOUS
 62
     7
100
AcDbLine
 10
221.4553413327
 20
97.523005149
 30
0.0
 11
222.4553433592
 21
98.523005313
 31
0.0
  0
LINE
  5
76
330
1F
100
AcDbEntity
  8
0
  6
CONTINUOUS
 62
     7
100
AcDbLine
 10
222.4553433592
 20
112.5230057451
 30
0.0
 11
221.4553413327
 21
113.523005909
 31
0.0
  0
LINE
  5
77
330
1F
100
AcDbEntity
  8
0
  6
CONTINUOUS
 62
     7
100
AcDbLine
 10
124.4553419641
 20
113.523005909
 30
0.0
 11
122.4553418691
 21
111.5230055812
 31
0.0
  0
LINE
  5
78
330
1F
100
AcDbEntity
  8
0
  6
CONTINUOUS
 62
     7
100
AcDbLine
 10
122.4553418691
 20
99.5230054769
 30
0.0
 11
124.4553419641
 21
97.523005149
 31
0.0
  0
LINE
  5
79
330
1F
100
AcDbEntity
  8
0
  6
CONTINUOUS
 62
     7
100
AcDbLine
 10
124.4553419641
 20
97.523005149
 30
0.0
 11
221.4553413327
 21
97.523005149
 31
0.0
  0
LINE
  5
7A
330
1F
100
AcDbEntity
  8
0
  6
CONTINUOUS
 62
     7
100
AcDbLine
 10
221.4553413327
 20
113.523005909
 30
0.0
 11
124.4553419641
 21
113.523005909
 31
0.0
  0
CIRCLE
  5
7B
330
1F
100
AcDbEntity
  8
0
  6
CONTINUOUS
 62
     7
100
AcDbCircle
 10
127.4553418691
 20
105.523005529
 30
0.0
 40
2.200000000000003
  0
CIRCLE
  5
7C
330
1F
100
AcDbEntity
  8
0
  6
CONTINUOUS
 62
     7
100
AcDbCircle
 10
133.4553418691
 20
105.523005529
 30
0.0
 40
2.199999999999989
  0
CIRCLE
  5
7D
330
1F
100
AcDbEntity
  8
0
  6
CONTINUOUS
 62
     7
100
AcDbCircle
 10
139.4553418691
 20
105.523005529
 30
0.0
 40
2.200000000000017
  0
SPLINE
  5
7E
330
1F
100
AcDbEntity
  8
0
  6
CONTINUOUS
 62
     7
100
AcDbSpline
210
0.0
220
0.0
230
1.0
 70
     8
 71
     3
 72
    16
 73
    12
 74
     0
 42
0.000000001
 43
0.00000001
 40
0.0
 40
0.0
 40
0.0
 40
0.0
 40
0.25
 40
0.25
 40
0.5
 40
0.5
 40
0.625
 40
0.625
 40
0.75
 40
0.75
 40
1.0
 40
1.0
 40
1.0
 40
1.0
 10
124.4553418691148
 20
102.7391233476052
 30
0.0
 10
124.2988388013886
 20
103.1888638395586
 30
0.0
 10
124.1728257795695
 20
103.6476784495356
 30
0.0
 10
124.0013879520075
 20
104.5742667704243
 30
0.0
 10
123.9554814767628
 20
105.04389830253
 30
0.0
 10
123.9552725450943
 20
105.7592734797962
 30
0.0
 10
123.9667465573755
 20
105.9988810809404
 30
0.0
 10
124.0113782619598
 20
106.4711316388226
 30
0.0
 10
124.0445021392053
 20
106.705088846685
 30
0.0
 10
124.1734440738055
 20
107.4010287187542
 30
0.0
 10
124.298816401265
 20
107.8570828475864
 30
0.0
 10
124.4553418691148
 20
108.3068877104352
 30
0.0
  0
LINE
  5
7F
330
1F
100
AcDbEntity
  8
0
  6
CONTINUOUS
 62
     7
100
AcDbLine
 10
124.4553419641
 20
108.3068877279
 30
0.0
 11
221.4553413327
 21
108.3068877279
 31
0.0
  0
SPLINE
  5
80
330
1F
100
AcDbEntity
  8
0
  6
CONTINUOUS
 62
     7
100
AcDbSpline
210
0.0
220
0.0
230
1.0
 70
     8
 71
     3
 72
    16
 73
    12
 74
     0
 42
0.000000001
 43
0.00000001
 40
0.0
 40
0.0
 40
0.0
 40
0.0
 40
0.25
 40
0.25
 40
0.5
 40
0.5
 40
0.625
 40
0.625
 40
0.75
 40
0.75
 40
1.0
 40
1.0
 40
1.0
 40
1.0
 10
221.4553418691149
 20
102.7391233476052
 30
0.0
 10
221.6104599018148
 20
103.1848836854113
 30
0.0
 10
221.7378380403435
 20
103.6469575068986
 30
0.0
 10
221.9100287808809
 20
104.5788442961357
 30
0.0
 10
221.9554042266361
 20
105.0490433868278
 30
0.0
 10
221.9553105931892
 20
105.7614651852604
 30
0.0
 10
221.9438101340345
 20
106.0009065091178
 30
0.0
 10
221.8990385814877
 20
106.4732685001313
 30
0.0
 10
221.8658522897796
 20
106.7071707526872
 30
0.0
 10
221.7368238945649
 20
107.4026598940219
 30
0.0
 10
221.6115362699372
 20
107.8580342298819
 30
0.0
 10
221.4553418691149
 20
108.3068877104352
 30
0.0
  0
LINE
  5
81
330
1F
100
AcDbEntity
  8
0
  6
CONTINUOUS
 62
     7
100
AcDbLine
 10
221.4553413327
 20
102.7391233302
 30
0.0
 11
124.4553419641
 21
102.7391233302
 31
0.0
  0
LINE
  5
82
330
1F
100
AcDbEntity
  8
0
  6
CONTINUOUS
 62
     7
100
AcDbLine
 10
222.4553433592
 20
105.523005529
 30
0.0
 11
222.4553433592
 21
112.5230057451
 31
0.0
  0
LINE
  5
83
330
1F
100
AcDbEntity
  8
0
  6
CONTINUOUS
 62
     7
100
AcDbLine
 10
222.4553433592
 20
98.523005313
 30
0.0
 11
222.4553433592
 21
105.523005529
 31
0.0
  0
LINE
  5
84
330
1F
100
AcDbEntity
  8
0
  6
CONTINUOUS
 62
     7
100
AcDbLine
 10
221.4553413327
 20
108.3068877279
 30
0.0
 11
221.4553413327
 21
113.523005909
 31
0.0
  0
LINE
  5
85
330
1F
100
AcDbEntity
  8
0
  6
CONTINUOUS
 62
     7
100
AcDbLine
 10
221.4553413327
 20
97.523005149
 30
0.0
 11
221.4553413327
 21
102.7391233302
 31
0.0
  0
LINE
  5
86
330
1F
100
AcDbEntity
  8
0
  6
CONTINUOUS
 62
     7
100
AcDbLine
 10
124.4553419641
 20
97.523005149
 30
0.0
 11
124.4553419641
 21
102.7391233302
 31
0.0
  0
LINE
  5
87
330
1F
100
AcDbEntity
  8
0
  6
CONTINUOUS
 62
     7
100
AcDbLine
 10
124.4553419641
 20
108.3068877279
 30
0.0
 11
124.4553419641
 21
113.523005909
 31
0.0
  0
LINE
  5
88
330
1F
100
AcDbEntity
  8
0
  6
CONTINUOUS
 62
     7
100
AcDbLine
 10
122.4553418691
 20
105.523005529
 30
0.0
 11
122.4553418691
 21
111.5230055812
 31
0.0
  0
LINE
  5
89
330
1F
100
AcDbEntity
  8
0
  6
CONTINUOUS
 62
     7
100
AcDbLine
 10
122.4553418691
 20
99.5230054769
 30
0.0
 11
122.4553418691
 21
105.523005529
 31
0.0
  0
CIRCLE
  5
8A
330
1F
100
AcDbEntity
  8
0
  6
CONTINUOUS
 62
     7
100
AcDbCircle
 10
133.4553418691
 20
105.523005529
 30
0.0
 40
1.649999999999977
  0
CIRCLE
  5
8B
330
1F
100
AcDbEntity
  8
0
  6
CONTINUOUS
 62
     7
100
AcDbCircle
 10
139.4553418691
 20
105.523005529
 30
0.0
 40
1.649999999999977
  0
CIRCLE
  5
8C
330
1F
100
AcDbEntity
  8
0
  6
CONTINUOUS
 62
     7
100
AcDbCircle
 10
127.4553418691
 20
105.523005529
 30
0.0
 40
1.65000000000002
  0
CIRCLE
  5
8D
330
1F
100
AcDbEntity
  8
0
  6
CONTINUOUS
 62
     7
100
AcDbCircle
 10
127.4553418691
 20
105.523005529
 30
0.0
 40
1.500000000000014
  0
LINE
  5
8E
330
1F
100
AcDbEntity
  8
0
  6
CONTINUOUS
 62
     7
100
AcDbLine
 10
128.6100425172
 20
105.523005529
 30
0.0
 11
128.0326923701
 21
106.5230055765
 31
0.0
  0
LINE
  5
8F
330
1F
100
AcDbEntity
  8
0
  6
CONTINUOUS
 62
     7
100
AcDbLine
 10
128.0326923701
 20
106.5230055765
 30
0.0
 11
126.8779916103
 21
106.5230055765
 31
0.0
  0
LINE
  5
90
330
1F
100
AcDbEntity
  8
0
  6
CONTINUOUS
 62
     7
100
AcDbLine
 10
126.8779916103
 20
106.5230055765
 30
0.0
 11
126.3006412304
 21
105.523005529
 31
0.0
  0
LINE
  5
91
330
1F
100
AcDbEntity
  8
0
  6
CONTINUOUS
 62
     7
100
AcDbLine
 10
126.3006412304
 20
105.523005529
 30
0.0
 11
126.8779916103
 21
104.5230054815
 31
0.0
  0
LINE
  5
92
330
1F
100
AcDbEntity
  8
0
  6
CONTINUOUS
 62
     7
100
AcDbLine
 10
126.8779916103
 20
104.5230054815
 30
0.0
 11
128.0326923701
 21
104.5230054815
 31
0.0
  0
LINE
  5
93
330
1F
100
AcDbEntity
  8
0
  6
CONTINUOUS
 62
     7
100
AcDbLine
 10
128.0326923701
 20
104.5230054815
 30
0.0
 11
128.6100425172
 21
105.523005529
 31
0.0
  0
CIRCLE
  5
94
330
1F
100
AcDbEntity
  8
0
  6
CONTINUOUS
 62
     7
100
AcDbCircle
 10
127.4553418691
 20
105.523005529
 30
0.0
 40
0.5
  0
CIRCLE
  5
95
330
1F
100
AcDbEntity
  8
0
  6
CONTINUOUS
 62
     7
100
AcDbCircle
 10
139.4553418691
 20
105.523005529
 30
0.0
 40
1.5
  0
LINE
  5
96
330
1F
100
AcDbEntity
  8
0
  6
CONTINUOUS
 62
     7
100
AcDbLine
 10
140.0326920087
 20
106.5230055765
 30
0.0
 11
138.8779917146
 21
106.5230055765
 31
0.0
  0
LINE
  5
97
330
1F
100
AcDbEntity
  8
0
  6
CONTINUOUS
 62
     7
100
AcDbLine
 10
140.0326920087
 20
104.5230054815
 30
0.0
 11
140.6100430871
 21
105.523005529
 31
0.0
  0
LINE
  5
98
330
1F
100
AcDbEntity
  8
0
  6
CONTINUOUS
 62
     7
100
AcDbLine
 10
140.6100430871
 20
105.523005529
 30
0.0
 11
140.0326920087
 21
106.5230055765
 31
0.0
  0
LINE
  5
99
330
1F
100
AcDbEntity
  8
0
  6
CONTINUOUS
 62
     7
100
AcDbLine
 10
138.8779917146
 20
104.5230054815
 30
0.0
 11
140.0326920087
 21
104.5230054815
 31
0.0
  0
LINE
  5
9A
330
1F
100
AcDbEntity
  8
0
  6
CONTINUOUS
 62
     7
100
AcDbLine
 10
138.8779917146
 20
106.5230055765
 30
0.0
 11
138.3006406362
 21
105.523005529
 31
0.0
  0
LINE
  5
9B
330
1F
100
AcDbEntity
  8
0
  6
CONTINUOUS
 62
     7
100
AcDbLine
 10
138.3006406362
 20
105.523005529
 30
0.0
 11
138.8779917146
 21
104.5230054815
 31
0.0
  0
CIRCLE
  5
9C
330
1F
100
AcDbEntity
  8
0
  6
CONTINUOUS
 62
     7
100
AcDbCircle
 10
139.4553418691
 20
105.523005529
 30
0.0
 40
0.5
  0
CIRCLE
  5
9D
330
1F
100
AcDbEntity
  8
0
  6
CONTINUOUS
 62
     7
100
AcDbCircle
 10
133.4553418691
 20
105.523005529
 30
0.0
 40
1.5
  0
LINE
  5
9E
330
1F
100
AcDbEntity
  8
0
  6
CONTINUOUS
 62
     7
100
AcDbLine
 10
134.6100421036
 20
105.523005529
 30
0.0
 11
134.0326919566
 21
106.5230055765
 31
0.0
  0
LINE
  5
9F
330
1F
100
AcDbEntity
  8
0
  6
CONTINUOUS
 62
     7
100
AcDbLine
 10
134.0326919566
 20
106.5230055765
 30
0.0
 11
132.8779916624
 21
106.5230055765
 31
0.0
  0
LINE
  5
A0
330
1F
100
AcDbEntity
  8
0
  6
CONTINUOUS
 62
     7
100
AcDbLine
 10
134.0326919566
 20
104.5230054815
 30
0.0
 11
134.6100421036
 21
105.523005529
 31
0.0
  0
LINE
  5
A1
330
1F
100
AcDbEntity
  8
0
  6
CONTINUOUS
 62
     7
100
AcDbLine
 10
132.3006415154
 20
105.523005529
 30
0.0
 11
132.8779916624
 21
104.5230054815
 31
0.0
  0
LINE
  5
A2
330
1F
100
AcDbEntity
  8
0
  6
CONTINUOUS
 62
     7
100
AcDbLine
 10
132.8779916624
 20
106.5230055765
 30
0.0
 11
132.3006415154
 21
105.523005529
 31
0.0
  0
LINE
  5
A3
330
1F
100
AcDbEntity
  8
0
  6
CONTINUOUS
 62
     7
100
AcDbLine
 10
132.8779916624
 20
104.5230054815
 30
0.0
 11
134.0326919566
 21
104.5230054815
 31
0.0
  0
CIRCLE
  5
A4
330
1F
100
AcDbEntity
  8
0
  6
CONTINUOUS
 62
     7
100
AcDbCircle
 10
133.4553418691
 20
105.523005529
 30
0.0
 40
0.5
  0
DIMENSION
  5
A5
330
1F
100
AcDbEntity
  8
0
  6
CONTINUOUS
 62
     7
100
AcDbDimension
  2
_D
 10
127.4553418691
 20
121.8581011231
 30
0.0
 11
115.5952184212
 21
121.8581011231
 31
0.0
 70
   160
  1
<>
  3
SLDDIMSTYLE0
100
AcDbAlignedDimension
 13
122.4553418691
 23
111.523005529
 33
0.0
 14
127.4553418691
 24
109.673005529
 34
0.0
100
AcDbRotatedDimension
  0
DIMENSION
  5
B9
330
1F
100
AcDbEntity
  8
0
  6
CONTINUOUS
 62
     7
100
AcDbDimension
  2
_D_1
 10
133.4553418691
 20
129.523005529
 30
0.0
 11
127.4211801059
 21
129.523005529
 31
0.0
 70
   160
  1
<>
  3
SLDDIMSTYLE0
100
AcDbAlignedDimension
 13
122.4553418691
 23
111.523005529
 33
0.0
 14
133.4553418691
 24
109.673005529
 34
0.0
100
AcDbRotatedDimension
  0
DIMENSION
  5
C5
330
1F
100
AcDbEntity
  8
0
  6
CONTINUOUS
 62
     7
100
AcDbDimension
  2
_D_2
 10
139.4553418691
 20
137.9889555041
 30
0.0
 11
130.7904526288
 21
137.9889555041
 31
0.0
 70
   160
  1
<>
  3
SLDDIMSTYLE0
100
AcDbAlignedDimension
 13
122.4553418691
 23
111.523005529
 33
0.0
 14
139.4553418691
 24
109.673005529
 34
0.0
100
AcDbRotatedDimension
  0
DIMENSION
  5
D1
330
1F
100
AcDbEntity
  8
0
  6
CONTINUOUS
 62
     7
100
AcDbDimension
  2
_D_3
 10
222.4553418691
 20
147.523005529
 30
0.0
 11
168.3116697475
 21
147.523005529
 31
0.0
 70
   160
  1
<>
  3
SLDDIMSTYLE1
100
AcDbAlignedDimension
 13
122.4553418691
 23
111.523005529
 33
0.0
 14
222.4553418691
 24
112.523005529
 34
0.0
100
AcDbRotatedDimension
  0
DIMENSION
  5
DC
330
1F
100
AcDbEntity
  8
0
  6
CONTINUOUS
 62
     7
100
AcDbDimension
  2
_D_4
 10
241.2975090903
 20
97.523005529
 30
0.0
 11
241.2975090903
 21
105.392850737
 31
0.0
 70
   160
  1
%%c<>
  3
SLDDIMSTYLE0
100
AcDbAlignedDimension
 13
221.4553418691
 23
113.523005529
 33
0.0
 14
221.4553418691
 24
97.523005529
 34
0.0
 50
90.0
100
AcDbRotatedDimension
  0
INSERT
  5
F4
330
1F
100
AcDbEntity
  8
0
  6
CONTINUOUS
 62
     7
100
AcDbBlockReference
  2
SW_CENTERMARKSYMBOL_0
 10
139.4553418691
 20
105.523005529
 30
0.0
  0
INSERT
  5
100
330
1F
100
AcDbEntity
  8
0
  6
CONTINUOUS
 62
     7
100
AcDbBlockReference
  2
SW_CENTERMARKSYMBOL_1
 10
133.4553418691
 20
105.523005529
 30
0.0
  0
INSERT
  5
10C
330
1F
100
AcDbEntity
  8
0
  6
CONTINUOUS
 62
     7
100
AcDbBlockReference
  2
SW_CENTERMARKSYMBOL_2
 10
127.4553418691
 20
105.523005529
 30
0.0
  0
LINE
  5
10D
330
1F
100
AcDbEntity
  8
0
  6
CENTERX2
 62
     7
100
AcDbLine
 10
120.4553418691
 20
105.523005529
 30
0.0
 11
224.4553418691
 21
105.523005529
 31
0.0
  0
SPLINE
  5
10E
330
1F
100
AcDbEntity
  8
0
  6
CONTINUOUS
 62
     7
100
AcDbSpline
210
0.0
220
0.0
230
1.0
 70
    24
 71
     3
 72
    16
 73
    12
 74
     0
 42
0.000000001
 43
0.00000001
 40
0.0
 40
0.0
 40
0.0
 40
0.0
 40
0.25
 40
0.25
 40
0.5
 40
0.5
 40
0.625
 40
0.625
 40
0.75
 40
0.75
 40
1.0
 40
1.0
 40
1.0
 40
1.0
 10
72.38163942350663
 20
102.7391233476052
 30
0.0
 10
72.38163942350663
 20
103.1888638395586
 30
0.0
 10
72.38163942350663
 20
103.6476784495356
 30
0.0
 10
72.38163942350663
 20
104.5742667704243
 30
0.0
 10
72.38163942350663
 20
105.04389830253
 30
0.0
 10
72.38163942350663
 20
105.7592734797962
 30
0.0
 10
72.38163942350663
 20
105.9988810809404
 30
0.0
 10
72.38163942350663
 20
106.4711316388226
 30
0.0
 10
72.38163942350663
 20
106.705088846685
 30
0.0
 10
72.38163942350663
 20
107.4010287187542
 30
0.0
 10
72.38163942350663
 20
107.8570828475864
 30
0.0
 10
72.38163942350663
 20
108.3068877104352
 30
0.0
  0
ARC
  5
10F
330
1F
100
AcDbEntity
  8
0
  6
CONTINUOUS
 62
     7
100
AcDbCircle
 10
64.8816394235
 20
105.523005529
 30
0.0
 40
8.000000000000005
100
AcDbArc
 50
200.3641348063
 51
339.6358651937
  0
SPLINE
  5
110
330
1F
100
AcDbEntity
  8
0
  6
CONTINUOUS
 62
     7
100
AcDbSpline
210
0.0
220
0.0
230
1.0
 70
    24
 71
     3
 72
    16
 73
    12
 74
     0
 42
0.000000001
 43
0.00000001
 40
0.0
 40
0.0
 40
0.0
 40
0.0
 40
0.25
 40
0.25
 40
0.5
 40
0.5
 40
0.625
 40
0.625
 40
0.75
 40
0.75
 40
1.0
 40
1.0
 40
1.0
 40
1.0
 10
57.38163942350663
 20
102.7391233476052
 30
0.0
 10
57.38163942350663
 20
103.1888638395586
 30
0.0
 10
57.38163942350663
 20
103.6476784495356
 30
0.0
 10
57.38163942350663
 20
104.5742667704243
 30
0.0
 10
57.38163942350663
 20
105.04389830253
 30
0.0
 10
57.38163942350663
 20
105.7592734797962
 30
0.0
 10
57.38163942350663
 20
105.9988810809404
 30
0.0
 10
57.38163942350663
 20
106.4711316388226
 30
0.0
 10
57.38163942350663
 20
106.705088846685
 30
0.0
 10
57.38163942350663
 20
107.4010287187542
 30
0.0
 10
57.38163942350663
 20
107.8570828475864
 30
0.0
 10
57.38163942350663
 20
108.3068877104352
 30
0.0
  0
ARC
  5
111
330
1F
100
AcDbEntity
  8
0
  6
CONTINUOUS
 62
     7
100
AcDbCircle
 10
64.8816394235
 20
105.523005529
 30
0.0
 40
8.000000000000005
100
AcDbArc
 50
20.3641348063
 51
159.6358651937
  0
CIRCLE
  5
112
330
1F
100
AcDbEntity
  8
0
  6
CONTINUOUS
 62
     7
100
AcDbCircle
 10
64.8816394235
 20
105.523005529
 30
0.0
 40
5.999999999999986
  0
CIRCLE
  5
113
330
1F
100
AcDbEntity
  8
0
  6
CONTINUOUS
 62
     7
100
AcDbCircle
 10
64.8816394235
 20
105.523005529
 30
0.0
 40
3.499999999999986
  0
CIRCLE
  5
114
330
1F
100
AcDbEntity
  8
0
  6
CONTINUOUS
 62
     7
100
AcDbCircle
 10
64.8816394235
 20
105.523005529
 30
0.0
 40
2.999999999999986
  0
DIMENSION
  5
115
330
1F
100
AcDbEntity
  8
0
  6
CONTINUOUS
 62
     7
100
AcDbDimension
  2
_D_5
 10
72.3816394235
 20
123.523005529
 30
0.0
 11
64.7021614264
 21
123.523005529
 31
0.0
 70
   160
  1
<>
  3
SLDDIMSTYLE0
100
AcDbAlignedDimension
 13
57.3816394235
 23
108.3068877104
 33
0.0
 14
72.3816394235
 24
108.3068877104
 34
0.0
100
AcDbRotatedDimension
  0
INSERT
  5
12C
330
1F
100
AcDbEntity
  8
0
  6
CONTINUOUS
 62
     7
100
AcDbBlockReference
  2
SW_CENTERMARKSYMBOL_3
 10
64.8816394235
 20
105.523005529
 30
0.0
  0
INSERT
  5
138
330
1F
100
AcDbEntity
  8
0
  6
CONTINUOUS
 62
     7
100
AcDbBlockReference
  2
SW_CENTERMARKSYMBOL_4
 10
64.8816394235
 20
105.523005529
 30
0.0
  0
LINE
  5
139
330
1F
100
AcDbEntity
  8
0
  6
CONTINUOUS
 62
     7
100
AcDbLine
 10
123.9553418822
 20
58.3484484282
 30
0.0
 11
122.4553418691
 21
56.848448648
 31
0.0
  0
LINE
  5
13A
330
1F
100
AcDbEntity
  8
0
  6
CONTINUOUS
 62
     7
100
AcDbLine
 10
122.4553418691
 20
44.8484485437
 30
0.0
 11
123.9553418822
 21
43.3484487635
 31
0.0
  0
LINE
  5
13B
330
1F
100
AcDbEntity
  8
0
  6
CONTINUOUS
 62
     7
100
AcDbLine
 10
221.955342346
 20
43.3484487635
 30
0.0
 11
222.4553433592
 21
43.8484483798
 31
0.0
  0
LINE
  5
13C
330
1F
100
AcDbEntity
  8
0
  6
CONTINUOUS
 62
     7
100
AcDbLine
 10
222.4553433592
 20
57.8484488119
 30
0.0
 11
221.955342346
 21
58.3484484282
 31
0.0
  0
SPLINE
  5
13D
330
1F
100
AcDbEntity
  8
0
  6
CONTINUOUS
 62
     7
100
AcDbSpline
210
0.0
220
0.0
230
1.0
 70
    24
 71
     3
 72
    11
 73
     7
 74
     0
 42
0.000000001
 43
0.00000001
 40
0.0
 40
0.0
 40
0.0
 40
0.0
 40
0.0513111889632633
 40
0.5507288974840225
 40
0.8068399444644929
 40
1.0
 40
1.0
 40
1.0
 40
1.0
 10
124.4553419641097
 20
58.34844842820926
 30
0.0
 10
124.4395700674307
 20
58.34844842820926
 30
0.0
 10
124.2702884848995
 20
58.34844842820926
 30
0.0
 10
124.0824587733981
 20
58.34844842820926
 30
0.0
 10
123.9660425182858
 20
58.34844842820926
 30
0.0
 10
123.9632928243151
 20
58.34844842820926
 30
0.0
 10
123.9621106182103
 20
58.34844842820926
 30
0.0
  0
LINE
  5
13E
330
1F
100
AcDbEntity
  8
0
  6
CONTINUOUS
 62
     7
100
AcDbLine
 10
124.4553419641
 20
43.3484487635
 30
0.0
 11
124.4553419641
 21
58.3484484282
 31
0.0
  0
SPLINE
  5
13F
330
1F
100
AcDbEntity
  8
0
  6
CONTINUOUS
 62
     7
100
AcDbSpline
210
0.0
220
0.0
230
1.0
 70
    24
 71
     3
 72
    10
 73
     6
 74
     0
 42
0.000000001
 43
0.00000001
 40
0.0
 40
0.0
 40
0.0
 40
0.0
 40
0.4336801641692276
 40
0.9486735833015775
 40
1.0
 40
1.0
 40
1.0
 40
1.0
 10
123.97033629202
 20
43.34844876348539
 30
0.0
 10
123.9839898702633
 20
43.34844876348539
 30
0.0
 10
124.0138570167625
 20
43.34844876348539
 30
0.0
 10
124.2659608123894
 20
43.34844876348539
 30
0.0
 10
124.439604386381
 20
43.34844876348539
 30
0.0
 10
124.4553419641097
 20
43.34844876348539
 30
0.0
  0
LINE
  5
140
330
1F
100
AcDbEntity
  8
0
  6
CONTINUOUS
 62
     7
100
AcDbLine
 10
122.4553418691
 20
44.8484485437
 30
0.0
 11
122.4553418691
 21
56.848448648
 31
0.0
  0
LINE
  5
141
330
1F
100
AcDbEntity
  8
0
  6
CONTINUOUS
 62
     7
100
AcDbLine
 10
124.4553419641
 20
43.3484487635
 30
0.0
 11
221.4553413327
 21
43.3484487635
 31
0.0
  0
LINE
  5
142
330
1F
100
AcDbEntity
  8
0
  6
CONTINUOUS
 62
     7
100
AcDbLine
 10
221.4553413327
 20
58.3484484282
 30
0.0
 11
124.4553419641
 21
58.3484484282
 31
0.0
  0
LINE
  5
143
330
1F
100
AcDbEntity
  8
0
  6
CONTINUOUS
 62
     7
100
AcDbLine
 10
221.4553413327
 20
43.3484487635
 30
0.0
 11
221.4553413327
 21
58.3484484282
 31
0.0
  0
LINE
  5
144
330
1F
100
AcDbEntity
  8
0
  6
CONTINUOUS
 62
     7
100
AcDbLine
 10
222.4553433592
 20
43.8484483798
 30
0.0
 11
222.4553433592
 21
57.8484488119
 31
0.0
  0
SPLINE
  5
145
330
1F
100
AcDbEntity
  8
0
  6
CONTINUOUS
 62
     7
100
AcDbSpline
210
0.0
220
0.0
230
1.0
 70
    24
 71
     3
 72
    10
 73
     6
 74
     0
 42
0.000000001
 43
0.00000001
 40
0.0
 40
0.0
 40
0.0
 40
0.0
 40
0.2796592566560439
 40
0.6885843544649733
 40
1.0
 40
1.0
 40
1.0
 40
1.0
 10
221.9372970397463
 20
58.34844842820926
 30
0.0
 10
221.9360765785675
 20
58.34844842820926
 30
0.0
 10
221.9330715270525
 20
58.34844842820926
 30
0.0
 10
221.7515556537485
 20
58.34844842820926
 30
0.0
 10
221.544747877676
 20
58.34844842820926
 30
0.0
 10
221.455341332673
 20
58.34844842820926
 30
0.0
  0
SPLINE
  5
146
330
1F
100
AcDbEntity
  8
0
  6
CONTINUOUS
 62
     7
100
AcDbSpline
210
0.0
220
0.0
230
1.0
 70
    24
 71
     3
 72
    10
 73
     6
 74
     0
 42
0.000000001
 43
0.00000001
 40
0.0
 40
0.0
 40
0.0
 40
0.0
 40
0.3114127009621207
 40
0.711682468840218
 40
1.0
 40
1.0
 40
1.0
 40
1.0
 10
221.455341332673
 20
43.34844876348539
 30
0.0
 10
221.5447537416732
 20
43.34844876348539
 30
0.0
 10
221.7490910849656
 20
43.34844876348539
 30
0.0
 10
221.9317664844075
 20
43.34844876348539
 30
0.0
 10
221.9352761634411
 20
43.34844876348539
 30
0.0
 10
221.9367456967821
 20
43.34844876348539
 30
0.0
  0
LINE
  5
147
330
1F
100
AcDbEntity
  8
0
  6
HIDDEN
 62
     7
100
AcDbLine
 10
221.955342346
 20
45.8484487076
 30
0.0
 11
221.955342346
 21
55.8484484841
 31
0.0
  0
LINE
  5
148
330
1F
100
AcDbEntity
  8
0
  6
HIDDEN
 62
     7
100
AcDbLine
 10
142.4553414221
 20
45.8484487076
 30
0.0
 11
142.4553414221
 21
55.8484484841
 31
0.0
  0
LINE
  5
149
330
1F
100
AcDbEntity
  8
0
  6
HIDDEN
 62
     7
100
AcDbLine
 10
122.9553418929
 20
47.8484485698
 30
0.0
 11
122.9553418929
 21
53.8484486219
 31
0.0
  0
SPLINE
  5
14A
330
1F
100
AcDbEntity
  8
0
  6
HIDDEN
 62
     7
100
AcDbSpline
210
0.0
220
0.0
230
1.0
 70
     8
 71
     3
 72
    18
 73
    14
 74
     0
 42
0.000000001
 43
0.00000001
 40
0.0
 40
0.0
 40
0.0
 40
0.0
 40
0.0238540851441272
 40
0.1169412788495065
 40
0.2121932427677079
 40
0.3181599159284347
 40
0.4321792556378374
 40
0.5349839294498315
 40
0.6239267511869875
 40
0.718409067113385
 40
0.8277034476227471
 40
0.94055923139335
 40
1.0
 40
1.0
 40
1.0
 40
1.0
 10
137.8213149840822
 20
53.83974192000492
 30
0.0
 10
137.8163771865656
 20
53.84243110771365
 30
0.0
 10
137.79217033257
 20
53.85561447013673
 30
0.0
 10
137.9063868013848
 20
53.79272479684587
 30
0.0
 10
138.1506125691363
 20
53.6689965009171
 30
0.0
 10
138.551121409077
 20
53.49977470351519
 30
0.0
 10
139.0697789340198
 20
53.36235836219963
 30
0.0
 10
139.6211894836887
 20
53.34177861435461
 30
0.0
 10
140.109113675106
 20
53.42610173801101
 30
0.0
 10
140.5387343989389
 20
53.56982211710353
 30
0.0
 10
140.8930540272752
 20
53.73335735609164
 30
0.0
 10
141.0819225120333
 20
53.83553769995189
 30
0.0
 10
141.0993354695424
 20
53.84513696231681
 30
0.0
 10
141.1053427840461
 20
53.84844862192435
 30
0.0
  0
SPLINE
  5
14B
330
1F
100
AcDbEntity
  8
0
  6
HIDDEN
 62
     7
100
AcDbSpline
210
0.0
220
0.0
230
1.0
 70
     8
 71
     3
 72
    18
 73
    14
 74
     0
 42
0.000000001
 43
0.00000001
 40
0.0
 40
0.0
 40
0.0
 40
0.0
 40
0.0238540861247982
 40
0.1169412836571072
 40
0.2121931660954496
 40
0.3181599688758023
 40
0.4321793132726812
 40
0.5349841675496788
 40
0.6239266551388504
 40
0.7184091210388813
 40
0.8277033947698299
 40
0.9405592456800038
 40
1.0
 40
1.0
 40
1.0
 40
1.0
 10
131.8213149319281
 20
53.83974192000492
 30
0.0
 10
131.8163771319358
 20
53.84243110721459
 30
0.0
 10
131.7921702658027
 20
53.85561446719105
 30
0.0
 10
131.9063869905316
 20
53.79272488006149
 30
0.0
 10
132.1506113532844
 20
53.66899630188262
 30
0.0
 10
132.5511214608539
 20
53.49977483041289
 30
0.0
 10
133.0697790544952
 20
53.36235833089652
 30
0.0
 10
133.6211896052554
 20
53.34177843703941
 30
0.0
 10
134.1091132161517
 20
53.42610210422702
 30
0.0
 10
134.5387344399401
 20
53.56982182561769
 30
0.0
 10
134.8930524635705
 20
53.7333575481275
 30
0.0
 10
135.0819231070605
 20
53.83553766481327
 30
0.0
 10
135.0993348933964
 20
53.84513695465083
 30
0.0
 10
135.1053418005695
 20
53.84844862192435
 30
0.0
  0
SPLINE
  5
14C
330
1F
100
AcDbEntity
  8
0
  6
HIDDEN
 62
     7
100
AcDbSpline
210
0.0
220
0.0
230
1.0
 70
     8
 71
     3
 72
    18
 73
    14
 74
     0
 42
0.000000001
 43
0.00000001
 40
0.0
 40
0.0
 40
0.0
 40
0.0
 40
0.023854087326826
 40
0.1169412700366434
 40
0.2121931999726731
 40
0.3181600080927836
 40
0.4321792787292357
 40
0.5349841381866579
 40
0.6239267147088441
 40
0.7184091853699274
 40
0.8277034089725492
 40
0.9405592343196292
 40
1.0
 40
1.0
 40
1.0
 40
1.0
 10
125.8213153454353
 20
53.83974192000492
 30
0.0
 10
125.8163775517595
 20
53.84243110764505
 30
0.0
 10
125.7921707206314
 20
53.855614467532
 30
0.0
 10
125.9063866612758
 20
53.79272483552935
 30
0.0
 10
126.1506119197674
 20
53.66899633953678
 30
0.0
 10
126.5511217302273
 20
53.49977489705352
 30
0.0
 10
127.0697791327952
 20
53.3623582778365
 30
0.0
 10
127.6211896917014
 20
53.34177847603186
 30
0.0
 10
128.109113504699
 20
53.42610204644993
 30
0.0
 10
128.5387348087052
 20
53.56982178218787
 30
0.0
 10
128.893052553338
 20
53.73335757437358
 30
0.0
 10
129.0819222923352
 20
53.83553767257746
 30
0.0
 10
129.0993346444207
 20
53.8451369559688
 30
0.0
 10
129.1053417484154
 20
53.84844862192435
 30
0.0
  0
LINE
  5
14D
330
1F
100
AcDbEntity
  8
0
  6
HIDDEN
 62
     7
100
AcDbLine
 10
137.8053418706
 20
57.7984484312
 30
0.0
 11
141.105342784
 21
57.7984484312
 31
0.0
  0
LINE
  5
14E
330
1F
100
AcDbEntity
  8
0
  6
HIDDEN
 62
     7
100
AcDbLine
 10
131.8053418185
 20
57.7984484312
 30
0.0
 11
135.1053418006
 21
57.7984484312
 31
0.0
  0
LINE
  5
14F
330
1F
100
AcDbEntity
  8
0
  6
HIDDEN
 62
     7
100
AcDbLine
 10
125.8053417663
 20
57.7984484312
 30
0.0
 11
129.1053417484
 21
57.7984484312
 31
0.0
  0
LINE
  5
150
330
1F
100
AcDbEntity
  8
0
  6
HIDDEN
 62
     7
100
AcDbLine
 10
125.4553418952
 20
54.3484487039
 30
0.0
 11
129.4553420852
 21
54.3484487039
 31
0.0
  0
LINE
  5
151
330
1F
100
AcDbEntity
  8
0
  6
HIDDEN
 62
     7
100
AcDbLine
 10
125.9553419771
 20
53.8484486219
 30
0.0
 11
128.9553420032
 21
53.8484486219
 31
0.0
  0
LINE
  5
152
330
1F
100
AcDbEntity
  8
0
  6
HIDDEN
 62
     7
100
AcDbLine
 10
125.4553418952
 20
57.34844873
 30
0.0
 11
129.4553420852
 21
57.34844873
 31
0.0
  0
LINE
  5
153
330
1F
100
AcDbEntity
  8
0
  6
HIDDEN
 62
     7
100
AcDbLine
 10
125.9553419771
 20
57.8484488119
 30
0.0
 11
128.9553420032
 21
57.8484488119
 31
0.0
  0
LINE
  5
154
330
1F
100
AcDbEntity
  8
0
  6
HIDDEN
 62
     7
100
AcDbLine
 10
126.9553416754
 20
55.3484484021
 30
0.0
 11
127.9553418393
 21
55.3484484021
 31
0.0
  0
SPLINE
  5
155
330
1F
100
AcDbEntity
  8
0
  6
HIDDEN
 62
     7
100
AcDbSpline
210
0.0
220
0.0
230
1.0
 70
     8
 71
     3
 72
    11
 73
     7
 74
     0
 42
0.000000001
 43
0.00000001
 40
0.0
 40
0.0
 40
0.0
 40
0.0
 40
0.2164445065493873
 40
0.4402883489206385
 40
0.7518823392598305
 40
1.0
 40
1.0
 40
1.0
 40
1.0
 10
128.0326923700859
 20
56.00314907997413
 30
0.0
 10
128.0722392078078
 20
55.96693129302459
 30
0.0
 10
128.1526848248539
 20
55.89325758389797
 30
0.0
 10
128.3019752679693
 20
55.83184440636062
 30
0.0
 10
128.4621226971018
 20
55.86886146326982
 30
0.0
 10
128.5646102467582
 20
55.96190382081411
 30
0.0
 10
128.6100425171544
 20
56.00314907997413
 30
0.0
  0
SPLINE
  5
156
330
1F
100
AcDbEntity
  8
0
  6
HIDDEN
 62
     7
100
AcDbSpline
210
0.0
220
0.0
230
1.0
 70
     8
 71
     3
 72
    11
 73
     7
 74
     0
 42
0.000000001
 43
0.00000001
 40
0.0
 40
0.0
 40
0.0
 40
0.0
 40
0.1554019529371638
 40
0.4933811989109581
 40
0.8189410785575869
 40
1.0
 40
1.0
 40
1.0
 40
1.0
 10
126.8779916102876
 20
56.00314907997413
 30
0.0
 10
126.9343466142767
 20
55.97670728667209
 30
0.0
 10
127.1132664985334
 20
55.89275799624077
 30
0.0
 10
127.4421488735492
 20
55.82105537809475
 30
0.0
 10
127.7827486889592
 20
55.88698987372653
 30
0.0
 10
127.9668846060078
 20
55.9725654796775
 30
0.0
 10
128.0326923700859
 20
56.00314907997413
 30
0.0
  0
SPLINE
  5
157
330
1F
100
AcDbEntity
  8
0
  6
HIDDEN
 62
     7
100
AcDbSpline
210
0.0
220
0.0
230
1.0
 70
     8
 71
     3
 72
    11
 73
     7
 74
     0
 42
0.000000001
 43
0.00000001
 40
0.0
 40
0.0
 40
0.0
 40
0.0
 40
0.2164447485209164
 40
0.4402883736869294
 40
0.7518823193468781
 40
1.0
 40
1.0
 40
1.0
 40
1.0
 10
126.3006412303885
 20
56.00314907997413
 30
0.0
 10
126.3401883841262
 20
55.96693130125054
 30
0.0
 10
126.4206345585985
 20
55.89325768707542
 30
0.0
 10
126.5699241525475
 20
55.83184436564199
 30
0.0
 10
126.7300718651822
 20
55.8688614868467
 30
0.0
 10
126.8325593589917
 20
55.96190382449758
 30
0.0
 10
126.8779916102876
 20
56.00314907997413
 30
0.0
  0
LINE
  5
158
330
1F
100
AcDbEntity
  8
0
  6
HIDDEN
 62
     7
100
AcDbLine
 10
126.8779916103
 20
56.00314908
 30
0.0
 11
126.8779916103
 21
57.8484488119
 31
0.0
  0
LINE
  5
159
330
1F
100
AcDbEntity
  8
0
  6
HIDDEN
 62
     7
100
AcDbLine
 10
128.0326923701
 20
56.00314908
 30
0.0
 11
128.0326923701
 21
57.8484488119
 31
0.0
  0
LINE
  5
15A
330
1F
100
AcDbEntity
  8
0
  6
HIDDEN
 62
     7
100
AcDbLine
 10
126.3006412304
 20
56.00314908
 30
0.0
 11
126.3006412304
 21
57.8484488119
 31
0.0
  0
LINE
  5
15B
330
1F
100
AcDbEntity
  8
0
  6
HIDDEN
 62
     7
100
AcDbLine
 10
128.6100425172
 20
56.00314908
 30
0.0
 11
128.6100425172
 21
57.8484488119
 31
0.0
  0
LINE
  5
15C
330
1F
100
AcDbEntity
  8
0
  6
HIDDEN
 62
     7
100
AcDbLine
 10
137.4553415338
 20
54.3484487039
 30
0.0
 11
141.4553412582
 21
54.3484487039
 31
0.0
  0
LINE
  5
15D
330
1F
100
AcDbEntity
  8
0
  6
HIDDEN
 62
     7
100
AcDbLine
 10
137.9553416158
 20
53.8484486219
 30
0.0
 11
140.9553421075
 21
53.8484486219
 31
0.0
  0
LINE
  5
15E
330
1F
100
AcDbEntity
  8
0
  6
HIDDEN
 62
     7
100
AcDbLine
 10
137.4553415338
 20
57.34844873
 30
0.0
 11
141.4553412582
 21
57.34844873
 31
0.0
  0
LINE
  5
15F
330
1F
100
AcDbEntity
  8
0
  6
HIDDEN
 62
     7
100
AcDbLine
 10
137.9553416158
 20
57.8484488119
 30
0.0
 11
140.9553421075
 21
57.8484488119
 31
0.0
  0
LINE
  5
160
330
1F
100
AcDbEntity
  8
0
  6
HIDDEN
 62
     7
100
AcDbLine
 10
138.9553417797
 20
55.3484484021
 30
0.0
 11
139.9553419436
 21
55.3484484021
 31
0.0
  0
SPLINE
  5
161
330
1F
100
AcDbEntity
  8
0
  6
HIDDEN
 62
     7
100
AcDbSpline
210
0.0
220
0.0
230
1.0
 70
     8
 71
     3
 72
    11
 73
     7
 74
     0
 42
0.000000001
 43
0.00000001
 40
0.0
 40
0.0
 40
0.0
 40
0.0
 40
0.2164446126652374
 40
0.4402881900591613
 40
0.751881883415837
 40
1.0
 40
1.0
 40
1.0
 40
1.0
 10
140.0326920087327
 20
56.00314907997413
 30
0.0
 10
140.072239057624
 20
55.96693130165838
 30
0.0
 10
140.1526850357619
 20
55.89325767279671
 30
0.0
 10
140.3019748525333
 20
55.83184435475662
 30
0.0
 10
140.4621215836053
 20
55.86886163486136
 30
0.0
 10
140.5646102507678
 20
55.96190382912584
 30
0.0
 10
140.6100430871238
 20
56.00314907997413
 30
0.0
  0
SPLINE
  5
162
330
1F
100
AcDbEntity
  8
0
  6
HIDDEN
 62
     7
100
AcDbSpline
210
0.0
220
0.0
230
1.0
 70
     8
 71
     3
 72
    11
 73
     7
 74
     0
 42
0.000000001
 43
0.00000001
 40
0.0
 40
0.0
 40
0.0
 40
0.0
 40
0.1554023746070248
 40
0.4933813867233524
 40
0.8189406443776365
 40
1.0
 40
1.0
 40
1.0
 40
1.0
 10
138.8779917145957
 20
56.00314907997413
 30
0.0
 10
138.9343468752288
 20
55.97670729661509
 30
0.0
 10
139.1132668394341
 20
55.89275823358363
 30
0.0
 10
139.4421488273133
 20
55.82105524355315
 30
0.0
 10
139.7827482430591
 20
55.886990153977
 30
0.0
 10
139.9668840881633
 20
55.97256549108223
 30
0.0
 10
140.0326920087327
 20
56.00314907997413
 30
0.0
  0
SPLINE
  5
163
330
1F
100
AcDbEntity
  8
0
  6
HIDDEN
 62
     7
100
AcDbSpline
210
0.0
220
0.0
230
1.0
 70
     8
 71
     3
 72
    11
 73
     7
 74
     0
 42
0.000000001
 43
0.00000001
 40
0.0
 40
0.0
 40
0.0
 40
0.0
 40
0.2164445924828613
 40
0.44028814874126
 40
0.7518825754534534
 40
1.0
 40
1.0
 40
1.0
 40
1.0
 10
138.3006406362047
 20
56.00314907997413
 30
0.0
 10
138.3401877169933
 20
55.96693129644995
 30
0.0
 10
138.4206337599682
 20
55.89325765703743
 30
0.0
 10
138.5699231626738
 20
55.83184436902738
 30
0.0
 10
138.7300727026313
 20
55.86886134281718
 30
0.0
 10
138.83255973362
 20
55.96190382124252
 30
0.0
 10
138.8779917145957
 20
56.00314907997413
 30
0.0
  0
LINE
  5
164
330
1F
100
AcDbEntity
  8
0
  6
HIDDEN
 62
     7
100
AcDbLine
 10
138.8779917146
 20
56.00314908
 30
0.0
 11
138.8779917146
 21
57.8484488119
 31
0.0
  0
LINE
  5
165
330
1F
100
AcDbEntity
  8
0
  6
HIDDEN
 62
     7
100
AcDbLine
 10
140.0326920087
 20
56.00314908
 30
0.0
 11
140.0326920087
 21
57.8484488119
 31
0.0
  0
LINE
  5
166
330
1F
100
AcDbEntity
  8
0
  6
HIDDEN
 62
     7
100
AcDbLine
 10
138.3006406362
 20
56.00314908
 30
0.0
 11
138.3006406362
 21
57.8484488119
 31
0.0
  0
LINE
  5
167
330
1F
100
AcDbEntity
  8
0
  6
HIDDEN
 62
     7
100
AcDbLine
 10
140.6100430871
 20
56.00314908
 30
0.0
 11
140.6100430871
 21
57.8484488119
 31
0.0
  0
LINE
  5
168
330
1F
100
AcDbEntity
  8
0
  6
HIDDEN
 62
     7
100
AcDbLine
 10
131.4553414817
 20
54.3484487039
 30
0.0
 11
135.4553421373
 21
54.3484487039
 31
0.0
  0
LINE
  5
169
330
1F
100
AcDbEntity
  8
0
  6
HIDDEN
 62
     7
100
AcDbLine
 10
131.9553415636
 20
53.8484486219
 30
0.0
 11
134.9553420554
 21
53.8484486219
 31
0.0
  0
LINE
  5
16A
330
1F
100
AcDbEntity
  8
0
  6
HIDDEN
 62
     7
100
AcDbLine
 10
131.4553414817
 20
57.34844873
 30
0.0
 11
135.4553421373
 21
57.34844873
 31
0.0
  0
LINE
  5
16B
330
1F
100
AcDbEntity
  8
0
  6
HIDDEN
 62
     7
100
AcDbLine
 10
131.9553415636
 20
57.8484488119
 30
0.0
 11
134.9553420554
 21
57.8484488119
 31
0.0
  0
LINE
  5
16C
330
1F
100
AcDbEntity
  8
0
  6
HIDDEN
 62
     7
100
AcDbLine
 10
132.9553417276
 20
55.3484484021
 30
0.0
 11
133.9553418915
 21
55.3484484021
 31
0.0
  0
SPLINE
  5
16D
330
1F
100
AcDbEntity
  8
0
  6
HIDDEN
 62
     7
100
AcDbSpline
210
0.0
220
0.0
230
1.0
 70
     8
 71
     3
 72
    11
 73
     7
 74
     0
 42
0.000000001
 43
0.00000001
 40
0.0
 40
0.0
 40
0.0
 40
0.0
 40
0.2164446850143618
 40
0.4402883372306
 40
0.7518825193886255
 40
1.0
 40
1.0
 40
1.0
 40
1.0
 10
134.0326919565787
 20
56.00314907997413
 30
0.0
 10
134.0722390248667
 20
55.96693129801839
 30
0.0
 10
134.1526850424612
 20
55.89325766175232
 30
0.0
 10
134.3019745917951
 20
55.83184437681386
 30
0.0
 10
134.4621229495557
 20
55.86886139622789
 30
0.0
 10
134.564610061305
 20
55.96190382156612
 30
0.0
 10
134.6100421036472
 20
56.00314907997413
 30
0.0
  0
SPLINE
  5
16E
330
1F
100
AcDbEntity
  8
0
  6
HIDDEN
 62
     7
100
AcDbSpline
210
0.0
220
0.0
230
1.0
 70
     8
 71
     3
 72
    11
 73
     7
 74
     0
 42
0.000000001
 43
0.00000001
 40
0.0
 40
0.0
 40
0.0
 40
0.0
 40
0.1554023667155543
 40
0.4933813616690078
 40
0.8189413654591469
 40
1.0
 40
1.0
 40
1.0
 40
1.0
 10
132.8779916624417
 20
56.00314907997413
 30
0.0
 10
132.9343468241415
 20
55.97670729237045
 30
0.0
 10
133.1132667917337
 20
55.89275821586286
 30
0.0
 10
133.4421490379731
 20
55.8210553497381
 30
0.0
 10
133.7827486432285
 20
55.88698975881289
 30
0.0
 10
133.9668843505794
 20
55.97256547788588
 30
0.0
 10
134.0326919565787
 20
56.00314907997413
 30
0.0
  0
SPLINE
  5
16F
330
1F
100
AcDbEntity
  8
0
  6
HIDDEN
 62
     7
100
AcDbSpline
210
0.0
220
0.0
230
1.0
 70
     8
 71
     3
 72
    11
 73
     7
 74
     0
 42
0.000000001
 43
0.00000001
 40
0.0
 40
0.0
 40
0.0
 40
0.0
 40
0.2164446757380606
 40
0.4402883180976628
 40
0.7518824800153303
 40
1.0
 40
1.0
 40
1.0
 40
1.0
 10
132.3006415153732
 20
56.00314907997413
 30
0.0
 10
132.3401885838469
 20
55.96693129818593
 30
0.0
 10
132.4206346017709
 20
55.89325766230471
 30
0.0
 10
132.5699241463873
 20
55.83184437494206
 30
0.0
 10
132.7300725303733
 20
55.8688614093975
 30
0.0
 10
132.8325596229446
 20
55.96190382205307
 30
0.0
 10
132.8779916624417
 20
56.00314907997413
 30
0.0
  0
LINE
  5
170
330
1F
100
AcDbEntity
  8
0
  6
HIDDEN
 62
     7
100
AcDbLine
 10
132.8779916624
 20
56.00314908
 30
0.0
 11
132.8779916624
 21
57.8484488119
 31
0.0
  0
LINE
  5
171
330
1F
100
AcDbEntity
  8
0
  6
HIDDEN
 62
     7
100
AcDbLine
 10
134.0326919566
 20
56.00314908
 30
0.0
 11
134.0326919566
 21
57.8484488119
 31
0.0
  0
LINE
  5
172
330
1F
100
AcDbEntity
  8
0
  6
HIDDEN
 62
     7
100
AcDbLine
 10
132.3006415154
 20
56.00314908
 30
0.0
 11
132.3006415154
 21
57.8484488119
 31
0.0
  0
LINE
  5
173
330
1F
100
AcDbEntity
  8
0
  6
HIDDEN
 62
     7
100
AcDbLine
 10
134.6100421036
 20
56.00314908
 30
0.0
 11
134.6100421036
 21
57.8484488119
 31
0.0
  0
LINE
  5
174
330
1F
100
AcDbEntity
  8
0
  6
HIDDEN
 62
     7
100
AcDbLine
 10
222.4553433592
 20
56.348448566
 30
0.0
 11
221.955342346
 21
55.8484484841
 31
0.0
  0
LINE
  5
175
330
1F
100
AcDbEntity
  8
0
  6
HIDDEN
 62
     7
100
AcDbLine
 10
221.955342346
 20
45.8484487076
 30
0.0
 11
222.4553433592
 21
45.3484486256
 31
0.0
  0
LINE
  5
176
330
1F
100
AcDbEntity
  8
0
  6
HIDDEN
 62
     7
100
AcDbLine
 10
142.4553414221
 20
45.8484487076
 30
0.0
 11
221.955342346
 21
45.8484487076
 31
0.0
  0
LINE
  5
177
330
1F
100
AcDbEntity
  8
0
  6
HIDDEN
 62
     7
100
AcDbLine
 10
221.955342346
 20
55.8484484841
 30
0.0
 11
142.4553414221
 21
55.8484484841
 31
0.0
  0
LINE
  5
178
330
1F
100
AcDbEntity
  8
0
  6
HIDDEN
 62
     7
100
AcDbLine
 10
122.4553418691
 20
47.3484484878
 30
0.0
 11
122.9553418929
 21
47.8484485698
 31
0.0
  0
LINE
  5
179
330
1F
100
AcDbEntity
  8
0
  6
HIDDEN
 62
     7
100
AcDbLine
 10
122.9553418929
 20
53.8484486219
 30
0.0
 11
122.4553418691
 21
54.3484487039
 31
0.0
  0
LINE
  5
17A
330
1F
100
AcDbEntity
  8
0
  6
HIDDEN
 62
     7
100
AcDbLine
 10
122.9553418929
 20
47.8484485698
 30
0.0
 11
142.4553414221
 21
47.8484485698
 31
0.0
  0
LINE
  5
17B
330
1F
100
AcDbEntity
  8
0
  6
HIDDEN
 62
     7
100
AcDbLine
 10
125.8213153454
 20
53.8484486219
 30
0.0
 11
122.9553418929
 21
53.8484486219
 31
0.0
  0
LINE
  5
17C
330
1F
100
AcDbEntity
  8
0
  6
HIDDEN
 62
     7
100
AcDbLine
 10
131.8213149319
 20
53.8484486219
 30
0.0
 11
129.1053417484
 21
53.8484486219
 31
0.0
  0
LINE
  5
17D
330
1F
100
AcDbEntity
  8
0
  6
HIDDEN
 62
     7
100
AcDbLine
 10
137.8213149841
 20
53.8484486219
 30
0.0
 11
135.1053418006
 21
53.8484486219
 31
0.0
  0
LINE
  5
17E
330
1F
100
AcDbEntity
  8
0
  6
HIDDEN
 62
     7
100
AcDbLine
 10
142.4553414221
 20
53.8484486219
 30
0.0
 11
141.105342784
 21
53.8484486219
 31
0.0
  0
LINE
  5
17F
330
1F
100
AcDbEntity
  8
0
  6
HIDDEN
 62
     7
100
AcDbLine
 10
137.2553418736
 20
58.3484484282
 30
0.0
 11
137.8053418706
 21
57.7984484312
 31
0.0
  0
LINE
  5
180
330
1F
100
AcDbEntity
  8
0
  6
HIDDEN
 62
     7
100
AcDbLine
 10
141.105342784
 20
57.7984484312
 30
0.0
 11
141.6553427811
 21
58.3484484282
 31
0.0
  0
LINE
  5
181
330
1F
100
AcDbEntity
  8
0
  6
HIDDEN
 62
     7
100
AcDbLine
 10
131.2553418214
 20
58.3484484282
 30
0.0
 11
131.8053418185
 21
57.7984484312
 31
0.0
  0
LINE
  5
182
330
1F
100
AcDbEntity
  8
0
  6
HIDDEN
 62
     7
100
AcDbLine
 10
135.1053418006
 20
57.7984484312
 30
0.0
 11
135.6553417976
 21
58.3484484282
 31
0.0
  0
LINE
  5
183
330
1F
100
AcDbEntity
  8
0
  6
HIDDEN
 62
     7
100
AcDbLine
 10
125.2553417693
 20
58.3484484282
 30
0.0
 11
125.8053417663
 21
57.7984484312
 31
0.0
  0
LINE
  5
184
330
1F
100
AcDbEntity
  8
0
  6
HIDDEN
 62
     7
100
AcDbLine
 10
129.1053417484
 20
57.7984484312
 30
0.0
 11
129.6553417454
 21
58.3484484282
 31
0.0
  0
LINE
  5
185
330
1F
100
AcDbEntity
  8
0
  6
HIDDEN
 62
     7
100
AcDbLine
 10
125.8053417663
 20
57.7984484312
 30
0.0
 11
125.8053417663
 21
53.8397903488
 31
0.0
  0
LINE
  5
186
330
1F
100
AcDbEntity
  8
0
  6
HIDDEN
 62
     7
100
AcDbLine
 10
129.1053417484
 20
53.8484486219
 30
0.0
 11
129.1053417484
 21
57.7984484312
 31
0.0
  0
LINE
  5
187
330
1F
100
AcDbEntity
  8
0
  6
HIDDEN
 62
     7
100
AcDbLine
 10
137.8053418706
 20
57.7984484312
 30
0.0
 11
137.8053418706
 21
53.8397903488
 31
0.0
  0
LINE
  5
188
330
1F
100
AcDbEntity
  8
0
  6
HIDDEN
 62
     7
100
AcDbLine
 10
141.105342784
 20
53.8484486219
 30
0.0
 11
141.105342784
 21
57.7984484312
 31
0.0
  0
LINE
  5
189
330
1F
100
AcDbEntity
  8
0
  6
HIDDEN
 62
     7
100
AcDbLine
 10
131.8053418185
 20
57.7984484312
 30
0.0
 11
131.8053418185
 21
53.8397903488
 31
0.0
  0
LINE
  5
18A
330
1F
100
AcDbEntity
  8
0
  6
HIDDEN
 62
     7
100
AcDbLine
 10
135.1053418006
 20
53.8484486219
 30
0.0
 11
135.1053418006
 21
57.7984484312
 31
0.0
  0
LINE
  5
18B
330
1F
100
AcDbEntity
  8
0
  6
HIDDEN
 62
     7
100
AcDbLine
 10
125.4553418952
 20
54.3484487039
 30
0.0
 11
125.9553419771
 21
53.8484486219
 31
0.0
  0
LINE
  5
18C
330
1F
100
AcDbEntity
  8
0
  6
HIDDEN
 62
     7
100
AcDbLine
 10
128.9553420032
 20
53.8484486219
 30
0.0
 11
129.4553420852
 21
54.3484487039
 31
0.0
  0
LINE
  5
18D
330
1F
100
AcDbEntity
  8
0
  6
HIDDEN
 62
     7
100
AcDbLine
 10
125.4553418952
 20
57.34844873
 30
0.0
 11
125.4553418952
 21
54.3484487039
 31
0.0
  0
LINE
  5
18E
330
1F
100
AcDbEntity
  8
0
  6
HIDDEN
 62
     7
100
AcDbLine
 10
129.4553420852
 20
54.3484487039
 30
0.0
 11
129.4553420852
 21
57.34844873
 31
0.0
  0
LINE
  5
18F
330
1F
100
AcDbEntity
  8
0
  6
HIDDEN
 62
     7
100
AcDbLine
 10
129.4553420852
 20
57.34844873
 30
0.0
 11
128.9553420032
 21
57.8484488119
 31
0.0
  0
LINE
  5
190
330
1F
100
AcDbEntity
  8
0
  6
HIDDEN
 62
     7
100
AcDbLine
 10
125.9553419771
 20
57.8484488119
 30
0.0
 11
125.4553418952
 21
57.34844873
 31
0.0
  0
LINE
  5
191
330
1F
100
AcDbEntity
  8
0
  6
HIDDEN
 62
     7
100
AcDbLine
 10
126.3006412304
 20
56.00314908
 30
0.0
 11
126.9553416754
 21
55.3484484021
 31
0.0
  0
LINE
  5
192
330
1F
100
AcDbEntity
  8
0
  6
HIDDEN
 62
     7
100
AcDbLine
 10
127.9553418393
 20
55.3484484021
 30
0.0
 11
128.6100425172
 21
56.00314908
 31
0.0
  0
LINE
  5
193
330
1F
100
AcDbEntity
  8
0
  6
HIDDEN
 62
     7
100
AcDbLine
 10
137.4553415338
 20
54.3484487039
 30
0.0
 11
137.9553416158
 21
53.8484486219
 31
0.0
  0
LINE
  5
194
330
1F
100
AcDbEntity
  8
0
  6
HIDDEN
 62
     7
100
AcDbLine
 10
140.9553421075
 20
53.8484486219
 30
0.0
 11
141.4553412582
 21
54.3484487039
 31
0.0
  0
LINE
  5
195
330
1F
100
AcDbEntity
  8
0
  6
HIDDEN
 62
     7
100
AcDbLine
 10
137.4553415338
 20
57.34844873
 30
0.0
 11
137.4553415338
 21
54.3484487039
 31
0.0
  0
LINE
  5
196
330
1F
100
AcDbEntity
  8
0
  6
HIDDEN
 62
     7
100
AcDbLine
 10
141.4553412582
 20
54.3484487039
 30
0.0
 11
141.4553412582
 21
57.34844873
 31
0.0
  0
LINE
  5
197
330
1F
100
AcDbEntity
  8
0
  6
HIDDEN
 62
     7
100
AcDbLine
 10
141.4553412582
 20
57.34844873
 30
0.0
 11
140.9553421075
 21
57.8484488119
 31
0.0
  0
LINE
  5
198
330
1F
100
AcDbEntity
  8
0
  6
HIDDEN
 62
     7
100
AcDbLine
 10
137.9553416158
 20
57.8484488119
 30
0.0
 11
137.4553415338
 21
57.34844873
 31
0.0
  0
LINE
  5
199
330
1F
100
AcDbEntity
  8
0
  6
HIDDEN
 62
     7
100
AcDbLine
 10
138.3006406362
 20
56.00314908
 30
0.0
 11
138.9553417797
 21
55.3484484021
 31
0.0
  0
LINE
  5
19A
330
1F
100
AcDbEntity
  8
0
  6
HIDDEN
 62
     7
100
AcDbLine
 10
139.9553419436
 20
55.3484484021
 30
0.0
 11
140.6100430871
 21
56.00314908
 31
0.0
  0
LINE
  5
19B
330
1F
100
AcDbEntity
  8
0
  6
HIDDEN
 62
     7
100
AcDbLine
 10
131.4553414817
 20
54.3484487039
 30
0.0
 11
131.9553415636
 21
53.8484486219
 31
0.0
  0
LINE
  5
19C
330
1F
100
AcDbEntity
  8
0
  6
HIDDEN
 62
     7
100
AcDbLine
 10
134.9553420554
 20
53.8484486219
 30
0.0
 11
135.4553421373
 21
54.3484487039
 31
0.0
  0
LINE
  5
19D
330
1F
100
AcDbEntity
  8
0
  6
HIDDEN
 62
     7
100
AcDbLine
 10
131.4553414817
 20
57.34844873
 30
0.0
 11
131.4553414817
 21
54.3484487039
 31
0.0
  0
LINE
  5
19E
330
1F
100
AcDbEntity
  8
0
  6
HIDDEN
 62
     7
100
AcDbLine
 10
135.4553421373
 20
54.3484487039
 30
0.0
 11
135.4553421373
 21
57.34844873
 31
0.0
  0
LINE
  5
19F
330
1F
100
AcDbEntity
  8
0
  6
HIDDEN
 62
     7
100
AcDbLine
 10
135.4553421373
 20
57.34844873
 30
0.0
 11
134.9553420554
 21
57.8484488119
 31
0.0
  0
LINE
  5
1A0
330
1F
100
AcDbEntity
  8
0
  6
HIDDEN
 62
     7
100
AcDbLine
 10
131.9553415636
 20
57.8484488119
 30
0.0
 11
131.4553414817
 21
57.34844873
 31
0.0
  0
LINE
  5
1A1
330
1F
100
AcDbEntity
  8
0
  6
HIDDEN
 62
     7
100
AcDbLine
 10
132.3006415154
 20
56.00314908
 30
0.0
 11
132.9553417276
 21
55.3484484021
 31
0.0
  0
LINE
  5
1A2
330
1F
100
AcDbEntity
  8
0
  6
HIDDEN
 62
     7
100
AcDbLine
 10
133.9553418915
 20
55.3484484021
 30
0.0
 11
134.6100421036
 21
56.00314908
 31
0.0
  0
DIMENSION
  5
1A3
330
1F
100
AcDbEntity
  8
0
  6
CONTINUOUS
 62
     7
100
AcDbDimension
  2
_D_6
 10
142.4553418691
 20
70.1579141046
 30
0.0
 11
132.7051370172
 21
70.1579141046
 31
0.0
 70
   160
  1
<>
  3
SLDDIMSTYLE0
100
AcDbAlignedDimension
 13
122.4553418691
 23
56.8484485958
 33
0.0
 14
142.4553418691
 24
55.8484485958
 34
0.0
100
AcDbRotatedDimension
  0
DIMENSION
  5
1AD
330
1F
100
AcDbEntity
  8
0
  6
CONTINUOUS
 62
     7
100
AcDbDimension
  2
_D_7
 10
222.4553418691
 20
70.1579141046
 30
0.0
 11
181.6701186345
 21
70.1579141046
 31
0.0
 70
   160
  1
<>
  3
SLDDIMSTYLE1
100
AcDbAlignedDimension
 13
142.4553418691
 23
55.8484485958
 33
0.0
 14
222.4553418691
 24
57.8484485958
 34
0.0
100
AcDbRotatedDimension
  0
DIMENSION
  5
1B7
330
1F
100
AcDbEntity
  8
0
  6
CONTINUOUS
 62
     7
100
AcDbDimension
  2
_D_8
 10
112.4553418691
 20
53.8484485958
 30
0.0
 11
112.4553418691
 21
35.1629684363
 31
0.0
 70
   160
  1
%%c<>
  3
SLDDIMSTYLE0
100
AcDbAlignedDimension
 13
122.9553418691
 23
47.8484485958
 33
0.0
 14
122.9553418691
 24
53.8484485958
 34
0.0
 50
90.0
100
AcDbRotatedDimension
  0
DIMENSION
  5
1C4
330
1F
100
AcDbEntity
  8
0
  6
CONTINUOUS
 62
     7
100
AcDbDimension
  2
_D_9
 10
239.8978826893
 20
55.8484485958
 30
0.0
 11
239.8978826893
 21
50.1769853894
 31
0.0
 70
   160
  1
%%c<>
  3
SLDDIMSTYLE0
100
AcDbAlignedDimension
 13
221.9553418691
 23
45.8484485958
 33
0.0
 14
221.9553418691
 24
55.8484485958
 34
0.0
 50
90.0
100
AcDbRotatedDimension
  0
INSERT
  5
1D7
330
1F
100
AcDbEntity
  8
0
  6
CONTINUOUS
 62
     7
100
AcDbBlockReference
  2
SW_NOTE_0
 10
106.8669959262
 20
72.2397835346
 30
0.0
  0
LEADER
  5
1D9
330
1F
100
AcDbEntity
  8
0
  6
CONTINUOUS
 62
     7
100
AcDbLeader
  3
SLDDIMSTYLE2
 76
     2
 10
127.4553418691
 20
58.5269513014
 30
0.0
 10
106.8669959262
 20
72.2397835346
 30
0.0
1001
ACAD
1000
DSTYLE
1002
{
1070
     6
1000
OPEN30
1002
}
  0
LINE
  5
1DA
330
1F
100
AcDbEntity
  8
0
  6
CENTERX2
 62
     7
100
AcDbLine
 10
120.4553418691
 20
50.8484485958
 30
0.0
 11
224.4553418691
 21
50.8484485958
 31
0.0
  0
LINE
  5
1DB
330
1F
100
AcDbEntity
  8
0
  6
CENTERX2
 62
     7
100
AcDbLine
 10
127.4553418691
 20
51.8484485958
 30
0.0
 11
127.4553418691
 21
59.7984485958
 31
0.0
  0
LINE
  5
1DC
330
1F
100
AcDbEntity
  8
0
  6
CENTERX2
 62
     7
100
AcDbLine
 10
133.4553418691
 20
51.8484485958
 30
0.0
 11
133.4553418691
 21
59.7984485958
 31
0.0
  0
LINE
  5
1DD
330
1F
100
AcDbEntity
  8
0
  6
CENTERX2
 62
     7
100
AcDbLine
 10
139.4553418691
 20
51.8484485958
 30
0.0
 11
139.4553418691
 21
59.7984485958
 31
0.0
  0
ENDSEC
  0
SECTION
  2
OBJECTS
  0
DICTIONARY
  5
C
330
0
100
AcDbDictionary
  3
ACAD_GROUP
350
D
  3
ACAD_MLINESTYLE
350
17
  3
ACAD_SCALELIST
350
47
  0
DICTIONARY
  5
D
102
{ACAD_REACTORS
330
C
102
}
330
C
100
AcDbDictionary
  0
DICTIONARY
  5
17
102
{ACAD_REACTORS
330
C
102
}
330
C
100
AcDbDictionary
  3
STANDARD
350
18
  0
DICTIONARY
  5
47
102
{ACAD_REACTORS
330
C
102
}
330
C
100
AcDbDictionary
  0
MLINESTYLE
  5
18
102
{ACAD_REACTORS
330
17
102
}
330
17
100
AcDbMlineStyle
  2
Standard
 70
     0
  3

 62
   256
 51
90.0
 52
90.0
 71
     2
 49
0.5
 62
   256
  6
BYLAYER
 49
-0.5
 62
   256
  6
BYLAYER
  0
ENDSEC
  0
EOF
