  0
SECTION
  2
HEADER
  9
$ACADVER
  1
AC1015
  9
$ACADMAINTVER
 70
     6
  9
$DWGCODEPAGE
  3
ANSI_932
  9
$INSBASE
 10
0.0
 20
0.0
 30
0.0
  9
$EXTMIN
 10
-4.991501
 20
8.280319
 30
0.0
  9
$EXTMAX
 10
255.232071
 20
199.473709
 30
0.0
  9
$LIMMIN
 10
0.0
 20
0.0
  9
$LIMMAX
 10
12.0
 20
9.0
  9
$ORTHOMODE
 70
     0
  9
$REGENMODE
 70
     1
  9
$FILLMODE
 70
     1
  9
$QTEXTMODE
 70
     0
  9
$MIRRTEXT
 70
     1
  9
$LTSCALE
 40
3.229105
  9
$ATTMODE
 70
     1
  9
$TEXTSIZE
 40
3.2
  9
$TRACEWID
 40
1.0
  9
$TEXTSTYLE
  7
Standard
  9
$CLAYER
  8
0
  9
$CELTYPE
  6
ByLayer
  9
$CECOLOR
 62
   256
  9
$CELTSCALE
 40
1.0
  9
$DISPSILH
 70
     0
  9
$DIMSCALE
 40
1.0
  9
$DIMASZ
 40
2.5
  9
$DIMEXO
 40
0.625
  9
$DIMDLI
 40
3.75
  9
$DIMRND
 40
0.0
  9
$DIMDLE
 40
0.0
  9
$DIMEXE
 40
1.25
  9
$DIMTP
 40
0.0
  9
$DIMTM
 40
0.0
  9
$DIMTXT
 40
2.5
  9
$DIMCEN
 40
0.09
  9
$DIMTSZ
 40
0.0
  9
$DIMTOL
 70
     0
  9
$DIMLIM
 70
     0
  9
$DIMTIH
 70
     0
  9
$DIMTOH
 70
     0
  9
$DIMSE1
 70
     0
  9
$DIMSE2
 70
     0
  9
$DIMTAD
 70
     0
  9
$DIMZIN
 70
     8
  9
$DIMBLK
  1

  9
$DIMASO
 70
     1
  9
$DIMSHO
 70
     0
  9
$DIMPOST
  1

  9
$DIMAPOST
  1

  9
$DIMALT
 70
     0
  9
$DIMALTD
 70
     3
  9
$DIMALTF
 40
0.03937
  9
$DIMLFAC
 40
1.0
  9
$DIMTOFL
 70
     1
  9
$DIMTVP
 40
0.0
  9
$DIMTIX
 70
     0
  9
$DIMSOXD
 70
     0
  9
$DIMSAH
 70
     0
  9
$DIMBLK1
  1

  9
$DIMBLK2
  1

  9
$DIMSTYLE
  2
ISO-25
  9
$DIMCLRD
 70
     0
  9
$DIMCLRE
 70
     0
  9
$DIMCLRT
 70
     0
  9
$DIMTFAC
 40
1.0
  9
$DIMGAP
 40
0.625
  9
$DIMJUST
 70
     0
  9
$DIMSD1
 70
     0
  9
$DIMSD2
 70
     0
  9
$DIMTOLJ
 70
     0
  9
$DIMTZIN
 70
     8
  9
$DIMALTZ
 70
     0
  9
$DIMALTTZ
 70
     0
  9
$DIMUPT
 70
     0
  9
$DIMDEC
 70
     2
  9
$DIMTDEC
 70
     2
  9
$DIMALTU
 70
     2
  9
$DIMALTTD
 70
     3
  9
$DIMTXSTY
  7
Standard
  9
$DIMAUNIT
 70
     0
  9
$DIMADEC
 70
     0
  9
$DIMALTRND
 40
0.0
  9
$DIMAZIN
 70
     0
  9
$DIMDSEP
 70
    44
  9
$DIMATFIT
 70
     3
  9
$DIMFRAC
 70
     0
  9
$DIMLDRBLK
  1

  9
$DIMLUNIT
 70
     2
  9
$DIMLWD
 70
    -2
  9
$DIMLWE
 70
    -2
  9
$DIMTMOVE
 70
     0
  9
$LUNITS
 70
     2
  9
$LUPREC
 70
     4
  9
$SKETCHINC
 40
1.0
  9
$FILLETRAD
 40
0.0
  9
$AUNITS
 70
     0
  9
$AUPREC
 70
     0
  9
$MENU
  1
.
  9
$ELEVATION
 40
0.0
  9
$PELEVATION
 40
0.0
  9
$THICKNESS
 40
0.0
  9
$LIMCHECK
 70
     0
  9
$CHAMFERA
 40
10.0
  9
$CHAMFERB
 40
10.0
  9
$CHAMFERC
 40
20.0
  9
$CHAMFERD
 40
0.0
  9
$SKPOLY
 70
     0
  9
$TDCREATE
 40
2455405.448538773
  9
$TDUCREATE
 40
2455405.073538773
  9
$TDUPDATE
 40
2455405.448538785
  9
$TDUUPDATE
 40
2455405.073538785
  9
$TDINDWG
 40
0.0000000116
  9
$TDUSRTIMER
 40
0.0000000116
  9
$USRTIMER
 70
     1
  9
$ANGBASE
 50
0.0
  9
$ANGDIR
 70
     0
  9
$PDMODE
 70
     0
  9
$PDSIZE
 40
0.0
  9
$PLINEWID
 40
0.0
  9
$SPLFRAME
 70
     0
  9
$SPLINETYPE
 70
     6
  9
$SPLINESEGS
 70
     8
  9
$HANDSEED
  5
295
  9
$SURFTAB1
 70
     6
  9
$SURFTAB2
 70
     6
  9
$SURFTYPE
 70
     6
  9
$SURFU
 70
     6
  9
$SURFV
 70
     6
  9
$UCSBASE
  2

  9
$UCSNAME
  2

  9
$UCSORG
 10
0.0
 20
0.0
 30
0.0
  9
$UCSXDIR
 10
1.0
 20
0.0
 30
0.0
  9
$UCSYDIR
 10
0.0
 20
1.0
 30
0.0
  9
$UCSORTHOREF
  2

  9
$UCSORTHOVIEW
 70
     0
  9
$UCSORGTOP
 10
0.0
 20
0.0
 30
0.0
  9
$UCSORGBOTTOM
 10
0.0
 20
0.0
 30
0.0
  9
$UCSORGLEFT
 10
0.0
 20
0.0
 30
0.0
  9
$UCSORGRIGHT
 10
0.0
 20
0.0
 30
0.0
  9
$UCSORGFRONT
 10
0.0
 20
0.0
 30
0.0
  9
$UCSORGBACK
 10
0.0
 20
0.0
 30
0.0
  9
$PUCSBASE
  2

  9
$PUCSNAME
  2

  9
$PUCSORG
 10
0.0
 20
0.0
 30
0.0
  9
$PUCSXDIR
 10
1.0
 20
0.0
 30
0.0
  9
$PUCSYDIR
 10
0.0
 20
1.0
 30
0.0
  9
$PUCSORTHOREF
  2

  9
$PUCSORTHOVIEW
 70
     0
  9
$PUCSORGTOP
 10
0.0
 20
0.0
 30
0.0
  9
$PUCSORGBOTTOM
 10
0.0
 20
0.0
 30
0.0
  9
$PUCSORGLEFT
 10
0.0
 20
0.0
 30
0.0
  9
$PUCSORGRIGHT
 10
0.0
 20
0.0
 30
0.0
  9
$PUCSORGFRONT
 10
0.0
 20
0.0
 30
0.0
  9
$PUCSORGBACK
 10
0.0
 20
0.0
 30
0.0
  9
$USERI1
 70
     0
  9
$USERI2
 70
     0
  9
$USERI3
 70
     0
  9
$USERI4
 70
     0
  9
$USERI5
 70
     0
  9
$USERR1
 40
0.0
  9
$USERR2
 40
0.0
  9
$USERR3
 40
0.0
  9
$USERR4
 40
0.0
  9
$USERR5
 40
0.0
  9
$WORLDVIEW
 70
     1
  9
$SHADEDGE
 70
     3
  9
$SHADEDIF
 70
    70
  9
$TILEMODE
 70
     1
  9
$MAXACTVP
 70
    64
  9
$PINSBASE
 10
0.0
 20
0.0
 30
0.0
  9
$PLIMCHECK
 70
     0
  9
$PEXTMIN
 10
1.000000E+20
 20
1.000000E+20
 30
0.0
  9
$PEXTMAX
 10
-1.000000E+20
 20
-1.000000E+20
 30
0.0
  9
$PLIMMIN
 10
0.0
 20
0.0
  9
$PLIMMAX
 10
12.0
 20
9.0
  9
$UNITMODE
 70
     0
  9
$VISRETAIN
 70
     1
  9
$PLINEGEN
 70
     0
  9
$PSLTSCALE
 70
     1
  9
$TREEDEPTH
 70
  3020
  9
$CMLSTYLE
  2
Standard
  9
$CMLJUST
 70
     0
  9
$CMLSCALE
 40
20.0
  9
$PROXYGRAPHICS
 70
     1
  9
$MEASUREMENT
 70
     1
  9
$CELWEIGHT
370
    -1
  9
$ENDCAPS
280
     0
  9
$JOINSTYLE
280
     0
  9
$LWDISPLAY
290
     0
  9
$INSUNITS
 70
     4
  9
$HYPERLINKBASE
  1

  9
$STYLESHEET
  1

  9
$XEDIT
290
     1
  9
$CEPSNTYPE
380
     0
  9
$PSTYLEMODE
290
     1
  9
$FINGERPRINTGUID
  2
{597C2E0F-3A7D-4C1D-943B-4A11A7851F36}
  9
$VERSIONGUID
  2
{FAEB1C32-E019-11D5-929B-00C0DF256EC4}
  9
$EXTNAMES
290
     1
  9
$PSVPSCALE
 40
0.0
  9
$OLESTARTUP
290
     0
  0
ENDSEC
  0
SECTION
  2
CLASSES
  0
CLASS
  1
ACDBDICTIONARYWDFLT
  2
AcDbDictionaryWithDefault
  3
ObjectDBX Classes
 90
        0
280
     0
281
     0
  0
CLASS
  1
VISUALSTYLE
  2
AcDbVisualStyle
  3
ObjectDBX Classes
 90
     4095
280
     0
281
     0
  0
CLASS
  1
SCALE
  2
AcDbScale
  3
ObjectDBX Classes
 90
     1153
280
     0
281
     0
  0
CLASS
  1
DICTIONARYVAR
  2
AcDbDictionaryVar
  3
ObjectDBX Classes
 90
        0
280
     0
281
     0
  0
CLASS
  1
ACDBPLACEHOLDER
  2
AcDbPlaceHolder
  3
ObjectDBX Classes
 90
        0
280
     0
281
     0
  0
CLASS
  1
LAYOUT
  2
AcDbLayout
  3
ObjectDBX Classes
 90
        0
280
     0
281
     0
  0
ENDSEC
  0
SECTION
  2
TABLES
  0
TABLE
  2
VPORT
  5
8
330
0
100
AcDbSymbolTable
 70
     1
  0
VPORT
  5
29
330
8
100
AcDbSymbolTableRecord
100
AcDbViewportTableRecord
  2
*Active
 70
     0
 10
0.0
 20
0.0
 11
1.0
 21
1.0
 12
125.120285
 22
103.877014
 13
0.0
 23
0.0
 14
1.0
 24
1.0
 15
0.0
 25
0.0
 16
0.0
 26
0.0
 36
1.0
 17
0.0
 27
0.0
 37
0.0
 40
193.105324
 41
1.691288
 42
50.0
 43
0.0
 44
0.0
 50
0.0
 51
0.0
 71
     0
 72
   100
 73
     1
 74
     3
 75
     0
 76
     0
 77
     0
 78
     0
281
     0
 65
     1
110
0.0
120
0.0
130
0.0
111
1.0
121
0.0
131
0.0
112
0.0
122
1.0
132
0.0
 79
     0
146
0.0
  0
ENDTAB
  0
TABLE
  2
LTYPE
  5
5
330
0
100
AcDbSymbolTable
 70
     5
  0
LTYPE
  5
14
330
5
100
AcDbSymbolTableRecord
100
AcDbLinetypeTableRecord
  2
ByBlock
 70
     0
  3

 72
    65
 73
     0
 40
0.0
  0
LTYPE
  5
15
330
5
100
AcDbSymbolTableRecord
100
AcDbLinetypeTableRecord
  2
ByLayer
 70
     0
  3

 72
    65
 73
     0
 40
0.0
  0
LTYPE
  5
16
330
5
100
AcDbSymbolTableRecord
100
AcDbLinetypeTableRecord
  2
Continuous
 70
     0
  3
Solid line
 72
    65
 73
     0
 40
0.0
  0
LTYPE
  5
5D
330
5
100
AcDbSymbolTableRecord
100
AcDbLinetypeTableRecord
  2
DASHED
 70
     0
  3
DASHED
 72
    83
 73
     2
 40
0.75
 49
0.5
 74
     0
 49
-0.25
 74
     0
  0
LTYPE
  5
5E
330
5
100
AcDbSymbolTableRecord
100
AcDbLinetypeTableRecord
  2
HIDDEN
 70
     0
  3
HIDDEN
 72
    83
 73
     2
 40
0.375
 49
0.25
 74
     0
 49
-0.125
 74
     0
  0
LTYPE
  5
5F
330
5
100
AcDbSymbolTableRecord
100
AcDbLinetypeTableRecord
  2
CENTER
 70
     0
  3
CENTER
 72
    83
 73
     4
 40
2.0
 49
1.25
 74
     0
 49
-0.25
 74
     0
 49
0.25
 74
     0
 49
-0.25
 74
     0
  0
LTYPE
  5
60
330
5
100
AcDbSymbolTableRecord
100
AcDbLinetypeTableRecord
  2
PHANTOM
 70
     0
  3
PHANTOM
 72
    83
 73
     6
 40
2.5
 49
1.25
 74
     0
 49
-0.25
 74
     0
 49
0.25
 74
     0
 49
-0.25
 74
     0
 49
0.25
 74
     0
 49
-0.25
 74
     0
  0
ENDTAB
  0
TABLE
  2
LAYER
  5
2
330
0
100
AcDbSymbolTable
 70
     2
  0
LAYER
  5
10
330
2
100
AcDbSymbolTableRecord
100
AcDbLayerTableRecord
  2
0
 70
     0
 62
     7
  6
Continuous
370
    -3
390
F
  0
LAYER
  5
61
330
2
100
AcDbSymbolTableRecord
100
AcDbLayerTableRecord
  2
001
 70
     0
 62
     7
  6
Continuous
370
    -3
390
F
  0
ENDTAB
  0
TABLE
  2
STYLE
  5
3
330
0
100
AcDbSymbolTable
 70
     2
  0
STYLE
  5
11
330
3
100
AcDbSymbolTableRecord
100
AcDbTextStyleTableRecord
  2
Standard
 70
     0
 40
0.0
 41
1.0
 50
0.0
 71
     0
 42
0.2
  3
TXT
  4
BIGFONT
  0
STYLE
  5
62
330
3
100
AcDbSymbolTableRecord
100
AcDbTextStyleTableRecord
  2
TATEGAKI
 70
     4
 40
1.0
 41
1.0
 50
0.0
 71
     0
 42
0.2
  3
TXT
  4
BIGFONT
  0
ENDTAB
  0
TABLE
  2
VIEW
  5
6
330
0
100
AcDbSymbolTable
 70
     0
  0
ENDTAB
  0
TABLE
  2
UCS
  5
7
330
0
100
AcDbSymbolTable
 70
     0
  0
ENDTAB
  0
TABLE
  2
APPID
  5
9
330
0
100
AcDbSymbolTable
 70
     1
  0
APPID
  5
12
330
9
100
AcDbSymbolTableRecord
100
AcDbRegAppTableRecord
  2
ACAD
 70
     0
  0
ENDTAB
  0
TABLE
  2
DIMSTYLE
  5
A
330
0
100
AcDbSymbolTable
 70
     2
100
AcDbDimStyleTable
  0
DIMSTYLE
105
27
330
A
100
AcDbSymbolTableRecord
100
AcDbDimStyleTableRecord
  2
ISO-25
 70
     0
 41
2.5
 42
0.625
 43
3.75
 44
1.25
 73
     0
 74
     0
 77
     1
 78
     8
140
2.5
141
2.5
143
0.03937
147
0.625
171
     3
172
     1
271
     2
272
     2
274
     3
278
    44
283
     0
284
     8
340
11
  0
DIMSTYLE
105
63
102
{ACAD_REACTORS
330
1B8
330
1B9
330
1BA
330
1BB
330
1BC
330
1BD
330
1BE
330
1BF
330
1C0
330
1C1
330
1C2
330
1C3
330
1DA
330
1DC
330
1DD
330
1DE
102
}
330
A
100
AcDbSymbolTableRecord
100
AcDbDimStyleTableRecord
  2
Standard
 70
     0
 41
1.5
 42
0.0
 44
0.5
 73
     0
 74
     0
 77
     1
 78
     8
 79
     2
140
4.0
146
0.8
147
1.0
172
     1
179
     1
271
     1
340
11
  0
ENDTAB
  0
TABLE
  2
BLOCK_RECORD
  5
1
330
0
100
AcDbSymbolTable
 70
    18
  0
BLOCK_RECORD
  5
1F
330
1
100
AcDbSymbolTableRecord
100
AcDbBlockTableRecord
  2
*Model_Space
340
22
  0
BLOCK_RECORD
  5
1B
330
1
100
AcDbSymbolTableRecord
100
AcDbBlockTableRecord
  2
*Paper_Space
340
1E
  0
BLOCK_RECORD
  5
23
330
1
100
AcDbSymbolTableRecord
100
AcDbBlockTableRecord
  2
*Paper_Space0
340
26
  0
BLOCK_RECORD
  5
64
330
1
100
AcDbSymbolTableRecord
100
AcDbBlockTableRecord
  2
*D1
340
0
  0
BLOCK_RECORD
  5
79
330
1
100
AcDbSymbolTableRecord
100
AcDbBlockTableRecord
  2
*D2
340
0
  0
BLOCK_RECORD
  5
86
330
1
100
AcDbSymbolTableRecord
100
AcDbBlockTableRecord
  2
*D3
340
0
  0
BLOCK_RECORD
  5
9A
330
1
100
AcDbSymbolTableRecord
100
AcDbBlockTableRecord
  2
*D4
340
0
  0
BLOCK_RECORD
  5
AE
330
1
100
AcDbSymbolTableRecord
100
AcDbBlockTableRecord
  2
*D5
340
0
  0
BLOCK_RECORD
  5
C2
330
1
100
AcDbSymbolTableRecord
100
AcDbBlockTableRecord
  2
*D6
340
0
  0
BLOCK_RECORD
  5
D6
330
1
100
AcDbSymbolTableRecord
100
AcDbBlockTableRecord
  2
*D7
340
0
  0
BLOCK_RECORD
  5
EA
330
1
100
AcDbSymbolTableRecord
100
AcDbBlockTableRecord
  2
*D8
340
0
  0
BLOCK_RECORD
  5
FE
330
1
100
AcDbSymbolTableRecord
100
AcDbBlockTableRecord
  2
*D9
340
0
  0
BLOCK_RECORD
  5
114
330
1
100
AcDbSymbolTableRecord
100
AcDbBlockTableRecord
  2
*D10
340
0
  0
BLOCK_RECORD
  5
128
330
1
100
AcDbSymbolTableRecord
100
AcDbBlockTableRecord
  2
*D11
340
0
  0
BLOCK_RECORD
  5
13C
330
1
100
AcDbSymbolTableRecord
100
AcDbBlockTableRecord
  2
*D12
340
0
  0
BLOCK_RECORD
  5
152
330
1
100
AcDbSymbolTableRecord
100
AcDbBlockTableRecord
  2
*D13
340
0
  0
BLOCK_RECORD
  5
168
330
1
100
AcDbSymbolTableRecord
100
AcDbBlockTableRecord
  2
DIM-1
340
0
102
{BLKREFS
331
1DB
102
}
  0
BLOCK_RECORD
  5
176
330
1
100
AcDbSymbolTableRecord
100
AcDbBlockTableRecord
  2
*D15
340
0
  0
BLOCK_RECORD
  5
18C
330
1
100
AcDbSymbolTableRecord
100
AcDbBlockTableRecord
  2
*D16
340
0
  0
BLOCK_RECORD
  5
1A2
330
1
100
AcDbSymbolTableRecord
100
AcDbBlockTableRecord
  2
*D17
340
0
  0
ENDTAB
  0
ENDSEC
  0
SECTION
  2
BLOCKS
  0
BLOCK
  5
20
330
1F
100
AcDbEntity
  8
0
100
AcDbBlockBegin
  2
*Model_Space
 70
     0
 10
0.0
 20
0.0
 30
0.0
  3
*Model_Space
  1

  0
ENDBLK
  5
21
330
1F
100
AcDbEntity
  8
0
100
AcDbBlockEnd
  0
BLOCK
  5
1C
330
1B
100
AcDbEntity
 67
     1
  8
0
100
AcDbBlockBegin
  2
*Paper_Space
 70
     0
 10
0.0
 20
0.0
 30
0.0
  3
*Paper_Space
  1

  0
ENDBLK
  5
1D
330
1B
100
AcDbEntity
 67
     1
  8
0
100
AcDbBlockEnd
  0
BLOCK
  5
24
330
23
100
AcDbEntity
  8
0
100
AcDbBlockBegin
  2
*Paper_Space0
 70
     0
 10
0.0
 20
0.0
 30
0.0
  3
*Paper_Space0
  1

  0
ENDBLK
  5
25
330
23
100
AcDbEntity
  8
0
100
AcDbBlockEnd
  0
BLOCK
  5
65
330
64
100
AcDbEntity
  8
0
100
AcDbBlockBegin
  2
*D1
 70
     1
 10
0.0
 20
0.0
 30
0.0
  3
*D1
  1

  0
LINE
  5
67
330
64
100
AcDbEntity
  8
001
370
     9
100
AcDbLine
 10
156.891389
 20
107.716639
 30
0.0
 11
187.569281
 21
107.716639
 31
0.0
  0
LINE
  5
68
330
64
100
AcDbEntity
  8
001
370
     9
100
AcDbLine
 10
156.891389
 20
139.716639
 30
0.0
 11
187.569281
 21
139.716639
 31
0.0
  0
LINE
  5
69
330
64
100
AcDbEntity
  8
001
370
     9
100
AcDbLine
 10
184.131781
 20
107.716639
 30
0.0
 11
184.131781
 21
139.716639
 31
0.0
  0
POLYLINE
  5
6A
330
64
100
AcDbEntity
  8
001
370
     9
100
AcDb2dPolyline
 66
     1
 10
0.0
 20
0.0
 30
0.0
  0
VERTEX
  5
6C
330
6A
100
AcDbEntity
  8
001
370
     9
100
AcDbVertex
100
AcDb2dVertex
 10
184.634186
 20
109.591639
 30
0.0
  0
VERTEX
  5
6D
330
6A
100
AcDbEntity
  8
001
370
     9
100
AcDbVertex
100
AcDb2dVertex
 10
184.131781
 20
107.716639
 30
0.0
  0
VERTEX
  5
6E
330
6A
100
AcDbEntity
  8
001
370
     9
100
AcDbVertex
100
AcDb2dVertex
 10
183.629376
 20
109.591639
 30
0.0
  0
SEQEND
  5
6B
330
6A
100
AcDbEntity
  8
001
370
     9
  0
POLYLINE
  5
6F
330
64
100
AcDbEntity
  8
001
370
     9
100
AcDb2dPolyline
 66
     1
 10
0.0
 20
0.0
 30
0.0
  0
VERTEX
  5
71
330
6F
100
AcDbEntity
  8
001
370
     9
100
AcDbVertex
100
AcDb2dVertex
 10
183.629376
 20
137.841639
 30
0.0
  0
VERTEX
  5
72
330
6F
100
AcDbEntity
  8
001
370
     9
100
AcDbVertex
100
AcDb2dVertex
 10
184.131781
 20
139.716639
 30
0.0
  0
VERTEX
  5
73
330
6F
100
AcDbEntity
  8
001
370
     9
100
AcDbVertex
100
AcDb2dVertex
 10
184.634186
 20
137.841639
 30
0.0
  0
SEQEND
  5
70
330
6F
100
AcDbEntity
  8
001
370
     9
  0
TEXT
  5
74
330
64
100
AcDbEntity
  8
001
370
    30
100
AcDbText
 10
182.881781
 20
112.216639
 30
0.0
 40
5.0
  1
%%c３２
 50
90.000003
 41
0.882353
100
AcDbText
  0
TEXT
  5
75
330
64
100
AcDbEntity
  8
001
370
    30
100
AcDbText
 10
182.381781
 20
127.216639
 30
0.0
 40
4.0
  1
ｈ７
 50
90.000003
 41
0.833333
100
AcDbText
  0
POINT
  5
76
330
64
100
AcDbEntity
  8
001
370
     9
100
AcDbPoint
 10
156.891389
 20
107.716639
 30
0.0
  0
POINT
  5
77
330
64
100
AcDbEntity
  8
001
370
     9
100
AcDbPoint
 10
156.891389
 20
139.716639
 30
0.0
  0
POINT
  5
78
330
64
100
AcDbEntity
  8
001
370
     9
100
AcDbPoint
 10
184.131781
 20
139.716639
 30
0.0
  0
ENDBLK
  5
66
330
64
100
AcDbEntity
  8
0
100
AcDbBlockEnd
  0
BLOCK
  5
7A
330
79
100
AcDbEntity
  8
0
100
AcDbBlockBegin
  2
*D2
 70
     1
 10
0.0
 20
0.0
 30
0.0
  3
*D2
  1

  0
LINE
  5
7C
330
79
100
AcDbEntity
  8
001
370
     9
100
AcDbLine
 10
156.891389
 20
137.716639
 30
0.0
 11
158.460873
 21
138.956284
 31
0.0
  0
POLYLINE
  5
7D
330
79
100
AcDbEntity
  8
001
370
     9
100
AcDb2dPolyline
 66
     1
 10
0.0
 20
0.0
 30
0.0
  0
VERTEX
  5
7F
330
7D
100
AcDbEntity
  8
001
370
     9
100
AcDbVertex
100
AcDb2dVertex
 10
160.243666
 20
139.724194
 30
0.0
  0
VERTEX
  5
80
330
7D
100
AcDbEntity
  8
001
370
     9
100
AcDbVertex
100
AcDb2dVertex
 10
158.460873
 20
138.956284
 30
0.0
  0
VERTEX
  5
81
330
7D
100
AcDbEntity
  8
001
370
     9
100
AcDbVertex
100
AcDb2dVertex
 10
159.620862
 20
140.51271
 30
0.0
  0
SEQEND
  5
7E
330
7D
100
AcDbEntity
  8
001
370
     9
  0
TEXT
  5
82
330
79
100
AcDbEntity
  8
001
370
    30
100
AcDbText
 10
161.11934
 20
142.648936
 30
0.0
 40
5.0
  1
（Ｒ２）
 50
38.303189
 41
0.833333
100
AcDbText
  0
POINT
  5
83
330
79
100
AcDbEntity
  8
001
370
     9
100
AcDbPoint
 10
158.460873
 20
138.956284
 30
0.0
  0
POINT
  5
84
330
79
100
AcDbEntity
  8
001
370
     9
100
AcDbPoint
 10
156.891389
 20
137.716639
 30
0.0
  0
LINE
  5
85
330
79
100
AcDbEntity
  8
001
370
     9
100
AcDbLine
 10
158.460873
 20
138.956284
 30
0.0
 11
180.531738
 21
156.388798
 31
0.0
  0
ENDBLK
  5
7B
330
79
100
AcDbEntity
  8
0
100
AcDbBlockEnd
  0
BLOCK
  5
87
330
86
100
AcDbEntity
  8
0
100
AcDbBlockBegin
  2
*D3
 70
     1
 10
0.0
 20
0.0
 30
0.0
  3
*D3
  1

  0
LINE
  5
89
330
86
100
AcDbEntity
  8
001
370
     9
100
AcDbLine
 10
218.255747
 20
115.970672
 30
0.0
 11
218.255747
 21
81.066269
 31
0.0
  0
LINE
  5
8A
330
86
100
AcDbEntity
  8
001
370
     9
100
AcDbLine
 10
248.255747
 20
123.716639
 30
0.0
 11
248.255747
 21
81.066269
 31
0.0
  0
LINE
  5
8B
330
86
100
AcDbEntity
  8
001
370
     9
100
AcDbLine
 10
218.255747
 20
84.503769
 30
0.0
 11
248.255747
 21
84.503769
 31
0.0
  0
POLYLINE
  5
8C
330
86
100
AcDbEntity
  8
001
370
     9
100
AcDb2dPolyline
 66
     1
 10
0.0
 20
0.0
 30
0.0
  0
VERTEX
  5
8E
330
8C
100
AcDbEntity
  8
001
370
     9
100
AcDbVertex
100
AcDb2dVertex
 10
220.130747
 20
84.001365
 30
0.0
  0
VERTEX
  5
8F
330
8C
100
AcDbEntity
  8
001
370
     9
100
AcDbVertex
100
AcDb2dVertex
 10
218.255747
 20
84.503769
 30
0.0
  0
VERTEX
  5
90
330
8C
100
AcDbEntity
  8
001
370
     9
100
AcDbVertex
100
AcDb2dVertex
 10
220.130747
 20
85.006174
 30
0.0
  0
SEQEND
  5
8D
330
8C
100
AcDbEntity
  8
001
370
     9
  0
POLYLINE
  5
91
330
86
100
AcDbEntity
  8
001
370
     9
100
AcDb2dPolyline
 66
     1
 10
0.0
 20
0.0
 30
0.0
  0
VERTEX
  5
93
330
91
100
AcDbEntity
  8
001
370
     9
100
AcDbVertex
100
AcDb2dVertex
 10
246.380747
 20
85.006174
 30
0.0
  0
VERTEX
  5
94
330
91
100
AcDbEntity
  8
001
370
     9
100
AcDbVertex
100
AcDb2dVertex
 10
248.255747
 20
84.503769
 30
0.0
  0
VERTEX
  5
95
330
91
100
AcDbEntity
  8
001
370
     9
100
AcDbVertex
100
AcDb2dVertex
 10
246.380747
 20
84.001365
 30
0.0
  0
SEQEND
  5
92
330
91
100
AcDbEntity
  8
001
370
     9
  0
TEXT
  5
96
330
86
100
AcDbEntity
  8
001
370
    30
100
AcDbText
 10
228.255747
 20
85.753769
 30
0.0
 40
5.0
  1
３０
 41
0.833333
100
AcDbText
  0
POINT
  5
97
330
86
100
AcDbEntity
  8
001
370
     9
100
AcDbPoint
 10
218.255747
 20
115.970672
 30
0.0
  0
POINT
  5
98
330
86
100
AcDbEntity
  8
001
370
     9
100
AcDbPoint
 10
248.255747
 20
123.716639
 30
0.0
  0
POINT
  5
99
330
86
100
AcDbEntity
  8
001
370
     9
100
AcDbPoint
 10
248.255747
 20
84.503769
 30
0.0
  0
ENDBLK
  5
88
330
86
100
AcDbEntity
  8
0
100
AcDbBlockEnd
  0
BLOCK
  5
9B
330
9A
100
AcDbEntity
  8
0
100
AcDbBlockBegin
  2
*D4
 70
     1
 10
0.0
 20
0.0
 30
0.0
  3
*D4
  1

  0
LINE
  5
9D
330
9A
100
AcDbEntity
  8
001
370
     9
100
AcDbLine
 10
60.891389
 20
109.716639
 30
0.0
 11
12.251373
 21
109.716639
 31
0.0
  0
LINE
  5
9E
330
9A
100
AcDbEntity
  8
001
370
     9
100
AcDbLine
 10
60.891389
 20
137.716639
 30
0.0
 11
12.251373
 21
137.716639
 31
0.0
  0
LINE
  5
9F
330
9A
100
AcDbEntity
  8
001
370
     9
100
AcDbLine
 10
15.688873
 20
109.716639
 30
0.0
 11
15.688873
 21
137.716639
 31
0.0
  0
POLYLINE
  5
A0
330
9A
100
AcDbEntity
  8
001
370
     9
100
AcDb2dPolyline
 66
     1
 10
0.0
 20
0.0
 30
0.0
  0
VERTEX
  5
A2
330
A0
100
AcDbEntity
  8
001
370
     9
100
AcDbVertex
100
AcDb2dVertex
 10
16.191277
 20
111.591639
 30
0.0
  0
VERTEX
  5
A3
330
A0
100
AcDbEntity
  8
001
370
     9
100
AcDbVertex
100
AcDb2dVertex
 10
15.688873
 20
109.716639
 30
0.0
  0
VERTEX
  5
A4
330
A0
100
AcDbEntity
  8
001
370
     9
100
AcDbVertex
100
AcDb2dVertex
 10
15.186468
 20
111.591639
 30
0.0
  0
SEQEND
  5
A1
330
A0
100
AcDbEntity
  8
001
370
     9
  0
POLYLINE
  5
A5
330
9A
100
AcDbEntity
  8
001
370
     9
100
AcDb2dPolyline
 66
     1
 10
0.0
 20
0.0
 30
0.0
  0
VERTEX
  5
A7
330
A5
100
AcDbEntity
  8
001
370
     9
100
AcDbVertex
100
AcDb2dVertex
 10
15.186468
 20
135.841639
 30
0.0
  0
VERTEX
  5
A8
330
A5
100
AcDbEntity
  8
001
370
     9
100
AcDbVertex
100
AcDb2dVertex
 10
15.688873
 20
137.716639
 30
0.0
  0
VERTEX
  5
A9
330
A5
100
AcDbEntity
  8
001
370
     9
100
AcDbVertex
100
AcDb2dVertex
 10
16.191277
 20
135.841639
 30
0.0
  0
SEQEND
  5
A6
330
A5
100
AcDbEntity
  8
001
370
     9
  0
TEXT
  5
AA
330
9A
100
AcDbEntity
  8
001
370
    30
100
AcDbText
 10
14.438873
 20
118.198688
 30
0.0
 40
5.0
  1
%%c２８
 50
90.000003
 41
0.882353
100
AcDbText
  0
POINT
  5
AB
330
9A
100
AcDbEntity
  8
001
370
     9
100
AcDbPoint
 10
60.891389
 20
109.716639
 30
0.0
  0
POINT
  5
AC
330
9A
100
AcDbEntity
  8
001
370
     9
100
AcDbPoint
 10
60.891389
 20
137.716639
 30
0.0
  0
POINT
  5
AD
330
9A
100
AcDbEntity
  8
001
370
     9
100
AcDbPoint
 10
15.688873
 20
137.716639
 30
0.0
  0
ENDBLK
  5
9C
330
9A
100
AcDbEntity
  8
0
100
AcDbBlockEnd
  0
BLOCK
  5
AF
330
AE
100
AcDbEntity
  8
0
100
AcDbBlockBegin
  2
*D5
 70
     1
 10
0.0
 20
0.0
 30
0.0
  3
*D5
  1

  0
LINE
  5
B1
330
AE
100
AcDbEntity
  8
001
370
     9
100
AcDbLine
 10
48.891389
 20
111.716639
 30
0.0
 11
23.254012
 21
111.716639
 31
0.0
  0
LINE
  5
B2
330
AE
100
AcDbEntity
  8
001
370
     9
100
AcDbLine
 10
48.891389
 20
135.716639
 30
0.0
 11
23.254012
 21
135.716639
 31
0.0
  0
LINE
  5
B3
330
AE
100
AcDbEntity
  8
001
370
     9
100
AcDbLine
 10
26.691512
 20
111.716639
 30
0.0
 11
26.691512
 21
135.716639
 31
0.0
  0
POLYLINE
  5
B4
330
AE
100
AcDbEntity
  8
001
370
     9
100
AcDb2dPolyline
 66
     1
 10
0.0
 20
0.0
 30
0.0
  0
VERTEX
  5
B6
330
B4
100
AcDbEntity
  8
001
370
     9
100
AcDbVertex
100
AcDb2dVertex
 10
27.193917
 20
113.591639
 30
0.0
  0
VERTEX
  5
B7
330
B4
100
AcDbEntity
  8
001
370
     9
100
AcDbVertex
100
AcDb2dVertex
 10
26.691512
 20
111.716639
 30
0.0
  0
VERTEX
  5
B8
330
B4
100
AcDbEntity
  8
001
370
     9
100
AcDbVertex
100
AcDb2dVertex
 10
26.189107
 20
113.591639
 30
0.0
  0
SEQEND
  5
B5
330
B4
100
AcDbEntity
  8
001
370
     9
  0
POLYLINE
  5
B9
330
AE
100
AcDbEntity
  8
001
370
     9
100
AcDb2dPolyline
 66
     1
 10
0.0
 20
0.0
 30
0.0
  0
VERTEX
  5
BB
330
B9
100
AcDbEntity
  8
001
370
     9
100
AcDbVertex
100
AcDb2dVertex
 10
26.189107
 20
133.841639
 30
0.0
  0
VERTEX
  5
BC
330
B9
100
AcDbEntity
  8
001
370
     9
100
AcDbVertex
100
AcDb2dVertex
 10
26.691512
 20
135.716639
 30
0.0
  0
VERTEX
  5
BD
330
B9
100
AcDbEntity
  8
001
370
     9
100
AcDbVertex
100
AcDb2dVertex
 10
27.193917
 20
133.841639
 30
0.0
  0
SEQEND
  5
BA
330
B9
100
AcDbEntity
  8
001
370
     9
  0
TEXT
  5
BE
330
AE
100
AcDbEntity
  8
001
370
    30
100
AcDbText
 10
25.441512
 20
116.216639
 30
0.0
 40
5.0
  1
%%c２４
 50
90.000003
 41
0.882353
100
AcDbText
  0
POINT
  5
BF
330
AE
100
AcDbEntity
  8
001
370
     9
100
AcDbPoint
 10
48.891389
 20
111.716639
 30
0.0
  0
POINT
  5
C0
330
AE
100
AcDbEntity
  8
001
370
     9
100
AcDbPoint
 10
48.891389
 20
135.716639
 30
0.0
  0
POINT
  5
C1
330
AE
100
AcDbEntity
  8
001
370
     9
100
AcDbPoint
 10
26.691512
 20
135.716639
 30
0.0
  0
ENDBLK
  5
B0
330
AE
100
AcDbEntity
  8
0
100
AcDbBlockEnd
  0
BLOCK
  5
C3
330
C2
100
AcDbEntity
  8
0
100
AcDbBlockBegin
  2
*D6
 70
     1
 10
0.0
 20
0.0
 30
0.0
  3
*D6
  1

  0
LINE
  5
C5
330
C2
100
AcDbEntity
  8
001
370
     9
100
AcDbLine
 10
60.891389
 20
137.716639
 30
0.0
 11
81.658807
 21
158.484056
 31
0.0
  0
ARC
  5
C6
330
C2
100
AcDbEntity
  8
001
370
     9
100
AcDbCircle
 10
46.891389
 20
123.716639
 30
0.0
 40
45.73105345576911
100
AcDbArc
 50
0.0
 51
45.0
  0
POLYLINE
  5
C7
330
C2
100
AcDbEntity
  8
001
370
     9
100
AcDb2dPolyline
 66
     1
 10
0.0
 20
0.0
 30
0.0
  0
VERTEX
  5
C9
330
C7
100
AcDbEntity
  8
001
370
     9
100
AcDbVertex
100
AcDb2dVertex
 10
80.164034
 20
154.352755
 30
0.0
  0
VERTEX
  5
CA
330
C7
100
AcDbEntity
  8
001
370
     9
100
AcDbVertex
100
AcDb2dVertex
 10
79.228127
 20
156.053377
 30
0.0
  0
VERTEX
  5
CB
330
C7
100
AcDbEntity
  8
001
370
     9
100
AcDbVertex
100
AcDb2dVertex
 10
80.888957
 20
155.048549
 30
0.0
  0
SEQEND
  5
C8
330
C7
100
AcDbEntity
  8
001
370
     9
  0
POLYLINE
  5
CC
330
C2
100
AcDbEntity
  8
001
370
     9
100
AcDb2dPolyline
 66
     1
 10
0.0
 20
0.0
 30
0.0
  0
VERTEX
  5
CE
330
CC
100
AcDbEntity
  8
001
370
     9
100
AcDbVertex
100
AcDb2dVertex
 10
93.086306
 20
125.601544
 30
0.0
  0
VERTEX
  5
CF
330
CC
100
AcDbEntity
  8
001
370
     9
100
AcDbVertex
100
AcDb2dVertex
 10
92.622442
 20
123.716639
 30
0.0
  0
VERTEX
  5
D0
330
CC
100
AcDbEntity
  8
001
370
     9
100
AcDbVertex
100
AcDb2dVertex
 10
92.081708
 20
125.580946
 30
0.0
  0
SEQEND
  5
CD
330
CC
100
AcDbEntity
  8
001
370
     9
  0
TEXT
  5
D1
330
C2
100
AcDbEntity
  8
001
370
    30
100
AcDbText
 10
82.688256
 20
155.054375
 30
0.0
 40
5.0
  1
４５%%d
 50
302.129839
 41
0.978261
100
AcDbText
  0
POINT
  5
D2
330
C2
100
AcDbEntity
  8
001
370
     9
100
AcDbPoint
 10
37.895572
 20
123.716639
 30
0.0
  0
POINT
  5
D3
330
C2
100
AcDbEntity
  8
001
370
     9
100
AcDbPoint
 10
46.891389
 20
123.716639
 30
0.0
  0
POINT
  5
D4
330
C2
100
AcDbEntity
  8
001
370
     9
100
AcDbPoint
 10
46.891389
 20
123.716639
 30
0.0
  0
POINT
  5
D5
330
C2
100
AcDbEntity
  8
001
370
     9
100
AcDbPoint
 10
60.891389
 20
137.716639
 30
0.0
  0
ENDBLK
  5
C4
330
C2
100
AcDbEntity
  8
0
100
AcDbBlockEnd
  0
BLOCK
  5
D7
330
D6
100
AcDbEntity
  8
0
100
AcDbBlockBegin
  2
*D7
 70
     1
 10
0.0
 20
0.0
 30
0.0
  3
*D7
  1

  0
LINE
  5
D9
330
D6
100
AcDbEntity
  8
001
370
     9
100
AcDbLine
 10
77.891389
 20
103.716639
 30
0.0
 11
109.32304
 21
103.716639
 31
0.0
  0
LINE
  5
DA
330
D6
100
AcDbEntity
  8
001
370
     9
100
AcDbLine
 10
77.891389
 20
143.716639
 30
0.0
 11
109.32304
 21
143.716639
 31
0.0
  0
LINE
  5
DB
330
D6
100
AcDbEntity
  8
001
370
     9
100
AcDbLine
 10
105.88554
 20
103.716639
 30
0.0
 11
105.88554
 21
143.716639
 31
0.0
  0
POLYLINE
  5
DC
330
D6
100
AcDbEntity
  8
001
370
     9
100
AcDb2dPolyline
 66
     1
 10
0.0
 20
0.0
 30
0.0
  0
VERTEX
  5
DE
330
DC
100
AcDbEntity
  8
001
370
     9
100
AcDbVertex
100
AcDb2dVertex
 10
106.387945
 20
105.591639
 30
0.0
  0
VERTEX
  5
DF
330
DC
100
AcDbEntity
  8
001
370
     9
100
AcDbVertex
100
AcDb2dVertex
 10
105.88554
 20
103.716639
 30
0.0
  0
VERTEX
  5
E0
330
DC
100
AcDbEntity
  8
001
370
     9
100
AcDbVertex
100
AcDb2dVertex
 10
105.383136
 20
105.591639
 30
0.0
  0
SEQEND
  5
DD
330
DC
100
AcDbEntity
  8
001
370
     9
  0
POLYLINE
  5
E1
330
D6
100
AcDbEntity
  8
001
370
     9
100
AcDb2dPolyline
 66
     1
 10
0.0
 20
0.0
 30
0.0
  0
VERTEX
  5
E3
330
E1
100
AcDbEntity
  8
001
370
     9
100
AcDbVertex
100
AcDb2dVertex
 10
105.383136
 20
141.841639
 30
0.0
  0
VERTEX
  5
E4
330
E1
100
AcDbEntity
  8
001
370
     9
100
AcDbVertex
100
AcDb2dVertex
 10
105.88554
 20
143.716639
 30
0.0
  0
VERTEX
  5
E5
330
E1
100
AcDbEntity
  8
001
370
     9
100
AcDbVertex
100
AcDb2dVertex
 10
106.387945
 20
141.841639
 30
0.0
  0
SEQEND
  5
E2
330
E1
100
AcDbEntity
  8
001
370
     9
  0
TEXT
  5
E6
330
D6
100
AcDbEntity
  8
001
370
    30
100
AcDbText
 10
104.63554
 20
116.216639
 30
0.0
 40
5.0
  1
%%c４０
 50
90.000003
 41
0.882353
100
AcDbText
  0
POINT
  5
E7
330
D6
100
AcDbEntity
  8
001
370
     9
100
AcDbPoint
 10
77.891389
 20
103.716639
 30
0.0
  0
POINT
  5
E8
330
D6
100
AcDbEntity
  8
001
370
     9
100
AcDbPoint
 10
77.891389
 20
143.716639
 30
0.0
  0
POINT
  5
E9
330
D6
100
AcDbEntity
  8
001
370
     9
100
AcDbPoint
 10
105.88554
 20
143.716639
 30
0.0
  0
ENDBLK
  5
D8
330
D6
100
AcDbEntity
  8
0
100
AcDbBlockEnd
  0
BLOCK
  5
EB
330
EA
100
AcDbEntity
  8
0
100
AcDbBlockBegin
  2
*D8
 70
     1
 10
0.0
 20
0.0
 30
0.0
  3
*D8
  1

  0
LINE
  5
ED
330
EA
100
AcDbEntity
  8
001
370
     9
100
AcDbLine
 10
73.891389
 20
104.716639
 30
0.0
 11
73.891389
 21
80.129348
 31
0.0
  0
LINE
  5
EE
330
EA
100
AcDbEntity
  8
001
370
     9
100
AcDbLine
 10
43.891389
 20
115.18074
 30
0.0
 11
43.891389
 21
80.129348
 31
0.0
  0
LINE
  5
EF
330
EA
100
AcDbEntity
  8
001
370
     9
100
AcDbLine
 10
73.891389
 20
83.566848
 30
0.0
 11
43.891389
 21
83.566848
 31
0.0
  0
POLYLINE
  5
F0
330
EA
100
AcDbEntity
  8
001
370
     9
100
AcDb2dPolyline
 66
     1
 10
0.0
 20
0.0
 30
0.0
  0
VERTEX
  5
F2
330
F0
100
AcDbEntity
  8
001
370
     9
100
AcDbVertex
100
AcDb2dVertex
 10
72.016389
 20
84.069253
 30
0.0
  0
VERTEX
  5
F3
330
F0
100
AcDbEntity
  8
001
370
     9
100
AcDbVertex
100
AcDb2dVertex
 10
73.891389
 20
83.566848
 30
0.0
  0
VERTEX
  5
F4
330
F0
100
AcDbEntity
  8
001
370
     9
100
AcDbVertex
100
AcDb2dVertex
 10
72.016389
 20
83.064443
 30
0.0
  0
SEQEND
  5
F1
330
F0
100
AcDbEntity
  8
001
370
     9
  0
POLYLINE
  5
F5
330
EA
100
AcDbEntity
  8
001
370
     9
100
AcDb2dPolyline
 66
     1
 10
0.0
 20
0.0
 30
0.0
  0
VERTEX
  5
F7
330
F5
100
AcDbEntity
  8
001
370
     9
100
AcDbVertex
100
AcDb2dVertex
 10
45.766389
 20
83.064443
 30
0.0
  0
VERTEX
  5
F8
330
F5
100
AcDbEntity
  8
001
370
     9
100
AcDbVertex
100
AcDb2dVertex
 10
43.891389
 20
83.566848
 30
0.0
  0
VERTEX
  5
F9
330
F5
100
AcDbEntity
  8
001
370
     9
100
AcDbVertex
100
AcDb2dVertex
 10
45.766389
 20
84.069253
 30
0.0
  0
SEQEND
  5
F6
330
F5
100
AcDbEntity
  8
001
370
     9
  0
TEXT
  5
FA
330
EA
100
AcDbEntity
  8
001
370
    30
100
AcDbText
 10
53.891389
 20
84.816848
 30
0.0
 40
5.0
  1
３０
 41
0.833333
100
AcDbText
  0
POINT
  5
FB
330
EA
100
AcDbEntity
  8
001
370
     9
100
AcDbPoint
 10
73.891389
 20
104.716639
 30
0.0
  0
POINT
  5
FC
330
EA
100
AcDbEntity
  8
001
370
     9
100
AcDbPoint
 10
43.891389
 20
115.18074
 30
0.0
  0
POINT
  5
FD
330
EA
100
AcDbEntity
  8
001
370
     9
100
AcDbPoint
 10
43.891389
 20
83.566848
 30
0.0
  0
ENDBLK
  5
EC
330
EA
100
AcDbEntity
  8
0
100
AcDbBlockEnd
  0
BLOCK
  5
FF
330
FE
100
AcDbEntity
  8
0
100
AcDbBlockBegin
  2
*D9
 70
     1
 10
0.0
 20
0.0
 30
0.0
  3
*D9
  1

  0
LINE
  5
101
330
FE
100
AcDbEntity
  8
001
370
     9
100
AcDbLine
 10
78.891389
 20
104.716639
 30
0.0
 11
78.891389
 21
80.129348
 31
0.0
  0
LINE
  5
102
330
FE
100
AcDbEntity
  8
001
370
     9
100
AcDbLine
 10
73.891389
 20
104.716639
 30
0.0
 11
73.891389
 21
80.129348
 31
0.0
  0
LINE
  5
103
330
FE
100
AcDbEntity
  8
001
370
     9
100
AcDbLine
 10
78.891389
 20
83.566848
 30
0.0
 11
73.891389
 21
83.566848
 31
0.0
  0
POLYLINE
  5
104
330
FE
100
AcDbEntity
  8
001
370
     9
100
AcDb2dPolyline
 66
     1
 10
0.0
 20
0.0
 30
0.0
  0
VERTEX
  5
106
330
104
100
AcDbEntity
  8
001
370
     9
100
AcDbVertex
100
AcDb2dVertex
 10
80.766389
 20
83.064443
 30
0.0
  0
VERTEX
  5
107
330
104
100
AcDbEntity
  8
001
370
     9
100
AcDbVertex
100
AcDb2dVertex
 10
78.891389
 20
83.566848
 30
0.0
  0
VERTEX
  5
108
330
104
100
AcDbEntity
  8
001
370
     9
100
AcDbVertex
100
AcDb2dVertex
 10
80.766389
 20
84.069253
 30
0.0
  0
SEQEND
  5
105
330
104
100
AcDbEntity
  8
001
370
     9
  0
POLYLINE
  5
109
330
FE
100
AcDbEntity
  8
001
370
     9
100
AcDb2dPolyline
 66
     1
 10
0.0
 20
0.0
 30
0.0
  0
VERTEX
  5
10B
330
109
100
AcDbEntity
  8
001
370
     9
100
AcDbVertex
100
AcDb2dVertex
 10
72.016389
 20
84.069253
 30
0.0
  0
VERTEX
  5
10C
330
109
100
AcDbEntity
  8
001
370
     9
100
AcDbVertex
100
AcDb2dVertex
 10
73.891389
 20
83.566848
 30
0.0
  0
VERTEX
  5
10D
330
109
100
AcDbEntity
  8
001
370
     9
100
AcDbVertex
100
AcDb2dVertex
 10
72.016389
 20
83.064443
 30
0.0
  0
SEQEND
  5
10A
330
109
100
AcDbEntity
  8
001
370
     9
  0
TEXT
  5
10E
330
FE
100
AcDbEntity
  8
001
370
    30
100
AcDbText
 10
73.891389
 20
84.816848
 30
0.0
 40
5.0
  1
５
 41
0.833333
100
AcDbText
  0
POINT
  5
10F
330
FE
100
AcDbEntity
  8
001
370
     9
100
AcDbPoint
 10
78.891389
 20
104.716639
 30
0.0
  0
POINT
  5
110
330
FE
100
AcDbEntity
  8
001
370
     9
100
AcDbPoint
 10
73.891389
 20
104.716639
 30
0.0
  0
POINT
  5
111
330
FE
100
AcDbEntity
  8
001
370
     9
100
AcDbPoint
 10
73.891389
 20
83.566848
 30
0.0
  0
LINE
  5
112
330
FE
100
AcDbEntity
  8
001
370
     9
100
AcDbLine
 10
78.891389
 20
83.566848
 30
0.0
 11
82.016389
 21
83.566848
 31
0.0
  0
LINE
  5
113
330
FE
100
AcDbEntity
  8
001
370
     9
100
AcDbLine
 10
73.891389
 20
83.566848
 30
0.0
 11
70.766389
 21
83.566848
 31
0.0
  0
ENDBLK
  5
100
330
FE
100
AcDbEntity
  8
0
100
AcDbBlockEnd
  0
BLOCK
  5
115
330
114
100
AcDbEntity
  8
0
100
AcDbBlockBegin
  2
*D10
 70
     1
 10
0.0
 20
0.0
 30
0.0
  3
*D10
  1

  0
LINE
  5
117
330
114
100
AcDbEntity
  8
001
370
     9
100
AcDbLine
 10
158.891389
 20
109.716639
 30
0.0
 11
158.891389
 21
80.129348
 31
0.0
  0
LINE
  5
118
330
114
100
AcDbEntity
  8
001
370
     9
100
AcDbLine
 10
78.891389
 20
104.716639
 30
0.0
 11
78.891389
 21
80.129348
 31
0.0
  0
LINE
  5
119
330
114
100
AcDbEntity
  8
001
370
     9
100
AcDbLine
 10
158.891389
 20
83.566848
 30
0.0
 11
78.891389
 21
83.566848
 31
0.0
  0
POLYLINE
  5
11A
330
114
100
AcDbEntity
  8
001
370
     9
100
AcDb2dPolyline
 66
     1
 10
0.0
 20
0.0
 30
0.0
  0
VERTEX
  5
11C
330
11A
100
AcDbEntity
  8
001
370
     9
100
AcDbVertex
100
AcDb2dVertex
 10
157.016389
 20
84.069253
 30
0.0
  0
VERTEX
  5
11D
330
11A
100
AcDbEntity
  8
001
370
     9
100
AcDbVertex
100
AcDb2dVertex
 10
158.891389
 20
83.566848
 30
0.0
  0
VERTEX
  5
11E
330
11A
100
AcDbEntity
  8
001
370
     9
100
AcDbVertex
100
AcDb2dVertex
 10
157.016389
 20
83.064443
 30
0.0
  0
SEQEND
  5
11B
330
11A
100
AcDbEntity
  8
001
370
     9
  0
POLYLINE
  5
11F
330
114
100
AcDbEntity
  8
001
370
     9
100
AcDb2dPolyline
 66
     1
 10
0.0
 20
0.0
 30
0.0
  0
VERTEX
  5
121
330
11F
100
AcDbEntity
  8
001
370
     9
100
AcDbVertex
100
AcDb2dVertex
 10
80.766389
 20
83.064443
 30
0.0
  0
VERTEX
  5
122
330
11F
100
AcDbEntity
  8
001
370
     9
100
AcDbVertex
100
AcDb2dVertex
 10
78.891389
 20
83.566848
 30
0.0
  0
VERTEX
  5
123
330
11F
100
AcDbEntity
  8
001
370
     9
100
AcDbVertex
100
AcDb2dVertex
 10
80.766389
 20
84.069253
 30
0.0
  0
SEQEND
  5
120
330
11F
100
AcDbEntity
  8
001
370
     9
  0
TEXT
  5
124
330
114
100
AcDbEntity
  8
001
370
    30
100
AcDbText
 10
113.891389
 20
84.816848
 30
0.0
 40
5.0
  1
８０
 41
0.833333
100
AcDbText
  0
POINT
  5
125
330
114
100
AcDbEntity
  8
001
370
     9
100
AcDbPoint
 10
158.891389
 20
109.716639
 30
0.0
  0
POINT
  5
126
330
114
100
AcDbEntity
  8
001
370
     9
100
AcDbPoint
 10
78.891389
 20
104.716639
 30
0.0
  0
POINT
  5
127
330
114
100
AcDbEntity
  8
001
370
     9
100
AcDbPoint
 10
78.891389
 20
83.566848
 30
0.0
  0
ENDBLK
  5
116
330
114
100
AcDbEntity
  8
0
100
AcDbBlockEnd
  0
BLOCK
  5
129
330
128
100
AcDbEntity
  8
0
100
AcDbBlockBegin
  2
*D11
 70
     1
 10
0.0
 20
0.0
 30
0.0
  3
*D11
  1

  0
LINE
  5
12B
330
128
100
AcDbEntity
  8
001
370
     9
100
AcDbLine
 10
43.891389
 20
115.18074
 30
0.0
 11
43.891389
 21
70.152065
 31
0.0
  0
LINE
  5
12C
330
128
100
AcDbEntity
  8
001
370
     9
100
AcDbLine
 10
158.891389
 20
109.716639
 30
0.0
 11
158.891389
 21
70.152065
 31
0.0
  0
LINE
  5
12D
330
128
100
AcDbEntity
  8
001
370
     9
100
AcDbLine
 10
43.891389
 20
73.589565
 30
0.0
 11
158.891389
 21
73.589565
 31
0.0
  0
POLYLINE
  5
12E
330
128
100
AcDbEntity
  8
001
370
     9
100
AcDb2dPolyline
 66
     1
 10
0.0
 20
0.0
 30
0.0
  0
VERTEX
  5
130
330
12E
100
AcDbEntity
  8
001
370
     9
100
AcDbVertex
100
AcDb2dVertex
 10
45.766389
 20
73.08716
 30
0.0
  0
VERTEX
  5
131
330
12E
100
AcDbEntity
  8
001
370
     9
100
AcDbVertex
100
AcDb2dVertex
 10
43.891389
 20
73.589565
 30
0.0
  0
VERTEX
  5
132
330
12E
100
AcDbEntity
  8
001
370
     9
100
AcDbVertex
100
AcDb2dVertex
 10
45.766389
 20
74.09197
 30
0.0
  0
SEQEND
  5
12F
330
12E
100
AcDbEntity
  8
001
370
     9
  0
POLYLINE
  5
133
330
128
100
AcDbEntity
  8
001
370
     9
100
AcDb2dPolyline
 66
     1
 10
0.0
 20
0.0
 30
0.0
  0
VERTEX
  5
135
330
133
100
AcDbEntity
  8
001
370
     9
100
AcDbVertex
100
AcDb2dVertex
 10
157.016389
 20
74.09197
 30
0.0
  0
VERTEX
  5
136
330
133
100
AcDbEntity
  8
001
370
     9
100
AcDbVertex
100
AcDb2dVertex
 10
158.891389
 20
73.589565
 30
0.0
  0
VERTEX
  5
137
330
133
100
AcDbEntity
  8
001
370
     9
100
AcDbVertex
100
AcDb2dVertex
 10
157.016389
 20
73.08716
 30
0.0
  0
SEQEND
  5
134
330
133
100
AcDbEntity
  8
001
370
     9
  0
TEXT
  5
138
330
128
100
AcDbEntity
  8
001
370
    30
100
AcDbText
 10
93.891389
 20
74.839565
 30
0.0
 40
5.0
  1
１１５
 41
0.833333
100
AcDbText
  0
POINT
  5
139
330
128
100
AcDbEntity
  8
001
370
     9
100
AcDbPoint
 10
43.891389
 20
115.18074
 30
0.0
  0
POINT
  5
13A
330
128
100
AcDbEntity
  8
001
370
     9
100
AcDbPoint
 10
158.891389
 20
109.716639
 30
0.0
  0
POINT
  5
13B
330
128
100
AcDbEntity
  8
001
370
     9
100
AcDbPoint
 10
158.891389
 20
73.589565
 30
0.0
  0
ENDBLK
  5
12A
330
128
100
AcDbEntity
  8
0
100
AcDbBlockEnd
  0
BLOCK
  5
13D
330
13C
100
AcDbEntity
  8
0
100
AcDbBlockBegin
  2
*D12
 70
     1
 10
0.0
 20
0.0
 30
0.0
  3
*D12
  1

  0
LINE
  5
13F
330
13C
100
AcDbEntity
  8
001
370
     9
100
AcDbLine
 10
58.891389
 20
111.716639
 30
0.0
 11
58.891389
 21
89.976163
 31
0.0
  0
LINE
  5
140
330
13C
100
AcDbEntity
  8
001
370
     9
100
AcDbLine
 10
43.891389
 20
115.18074
 30
0.0
 11
43.891389
 21
89.976163
 31
0.0
  0
LINE
  5
141
330
13C
100
AcDbEntity
  8
001
370
     9
100
AcDbLine
 10
58.891389
 20
93.413663
 30
0.0
 11
43.891389
 21
93.413663
 31
0.0
  0
POLYLINE
  5
142
330
13C
100
AcDbEntity
  8
001
370
     9
100
AcDb2dPolyline
 66
     1
 10
0.0
 20
0.0
 30
0.0
  0
VERTEX
  5
144
330
142
100
AcDbEntity
  8
001
370
     9
100
AcDbVertex
100
AcDb2dVertex
 10
60.766389
 20
92.911258
 30
0.0
  0
VERTEX
  5
145
330
142
100
AcDbEntity
  8
001
370
     9
100
AcDbVertex
100
AcDb2dVertex
 10
58.891389
 20
93.413663
 30
0.0
  0
VERTEX
  5
146
330
142
100
AcDbEntity
  8
001
370
     9
100
AcDbVertex
100
AcDb2dVertex
 10
60.766389
 20
93.916068
 30
0.0
  0
SEQEND
  5
143
330
142
100
AcDbEntity
  8
001
370
     9
  0
POLYLINE
  5
147
330
13C
100
AcDbEntity
  8
001
370
     9
100
AcDb2dPolyline
 66
     1
 10
0.0
 20
0.0
 30
0.0
  0
VERTEX
  5
149
330
147
100
AcDbEntity
  8
001
370
     9
100
AcDbVertex
100
AcDb2dVertex
 10
42.016389
 20
93.916068
 30
0.0
  0
VERTEX
  5
14A
330
147
100
AcDbEntity
  8
001
370
     9
100
AcDbVertex
100
AcDb2dVertex
 10
43.891389
 20
93.413663
 30
0.0
  0
VERTEX
  5
14B
330
147
100
AcDbEntity
  8
001
370
     9
100
AcDbVertex
100
AcDb2dVertex
 10
42.016389
 20
92.911258
 30
0.0
  0
SEQEND
  5
148
330
147
100
AcDbEntity
  8
001
370
     9
  0
TEXT
  5
14C
330
13C
100
AcDbEntity
  8
001
370
    30
100
AcDbText
 10
31.44514
 20
94.663663
 30
0.0
 40
5.0
  1
１５
 41
0.833333
100
AcDbText
  0
POINT
  5
14D
330
13C
100
AcDbEntity
  8
001
370
     9
100
AcDbPoint
 10
58.891389
 20
111.716639
 30
0.0
  0
POINT
  5
14E
330
13C
100
AcDbEntity
  8
001
370
     9
100
AcDbPoint
 10
43.891389
 20
115.18074
 30
0.0
  0
POINT
  5
14F
330
13C
100
AcDbEntity
  8
001
370
     9
100
AcDbPoint
 10
43.891389
 20
93.413663
 30
0.0
  0
LINE
  5
150
330
13C
100
AcDbEntity
  8
001
370
     9
100
AcDbLine
 10
58.891389
 20
93.413663
 30
0.0
 11
62.016389
 21
93.413663
 31
0.0
  0
LINE
  5
151
330
13C
100
AcDbEntity
  8
001
370
     9
100
AcDbLine
 10
43.891389
 20
93.413663
 30
0.0
 11
27.69514
 21
93.413663
 31
0.0
  0
ENDBLK
  5
13E
330
13C
100
AcDbEntity
  8
0
100
AcDbBlockEnd
  0
BLOCK
  5
153
330
152
100
AcDbEntity
  8
0
100
AcDbBlockBegin
  2
*D13
 70
     1
 10
0.0
 20
0.0
 30
0.0
  3
*D13
  1

  0
LINE
  5
155
330
152
100
AcDbEntity
  8
001
370
     9
100
AcDbLine
 10
48.891389
 20
135.716639
 30
0.0
 11
56.885767
 21
140.332195
 31
0.0
  0
ARC
  5
156
330
152
100
AcDbEntity
  8
001
370
     9
100
AcDbCircle
 10
28.106779
 20
123.716639
 30
0.0
 40
29.79361296892257
100
AcDbArc
 50
0.0
 51
30.0
  0
POLYLINE
  5
157
330
152
100
AcDbEntity
  8
001
370
     9
100
AcDb2dPolyline
 66
     1
 10
0.0
 20
0.0
 30
0.0
  0
VERTEX
  5
159
330
157
100
AcDbEntity
  8
001
370
     9
100
AcDbVertex
100
AcDb2dVertex
 10
53.347659
 20
140.471711
 30
0.0
  0
VERTEX
  5
15A
330
157
100
AcDbEntity
  8
001
370
     9
100
AcDbVertex
100
AcDb2dVertex
 10
53.908805
 20
138.613445
 30
0.0
  0
VERTEX
  5
15B
330
157
100
AcDbEntity
  8
001
370
     9
100
AcDbVertex
100
AcDb2dVertex
 10
52.493706
 20
139.942177
 30
0.0
  0
SEQEND
  5
158
330
157
100
AcDbEntity
  8
001
370
     9
  0
POLYLINE
  5
15C
330
152
100
AcDbEntity
  8
001
370
     9
100
AcDb2dPolyline
 66
     1
 10
0.0
 20
0.0
 30
0.0
  0
VERTEX
  5
15E
330
15C
100
AcDbEntity
  8
001
370
     9
100
AcDbVertex
100
AcDb2dVertex
 10
57.339246
 20
121.858373
 30
0.0
  0
VERTEX
  5
15F
330
15C
100
AcDbEntity
  8
001
370
     9
100
AcDbVertex
100
AcDb2dVertex
 10
57.900392
 20
123.716639
 30
0.0
  0
VERTEX
  5
160
330
15C
100
AcDbEntity
  8
001
370
     9
100
AcDbVertex
100
AcDb2dVertex
 10
58.343558
 20
121.826761
 30
0.0
  0
SEQEND
  5
15D
330
15C
100
AcDbEntity
  8
001
370
     9
  0
TEXT
  5
161
330
152
100
AcDbEntity
  8
001
370
    30
100
AcDbText
 10
36.887202
 20
154.422666
 30
0.0
 40
5.0
  1
３０%%d
 50
330.459934
 41
0.978261
100
AcDbText
  0
POINT
  5
162
330
152
100
AcDbEntity
  8
001
370
     9
100
AcDbPoint
 10
48.891389
 20
135.716639
 30
0.0
  0
POINT
  5
163
330
152
100
AcDbEntity
  8
001
370
     9
100
AcDbPoint
 10
28.106779
 20
123.716639
 30
0.0
  0
POINT
  5
164
330
152
100
AcDbEntity
  8
001
370
     9
100
AcDbPoint
 10
28.106779
 20
123.716639
 30
0.0
  0
POINT
  5
165
330
152
100
AcDbEntity
  8
001
370
     9
100
AcDbPoint
 10
37.895572
 20
123.716639
 30
0.0
  0
ARC
  5
166
330
152
100
AcDbEntity
  8
001
370
     9
100
AcDbCircle
 10
28.106779
 20
123.716639
 30
0.0
 40
29.79361296892257
100
AcDbArc
 50
353.990346
 51
0.0
  0
ARC
  5
167
330
152
100
AcDbEntity
  8
001
370
     9
100
AcDbCircle
 10
28.106779
 20
123.716639
 30
0.0
 40
29.79361296892257
100
AcDbArc
 50
30.0
 51
74.883085
  0
ENDBLK
  5
154
330
152
100
AcDbEntity
  8
0
100
AcDbBlockEnd
  0
BLOCK
  5
169
330
168
100
AcDbEntity
  8
0
100
AcDbBlockBegin
  2
DIM-1
 70
     0
 10
0.0
 20
0.0
 30
0.0
  3
DIM-1
  1

  0
TEXT
  5
16B
330
168
100
AcDbEntity
  8
001
370
    30
100
AcDbText
 10
-2.491502
 20
102.995828
 30
0.0
 40
5.0
  1
２－Ｍ６
 41
0.833333
100
AcDbText
  0
POLYLINE
  5
16C
330
168
100
AcDbEntity
  8
001
370
     9
100
AcDb2dPolyline
 66
     1
 10
0.0
 20
0.0
 30
0.0
  0
VERTEX
  5
16E
330
16C
100
AcDbEntity
  8
001
370
     9
100
AcDbVertex
100
AcDb2dVertex
 10
49.527711
 20
121.485865
 30
0.0
  0
VERTEX
  5
16F
330
16C
100
AcDbEntity
  8
001
370
     9
100
AcDbVertex
100
AcDb2dVertex
 10
51.374258
 20
122.084446
 30
0.0
  0
VERTEX
  5
170
330
16C
100
AcDbEntity
  8
001
370
     9
100
AcDbVertex
100
AcDb2dVertex
 10
50.074392
 20
120.642786
 30
0.0
  0
SEQEND
  5
16D
330
16C
100
AcDbEntity
  8
001
370
     9
  0
POLYLINE
  5
171
330
168
100
AcDbEntity
  8
001
370
     9
100
AcDb2dPolyline
 66
     1
 10
0.0
 20
0.0
 30
0.0
  0
VERTEX
  5
173
330
171
100
AcDbEntity
  8
001
370
     9
100
AcDbVertex
100
AcDb2dVertex
 10
51.374258
 20
122.084446
 30
0.0
  0
VERTEX
  5
174
330
171
100
AcDbEntity
  8
001
370
     9
100
AcDbVertex
100
AcDb2dVertex
 10
20.008498
 20
101.745828
 30
0.0
  0
VERTEX
  5
175
330
171
100
AcDbEntity
  8
001
370
     9
100
AcDbVertex
100
AcDb2dVertex
 10
-4.991502
 20
101.745828
 30
0.0
  0
SEQEND
  5
172
330
171
100
AcDbEntity
  8
001
370
     9
  0
ENDBLK
  5
16A
330
168
100
AcDbEntity
  8
0
100
AcDbBlockEnd
  0
BLOCK
  5
177
330
176
100
AcDbEntity
  8
0
100
AcDbBlockBegin
  2
*D15
 70
     1
 10
0.0
 20
0.0
 30
0.0
  3
*D15
  1

  0
LINE
  5
179
330
176
100
AcDbEntity
  8
001
370
     9
100
AcDbLine
 10
158.891389
 20
34.780318
 30
0.0
 11
183.451058
 21
34.780318
 31
0.0
  0
LINE
  5
17A
330
176
100
AcDbEntity
  8
001
370
     9
100
AcDbLine
 10
158.891389
 20
21.780318
 30
0.0
 11
183.451058
 21
21.780318
 31
0.0
  0
LINE
  5
17B
330
176
100
AcDbEntity
  8
001
370
     9
100
AcDbLine
 10
180.013558
 20
34.780318
 30
0.0
 11
180.013558
 21
21.780318
 31
0.0
  0
POLYLINE
  5
17C
330
176
100
AcDbEntity
  8
001
370
     9
100
AcDb2dPolyline
 66
     1
 10
0.0
 20
0.0
 30
0.0
  0
VERTEX
  5
17E
330
17C
100
AcDbEntity
  8
001
370
     9
100
AcDbVertex
100
AcDb2dVertex
 10
180.515963
 20
36.655318
 30
0.0
  0
VERTEX
  5
17F
330
17C
100
AcDbEntity
  8
001
370
     9
100
AcDbVertex
100
AcDb2dVertex
 10
180.013558
 20
34.780318
 30
0.0
  0
VERTEX
  5
180
330
17C
100
AcDbEntity
  8
001
370
     9
100
AcDbVertex
100
AcDb2dVertex
 10
179.511154
 20
36.655318
 30
0.0
  0
SEQEND
  5
17D
330
17C
100
AcDbEntity
  8
001
370
     9
  0
POLYLINE
  5
181
330
176
100
AcDbEntity
  8
001
370
     9
100
AcDb2dPolyline
 66
     1
 10
0.0
 20
0.0
 30
0.0
  0
VERTEX
  5
183
330
181
100
AcDbEntity
  8
001
370
     9
100
AcDbVertex
100
AcDb2dVertex
 10
179.511154
 20
19.905318
 30
0.0
  0
VERTEX
  5
184
330
181
100
AcDbEntity
  8
001
370
     9
100
AcDbVertex
100
AcDb2dVertex
 10
180.013558
 20
21.780318
 30
0.0
  0
VERTEX
  5
185
330
181
100
AcDbEntity
  8
001
370
     9
100
AcDbVertex
100
AcDb2dVertex
 10
180.515963
 20
19.905318
 30
0.0
  0
SEQEND
  5
182
330
181
100
AcDbEntity
  8
001
370
     9
  0
TEXT
  5
186
330
176
100
AcDbEntity
  8
001
370
    30
100
AcDbText
 10
178.763558
 20
39.155318
 30
0.0
 40
5.0
  1
（%%c１３）
 50
90.000003
 41
0.862069
100
AcDbText
  0
POINT
  5
187
330
176
100
AcDbEntity
  8
001
370
     9
100
AcDbPoint
 10
158.891389
 20
34.780318
 30
0.0
  0
POINT
  5
188
330
176
100
AcDbEntity
  8
001
370
     9
100
AcDbPoint
 10
158.891389
 20
21.780318
 30
0.0
  0
POINT
  5
189
330
176
100
AcDbEntity
  8
001
370
     9
100
AcDbPoint
 10
180.013558
 20
21.780318
 30
0.0
  0
LINE
  5
18A
330
176
100
AcDbEntity
  8
001
370
     9
100
AcDbLine
 10
180.013558
 20
34.780318
 30
0.0
 11
180.013558
 21
67.905318
 31
0.0
  0
LINE
  5
18B
330
176
100
AcDbEntity
  8
001
370
     9
100
AcDbLine
 10
180.013558
 20
21.780318
 30
0.0
 11
180.013558
 21
18.655318
 31
0.0
  0
ENDBLK
  5
178
330
176
100
AcDbEntity
  8
0
100
AcDbBlockEnd
  0
BLOCK
  5
18D
330
18C
100
AcDbEntity
  8
0
100
AcDbBlockBegin
  2
*D16
 70
     1
 10
0.0
 20
0.0
 30
0.0
  3
*D16
  1

  0
LINE
  5
18F
330
18C
100
AcDbEntity
  8
001
370
     9
100
AcDbLine
 10
48.891389
 20
114.18356
 30
0.0
 11
48.891389
 21
97.973504
 31
0.0
  0
LINE
  5
190
330
18C
100
AcDbEntity
  8
001
370
     9
100
AcDbLine
 10
43.891389
 20
115.18074
 30
0.0
 11
43.891389
 21
97.973504
 31
0.0
  0
LINE
  5
191
330
18C
100
AcDbEntity
  8
001
370
     9
100
AcDbLine
 10
48.891389
 20
101.411004
 30
0.0
 11
43.891389
 21
101.411004
 31
0.0
  0
POLYLINE
  5
192
330
18C
100
AcDbEntity
  8
001
370
     9
100
AcDb2dPolyline
 66
     1
 10
0.0
 20
0.0
 30
0.0
  0
VERTEX
  5
194
330
192
100
AcDbEntity
  8
001
370
     9
100
AcDbVertex
100
AcDb2dVertex
 10
50.766389
 20
100.908599
 30
0.0
  0
VERTEX
  5
195
330
192
100
AcDbEntity
  8
001
370
     9
100
AcDbVertex
100
AcDb2dVertex
 10
48.891389
 20
101.411004
 30
0.0
  0
VERTEX
  5
196
330
192
100
AcDbEntity
  8
001
370
     9
100
AcDbVertex
100
AcDb2dVertex
 10
50.766389
 20
101.913409
 30
0.0
  0
SEQEND
  5
193
330
192
100
AcDbEntity
  8
001
370
     9
  0
POLYLINE
  5
197
330
18C
100
AcDbEntity
  8
001
370
     9
100
AcDb2dPolyline
 66
     1
 10
0.0
 20
0.0
 30
0.0
  0
VERTEX
  5
199
330
197
100
AcDbEntity
  8
001
370
     9
100
AcDbVertex
100
AcDb2dVertex
 10
42.016389
 20
101.913409
 30
0.0
  0
VERTEX
  5
19A
330
197
100
AcDbEntity
  8
001
370
     9
100
AcDbVertex
100
AcDb2dVertex
 10
43.891389
 20
101.411004
 30
0.0
  0
VERTEX
  5
19B
330
197
100
AcDbEntity
  8
001
370
     9
100
AcDbVertex
100
AcDb2dVertex
 10
42.016389
 20
100.908599
 30
0.0
  0
SEQEND
  5
198
330
197
100
AcDbEntity
  8
001
370
     9
  0
TEXT
  5
19C
330
18C
100
AcDbEntity
  8
001
370
    30
100
AcDbText
 10
24.539706
 20
102.661004
 30
0.0
 40
5.0
  1
（５）
 41
0.833333
100
AcDbText
  0
POINT
  5
19D
330
18C
100
AcDbEntity
  8
001
370
     9
100
AcDbPoint
 10
48.891389
 20
114.18356
 30
0.0
  0
POINT
  5
19E
330
18C
100
AcDbEntity
  8
001
370
     9
100
AcDbPoint
 10
43.891389
 20
115.18074
 30
0.0
  0
POINT
  5
19F
330
18C
100
AcDbEntity
  8
001
370
     9
100
AcDbPoint
 10
43.891389
 20
101.411004
 30
0.0
  0
LINE
  5
1A0
330
18C
100
AcDbEntity
  8
001
370
     9
100
AcDbLine
 10
48.891389
 20
101.411004
 30
0.0
 11
52.016389
 21
101.411004
 31
0.0
  0
LINE
  5
1A1
330
18C
100
AcDbEntity
  8
001
370
     9
100
AcDbLine
 10
43.891389
 20
101.411004
 30
0.0
 11
20.789706
 21
101.411004
 31
0.0
  0
ENDBLK
  5
18E
330
18C
100
AcDbEntity
  8
0
100
AcDbBlockEnd
  0
BLOCK
  5
1A3
330
1A2
100
AcDbEntity
  8
0
100
AcDbBlockBegin
  2
*D17
 70
     1
 10
0.0
 20
0.0
 30
0.0
  3
*D17
  1

  0
LINE
  5
1A5
330
1A2
100
AcDbEntity
  8
001
370
     9
100
AcDbLine
 10
43.891389
 20
32.280318
 30
0.0
 11
24.589042
 21
32.280318
 31
0.0
  0
LINE
  5
1A6
330
1A2
100
AcDbEntity
  8
001
370
     9
100
AcDbLine
 10
43.891389
 20
24.280318
 30
0.0
 11
24.589042
 21
24.280318
 31
0.0
  0
LINE
  5
1A7
330
1A2
100
AcDbEntity
  8
001
370
     9
100
AcDbLine
 10
28.026542
 20
32.280318
 30
0.0
 11
28.026542
 21
24.280318
 31
0.0
  0
POLYLINE
  5
1A8
330
1A2
100
AcDbEntity
  8
001
370
     9
100
AcDb2dPolyline
 66
     1
 10
0.0
 20
0.0
 30
0.0
  0
VERTEX
  5
1AA
330
1A8
100
AcDbEntity
  8
001
370
     9
100
AcDbVertex
100
AcDb2dVertex
 10
28.528947
 20
34.155318
 30
0.0
  0
VERTEX
  5
1AB
330
1A8
100
AcDbEntity
  8
001
370
     9
100
AcDbVertex
100
AcDb2dVertex
 10
28.026542
 20
32.280318
 30
0.0
  0
VERTEX
  5
1AC
330
1A8
100
AcDbEntity
  8
001
370
     9
100
AcDbVertex
100
AcDb2dVertex
 10
27.524137
 20
34.155318
 30
0.0
  0
SEQEND
  5
1A9
330
1A8
100
AcDbEntity
  8
001
370
     9
  0
POLYLINE
  5
1AD
330
1A2
100
AcDbEntity
  8
001
370
     9
100
AcDb2dPolyline
 66
     1
 10
0.0
 20
0.0
 30
0.0
  0
VERTEX
  5
1AF
330
1AD
100
AcDbEntity
  8
001
370
     9
100
AcDbVertex
100
AcDb2dVertex
 10
27.524137
 20
22.405318
 30
0.0
  0
VERTEX
  5
1B0
330
1AD
100
AcDbEntity
  8
001
370
     9
100
AcDbVertex
100
AcDb2dVertex
 10
28.026542
 20
24.280318
 30
0.0
  0
VERTEX
  5
1B1
330
1AD
100
AcDbEntity
  8
001
370
     9
100
AcDbVertex
100
AcDb2dVertex
 10
28.528947
 20
22.405318
 30
0.0
  0
SEQEND
  5
1AE
330
1AD
100
AcDbEntity
  8
001
370
     9
  0
TEXT
  5
1B2
330
1A2
100
AcDbEntity
  8
001
370
    30
100
AcDbText
 10
26.776542
 20
36.655318
 30
0.0
 40
5.0
  1
%%c８
 50
90.000003
 41
0.909091
100
AcDbText
  0
POINT
  5
1B3
330
1A2
100
AcDbEntity
  8
001
370
     9
100
AcDbPoint
 10
43.891389
 20
32.280318
 30
0.0
  0
POINT
  5
1B4
330
1A2
100
AcDbEntity
  8
001
370
     9
100
AcDbPoint
 10
43.891389
 20
24.280318
 30
0.0
  0
POINT
  5
1B5
330
1A2
100
AcDbEntity
  8
001
370
     9
100
AcDbPoint
 10
28.026542
 20
24.280318
 30
0.0
  0
LINE
  5
1B6
330
1A2
100
AcDbEntity
  8
001
370
     9
100
AcDbLine
 10
28.026542
 20
32.280318
 30
0.0
 11
28.026542
 21
50.405318
 31
0.0
  0
LINE
  5
1B7
330
1A2
100
AcDbEntity
  8
001
370
     9
100
AcDbLine
 10
28.026542
 20
24.280318
 30
0.0
 11
28.026542
 21
21.155318
 31
0.0
  0
ENDBLK
  5
1A4
330
1A2
100
AcDbEntity
  8
0
100
AcDbBlockEnd
  0
ENDSEC
  0
SECTION
  2
ENTITIES
  0
DIMENSION
  5
1B8
330
1F
100
AcDbEntity
  8
001
370
     9
100
AcDbDimension
  2
*D1
 10
184.131781
 20
139.716639
 30
0.0
 11
180.381781
 21
123.716639
 31
0.0
 70
   160
 71
     5
 42
-1.0
  3
Standard
100
AcDbAlignedDimension
 13
156.891389
 23
107.716639
 33
0.0
 14
156.891389
 24
139.716639
 34
0.0
 50
90.0
100
AcDbRotatedDimension
  0
DIMENSION
  5
1B9
330
1F
100
AcDbEntity
  8
001
370
     9
100
AcDbDimension
  2
*D2
 10
156.891389
 20
137.716639
 30
0.0
 11
167.417202
 21
150.809018
 31
0.0
 70
   164
 71
     5
 42
-1.0
  3
Standard
100
AcDbRadialDimension
 15
158.460873
 25
138.956284
 35
0.0
 40
0.0
  0
DIMENSION
  5
1BA
330
1F
100
AcDbEntity
  8
001
370
     9
100
AcDbDimension
  2
*D3
 10
248.255747
 20
84.503769
 30
0.0
 11
233.255747
 21
88.253769
 31
0.0
 70
   160
 71
     5
 42
-1.0
  3
Standard
100
AcDbAlignedDimension
 13
218.255747
 23
115.970672
 33
0.0
 14
248.255747
 24
123.716639
 34
0.0
100
AcDbRotatedDimension
  0
DIMENSION
  5
1BB
330
1F
100
AcDbEntity
  8
001
370
     9
100
AcDbDimension
  2
*D4
 10
15.688873
 20
137.716639
 30
0.0
 11
11.938872
 21
125.698687
 31
0.0
 70
   160
 71
     5
 42
-1.0
  3
Standard
100
AcDbAlignedDimension
 13
60.891389
 23
109.716639
 33
0.0
 14
60.891389
 24
137.716639
 34
0.0
 50
90.0
100
AcDbRotatedDimension
  0
DIMENSION
  5
1BC
330
1F
100
AcDbEntity
  8
001
370
     9
100
AcDbDimension
  2
*D5
 10
26.691512
 20
135.716639
 30
0.0
 11
22.941512
 21
123.716639
 31
0.0
 70
   160
 71
     5
 42
-1.0
  3
Standard
100
AcDbAlignedDimension
 13
48.891389
 23
111.716639
 33
0.0
 14
48.891389
 24
135.716639
 34
0.0
 50
90.0
100
AcDbRotatedDimension
  0
DIMENSION
  5
1BD
330
1F
100
AcDbEntity
  8
001
370
     9
100
AcDbDimension
  2
*D6
 10
46.891389
 20
123.716639
 30
0.0
 11
88.794166
 21
150.032636
 31
0.0
 70
    34
 71
     5
 42
-1.0
  3
Standard
100
AcDb2LineAngularDimension
 13
37.895572
 23
123.716639
 33
0.0
 14
46.891389
 24
123.716639
 34
0.0
 15
60.891389
 25
137.716639
 35
0.0
 16
89.141373
 26
141.217155
 36
0.0
  0
DIMENSION
  5
1BE
330
1F
100
AcDbEntity
  8
001
370
     9
100
AcDbDimension
  2
*D7
 10
105.88554
 20
143.716639
 30
0.0
 11
102.13554
 21
123.716639
 31
0.0
 70
   160
 71
     5
 42
-1.0
  3
Standard
100
AcDbAlignedDimension
 13
77.891389
 23
103.716639
 33
0.0
 14
77.891389
 24
143.716639
 34
0.0
 50
90.0
100
AcDbRotatedDimension
  0
DIMENSION
  5
1BF
330
1F
100
AcDbEntity
  8
001
370
     9
100
AcDbDimension
  2
*D8
 10
43.891389
 20
83.566848
 30
0.0
 11
58.891389
 21
87.316848
 31
0.0
 70
   160
 71
     5
 42
-1.0
  3
Standard
100
AcDbAlignedDimension
 13
73.891389
 23
104.716639
 33
0.0
 14
43.891389
 24
115.18074
 34
0.0
 50
180.0
100
AcDbRotatedDimension
  0
DIMENSION
  5
1C0
330
1F
100
AcDbEntity
  8
001
370
     9
100
AcDbDimension
  2
*D9
 10
73.891389
 20
83.566848
 30
0.0
 11
76.391389
 21
87.316848
 31
0.0
 70
   160
 71
     5
 42
-1.0
  3
Standard
100
AcDbAlignedDimension
 13
78.891389
 23
104.716639
 33
0.0
 14
73.891389
 24
104.716639
 34
0.0
 50
180.0
100
AcDbRotatedDimension
  0
DIMENSION
  5
1C1
330
1F
100
AcDbEntity
  8
001
370
     9
100
AcDbDimension
  2
*D10
 10
78.891389
 20
83.566848
 30
0.0
 11
118.891389
 21
87.316848
 31
0.0
 70
   160
 71
     5
 42
-1.0
  3
Standard
100
AcDbAlignedDimension
 13
158.891389
 23
109.716639
 33
0.0
 14
78.891389
 24
104.716639
 34
0.0
 50
180.0
100
AcDbRotatedDimension
  0
DIMENSION
  5
1C2
330
1F
100
AcDbEntity
  8
001
370
     9
100
AcDbDimension
  2
*D11
 10
158.891389
 20
73.589565
 30
0.0
 11
101.391389
 21
77.339565
 31
0.0
 70
   160
 71
     5
 42
-1.0
  3
Standard
100
AcDbAlignedDimension
 13
43.891389
 23
115.18074
 33
0.0
 14
158.891389
 24
109.716639
 34
0.0
100
AcDbRotatedDimension
  0
DIMENSION
  5
1C3
330
1F
100
AcDbEntity
  8
001
370
     9
100
AcDbDimension
  2
*D12
 10
43.891389
 20
93.413663
 30
0.0
 11
36.44514
 21
97.163663
 31
0.0
 70
   160
 71
     5
 42
-1.0
  3
Standard
100
AcDbAlignedDimension
 13
58.891389
 23
111.716639
 33
0.0
 14
43.891389
 24
115.18074
 34
0.0
 50
180.0
100
AcDbRotatedDimension
  0
TEXT
  5
1C4
330
1F
100
AcDbEntity
  8
001
370
    30
100
AcDbText
 10
8.283082
 20
148.580624
 30
0.0
 40
5.0
  1
２－Ｒ１
 41
0.833333
100
AcDbText
  0
POLYLINE
  5
1C5
330
1F
100
AcDbEntity
  8
001
370
     9
100
AcDb2dPolyline
 66
     1
 10
0.0
 20
0.0
 30
0.0
  0
VERTEX
  5
1C7
330
1C5
100
AcDbEntity
  8
001
370
     9
100
AcDbVertex
100
AcDb2dVertex
 10
43.293945
 20
134.695119
 30
0.0
  0
VERTEX
  5
1C8
330
1C5
100
AcDbEntity
  8
001
370
     9
100
AcDbVertex
100
AcDb2dVertex
 10
44.208154
 20
132.982736
 30
0.0
  0
VERTEX
  5
1C9
330
1C5
100
AcDbEntity
  8
001
370
     9
100
AcDbVertex
100
AcDb2dVertex
 10
42.560234
 20
134.008599
 30
0.0
  0
SEQEND
  5
1C6
330
1C5
100
AcDbEntity
  8
001
370
     9
  0
POLYLINE
  5
1CA
330
1F
100
AcDbEntity
  8
001
370
     9
100
AcDb2dPolyline
 66
     1
 10
0.0
 20
0.0
 30
0.0
  0
VERTEX
  5
1CC
330
1CA
100
AcDbEntity
  8
001
370
     9
100
AcDbVertex
100
AcDb2dVertex
 10
44.208154
 20
132.982736
 30
0.0
  0
VERTEX
  5
1CD
330
1CA
100
AcDbEntity
  8
001
370
     9
100
AcDbVertex
100
AcDb2dVertex
 10
30.783082
 20
147.330624
 30
0.0
  0
VERTEX
  5
1CE
330
1CA
100
AcDbEntity
  8
001
370
     9
100
AcDbVertex
100
AcDb2dVertex
 10
5.783082
 20
147.330624
 30
0.0
  0
SEQEND
  5
1CB
330
1CA
100
AcDbEntity
  8
001
370
     9
  0
TEXT
  5
1CF
330
1F
100
AcDbEntity
  8
001
370
    30
100
AcDbText
 10
44.008918
 20
166.864328
 30
0.0
 40
5.0
  1
２－Ｒ１
 41
0.833333
100
AcDbText
  0
POLYLINE
  5
1D0
330
1F
100
AcDbEntity
  8
001
370
     9
100
AcDb2dPolyline
 66
     1
 10
0.0
 20
0.0
 30
0.0
  0
VERTEX
  5
1D2
330
1D0
100
AcDbEntity
  8
001
370
     9
100
AcDbVertex
100
AcDb2dVertex
 10
74.374829
 20
145.589129
 30
0.0
  0
VERTEX
  5
1D3
330
1D0
100
AcDbEntity
  8
001
370
     9
100
AcDbVertex
100
AcDb2dVertex
 10
74.547617
 20
143.655692
 30
0.0
  0
VERTEX
  5
1D4
330
1D0
100
AcDbEntity
  8
001
370
     9
100
AcDbVertex
100
AcDb2dVertex
 10
73.43126
 20
145.243704
 30
0.0
  0
SEQEND
  5
1D1
330
1D0
100
AcDbEntity
  8
001
370
     9
  0
POLYLINE
  5
1D5
330
1F
100
AcDbEntity
  8
001
370
     9
100
AcDb2dPolyline
 66
     1
 10
0.0
 20
0.0
 30
0.0
  0
VERTEX
  5
1D7
330
1D5
100
AcDbEntity
  8
001
370
     9
100
AcDbVertex
100
AcDb2dVertex
 10
74.547617
 20
143.655692
 30
0.0
  0
VERTEX
  5
1D8
330
1D5
100
AcDbEntity
  8
001
370
     9
100
AcDbVertex
100
AcDb2dVertex
 10
66.508918
 20
165.614328
 30
0.0
  0
VERTEX
  5
1D9
330
1D5
100
AcDbEntity
  8
001
370
     9
100
AcDbVertex
100
AcDb2dVertex
 10
41.508918
 20
165.614328
 30
0.0
  0
SEQEND
  5
1D6
330
1D5
100
AcDbEntity
  8
001
370
     9
  0
DIMENSION
  5
1DA
330
1F
100
AcDbEntity
  8
001
370
     9
100
AcDbDimension
  2
*D13
 10
28.106779
 20
123.716639
 30
0.0
 11
44.644866
 21
152.899953
 31
0.0
 70
    34
 71
     5
 42
-1.0
  3
Standard
100
AcDb2LineAngularDimension
 13
48.891389
 23
135.716639
 33
0.0
 14
28.106779
 24
123.716639
 34
0.0
 15
37.895572
 25
123.716639
 35
0.0
 16
56.885199
 26
131.427793
 36
0.0
  0
INSERT
  5
1DB
330
1F
100
AcDbEntity
  8
001
  6
ByBlock
 62
     0
370
    -2
100
AcDbBlockReference
  2
DIM-1
 10
0.0
 20
0.0
 30
0.0
  0
DIMENSION
  5
1DC
330
1F
100
AcDbEntity
  8
001
370
     9
100
AcDbDimension
  2
*D15
 10
180.013558
 20
21.780318
 30
0.0
 11
176.263558
 21
51.655317
 31
0.0
 70
   160
 71
     5
 42
-1.0
  3
Standard
100
AcDbAlignedDimension
 13
158.891389
 23
34.780318
 33
0.0
 14
158.891389
 24
21.780318
 34
0.0
 50
270.0
100
AcDbRotatedDimension
  0
DIMENSION
  5
1DD
330
1F
100
AcDbEntity
  8
001
370
     9
100
AcDbDimension
  2
*D16
 10
43.891389
 20
101.411004
 30
0.0
 11
32.039706
 21
105.161004
 31
0.0
 70
   160
 71
     5
 42
-1.0
  3
Standard
100
AcDbAlignedDimension
 13
48.891389
 23
114.18356
 33
0.0
 14
43.891389
 24
115.18074
 34
0.0
 50
180.0
100
AcDbRotatedDimension
  0
DIMENSION
  5
1DE
330
1F
100
AcDbEntity
  8
001
370
     9
100
AcDbDimension
  2
*D17
 10
28.026542
 20
24.280318
 30
0.0
 11
24.276542
 21
41.655317
 31
0.0
 70
   160
 71
     5
 42
-1.0
  3
Standard
100
AcDbAlignedDimension
 13
43.891389
 23
32.280318
 33
0.0
 14
43.891389
 24
24.280318
 34
0.0
 50
270.0
100
AcDbRotatedDimension
  0
TEXT
  5
1DF
330
1F
100
AcDbEntity
  8
001
370
    30
100
AcDbText
 10
41.07283
 20
189.473712
 30
0.0
 40
10.0
  1
オイルッシャー　ＫＪＤ３２Ｓ０８
 41
0.833333
100
AcDbText
  0
ARC
  5
1E0
330
1F
100
AcDbEntity
  8
001
 62
   253
370
    50
100
AcDbCircle
 10
74.891389
 20
142.716639
 30
0.0
 40
1.0
100
AcDbArc
 50
90.0
 51
180.0
  0
ARC
  5
1E1
330
1F
100
AcDbEntity
  8
001
 62
   253
370
    50
100
AcDbCircle
 10
77.891389
 20
142.716639
 30
0.0
 40
1.0
100
AcDbArc
 50
0.0
 51
90.0
  0
LINE
  5
1E2
330
1F
100
AcDbEntity
  8
001
 62
   253
370
    50
100
AcDbLine
 10
77.891389
 20
143.716639
 30
0.0
 11
74.891389
 21
143.716639
 31
0.0
  0
LINE
  5
1E3
330
1F
100
AcDbEntity
  8
001
 62
   253
370
    50
100
AcDbLine
 10
81.891389
 20
139.216639
 30
0.0
 11
78.891389
 21
139.216639
 31
0.0
  0
LINE
  5
1E4
330
1F
100
AcDbEntity
  8
001
 62
   253
370
    50
100
AcDbLine
 10
81.891389
 20
130.368706
 30
0.0
 11
78.891389
 21
130.368706
 31
0.0
  0
LINE
  5
1E5
330
1F
100
AcDbEntity
  8
001
 62
   253
370
    50
100
AcDbLine
 10
156.891389
 20
139.716639
 30
0.0
 11
81.891389
 21
139.716639
 31
0.0
  0
LINE
  5
1E6
330
1F
100
AcDbEntity
  8
001
 62
   253
370
    50
100
AcDbLine
 10
156.891389
 20
131.462605
 30
0.0
 11
81.891389
 21
131.462605
 31
0.0
  0
ARC
  5
1E7
330
1F
100
AcDbEntity
  8
001
 62
   253
370
    50
100
AcDbCircle
 10
156.891389
 20
137.716639
 30
0.0
 40
2.0
100
AcDbArc
 50
0.0
 51
90.0
  0
POLYLINE
  5
1E8
330
1F
100
AcDbEntity
  8
001
 62
   253
370
    50
100
AcDb2dPolyline
 66
     1
 10
0.0
 20
0.0
 30
0.0
  0
VERTEX
  5
1EA
330
1E8
100
AcDbEntity
  8
001
 62
   253
370
    50
100
AcDbVertex
100
AcDb2dVertex
 10
158.891389
 20
123.716639
 30
0.0
  0
VERTEX
  5
1EB
330
1E8
100
AcDbEntity
  8
001
 62
   253
370
    50
100
AcDbVertex
100
AcDb2dVertex
 10
158.891778
 20
124.716646
 30
0.0
  0
VERTEX
  5
1EC
330
1E8
100
AcDbEntity
  8
001
 62
   253
370
    50
100
AcDbVertex
100
AcDb2dVertex
 10
158.886332
 20
125.716639
 30
0.0
  0
VERTEX
  5
1ED
330
1E8
100
AcDbEntity
  8
001
 62
   253
370
    50
100
AcDbVertex
100
AcDb2dVertex
 10
158.879227
 20
126.217098
 30
0.0
  0
VERTEX
  5
1EE
330
1E8
100
AcDbEntity
  8
001
 62
   253
370
    50
100
AcDbVertex
100
AcDb2dVertex
 10
158.866298
 20
126.717426
 30
0.0
  0
VERTEX
  5
1EF
330
1E8
100
AcDbEntity
  8
001
 62
   253
370
    50
100
AcDbVertex
100
AcDb2dVertex
 10
158.844644
 20
127.217331
 30
0.0
  0
VERTEX
  5
1F0
330
1E8
100
AcDbEntity
  8
001
 62
   253
370
    50
100
AcDbVertex
100
AcDb2dVertex
 10
158.811325
 20
127.716639
 30
0.0
  0
VERTEX
  5
1F1
330
1E8
100
AcDbEntity
  8
001
 62
   253
370
    50
100
AcDbVertex
100
AcDb2dVertex
 10
158.76305
 20
128.214789
 30
0.0
  0
VERTEX
  5
1F2
330
1E8
100
AcDbEntity
  8
001
 62
   253
370
    50
100
AcDbVertex
100
AcDb2dVertex
 10
158.695129
 20
128.710532
 30
0.0
  0
VERTEX
  5
1F3
330
1E8
100
AcDbEntity
  8
001
 62
   253
370
    50
100
AcDbVertex
100
AcDb2dVertex
 10
158.651698
 20
128.959507
 30
0.0
  0
VERTEX
  5
1F4
330
1E8
100
AcDbEntity
  8
001
 62
   253
370
    50
100
AcDbVertex
100
AcDb2dVertex
 10
158.600971
 20
129.2071
 30
0.0
  0
VERTEX
  5
1F5
330
1E8
100
AcDbEntity
  8
001
 62
   253
370
    50
100
AcDbVertex
100
AcDb2dVertex
 10
158.541957
 20
129.452769
 30
0.0
  0
VERTEX
  5
1F6
330
1E8
100
AcDbEntity
  8
001
 62
   253
370
    50
100
AcDbVertex
100
AcDb2dVertex
 10
158.473554
 20
129.695978
 30
0.0
  0
VERTEX
  5
1F7
330
1E8
100
AcDbEntity
  8
001
 62
   253
370
    50
100
AcDbVertex
100
AcDb2dVertex
 10
158.410374
 20
129.890896
 30
0.0
  0
VERTEX
  5
1F8
330
1E8
100
AcDbEntity
  8
001
 62
   253
370
    50
100
AcDbVertex
100
AcDb2dVertex
 10
158.339392
 20
130.083112
 30
0.0
  0
VERTEX
  5
1F9
330
1E8
100
AcDbEntity
  8
001
 62
   253
370
    50
100
AcDbVertex
100
AcDb2dVertex
 10
158.259004
 20
130.273396
 30
0.0
  0
VERTEX
  5
1FA
330
1E8
100
AcDbEntity
  8
001
 62
   253
370
    50
100
AcDbVertex
100
AcDb2dVertex
 10
158.168653
 20
130.459137
 30
0.0
  0
VERTEX
  5
1FB
330
1E8
100
AcDbEntity
  8
001
 62
   253
370
    50
100
AcDbVertex
100
AcDb2dVertex
 10
158.067821
 20
130.637922
 30
0.0
  0
VERTEX
  5
1FC
330
1E8
100
AcDbEntity
  8
001
 62
   253
370
    50
100
AcDbVertex
100
AcDb2dVertex
 10
157.954469
 20
130.809151
 30
0.0
  0
VERTEX
  5
1FD
330
1E8
100
AcDbEntity
  8
001
 62
   253
370
    50
100
AcDbVertex
100
AcDb2dVertex
 10
157.82342
 20
130.974703
 30
0.0
  0
VERTEX
  5
1FE
330
1E8
100
AcDbEntity
  8
001
 62
   253
370
    50
100
AcDbVertex
100
AcDb2dVertex
 10
157.676147
 20
131.125631
 30
0.0
  0
VERTEX
  5
1FF
330
1E8
100
AcDbEntity
  8
001
 62
   253
370
    50
100
AcDbVertex
100
AcDb2dVertex
 10
157.600393
 20
131.190613
 30
0.0
  0
VERTEX
  5
200
330
1E8
100
AcDbEntity
  8
001
 62
   253
370
    50
100
AcDbVertex
100
AcDb2dVertex
 10
157.520618
 20
131.250586
 30
0.0
  0
VERTEX
  5
201
330
1E8
100
AcDbEntity
  8
001
 62
   253
370
    50
100
AcDbVertex
100
AcDb2dVertex
 10
157.435111
 20
131.305806
 30
0.0
  0
VERTEX
  5
202
330
1E8
100
AcDbEntity
  8
001
 62
   253
370
    50
100
AcDbVertex
100
AcDb2dVertex
 10
157.345539
 20
131.354104
 30
0.0
  0
VERTEX
  5
203
330
1E8
100
AcDbEntity
  8
001
 62
   253
370
    50
100
AcDbVertex
100
AcDb2dVertex
 10
157.253792
 20
131.393918
 30
0.0
  0
VERTEX
  5
204
330
1E8
100
AcDbEntity
  8
001
 62
   253
370
    50
100
AcDbVertex
100
AcDb2dVertex
 10
157.158808
 20
131.425441
 30
0.0
  0
VERTEX
  5
205
330
1E8
100
AcDbEntity
  8
001
 62
   253
370
    50
100
AcDbVertex
100
AcDb2dVertex
 10
157.057494
 20
131.448557
 30
0.0
  0
VERTEX
  5
206
330
1E8
100
AcDbEntity
  8
001
 62
   253
370
    50
100
AcDbVertex
100
AcDb2dVertex
 10
156.954441
 20
131.460552
 30
0.0
  0
VERTEX
  5
207
330
1E8
100
AcDbEntity
  8
001
 62
   253
370
    50
100
AcDbVertex
100
AcDb2dVertex
 10
156.922927
 20
131.461871
 30
0.0
  0
VERTEX
  5
208
330
1E8
100
AcDbEntity
  8
001
 62
   253
370
    50
100
AcDbVertex
100
AcDb2dVertex
 10
156.891389
 20
131.462605
 30
0.0
  0
SEQEND
  5
1E9
330
1E8
100
AcDbEntity
  8
001
370
    50
  0
LINE
  5
209
330
1F
100
AcDbEntity
  8
001
 62
   253
370
    50
100
AcDbLine
 10
81.891389
 20
139.716639
 30
0.0
 11
81.891389
 21
130.368706
 31
0.0
  0
ARC
  5
20A
330
1F
100
AcDbEntity
  8
001
 62
   253
370
    50
100
AcDbCircle
 10
74.891389
 20
9.280318
 30
0.0
 40
1.0
100
AcDbArc
 50
180.0
 51
270.0
  0
ARC
  5
20B
330
1F
100
AcDbEntity
  8
001
 62
   253
370
    50
100
AcDbCircle
 10
74.891389
 20
47.280318
 30
0.0
 40
1.0
100
AcDbArc
 50
90.0
 51
180.0
  0
LINE
  5
20C
330
1F
100
AcDbEntity
  8
001
 62
   253
370
    50
100
AcDbLine
 10
73.891389
 20
47.280318
 30
0.0
 11
73.891389
 21
9.280318
 31
0.0
  0
ARC
  5
20D
330
1F
100
AcDbEntity
  8
001
 62
   253
370
    50
100
AcDbCircle
 10
77.891389
 20
47.280318
 30
0.0
 40
1.0
100
AcDbArc
 50
0.0
 51
90.0
  0
ARC
  5
20E
330
1F
100
AcDbEntity
  8
001
 62
   253
370
    50
100
AcDbCircle
 10
77.891389
 20
9.280318
 30
0.0
 40
1.0
100
AcDbArc
 50
270.0
 51
0.0
  0
LINE
  5
20F
330
1F
100
AcDbEntity
  8
001
 62
   253
370
    50
100
AcDbLine
 10
78.891389
 20
9.280318
 30
0.0
 11
78.891389
 21
47.280318
 31
0.0
  0
LINE
  5
210
330
1F
100
AcDbEntity
  8
001
 62
   253
370
    50
100
AcDbLine
 10
77.891389
 20
48.280318
 30
0.0
 11
74.891389
 21
48.280318
 31
0.0
  0
LINE
  5
211
330
1F
100
AcDbEntity
  8
001
 62
   253
370
    50
100
AcDbLine
 10
74.891389
 20
8.280318
 30
0.0
 11
77.891389
 21
8.280318
 31
0.0
  0
LINE
  5
212
330
1F
100
AcDbEntity
  8
001
 62
   253
370
    50
100
AcDbLine
 10
81.891389
 20
12.280318
 30
0.0
 11
156.891389
 21
12.280318
 31
0.0
  0
LINE
  5
213
330
1F
100
AcDbEntity
  8
001
 62
   253
370
    50
100
AcDbLine
 10
81.891389
 20
42.280318
 30
0.0
 11
81.891389
 21
12.280318
 31
0.0
  0
ARC
  5
214
330
1F
100
AcDbEntity
  8
001
 62
   253
370
    50
100
AcDbCircle
 10
156.891389
 20
14.280318
 30
0.0
 40
2.0
100
AcDbArc
 50
270.0
 51
0.0
  0
LINE
  5
215
330
1F
100
AcDbEntity
  8
001
 62
   253
370
    50
100
AcDbLine
 10
158.891389
 20
42.280318
 30
0.0
 11
158.891389
 21
14.280318
 31
0.0
  0
LINE
  5
216
330
1F
100
AcDbEntity
  8
001
 62
   253
370
    50
100
AcDbLine
 10
78.891389
 20
12.780318
 30
0.0
 11
81.891389
 21
12.780318
 31
0.0
  0
LINE
  5
217
330
1F
100
AcDbEntity
  8
001
 62
   253
370
    50
100
AcDbLine
 10
78.891389
 20
42.280318
 30
0.0
 11
158.891389
 21
42.280318
 31
0.0
  0
ARC
  5
218
330
1F
100
AcDbEntity
  8
001
 62
   253
370
    50
100
AcDbCircle
 10
232.255747
 20
123.716639
 30
0.0
 40
15.99999999999999
100
AcDbArc
 50
208.955024
 51
151.044976
  0
LINE
  5
219
330
1F
100
AcDbEntity
  8
001
 62
   253
370
    50
100
AcDbLine
 10
218.255747
 20
115.970672
 30
0.0
 11
218.255747
 21
131.462605
 31
0.0
  0
CIRCLE
  5
21A
330
1F
100
AcDbEntity
  8
001
 62
   253
370
    50
100
AcDbCircle
 10
232.255747
 20
123.716639
 30
0.0
 40
5.207106781186543
  0
CIRCLE
  5
21B
330
1F
100
AcDbEntity
  8
001
 62
   253
370
    50
100
AcDbCircle
 10
232.255747
 20
123.716639
 30
0.0
 40
4.999999999999993
  0
CIRCLE
  5
21C
330
1F
100
AcDbEntity
  8
001
 62
   253
370
    50
100
AcDbCircle
 10
232.255747
 20
123.716639
 30
0.0
 40
20.0
  0
LINE
  5
21D
330
1F
100
AcDbEntity
  8
001
  6
CENTER
370
     9
100
AcDbLine
 10
208.186104
 20
123.716639
 30
0.0
 11
255.232077
 21
123.716639
 31
0.0
  0
LINE
  5
21E
330
1F
100
AcDbEntity
  8
001
  6
CENTER
370
     9
100
AcDbLine
 10
232.255747
 20
99.649806
 30
0.0
 11
232.255747
 21
147.765006
 31
0.0
  0
LINE
  5
21F
330
1F
100
AcDbEntity
  8
001
  6
CENTER
370
     9
100
AcDbLine
 10
37.895572
 20
28.280318
 30
0.0
 11
165.05187
 21
28.280318
 31
0.0
  0
LINE
  5
220
330
1F
100
AcDbEntity
  8
001
370
    50
100
AcDbLine
 10
60.891389
 20
137.716639
 30
0.0
 11
73.891389
 21
137.716639
 31
0.0
  0
LINE
  5
221
330
1F
100
AcDbEntity
  8
001
  6
DASHED
 62
   253
370
    30
100
AcDbLine
 10
103.891389
 20
21.780318
 30
0.0
 11
103.891389
 21
34.780318
 31
0.0
  0
LINE
  5
222
330
1F
100
AcDbEntity
  8
001
  6
DASHED
370
    30
100
AcDbLine
 10
103.891389
 20
34.780318
 30
0.0
 11
158.891389
 21
34.780318
 31
0.0
  0
LINE
  5
223
330
1F
100
AcDbEntity
  8
001
  6
DASHED
370
    30
100
AcDbLine
 10
103.891389
 20
21.780318
 30
0.0
 11
158.891389
 21
21.780318
 31
0.0
  0
LINE
  5
224
330
1F
100
AcDbEntity
  8
001
370
    50
100
AcDbLine
 10
49.159338
 20
135.716639
 30
0.0
 11
58.891389
 21
135.716639
 31
0.0
  0
LINE
  5
225
330
1F
100
AcDbEntity
  8
001
370
    50
100
AcDbLine
 10
44.391389
 20
133.118563
 30
0.0
 11
48.659338
 21
135.582664
 31
0.0
  0
LINE
  5
226
330
1F
100
AcDbEntity
  8
001
370
    50
100
AcDbLine
 10
60.891389
 20
137.716639
 30
0.0
 11
58.891389
 21
135.716639
 31
0.0
  0
LINE
  5
227
330
1F
100
AcDbEntity
  8
001
 62
   253
370
    50
100
AcDbLine
 10
60.891389
 20
137.716639
 30
0.0
 11
60.891389
 21
123.716639
 31
0.0
  0
LINE
  5
228
330
1F
100
AcDbEntity
  8
001
 62
   253
370
    50
100
AcDbLine
 10
58.891389
 20
123.716639
 30
0.0
 11
58.891389
 21
135.716639
 31
0.0
  0
LINE
  5
229
330
1F
100
AcDbEntity
  8
001
 62
   253
370
    50
100
AcDbLine
 10
43.891389
 20
132.252537
 30
0.0
 11
43.891389
 21
123.716639
 31
0.0
  0
LINE
  5
22A
330
1F
100
AcDbEntity
  8
001
 62
   253
370
    50
100
AcDbLine
 10
78.891389
 20
142.716639
 30
0.0
 11
78.891389
 21
123.716639
 31
0.0
  0
LINE
  5
22B
330
1F
100
AcDbEntity
  8
001
 62
   253
370
    50
100
AcDbLine
 10
73.891389
 20
123.716639
 30
0.0
 11
73.891389
 21
142.716639
 31
0.0
  0
LINE
  5
22C
330
1F
100
AcDbEntity
  8
001
 62
   253
370
    50
100
AcDbLine
 10
158.891389
 20
137.716639
 30
0.0
 11
158.891389
 21
123.716639
 31
0.0
  0
ARC
  5
22D
330
1F
100
AcDbEntity
  8
001
 62
   253
370
    50
100
AcDbCircle
 10
74.891389
 20
104.716639
 30
0.0
 40
1.0
100
AcDbArc
 50
180.0
 51
270.0
  0
ARC
  5
22E
330
1F
100
AcDbEntity
  8
001
 62
   253
370
    50
100
AcDbCircle
 10
77.891389
 20
104.716639
 30
0.0
 40
1.0
100
AcDbArc
 50
270.0
 51
0.0
  0
LINE
  5
22F
330
1F
100
AcDbEntity
  8
001
 62
   253
370
    50
100
AcDbLine
 10
77.891389
 20
103.716639
 30
0.0
 11
74.891389
 21
103.716639
 31
0.0
  0
LINE
  5
230
330
1F
100
AcDbEntity
  8
001
 62
   253
370
    50
100
AcDbLine
 10
81.891389
 20
108.216639
 30
0.0
 11
78.891389
 21
108.216639
 31
0.0
  0
LINE
  5
231
330
1F
100
AcDbEntity
  8
001
 62
   253
370
    50
100
AcDbLine
 10
81.891389
 20
117.064571
 30
0.0
 11
78.891389
 21
117.064571
 31
0.0
  0
LINE
  5
232
330
1F
100
AcDbEntity
  8
001
 62
   253
370
    50
100
AcDbLine
 10
156.891389
 20
107.716639
 30
0.0
 11
81.891389
 21
107.716639
 31
0.0
  0
LINE
  5
233
330
1F
100
AcDbEntity
  8
001
 62
   253
370
    50
100
AcDbLine
 10
156.891389
 20
115.970672
 30
0.0
 11
81.891389
 21
115.970672
 31
0.0
  0
ARC
  5
234
330
1F
100
AcDbEntity
  8
001
 62
   253
370
    50
100
AcDbCircle
 10
156.891389
 20
109.716639
 30
0.0
 40
2.0
100
AcDbArc
 50
270.0
 51
0.0
  0
POLYLINE
  5
235
330
1F
100
AcDbEntity
  8
001
 62
   253
370
    50
100
AcDb2dPolyline
 66
     1
 10
0.0
 20
0.0
 30
0.0
  0
VERTEX
  5
237
330
235
100
AcDbEntity
  8
001
 62
   253
370
    50
100
AcDbVertex
100
AcDb2dVertex
 10
158.891389
 20
123.716639
 30
0.0
  0
VERTEX
  5
238
330
235
100
AcDbEntity
  8
001
 62
   253
370
    50
100
AcDbVertex
100
AcDb2dVertex
 10
158.891778
 20
122.716632
 30
0.0
  0
VERTEX
  5
239
330
235
100
AcDbEntity
  8
001
 62
   253
370
    50
100
AcDbVertex
100
AcDb2dVertex
 10
158.886332
 20
121.716639
 30
0.0
  0
VERTEX
  5
23A
330
235
100
AcDbEntity
  8
001
 62
   253
370
    50
100
AcDbVertex
100
AcDb2dVertex
 10
158.879227
 20
121.21618
 30
0.0
  0
VERTEX
  5
23B
330
235
100
AcDbEntity
  8
001
 62
   253
370
    50
100
AcDbVertex
100
AcDb2dVertex
 10
158.866298
 20
120.715852
 30
0.0
  0
VERTEX
  5
23C
330
235
100
AcDbEntity
  8
001
 62
   253
370
    50
100
AcDbVertex
100
AcDb2dVertex
 10
158.844644
 20
120.215947
 30
0.0
  0
VERTEX
  5
23D
330
235
100
AcDbEntity
  8
001
 62
   253
370
    50
100
AcDbVertex
100
AcDb2dVertex
 10
158.811325
 20
119.716639
 30
0.0
  0
VERTEX
  5
23E
330
235
100
AcDbEntity
  8
001
 62
   253
370
    50
100
AcDbVertex
100
AcDb2dVertex
 10
158.76305
 20
119.218488
 30
0.0
  0
VERTEX
  5
23F
330
235
100
AcDbEntity
  8
001
 62
   253
370
    50
100
AcDbVertex
100
AcDb2dVertex
 10
158.695129
 20
118.722745
 30
0.0
  0
VERTEX
  5
240
330
235
100
AcDbEntity
  8
001
 62
   253
370
    50
100
AcDbVertex
100
AcDb2dVertex
 10
158.651698
 20
118.47377
 30
0.0
  0
VERTEX
  5
241
330
235
100
AcDbEntity
  8
001
 62
   253
370
    50
100
AcDbVertex
100
AcDb2dVertex
 10
158.600971
 20
118.226177
 30
0.0
  0
VERTEX
  5
242
330
235
100
AcDbEntity
  8
001
 62
   253
370
    50
100
AcDbVertex
100
AcDb2dVertex
 10
158.541957
 20
117.980508
 30
0.0
  0
VERTEX
  5
243
330
235
100
AcDbEntity
  8
001
 62
   253
370
    50
100
AcDbVertex
100
AcDb2dVertex
 10
158.473554
 20
117.737299
 30
0.0
  0
VERTEX
  5
244
330
235
100
AcDbEntity
  8
001
 62
   253
370
    50
100
AcDbVertex
100
AcDb2dVertex
 10
158.410374
 20
117.542382
 30
0.0
  0
VERTEX
  5
245
330
235
100
AcDbEntity
  8
001
 62
   253
370
    50
100
AcDbVertex
100
AcDb2dVertex
 10
158.339392
 20
117.350165
 30
0.0
  0
VERTEX
  5
246
330
235
100
AcDbEntity
  8
001
 62
   253
370
    50
100
AcDbVertex
100
AcDb2dVertex
 10
158.259004
 20
117.159881
 30
0.0
  0
VERTEX
  5
247
330
235
100
AcDbEntity
  8
001
 62
   253
370
    50
100
AcDbVertex
100
AcDb2dVertex
 10
158.168653
 20
116.97414
 30
0.0
  0
VERTEX
  5
248
330
235
100
AcDbEntity
  8
001
 62
   253
370
    50
100
AcDbVertex
100
AcDb2dVertex
 10
158.067821
 20
116.795356
 30
0.0
  0
VERTEX
  5
249
330
235
100
AcDbEntity
  8
001
 62
   253
370
    50
100
AcDbVertex
100
AcDb2dVertex
 10
157.954469
 20
116.624127
 30
0.0
  0
VERTEX
  5
24A
330
235
100
AcDbEntity
  8
001
 62
   253
370
    50
100
AcDbVertex
100
AcDb2dVertex
 10
157.82342
 20
116.458575
 30
0.0
  0
VERTEX
  5
24B
330
235
100
AcDbEntity
  8
001
 62
   253
370
    50
100
AcDbVertex
100
AcDb2dVertex
 10
157.676147
 20
116.307647
 30
0.0
  0
VERTEX
  5
24C
330
235
100
AcDbEntity
  8
001
 62
   253
370
    50
100
AcDbVertex
100
AcDb2dVertex
 10
157.600393
 20
116.242664
 30
0.0
  0
VERTEX
  5
24D
330
235
100
AcDbEntity
  8
001
 62
   253
370
    50
100
AcDbVertex
100
AcDb2dVertex
 10
157.520618
 20
116.182691
 30
0.0
  0
VERTEX
  5
24E
330
235
100
AcDbEntity
  8
001
 62
   253
370
    50
100
AcDbVertex
100
AcDb2dVertex
 10
157.435111
 20
116.127472
 30
0.0
  0
VERTEX
  5
24F
330
235
100
AcDbEntity
  8
001
 62
   253
370
    50
100
AcDbVertex
100
AcDb2dVertex
 10
157.345539
 20
116.079173
 30
0.0
  0
VERTEX
  5
250
330
235
100
AcDbEntity
  8
001
 62
   253
370
    50
100
AcDbVertex
100
AcDb2dVertex
 10
157.253792
 20
116.03936
 30
0.0
  0
VERTEX
  5
251
330
235
100
AcDbEntity
  8
001
 62
   253
370
    50
100
AcDbVertex
100
AcDb2dVertex
 10
157.158808
 20
116.007836
 30
0.0
  0
VERTEX
  5
252
330
235
100
AcDbEntity
  8
001
 62
   253
370
    50
100
AcDbVertex
100
AcDb2dVertex
 10
157.057494
 20
115.984721
 30
0.0
  0
VERTEX
  5
253
330
235
100
AcDbEntity
  8
001
 62
   253
370
    50
100
AcDbVertex
100
AcDb2dVertex
 10
156.954441
 20
115.972726
 30
0.0
  0
VERTEX
  5
254
330
235
100
AcDbEntity
  8
001
 62
   253
370
    50
100
AcDbVertex
100
AcDb2dVertex
 10
156.922927
 20
115.971407
 30
0.0
  0
VERTEX
  5
255
330
235
100
AcDbEntity
  8
001
 62
   253
370
    50
100
AcDbVertex
100
AcDb2dVertex
 10
156.891389
 20
115.970672
 30
0.0
  0
SEQEND
  5
236
330
235
100
AcDbEntity
  8
001
370
    50
  0
LINE
  5
256
330
1F
100
AcDbEntity
  8
001
 62
   253
370
    50
100
AcDbLine
 10
81.891389
 20
107.716639
 30
0.0
 11
81.891389
 21
117.064571
 31
0.0
  0
LINE
  5
257
330
1F
100
AcDbEntity
  8
001
370
    50
100
AcDbLine
 10
60.891389
 20
109.716639
 30
0.0
 11
73.891389
 21
109.716639
 31
0.0
  0
LINE
  5
258
330
1F
100
AcDbEntity
  8
001
370
    50
100
AcDbLine
 10
49.159338
 20
111.716639
 30
0.0
 11
58.891389
 21
111.716639
 31
0.0
  0
LINE
  5
259
330
1F
100
AcDbEntity
  8
001
370
    50
100
AcDbLine
 10
44.391389
 20
114.314715
 30
0.0
 11
48.659338
 21
111.850613
 31
0.0
  0
LINE
  5
25A
330
1F
100
AcDbEntity
  8
001
370
    50
100
AcDbLine
 10
60.891389
 20
109.716639
 30
0.0
 11
58.891389
 21
111.716639
 31
0.0
  0
LINE
  5
25B
330
1F
100
AcDbEntity
  8
001
 62
   253
370
    50
100
AcDbLine
 10
60.891389
 20
109.716639
 30
0.0
 11
60.891389
 21
123.716639
 31
0.0
  0
LINE
  5
25C
330
1F
100
AcDbEntity
  8
001
 62
   253
370
    50
100
AcDbLine
 10
58.891389
 20
123.716639
 30
0.0
 11
58.891389
 21
111.716639
 31
0.0
  0
LINE
  5
25D
330
1F
100
AcDbEntity
  8
001
 62
   253
370
    50
100
AcDbLine
 10
43.891389
 20
115.18074
 30
0.0
 11
43.891389
 21
123.716639
 31
0.0
  0
LINE
  5
25E
330
1F
100
AcDbEntity
  8
001
 62
   253
370
    50
100
AcDbLine
 10
78.891389
 20
104.716639
 30
0.0
 11
78.891389
 21
123.716639
 31
0.0
  0
LINE
  5
25F
330
1F
100
AcDbEntity
  8
001
 62
   253
370
    50
100
AcDbLine
 10
73.891389
 20
123.716639
 30
0.0
 11
73.891389
 21
104.716639
 31
0.0
  0
LINE
  5
260
330
1F
100
AcDbEntity
  8
001
 62
   253
370
    50
100
AcDbLine
 10
158.891389
 20
109.716639
 30
0.0
 11
158.891389
 21
123.716639
 31
0.0
  0
LINE
  5
261
330
1F
100
AcDbEntity
  8
001
  6
DASHED
370
    30
100
AcDbLine
 10
43.891389
 20
32.280318
 30
0.0
 11
103.891389
 21
32.280318
 31
0.0
  0
LINE
  5
262
330
1F
100
AcDbEntity
  8
001
  6
DASHED
370
    30
100
AcDbLine
 10
43.891389
 20
24.280318
 30
0.0
 11
103.891389
 21
24.280318
 31
0.0
  0
LINE
  5
263
330
1F
100
AcDbEntity
  8
001
370
    50
100
AcDbLine
 10
60.891389
 20
42.280318
 30
0.0
 11
73.891389
 21
42.280318
 31
0.0
  0
LINE
  5
264
330
1F
100
AcDbEntity
  8
001
370
    50
100
AcDbLine
 10
60.891389
 20
42.280318
 30
0.0
 11
58.891389
 21
40.280318
 31
0.0
  0
LINE
  5
265
330
1F
100
AcDbEntity
  8
001
 62
   253
370
    50
100
AcDbLine
 10
60.891389
 20
42.280318
 30
0.0
 11
60.891389
 21
28.280318
 31
0.0
  0
LINE
  5
266
330
1F
100
AcDbEntity
  8
001
 62
   253
370
    50
100
AcDbLine
 10
58.891389
 20
28.280318
 30
0.0
 11
58.891389
 21
40.280318
 31
0.0
  0
LINE
  5
267
330
1F
100
AcDbEntity
  8
001
370
    50
100
AcDbLine
 10
60.891389
 20
14.280318
 30
0.0
 11
73.891389
 21
14.280318
 31
0.0
  0
LINE
  5
268
330
1F
100
AcDbEntity
  8
001
370
    50
100
AcDbLine
 10
60.891389
 20
14.280318
 30
0.0
 11
58.891389
 21
16.280318
 31
0.0
  0
LINE
  5
269
330
1F
100
AcDbEntity
  8
001
 62
   253
370
    50
100
AcDbLine
 10
60.891389
 20
14.280318
 30
0.0
 11
60.891389
 21
28.280318
 31
0.0
  0
LINE
  5
26A
330
1F
100
AcDbEntity
  8
001
 62
   253
370
    50
100
AcDbLine
 10
58.891389
 20
28.280318
 30
0.0
 11
58.891389
 21
16.280318
 31
0.0
  0
LINE
  5
26B
330
1F
100
AcDbEntity
  8
001
  6
CENTER
370
     9
100
AcDbLine
 10
37.895572
 20
123.716639
 30
0.0
 11
95.447769
 21
123.716639
 31
0.0
  0
LINE
  5
26C
330
1F
100
AcDbEntity
  8
001
  6
CENTER
370
     9
100
AcDbLine
 10
111.616082
 20
123.716639
 30
0.0
 11
165.05187
 21
123.716639
 31
0.0
  0
ARC
  5
26D
330
1F
100
AcDbEntity
  8
001
370
    50
100
AcDbCircle
 10
49.159338
 20
134.716639
 30
0.0
 40
1.0
100
AcDbArc
 50
90.0
 51
120.0
  0
ARC
  5
26E
330
1F
100
AcDbEntity
  8
001
370
    50
100
AcDbCircle
 10
44.891389
 20
132.252537
 30
0.0
 40
1.0
100
AcDbArc
 50
120.0
 51
180.0
  0
ARC
  5
26F
330
1F
100
AcDbEntity
  8
001
370
    50
100
AcDbCircle
 10
49.159338
 20
112.716639
 30
0.0
 40
1.0
100
AcDbArc
 50
240.0
 51
270.0
  0
ARC
  5
270
330
1F
100
AcDbEntity
  8
001
 62
   253
370
    50
100
AcDbCircle
 10
44.891389
 20
115.18074
 30
0.0
 40
1.0
100
AcDbArc
 50
180.0
 51
240.0
  0
LINE
  5
271
330
1F
100
AcDbEntity
  8
001
 62
   253
370
     9
100
AcDbLine
 10
48.891389
 20
123.716639
 30
0.0
 11
48.891389
 21
133.162592
 31
0.0
  0
LINE
  5
272
330
1F
100
AcDbEntity
  8
001
 62
   253
370
     9
100
AcDbLine
 10
48.891389
 20
123.716639
 30
0.0
 11
48.891389
 21
114.18356
 31
0.0
  0
LINE
  5
273
330
1F
100
AcDbEntity
  8
001
370
    50
100
AcDbLine
 10
49.159338
 20
40.280318
 30
0.0
 11
58.891389
 21
40.280318
 31
0.0
  0
LINE
  5
274
330
1F
100
AcDbEntity
  8
001
370
    50
100
AcDbLine
 10
44.391389
 20
37.682241
 30
0.0
 11
48.659338
 21
40.146343
 31
0.0
  0
LINE
  5
275
330
1F
100
AcDbEntity
  8
001
 62
   253
370
    50
100
AcDbLine
 10
43.891389
 20
36.816216
 30
0.0
 11
43.891389
 21
28.280318
 31
0.0
  0
LINE
  5
276
330
1F
100
AcDbEntity
  8
001
370
    50
100
AcDbLine
 10
49.159338
 20
16.280318
 30
0.0
 11
58.891389
 21
16.280318
 31
0.0
  0
LINE
  5
277
330
1F
100
AcDbEntity
  8
001
370
    50
100
AcDbLine
 10
44.391389
 20
18.878394
 30
0.0
 11
48.659338
 21
16.414292
 31
0.0
  0
LINE
  5
278
330
1F
100
AcDbEntity
  8
001
 62
   253
370
    50
100
AcDbLine
 10
43.891389
 20
19.744419
 30
0.0
 11
43.891389
 21
28.280318
 31
0.0
  0
ARC
  5
279
330
1F
100
AcDbEntity
  8
001
370
    50
100
AcDbCircle
 10
49.159338
 20
39.280318
 30
0.0
 40
1.0
100
AcDbArc
 50
90.0
 51
120.0
  0
ARC
  5
27A
330
1F
100
AcDbEntity
  8
001
370
    50
100
AcDbCircle
 10
44.891389
 20
36.816216
 30
0.0
 40
1.0
100
AcDbArc
 50
120.0
 51
180.0
  0
ARC
  5
27B
330
1F
100
AcDbEntity
  8
001
370
    50
100
AcDbCircle
 10
49.159338
 20
17.280318
 30
0.0
 40
1.0
100
AcDbArc
 50
240.0
 51
270.0
  0
ARC
  5
27C
330
1F
100
AcDbEntity
  8
001
 62
   253
370
    50
100
AcDbCircle
 10
44.891389
 20
19.744419
 30
0.0
 40
1.0
100
AcDbArc
 50
180.0
 51
240.0
  0
LINE
  5
27D
330
1F
100
AcDbEntity
  8
001
 62
   253
370
     9
100
AcDbLine
 10
48.891389
 20
28.280318
 30
0.0
 11
48.891389
 21
37.726271
 31
0.0
  0
LINE
  5
27E
330
1F
100
AcDbEntity
  8
001
 62
   253
370
     9
100
AcDbLine
 10
48.891389
 20
28.280318
 30
0.0
 11
48.891389
 21
18.747239
 31
0.0
  0
CIRCLE
  5
27F
330
1F
100
AcDbEntity
  8
001
370
     9
100
AcDbCircle
 10
67.891389
 20
123.716639
 30
0.0
 40
3.0
  0
CIRCLE
  5
280
330
1F
100
AcDbEntity
  8
001
370
     9
100
AcDbCircle
 10
53.891389
 20
123.716639
 30
0.0
 40
3.0
  0
CIRCLE
  5
281
330
1F
100
AcDbEntity
  8
001
370
    50
100
AcDbCircle
 10
67.891389
 20
123.716639
 30
0.0
 40
2.5
  0
CIRCLE
  5
282
330
1F
100
AcDbEntity
  8
001
370
    50
100
AcDbCircle
 10
53.891389
 20
123.716639
 30
0.0
 40
2.5
  0
LINE
  5
283
330
1F
100
AcDbEntity
  8
001
  6
CENTER
 62
   253
370
     9
100
AcDbLine
 10
67.891389
 20
118.589808
 30
0.0
 11
67.891389
 21
128.783492
 31
0.0
  0
LINE
  5
284
330
1F
100
AcDbEntity
  8
001
  6
CENTER
 62
   253
370
     9
100
AcDbLine
 10
53.891389
 20
118.589808
 30
0.0
 11
53.891389
 21
128.62254
 31
0.0
  0
LINE
  5
285
330
1F
100
AcDbEntity
  8
001
  6
CENTER
 62
   253
370
     9
100
AcDbLine
 10
67.891389
 20
29.413537
 30
0.0
 11
67.891389
 21
46.596962
 31
0.0
  0
LINE
  5
286
330
1F
100
AcDbEntity
  8
001
  6
CENTER
 62
   253
370
     9
100
AcDbLine
 10
53.891389
 20
29.413537
 30
0.0
 11
53.891389
 21
45.123394
 31
0.0
  0
LINE
  5
287
330
1F
100
AcDbEntity
  8
001
  6
DASHED
370
    30
100
AcDbLine
 10
50.891389
 20
40.280318
 30
0.0
 11
50.891389
 21
32.280318
 31
0.0
  0
LINE
  5
288
330
1F
100
AcDbEntity
  8
001
  6
DASHED
370
    30
100
AcDbLine
 10
51.391389
 20
40.280318
 30
0.0
 11
51.391389
 21
32.280318
 31
0.0
  0
LINE
  5
289
330
1F
100
AcDbEntity
  8
001
  6
DASHED
370
    30
100
AcDbLine
 10
56.891389
 20
40.280318
 30
0.0
 11
56.891389
 21
32.280318
 31
0.0
  0
LINE
  5
28A
330
1F
100
AcDbEntity
  8
001
  6
DASHED
370
    30
100
AcDbLine
 10
56.391389
 20
40.280318
 30
0.0
 11
56.391389
 21
32.280318
 31
0.0
  0
LINE
  5
28B
330
1F
100
AcDbEntity
  8
001
  6
DASHED
370
    30
100
AcDbLine
 10
64.891389
 20
42.280318
 30
0.0
 11
64.891389
 21
32.280318
 31
0.0
  0
LINE
  5
28C
330
1F
100
AcDbEntity
  8
001
  6
DASHED
370
    30
100
AcDbLine
 10
65.391389
 20
42.280318
 30
0.0
 11
65.391389
 21
32.280318
 31
0.0
  0
LINE
  5
28D
330
1F
100
AcDbEntity
  8
001
  6
DASHED
370
    30
100
AcDbLine
 10
70.391389
 20
42.280318
 30
0.0
 11
70.391389
 21
32.280318
 31
0.0
  0
LINE
  5
28E
330
1F
100
AcDbEntity
  8
001
  6
DASHED
370
    30
100
AcDbLine
 10
70.891389
 20
42.280318
 30
0.0
 11
70.891389
 21
32.280318
 31
0.0
  0
ENDSEC
  0
SECTION
  2
OBJECTS
  0
DICTIONARY
  5
C
330
0
100
AcDbDictionary
281
     1
  3
ACAD_GROUP
350
D
  3
ACAD_LAYOUT
350
1A
  3
ACAD_MLEADERSTYLE
350
292
  3
ACAD_MLINESTYLE
350
17
  3
ACAD_PLOTSETTINGS
350
19
  3
ACAD_PLOTSTYLENAME
350
E
  3
ACAD_SCALELIST
350
3B
  3
ACAD_TABLESTYLE
350
291
  3
ACAD_VISUALSTYLE
350
2A
  3
AcDbVariableDictionary
350
28F
  0
DICTIONARY
  5
D
102
{ACAD_REACTORS
330
C
102
}
330
C
100
AcDbDictionary
281
     1
  0
DICTIONARY
  5
1A
102
{ACAD_REACTORS
330
C
102
}
330
C
100
AcDbDictionary
281
     1
  3
Layout1
350
1E
  3
Layout2
350
26
  3
Model
350
22
  0
DICTIONARY
  5
292
102
{ACAD_REACTORS
330
C
102
}
330
C
100
AcDbDictionary
281
     1
  0
DICTIONARY
  5
17
102
{ACAD_REACTORS
330
C
102
}
330
C
100
AcDbDictionary
281
     1
  3
Standard
350
18
  0
DICTIONARY
  5
19
102
{ACAD_REACTORS
330
C
102
}
330
C
100
AcDbDictionary
281
     1
  0
ACDBDICTIONARYWDFLT
  5
E
102
{ACAD_REACTORS
330
C
102
}
330
C
100
AcDbDictionary
281
     1
  3
Normal
350
F
100
AcDbDictionaryWithDefault
340
F
  0
DICTIONARY
  5
3B
102
{ACAD_REACTORS
330
C
102
}
330
C
100
AcDbDictionary
281
     1
  3
A0
350
3C
  3
A1
350
3D
  3
A2
350
3E
  3
A3
350
3F
  3
A4
350
40
  3
A5
350
41
  3
A6
350
42
  3
A7
350
43
  3
A8
350
44
  3
A9
350
45
  3
B0
350
46
  3
B1
350
47
  3
B2
350
48
  3
B3
350
49
  3
B4
350
4A
  3
B5
350
4B
  3
B6
350
4C
  3
B7
350
4D
  3
B8
350
4E
  3
B9
350
4F
  3
C0
350
50
  3
C1
350
51
  3
C2
350
52
  3
C3
350
53
  3
C4
350
54
  3
C5
350
55
  3
C6
350
56
  3
C7
350
57
  3
C8
350
58
  3
C9
350
59
  3
D0
350
5A
  3
D1
350
5B
  3
D2
350
5C
  0
DICTIONARY
  5
291
102
{ACAD_REACTORS
330
C
102
}
330
C
100
AcDbDictionary
281
     1
  0
DICTIONARY
  5
2A
102
{ACAD_REACTORS
330
C
102
}
330
C
100
AcDbDictionary
281
     1
  3
2dWireframe
350
2F
  3
3D Hidden
350
31
  3
3dWireframe
350
30
  3
Basic
350
32
  3
Brighten
350
36
  3
ColorChange
350
3A
  3
Conceptual
350
34
  3
Dim
350
35
  3
Facepattern
350
39
  3
Flat
350
2B
  3
FlatWithEdges
350
2C
  3
Gouraud
350
2D
  3
GouraudWithEdges
350
2E
  3
Linepattern
350
38
  3
Realistic
350
33
  3
Thicken
350
37
  0
DICTIONARY
  5
28F
102
{ACAD_REACTORS
330
C
102
}
330
C
100
AcDbDictionary
281
     1
  3
CANNOSCALE
350
290
  3
PSOLHEIGHT
350
294
  3
PSOLWIDTH
350
293
  0
LAYOUT
  5
1E
102
{ACAD_REACTORS
330
1A
102
}
330
1A
100
AcDbPlotSettings
  1

  2
none_device
  4

  6

 40
0.0
 41
0.0
 42
0.0
 43
0.0
 44
0.0
 45
0.0
 46
0.0
 47
0.0
 48
0.0
 49
0.0
140
0.0
141
0.0
142
1.0
143
1.0
 70
   688
 72
     0
 73
     0
 74
     5
  7

 75
    16
147
1.0
148
0.0
149
0.0
100
AcDbLayout
  1
Layout1
 70
     1
 71
     1
 10
0.0
 20
0.0
 11
12.0
 21
9.0
 12
0.0
 22
0.0
 32
0.0
 14
1.000000E+20
 24
1.000000E+20
 34
0.0
 15
-1.000000E+20
 25
-1.000000E+20
 35
0.0
146
0.0
 13
0.0
 23
0.0
 33
0.0
 16
1.0
 26
0.0
 36
0.0
 17
0.0
 27
1.0
 37
0.0
 76
     0
330
1B
  0
LAYOUT
  5
26
102
{ACAD_REACTORS
330
1A
102
}
330
1A
100
AcDbPlotSettings
  1

  2
none_device
  4

  6

 40
0.0
 41
0.0
 42
0.0
 43
0.0
 44
0.0
 45
0.0
 46
0.0
 47
0.0
 48
0.0
 49
0.0
140
0.0
141
0.0
142
1.0
143
1.0
 70
   688
 72
     0
 73
     0
 74
     5
  7

 75
    16
147
1.0
148
0.0
149
0.0
100
AcDbLayout
  1
Layout2
 70
     1
 71
     2
 10
0.0
 20
0.0
 11
0.0
 21
0.0
 12
0.0
 22
0.0
 32
0.0
 14
0.0
 24
0.0
 34
0.0
 15
0.0
 25
0.0
 35
0.0
146
0.0
 13
0.0
 23
0.0
 33
0.0
 16
1.0
 26
0.0
 36
0.0
 17
0.0
 27
1.0
 37
0.0
 76
     0
330
23
  0
LAYOUT
  5
22
102
{ACAD_REACTORS
330
1A
102
}
330
1A
100
AcDbPlotSettings
  1

  2
none_device
  4

  6

 40
0.0
 41
0.0
 42
0.0
 43
0.0
 44
0.0
 45
0.0
 46
0.0
 47
0.0
 48
0.0
 49
0.0
140
0.0
141
0.0
142
1.0
143
1.0
 70
  1712
 72
     0
 73
     0
 74
     0
  7

 75
     0
147
1.0
148
0.0
149
0.0
100
AcDbLayout
  1
Model
 70
     1
 71
     0
 10
0.0
 20
0.0
 11
12.0
 21
9.0
 12
0.0
 22
0.0
 32
0.0
 14
-4.991501
 24
8.280319
 34
0.0
 15
255.232071
 25
199.473709
 35
0.0
146
0.0
 13
0.0
 23
0.0
 33
0.0
 16
1.0
 26
0.0
 36
0.0
 17
0.0
 27
1.0
 37
0.0
 76
     0
330
1F
331
29
  0
MLINESTYLE
  5
18
102
{ACAD_REACTORS
330
17
102
}
330
17
100
AcDbMlineStyle
  2
Standard
 70
     0
  3

 62
   256
 51
90.0
 52
90.0
 71
     2
 49
0.5
 62
   256
  6
BYLAYER
 49
-0.5
 62
   256
  6
BYLAYER
  0
ACDBPLACEHOLDER
  5
F
102
{ACAD_REACTORS
330
E
102
}
330
E
  0
SCALE
  5
3C
102
{ACAD_REACTORS
330
3B
102
}
330
3B
100
AcDbScale
 70
     0
300
1:1
140
1.0
141
1.0
290
     1
  0
SCALE
  5
3D
102
{ACAD_REACTORS
330
3B
102
}
330
3B
100
AcDbScale
 70
     0
300
1:2
140
1.0
141
2.0
290
     0
  0
SCALE
  5
3E
102
{ACAD_REACTORS
330
3B
102
}
330
3B
100
AcDbScale
 70
     0
300
1:4
140
1.0
141
4.0
290
     0
  0
SCALE
  5
3F
102
{ACAD_REACTORS
330
3B
102
}
330
3B
100
AcDbScale
 70
     0
300
1:5
140
1.0
141
5.0
290
     0
  0
SCALE
  5
40
102
{ACAD_REACTORS
330
3B
102
}
330
3B
100
AcDbScale
 70
     0
300
1:8
140
1.0
141
8.0
290
     0
  0
SCALE
  5
41
102
{ACAD_REACTORS
330
3B
102
}
330
3B
100
AcDbScale
 70
     0
300
1:10
140
1.0
141
10.0
290
     0
  0
SCALE
  5
42
102
{ACAD_REACTORS
330
3B
102
}
330
3B
100
AcDbScale
 70
     0
300
1:16
140
1.0
141
16.0
290
     0
  0
SCALE
  5
43
102
{ACAD_REACTORS
330
3B
102
}
330
3B
100
AcDbScale
 70
     0
300
1:20
140
1.0
141
20.0
290
     0
  0
SCALE
  5
44
102
{ACAD_REACTORS
330
3B
102
}
330
3B
100
AcDbScale
 70
     0
300
1:30
140
1.0
141
30.0
290
     0
  0
SCALE
  5
45
102
{ACAD_REACTORS
330
3B
102
}
330
3B
100
AcDbScale
 70
     0
300
1:40
140
1.0
141
40.0
290
     0
  0
SCALE
  5
46
102
{ACAD_REACTORS
330
3B
102
}
330
3B
100
AcDbScale
 70
     0
300
1:50
140
1.0
141
50.0
290
     0
  0
SCALE
  5
47
102
{ACAD_REACTORS
330
3B
102
}
330
3B
100
AcDbScale
 70
     0
300
1:100
140
1.0
141
100.0
290
     0
  0
SCALE
  5
48
102
{ACAD_REACTORS
330
3B
102
}
330
3B
100
AcDbScale
 70
     0
300
2:1
140
2.0
141
1.0
290
     0
  0
SCALE
  5
49
102
{ACAD_REACTORS
330
3B
102
}
330
3B
100
AcDbScale
 70
     0
300
4:1
140
4.0
141
1.0
290
     0
  0
SCALE
  5
4A
102
{ACAD_REACTORS
330
3B
102
}
330
3B
100
AcDbScale
 70
     0
300
8:1
140
8.0
141
1.0
290
     0
  0
SCALE
  5
4B
102
{ACAD_REACTORS
330
3B
102
}
330
3B
100
AcDbScale
 70
     0
300
10:1
140
10.0
141
1.0
290
     0
  0
SCALE
  5
4C
102
{ACAD_REACTORS
330
3B
102
}
330
3B
100
AcDbScale
 70
     0
300
100:1
140
100.0
141
1.0
290
     0
  0
SCALE
  5
4D
102
{ACAD_REACTORS
330
3B
102
}
330
3B
100
AcDbScale
 70
     0
300
1/128" = 1'-0"
140
0.007812
141
12.0
290
     0
  0
SCALE
  5
4E
102
{ACAD_REACTORS
330
3B
102
}
330
3B
100
AcDbScale
 70
     0
300
1/64" = 1'-0"
140
0.015625
141
12.0
290
     0
  0
SCALE
  5
4F
102
{ACAD_REACTORS
330
3B
102
}
330
3B
100
AcDbScale
 70
     0
300
1/32" = 1'-0"
140
0.03125
141
12.0
290
     0
  0
SCALE
  5
50
102
{ACAD_REACTORS
330
3B
102
}
330
3B
100
AcDbScale
 70
     0
300
1/16" = 1'-0"
140
0.0625
141
12.0
290
     0
  0
SCALE
  5
51
102
{ACAD_REACTORS
330
3B
102
}
330
3B
100
AcDbScale
 70
     0
300
3/32" = 1'-0"
140
0.09375
141
12.0
290
     0
  0
SCALE
  5
52
102
{ACAD_REACTORS
330
3B
102
}
330
3B
100
AcDbScale
 70
     0
300
1/8" = 1'-0"
140
0.125
141
12.0
290
     0
  0
SCALE
  5
53
102
{ACAD_REACTORS
330
3B
102
}
330
3B
100
AcDbScale
 70
     0
300
3/16" = 1'-0"
140
0.1875
141
12.0
290
     0
  0
SCALE
  5
54
102
{ACAD_REACTORS
330
3B
102
}
330
3B
100
AcDbScale
 70
     0
300
1/4" = 1'-0"
140
0.25
141
12.0
290
     0
  0
SCALE
  5
55
102
{ACAD_REACTORS
330
3B
102
}
330
3B
100
AcDbScale
 70
     0
300
3/8" = 1'-0"
140
0.375
141
12.0
290
     0
  0
SCALE
  5
56
102
{ACAD_REACTORS
330
3B
102
}
330
3B
100
AcDbScale
 70
     0
300
1/2" = 1'-0"
140
0.5
141
12.0
290
     0
  0
SCALE
  5
57
102
{ACAD_REACTORS
330
3B
102
}
330
3B
100
AcDbScale
 70
     0
300
3/4" = 1'-0"
140
0.75
141
12.0
290
     0
  0
SCALE
  5
58
102
{ACAD_REACTORS
330
3B
102
}
330
3B
100
AcDbScale
 70
     0
300
1" = 1'-0"
140
1.0
141
12.0
290
     0
  0
SCALE
  5
59
102
{ACAD_REACTORS
330
3B
102
}
330
3B
100
AcDbScale
 70
     0
300
1-1/2" = 1'-0"
140
1.5
141
12.0
290
     0
  0
SCALE
  5
5A
102
{ACAD_REACTORS
330
3B
102
}
330
3B
100
AcDbScale
 70
     0
300
3" = 1'-0"
140
3.0
141
12.0
290
     0
  0
SCALE
  5
5B
102
{ACAD_REACTORS
330
3B
102
}
330
3B
100
AcDbScale
 70
     0
300
6" = 1'-0"
140
6.0
141
12.0
290
     0
  0
SCALE
  5
5C
102
{ACAD_REACTORS
330
3B
102
}
330
3B
100
AcDbScale
 70
     0
300
1'-0" = 1'-0"
140
12.0
141
12.0
290
     0
  0
VISUALSTYLE
  5
2F
102
{ACAD_REACTORS
330
2A
102
}
330
2A
100
AcDbVisualStyle
  2
2dWireframe
 70
     4
 71
     0
 72
     2
 73
     0
 90
        0
 40
-0.6
 41
-30.0
 62
     5
 63
     7
 74
     1
 91
        4
 64
     7
 65
   257
 75
     1
175
     1
 42
1.0
 92
        0
 66
   257
 43
1.0
 76
     1
 77
     6
 78
     2
 67
     7
 79
     5
170
     0
171
     0
290
     0
174
     0
 93
        1
 44
0.0
173
     0
291
     0
 45
0.0
1001
ACAD
1000
AcDbSavedByObjectVersion
1070
     0
  0
VISUALSTYLE
  5
31
102
{ACAD_REACTORS
330
2A
102
}
330
2A
100
AcDbVisualStyle
  2
3D Hidden
 70
     6
 71
     1
 72
     2
 73
     2
 90
        0
 40
-0.6
 41
-30.0
 62
     5
 63
     7
 74
     2
 91
        2
 64
     7
 65
   257
 75
     2
175
     1
 42
40.0
 92
        0
 66
   257
 43
1.0
 76
     1
 77
     6
 78
     2
 67
     7
 79
     3
170
     0
171
     0
290
     0
174
     0
 93
        1
 44
0.0
173
     0
291
     0
 45
0.0
1001
ACAD
1000
AcDbSavedByObjectVersion
1070
     0
  0
VISUALSTYLE
  5
30
102
{ACAD_REACTORS
330
2A
102
}
330
2A
100
AcDbVisualStyle
  2
3dWireframe
 70
     5
 71
     0
 72
     2
 73
     0
 90
        0
 40
-0.6
 41
-30.0
 62
     5
 63
     7
 74
     1
 91
        4
 64
     7
 65
   257
 75
     1
175
     1
 42
1.0
 92
        0
 66
   257
 43
1.0
 76
     1
 77
     6
 78
     2
 67
     7
 79
     5
170
     0
171
     0
290
     0
174
     0
 93
        1
 44
0.0
173
     0
291
     0
 45
0.0
1001
ACAD
1000
AcDbSavedByObjectVersion
1070
     0
  0
VISUALSTYLE
  5
32
102
{ACAD_REACTORS
330
2A
102
}
330
2A
100
AcDbVisualStyle
  2
Basic
 70
     7
 71
     1
 72
     0
 73
     1
 90
        0
 40
-0.6
 41
-30.0
 62
     5
 63
     7
 74
     0
 91
        4
 64
     7
 65
   257
 75
     1
175
     1
 42
1.0
 92
        8
 66
     7
 43
1.0
 76
     1
 77
     6
 78
     2
 67
     7
 79
     5
170
     0
171
     0
290
     0
174
     0
 93
        1
 44
0.0
173
     0
291
     1
 45
0.0
1001
ACAD
1000
AcDbSavedByObjectVersion
1070
     0
  0
VISUALSTYLE
  5
36
102
{ACAD_REACTORS
330
2A
102
}
330
2A
100
AcDbVisualStyle
  2
Brighten
 70
    12
 71
     2
 72
     2
 73
     0
 90
        0
 40
-0.6
 41
-30.0
 62
     5
 63
     7
 74
     1
 91
        4
 64
     7
 65
   257
 75
     1
175
     1
 42
1.0
 92
        8
 66
     7
 43
1.0
 76
     1
 77
     6
 78
     2
 67
     7
 79
     5
170
     0
171
     0
290
     0
174
     0
 93
        1
 44
50.0
173
     0
291
     1
 45
0.0
1001
ACAD
1000
AcDbSavedByObjectVersion
1070
     0
  0
VISUALSTYLE
  5
3A
102
{ACAD_REACTORS
330
2A
102
}
330
2A
100
AcDbVisualStyle
  2
ColorChange
 70
    16
 71
     2
 72
     2
 73
     3
 90
        0
 40
-0.6
 41
-30.0
 62
     5
 63
     8
 74
     1
 91
        4
 64
     7
 65
   257
 75
     1
175
     1
 42
1.0
 92
        8
 66
     8
 43
1.0
 76
     1
 77
     6
 78
     2
 67
     7
 79
     5
170
     0
171
     0
290
     0
174
     0
 93
        1
 44
0.0
173
     0
291
     1
 45
0.0
1001
ACAD
1000
AcDbSavedByObjectVersion
1070
     0
  0
VISUALSTYLE
  5
34
102
{ACAD_REACTORS
330
2A
102
}
330
2A
100
AcDbVisualStyle
  2
Conceptual
 70
     9
 71
     3
 72
     2
 73
     0
 90
        0
 40
-0.6
 41
-30.0
 62
     5
 63
     7
 74
     2
 91
        2
 64
     7
 65
   257
 75
     1
175
     1
 42
40.0
 92
        8
 66
     7
 43
1.0
 76
     1
 77
     6
 78
     2
 67
     7
 79
     3
170
     0
171
     0
290
     0
174
     0
 93
        1
 44
0.0
173
     0
291
     0
 45
0.0
1001
ACAD
1000
AcDbSavedByObjectVersion
1070
     0
  0
VISUALSTYLE
  5
35
102
{ACAD_REACTORS
330
2A
102
}
330
2A
100
AcDbVisualStyle
  2
Dim
 70
    11
 71
     2
 72
     2
 73
     0
 90
        0
 40
-0.6
 41
-30.0
 62
     5
 63
     7
 74
     1
 91
        4
 64
     7
 65
   257
 75
     1
175
     1
 42
1.0
 92
        8
 66
     7
 43
1.0
 76
     1
 77
     6
 78
     2
 67
     7
 79
     5
170
     0
171
     0
290
     0
174
     0
 93
        1
 44
-50.0
173
     0
291
     1
 45
0.0
1001
ACAD
1000
AcDbSavedByObjectVersion
1070
     0
  0
VISUALSTYLE
  5
39
102
{ACAD_REACTORS
330
2A
102
}
330
2A
100
AcDbVisualStyle
  2
Facepattern
 70
    15
 71
     2
 72
     2
 73
     0
 90
        0
 40
-0.6
 41
-30.0
 62
     5
 63
     7
 74
     1
 91
        4
 64
     7
 65
   257
 75
     1
175
     1
 42
1.0
 92
        8
 66
     7
 43
1.0
 76
     1
 77
     6
 78
     2
 67
     7
 79
     5
170
     0
171
     0
290
     0
174
     0
 93
        1
 44
0.0
173
     0
291
     1
 45
0.0
1001
ACAD
1000
AcDbSavedByObjectVersion
1070
     0
  0
VISUALSTYLE
  5
2B
102
{ACAD_REACTORS
330
2A
102
}
330
2A
100
AcDbVisualStyle
  2
Flat
 70
     0
 71
     2
 72
     1
 73
     1
 90
        2
 40
-0.6
 41
30.0
 62
     5
 63
     7
 74
     0
 91
        4
 64
     7
 65
   257
 75
     1
175
     1
 42
1.0
 92
        8
 66
     7
 43
1.0
 76
     1
 77
     6
 78
     2
 67
     7
 79
     5
170
     0
171
     0
290
     0
174
     0
 93
       13
 44
0.0
173
     0
291
     1
 45
0.0
1001
ACAD
1000
AcDbSavedByObjectVersion
1070
     0
  0
VISUALSTYLE
  5
2C
102
{ACAD_REACTORS
330
2A
102
}
330
2A
100
AcDbVisualStyle
  2
FlatWithEdges
 70
     1
 71
     2
 72
     1
 73
     1
 90
        2
 40
-0.6
 41
30.0
 62
     5
 63
     7
 74
     1
 91
        4
 64
     7
 65
   257
 75
     1
175
     1
 42
1.0
 92
        0
 66
   257
 43
1.0
 76
     1
 77
     6
 78
     2
 67
     7
 79
     5
170
     0
171
     0
290
     0
174
     0
 93
       13
 44
0.0
173
     0
291
     1
 45
0.0
1001
ACAD
1000
AcDbSavedByObjectVersion
1070
     0
  0
VISUALSTYLE
  5
2D
102
{ACAD_REACTORS
330
2A
102
}
330
2A
100
AcDbVisualStyle
  2
Gouraud
 70
     2
 71
     2
 72
     2
 73
     1
 90
        2
 40
-0.6
 41
30.0
 62
     5
 63
     7
 74
     0
 91
        4
 64
     7
 65
   257
 75
     1
175
     1
 42
1.0
 92
        0
 66
     7
 43
1.0
 76
     1
 77
     6
 78
     2
 67
     7
 79
     5
170
     0
171
     0
290
     0
174
     0
 93
       13
 44
0.0
173
     0
291
     1
 45
0.0
1001
ACAD
1000
AcDbSavedByObjectVersion
1070
     0
  0
VISUALSTYLE
  5
2E
102
{ACAD_REACTORS
330
2A
102
}
330
2A
100
AcDbVisualStyle
  2
GouraudWithEdges
 70
     3
 71
     2
 72
     2
 73
     1
 90
        2
 40
-0.6
 41
30.0
 62
     5
 63
     7
 74
     1
 91
        4
 64
     7
 65
   257
 75
     1
175
     1
 42
1.0
 92
        0
 66
   257
 43
1.0
 76
     1
 77
     6
 78
     2
 67
     7
 79
     5
170
     0
171
     0
290
     0
174
     0
 93
       13
 44
0.0
173
     0
291
     1
 45
0.0
1001
ACAD
1000
AcDbSavedByObjectVersion
1070
     0
  0
VISUALSTYLE
  5
38
102
{ACAD_REACTORS
330
2A
102
}
330
2A
100
AcDbVisualStyle
  2
Linepattern
 70
    14
 71
     2
 72
     2
 73
     0
 90
        0
 40
-0.6
 41
-30.0
 62
     5
 63
     7
 74
     1
 91
        4
 64
     7
 65
   257
 75
     7
175
     7
 42
1.0
 92
        8
 66
     7
 43
1.0
 76
     1
 77
     6
 78
     2
 67
     7
 79
     5
170
     0
171
     0
290
     0
174
     0
 93
        1
 44
0.0
173
     0
291
     1
 45
0.0
1001
ACAD
1000
AcDbSavedByObjectVersion
1070
     0
  0
VISUALSTYLE
  5
33
102
{ACAD_REACTORS
330
2A
102
}
330
2A
100
AcDbVisualStyle
  2
Realistic
 70
     8
 71
     2
 72
     2
 73
     0
 90
        0
 40
-0.6
 41
-30.0
 62
     5
 63
     7
 74
     1
 91
        0
 64
     7
 65
   257
 75
     1
175
     1
 42
1.0
 92
        8
 66
     8
 43
1.0
 76
     1
 77
     6
 78
     2
 67
     7
 79
     5
170
     0
171
     0
290
     0
174
     0
 93
       13
 44
0.0
173
     0
291
     0
 45
0.0
1001
ACAD
1000
AcDbSavedByObjectVersion
1070
     0
  0
VISUALSTYLE
  5
37
102
{ACAD_REACTORS
330
2A
102
}
330
2A
100
AcDbVisualStyle
  2
Thicken
 70
    13
 71
     2
 72
     2
 73
     0
 90
        0
 40
-0.6
 41
-30.0
 62
     5
 63
     7
 74
     1
 91
        4
 64
     7
 65
   257
 75
     1
175
     1
 42
1.0
 92
       12
 66
     7
 43
1.0
 76
     1
 77
     6
 78
     2
 67
     7
 79
     5
170
     0
171
     0
290
     0
174
     0
 93
        1
 44
0.0
173
     0
291
     1
 45
0.0
1001
ACAD
1000
AcDbSavedByObjectVersion
1070
     0
  0
DICTIONARYVAR
  5
290
102
{ACAD_REACTORS
330
28F
102
}
330
28F
100
DictionaryVariables
280
     0
  1
1:1
  0
DICTIONARYVAR
  5
294
102
{ACAD_REACTORS
330
28F
102
}
330
28F
100
DictionaryVariables
280
     0
  1
80.000000
  0
DICTIONARYVAR
  5
293
102
{ACAD_REACTORS
330
28F
102
}
330
28F
100
DictionaryVariables
280
     0
  1
5.000000
  0
ENDSEC
  0
EOF
