  0
SECTION
  2
HEADER
  9
$ACADVER
  1
AC1015
  9
$ACADMAINTVER
 70
     6
  9
$DWGCODEPAGE
  3
ANSI_932
  9
$INSBASE
 10
0.0
 20
0.0
 30
0.0
  9
$EXTMIN
 10
30.553368
 20
8.092911
 30
0.0
  9
$EXTMAX
 10
278.355621
 20
199.473709
 30
0.0
  9
$LIMMIN
 10
0.0
 20
0.0
  9
$LIMMAX
 10
12.0
 20
9.0
  9
$ORTHOMODE
 70
     0
  9
$REGENMODE
 70
     1
  9
$FILLMODE
 70
     1
  9
$QTEXTMODE
 70
     0
  9
$MIRRTEXT
 70
     1
  9
$LTSCALE
 40
3.131015
  9
$ATTMODE
 70
     1
  9
$TEXTSIZE
 40
3.2
  9
$TRACEWID
 40
1.0
  9
$TEXTSTYLE
  7
Standard
  9
$CLAYER
  8
0
  9
$CELTYPE
  6
ByLayer
  9
$CECOLOR
 62
   256
  9
$CELTSCALE
 40
1.0
  9
$DISPSILH
 70
     0
  9
$DIMSCALE
 40
1.0
  9
$DIMASZ
 40
2.5
  9
$DIMEXO
 40
0.625
  9
$DIMDLI
 40
3.75
  9
$DIMRND
 40
0.0
  9
$DIMDLE
 40
0.0
  9
$DIMEXE
 40
1.25
  9
$DIMTP
 40
0.0
  9
$DIMTM
 40
0.0
  9
$DIMTXT
 40
2.5
  9
$DIMCEN
 40
0.09
  9
$DIMTSZ
 40
0.0
  9
$DIMTOL
 70
     0
  9
$DIMLIM
 70
     0
  9
$DIMTIH
 70
     0
  9
$DIMTOH
 70
     0
  9
$DIMSE1
 70
     0
  9
$DIMSE2
 70
     0
  9
$DIMTAD
 70
     0
  9
$DIMZIN
 70
     8
  9
$DIMBLK
  1

  9
$DIMASO
 70
     1
  9
$DIMSHO
 70
     0
  9
$DIMPOST
  1

  9
$DIMAPOST
  1

  9
$DIMALT
 70
     0
  9
$DIMALTD
 70
     3
  9
$DIMALTF
 40
0.03937
  9
$DIMLFAC
 40
1.0
  9
$DIMTOFL
 70
     1
  9
$DIMTVP
 40
0.0
  9
$DIMTIX
 70
     0
  9
$DIMSOXD
 70
     0
  9
$DIMSAH
 70
     0
  9
$DIMBLK1
  1

  9
$DIMBLK2
  1

  9
$DIMSTYLE
  2
ISO-25
  9
$DIMCLRD
 70
     0
  9
$DIMCLRE
 70
     0
  9
$DIMCLRT
 70
     0
  9
$DIMTFAC
 40
1.0
  9
$DIMGAP
 40
0.625
  9
$DIMJUST
 70
     0
  9
$DIMSD1
 70
     0
  9
$DIMSD2
 70
     0
  9
$DIMTOLJ
 70
     0
  9
$DIMTZIN
 70
     8
  9
$DIMALTZ
 70
     0
  9
$DIMALTTZ
 70
     0
  9
$DIMUPT
 70
     0
  9
$DIMDEC
 70
     2
  9
$DIMTDEC
 70
     2
  9
$DIMALTU
 70
     2
  9
$DIMALTTD
 70
     3
  9
$DIMTXSTY
  7
Standard
  9
$DIMAUNIT
 70
     0
  9
$DIMADEC
 70
     0
  9
$DIMALTRND
 40
0.0
  9
$DIMAZIN
 70
     0
  9
$DIMDSEP
 70
    44
  9
$DIMATFIT
 70
     3
  9
$DIMFRAC
 70
     0
  9
$DIMLDRBLK
  1

  9
$DIMLUNIT
 70
     2
  9
$DIMLWD
 70
    -2
  9
$DIMLWE
 70
    -2
  9
$DIMTMOVE
 70
     0
  9
$LUNITS
 70
     2
  9
$LUPREC
 70
     4
  9
$SKETCHINC
 40
1.0
  9
$FILLETRAD
 40
0.0
  9
$AUNITS
 70
     0
  9
$AUPREC
 70
     0
  9
$MENU
  1
.
  9
$ELEVATION
 40
0.0
  9
$PELEVATION
 40
0.0
  9
$THICKNESS
 40
0.0
  9
$LIMCHECK
 70
     0
  9
$CHAMFERA
 40
10.0
  9
$CHAMFERB
 40
10.0
  9
$CHAMFERC
 40
20.0
  9
$CHAMFERD
 40
0.0
  9
$SKPOLY
 70
     0
  9
$TDCREATE
 40
2455405.44864728
  9
$TDUCREATE
 40
2455405.07364728
  9
$TDUPDATE
 40
2455405.448647292
  9
$TDUUPDATE
 40
2455405.073647292
  9
$TDINDWG
 40
0.0000000116
  9
$TDUSRTIMER
 40
0.0000000116
  9
$USRTIMER
 70
     1
  9
$ANGBASE
 50
0.0
  9
$ANGDIR
 70
     0
  9
$PDMODE
 70
     0
  9
$PDSIZE
 40
0.0
  9
$PLINEWID
 40
0.0
  9
$SPLFRAME
 70
     0
  9
$SPLINETYPE
 70
     6
  9
$SPLINESEGS
 70
     8
  9
$HANDSEED
  5
2A9
  9
$SURFTAB1
 70
     6
  9
$SURFTAB2
 70
     6
  9
$SURFTYPE
 70
     6
  9
$SURFU
 70
     6
  9
$SURFV
 70
     6
  9
$UCSBASE
  2

  9
$UCSNAME
  2

  9
$UCSORG
 10
0.0
 20
0.0
 30
0.0
  9
$UCSXDIR
 10
1.0
 20
0.0
 30
0.0
  9
$UCSYDIR
 10
0.0
 20
1.0
 30
0.0
  9
$UCSORTHOREF
  2

  9
$UCSORTHOVIEW
 70
     0
  9
$UCSORGTOP
 10
0.0
 20
0.0
 30
0.0
  9
$UCSORGBOTTOM
 10
0.0
 20
0.0
 30
0.0
  9
$UCSORGLEFT
 10
0.0
 20
0.0
 30
0.0
  9
$UCSORGRIGHT
 10
0.0
 20
0.0
 30
0.0
  9
$UCSORGFRONT
 10
0.0
 20
0.0
 30
0.0
  9
$UCSORGBACK
 10
0.0
 20
0.0
 30
0.0
  9
$PUCSBASE
  2

  9
$PUCSNAME
  2

  9
$PUCSORG
 10
0.0
 20
0.0
 30
0.0
  9
$PUCSXDIR
 10
1.0
 20
0.0
 30
0.0
  9
$PUCSYDIR
 10
0.0
 20
1.0
 30
0.0
  9
$PUCSORTHOREF
  2

  9
$PUCSORTHOVIEW
 70
     0
  9
$PUCSORGTOP
 10
0.0
 20
0.0
 30
0.0
  9
$PUCSORGBOTTOM
 10
0.0
 20
0.0
 30
0.0
  9
$PUCSORGLEFT
 10
0.0
 20
0.0
 30
0.0
  9
$PUCSORGRIGHT
 10
0.0
 20
0.0
 30
0.0
  9
$PUCSORGFRONT
 10
0.0
 20
0.0
 30
0.0
  9
$PUCSORGBACK
 10
0.0
 20
0.0
 30
0.0
  9
$USERI1
 70
     0
  9
$USERI2
 70
     0
  9
$USERI3
 70
     0
  9
$USERI4
 70
     0
  9
$USERI5
 70
     0
  9
$USERR1
 40
0.0
  9
$USERR2
 40
0.0
  9
$USERR3
 40
0.0
  9
$USERR4
 40
0.0
  9
$USERR5
 40
0.0
  9
$WORLDVIEW
 70
     1
  9
$SHADEDGE
 70
     3
  9
$SHADEDIF
 70
    70
  9
$TILEMODE
 70
     1
  9
$MAXACTVP
 70
    64
  9
$PINSBASE
 10
0.0
 20
0.0
 30
0.0
  9
$PLIMCHECK
 70
     0
  9
$PEXTMIN
 10
1.000000E+20
 20
1.000000E+20
 30
0.0
  9
$PEXTMAX
 10
-1.000000E+20
 20
-1.000000E+20
 30
0.0
  9
$PLIMMIN
 10
0.0
 20
0.0
  9
$PLIMMAX
 10
12.0
 20
9.0
  9
$UNITMODE
 70
     0
  9
$VISRETAIN
 70
     1
  9
$PLINEGEN
 70
     0
  9
$PSLTSCALE
 70
     1
  9
$TREEDEPTH
 70
  3020
  9
$CMLSTYLE
  2
Standard
  9
$CMLJUST
 70
     0
  9
$CMLSCALE
 40
20.0
  9
$PROXYGRAPHICS
 70
     1
  9
$MEASUREMENT
 70
     1
  9
$CELWEIGHT
370
    -1
  9
$ENDCAPS
280
     0
  9
$JOINSTYLE
280
     0
  9
$LWDISPLAY
290
     0
  9
$INSUNITS
 70
     4
  9
$HYPERLINKBASE
  1

  9
$STYLESHEET
  1

  9
$XEDIT
290
     1
  9
$CEPSNTYPE
380
     0
  9
$PSTYLEMODE
290
     1
  9
$FINGERPRINTGUID
  2
{FD16CBFF-39C4-4876-B645-96F031C0FCF7}
  9
$VERSIONGUID
  2
{FAEB1C32-E019-11D5-929B-00C0DF256EC4}
  9
$EXTNAMES
290
     1
  9
$PSVPSCALE
 40
0.0
  9
$OLESTARTUP
290
     0
  0
ENDSEC
  0
SECTION
  2
CLASSES
  0
CLASS
  1
ACDBDICTIONARYWDFLT
  2
AcDbDictionaryWithDefault
  3
ObjectDBX Classes
 90
        0
280
     0
281
     0
  0
CLASS
  1
VISUALSTYLE
  2
AcDbVisualStyle
  3
ObjectDBX Classes
 90
     4095
280
     0
281
     0
  0
CLASS
  1
SCALE
  2
AcDbScale
  3
ObjectDBX Classes
 90
     1153
280
     0
281
     0
  0
CLASS
  1
DICTIONARYVAR
  2
AcDbDictionaryVar
  3
ObjectDBX Classes
 90
        0
280
     0
281
     0
  0
CLASS
  1
ACDBPLACEHOLDER
  2
AcDbPlaceHolder
  3
ObjectDBX Classes
 90
        0
280
     0
281
     0
  0
CLASS
  1
LAYOUT
  2
AcDbLayout
  3
ObjectDBX Classes
 90
        0
280
     0
281
     0
  0
ENDSEC
  0
SECTION
  2
TABLES
  0
TABLE
  2
VPORT
  5
8
330
0
100
AcDbSymbolTable
 70
     1
  0
VPORT
  5
29
330
8
100
AcDbSymbolTableRecord
100
AcDbViewportTableRecord
  2
*Active
 70
     0
 10
0.0
 20
0.0
 11
1.0
 21
1.0
 12
154.454494
 22
103.78331
 13
0.0
 23
0.0
 14
1.0
 24
1.0
 15
0.0
 25
0.0
 16
0.0
 26
0.0
 36
1.0
 17
0.0
 27
0.0
 37
0.0
 40
193.294606
 41
1.691288
 42
50.0
 43
0.0
 44
0.0
 50
0.0
 51
0.0
 71
     0
 72
   100
 73
     1
 74
     3
 75
     0
 76
     0
 77
     0
 78
     0
281
     0
 65
     1
110
0.0
120
0.0
130
0.0
111
1.0
121
0.0
131
0.0
112
0.0
122
1.0
132
0.0
 79
     0
146
0.0
  0
ENDTAB
  0
TABLE
  2
LTYPE
  5
5
330
0
100
AcDbSymbolTable
 70
     5
  0
LTYPE
  5
14
330
5
100
AcDbSymbolTableRecord
100
AcDbLinetypeTableRecord
  2
ByBlock
 70
     0
  3

 72
    65
 73
     0
 40
0.0
  0
LTYPE
  5
15
330
5
100
AcDbSymbolTableRecord
100
AcDbLinetypeTableRecord
  2
ByLayer
 70
     0
  3

 72
    65
 73
     0
 40
0.0
  0
LTYPE
  5
16
330
5
100
AcDbSymbolTableRecord
100
AcDbLinetypeTableRecord
  2
Continuous
 70
     0
  3
Solid line
 72
    65
 73
     0
 40
0.0
  0
LTYPE
  5
5D
330
5
100
AcDbSymbolTableRecord
100
AcDbLinetypeTableRecord
  2
DASHED
 70
     0
  3
DASHED
 72
    83
 73
     2
 40
0.75
 49
0.5
 74
     0
 49
-0.25
 74
     0
  0
LTYPE
  5
5E
330
5
100
AcDbSymbolTableRecord
100
AcDbLinetypeTableRecord
  2
HIDDEN
 70
     0
  3
HIDDEN
 72
    83
 73
     2
 40
0.375
 49
0.25
 74
     0
 49
-0.125
 74
     0
  0
LTYPE
  5
5F
330
5
100
AcDbSymbolTableRecord
100
AcDbLinetypeTableRecord
  2
CENTER
 70
     0
  3
CENTER
 72
    83
 73
     4
 40
2.0
 49
1.25
 74
     0
 49
-0.25
 74
     0
 49
0.25
 74
     0
 49
-0.25
 74
     0
  0
LTYPE
  5
60
330
5
100
AcDbSymbolTableRecord
100
AcDbLinetypeTableRecord
  2
PHANTOM
 70
     0
  3
PHANTOM
 72
    83
 73
     6
 40
2.5
 49
1.25
 74
     0
 49
-0.25
 74
     0
 49
0.25
 74
     0
 49
-0.25
 74
     0
 49
0.25
 74
     0
 49
-0.25
 74
     0
  0
ENDTAB
  0
TABLE
  2
LAYER
  5
2
330
0
100
AcDbSymbolTable
 70
     2
  0
LAYER
  5
10
330
2
100
AcDbSymbolTableRecord
100
AcDbLayerTableRecord
  2
0
 70
     0
 62
     7
  6
Continuous
370
    -3
390
F
  0
LAYER
  5
61
330
2
100
AcDbSymbolTableRecord
100
AcDbLayerTableRecord
  2
001
 70
     0
 62
     7
  6
Continuous
370
    -3
390
F
  0
ENDTAB
  0
TABLE
  2
STYLE
  5
3
330
0
100
AcDbSymbolTable
 70
     2
  0
STYLE
  5
11
330
3
100
AcDbSymbolTableRecord
100
AcDbTextStyleTableRecord
  2
Standard
 70
     0
 40
0.0
 41
1.0
 50
0.0
 71
     0
 42
0.2
  3
TXT
  4
BIGFONT
  0
STYLE
  5
62
330
3
100
AcDbSymbolTableRecord
100
AcDbTextStyleTableRecord
  2
TATEGAKI
 70
     4
 40
1.0
 41
1.0
 50
0.0
 71
     0
 42
0.2
  3
TXT
  4
BIGFONT
  0
ENDTAB
  0
TABLE
  2
VIEW
  5
6
330
0
100
AcDbSymbolTable
 70
     0
  0
ENDTAB
  0
TABLE
  2
UCS
  5
7
330
0
100
AcDbSymbolTable
 70
     0
  0
ENDTAB
  0
TABLE
  2
APPID
  5
9
330
0
100
AcDbSymbolTable
 70
     1
  0
APPID
  5
12
330
9
100
AcDbSymbolTableRecord
100
AcDbRegAppTableRecord
  2
ACAD
 70
     0
  0
ENDTAB
  0
TABLE
  2
DIMSTYLE
  5
A
330
0
100
AcDbSymbolTable
 70
     2
100
AcDbDimStyleTable
  0
DIMSTYLE
105
27
330
A
100
AcDbSymbolTableRecord
100
AcDbDimStyleTableRecord
  2
ISO-25
 70
     0
 41
2.5
 42
0.625
 43
3.75
 44
1.25
 73
     0
 74
     0
 77
     1
 78
     8
140
2.5
141
2.5
143
0.03937
147
0.625
171
     3
172
     1
271
     2
272
     2
274
     3
278
    44
283
     0
284
     8
340
11
  0
DIMSTYLE
105
63
102
{ACAD_REACTORS
330
1EC
330
1ED
330
1EE
330
1EF
330
1F0
330
1F1
330
1F9
330
1FA
330
1FB
330
1FC
330
1FD
330
1FE
330
1FF
330
200
330
201
330
202
330
203
330
205
330
206
102
}
330
A
100
AcDbSymbolTableRecord
100
AcDbDimStyleTableRecord
  2
Standard
 70
     0
 41
1.5
 42
0.0
 44
0.5
 73
     0
 74
     0
 77
     1
 78
     8
 79
     2
140
4.0
146
0.8
147
1.0
172
     1
179
     1
271
     1
340
11
  0
ENDTAB
  0
TABLE
  2
BLOCK_RECORD
  5
1
330
0
100
AcDbSymbolTable
 70
    22
  0
BLOCK_RECORD
  5
1F
330
1
100
AcDbSymbolTableRecord
100
AcDbBlockTableRecord
  2
*Model_Space
340
22
  0
BLOCK_RECORD
  5
1B
330
1
100
AcDbSymbolTableRecord
100
AcDbBlockTableRecord
  2
*Paper_Space
340
1E
  0
BLOCK_RECORD
  5
23
330
1
100
AcDbSymbolTableRecord
100
AcDbBlockTableRecord
  2
*Paper_Space0
340
26
  0
BLOCK_RECORD
  5
64
330
1
100
AcDbSymbolTableRecord
100
AcDbBlockTableRecord
  2
JZB-1
340
0
102
{BLKREFS
331
1EB
102
}
  0
BLOCK_RECORD
  5
68
330
1
100
AcDbSymbolTableRecord
100
AcDbBlockTableRecord
  2
*D2
340
0
  0
BLOCK_RECORD
  5
7D
330
1
100
AcDbSymbolTableRecord
100
AcDbBlockTableRecord
  2
*D3
340
0
  0
BLOCK_RECORD
  5
8A
330
1
100
AcDbSymbolTableRecord
100
AcDbBlockTableRecord
  2
*D4
340
0
  0
BLOCK_RECORD
  5
9E
330
1
100
AcDbSymbolTableRecord
100
AcDbBlockTableRecord
  2
*D5
340
0
  0
BLOCK_RECORD
  5
B2
330
1
100
AcDbSymbolTableRecord
100
AcDbBlockTableRecord
  2
*D6
340
0
  0
BLOCK_RECORD
  5
C6
330
1
100
AcDbSymbolTableRecord
100
AcDbBlockTableRecord
  2
*D7
340
0
  0
BLOCK_RECORD
  5
DC
330
1
100
AcDbSymbolTableRecord
100
AcDbBlockTableRecord
  2
*D8
340
0
  0
BLOCK_RECORD
  5
E9
330
1
100
AcDbSymbolTableRecord
100
AcDbBlockTableRecord
  2
*D9
340
0
  0
BLOCK_RECORD
  5
F6
330
1
100
AcDbSymbolTableRecord
100
AcDbBlockTableRecord
  2
*D10
340
0
  0
BLOCK_RECORD
  5
10B
330
1
100
AcDbSymbolTableRecord
100
AcDbBlockTableRecord
  2
*D11
340
0
  0
BLOCK_RECORD
  5
11F
330
1
100
AcDbSymbolTableRecord
100
AcDbBlockTableRecord
  2
*D12
340
0
  0
BLOCK_RECORD
  5
135
330
1
100
AcDbSymbolTableRecord
100
AcDbBlockTableRecord
  2
*D13
340
0
  0
BLOCK_RECORD
  5
149
330
1
100
AcDbSymbolTableRecord
100
AcDbBlockTableRecord
  2
*D14
340
0
  0
BLOCK_RECORD
  5
15D
330
1
100
AcDbSymbolTableRecord
100
AcDbBlockTableRecord
  2
*D15
340
0
  0
BLOCK_RECORD
  5
171
330
1
100
AcDbSymbolTableRecord
100
AcDbBlockTableRecord
  2
*D16
340
0
  0
BLOCK_RECORD
  5
187
330
1
100
AcDbSymbolTableRecord
100
AcDbBlockTableRecord
  2
*D17
340
0
  0
BLOCK_RECORD
  5
19D
330
1
100
AcDbSymbolTableRecord
100
AcDbBlockTableRecord
  2
*D18
340
0
  0
BLOCK_RECORD
  5
1B1
330
1
100
AcDbSymbolTableRecord
100
AcDbBlockTableRecord
  2
DIM-2
340
0
102
{BLKREFS
331
204
102
}
  0
BLOCK_RECORD
  5
1BF
330
1
100
AcDbSymbolTableRecord
100
AcDbBlockTableRecord
  2
*D20
340
0
  0
BLOCK_RECORD
  5
1D5
330
1
100
AcDbSymbolTableRecord
100
AcDbBlockTableRecord
  2
*D21
340
0
  0
ENDTAB
  0
ENDSEC
  0
SECTION
  2
BLOCKS
  0
BLOCK
  5
20
330
1F
100
AcDbEntity
  8
0
100
AcDbBlockBegin
  2
*Model_Space
 70
     0
 10
0.0
 20
0.0
 30
0.0
  3
*Model_Space
  1

  0
ENDBLK
  5
21
330
1F
100
AcDbEntity
  8
0
100
AcDbBlockEnd
  0
BLOCK
  5
1C
330
1B
100
AcDbEntity
 67
     1
  8
0
100
AcDbBlockBegin
  2
*Paper_Space
 70
     0
 10
0.0
 20
0.0
 30
0.0
  3
*Paper_Space
  1

  0
ENDBLK
  5
1D
330
1B
100
AcDbEntity
 67
     1
  8
0
100
AcDbBlockEnd
  0
BLOCK
  5
24
330
23
100
AcDbEntity
  8
0
100
AcDbBlockBegin
  2
*Paper_Space0
 70
     0
 10
0.0
 20
0.0
 30
0.0
  3
*Paper_Space0
  1

  0
ENDBLK
  5
25
330
23
100
AcDbEntity
  8
0
100
AcDbBlockEnd
  0
BLOCK
  5
65
330
64
100
AcDbEntity
  8
0
100
AcDbBlockBegin
  2
JZB-1
 70
     0
 10
0.0
 20
0.0
 30
0.0
  3
JZB-1
  1

  0
LINE
  5
67
330
64
100
AcDbEntity
  8
001
 62
   140
370
    30
100
AcDbLine
 10
239.855765
 20
127.39308
 30
0.0
 11
239.855765
 21
127.510265
 31
0.0
  0
ENDBLK
  5
66
330
64
100
AcDbEntity
  8
0
100
AcDbBlockEnd
  0
BLOCK
  5
69
330
68
100
AcDbEntity
  8
0
100
AcDbBlockBegin
  2
*D2
 70
     1
 10
0.0
 20
0.0
 30
0.0
  3
*D2
  1

  0
LINE
  5
6B
330
68
100
AcDbEntity
  8
001
370
     9
100
AcDbLine
 10
184.439089
 20
107.451673
 30
0.0
 11
214.110618
 21
107.451673
 31
0.0
  0
LINE
  5
6C
330
68
100
AcDbEntity
  8
001
370
     9
100
AcDbLine
 10
184.439089
 20
147.451673
 30
0.0
 11
214.110618
 21
147.451673
 31
0.0
  0
LINE
  5
6D
330
68
100
AcDbEntity
  8
001
370
     9
100
AcDbLine
 10
210.673118
 20
107.451673
 30
0.0
 11
210.673118
 21
147.451673
 31
0.0
  0
POLYLINE
  5
6E
330
68
100
AcDbEntity
  8
001
370
     9
100
AcDb2dPolyline
 66
     1
 10
0.0
 20
0.0
 30
0.0
  0
VERTEX
  5
70
330
6E
100
AcDbEntity
  8
001
370
     9
100
AcDbVertex
100
AcDb2dVertex
 10
211.175522
 20
109.326673
 30
0.0
  0
VERTEX
  5
71
330
6E
100
AcDbEntity
  8
001
370
     9
100
AcDbVertex
100
AcDb2dVertex
 10
210.673118
 20
107.451673
 30
0.0
  0
VERTEX
  5
72
330
6E
100
AcDbEntity
  8
001
370
     9
100
AcDbVertex
100
AcDb2dVertex
 10
210.170713
 20
109.326673
 30
0.0
  0
SEQEND
  5
6F
330
6E
100
AcDbEntity
  8
001
370
     9
  0
POLYLINE
  5
73
330
68
100
AcDbEntity
  8
001
370
     9
100
AcDb2dPolyline
 66
     1
 10
0.0
 20
0.0
 30
0.0
  0
VERTEX
  5
75
330
73
100
AcDbEntity
  8
001
370
     9
100
AcDbVertex
100
AcDb2dVertex
 10
210.170713
 20
145.576673
 30
0.0
  0
VERTEX
  5
76
330
73
100
AcDbEntity
  8
001
370
     9
100
AcDbVertex
100
AcDb2dVertex
 10
210.673118
 20
147.451673
 30
0.0
  0
VERTEX
  5
77
330
73
100
AcDbEntity
  8
001
370
     9
100
AcDbVertex
100
AcDb2dVertex
 10
211.175522
 20
145.576673
 30
0.0
  0
SEQEND
  5
74
330
73
100
AcDbEntity
  8
001
370
     9
  0
TEXT
  5
78
330
68
100
AcDbEntity
  8
001
370
    30
100
AcDbText
 10
209.423118
 20
115.951673
 30
0.0
 40
5.0
  1
%%c４０
 50
90.000003
 41
0.882353
100
AcDbText
  0
TEXT
  5
79
330
68
100
AcDbEntity
  8
001
370
    30
100
AcDbText
 10
208.923118
 20
130.951673
 30
0.0
 40
4.0
  1
ｈ７
 50
90.000003
 41
0.833333
100
AcDbText
  0
POINT
  5
7A
330
68
100
AcDbEntity
  8
001
370
     9
100
AcDbPoint
 10
184.439089
 20
107.451673
 30
0.0
  0
POINT
  5
7B
330
68
100
AcDbEntity
  8
001
370
     9
100
AcDbPoint
 10
184.439089
 20
147.451673
 30
0.0
  0
POINT
  5
7C
330
68
100
AcDbEntity
  8
001
370
     9
100
AcDbPoint
 10
210.673118
 20
147.451673
 30
0.0
  0
ENDBLK
  5
6A
330
68
100
AcDbEntity
  8
0
100
AcDbBlockEnd
  0
BLOCK
  5
7E
330
7D
100
AcDbEntity
  8
0
100
AcDbBlockBegin
  2
*D3
 70
     1
 10
0.0
 20
0.0
 30
0.0
  3
*D3
  1

  0
LINE
  5
80
330
7D
100
AcDbEntity
  8
001
370
     9
100
AcDbLine
 10
184.439089
 20
145.451673
 30
0.0
 11
185.876845
 21
146.841946
 31
0.0
  0
POLYLINE
  5
81
330
7D
100
AcDbEntity
  8
001
370
     9
100
AcDb2dPolyline
 66
     1
 10
0.0
 20
0.0
 30
0.0
  0
VERTEX
  5
83
330
81
100
AcDbEntity
  8
001
370
     9
100
AcDbVertex
100
AcDb2dVertex
 10
187.573981
 20
147.784159
 30
0.0
  0
VERTEX
  5
84
330
81
100
AcDbEntity
  8
001
370
     9
100
AcDbVertex
100
AcDb2dVertex
 10
185.876845
 20
146.841946
 30
0.0
  0
VERTEX
  5
85
330
81
100
AcDbEntity
  8
001
370
     9
100
AcDbVertex
100
AcDb2dVertex
 10
186.875501
 20
148.506494
 30
0.0
  0
SEQEND
  5
82
330
81
100
AcDbEntity
  8
001
370
     9
  0
TEXT
  5
86
330
7D
100
AcDbEntity
  8
001
370
    30
100
AcDbText
 10
188.153015
 20
150.781765
 30
0.0
 40
5.0
  1
（Ｒ２）
 50
44.038085
 41
0.833333
100
AcDbText
  0
POINT
  5
87
330
7D
100
AcDbEntity
  8
001
370
     9
100
AcDbPoint
 10
185.876845
 20
146.841946
 30
0.0
  0
POINT
  5
88
330
7D
100
AcDbEntity
  8
001
370
     9
100
AcDbPoint
 10
184.439089
 20
145.451673
 30
0.0
  0
LINE
  5
89
330
7D
100
AcDbEntity
  8
001
370
     9
100
AcDbLine
 10
185.876845
 20
146.841946
 30
0.0
 11
206.095285
 21
166.392657
 31
0.0
  0
ENDBLK
  5
7F
330
7D
100
AcDbEntity
  8
0
100
AcDbBlockEnd
  0
BLOCK
  5
8B
330
8A
100
AcDbEntity
  8
0
100
AcDbBlockBegin
  2
*D4
 70
     1
 10
0.0
 20
0.0
 30
0.0
  3
*D4
  1

  0
LINE
  5
8D
330
8A
100
AcDbEntity
  8
001
370
     9
100
AcDbLine
 10
272.355628
 20
127.451673
 30
0.0
 11
272.355628
 21
83.024431
 31
0.0
  0
LINE
  5
8E
330
8A
100
AcDbEntity
  8
001
370
     9
100
AcDbLine
 10
234.055628
 20
119.382596
 30
0.0
 11
234.055628
 21
83.024431
 31
0.0
  0
LINE
  5
8F
330
8A
100
AcDbEntity
  8
001
370
     9
100
AcDbLine
 10
272.355628
 20
86.461931
 30
0.0
 11
234.055628
 21
86.461931
 31
0.0
  0
POLYLINE
  5
90
330
8A
100
AcDbEntity
  8
001
370
     9
100
AcDb2dPolyline
 66
     1
 10
0.0
 20
0.0
 30
0.0
  0
VERTEX
  5
92
330
90
100
AcDbEntity
  8
001
370
     9
100
AcDbVertex
100
AcDb2dVertex
 10
270.480628
 20
86.964336
 30
0.0
  0
VERTEX
  5
93
330
90
100
AcDbEntity
  8
001
370
     9
100
AcDbVertex
100
AcDb2dVertex
 10
272.355628
 20
86.461931
 30
0.0
  0
VERTEX
  5
94
330
90
100
AcDbEntity
  8
001
370
     9
100
AcDbVertex
100
AcDb2dVertex
 10
270.480628
 20
85.959526
 30
0.0
  0
SEQEND
  5
91
330
90
100
AcDbEntity
  8
001
370
     9
  0
POLYLINE
  5
95
330
8A
100
AcDbEntity
  8
001
370
     9
100
AcDb2dPolyline
 66
     1
 10
0.0
 20
0.0
 30
0.0
  0
VERTEX
  5
97
330
95
100
AcDbEntity
  8
001
370
     9
100
AcDbVertex
100
AcDb2dVertex
 10
235.930628
 20
85.959526
 30
0.0
  0
VERTEX
  5
98
330
95
100
AcDbEntity
  8
001
370
     9
100
AcDbVertex
100
AcDb2dVertex
 10
234.055628
 20
86.461931
 30
0.0
  0
VERTEX
  5
99
330
95
100
AcDbEntity
  8
001
370
     9
100
AcDbVertex
100
AcDb2dVertex
 10
235.930628
 20
86.964336
 30
0.0
  0
SEQEND
  5
96
330
95
100
AcDbEntity
  8
001
370
     9
  0
TEXT
  5
9A
330
8A
100
AcDbEntity
  8
001
370
    30
100
AcDbText
 10
248.205628
 20
87.711931
 30
0.0
 40
5.0
  1
３８
 41
0.833333
100
AcDbText
  0
POINT
  5
9B
330
8A
100
AcDbEntity
  8
001
370
     9
100
AcDbPoint
 10
272.355628
 20
127.451673
 30
0.0
  0
POINT
  5
9C
330
8A
100
AcDbEntity
  8
001
370
     9
100
AcDbPoint
 10
234.055628
 20
119.382596
 30
0.0
  0
POINT
  5
9D
330
8A
100
AcDbEntity
  8
001
370
     9
100
AcDbPoint
 10
234.055628
 20
86.461931
 30
0.0
  0
ENDBLK
  5
8C
330
8A
100
AcDbEntity
  8
0
100
AcDbBlockEnd
  0
BLOCK
  5
9F
330
9E
100
AcDbEntity
  8
0
100
AcDbBlockBegin
  2
*D5
 70
     1
 10
0.0
 20
0.0
 30
0.0
  3
*D5
  1

  0
LINE
  5
A1
330
9E
100
AcDbEntity
  8
001
370
     9
100
AcDbLine
 10
71.707038
 20
115.451673
 30
0.0
 11
46.15725
 21
115.451673
 31
0.0
  0
LINE
  5
A2
330
9E
100
AcDbEntity
  8
001
370
     9
100
AcDbLine
 10
71.707038
 20
139.451673
 30
0.0
 11
46.15725
 21
139.451673
 31
0.0
  0
LINE
  5
A3
330
9E
100
AcDbEntity
  8
001
370
     9
100
AcDbLine
 10
49.59475
 20
115.451673
 30
0.0
 11
49.59475
 21
139.451673
 31
0.0
  0
POLYLINE
  5
A4
330
9E
100
AcDbEntity
  8
001
370
     9
100
AcDb2dPolyline
 66
     1
 10
0.0
 20
0.0
 30
0.0
  0
VERTEX
  5
A6
330
A4
100
AcDbEntity
  8
001
370
     9
100
AcDbVertex
100
AcDb2dVertex
 10
50.097155
 20
117.326673
 30
0.0
  0
VERTEX
  5
A7
330
A4
100
AcDbEntity
  8
001
370
     9
100
AcDbVertex
100
AcDb2dVertex
 10
49.59475
 20
115.451673
 30
0.0
  0
VERTEX
  5
A8
330
A4
100
AcDbEntity
  8
001
370
     9
100
AcDbVertex
100
AcDb2dVertex
 10
49.092346
 20
117.326673
 30
0.0
  0
SEQEND
  5
A5
330
A4
100
AcDbEntity
  8
001
370
     9
  0
POLYLINE
  5
A9
330
9E
100
AcDbEntity
  8
001
370
     9
100
AcDb2dPolyline
 66
     1
 10
0.0
 20
0.0
 30
0.0
  0
VERTEX
  5
AB
330
A9
100
AcDbEntity
  8
001
370
     9
100
AcDbVertex
100
AcDb2dVertex
 10
49.092346
 20
137.576673
 30
0.0
  0
VERTEX
  5
AC
330
A9
100
AcDbEntity
  8
001
370
     9
100
AcDbVertex
100
AcDb2dVertex
 10
49.59475
 20
139.451673
 30
0.0
  0
VERTEX
  5
AD
330
A9
100
AcDbEntity
  8
001
370
     9
100
AcDbVertex
100
AcDb2dVertex
 10
50.097155
 20
137.576673
 30
0.0
  0
SEQEND
  5
AA
330
A9
100
AcDbEntity
  8
001
370
     9
  0
TEXT
  5
AE
330
9E
100
AcDbEntity
  8
001
370
    30
100
AcDbText
 10
48.34475
 20
119.951673
 30
0.0
 40
5.0
  1
%%c２４
 50
90.000003
 41
0.882353
100
AcDbText
  0
POINT
  5
AF
330
9E
100
AcDbEntity
  8
001
370
     9
100
AcDbPoint
 10
71.707038
 20
115.451673
 30
0.0
  0
POINT
  5
B0
330
9E
100
AcDbEntity
  8
001
370
     9
100
AcDbPoint
 10
71.707038
 20
139.451673
 30
0.0
  0
POINT
  5
B1
330
9E
100
AcDbEntity
  8
001
370
     9
100
AcDbPoint
 10
49.59475
 20
139.451673
 30
0.0
  0
ENDBLK
  5
A0
330
9E
100
AcDbEntity
  8
0
100
AcDbBlockEnd
  0
BLOCK
  5
B3
330
B2
100
AcDbEntity
  8
0
100
AcDbBlockBegin
  2
*D6
 70
     1
 10
0.0
 20
0.0
 30
0.0
  3
*D6
  1

  0
LINE
  5
B5
330
B2
100
AcDbEntity
  8
001
370
     9
100
AcDbLine
 10
87.439089
 20
113.451673
 30
0.0
 11
33.365862
 21
113.451673
 31
0.0
  0
LINE
  5
B6
330
B2
100
AcDbEntity
  8
001
370
     9
100
AcDbLine
 10
87.439089
 20
141.451673
 30
0.0
 11
33.365862
 21
141.451673
 31
0.0
  0
LINE
  5
B7
330
B2
100
AcDbEntity
  8
001
370
     9
100
AcDbLine
 10
36.803362
 20
113.451673
 30
0.0
 11
36.803362
 21
141.451673
 31
0.0
  0
POLYLINE
  5
B8
330
B2
100
AcDbEntity
  8
001
370
     9
100
AcDb2dPolyline
 66
     1
 10
0.0
 20
0.0
 30
0.0
  0
VERTEX
  5
BA
330
B8
100
AcDbEntity
  8
001
370
     9
100
AcDbVertex
100
AcDb2dVertex
 10
37.305766
 20
115.326673
 30
0.0
  0
VERTEX
  5
BB
330
B8
100
AcDbEntity
  8
001
370
     9
100
AcDbVertex
100
AcDb2dVertex
 10
36.803362
 20
113.451673
 30
0.0
  0
VERTEX
  5
BC
330
B8
100
AcDbEntity
  8
001
370
     9
100
AcDbVertex
100
AcDb2dVertex
 10
36.300957
 20
115.326673
 30
0.0
  0
SEQEND
  5
B9
330
B8
100
AcDbEntity
  8
001
370
     9
  0
POLYLINE
  5
BD
330
B2
100
AcDbEntity
  8
001
370
     9
100
AcDb2dPolyline
 66
     1
 10
0.0
 20
0.0
 30
0.0
  0
VERTEX
  5
BF
330
BD
100
AcDbEntity
  8
001
370
     9
100
AcDbVertex
100
AcDb2dVertex
 10
36.300957
 20
139.576673
 30
0.0
  0
VERTEX
  5
C0
330
BD
100
AcDbEntity
  8
001
370
     9
100
AcDbVertex
100
AcDb2dVertex
 10
36.803362
 20
141.451673
 30
0.0
  0
VERTEX
  5
C1
330
BD
100
AcDbEntity
  8
001
370
     9
100
AcDbVertex
100
AcDb2dVertex
 10
37.305766
 20
139.576673
 30
0.0
  0
SEQEND
  5
BE
330
BD
100
AcDbEntity
  8
001
370
     9
  0
TEXT
  5
C2
330
B2
100
AcDbEntity
  8
001
370
    30
100
AcDbText
 10
35.553362
 20
119.951673
 30
0.0
 40
5.0
  1
%%c２８
 50
90.000003
 41
0.882353
100
AcDbText
  0
POINT
  5
C3
330
B2
100
AcDbEntity
  8
001
370
     9
100
AcDbPoint
 10
87.439089
 20
113.451673
 30
0.0
  0
POINT
  5
C4
330
B2
100
AcDbEntity
  8
001
370
     9
100
AcDbPoint
 10
87.439089
 20
141.451673
 30
0.0
  0
POINT
  5
C5
330
B2
100
AcDbEntity
  8
001
370
     9
100
AcDbPoint
 10
36.803362
 20
141.451673
 30
0.0
  0
ENDBLK
  5
B4
330
B2
100
AcDbEntity
  8
0
100
AcDbBlockEnd
  0
BLOCK
  5
C7
330
C6
100
AcDbEntity
  8
0
100
AcDbBlockBegin
  2
*D7
 70
     1
 10
0.0
 20
0.0
 30
0.0
  3
*D7
  1

  0
LINE
  5
C9
330
C6
100
AcDbEntity
  8
001
370
     9
100
AcDbLine
 10
71.207038
 20
139.317698
 30
0.0
 11
80.701029
 21
144.799056
 31
0.0
  0
ARC
  5
CA
330
C6
100
AcDbEntity
  8
001
370
     9
100
AcDbCircle
 10
50.654479
 20
127.451673
 30
0.0
 40
31.25726704273299
100
AcDbArc
 50
0.0
 51
30.0
  0
POLYLINE
  5
CB
330
C6
100
AcDbEntity
  8
001
370
     9
100
AcDb2dPolyline
 66
     1
 10
0.0
 20
0.0
 30
0.0
  0
VERTEX
  5
CD
330
CB
100
AcDbEntity
  8
001
370
     9
100
AcDbVertex
100
AcDb2dVertex
 10
77.165659
 20
144.939397
 30
0.0
  0
VERTEX
  5
CE
330
CB
100
AcDbEntity
  8
001
370
     9
100
AcDbVertex
100
AcDb2dVertex
 10
77.724067
 20
143.080306
 30
0.0
  0
VERTEX
  5
CF
330
CB
100
AcDbEntity
  8
001
370
     9
100
AcDbVertex
100
AcDb2dVertex
 10
76.310927
 20
144.411122
 30
0.0
  0
SEQEND
  5
CC
330
CB
100
AcDbEntity
  8
001
370
     9
  0
POLYLINE
  5
D0
330
C6
100
AcDbEntity
  8
001
370
     9
100
AcDb2dPolyline
 66
     1
 10
0.0
 20
0.0
 30
0.0
  0
VERTEX
  5
D2
330
D0
100
AcDbEntity
  8
001
370
     9
100
AcDbVertex
100
AcDb2dVertex
 10
81.353339
 20
125.592582
 30
0.0
  0
VERTEX
  5
D3
330
D0
100
AcDbEntity
  8
001
370
     9
100
AcDbVertex
100
AcDb2dVertex
 10
81.911746
 20
127.451673
 30
0.0
  0
VERTEX
  5
D4
330
D0
100
AcDbEntity
  8
001
370
     9
100
AcDbVertex
100
AcDb2dVertex
 10
82.357697
 20
125.56245
 30
0.0
  0
SEQEND
  5
D1
330
D0
100
AcDbEntity
  8
001
370
     9
  0
TEXT
  5
D5
330
C6
100
AcDbEntity
  8
001
370
    30
100
AcDbText
 10
66.816244
 20
156.636768
 30
0.0
 40
5.0
  1
３０%%d
 50
318.031913
 41
0.978261
100
AcDbText
  0
POINT
  5
D6
330
C6
100
AcDbEntity
  8
001
370
     9
100
AcDbPoint
 10
71.207038
 20
139.317698
 30
0.0
  0
POINT
  5
D7
330
C6
100
AcDbEntity
  8
001
370
     9
100
AcDbPoint
 10
50.654479
 20
127.451673
 30
0.0
  0
POINT
  5
D8
330
C6
100
AcDbEntity
  8
001
370
     9
100
AcDbPoint
 10
50.654479
 20
127.451673
 30
0.0
  0
POINT
  5
D9
330
C6
100
AcDbEntity
  8
001
370
     9
100
AcDbPoint
 10
57.061854
 20
127.451673
 30
0.0
  0
ARC
  5
DA
330
C6
100
AcDbEntity
  8
001
370
     9
100
AcDbCircle
 10
50.654479
 20
127.451673
 30
0.0
 40
31.25726704273299
100
AcDbArc
 50
354.271754
 51
0.0
  0
ARC
  5
DB
330
C6
100
AcDbEntity
  8
001
370
     9
100
AcDbCircle
 10
50.654479
 20
127.451673
 30
0.0
 40
31.25726704273299
100
AcDbArc
 50
30.0
 51
61.779709
  0
ENDBLK
  5
C8
330
C6
100
AcDbEntity
  8
0
100
AcDbBlockEnd
  0
BLOCK
  5
DD
330
DC
100
AcDbEntity
  8
0
100
AcDbBlockBegin
  2
*D8
 70
     1
 10
0.0
 20
0.0
 30
0.0
  3
*D8
  1

  0
LINE
  5
DF
330
DC
100
AcDbEntity
  8
001
370
     9
100
AcDbLine
 10
105.439089
 20
149.951673
 30
0.0
 11
106.155574
 21
150.649275
 31
0.0
  0
POLYLINE
  5
E0
330
DC
100
AcDbEntity
  8
001
370
     9
100
AcDb2dPolyline
 66
     1
 10
0.0
 20
0.0
 30
0.0
  0
VERTEX
  5
E2
330
E0
100
AcDbEntity
  8
001
370
     9
100
AcDbVertex
100
AcDb2dVertex
 10
107.849463
 20
151.597314
 30
0.0
  0
VERTEX
  5
E3
330
E0
100
AcDbEntity
  8
001
370
     9
100
AcDbVertex
100
AcDb2dVertex
 10
106.155574
 20
150.649275
 30
0.0
  0
VERTEX
  5
E4
330
E0
100
AcDbEntity
  8
001
370
     9
100
AcDbVertex
100
AcDb2dVertex
 10
107.148505
 20
152.317245
 30
0.0
  0
SEQEND
  5
E1
330
E0
100
AcDbEntity
  8
001
370
     9
  0
TEXT
  5
E5
330
DC
100
AcDbEntity
  8
001
370
    30
100
AcDbText
 10
108.418193
 20
154.596892
 30
0.0
 40
5.0
  1
２－Ｒ１
 50
44.234959
 41
0.833333
100
AcDbText
  0
POINT
  5
E6
330
DC
100
AcDbEntity
  8
001
370
     9
100
AcDbPoint
 10
106.155574
 20
150.649275
 30
0.0
  0
POINT
  5
E7
330
DC
100
AcDbEntity
  8
001
370
     9
100
AcDbPoint
 10
105.439089
 20
149.951673
 30
0.0
  0
LINE
  5
E8
330
DC
100
AcDbEntity
  8
001
370
     9
100
AcDbLine
 10
106.155574
 20
150.649275
 30
0.0
 11
126.306718
 21
170.269343
 31
0.0
  0
ENDBLK
  5
DE
330
DC
100
AcDbEntity
  8
0
100
AcDbBlockEnd
  0
BLOCK
  5
EA
330
E9
100
AcDbEntity
  8
0
100
AcDbBlockBegin
  2
*D9
 70
     1
 10
0.0
 20
0.0
 30
0.0
  3
*D9
  1

  0
LINE
  5
EC
330
E9
100
AcDbEntity
  8
001
370
     9
100
AcDbLine
 10
67.439089
 20
118.915774
 30
0.0
 11
66.701304
 21
118.240739
 31
0.0
  0
POLYLINE
  5
ED
330
E9
100
AcDbEntity
  8
001
370
     9
100
AcDb2dPolyline
 66
     1
 10
0.0
 20
0.0
 30
0.0
  0
VERTEX
  5
EF
330
ED
100
AcDbEntity
  8
001
370
     9
100
AcDbVertex
100
AcDb2dVertex
 10
64.978815
 20
117.345714
 30
0.0
  0
VERTEX
  5
F0
330
ED
100
AcDbEntity
  8
001
370
     9
100
AcDbVertex
100
AcDb2dVertex
 10
66.701304
 20
118.240739
 30
0.0
  0
VERTEX
  5
F1
330
ED
100
AcDbEntity
  8
001
370
     9
100
AcDbVertex
100
AcDb2dVertex
 10
65.657097
 20
116.604381
 30
0.0
  0
SEQEND
  5
EE
330
ED
100
AcDbEntity
  8
001
370
     9
  0
TEXT
  5
F2
330
E9
100
AcDbEntity
  8
001
370
    30
100
AcDbText
 10
40.341075
 20
95.816755
 30
0.0
 40
5.0
  1
２－Ｒ１
 50
42.456896
 41
0.833333
100
AcDbText
  0
POINT
  5
F3
330
E9
100
AcDbEntity
  8
001
370
     9
100
AcDbPoint
 10
66.701304
 20
118.240739
 30
0.0
  0
POINT
  5
F4
330
E9
100
AcDbEntity
  8
001
370
     9
100
AcDbPoint
 10
67.439089
 20
118.915774
 30
0.0
  0
LINE
  5
F5
330
E9
100
AcDbEntity
  8
001
370
     9
100
AcDbLine
 10
66.701304
 20
118.240739
 30
0.0
 11
38.418174
 21
92.363141
 31
0.0
  0
ENDBLK
  5
EB
330
E9
100
AcDbEntity
  8
0
100
AcDbBlockEnd
  0
BLOCK
  5
F7
330
F6
100
AcDbEntity
  8
0
100
AcDbBlockBegin
  2
*D10
 70
     1
 10
0.0
 20
0.0
 30
0.0
  3
*D10
  1

  0
LINE
  5
F9
330
F6
100
AcDbEntity
  8
001
370
     9
100
AcDbLine
 10
86.439089
 20
114.451673
 30
0.0
 11
86.439089
 21
82.17645
 31
0.0
  0
LINE
  5
FA
330
F6
100
AcDbEntity
  8
001
370
     9
100
AcDbLine
 10
66.439089
 20
118.915774
 30
0.0
 11
66.439089
 21
82.17645
 31
0.0
  0
LINE
  5
FB
330
F6
100
AcDbEntity
  8
001
370
     9
100
AcDbLine
 10
86.439089
 20
85.61395
 30
0.0
 11
66.439089
 21
85.61395
 31
0.0
  0
POLYLINE
  5
FC
330
F6
100
AcDbEntity
  8
001
370
     9
100
AcDb2dPolyline
 66
     1
 10
0.0
 20
0.0
 30
0.0
  0
VERTEX
  5
FE
330
FC
100
AcDbEntity
  8
001
370
     9
100
AcDbVertex
100
AcDb2dVertex
 10
84.564089
 20
86.116355
 30
0.0
  0
VERTEX
  5
FF
330
FC
100
AcDbEntity
  8
001
370
     9
100
AcDbVertex
100
AcDb2dVertex
 10
86.439089
 20
85.61395
 30
0.0
  0
VERTEX
  5
100
330
FC
100
AcDbEntity
  8
001
370
     9
100
AcDbVertex
100
AcDb2dVertex
 10
84.564089
 20
85.111545
 30
0.0
  0
SEQEND
  5
FD
330
FC
100
AcDbEntity
  8
001
370
     9
  0
POLYLINE
  5
101
330
F6
100
AcDbEntity
  8
001
370
     9
100
AcDb2dPolyline
 66
     1
 10
0.0
 20
0.0
 30
0.0
  0
VERTEX
  5
103
330
101
100
AcDbEntity
  8
001
370
     9
100
AcDbVertex
100
AcDb2dVertex
 10
68.314089
 20
85.111545
 30
0.0
  0
VERTEX
  5
104
330
101
100
AcDbEntity
  8
001
370
     9
100
AcDbVertex
100
AcDb2dVertex
 10
66.439089
 20
85.61395
 30
0.0
  0
VERTEX
  5
105
330
101
100
AcDbEntity
  8
001
370
     9
100
AcDbVertex
100
AcDb2dVertex
 10
68.314089
 20
86.116355
 30
0.0
  0
SEQEND
  5
102
330
101
100
AcDbEntity
  8
001
370
     9
  0
TEXT
  5
106
330
F6
100
AcDbEntity
  8
001
370
    30
100
AcDbText
 10
52.064089
 20
86.86395
 30
0.0
 40
5.0
  1
２０
 41
0.833333
100
AcDbText
  0
POINT
  5
107
330
F6
100
AcDbEntity
  8
001
370
     9
100
AcDbPoint
 10
86.439089
 20
114.451673
 30
0.0
  0
POINT
  5
108
330
F6
100
AcDbEntity
  8
001
370
     9
100
AcDbPoint
 10
66.439089
 20
118.915774
 30
0.0
  0
POINT
  5
109
330
F6
100
AcDbEntity
  8
001
370
     9
100
AcDbPoint
 10
66.439089
 20
85.61395
 30
0.0
  0
LINE
  5
10A
330
F6
100
AcDbEntity
  8
001
370
     9
100
AcDbLine
 10
66.439089
 20
85.61395
 30
0.0
 11
48.314089
 21
85.61395
 31
0.0
  0
ENDBLK
  5
F8
330
F6
100
AcDbEntity
  8
0
100
AcDbBlockEnd
  0
BLOCK
  5
10C
330
10B
100
AcDbEntity
  8
0
100
AcDbBlockBegin
  2
*D11
 70
     1
 10
0.0
 20
0.0
 30
0.0
  3
*D11
  1

  0
LINE
  5
10E
330
10B
100
AcDbEntity
  8
001
370
     9
100
AcDbLine
 10
101.439089
 20
104.951673
 30
0.0
 11
101.439089
 21
73.048496
 31
0.0
  0
LINE
  5
10F
330
10B
100
AcDbEntity
  8
001
370
     9
100
AcDbLine
 10
66.439089
 20
118.915774
 30
0.0
 11
66.439089
 21
73.048496
 31
0.0
  0
LINE
  5
110
330
10B
100
AcDbEntity
  8
001
370
     9
100
AcDbLine
 10
101.439089
 20
76.485996
 30
0.0
 11
66.439089
 21
76.485996
 31
0.0
  0
POLYLINE
  5
111
330
10B
100
AcDbEntity
  8
001
370
     9
100
AcDb2dPolyline
 66
     1
 10
0.0
 20
0.0
 30
0.0
  0
VERTEX
  5
113
330
111
100
AcDbEntity
  8
001
370
     9
100
AcDbVertex
100
AcDb2dVertex
 10
99.564089
 20
76.988401
 30
0.0
  0
VERTEX
  5
114
330
111
100
AcDbEntity
  8
001
370
     9
100
AcDbVertex
100
AcDb2dVertex
 10
101.439089
 20
76.485996
 30
0.0
  0
VERTEX
  5
115
330
111
100
AcDbEntity
  8
001
370
     9
100
AcDbVertex
100
AcDb2dVertex
 10
99.564089
 20
75.983591
 30
0.0
  0
SEQEND
  5
112
330
111
100
AcDbEntity
  8
001
370
     9
  0
POLYLINE
  5
116
330
10B
100
AcDbEntity
  8
001
370
     9
100
AcDb2dPolyline
 66
     1
 10
0.0
 20
0.0
 30
0.0
  0
VERTEX
  5
118
330
116
100
AcDbEntity
  8
001
370
     9
100
AcDbVertex
100
AcDb2dVertex
 10
68.314089
 20
75.983591
 30
0.0
  0
VERTEX
  5
119
330
116
100
AcDbEntity
  8
001
370
     9
100
AcDbVertex
100
AcDb2dVertex
 10
66.439089
 20
76.485996
 30
0.0
  0
VERTEX
  5
11A
330
116
100
AcDbEntity
  8
001
370
     9
100
AcDbVertex
100
AcDb2dVertex
 10
68.314089
 20
76.988401
 30
0.0
  0
SEQEND
  5
117
330
116
100
AcDbEntity
  8
001
370
     9
  0
TEXT
  5
11B
330
10B
100
AcDbEntity
  8
001
370
    30
100
AcDbText
 10
78.939089
 20
77.735996
 30
0.0
 40
5.0
  1
３５
 41
0.833333
100
AcDbText
  0
POINT
  5
11C
330
10B
100
AcDbEntity
  8
001
370
     9
100
AcDbPoint
 10
101.439089
 20
104.951673
 30
0.0
  0
POINT
  5
11D
330
10B
100
AcDbEntity
  8
001
370
     9
100
AcDbPoint
 10
66.439089
 20
118.915774
 30
0.0
  0
POINT
  5
11E
330
10B
100
AcDbEntity
  8
001
370
     9
100
AcDbPoint
 10
66.439089
 20
76.485996
 30
0.0
  0
ENDBLK
  5
10D
330
10B
100
AcDbEntity
  8
0
100
AcDbBlockEnd
  0
BLOCK
  5
120
330
11F
100
AcDbEntity
  8
0
100
AcDbBlockBegin
  2
*D12
 70
     1
 10
0.0
 20
0.0
 30
0.0
  3
*D12
  1

  0
LINE
  5
122
330
11F
100
AcDbEntity
  8
001
370
     9
100
AcDbLine
 10
106.439089
 20
104.951673
 30
0.0
 11
106.439089
 21
73.048496
 31
0.0
  0
LINE
  5
123
330
11F
100
AcDbEntity
  8
001
370
     9
100
AcDbLine
 10
101.439089
 20
104.951673
 30
0.0
 11
101.439089
 21
73.048496
 31
0.0
  0
LINE
  5
124
330
11F
100
AcDbEntity
  8
001
370
     9
100
AcDbLine
 10
106.439089
 20
76.485996
 30
0.0
 11
101.439089
 21
76.485996
 31
0.0
  0
POLYLINE
  5
125
330
11F
100
AcDbEntity
  8
001
370
     9
100
AcDb2dPolyline
 66
     1
 10
0.0
 20
0.0
 30
0.0
  0
VERTEX
  5
127
330
125
100
AcDbEntity
  8
001
370
     9
100
AcDbVertex
100
AcDb2dVertex
 10
108.314089
 20
75.983591
 30
0.0
  0
VERTEX
  5
128
330
125
100
AcDbEntity
  8
001
370
     9
100
AcDbVertex
100
AcDb2dVertex
 10
106.439089
 20
76.485996
 30
0.0
  0
VERTEX
  5
129
330
125
100
AcDbEntity
  8
001
370
     9
100
AcDbVertex
100
AcDb2dVertex
 10
108.314089
 20
76.988401
 30
0.0
  0
SEQEND
  5
126
330
125
100
AcDbEntity
  8
001
370
     9
  0
POLYLINE
  5
12A
330
11F
100
AcDbEntity
  8
001
370
     9
100
AcDb2dPolyline
 66
     1
 10
0.0
 20
0.0
 30
0.0
  0
VERTEX
  5
12C
330
12A
100
AcDbEntity
  8
001
370
     9
100
AcDbVertex
100
AcDb2dVertex
 10
99.564089
 20
76.988401
 30
0.0
  0
VERTEX
  5
12D
330
12A
100
AcDbEntity
  8
001
370
     9
100
AcDbVertex
100
AcDb2dVertex
 10
101.439089
 20
76.485996
 30
0.0
  0
VERTEX
  5
12E
330
12A
100
AcDbEntity
  8
001
370
     9
100
AcDbVertex
100
AcDb2dVertex
 10
99.564089
 20
75.983591
 30
0.0
  0
SEQEND
  5
12B
330
12A
100
AcDbEntity
  8
001
370
     9
  0
TEXT
  5
12F
330
11F
100
AcDbEntity
  8
001
370
    30
100
AcDbText
 10
101.439089
 20
77.735996
 30
0.0
 40
5.0
  1
５
 41
0.833333
100
AcDbText
  0
POINT
  5
130
330
11F
100
AcDbEntity
  8
001
370
     9
100
AcDbPoint
 10
106.439089
 20
104.951673
 30
0.0
  0
POINT
  5
131
330
11F
100
AcDbEntity
  8
001
370
     9
100
AcDbPoint
 10
101.439089
 20
104.951673
 30
0.0
  0
POINT
  5
132
330
11F
100
AcDbEntity
  8
001
370
     9
100
AcDbPoint
 10
101.439089
 20
76.485996
 30
0.0
  0
LINE
  5
133
330
11F
100
AcDbEntity
  8
001
370
     9
100
AcDbLine
 10
106.439089
 20
76.485996
 30
0.0
 11
109.564089
 21
76.485996
 31
0.0
  0
LINE
  5
134
330
11F
100
AcDbEntity
  8
001
370
     9
100
AcDbLine
 10
101.439089
 20
76.485996
 30
0.0
 11
98.314089
 21
76.485996
 31
0.0
  0
ENDBLK
  5
121
330
11F
100
AcDbEntity
  8
0
100
AcDbBlockEnd
  0
BLOCK
  5
136
330
135
100
AcDbEntity
  8
0
100
AcDbBlockBegin
  2
*D13
 70
     1
 10
0.0
 20
0.0
 30
0.0
  3
*D13
  1

  0
LINE
  5
138
330
135
100
AcDbEntity
  8
001
370
     9
100
AcDbLine
 10
186.439089
 20
109.451673
 30
0.0
 11
186.439089
 21
73.048496
 31
0.0
  0
LINE
  5
139
330
135
100
AcDbEntity
  8
001
370
     9
100
AcDbLine
 10
106.439089
 20
104.951673
 30
0.0
 11
106.439089
 21
73.048496
 31
0.0
  0
LINE
  5
13A
330
135
100
AcDbEntity
  8
001
370
     9
100
AcDbLine
 10
186.439089
 20
76.485996
 30
0.0
 11
106.439089
 21
76.485996
 31
0.0
  0
POLYLINE
  5
13B
330
135
100
AcDbEntity
  8
001
370
     9
100
AcDb2dPolyline
 66
     1
 10
0.0
 20
0.0
 30
0.0
  0
VERTEX
  5
13D
330
13B
100
AcDbEntity
  8
001
370
     9
100
AcDbVertex
100
AcDb2dVertex
 10
184.564089
 20
76.988401
 30
0.0
  0
VERTEX
  5
13E
330
13B
100
AcDbEntity
  8
001
370
     9
100
AcDbVertex
100
AcDb2dVertex
 10
186.439089
 20
76.485996
 30
0.0
  0
VERTEX
  5
13F
330
13B
100
AcDbEntity
  8
001
370
     9
100
AcDbVertex
100
AcDb2dVertex
 10
184.564089
 20
75.983591
 30
0.0
  0
SEQEND
  5
13C
330
13B
100
AcDbEntity
  8
001
370
     9
  0
POLYLINE
  5
140
330
135
100
AcDbEntity
  8
001
370
     9
100
AcDb2dPolyline
 66
     1
 10
0.0
 20
0.0
 30
0.0
  0
VERTEX
  5
142
330
140
100
AcDbEntity
  8
001
370
     9
100
AcDbVertex
100
AcDb2dVertex
 10
108.314089
 20
75.983591
 30
0.0
  0
VERTEX
  5
143
330
140
100
AcDbEntity
  8
001
370
     9
100
AcDbVertex
100
AcDb2dVertex
 10
106.439089
 20
76.485996
 30
0.0
  0
VERTEX
  5
144
330
140
100
AcDbEntity
  8
001
370
     9
100
AcDbVertex
100
AcDb2dVertex
 10
108.314089
 20
76.988401
 30
0.0
  0
SEQEND
  5
141
330
140
100
AcDbEntity
  8
001
370
     9
  0
TEXT
  5
145
330
135
100
AcDbEntity
  8
001
370
    30
100
AcDbText
 10
141.439089
 20
77.735996
 30
0.0
 40
5.0
  1
８０
 41
0.833333
100
AcDbText
  0
POINT
  5
146
330
135
100
AcDbEntity
  8
001
370
     9
100
AcDbPoint
 10
186.439089
 20
109.451673
 30
0.0
  0
POINT
  5
147
330
135
100
AcDbEntity
  8
001
370
     9
100
AcDbPoint
 10
106.439089
 20
104.951673
 30
0.0
  0
POINT
  5
148
330
135
100
AcDbEntity
  8
001
370
     9
100
AcDbPoint
 10
106.439089
 20
76.485996
 30
0.0
  0
ENDBLK
  5
137
330
135
100
AcDbEntity
  8
0
100
AcDbBlockEnd
  0
BLOCK
  5
14A
330
149
100
AcDbEntity
  8
0
100
AcDbBlockBegin
  2
*D14
 70
     1
 10
0.0
 20
0.0
 30
0.0
  3
*D14
  1

  0
LINE
  5
14C
330
149
100
AcDbEntity
  8
001
370
     9
100
AcDbLine
 10
66.439089
 20
118.915774
 30
0.0
 11
66.439089
 21
64.350352
 31
0.0
  0
LINE
  5
14D
330
149
100
AcDbEntity
  8
001
370
     9
100
AcDbLine
 10
186.439089
 20
109.451673
 30
0.0
 11
186.439089
 21
64.350352
 31
0.0
  0
LINE
  5
14E
330
149
100
AcDbEntity
  8
001
370
     9
100
AcDbLine
 10
66.439089
 20
67.787852
 30
0.0
 11
186.439089
 21
67.787852
 31
0.0
  0
POLYLINE
  5
14F
330
149
100
AcDbEntity
  8
001
370
     9
100
AcDb2dPolyline
 66
     1
 10
0.0
 20
0.0
 30
0.0
  0
VERTEX
  5
151
330
14F
100
AcDbEntity
  8
001
370
     9
100
AcDbVertex
100
AcDb2dVertex
 10
68.314089
 20
67.285447
 30
0.0
  0
VERTEX
  5
152
330
14F
100
AcDbEntity
  8
001
370
     9
100
AcDbVertex
100
AcDb2dVertex
 10
66.439089
 20
67.787852
 30
0.0
  0
VERTEX
  5
153
330
14F
100
AcDbEntity
  8
001
370
     9
100
AcDbVertex
100
AcDb2dVertex
 10
68.314089
 20
68.290256
 30
0.0
  0
SEQEND
  5
150
330
14F
100
AcDbEntity
  8
001
370
     9
  0
POLYLINE
  5
154
330
149
100
AcDbEntity
  8
001
370
     9
100
AcDb2dPolyline
 66
     1
 10
0.0
 20
0.0
 30
0.0
  0
VERTEX
  5
156
330
154
100
AcDbEntity
  8
001
370
     9
100
AcDbVertex
100
AcDb2dVertex
 10
184.564089
 20
68.290256
 30
0.0
  0
VERTEX
  5
157
330
154
100
AcDbEntity
  8
001
370
     9
100
AcDbVertex
100
AcDb2dVertex
 10
186.439089
 20
67.787852
 30
0.0
  0
VERTEX
  5
158
330
154
100
AcDbEntity
  8
001
370
     9
100
AcDbVertex
100
AcDb2dVertex
 10
184.564089
 20
67.285447
 30
0.0
  0
SEQEND
  5
155
330
154
100
AcDbEntity
  8
001
370
     9
  0
TEXT
  5
159
330
149
100
AcDbEntity
  8
001
370
    30
100
AcDbText
 10
118.939089
 20
69.037852
 30
0.0
 40
5.0
  1
１２０
 41
0.833333
100
AcDbText
  0
POINT
  5
15A
330
149
100
AcDbEntity
  8
001
370
     9
100
AcDbPoint
 10
66.439089
 20
118.915774
 30
0.0
  0
POINT
  5
15B
330
149
100
AcDbEntity
  8
001
370
     9
100
AcDbPoint
 10
186.439089
 20
109.451673
 30
0.0
  0
POINT
  5
15C
330
149
100
AcDbEntity
  8
001
370
     9
100
AcDbPoint
 10
186.439089
 20
67.787852
 30
0.0
  0
ENDBLK
  5
14B
330
149
100
AcDbEntity
  8
0
100
AcDbBlockEnd
  0
BLOCK
  5
15E
330
15D
100
AcDbEntity
  8
0
100
AcDbBlockBegin
  2
*D15
 70
     1
 10
0.0
 20
0.0
 30
0.0
  3
*D15
  1

  0
LINE
  5
160
330
15D
100
AcDbEntity
  8
001
370
     9
100
AcDbLine
 10
105.439089
 20
103.951673
 30
0.0
 11
137.251423
 21
103.951673
 31
0.0
  0
LINE
  5
161
330
15D
100
AcDbEntity
  8
001
370
     9
100
AcDbLine
 10
105.439089
 20
150.951673
 30
0.0
 11
137.251423
 21
150.951673
 31
0.0
  0
LINE
  5
162
330
15D
100
AcDbEntity
  8
001
370
     9
100
AcDbLine
 10
133.813923
 20
103.951673
 30
0.0
 11
133.813923
 21
150.951673
 31
0.0
  0
POLYLINE
  5
163
330
15D
100
AcDbEntity
  8
001
370
     9
100
AcDb2dPolyline
 66
     1
 10
0.0
 20
0.0
 30
0.0
  0
VERTEX
  5
165
330
163
100
AcDbEntity
  8
001
370
     9
100
AcDbVertex
100
AcDb2dVertex
 10
134.316327
 20
105.826673
 30
0.0
  0
VERTEX
  5
166
330
163
100
AcDbEntity
  8
001
370
     9
100
AcDbVertex
100
AcDb2dVertex
 10
133.813923
 20
103.951673
 30
0.0
  0
VERTEX
  5
167
330
163
100
AcDbEntity
  8
001
370
     9
100
AcDbVertex
100
AcDb2dVertex
 10
133.311518
 20
105.826673
 30
0.0
  0
SEQEND
  5
164
330
163
100
AcDbEntity
  8
001
370
     9
  0
POLYLINE
  5
168
330
15D
100
AcDbEntity
  8
001
370
     9
100
AcDb2dPolyline
 66
     1
 10
0.0
 20
0.0
 30
0.0
  0
VERTEX
  5
16A
330
168
100
AcDbEntity
  8
001
370
     9
100
AcDbVertex
100
AcDb2dVertex
 10
133.311518
 20
149.076673
 30
0.0
  0
VERTEX
  5
16B
330
168
100
AcDbEntity
  8
001
370
     9
100
AcDbVertex
100
AcDb2dVertex
 10
133.813923
 20
150.951673
 30
0.0
  0
VERTEX
  5
16C
330
168
100
AcDbEntity
  8
001
370
     9
100
AcDbVertex
100
AcDb2dVertex
 10
134.316327
 20
149.076673
 30
0.0
  0
SEQEND
  5
169
330
168
100
AcDbEntity
  8
001
370
     9
  0
TEXT
  5
16D
330
15D
100
AcDbEntity
  8
001
370
    30
100
AcDbText
 10
132.563923
 20
119.951673
 30
0.0
 40
5.0
  1
%%c４７
 50
90.000003
 41
0.882353
100
AcDbText
  0
POINT
  5
16E
330
15D
100
AcDbEntity
  8
001
370
     9
100
AcDbPoint
 10
105.439089
 20
103.951673
 30
0.0
  0
POINT
  5
16F
330
15D
100
AcDbEntity
  8
001
370
     9
100
AcDbPoint
 10
105.439089
 20
150.951673
 30
0.0
  0
POINT
  5
170
330
15D
100
AcDbEntity
  8
001
370
     9
100
AcDbPoint
 10
133.813923
 20
150.951673
 30
0.0
  0
ENDBLK
  5
15F
330
15D
100
AcDbEntity
  8
0
100
AcDbBlockEnd
  0
BLOCK
  5
172
330
171
100
AcDbEntity
  8
0
100
AcDbBlockBegin
  2
*D16
 70
     1
 10
0.0
 20
0.0
 30
0.0
  3
*D16
  1

  0
LINE
  5
174
330
171
100
AcDbEntity
  8
001
370
     9
100
AcDbLine
 10
66.439089
 20
35.592912
 30
0.0
 11
47.831897
 21
35.592912
 31
0.0
  0
LINE
  5
175
330
171
100
AcDbEntity
  8
001
370
     9
100
AcDbLine
 10
66.439089
 20
27.592912
 30
0.0
 11
47.831897
 21
27.592912
 31
0.0
  0
LINE
  5
176
330
171
100
AcDbEntity
  8
001
370
     9
100
AcDbLine
 10
51.269397
 20
35.592912
 30
0.0
 11
51.269397
 21
27.592912
 31
0.0
  0
POLYLINE
  5
177
330
171
100
AcDbEntity
  8
001
370
     9
100
AcDb2dPolyline
 66
     1
 10
0.0
 20
0.0
 30
0.0
  0
VERTEX
  5
179
330
177
100
AcDbEntity
  8
001
370
     9
100
AcDbVertex
100
AcDb2dVertex
 10
51.771802
 20
37.467912
 30
0.0
  0
VERTEX
  5
17A
330
177
100
AcDbEntity
  8
001
370
     9
100
AcDbVertex
100
AcDb2dVertex
 10
51.269397
 20
35.592912
 30
0.0
  0
VERTEX
  5
17B
330
177
100
AcDbEntity
  8
001
370
     9
100
AcDbVertex
100
AcDb2dVertex
 10
50.766993
 20
37.467912
 30
0.0
  0
SEQEND
  5
178
330
177
100
AcDbEntity
  8
001
370
     9
  0
POLYLINE
  5
17C
330
171
100
AcDbEntity
  8
001
370
     9
100
AcDb2dPolyline
 66
     1
 10
0.0
 20
0.0
 30
0.0
  0
VERTEX
  5
17E
330
17C
100
AcDbEntity
  8
001
370
     9
100
AcDbVertex
100
AcDb2dVertex
 10
50.766993
 20
25.717912
 30
0.0
  0
VERTEX
  5
17F
330
17C
100
AcDbEntity
  8
001
370
     9
100
AcDbVertex
100
AcDb2dVertex
 10
51.269397
 20
27.592912
 30
0.0
  0
VERTEX
  5
180
330
17C
100
AcDbEntity
  8
001
370
     9
100
AcDbVertex
100
AcDb2dVertex
 10
51.771802
 20
25.717912
 30
0.0
  0
SEQEND
  5
17D
330
17C
100
AcDbEntity
  8
001
370
     9
  0
TEXT
  5
181
330
171
100
AcDbEntity
  8
001
370
    30
100
AcDbText
 10
50.019397
 20
39.967912
 30
0.0
 40
5.0
  1
%%c８
 50
90.000003
 41
0.909091
100
AcDbText
  0
POINT
  5
182
330
171
100
AcDbEntity
  8
001
370
     9
100
AcDbPoint
 10
66.439089
 20
35.592912
 30
0.0
  0
POINT
  5
183
330
171
100
AcDbEntity
  8
001
370
     9
100
AcDbPoint
 10
66.439089
 20
27.592912
 30
0.0
  0
POINT
  5
184
330
171
100
AcDbEntity
  8
001
370
     9
100
AcDbPoint
 10
51.269397
 20
27.592912
 30
0.0
  0
LINE
  5
185
330
171
100
AcDbEntity
  8
001
370
     9
100
AcDbLine
 10
51.269397
 20
35.592912
 30
0.0
 11
51.269397
 21
53.717912
 31
0.0
  0
LINE
  5
186
330
171
100
AcDbEntity
  8
001
370
     9
100
AcDbLine
 10
51.269397
 20
27.592912
 30
0.0
 11
51.269397
 21
24.467912
 31
0.0
  0
ENDBLK
  5
173
330
171
100
AcDbEntity
  8
0
100
AcDbBlockEnd
  0
BLOCK
  5
188
330
187
100
AcDbEntity
  8
0
100
AcDbBlockBegin
  2
*D17
 70
     1
 10
0.0
 20
0.0
 30
0.0
  3
*D17
  1

  0
LINE
  5
18A
330
187
100
AcDbEntity
  8
001
370
     9
100
AcDbLine
 10
78.439089
 20
47.781505
 30
0.0
 11
78.439089
 21
56.870966
 31
0.0
  0
LINE
  5
18B
330
187
100
AcDbEntity
  8
001
370
     9
100
AcDbLine
 10
66.439089
 20
40.12881
 30
0.0
 11
66.439089
 21
56.870966
 31
0.0
  0
LINE
  5
18C
330
187
100
AcDbEntity
  8
001
370
     9
100
AcDbLine
 10
78.439089
 20
53.433466
 30
0.0
 11
66.439089
 21
53.433466
 31
0.0
  0
POLYLINE
  5
18D
330
187
100
AcDbEntity
  8
001
370
     9
100
AcDb2dPolyline
 66
     1
 10
0.0
 20
0.0
 30
0.0
  0
VERTEX
  5
18F
330
18D
100
AcDbEntity
  8
001
370
     9
100
AcDbVertex
100
AcDb2dVertex
 10
80.314089
 20
52.931062
 30
0.0
  0
VERTEX
  5
190
330
18D
100
AcDbEntity
  8
001
370
     9
100
AcDbVertex
100
AcDb2dVertex
 10
78.439089
 20
53.433466
 30
0.0
  0
VERTEX
  5
191
330
18D
100
AcDbEntity
  8
001
370
     9
100
AcDbVertex
100
AcDb2dVertex
 10
80.314089
 20
53.935871
 30
0.0
  0
SEQEND
  5
18E
330
18D
100
AcDbEntity
  8
001
370
     9
  0
POLYLINE
  5
192
330
187
100
AcDbEntity
  8
001
370
     9
100
AcDb2dPolyline
 66
     1
 10
0.0
 20
0.0
 30
0.0
  0
VERTEX
  5
194
330
192
100
AcDbEntity
  8
001
370
     9
100
AcDbVertex
100
AcDb2dVertex
 10
64.564089
 20
53.935871
 30
0.0
  0
VERTEX
  5
195
330
192
100
AcDbEntity
  8
001
370
     9
100
AcDbVertex
100
AcDb2dVertex
 10
66.439089
 20
53.433466
 30
0.0
  0
VERTEX
  5
196
330
192
100
AcDbEntity
  8
001
370
     9
100
AcDbVertex
100
AcDb2dVertex
 10
64.564089
 20
52.931062
 30
0.0
  0
SEQEND
  5
193
330
192
100
AcDbEntity
  8
001
370
     9
  0
TEXT
  5
197
330
187
100
AcDbEntity
  8
001
370
    30
100
AcDbText
 10
67.439089
 20
54.683466
 30
0.0
 40
5.0
  1
１２
 41
0.833333
100
AcDbText
  0
POINT
  5
198
330
187
100
AcDbEntity
  8
001
370
     9
100
AcDbPoint
 10
78.439089
 20
47.781505
 30
0.0
  0
POINT
  5
199
330
187
100
AcDbEntity
  8
001
370
     9
100
AcDbPoint
 10
66.439089
 20
40.12881
 30
0.0
  0
POINT
  5
19A
330
187
100
AcDbEntity
  8
001
370
     9
100
AcDbPoint
 10
66.439089
 20
53.433466
 30
0.0
  0
LINE
  5
19B
330
187
100
AcDbEntity
  8
001
370
     9
100
AcDbLine
 10
78.439089
 20
53.433466
 30
0.0
 11
81.564089
 21
53.433466
 31
0.0
  0
LINE
  5
19C
330
187
100
AcDbEntity
  8
001
370
     9
100
AcDbLine
 10
66.439089
 20
53.433466
 30
0.0
 11
63.314089
 21
53.433466
 31
0.0
  0
ENDBLK
  5
189
330
187
100
AcDbEntity
  8
0
100
AcDbBlockEnd
  0
BLOCK
  5
19E
330
19D
100
AcDbEntity
  8
0
100
AcDbBlockBegin
  2
*D18
 70
     1
 10
0.0
 20
0.0
 30
0.0
  3
*D18
  1

  0
LINE
  5
1A0
330
19D
100
AcDbEntity
  8
001
370
     9
100
AcDbLine
 10
94.439089
 20
47.781505
 30
0.0
 11
94.439089
 21
56.870966
 31
0.0
  0
LINE
  5
1A1
330
19D
100
AcDbEntity
  8
001
370
     9
100
AcDbLine
 10
78.439089
 20
47.781505
 30
0.0
 11
78.439089
 21
56.870966
 31
0.0
  0
LINE
  5
1A2
330
19D
100
AcDbEntity
  8
001
370
     9
100
AcDbLine
 10
94.439089
 20
53.433466
 30
0.0
 11
78.439089
 21
53.433466
 31
0.0
  0
POLYLINE
  5
1A3
330
19D
100
AcDbEntity
  8
001
370
     9
100
AcDb2dPolyline
 66
     1
 10
0.0
 20
0.0
 30
0.0
  0
VERTEX
  5
1A5
330
1A3
100
AcDbEntity
  8
001
370
     9
100
AcDbVertex
100
AcDb2dVertex
 10
92.564089
 20
53.935871
 30
0.0
  0
VERTEX
  5
1A6
330
1A3
100
AcDbEntity
  8
001
370
     9
100
AcDbVertex
100
AcDb2dVertex
 10
94.439089
 20
53.433466
 30
0.0
  0
VERTEX
  5
1A7
330
1A3
100
AcDbEntity
  8
001
370
     9
100
AcDbVertex
100
AcDb2dVertex
 10
92.564089
 20
52.931062
 30
0.0
  0
SEQEND
  5
1A4
330
1A3
100
AcDbEntity
  8
001
370
     9
  0
POLYLINE
  5
1A8
330
19D
100
AcDbEntity
  8
001
370
     9
100
AcDb2dPolyline
 66
     1
 10
0.0
 20
0.0
 30
0.0
  0
VERTEX
  5
1AA
330
1A8
100
AcDbEntity
  8
001
370
     9
100
AcDbVertex
100
AcDb2dVertex
 10
80.314089
 20
52.931062
 30
0.0
  0
VERTEX
  5
1AB
330
1A8
100
AcDbEntity
  8
001
370
     9
100
AcDbVertex
100
AcDb2dVertex
 10
78.439089
 20
53.433466
 30
0.0
  0
VERTEX
  5
1AC
330
1A8
100
AcDbEntity
  8
001
370
     9
100
AcDbVertex
100
AcDb2dVertex
 10
80.314089
 20
53.935871
 30
0.0
  0
SEQEND
  5
1A9
330
1A8
100
AcDbEntity
  8
001
370
     9
  0
TEXT
  5
1AD
330
19D
100
AcDbEntity
  8
001
370
    30
100
AcDbText
 10
81.439089
 20
54.683466
 30
0.0
 40
5.0
  1
１６
 41
0.833333
100
AcDbText
  0
POINT
  5
1AE
330
19D
100
AcDbEntity
  8
001
370
     9
100
AcDbPoint
 10
94.439089
 20
47.781505
 30
0.0
  0
POINT
  5
1AF
330
19D
100
AcDbEntity
  8
001
370
     9
100
AcDbPoint
 10
78.439089
 20
47.781505
 30
0.0
  0
POINT
  5
1B0
330
19D
100
AcDbEntity
  8
001
370
     9
100
AcDbPoint
 10
78.439089
 20
53.433466
 30
0.0
  0
ENDBLK
  5
19F
330
19D
100
AcDbEntity
  8
0
100
AcDbBlockEnd
  0
BLOCK
  5
1B2
330
1B1
100
AcDbEntity
  8
0
100
AcDbBlockBegin
  2
DIM-2
 70
     0
 10
0.0
 20
0.0
 30
0.0
  3
DIM-2
  1

  0
TEXT
  5
1B4
330
1B1
100
AcDbEntity
  8
001
370
    30
100
AcDbText
 10
58.158136
 20
163.756648
 30
0.0
 40
5.0
  1
２－Ｍ６
 41
0.833333
100
AcDbText
  0
POLYLINE
  5
1B5
330
1B1
100
AcDbEntity
  8
001
370
     9
100
AcDb2dPolyline
 66
     1
 10
0.0
 20
0.0
 30
0.0
  0
VERTEX
  5
1B7
330
1B5
100
AcDbEntity
  8
001
370
     9
100
AcDbVertex
100
AcDb2dVertex
 10
93.123056
 20
132.172488
 30
0.0
  0
VERTEX
  5
1B8
330
1B5
100
AcDbEntity
  8
001
370
     9
100
AcDbVertex
100
AcDb2dVertex
 10
93.341486
 20
130.243674
 30
0.0
  0
VERTEX
  5
1B9
330
1B5
100
AcDbEntity
  8
001
370
     9
100
AcDbVertex
100
AcDb2dVertex
 10
92.187913
 20
131.80486
 30
0.0
  0
SEQEND
  5
1B6
330
1B5
100
AcDbEntity
  8
001
370
     9
  0
POLYLINE
  5
1BA
330
1B1
100
AcDbEntity
  8
001
370
     9
100
AcDb2dPolyline
 66
     1
 10
0.0
 20
0.0
 30
0.0
  0
VERTEX
  5
1BC
330
1BA
100
AcDbEntity
  8
001
370
     9
100
AcDbVertex
100
AcDb2dVertex
 10
93.341486
 20
130.243674
 30
0.0
  0
VERTEX
  5
1BD
330
1BA
100
AcDbEntity
  8
001
370
     9
100
AcDbVertex
100
AcDb2dVertex
 10
80.658136
 20
162.506648
 30
0.0
  0
VERTEX
  5
1BE
330
1BA
100
AcDbEntity
  8
001
370
     9
100
AcDbVertex
100
AcDb2dVertex
 10
55.658136
 20
162.506648
 30
0.0
  0
SEQEND
  5
1BB
330
1BA
100
AcDbEntity
  8
001
370
     9
  0
ENDBLK
  5
1B3
330
1B1
100
AcDbEntity
  8
0
100
AcDbBlockEnd
  0
BLOCK
  5
1C0
330
1BF
100
AcDbEntity
  8
0
100
AcDbBlockBegin
  2
*D20
 70
     1
 10
0.0
 20
0.0
 30
0.0
  3
*D20
  1

  0
LINE
  5
1C2
330
1BF
100
AcDbEntity
  8
001
370
     9
100
AcDbLine
 10
71.439089
 20
118.710017
 30
0.0
 11
71.439089
 21
90.952366
 31
0.0
  0
LINE
  5
1C3
330
1BF
100
AcDbEntity
  8
001
370
     9
100
AcDbLine
 10
66.439089
 20
118.915774
 30
0.0
 11
66.439089
 21
90.952366
 31
0.0
  0
LINE
  5
1C4
330
1BF
100
AcDbEntity
  8
001
370
     9
100
AcDbLine
 10
71.439089
 20
94.389866
 30
0.0
 11
66.439089
 21
94.389866
 31
0.0
  0
POLYLINE
  5
1C5
330
1BF
100
AcDbEntity
  8
001
370
     9
100
AcDb2dPolyline
 66
     1
 10
0.0
 20
0.0
 30
0.0
  0
VERTEX
  5
1C7
330
1C5
100
AcDbEntity
  8
001
370
     9
100
AcDbVertex
100
AcDb2dVertex
 10
73.314089
 20
93.887461
 30
0.0
  0
VERTEX
  5
1C8
330
1C5
100
AcDbEntity
  8
001
370
     9
100
AcDbVertex
100
AcDb2dVertex
 10
71.439089
 20
94.389866
 30
0.0
  0
VERTEX
  5
1C9
330
1C5
100
AcDbEntity
  8
001
370
     9
100
AcDbVertex
100
AcDb2dVertex
 10
73.314089
 20
94.89227
 30
0.0
  0
SEQEND
  5
1C6
330
1C5
100
AcDbEntity
  8
001
370
     9
  0
POLYLINE
  5
1CA
330
1BF
100
AcDbEntity
  8
001
370
     9
100
AcDb2dPolyline
 66
     1
 10
0.0
 20
0.0
 30
0.0
  0
VERTEX
  5
1CC
330
1CA
100
AcDbEntity
  8
001
370
     9
100
AcDbVertex
100
AcDb2dVertex
 10
64.564089
 20
94.89227
 30
0.0
  0
VERTEX
  5
1CD
330
1CA
100
AcDbEntity
  8
001
370
     9
100
AcDbVertex
100
AcDb2dVertex
 10
66.439089
 20
94.389866
 30
0.0
  0
VERTEX
  5
1CE
330
1CA
100
AcDbEntity
  8
001
370
     9
100
AcDbVertex
100
AcDb2dVertex
 10
64.564089
 20
93.887461
 30
0.0
  0
SEQEND
  5
1CB
330
1CA
100
AcDbEntity
  8
001
370
     9
  0
TEXT
  5
1CF
330
1BF
100
AcDbEntity
  8
001
370
    30
100
AcDbText
 10
47.064089
 20
95.639866
 30
0.0
 40
5.0
  1
（５）
 41
0.833333
100
AcDbText
  0
POINT
  5
1D0
330
1BF
100
AcDbEntity
  8
001
370
     9
100
AcDbPoint
 10
71.439089
 20
118.710017
 30
0.0
  0
POINT
  5
1D1
330
1BF
100
AcDbEntity
  8
001
370
     9
100
AcDbPoint
 10
66.439089
 20
118.915774
 30
0.0
  0
POINT
  5
1D2
330
1BF
100
AcDbEntity
  8
001
370
     9
100
AcDbPoint
 10
66.439089
 20
94.389866
 30
0.0
  0
LINE
  5
1D3
330
1BF
100
AcDbEntity
  8
001
370
     9
100
AcDbLine
 10
71.439089
 20
94.389866
 30
0.0
 11
74.564089
 21
94.389866
 31
0.0
  0
LINE
  5
1D4
330
1BF
100
AcDbEntity
  8
001
370
     9
100
AcDbLine
 10
66.439089
 20
94.389866
 30
0.0
 11
43.314089
 21
94.389866
 31
0.0
  0
ENDBLK
  5
1C1
330
1BF
100
AcDbEntity
  8
0
100
AcDbBlockEnd
  0
BLOCK
  5
1D6
330
1D5
100
AcDbEntity
  8
0
100
AcDbBlockBegin
  2
*D21
 70
     1
 10
0.0
 20
0.0
 30
0.0
  3
*D21
  1

  0
LINE
  5
1D8
330
1D5
100
AcDbEntity
  8
001
370
     9
100
AcDbLine
 10
186.439089
 20
25.092912
 30
0.0
 11
211.874696
 21
25.092912
 31
0.0
  0
LINE
  5
1D9
330
1D5
100
AcDbEntity
  8
001
370
     9
100
AcDbLine
 10
186.439089
 20
38.092912
 30
0.0
 11
211.874696
 21
38.092912
 31
0.0
  0
LINE
  5
1DA
330
1D5
100
AcDbEntity
  8
001
370
     9
100
AcDbLine
 10
208.437196
 20
25.092912
 30
0.0
 11
208.437196
 21
38.092912
 31
0.0
  0
POLYLINE
  5
1DB
330
1D5
100
AcDbEntity
  8
001
370
     9
100
AcDb2dPolyline
 66
     1
 10
0.0
 20
0.0
 30
0.0
  0
VERTEX
  5
1DD
330
1DB
100
AcDbEntity
  8
001
370
     9
100
AcDbVertex
100
AcDb2dVertex
 10
207.934791
 20
23.217912
 30
0.0
  0
VERTEX
  5
1DE
330
1DB
100
AcDbEntity
  8
001
370
     9
100
AcDbVertex
100
AcDb2dVertex
 10
208.437196
 20
25.092912
 30
0.0
  0
VERTEX
  5
1DF
330
1DB
100
AcDbEntity
  8
001
370
     9
100
AcDbVertex
100
AcDb2dVertex
 10
208.939601
 20
23.217912
 30
0.0
  0
SEQEND
  5
1DC
330
1DB
100
AcDbEntity
  8
001
370
     9
  0
POLYLINE
  5
1E0
330
1D5
100
AcDbEntity
  8
001
370
     9
100
AcDb2dPolyline
 66
     1
 10
0.0
 20
0.0
 30
0.0
  0
VERTEX
  5
1E2
330
1E0
100
AcDbEntity
  8
001
370
     9
100
AcDbVertex
100
AcDb2dVertex
 10
208.939601
 20
39.967912
 30
0.0
  0
VERTEX
  5
1E3
330
1E0
100
AcDbEntity
  8
001
370
     9
100
AcDbVertex
100
AcDb2dVertex
 10
208.437196
 20
38.092912
 30
0.0
  0
VERTEX
  5
1E4
330
1E0
100
AcDbEntity
  8
001
370
     9
100
AcDbVertex
100
AcDb2dVertex
 10
207.934791
 20
39.967912
 30
0.0
  0
SEQEND
  5
1E1
330
1E0
100
AcDbEntity
  8
001
370
     9
  0
TEXT
  5
1E5
330
1D5
100
AcDbEntity
  8
001
370
    30
100
AcDbText
 10
207.187196
 20
42.467912
 30
0.0
 40
5.0
  1
（%%c１３）
 50
90.000003
 41
0.862069
100
AcDbText
  0
POINT
  5
1E6
330
1D5
100
AcDbEntity
  8
001
370
     9
100
AcDbPoint
 10
186.439089
 20
25.092912
 30
0.0
  0
POINT
  5
1E7
330
1D5
100
AcDbEntity
  8
001
370
     9
100
AcDbPoint
 10
186.439089
 20
38.092912
 30
0.0
  0
POINT
  5
1E8
330
1D5
100
AcDbEntity
  8
001
370
     9
100
AcDbPoint
 10
208.437196
 20
38.092912
 30
0.0
  0
LINE
  5
1E9
330
1D5
100
AcDbEntity
  8
001
370
     9
100
AcDbLine
 10
208.437196
 20
25.092912
 30
0.0
 11
208.437196
 21
21.967912
 31
0.0
  0
LINE
  5
1EA
330
1D5
100
AcDbEntity
  8
001
370
     9
100
AcDbLine
 10
208.437196
 20
38.092912
 30
0.0
 11
208.437196
 21
71.217912
 31
0.0
  0
ENDBLK
  5
1D7
330
1D5
100
AcDbEntity
  8
0
100
AcDbBlockEnd
  0
ENDSEC
  0
SECTION
  2
ENTITIES
  0
INSERT
  5
1EB
330
1F
100
AcDbEntity
  8
001
  6
ByBlock
 62
     0
370
    -2
100
AcDbBlockReference
  2
JZB-1
 10
0.0
 20
0.0
 30
0.0
  0
DIMENSION
  5
1EC
330
1F
100
AcDbEntity
  8
001
370
     9
100
AcDbDimension
  2
*D2
 10
210.673118
 20
147.451673
 30
0.0
 11
206.923117
 21
127.451673
 31
0.0
 70
   160
 71
     5
 42
-1.0
  3
Standard
100
AcDbAlignedDimension
 13
184.439089
 23
107.451673
 33
0.0
 14
184.439089
 24
147.451673
 34
0.0
 50
90.0
100
AcDbRotatedDimension
  0
DIMENSION
  5
1ED
330
1F
100
AcDbEntity
  8
001
370
     9
100
AcDbDimension
  2
*D3
 10
184.439089
 20
145.451673
 30
0.0
 11
193.603953
 21
159.530323
 31
0.0
 70
   164
 71
     5
 42
-1.0
  3
Standard
100
AcDbRadialDimension
 15
185.876845
 25
146.841946
 35
0.0
 40
0.0
  0
DIMENSION
  5
1EE
330
1F
100
AcDbEntity
  8
001
370
     9
100
AcDbDimension
  2
*D4
 10
234.055628
 20
86.461931
 30
0.0
 11
253.205628
 21
90.211931
 31
0.0
 70
   160
 71
     5
 42
-1.0
  3
Standard
100
AcDbAlignedDimension
 13
272.355628
 23
127.451673
 33
0.0
 14
234.055628
 24
119.382596
 34
0.0
 50
180.0
100
AcDbRotatedDimension
  0
DIMENSION
  5
1EF
330
1F
100
AcDbEntity
  8
001
370
     9
100
AcDbDimension
  2
*D5
 10
49.59475
 20
139.451673
 30
0.0
 11
45.84475
 21
127.451673
 31
0.0
 70
   160
 71
     5
 42
-1.0
  3
Standard
100
AcDbAlignedDimension
 13
71.707038
 23
115.451673
 33
0.0
 14
71.707038
 24
139.451673
 34
0.0
 50
90.0
100
AcDbRotatedDimension
  0
DIMENSION
  5
1F0
330
1F
100
AcDbEntity
  8
001
370
     9
100
AcDbDimension
  2
*D6
 10
36.803362
 20
141.451673
 30
0.0
 11
33.053361
 21
127.451673
 31
0.0
 70
   160
 71
     5
 42
-1.0
  3
Standard
100
AcDbAlignedDimension
 13
87.439089
 23
113.451673
 33
0.0
 14
87.439089
 24
141.451673
 34
0.0
 50
90.0
100
AcDbRotatedDimension
  0
DIMENSION
  5
1F1
330
1F
100
AcDbEntity
  8
001
370
     9
100
AcDbDimension
  2
*D7
 10
50.654479
 20
127.451673
 30
0.0
 11
74.064416
 21
153.480187
 31
0.0
 70
    34
 71
     5
 42
-1.0
  3
Standard
100
AcDb2LineAngularDimension
 13
71.207038
 23
139.317698
 33
0.0
 14
50.654479
 24
127.451673
 34
0.0
 15
57.061854
 25
127.451673
 35
0.0
 16
80.846681
 26
135.541649
 36
0.0
  0
TEXT
  5
1F2
330
1F
100
AcDbEntity
  8
001
370
    30
100
AcDbText
 10
73.500088
 20
102.280438
 30
0.0
 40
5.0
  1
Ｃ１
 50
45.000001
 41
0.833333
100
AcDbText
  0
POLYLINE
  5
1F3
330
1F
100
AcDbEntity
  8
001
370
     9
100
AcDb2dPolyline
 66
     1
 10
0.0
 20
0.0
 30
0.0
  0
VERTEX
  5
1F5
330
1F3
100
AcDbEntity
  8
001
370
     9
100
AcDbVertex
100
AcDb2dVertex
 10
85.25801
 20
112.981101
 30
0.0
  0
VERTEX
  5
1F6
330
1F3
100
AcDbEntity
  8
001
370
     9
100
AcDbVertex
100
AcDb2dVertex
 10
86.939089
 20
113.951673
 30
0.0
  0
VERTEX
  5
1F7
330
1F3
100
AcDbEntity
  8
001
370
     9
100
AcDbVertex
100
AcDb2dVertex
 10
85.968518
 20
112.270594
 30
0.0
  0
SEQEND
  5
1F4
330
1F3
100
AcDbEntity
  8
001
370
     9
  0
LINE
  5
1F8
330
1F
100
AcDbEntity
  8
001
370
     9
100
AcDbLine
 10
86.939089
 20
113.951673
 30
0.0
 11
71.732321
 21
98.744904
 31
0.0
  0
DIMENSION
  5
1F9
330
1F
100
AcDbEntity
  8
001
370
     9
100
AcDbDimension
  2
*D8
 10
105.439089
 20
149.951673
 30
0.0
 11
113.839039
 21
163.364129
 31
0.0
 70
   164
 71
     5
 42
-1.0
  3
Standard
100
AcDbRadialDimension
 15
106.155574
 25
150.649275
 35
0.0
 40
0.0
  0
DIMENSION
  5
1FA
330
1F
100
AcDbEntity
  8
001
370
     9
100
AcDbDimension
  2
*D9
 10
67.439089
 20
118.915774
 30
0.0
 11
46.03134
 21
104.411572
 31
0.0
 70
   164
 71
     5
 42
-1.0
  3
Standard
100
AcDbRadialDimension
 15
66.701304
 25
118.240739
 35
0.0
 40
0.0
  0
DIMENSION
  5
1FB
330
1F
100
AcDbEntity
  8
001
370
     9
100
AcDbDimension
  2
*D10
 10
66.439089
 20
85.61395
 30
0.0
 11
57.064089
 21
89.36395
 31
0.0
 70
   160
 71
     5
 42
-1.0
  3
Standard
100
AcDbAlignedDimension
 13
86.439089
 23
114.451673
 33
0.0
 14
66.439089
 24
118.915774
 34
0.0
 50
180.0
100
AcDbRotatedDimension
  0
DIMENSION
  5
1FC
330
1F
100
AcDbEntity
  8
001
370
     9
100
AcDbDimension
  2
*D11
 10
66.439089
 20
76.485996
 30
0.0
 11
83.939089
 21
80.235996
 31
0.0
 70
   160
 71
     5
 42
-1.0
  3
Standard
100
AcDbAlignedDimension
 13
101.439089
 23
104.951673
 33
0.0
 14
66.439089
 24
118.915774
 34
0.0
 50
180.0
100
AcDbRotatedDimension
  0
DIMENSION
  5
1FD
330
1F
100
AcDbEntity
  8
001
370
     9
100
AcDbDimension
  2
*D12
 10
101.439089
 20
76.485996
 30
0.0
 11
103.939089
 21
80.235996
 31
0.0
 70
   160
 71
     5
 42
-1.0
  3
Standard
100
AcDbAlignedDimension
 13
106.439089
 23
104.951673
 33
0.0
 14
101.439089
 24
104.951673
 34
0.0
 50
180.0
100
AcDbRotatedDimension
  0
DIMENSION
  5
1FE
330
1F
100
AcDbEntity
  8
001
370
     9
100
AcDbDimension
  2
*D13
 10
106.439089
 20
76.485996
 30
0.0
 11
146.439089
 21
80.235996
 31
0.0
 70
   160
 71
     5
 42
-1.0
  3
Standard
100
AcDbAlignedDimension
 13
186.439089
 23
109.451673
 33
0.0
 14
106.439089
 24
104.951673
 34
0.0
 50
180.0
100
AcDbRotatedDimension
  0
DIMENSION
  5
1FF
330
1F
100
AcDbEntity
  8
001
370
     9
100
AcDbDimension
  2
*D14
 10
186.439089
 20
67.787852
 30
0.0
 11
126.439089
 21
71.537852
 31
0.0
 70
   160
 71
     5
 42
-1.0
  3
Standard
100
AcDbAlignedDimension
 13
66.439089
 23
118.915774
 33
0.0
 14
186.439089
 24
109.451673
 34
0.0
100
AcDbRotatedDimension
  0
DIMENSION
  5
200
330
1F
100
AcDbEntity
  8
001
370
     9
100
AcDbDimension
  2
*D15
 10
133.813923
 20
150.951673
 30
0.0
 11
130.063922
 21
127.451673
 31
0.0
 70
   160
 71
     5
 42
-1.0
  3
Standard
100
AcDbAlignedDimension
 13
105.439089
 23
103.951673
 33
0.0
 14
105.439089
 24
150.951673
 34
0.0
 50
90.0
100
AcDbRotatedDimension
  0
DIMENSION
  5
201
330
1F
100
AcDbEntity
  8
001
370
     9
100
AcDbDimension
  2
*D16
 10
51.269397
 20
27.592912
 30
0.0
 11
47.519397
 21
44.967912
 31
0.0
 70
   160
 71
     5
 42
-1.0
  3
Standard
100
AcDbAlignedDimension
 13
66.439089
 23
35.592912
 33
0.0
 14
66.439089
 24
27.592912
 34
0.0
 50
270.0
100
AcDbRotatedDimension
  0
DIMENSION
  5
202
330
1F
100
AcDbEntity
  8
001
370
     9
100
AcDbDimension
  2
*D17
 10
66.439089
 20
53.433466
 30
0.0
 11
72.439089
 21
57.183466
 31
0.0
 70
   160
 71
     5
 42
-1.0
  3
Standard
100
AcDbAlignedDimension
 13
78.439089
 23
47.781505
 33
0.0
 14
66.439089
 24
40.12881
 34
0.0
 50
180.0
100
AcDbRotatedDimension
  0
DIMENSION
  5
203
330
1F
100
AcDbEntity
  8
001
370
     9
100
AcDbDimension
  2
*D18
 10
78.439089
 20
53.433466
 30
0.0
 11
86.439089
 21
57.183466
 31
0.0
 70
   160
 71
     5
 42
-1.0
  3
Standard
100
AcDbAlignedDimension
 13
94.439089
 23
47.781505
 33
0.0
 14
78.439089
 24
47.781505
 34
0.0
 50
180.0
100
AcDbRotatedDimension
  0
INSERT
  5
204
330
1F
100
AcDbEntity
  8
001
  6
ByBlock
 62
     0
370
    -2
100
AcDbBlockReference
  2
DIM-2
 10
0.0
 20
0.0
 30
0.0
  0
DIMENSION
  5
205
330
1F
100
AcDbEntity
  8
001
370
     9
100
AcDbDimension
  2
*D20
 10
66.439089
 20
94.389866
 30
0.0
 11
54.564089
 21
98.139866
 31
0.0
 70
   160
 71
     5
 42
-1.0
  3
Standard
100
AcDbAlignedDimension
 13
71.439089
 23
118.710017
 33
0.0
 14
66.439089
 24
118.915774
 34
0.0
 50
180.0
100
AcDbRotatedDimension
  0
DIMENSION
  5
206
330
1F
100
AcDbEntity
  8
001
370
     9
100
AcDbDimension
  2
*D21
 10
208.437196
 20
38.092912
 30
0.0
 11
204.687195
 21
54.967912
 31
0.0
 70
   160
 71
     5
 42
-1.0
  3
Standard
100
AcDbAlignedDimension
 13
186.439089
 23
25.092912
 33
0.0
 14
186.439089
 24
38.092912
 34
0.0
 50
90.0
100
AcDbRotatedDimension
  0
ARC
  5
207
330
1F
100
AcDbEntity
  8
001
 62
   253
370
    50
100
AcDbCircle
 10
105.439089
 20
149.951673
 30
0.0
 40
1.0
100
AcDbArc
 50
0.0
 51
90.0
  0
LINE
  5
208
330
1F
100
AcDbEntity
  8
001
 62
   253
370
    50
100
AcDbLine
 10
106.439089
 20
104.951673
 30
0.0
 11
106.439089
 21
149.951673
 31
0.0
  0
LINE
  5
209
330
1F
100
AcDbEntity
  8
001
 62
   253
370
    50
100
AcDbLine
 10
102.439089
 20
150.951673
 30
0.0
 11
105.439089
 21
150.951673
 31
0.0
  0
LINE
  5
20A
330
1F
100
AcDbEntity
  8
001
 62
   253
370
    50
100
AcDbLine
 10
184.439089
 20
135.520749
 30
0.0
 11
109.439089
 21
135.520749
 31
0.0
  0
POLYLINE
  5
20B
330
1F
100
AcDbEntity
  8
001
 62
   253
370
    50
100
AcDb2dPolyline
 66
     1
 10
0.0
 20
0.0
 30
0.0
  0
VERTEX
  5
20D
330
20B
100
AcDbEntity
  8
001
 62
   253
370
    50
100
AcDbVertex
100
AcDb2dVertex
 10
184.439089
 20
119.382596
 30
0.0
  0
VERTEX
  5
20E
330
20B
100
AcDbEntity
  8
001
 62
   253
370
    50
100
AcDbVertex
100
AcDb2dVertex
 10
184.499995
 20
119.385841
 30
0.0
  0
VERTEX
  5
20F
330
20B
100
AcDbEntity
  8
001
 62
   253
370
    50
100
AcDbVertex
100
AcDb2dVertex
 10
184.560587
 20
119.391756
 30
0.0
  0
VERTEX
  5
210
330
20B
100
AcDbEntity
  8
001
 62
   253
370
    50
100
AcDbVertex
100
AcDb2dVertex
 10
184.694524
 20
119.4227
 30
0.0
  0
VERTEX
  5
211
330
20B
100
AcDbEntity
  8
001
 62
   253
370
    50
100
AcDbVertex
100
AcDb2dVertex
 10
184.822378
 20
119.474924
 30
0.0
  0
VERTEX
  5
212
330
20B
100
AcDbEntity
  8
001
 62
   253
370
    50
100
AcDbVertex
100
AcDb2dVertex
 10
184.911271
 20
119.523876
 30
0.0
  0
VERTEX
  5
213
330
20B
100
AcDbEntity
  8
001
 62
   253
370
    50
100
AcDbVertex
100
AcDb2dVertex
 10
184.995359
 20
119.580287
 30
0.0
  0
VERTEX
  5
214
330
20B
100
AcDbEntity
  8
001
 62
   253
370
    50
100
AcDbVertex
100
AcDb2dVertex
 10
185.074891
 20
119.643337
 30
0.0
  0
VERTEX
  5
215
330
20B
100
AcDbEntity
  8
001
 62
   253
370
    50
100
AcDbVertex
100
AcDb2dVertex
 10
185.149863
 20
119.711868
 30
0.0
  0
VERTEX
  5
216
330
20B
100
AcDbEntity
  8
001
 62
   253
370
    50
100
AcDbVertex
100
AcDb2dVertex
 10
185.266582
 20
119.837354
 30
0.0
  0
VERTEX
  5
217
330
20B
100
AcDbEntity
  8
001
 62
   253
370
    50
100
AcDbVertex
100
AcDb2dVertex
 10
185.371856
 20
119.972663
 30
0.0
  0
VERTEX
  5
218
330
20B
100
AcDbEntity
  8
001
 62
   253
370
    50
100
AcDbVertex
100
AcDb2dVertex
 10
185.467027
 20
120.115643
 30
0.0
  0
VERTEX
  5
219
330
20B
100
AcDbEntity
  8
001
 62
   253
370
    50
100
AcDbVertex
100
AcDb2dVertex
 10
185.553304
 20
120.264167
 30
0.0
  0
VERTEX
  5
21A
330
20B
100
AcDbEntity
  8
001
 62
   253
370
    50
100
AcDbVertex
100
AcDb2dVertex
 10
185.685141
 20
120.530112
 30
0.0
  0
VERTEX
  5
21B
330
20B
100
AcDbEntity
  8
001
 62
   253
370
    50
100
AcDbVertex
100
AcDb2dVertex
 10
185.797636
 20
120.804917
 30
0.0
  0
VERTEX
  5
21C
330
20B
100
AcDbEntity
  8
001
 62
   253
370
    50
100
AcDbVertex
100
AcDb2dVertex
 10
185.893724
 20
121.087423
 30
0.0
  0
VERTEX
  5
21D
330
20B
100
AcDbEntity
  8
001
 62
   253
370
    50
100
AcDbVertex
100
AcDb2dVertex
 10
185.975232
 20
121.374431
 30
0.0
  0
VERTEX
  5
21E
330
20B
100
AcDbEntity
  8
001
 62
   253
370
    50
100
AcDbVertex
100
AcDb2dVertex
 10
186.044622
 20
121.66433
 30
0.0
  0
VERTEX
  5
21F
330
20B
100
AcDbEntity
  8
001
 62
   253
370
    50
100
AcDbVertex
100
AcDb2dVertex
 10
186.104596
 20
121.956359
 30
0.0
  0
VERTEX
  5
220
330
20B
100
AcDbEntity
  8
001
 62
   253
370
    50
100
AcDbVertex
100
AcDb2dVertex
 10
186.21702
 20
122.634557
 30
0.0
  0
VERTEX
  5
221
330
20B
100
AcDbEntity
  8
001
 62
   253
370
    50
100
AcDbVertex
100
AcDb2dVertex
 10
186.298691
 20
123.317244
 30
0.0
  0
VERTEX
  5
222
330
20B
100
AcDbEntity
  8
001
 62
   253
370
    50
100
AcDbVertex
100
AcDb2dVertex
 10
186.354731
 20
124.003829
 30
0.0
  0
VERTEX
  5
223
330
20B
100
AcDbEntity
  8
001
 62
   253
370
    50
100
AcDbVertex
100
AcDb2dVertex
 10
186.389743
 20
124.691774
 30
0.0
  0
VERTEX
  5
224
330
20B
100
AcDbEntity
  8
001
 62
   253
370
    50
100
AcDbVertex
100
AcDb2dVertex
 10
186.408562
 20
125.381985
 30
0.0
  0
VERTEX
  5
225
330
20B
100
AcDbEntity
  8
001
 62
   253
370
    50
100
AcDbVertex
100
AcDb2dVertex
 10
186.416188
 20
126.072424
 30
0.0
  0
VERTEX
  5
226
330
20B
100
AcDbEntity
  8
001
 62
   253
370
    50
100
AcDbVertex
100
AcDb2dVertex
 10
186.417534
 20
126.762053
 30
0.0
  0
VERTEX
  5
227
330
20B
100
AcDbEntity
  8
001
 62
   253
370
    50
100
AcDbVertex
100
AcDb2dVertex
 10
186.416461
 20
127.451673
 30
0.0
  0
VERTEX
  5
228
330
20B
100
AcDbEntity
  8
001
 62
   253
370
    50
100
AcDbVertex
100
AcDb2dVertex
 10
186.41528
 20
128.118928
 30
0.0
  0
VERTEX
  5
229
330
20B
100
AcDbEntity
  8
001
 62
   253
370
    50
100
AcDbVertex
100
AcDb2dVertex
 10
186.411153
 20
128.786171
 30
0.0
  0
VERTEX
  5
22A
330
20B
100
AcDbEntity
  8
001
 62
   253
370
    50
100
AcDbVertex
100
AcDb2dVertex
 10
186.400311
 20
129.453339
 30
0.0
  0
VERTEX
  5
22B
330
20B
100
AcDbEntity
  8
001
 62
   253
370
    50
100
AcDbVertex
100
AcDb2dVertex
 10
186.380031
 20
130.120294
 30
0.0
  0
VERTEX
  5
22C
330
20B
100
AcDbEntity
  8
001
 62
   253
370
    50
100
AcDbVertex
100
AcDb2dVertex
 10
186.347738
 20
130.786442
 30
0.0
  0
VERTEX
  5
22D
330
20B
100
AcDbEntity
  8
001
 62
   253
370
    50
100
AcDbVertex
100
AcDb2dVertex
 10
186.300296
 20
131.451673
 30
0.0
  0
VERTEX
  5
22E
330
20B
100
AcDbEntity
  8
001
 62
   253
370
    50
100
AcDbVertex
100
AcDb2dVertex
 10
186.260309
 20
131.874727
 30
0.0
  0
VERTEX
  5
22F
330
20B
100
AcDbEntity
  8
001
 62
   253
370
    50
100
AcDbVertex
100
AcDb2dVertex
 10
186.209829
 20
132.296639
 30
0.0
  0
VERTEX
  5
230
330
20B
100
AcDbEntity
  8
001
 62
   253
370
    50
100
AcDbVertex
100
AcDb2dVertex
 10
186.146069
 20
132.716574
 30
0.0
  0
VERTEX
  5
231
330
20B
100
AcDbEntity
  8
001
 62
   253
370
    50
100
AcDbVertex
100
AcDb2dVertex
 10
186.066982
 20
133.133893
 30
0.0
  0
VERTEX
  5
232
330
20B
100
AcDbEntity
  8
001
 62
   253
370
    50
100
AcDbVertex
100
AcDb2dVertex
 10
186.003732
 20
133.413658
 30
0.0
  0
VERTEX
  5
233
330
20B
100
AcDbEntity
  8
001
 62
   253
370
    50
100
AcDbVertex
100
AcDb2dVertex
 10
185.930574
 20
133.690976
 30
0.0
  0
VERTEX
  5
234
330
20B
100
AcDbEntity
  8
001
 62
   253
370
    50
100
AcDbVertex
100
AcDb2dVertex
 10
185.84525
 20
133.965089
 30
0.0
  0
VERTEX
  5
235
330
20B
100
AcDbEntity
  8
001
 62
   253
370
    50
100
AcDbVertex
100
AcDb2dVertex
 10
185.745244
 20
134.234232
 30
0.0
  0
VERTEX
  5
236
330
20B
100
AcDbEntity
  8
001
 62
   253
370
    50
100
AcDbVertex
100
AcDb2dVertex
 10
185.628683
 20
134.494887
 30
0.0
  0
VERTEX
  5
237
330
20B
100
AcDbEntity
  8
001
 62
   253
370
    50
100
AcDbVertex
100
AcDb2dVertex
 10
185.492525
 20
134.745722
 30
0.0
  0
VERTEX
  5
238
330
20B
100
AcDbEntity
  8
001
 62
   253
370
    50
100
AcDbVertex
100
AcDb2dVertex
 10
185.412613
 20
134.871693
 30
0.0
  0
VERTEX
  5
239
330
20B
100
AcDbEntity
  8
001
 62
   253
370
    50
100
AcDbVertex
100
AcDb2dVertex
 10
185.325567
 20
134.992792
 30
0.0
  0
VERTEX
  5
23A
330
20B
100
AcDbEntity
  8
001
 62
   253
370
    50
100
AcDbVertex
100
AcDb2dVertex
 10
185.230519
 20
135.107388
 30
0.0
  0
VERTEX
  5
23B
330
20B
100
AcDbEntity
  8
001
 62
   253
370
    50
100
AcDbVertex
100
AcDb2dVertex
 10
185.126406
 20
135.213916
 30
0.0
  0
VERTEX
  5
23C
330
20B
100
AcDbEntity
  8
001
 62
   253
370
    50
100
AcDbVertex
100
AcDb2dVertex
 10
184.983971
 20
135.331199
 30
0.0
  0
VERTEX
  5
23D
330
20B
100
AcDbEntity
  8
001
 62
   253
370
    50
100
AcDbVertex
100
AcDb2dVertex
 10
184.825925
 20
135.42668
 30
0.0
  0
VERTEX
  5
23E
330
20B
100
AcDbEntity
  8
001
 62
   253
370
    50
100
AcDbVertex
100
AcDb2dVertex
 10
184.687885
 20
135.482716
 30
0.0
  0
VERTEX
  5
23F
330
20B
100
AcDbEntity
  8
001
 62
   253
370
    50
100
AcDbVertex
100
AcDb2dVertex
 10
184.543093
 20
135.51404
 30
0.0
  0
VERTEX
  5
240
330
20B
100
AcDbEntity
  8
001
 62
   253
370
    50
100
AcDbVertex
100
AcDb2dVertex
 10
184.491188
 20
135.518359
 30
0.0
  0
VERTEX
  5
241
330
20B
100
AcDbEntity
  8
001
 62
   253
370
    50
100
AcDbVertex
100
AcDb2dVertex
 10
184.439089
 20
135.520749
 30
0.0
  0
SEQEND
  5
20C
330
20B
100
AcDbEntity
  8
001
370
    50
  0
LINE
  5
242
330
1F
100
AcDbEntity
  8
001
 62
   253
370
    50
100
AcDbLine
 10
109.439089
 20
119.382596
 30
0.0
 11
184.439089
 21
119.382596
 31
0.0
  0
LINE
  5
243
330
1F
100
AcDbEntity
  8
001
 62
   253
370
    50
100
AcDbLine
 10
106.439089
 20
120.716689
 30
0.0
 11
109.439089
 21
120.716689
 31
0.0
  0
LINE
  5
244
330
1F
100
AcDbEntity
  8
001
 62
   253
370
    50
100
AcDbLine
 10
109.439089
 20
134.186656
 30
0.0
 11
106.439089
 21
134.186656
 31
0.0
  0
ARC
  5
245
330
1F
100
AcDbEntity
  8
001
 62
   253
370
    50
100
AcDbCircle
 10
184.439089
 20
145.451673
 30
0.0
 40
2.0
100
AcDbArc
 50
0.0
 51
90.0
  0
ARC
  5
246
330
1F
100
AcDbEntity
  8
001
 62
   253
370
    50
100
AcDbCircle
 10
184.439089
 20
109.451673
 30
0.0
 40
2.0
100
AcDbArc
 50
270.0
 51
0.0
  0
LINE
  5
247
330
1F
100
AcDbEntity
  8
001
 62
   253
370
    50
100
AcDbLine
 10
186.439089
 20
145.451673
 30
0.0
 11
186.439089
 21
109.451673
 31
0.0
  0
LINE
  5
248
330
1F
100
AcDbEntity
  8
001
 62
   253
370
    50
100
AcDbLine
 10
109.439089
 20
146.951673
 30
0.0
 11
106.439089
 21
146.951673
 31
0.0
  0
LINE
  5
249
330
1F
100
AcDbEntity
  8
001
 62
   253
370
    50
100
AcDbLine
 10
106.439089
 20
107.951673
 30
0.0
 11
109.439089
 21
107.951673
 31
0.0
  0
LINE
  5
24A
330
1F
100
AcDbEntity
  8
001
 62
   253
370
    50
100
AcDbLine
 10
109.439089
 20
107.451673
 30
0.0
 11
109.439089
 21
120.716689
 31
0.0
  0
LINE
  5
24B
330
1F
100
AcDbEntity
  8
001
 62
   253
370
    50
100
AcDbLine
 10
184.439089
 20
147.451673
 30
0.0
 11
109.439089
 21
147.451673
 31
0.0
  0
LINE
  5
24C
330
1F
100
AcDbEntity
  8
001
 62
   253
370
    50
100
AcDbLine
 10
109.439089
 20
107.451673
 30
0.0
 11
184.439089
 21
107.451673
 31
0.0
  0
LINE
  5
24D
330
1F
100
AcDbEntity
  8
001
 62
   253
370
    50
100
AcDbLine
 10
109.439089
 20
134.186656
 30
0.0
 11
109.439089
 21
147.451673
 31
0.0
  0
ARC
  5
24E
330
1F
100
AcDbEntity
  8
001
 62
   253
370
    50
100
AcDbCircle
 10
252.355628
 20
127.451673
 30
0.0
 40
20.0
100
AcDbArc
 50
203.794273
 51
156.205727
  0
LINE
  5
24F
330
1F
100
AcDbEntity
  8
001
 62
   253
370
    50
100
AcDbLine
 10
234.055628
 20
119.382596
 30
0.0
 11
234.055628
 21
135.520749
 31
0.0
  0
CIRCLE
  5
250
330
1F
100
AcDbEntity
  8
001
 62
   253
370
    50
100
AcDbCircle
 10
252.355628
 20
127.451673
 30
0.0
 40
24.0
  0
ARC
  5
251
330
1F
100
AcDbEntity
  8
001
 62
   253
370
    50
100
AcDbCircle
 10
184.439089
 20
13.592912
 30
0.0
 40
2.0
100
AcDbArc
 50
270.0
 51
0.0
  0
LINE
  5
252
330
1F
100
AcDbEntity
  8
001
 62
   253
370
    50
100
AcDbLine
 10
186.439089
 20
49.592912
 30
0.0
 11
186.439089
 21
13.592912
 31
0.0
  0
LINE
  5
253
330
1F
100
AcDbEntity
  8
001
 62
   253
370
    50
100
AcDbLine
 10
109.439089
 20
11.592912
 30
0.0
 11
184.439089
 21
11.592912
 31
0.0
  0
LINE
  5
254
330
1F
100
AcDbEntity
  8
001
 62
   253
370
    50
100
AcDbLine
 10
106.439089
 20
12.092912
 30
0.0
 11
109.439089
 21
12.092912
 31
0.0
  0
LINE
  5
255
330
1F
100
AcDbEntity
  8
001
 62
   253
370
    50
100
AcDbLine
 10
186.439089
 20
49.592912
 30
0.0
 11
106.439089
 21
49.592912
 31
0.0
  0
LINE
  5
256
330
1F
100
AcDbEntity
  8
001
  6
CENTER
 62
   253
370
     9
100
AcDbLine
 10
226.355628
 20
127.451673
 30
0.0
 11
278.355628
 21
127.451673
 31
0.0
  0
LINE
  5
257
330
1F
100
AcDbEntity
  8
001
  6
CENTER
 62
   253
370
     9
100
AcDbLine
 10
252.355628
 20
101.451673
 30
0.0
 11
252.355628
 21
153.451673
 31
0.0
  0
LINE
  5
258
330
1F
100
AcDbEntity
  8
001
 62
   253
370
    50
100
AcDbLine
 10
109.439089
 20
11.592912
 30
0.0
 11
109.439089
 21
49.592912
 31
0.0
  0
LINE
  5
259
330
1F
100
AcDbEntity
  8
001
 62
   253
370
    50
100
AcDbLine
 10
101.439089
 20
104.951673
 30
0.0
 11
101.439089
 21
149.951673
 31
0.0
  0
ARC
  5
25A
330
1F
100
AcDbEntity
  8
001
 62
   253
370
    50
100
AcDbCircle
 10
102.439089
 20
149.951673
 30
0.0
 40
1.0
100
AcDbArc
 50
90.0
 51
180.0
  0
LINE
  5
25B
330
1F
100
AcDbEntity
  8
001
370
    50
100
AcDbLine
 10
87.439089
 20
141.451673
 30
0.0
 11
101.439089
 21
141.451673
 31
0.0
  0
LINE
  5
25C
330
1F
100
AcDbEntity
  8
001
370
    50
100
AcDbLine
 10
87.439089
 20
113.451673
 30
0.0
 11
101.439089
 21
113.451673
 31
0.0
  0
LINE
  5
25D
330
1F
100
AcDbEntity
  8
001
 62
   253
370
    50
100
AcDbLine
 10
66.439089
 20
118.915774
 30
0.0
 11
66.439089
 21
135.987571
 31
0.0
  0
LINE
  5
25E
330
1F
100
AcDbEntity
  8
001
 62
   253
370
    50
100
AcDbLine
 10
86.439089
 20
114.451673
 30
0.0
 11
86.439089
 21
140.451673
 31
0.0
  0
LINE
  5
25F
330
1F
100
AcDbEntity
  8
001
370
    50
100
AcDbLine
 10
87.439089
 20
141.451673
 30
0.0
 11
86.439089
 21
140.451673
 31
0.0
  0
LINE
  5
260
330
1F
100
AcDbEntity
  8
001
 62
   253
370
    50
100
AcDbLine
 10
86.439089
 20
114.451673
 30
0.0
 11
87.439089
 21
113.451673
 31
0.0
  0
LINE
  5
261
330
1F
100
AcDbEntity
  8
001
370
    50
100
AcDbLine
 10
87.439089
 20
141.451673
 30
0.0
 11
87.439089
 21
113.451673
 31
0.0
  0
LINE
  5
262
330
1F
100
AcDbEntity
  8
001
370
    50
100
AcDbLine
 10
71.707038
 20
139.451673
 30
0.0
 11
86.439089
 21
139.451673
 31
0.0
  0
LINE
  5
263
330
1F
100
AcDbEntity
  8
001
370
    50
100
AcDbLine
 10
66.939089
 20
136.853596
 30
0.0
 11
71.207038
 21
139.317698
 31
0.0
  0
LINE
  5
264
330
1F
100
AcDbEntity
  8
001
370
    50
100
AcDbLine
 10
71.707038
 20
115.451673
 30
0.0
 11
86.439089
 21
115.451673
 31
0.0
  0
LINE
  5
265
330
1F
100
AcDbEntity
  8
001
370
    50
100
AcDbLine
 10
66.939089
 20
118.049749
 30
0.0
 11
71.207038
 21
115.585647
 31
0.0
  0
ARC
  5
266
330
1F
100
AcDbEntity
  8
001
370
    50
100
AcDbCircle
 10
71.707038
 20
138.451673
 30
0.0
 40
1.0
100
AcDbArc
 50
90.0
 51
120.0
  0
ARC
  5
267
330
1F
100
AcDbEntity
  8
001
370
    50
100
AcDbCircle
 10
67.439089
 20
135.987571
 30
0.0
 40
1.0
100
AcDbArc
 50
120.0
 51
180.0
  0
ARC
  5
268
330
1F
100
AcDbEntity
  8
001
370
    50
100
AcDbCircle
 10
71.707038
 20
116.451673
 30
0.0
 40
1.0
100
AcDbArc
 50
240.0
 51
270.0
  0
ARC
  5
269
330
1F
100
AcDbEntity
  8
001
370
    50
100
AcDbCircle
 10
67.439089
 20
118.915774
 30
0.0
 40
1.0
100
AcDbArc
 50
180.0
 51
240.0
  0
LINE
  5
26A
330
1F
100
AcDbEntity
  8
001
 62
   253
370
     9
100
AcDbLine
 10
71.439089
 20
118.710017
 30
0.0
 11
71.439089
 21
136.314254
 31
0.0
  0
ARC
  5
26B
330
1F
100
AcDbEntity
  8
001
 62
   253
370
    50
100
AcDbCircle
 10
105.439089
 20
104.951673
 30
0.0
 40
1.0
100
AcDbArc
 50
270.0
 51
0.0
  0
LINE
  5
26C
330
1F
100
AcDbEntity
  8
001
 62
   253
370
    50
100
AcDbLine
 10
102.439089
 20
103.951673
 30
0.0
 11
105.439089
 21
103.951673
 31
0.0
  0
ARC
  5
26D
330
1F
100
AcDbEntity
  8
001
 62
   253
370
    50
100
AcDbCircle
 10
102.439089
 20
104.951673
 30
0.0
 40
1.0
100
AcDbArc
 50
180.0
 51
270.0
  0
LINE
  5
26E
330
1F
100
AcDbEntity
  8
001
  6
CENTER
370
     9
100
AcDbLine
 10
136.679194
 20
127.451673
 30
0.0
 11
192.947849
 21
127.451673
 31
0.0
  0
LINE
  5
26F
330
1F
100
AcDbEntity
  8
001
  6
DASHED
 62
   253
370
    30
100
AcDbLine
 10
116.439089
 20
25.092912
 30
0.0
 11
116.439089
 21
38.092912
 31
0.0
  0
LINE
  5
270
330
1F
100
AcDbEntity
  8
001
  6
DASHED
370
    30
100
AcDbLine
 10
116.439089
 20
38.092912
 30
0.0
 11
186.439089
 21
38.092912
 31
0.0
  0
LINE
  5
271
330
1F
100
AcDbEntity
  8
001
  6
DASHED
370
    30
100
AcDbLine
 10
116.439089
 20
25.092912
 30
0.0
 11
186.439089
 21
25.092912
 31
0.0
  0
LINE
  5
272
330
1F
100
AcDbEntity
  8
001
370
    50
100
AcDbLine
 10
87.439089
 20
45.592912
 30
0.0
 11
101.439089
 21
45.592912
 31
0.0
  0
LINE
  5
273
330
1F
100
AcDbEntity
  8
001
370
    50
100
AcDbLine
 10
87.439089
 20
17.592912
 30
0.0
 11
101.439089
 21
17.592912
 31
0.0
  0
LINE
  5
274
330
1F
100
AcDbEntity
  8
001
 62
   253
370
    50
100
AcDbLine
 10
66.439089
 20
23.057013
 30
0.0
 11
66.439089
 21
40.12881
 31
0.0
  0
LINE
  5
275
330
1F
100
AcDbEntity
  8
001
 62
   253
370
    50
100
AcDbLine
 10
86.439089
 20
18.592912
 30
0.0
 11
86.439089
 21
44.592912
 31
0.0
  0
LINE
  5
276
330
1F
100
AcDbEntity
  8
001
370
    50
100
AcDbLine
 10
87.439089
 20
45.592912
 30
0.0
 11
86.439089
 21
44.592912
 31
0.0
  0
LINE
  5
277
330
1F
100
AcDbEntity
  8
001
 62
   253
370
    50
100
AcDbLine
 10
86.439089
 20
18.592912
 30
0.0
 11
87.439089
 21
17.592912
 31
0.0
  0
LINE
  5
278
330
1F
100
AcDbEntity
  8
001
370
    50
100
AcDbLine
 10
87.439089
 20
45.592912
 30
0.0
 11
87.439089
 21
17.592912
 31
0.0
  0
LINE
  5
279
330
1F
100
AcDbEntity
  8
001
370
    50
100
AcDbLine
 10
71.707038
 20
43.592912
 30
0.0
 11
86.439089
 21
43.592912
 31
0.0
  0
LINE
  5
27A
330
1F
100
AcDbEntity
  8
001
370
    50
100
AcDbLine
 10
66.939089
 20
40.994835
 30
0.0
 11
71.207038
 21
43.458937
 31
0.0
  0
LINE
  5
27B
330
1F
100
AcDbEntity
  8
001
370
    50
100
AcDbLine
 10
71.707038
 20
19.592912
 30
0.0
 11
86.439089
 21
19.592912
 31
0.0
  0
LINE
  5
27C
330
1F
100
AcDbEntity
  8
001
370
    50
100
AcDbLine
 10
66.939089
 20
22.190988
 30
0.0
 11
71.207038
 21
19.726886
 31
0.0
  0
ARC
  5
27D
330
1F
100
AcDbEntity
  8
001
370
    50
100
AcDbCircle
 10
71.707038
 20
42.592912
 30
0.0
 40
1.0
100
AcDbArc
 50
90.0
 51
120.0
  0
ARC
  5
27E
330
1F
100
AcDbEntity
  8
001
370
    50
100
AcDbCircle
 10
67.439089
 20
40.12881
 30
0.0
 40
1.0
100
AcDbArc
 50
120.0
 51
180.0
  0
ARC
  5
27F
330
1F
100
AcDbEntity
  8
001
370
    50
100
AcDbCircle
 10
71.707038
 20
20.592912
 30
0.0
 40
1.0
100
AcDbArc
 50
240.0
 51
270.0
  0
ARC
  5
280
330
1F
100
AcDbEntity
  8
001
370
    50
100
AcDbCircle
 10
67.439089
 20
23.057013
 30
0.0
 40
1.0
100
AcDbArc
 50
180.0
 51
240.0
  0
LINE
  5
281
330
1F
100
AcDbEntity
  8
001
 62
   253
370
     9
100
AcDbLine
 10
71.439089
 20
22.851256
 30
0.0
 11
71.439089
 21
40.455493
 31
0.0
  0
LINE
  5
282
330
1F
100
AcDbEntity
  8
001
  6
CENTER
370
     9
100
AcDbLine
 10
68.37311
 20
31.592912
 30
0.0
 11
192.947849
 21
31.592912
 31
0.0
  0
LINE
  5
283
330
1F
100
AcDbEntity
  8
001
  6
CENTER
370
     9
100
AcDbLine
 10
62.601633
 20
127.451673
 30
0.0
 11
124.399461
 21
127.451673
 31
0.0
  0
ARC
  5
284
330
1F
100
AcDbEntity
  8
001
 62
   253
370
    50
100
AcDbCircle
 10
105.439089
 20
54.092912
 30
0.0
 40
1.0
100
AcDbArc
 50
0.0
 51
90.0
  0
LINE
  5
285
330
1F
100
AcDbEntity
  8
001
 62
   253
370
    50
100
AcDbLine
 10
106.439089
 20
9.092912
 30
0.0
 11
106.439089
 21
54.092912
 31
0.0
  0
LINE
  5
286
330
1F
100
AcDbEntity
  8
001
 62
   253
370
    50
100
AcDbLine
 10
102.439089
 20
55.092912
 30
0.0
 11
105.439089
 21
55.092912
 31
0.0
  0
LINE
  5
287
330
1F
100
AcDbEntity
  8
001
 62
   253
370
    50
100
AcDbLine
 10
101.439089
 20
9.092912
 30
0.0
 11
101.439089
 21
54.092912
 31
0.0
  0
ARC
  5
288
330
1F
100
AcDbEntity
  8
001
 62
   253
370
    50
100
AcDbCircle
 10
102.439089
 20
54.092912
 30
0.0
 40
1.0
100
AcDbArc
 50
90.0
 51
180.0
  0
ARC
  5
289
330
1F
100
AcDbEntity
  8
001
 62
   253
370
    50
100
AcDbCircle
 10
105.439089
 20
9.092912
 30
0.0
 40
1.0
100
AcDbArc
 50
270.0
 51
0.0
  0
LINE
  5
28A
330
1F
100
AcDbEntity
  8
001
 62
   253
370
    50
100
AcDbLine
 10
102.439089
 20
8.092912
 30
0.0
 11
105.439089
 21
8.092912
 31
0.0
  0
ARC
  5
28B
330
1F
100
AcDbEntity
  8
001
 62
   253
370
    50
100
AcDbCircle
 10
102.439089
 20
9.092912
 30
0.0
 40
1.0
100
AcDbArc
 50
180.0
 51
270.0
  0
LINE
  5
28C
330
1F
100
AcDbEntity
  8
001
  6
DASHED
370
    30
100
AcDbLine
 10
66.439089
 20
35.592912
 30
0.0
 11
116.439089
 21
35.592912
 31
0.0
  0
LINE
  5
28D
330
1F
100
AcDbEntity
  8
001
  6
DASHED
370
    30
100
AcDbLine
 10
66.439089
 20
27.592912
 30
0.0
 11
116.439089
 21
27.592912
 31
0.0
  0
CIRCLE
  5
28E
330
1F
100
AcDbEntity
  8
001
370
    50
100
AcDbCircle
 10
94.439089
 20
127.451673
 30
0.0
 40
2.5
  0
CIRCLE
  5
28F
330
1F
100
AcDbEntity
  8
001
370
    50
100
AcDbCircle
 10
78.439089
 20
127.451673
 30
0.0
 40
2.5
  0
CIRCLE
  5
290
330
1F
100
AcDbEntity
  8
001
370
     9
100
AcDbCircle
 10
78.439089
 20
127.451673
 30
0.0
 40
3.0
  0
CIRCLE
  5
291
330
1F
100
AcDbEntity
  8
001
370
     9
100
AcDbCircle
 10
94.439089
 20
127.451673
 30
0.0
 40
3.0
  0
LINE
  5
292
330
1F
100
AcDbEntity
  8
001
  6
CENTER
 62
   253
370
     9
100
AcDbLine
 10
78.439089
 20
122.654746
 30
0.0
 11
78.439089
 21
132.504729
 31
0.0
  0
LINE
  5
293
330
1F
100
AcDbEntity
  8
001
  6
CENTER
 62
   253
370
     9
100
AcDbLine
 10
94.439089
 20
122.654746
 30
0.0
 11
94.439089
 21
132.504729
 31
0.0
  0
LINE
  5
294
330
1F
100
AcDbEntity
  8
001
  6
CENTER
 62
   253
370
     9
100
AcDbLine
 10
94.439089
 20
33.433246
 30
0.0
 11
94.439089
 21
47.781505
 31
0.0
  0
LINE
  5
295
330
1F
100
AcDbEntity
  8
001
  6
CENTER
 62
   253
370
     9
100
AcDbLine
 10
78.439089
 20
33.433246
 30
0.0
 11
78.439089
 21
47.781505
 31
0.0
  0
LINE
  5
296
330
1F
100
AcDbEntity
  8
001
  6
DASHED
 62
   253
370
    30
100
AcDbLine
 10
75.439089
 20
35.592912
 30
0.0
 11
75.439089
 21
43.592912
 31
0.0
  0
LINE
  5
297
330
1F
100
AcDbEntity
  8
001
  6
DASHED
 62
   253
370
    30
100
AcDbLine
 10
81.439089
 20
35.592912
 30
0.0
 11
81.439089
 21
43.592912
 31
0.0
  0
LINE
  5
298
330
1F
100
AcDbEntity
  8
001
  6
DASHED
 62
   253
370
    30
100
AcDbLine
 10
91.439089
 20
35.592912
 30
0.0
 11
91.439089
 21
45.592912
 31
0.0
  0
LINE
  5
299
330
1F
100
AcDbEntity
  8
001
  6
DASHED
 62
   253
370
    30
100
AcDbLine
 10
97.439089
 20
35.592912
 30
0.0
 11
97.439089
 21
45.592912
 31
0.0
  0
LINE
  5
29A
330
1F
100
AcDbEntity
  8
001
  6
DASHED
 62
   253
370
    30
100
AcDbLine
 10
75.939089
 20
35.592912
 30
0.0
 11
75.939089
 21
43.592912
 31
0.0
  0
LINE
  5
29B
330
1F
100
AcDbEntity
  8
001
  6
DASHED
 62
   253
370
    30
100
AcDbLine
 10
80.939089
 20
35.592912
 30
0.0
 11
80.939089
 21
43.592912
 31
0.0
  0
LINE
  5
29C
330
1F
100
AcDbEntity
  8
001
  6
DASHED
 62
   253
370
    30
100
AcDbLine
 10
91.939089
 20
35.592912
 30
0.0
 11
91.939089
 21
45.592912
 31
0.0
  0
LINE
  5
29D
330
1F
100
AcDbEntity
  8
001
  6
DASHED
 62
   253
370
    30
100
AcDbLine
 10
96.939089
 20
35.592912
 30
0.0
 11
96.939089
 21
45.592912
 31
0.0
  0
LINE
  5
29E
330
1F
100
AcDbEntity
  8
001
370
     9
100
AcDbLine
 10
109.439089
 20
135.520749
 30
0.0
 11
184.439089
 21
119.382596
 31
0.0
  0
LINE
  5
29F
330
1F
100
AcDbEntity
  8
001
370
     9
100
AcDbLine
 10
184.439089
 20
135.520749
 30
0.0
 11
109.439089
 21
119.382596
 31
0.0
  0
CIRCLE
  5
2A0
330
1F
100
AcDbEntity
  8
001
370
    50
100
AcDbCircle
 10
252.355628
 20
127.451673
 30
0.0
 40
6.5
  0
CIRCLE
  5
2A1
330
1F
100
AcDbEntity
  8
001
370
    50
100
AcDbCircle
 10
252.355628
 20
127.451673
 30
0.0
 40
7.0
  0
TEXT
  5
2A2
330
1F
100
AcDbEntity
  8
001
370
    30
100
AcDbText
 10
41.07283
 20
189.473712
 30
0.0
 40
10.0
  1
オイルッシャー　ＫＪＤ４０Ｓ０８
 41
0.833333
100
AcDbText
  0
ENDSEC
  0
SECTION
  2
OBJECTS
  0
DICTIONARY
  5
C
330
0
100
AcDbDictionary
281
     1
  3
ACAD_GROUP
350
D
  3
ACAD_LAYOUT
350
1A
  3
ACAD_MLEADERSTYLE
350
2A6
  3
ACAD_MLINESTYLE
350
17
  3
ACAD_PLOTSETTINGS
350
19
  3
ACAD_PLOTSTYLENAME
350
E
  3
ACAD_SCALELIST
350
3B
  3
ACAD_TABLESTYLE
350
2A5
  3
ACAD_VISUALSTYLE
350
2A
  3
AcDbVariableDictionary
350
2A3
  0
DICTIONARY
  5
D
102
{ACAD_REACTORS
330
C
102
}
330
C
100
AcDbDictionary
281
     1
  0
DICTIONARY
  5
1A
102
{ACAD_REACTORS
330
C
102
}
330
C
100
AcDbDictionary
281
     1
  3
Layout1
350
1E
  3
Layout2
350
26
  3
Model
350
22
  0
DICTIONARY
  5
2A6
102
{ACAD_REACTORS
330
C
102
}
330
C
100
AcDbDictionary
281
     1
  0
DICTIONARY
  5
17
102
{ACAD_REACTORS
330
C
102
}
330
C
100
AcDbDictionary
281
     1
  3
Standard
350
18
  0
DICTIONARY
  5
19
102
{ACAD_REACTORS
330
C
102
}
330
C
100
AcDbDictionary
281
     1
  0
ACDBDICTIONARYWDFLT
  5
E
102
{ACAD_REACTORS
330
C
102
}
330
C
100
AcDbDictionary
281
     1
  3
Normal
350
F
100
AcDbDictionaryWithDefault
340
F
  0
DICTIONARY
  5
3B
102
{ACAD_REACTORS
330
C
102
}
330
C
100
AcDbDictionary
281
     1
  3
A0
350
3C
  3
A1
350
3D
  3
A2
350
3E
  3
A3
350
3F
  3
A4
350
40
  3
A5
350
41
  3
A6
350
42
  3
A7
350
43
  3
A8
350
44
  3
A9
350
45
  3
B0
350
46
  3
B1
350
47
  3
B2
350
48
  3
B3
350
49
  3
B4
350
4A
  3
B5
350
4B
  3
B6
350
4C
  3
B7
350
4D
  3
B8
350
4E
  3
B9
350
4F
  3
C0
350
50
  3
C1
350
51
  3
C2
350
52
  3
C3
350
53
  3
C4
350
54
  3
C5
350
55
  3
C6
350
56
  3
C7
350
57
  3
C8
350
58
  3
C9
350
59
  3
D0
350
5A
  3
D1
350
5B
  3
D2
350
5C
  0
DICTIONARY
  5
2A5
102
{ACAD_REACTORS
330
C
102
}
330
C
100
AcDbDictionary
281
     1
  0
DICTIONARY
  5
2A
102
{ACAD_REACTORS
330
C
102
}
330
C
100
AcDbDictionary
281
     1
  3
2dWireframe
350
2F
  3
3D Hidden
350
31
  3
3dWireframe
350
30
  3
Basic
350
32
  3
Brighten
350
36
  3
ColorChange
350
3A
  3
Conceptual
350
34
  3
Dim
350
35
  3
Facepattern
350
39
  3
Flat
350
2B
  3
FlatWithEdges
350
2C
  3
Gouraud
350
2D
  3
GouraudWithEdges
350
2E
  3
Linepattern
350
38
  3
Realistic
350
33
  3
Thicken
350
37
  0
DICTIONARY
  5
2A3
102
{ACAD_REACTORS
330
C
102
}
330
C
100
AcDbDictionary
281
     1
  3
CANNOSCALE
350
2A4
  3
PSOLHEIGHT
350
2A8
  3
PSOLWIDTH
350
2A7
  0
LAYOUT
  5
1E
102
{ACAD_REACTORS
330
1A
102
}
330
1A
100
AcDbPlotSettings
  1

  2
none_device
  4

  6

 40
0.0
 41
0.0
 42
0.0
 43
0.0
 44
0.0
 45
0.0
 46
0.0
 47
0.0
 48
0.0
 49
0.0
140
0.0
141
0.0
142
1.0
143
1.0
 70
   688
 72
     0
 73
     0
 74
     5
  7

 75
    16
147
1.0
148
0.0
149
0.0
100
AcDbLayout
  1
Layout1
 70
     1
 71
     1
 10
0.0
 20
0.0
 11
12.0
 21
9.0
 12
0.0
 22
0.0
 32
0.0
 14
1.000000E+20
 24
1.000000E+20
 34
0.0
 15
-1.000000E+20
 25
-1.000000E+20
 35
0.0
146
0.0
 13
0.0
 23
0.0
 33
0.0
 16
1.0
 26
0.0
 36
0.0
 17
0.0
 27
1.0
 37
0.0
 76
     0
330
1B
  0
LAYOUT
  5
26
102
{ACAD_REACTORS
330
1A
102
}
330
1A
100
AcDbPlotSettings
  1

  2
none_device
  4

  6

 40
0.0
 41
0.0
 42
0.0
 43
0.0
 44
0.0
 45
0.0
 46
0.0
 47
0.0
 48
0.0
 49
0.0
140
0.0
141
0.0
142
1.0
143
1.0
 70
   688
 72
     0
 73
     0
 74
     5
  7

 75
    16
147
1.0
148
0.0
149
0.0
100
AcDbLayout
  1
Layout2
 70
     1
 71
     2
 10
0.0
 20
0.0
 11
0.0
 21
0.0
 12
0.0
 22
0.0
 32
0.0
 14
0.0
 24
0.0
 34
0.0
 15
0.0
 25
0.0
 35
0.0
146
0.0
 13
0.0
 23
0.0
 33
0.0
 16
1.0
 26
0.0
 36
0.0
 17
0.0
 27
1.0
 37
0.0
 76
     0
330
23
  0
LAYOUT
  5
22
102
{ACAD_REACTORS
330
1A
102
}
330
1A
100
AcDbPlotSettings
  1

  2
none_device
  4

  6

 40
0.0
 41
0.0
 42
0.0
 43
0.0
 44
0.0
 45
0.0
 46
0.0
 47
0.0
 48
0.0
 49
0.0
140
0.0
141
0.0
142
1.0
143
1.0
 70
  1712
 72
     0
 73
     0
 74
     0
  7

 75
     0
147
1.0
148
0.0
149
0.0
100
AcDbLayout
  1
Model
 70
     1
 71
     0
 10
0.0
 20
0.0
 11
12.0
 21
9.0
 12
0.0
 22
0.0
 32
0.0
 14
30.553368
 24
8.092911
 34
0.0
 15
278.355621
 25
199.473709
 35
0.0
146
0.0
 13
0.0
 23
0.0
 33
0.0
 16
1.0
 26
0.0
 36
0.0
 17
0.0
 27
1.0
 37
0.0
 76
     0
330
1F
331
29
  0
MLINESTYLE
  5
18
102
{ACAD_REACTORS
330
17
102
}
330
17
100
AcDbMlineStyle
  2
Standard
 70
     0
  3

 62
   256
 51
90.0
 52
90.0
 71
     2
 49
0.5
 62
   256
  6
BYLAYER
 49
-0.5
 62
   256
  6
BYLAYER
  0
ACDBPLACEHOLDER
  5
F
102
{ACAD_REACTORS
330
E
102
}
330
E
  0
SCALE
  5
3C
102
{ACAD_REACTORS
330
3B
102
}
330
3B
100
AcDbScale
 70
     0
300
1:1
140
1.0
141
1.0
290
     1
  0
SCALE
  5
3D
102
{ACAD_REACTORS
330
3B
102
}
330
3B
100
AcDbScale
 70
     0
300
1:2
140
1.0
141
2.0
290
     0
  0
SCALE
  5
3E
102
{ACAD_REACTORS
330
3B
102
}
330
3B
100
AcDbScale
 70
     0
300
1:4
140
1.0
141
4.0
290
     0
  0
SCALE
  5
3F
102
{ACAD_REACTORS
330
3B
102
}
330
3B
100
AcDbScale
 70
     0
300
1:5
140
1.0
141
5.0
290
     0
  0
SCALE
  5
40
102
{ACAD_REACTORS
330
3B
102
}
330
3B
100
AcDbScale
 70
     0
300
1:8
140
1.0
141
8.0
290
     0
  0
SCALE
  5
41
102
{ACAD_REACTORS
330
3B
102
}
330
3B
100
AcDbScale
 70
     0
300
1:10
140
1.0
141
10.0
290
     0
  0
SCALE
  5
42
102
{ACAD_REACTORS
330
3B
102
}
330
3B
100
AcDbScale
 70
     0
300
1:16
140
1.0
141
16.0
290
     0
  0
SCALE
  5
43
102
{ACAD_REACTORS
330
3B
102
}
330
3B
100
AcDbScale
 70
     0
300
1:20
140
1.0
141
20.0
290
     0
  0
SCALE
  5
44
102
{ACAD_REACTORS
330
3B
102
}
330
3B
100
AcDbScale
 70
     0
300
1:30
140
1.0
141
30.0
290
     0
  0
SCALE
  5
45
102
{ACAD_REACTORS
330
3B
102
}
330
3B
100
AcDbScale
 70
     0
300
1:40
140
1.0
141
40.0
290
     0
  0
SCALE
  5
46
102
{ACAD_REACTORS
330
3B
102
}
330
3B
100
AcDbScale
 70
     0
300
1:50
140
1.0
141
50.0
290
     0
  0
SCALE
  5
47
102
{ACAD_REACTORS
330
3B
102
}
330
3B
100
AcDbScale
 70
     0
300
1:100
140
1.0
141
100.0
290
     0
  0
SCALE
  5
48
102
{ACAD_REACTORS
330
3B
102
}
330
3B
100
AcDbScale
 70
     0
300
2:1
140
2.0
141
1.0
290
     0
  0
SCALE
  5
49
102
{ACAD_REACTORS
330
3B
102
}
330
3B
100
AcDbScale
 70
     0
300
4:1
140
4.0
141
1.0
290
     0
  0
SCALE
  5
4A
102
{ACAD_REACTORS
330
3B
102
}
330
3B
100
AcDbScale
 70
     0
300
8:1
140
8.0
141
1.0
290
     0
  0
SCALE
  5
4B
102
{ACAD_REACTORS
330
3B
102
}
330
3B
100
AcDbScale
 70
     0
300
10:1
140
10.0
141
1.0
290
     0
  0
SCALE
  5
4C
102
{ACAD_REACTORS
330
3B
102
}
330
3B
100
AcDbScale
 70
     0
300
100:1
140
100.0
141
1.0
290
     0
  0
SCALE
  5
4D
102
{ACAD_REACTORS
330
3B
102
}
330
3B
100
AcDbScale
 70
     0
300
1/128" = 1'-0"
140
0.007812
141
12.0
290
     0
  0
SCALE
  5
4E
102
{ACAD_REACTORS
330
3B
102
}
330
3B
100
AcDbScale
 70
     0
300
1/64" = 1'-0"
140
0.015625
141
12.0
290
     0
  0
SCALE
  5
4F
102
{ACAD_REACTORS
330
3B
102
}
330
3B
100
AcDbScale
 70
     0
300
1/32" = 1'-0"
140
0.03125
141
12.0
290
     0
  0
SCALE
  5
50
102
{ACAD_REACTORS
330
3B
102
}
330
3B
100
AcDbScale
 70
     0
300
1/16" = 1'-0"
140
0.0625
141
12.0
290
     0
  0
SCALE
  5
51
102
{ACAD_REACTORS
330
3B
102
}
330
3B
100
AcDbScale
 70
     0
300
3/32" = 1'-0"
140
0.09375
141
12.0
290
     0
  0
SCALE
  5
52
102
{ACAD_REACTORS
330
3B
102
}
330
3B
100
AcDbScale
 70
     0
300
1/8" = 1'-0"
140
0.125
141
12.0
290
     0
  0
SCALE
  5
53
102
{ACAD_REACTORS
330
3B
102
}
330
3B
100
AcDbScale
 70
     0
300
3/16" = 1'-0"
140
0.1875
141
12.0
290
     0
  0
SCALE
  5
54
102
{ACAD_REACTORS
330
3B
102
}
330
3B
100
AcDbScale
 70
     0
300
1/4" = 1'-0"
140
0.25
141
12.0
290
     0
  0
SCALE
  5
55
102
{ACAD_REACTORS
330
3B
102
}
330
3B
100
AcDbScale
 70
     0
300
3/8" = 1'-0"
140
0.375
141
12.0
290
     0
  0
SCALE
  5
56
102
{ACAD_REACTORS
330
3B
102
}
330
3B
100
AcDbScale
 70
     0
300
1/2" = 1'-0"
140
0.5
141
12.0
290
     0
  0
SCALE
  5
57
102
{ACAD_REACTORS
330
3B
102
}
330
3B
100
AcDbScale
 70
     0
300
3/4" = 1'-0"
140
0.75
141
12.0
290
     0
  0
SCALE
  5
58
102
{ACAD_REACTORS
330
3B
102
}
330
3B
100
AcDbScale
 70
     0
300
1" = 1'-0"
140
1.0
141
12.0
290
     0
  0
SCALE
  5
59
102
{ACAD_REACTORS
330
3B
102
}
330
3B
100
AcDbScale
 70
     0
300
1-1/2" = 1'-0"
140
1.5
141
12.0
290
     0
  0
SCALE
  5
5A
102
{ACAD_REACTORS
330
3B
102
}
330
3B
100
AcDbScale
 70
     0
300
3" = 1'-0"
140
3.0
141
12.0
290
     0
  0
SCALE
  5
5B
102
{ACAD_REACTORS
330
3B
102
}
330
3B
100
AcDbScale
 70
     0
300
6" = 1'-0"
140
6.0
141
12.0
290
     0
  0
SCALE
  5
5C
102
{ACAD_REACTORS
330
3B
102
}
330
3B
100
AcDbScale
 70
     0
300
1'-0" = 1'-0"
140
12.0
141
12.0
290
     0
  0
VISUALSTYLE
  5
2F
102
{ACAD_REACTORS
330
2A
102
}
330
2A
100
AcDbVisualStyle
  2
2dWireframe
 70
     4
 71
     0
 72
     2
 73
     0
 90
        0
 40
-0.6
 41
-30.0
 62
     5
 63
     7
 74
     1
 91
        4
 64
     7
 65
   257
 75
     1
175
     1
 42
1.0
 92
        0
 66
   257
 43
1.0
 76
     1
 77
     6
 78
     2
 67
     7
 79
     5
170
     0
171
     0
290
     0
174
     0
 93
        1
 44
0.0
173
     0
291
     0
 45
0.0
1001
ACAD
1000
AcDbSavedByObjectVersion
1070
     0
  0
VISUALSTYLE
  5
31
102
{ACAD_REACTORS
330
2A
102
}
330
2A
100
AcDbVisualStyle
  2
3D Hidden
 70
     6
 71
     1
 72
     2
 73
     2
 90
        0
 40
-0.6
 41
-30.0
 62
     5
 63
     7
 74
     2
 91
        2
 64
     7
 65
   257
 75
     2
175
     1
 42
40.0
 92
        0
 66
   257
 43
1.0
 76
     1
 77
     6
 78
     2
 67
     7
 79
     3
170
     0
171
     0
290
     0
174
     0
 93
        1
 44
0.0
173
     0
291
     0
 45
0.0
1001
ACAD
1000
AcDbSavedByObjectVersion
1070
     0
  0
VISUALSTYLE
  5
30
102
{ACAD_REACTORS
330
2A
102
}
330
2A
100
AcDbVisualStyle
  2
3dWireframe
 70
     5
 71
     0
 72
     2
 73
     0
 90
        0
 40
-0.6
 41
-30.0
 62
     5
 63
     7
 74
     1
 91
        4
 64
     7
 65
   257
 75
     1
175
     1
 42
1.0
 92
        0
 66
   257
 43
1.0
 76
     1
 77
     6
 78
     2
 67
     7
 79
     5
170
     0
171
     0
290
     0
174
     0
 93
        1
 44
0.0
173
     0
291
     0
 45
0.0
1001
ACAD
1000
AcDbSavedByObjectVersion
1070
     0
  0
VISUALSTYLE
  5
32
102
{ACAD_REACTORS
330
2A
102
}
330
2A
100
AcDbVisualStyle
  2
Basic
 70
     7
 71
     1
 72
     0
 73
     1
 90
        0
 40
-0.6
 41
-30.0
 62
     5
 63
     7
 74
     0
 91
        4
 64
     7
 65
   257
 75
     1
175
     1
 42
1.0
 92
        8
 66
     7
 43
1.0
 76
     1
 77
     6
 78
     2
 67
     7
 79
     5
170
     0
171
     0
290
     0
174
     0
 93
        1
 44
0.0
173
     0
291
     1
 45
0.0
1001
ACAD
1000
AcDbSavedByObjectVersion
1070
     0
  0
VISUALSTYLE
  5
36
102
{ACAD_REACTORS
330
2A
102
}
330
2A
100
AcDbVisualStyle
  2
Brighten
 70
    12
 71
     2
 72
     2
 73
     0
 90
        0
 40
-0.6
 41
-30.0
 62
     5
 63
     7
 74
     1
 91
        4
 64
     7
 65
   257
 75
     1
175
     1
 42
1.0
 92
        8
 66
     7
 43
1.0
 76
     1
 77
     6
 78
     2
 67
     7
 79
     5
170
     0
171
     0
290
     0
174
     0
 93
        1
 44
50.0
173
     0
291
     1
 45
0.0
1001
ACAD
1000
AcDbSavedByObjectVersion
1070
     0
  0
VISUALSTYLE
  5
3A
102
{ACAD_REACTORS
330
2A
102
}
330
2A
100
AcDbVisualStyle
  2
ColorChange
 70
    16
 71
     2
 72
     2
 73
     3
 90
        0
 40
-0.6
 41
-30.0
 62
     5
 63
     8
 74
     1
 91
        4
 64
     7
 65
   257
 75
     1
175
     1
 42
1.0
 92
        8
 66
     8
 43
1.0
 76
     1
 77
     6
 78
     2
 67
     7
 79
     5
170
     0
171
     0
290
     0
174
     0
 93
        1
 44
0.0
173
     0
291
     1
 45
0.0
1001
ACAD
1000
AcDbSavedByObjectVersion
1070
     0
  0
VISUALSTYLE
  5
34
102
{ACAD_REACTORS
330
2A
102
}
330
2A
100
AcDbVisualStyle
  2
Conceptual
 70
     9
 71
     3
 72
     2
 73
     0
 90
        0
 40
-0.6
 41
-30.0
 62
     5
 63
     7
 74
     2
 91
        2
 64
     7
 65
   257
 75
     1
175
     1
 42
40.0
 92
        8
 66
     7
 43
1.0
 76
     1
 77
     6
 78
     2
 67
     7
 79
     3
170
     0
171
     0
290
     0
174
     0
 93
        1
 44
0.0
173
     0
291
     0
 45
0.0
1001
ACAD
1000
AcDbSavedByObjectVersion
1070
     0
  0
VISUALSTYLE
  5
35
102
{ACAD_REACTORS
330
2A
102
}
330
2A
100
AcDbVisualStyle
  2
Dim
 70
    11
 71
     2
 72
     2
 73
     0
 90
        0
 40
-0.6
 41
-30.0
 62
     5
 63
     7
 74
     1
 91
        4
 64
     7
 65
   257
 75
     1
175
     1
 42
1.0
 92
        8
 66
     7
 43
1.0
 76
     1
 77
     6
 78
     2
 67
     7
 79
     5
170
     0
171
     0
290
     0
174
     0
 93
        1
 44
-50.0
173
     0
291
     1
 45
0.0
1001
ACAD
1000
AcDbSavedByObjectVersion
1070
     0
  0
VISUALSTYLE
  5
39
102
{ACAD_REACTORS
330
2A
102
}
330
2A
100
AcDbVisualStyle
  2
Facepattern
 70
    15
 71
     2
 72
     2
 73
     0
 90
        0
 40
-0.6
 41
-30.0
 62
     5
 63
     7
 74
     1
 91
        4
 64
     7
 65
   257
 75
     1
175
     1
 42
1.0
 92
        8
 66
     7
 43
1.0
 76
     1
 77
     6
 78
     2
 67
     7
 79
     5
170
     0
171
     0
290
     0
174
     0
 93
        1
 44
0.0
173
     0
291
     1
 45
0.0
1001
ACAD
1000
AcDbSavedByObjectVersion
1070
     0
  0
VISUALSTYLE
  5
2B
102
{ACAD_REACTORS
330
2A
102
}
330
2A
100
AcDbVisualStyle
  2
Flat
 70
     0
 71
     2
 72
     1
 73
     1
 90
        2
 40
-0.6
 41
30.0
 62
     5
 63
     7
 74
     0
 91
        4
 64
     7
 65
   257
 75
     1
175
     1
 42
1.0
 92
        8
 66
     7
 43
1.0
 76
     1
 77
     6
 78
     2
 67
     7
 79
     5
170
     0
171
     0
290
     0
174
     0
 93
       13
 44
0.0
173
     0
291
     1
 45
0.0
1001
ACAD
1000
AcDbSavedByObjectVersion
1070
     0
  0
VISUALSTYLE
  5
2C
102
{ACAD_REACTORS
330
2A
102
}
330
2A
100
AcDbVisualStyle
  2
FlatWithEdges
 70
     1
 71
     2
 72
     1
 73
     1
 90
        2
 40
-0.6
 41
30.0
 62
     5
 63
     7
 74
     1
 91
        4
 64
     7
 65
   257
 75
     1
175
     1
 42
1.0
 92
        0
 66
   257
 43
1.0
 76
     1
 77
     6
 78
     2
 67
     7
 79
     5
170
     0
171
     0
290
     0
174
     0
 93
       13
 44
0.0
173
     0
291
     1
 45
0.0
1001
ACAD
1000
AcDbSavedByObjectVersion
1070
     0
  0
VISUALSTYLE
  5
2D
102
{ACAD_REACTORS
330
2A
102
}
330
2A
100
AcDbVisualStyle
  2
Gouraud
 70
     2
 71
     2
 72
     2
 73
     1
 90
        2
 40
-0.6
 41
30.0
 62
     5
 63
     7
 74
     0
 91
        4
 64
     7
 65
   257
 75
     1
175
     1
 42
1.0
 92
        0
 66
     7
 43
1.0
 76
     1
 77
     6
 78
     2
 67
     7
 79
     5
170
     0
171
     0
290
     0
174
     0
 93
       13
 44
0.0
173
     0
291
     1
 45
0.0
1001
ACAD
1000
AcDbSavedByObjectVersion
1070
     0
  0
VISUALSTYLE
  5
2E
102
{ACAD_REACTORS
330
2A
102
}
330
2A
100
AcDbVisualStyle
  2
GouraudWithEdges
 70
     3
 71
     2
 72
     2
 73
     1
 90
        2
 40
-0.6
 41
30.0
 62
     5
 63
     7
 74
     1
 91
        4
 64
     7
 65
   257
 75
     1
175
     1
 42
1.0
 92
        0
 66
   257
 43
1.0
 76
     1
 77
     6
 78
     2
 67
     7
 79
     5
170
     0
171
     0
290
     0
174
     0
 93
       13
 44
0.0
173
     0
291
     1
 45
0.0
1001
ACAD
1000
AcDbSavedByObjectVersion
1070
     0
  0
VISUALSTYLE
  5
38
102
{ACAD_REACTORS
330
2A
102
}
330
2A
100
AcDbVisualStyle
  2
Linepattern
 70
    14
 71
     2
 72
     2
 73
     0
 90
        0
 40
-0.6
 41
-30.0
 62
     5
 63
     7
 74
     1
 91
        4
 64
     7
 65
   257
 75
     7
175
     7
 42
1.0
 92
        8
 66
     7
 43
1.0
 76
     1
 77
     6
 78
     2
 67
     7
 79
     5
170
     0
171
     0
290
     0
174
     0
 93
        1
 44
0.0
173
     0
291
     1
 45
0.0
1001
ACAD
1000
AcDbSavedByObjectVersion
1070
     0
  0
VISUALSTYLE
  5
33
102
{ACAD_REACTORS
330
2A
102
}
330
2A
100
AcDbVisualStyle
  2
Realistic
 70
     8
 71
     2
 72
     2
 73
     0
 90
        0
 40
-0.6
 41
-30.0
 62
     5
 63
     7
 74
     1
 91
        0
 64
     7
 65
   257
 75
     1
175
     1
 42
1.0
 92
        8
 66
     8
 43
1.0
 76
     1
 77
     6
 78
     2
 67
     7
 79
     5
170
     0
171
     0
290
     0
174
     0
 93
       13
 44
0.0
173
     0
291
     0
 45
0.0
1001
ACAD
1000
AcDbSavedByObjectVersion
1070
     0
  0
VISUALSTYLE
  5
37
102
{ACAD_REACTORS
330
2A
102
}
330
2A
100
AcDbVisualStyle
  2
Thicken
 70
    13
 71
     2
 72
     2
 73
     0
 90
        0
 40
-0.6
 41
-30.0
 62
     5
 63
     7
 74
     1
 91
        4
 64
     7
 65
   257
 75
     1
175
     1
 42
1.0
 92
       12
 66
     7
 43
1.0
 76
     1
 77
     6
 78
     2
 67
     7
 79
     5
170
     0
171
     0
290
     0
174
     0
 93
        1
 44
0.0
173
     0
291
     1
 45
0.0
1001
ACAD
1000
AcDbSavedByObjectVersion
1070
     0
  0
DICTIONARYVAR
  5
2A4
102
{ACAD_REACTORS
330
2A3
102
}
330
2A3
100
DictionaryVariables
280
     0
  1
1:1
  0
DICTIONARYVAR
  5
2A8
102
{ACAD_REACTORS
330
2A3
102
}
330
2A3
100
DictionaryVariables
280
     0
  1
80.000000
  0
DICTIONARYVAR
  5
2A7
102
{ACAD_REACTORS
330
2A3
102
}
330
2A3
100
DictionaryVariables
280
     0
  1
5.000000
  0
ENDSEC
  0
EOF
