  0
SECTION
  2
HEADER
  9
$ACADVER
  1
AC1015
  9
$ACADMAINTVER
 70
     6
  9
$DWGCODEPAGE
  3
ANSI_932
  9
$INSBASE
 10
0.0
 20
0.0
 30
0.0
  9
$EXTMIN
 10
-15.859894
 20
10.711563
 30
0.0
  9
$EXTMAX
 10
275.562714
 20
222.014221
 30
0.0
  9
$LIMMIN
 10
0.0
 20
0.0
  9
$LIMMAX
 10
12.0
 20
9.0
  9
$ORTHOMODE
 70
     0
  9
$REGENMODE
 70
     1
  9
$FILLMODE
 70
     1
  9
$QTEXTMODE
 70
     0
  9
$MIRRTEXT
 70
     1
  9
$LTSCALE
 40
3.599666
  9
$ATTMODE
 70
     1
  9
$TEXTSIZE
 40
3.2
  9
$TRACEWID
 40
1.0
  9
$TEXTSTYLE
  7
Standard
  9
$CLAYER
  8
0
  9
$CELTYPE
  6
ByLayer
  9
$CECOLOR
 62
   256
  9
$CELTSCALE
 40
1.0
  9
$DISPSILH
 70
     0
  9
$DIMSCALE
 40
1.0
  9
$DIMASZ
 40
2.5
  9
$DIMEXO
 40
0.625
  9
$DIMDLI
 40
3.75
  9
$DIMRND
 40
0.0
  9
$DIMDLE
 40
0.0
  9
$DIMEXE
 40
1.25
  9
$DIMTP
 40
0.0
  9
$DIMTM
 40
0.0
  9
$DIMTXT
 40
2.5
  9
$DIMCEN
 40
0.09
  9
$DIMTSZ
 40
0.0
  9
$DIMTOL
 70
     0
  9
$DIMLIM
 70
     0
  9
$DIMTIH
 70
     0
  9
$DIMTOH
 70
     0
  9
$DIMSE1
 70
     0
  9
$DIMSE2
 70
     0
  9
$DIMTAD
 70
     0
  9
$DIMZIN
 70
     8
  9
$DIMBLK
  1

  9
$DIMASO
 70
     1
  9
$DIMSHO
 70
     0
  9
$DIMPOST
  1

  9
$DIMAPOST
  1

  9
$DIMALT
 70
     0
  9
$DIMALTD
 70
     3
  9
$DIMALTF
 40
0.03937
  9
$DIMLFAC
 40
1.0
  9
$DIMTOFL
 70
     1
  9
$DIMTVP
 40
0.0
  9
$DIMTIX
 70
     0
  9
$DIMSOXD
 70
     0
  9
$DIMSAH
 70
     0
  9
$DIMBLK1
  1

  9
$DIMBLK2
  1

  9
$DIMSTYLE
  2
ISO-25
  9
$DIMCLRD
 70
     0
  9
$DIMCLRE
 70
     0
  9
$DIMCLRT
 70
     0
  9
$DIMTFAC
 40
1.0
  9
$DIMGAP
 40
0.625
  9
$DIMJUST
 70
     0
  9
$DIMSD1
 70
     0
  9
$DIMSD2
 70
     0
  9
$DIMTOLJ
 70
     0
  9
$DIMTZIN
 70
     8
  9
$DIMALTZ
 70
     0
  9
$DIMALTTZ
 70
     0
  9
$DIMUPT
 70
     0
  9
$DIMDEC
 70
     2
  9
$DIMTDEC
 70
     2
  9
$DIMALTU
 70
     2
  9
$DIMALTTD
 70
     3
  9
$DIMTXSTY
  7
Standard
  9
$DIMAUNIT
 70
     0
  9
$DIMADEC
 70
     0
  9
$DIMALTRND
 40
0.0
  9
$DIMAZIN
 70
     0
  9
$DIMDSEP
 70
    44
  9
$DIMATFIT
 70
     3
  9
$DIMFRAC
 70
     0
  9
$DIMLDRBLK
  1

  9
$DIMLUNIT
 70
     2
  9
$DIMLWD
 70
    -2
  9
$DIMLWE
 70
    -2
  9
$DIMTMOVE
 70
     0
  9
$LUNITS
 70
     2
  9
$LUPREC
 70
     4
  9
$SKETCHINC
 40
1.0
  9
$FILLETRAD
 40
0.0
  9
$AUNITS
 70
     0
  9
$AUPREC
 70
     0
  9
$MENU
  1
.
  9
$ELEVATION
 40
0.0
  9
$PELEVATION
 40
0.0
  9
$THICKNESS
 40
0.0
  9
$LIMCHECK
 70
     0
  9
$CHAMFERA
 40
10.0
  9
$CHAMFERB
 40
10.0
  9
$CHAMFERC
 40
20.0
  9
$CHAMFERD
 40
0.0
  9
$SKPOLY
 70
     0
  9
$TDCREATE
 40
2455405.447921181
  9
$TDUCREATE
 40
2455405.072921181
  9
$TDUPDATE
 40
2455405.447921192
  9
$TDUUPDATE
 40
2455405.072921192
  9
$TDINDWG
 40
0.0000000116
  9
$TDUSRTIMER
 40
0.0000000116
  9
$USRTIMER
 70
     1
  9
$ANGBASE
 50
0.0
  9
$ANGDIR
 70
     0
  9
$PDMODE
 70
     0
  9
$PDSIZE
 40
0.0
  9
$PLINEWID
 40
0.0
  9
$SPLFRAME
 70
     0
  9
$SPLINETYPE
 70
     6
  9
$SPLINESEGS
 70
     8
  9
$HANDSEED
  5
415
  9
$SURFTAB1
 70
     6
  9
$SURFTAB2
 70
     6
  9
$SURFTYPE
 70
     6
  9
$SURFU
 70
     6
  9
$SURFV
 70
     6
  9
$UCSBASE
  2

  9
$UCSNAME
  2

  9
$UCSORG
 10
0.0
 20
0.0
 30
0.0
  9
$UCSXDIR
 10
1.0
 20
0.0
 30
0.0
  9
$UCSYDIR
 10
0.0
 20
1.0
 30
0.0
  9
$UCSORTHOREF
  2

  9
$UCSORTHOVIEW
 70
     0
  9
$UCSORGTOP
 10
0.0
 20
0.0
 30
0.0
  9
$UCSORGBOTTOM
 10
0.0
 20
0.0
 30
0.0
  9
$UCSORGLEFT
 10
0.0
 20
0.0
 30
0.0
  9
$UCSORGRIGHT
 10
0.0
 20
0.0
 30
0.0
  9
$UCSORGFRONT
 10
0.0
 20
0.0
 30
0.0
  9
$UCSORGBACK
 10
0.0
 20
0.0
 30
0.0
  9
$PUCSBASE
  2

  9
$PUCSNAME
  2

  9
$PUCSORG
 10
0.0
 20
0.0
 30
0.0
  9
$PUCSXDIR
 10
1.0
 20
0.0
 30
0.0
  9
$PUCSYDIR
 10
0.0
 20
1.0
 30
0.0
  9
$PUCSORTHOREF
  2

  9
$PUCSORTHOVIEW
 70
     0
  9
$PUCSORGTOP
 10
0.0
 20
0.0
 30
0.0
  9
$PUCSORGBOTTOM
 10
0.0
 20
0.0
 30
0.0
  9
$PUCSORGLEFT
 10
0.0
 20
0.0
 30
0.0
  9
$PUCSORGRIGHT
 10
0.0
 20
0.0
 30
0.0
  9
$PUCSORGFRONT
 10
0.0
 20
0.0
 30
0.0
  9
$PUCSORGBACK
 10
0.0
 20
0.0
 30
0.0
  9
$USERI1
 70
     0
  9
$USERI2
 70
     0
  9
$USERI3
 70
     0
  9
$USERI4
 70
     0
  9
$USERI5
 70
     0
  9
$USERR1
 40
0.0
  9
$USERR2
 40
0.0
  9
$USERR3
 40
0.0
  9
$USERR4
 40
0.0
  9
$USERR5
 40
0.0
  9
$WORLDVIEW
 70
     1
  9
$SHADEDGE
 70
     3
  9
$SHADEDIF
 70
    70
  9
$TILEMODE
 70
     1
  9
$MAXACTVP
 70
    64
  9
$PINSBASE
 10
0.0
 20
0.0
 30
0.0
  9
$PLIMCHECK
 70
     0
  9
$PEXTMIN
 10
1.000000E+20
 20
1.000000E+20
 30
0.0
  9
$PEXTMAX
 10
-1.000000E+20
 20
-1.000000E+20
 30
0.0
  9
$PLIMMIN
 10
0.0
 20
0.0
  9
$PLIMMAX
 10
12.0
 20
9.0
  9
$UNITMODE
 70
     0
  9
$VISRETAIN
 70
     1
  9
$PLINEGEN
 70
     0
  9
$PSLTSCALE
 70
     1
  9
$TREEDEPTH
 70
  3020
  9
$CMLSTYLE
  2
Standard
  9
$CMLJUST
 70
     0
  9
$CMLSCALE
 40
20.0
  9
$PROXYGRAPHICS
 70
     1
  9
$MEASUREMENT
 70
     1
  9
$CELWEIGHT
370
    -1
  9
$ENDCAPS
280
     0
  9
$JOINSTYLE
280
     0
  9
$LWDISPLAY
290
     0
  9
$INSUNITS
 70
     4
  9
$HYPERLINKBASE
  1

  9
$STYLESHEET
  1

  9
$XEDIT
290
     1
  9
$CEPSNTYPE
380
     0
  9
$PSTYLEMODE
290
     1
  9
$FINGERPRINTGUID
  2
{C7EED590-AA60-41B4-AFB8-BD55097F718A}
  9
$VERSIONGUID
  2
{FAEB1C32-E019-11D5-929B-00C0DF256EC4}
  9
$EXTNAMES
290
     1
  9
$PSVPSCALE
 40
0.0
  9
$OLESTARTUP
290
     0
  0
ENDSEC
  0
SECTION
  2
CLASSES
  0
CLASS
  1
ACDBDICTIONARYWDFLT
  2
AcDbDictionaryWithDefault
  3
ObjectDBX Classes
 90
        0
280
     0
281
     0
  0
CLASS
  1
VISUALSTYLE
  2
AcDbVisualStyle
  3
ObjectDBX Classes
 90
     4095
280
     0
281
     0
  0
CLASS
  1
SCALE
  2
AcDbScale
  3
ObjectDBX Classes
 90
     1153
280
     0
281
     0
  0
CLASS
  1
DICTIONARYVAR
  2
AcDbDictionaryVar
  3
ObjectDBX Classes
 90
        0
280
     0
281
     0
  0
CLASS
  1
ACDBPLACEHOLDER
  2
AcDbPlaceHolder
  3
ObjectDBX Classes
 90
        0
280
     0
281
     0
  0
CLASS
  1
LAYOUT
  2
AcDbLayout
  3
ObjectDBX Classes
 90
        0
280
     0
281
     0
  0
ENDSEC
  0
SECTION
  2
TABLES
  0
TABLE
  2
VPORT
  5
8
330
0
100
AcDbSymbolTable
 70
     1
  0
VPORT
  5
29
330
8
100
AcDbSymbolTableRecord
100
AcDbViewportTableRecord
  2
*Active
 70
     0
 10
0.0
 20
0.0
 11
1.0
 21
1.0
 12
129.85141
 22
116.362892
 13
0.0
 23
0.0
 14
1.0
 24
1.0
 15
0.0
 25
0.0
 16
0.0
 26
0.0
 36
1.0
 17
0.0
 27
0.0
 37
0.0
 40
213.415685
 41
1.691288
 42
50.0
 43
0.0
 44
0.0
 50
0.0
 51
0.0
 71
     0
 72
   100
 73
     1
 74
     3
 75
     0
 76
     0
 77
     0
 78
     0
281
     0
 65
     1
110
0.0
120
0.0
130
0.0
111
1.0
121
0.0
131
0.0
112
0.0
122
1.0
132
0.0
 79
     0
146
0.0
  0
ENDTAB
  0
TABLE
  2
LTYPE
  5
5
330
0
100
AcDbSymbolTable
 70
     5
  0
LTYPE
  5
14
330
5
100
AcDbSymbolTableRecord
100
AcDbLinetypeTableRecord
  2
ByBlock
 70
     0
  3

 72
    65
 73
     0
 40
0.0
  0
LTYPE
  5
15
330
5
100
AcDbSymbolTableRecord
100
AcDbLinetypeTableRecord
  2
ByLayer
 70
     0
  3

 72
    65
 73
     0
 40
0.0
  0
LTYPE
  5
16
330
5
100
AcDbSymbolTableRecord
100
AcDbLinetypeTableRecord
  2
Continuous
 70
     0
  3
Solid line
 72
    65
 73
     0
 40
0.0
  0
LTYPE
  5
5D
330
5
100
AcDbSymbolTableRecord
100
AcDbLinetypeTableRecord
  2
DASHED
 70
     0
  3
DASHED
 72
    83
 73
     2
 40
0.75
 49
0.5
 74
     0
 49
-0.25
 74
     0
  0
LTYPE
  5
5E
330
5
100
AcDbSymbolTableRecord
100
AcDbLinetypeTableRecord
  2
HIDDEN
 70
     0
  3
HIDDEN
 72
    83
 73
     2
 40
0.375
 49
0.25
 74
     0
 49
-0.125
 74
     0
  0
LTYPE
  5
5F
330
5
100
AcDbSymbolTableRecord
100
AcDbLinetypeTableRecord
  2
CENTER
 70
     0
  3
CENTER
 72
    83
 73
     4
 40
2.0
 49
1.25
 74
     0
 49
-0.25
 74
     0
 49
0.25
 74
     0
 49
-0.25
 74
     0
  0
LTYPE
  5
60
330
5
100
AcDbSymbolTableRecord
100
AcDbLinetypeTableRecord
  2
PHANTOM
 70
     0
  3
PHANTOM
 72
    83
 73
     6
 40
2.5
 49
1.25
 74
     0
 49
-0.25
 74
     0
 49
0.25
 74
     0
 49
-0.25
 74
     0
 49
0.25
 74
     0
 49
-0.25
 74
     0
  0
ENDTAB
  0
TABLE
  2
LAYER
  5
2
330
0
100
AcDbSymbolTable
 70
     2
  0
LAYER
  5
10
330
2
100
AcDbSymbolTableRecord
100
AcDbLayerTableRecord
  2
0
 70
     0
 62
     7
  6
Continuous
370
    -3
390
F
  0
LAYER
  5
61
330
2
100
AcDbSymbolTableRecord
100
AcDbLayerTableRecord
  2
001
 70
     0
 62
     7
  6
Continuous
370
    -3
390
F
  0
ENDTAB
  0
TABLE
  2
STYLE
  5
3
330
0
100
AcDbSymbolTable
 70
     2
  0
STYLE
  5
11
330
3
100
AcDbSymbolTableRecord
100
AcDbTextStyleTableRecord
  2
Standard
 70
     0
 40
0.0
 41
1.0
 50
0.0
 71
     0
 42
0.2
  3
TXT
  4
BIGFONT
  0
STYLE
  5
62
330
3
100
AcDbSymbolTableRecord
100
AcDbTextStyleTableRecord
  2
TATEGAKI
 70
     4
 40
1.0
 41
1.0
 50
0.0
 71
     0
 42
0.2
  3
TXT
  4
BIGFONT
  0
ENDTAB
  0
TABLE
  2
VIEW
  5
6
330
0
100
AcDbSymbolTable
 70
     0
  0
ENDTAB
  0
TABLE
  2
UCS
  5
7
330
0
100
AcDbSymbolTable
 70
     0
  0
ENDTAB
  0
TABLE
  2
APPID
  5
9
330
0
100
AcDbSymbolTable
 70
     1
  0
APPID
  5
12
330
9
100
AcDbSymbolTableRecord
100
AcDbRegAppTableRecord
  2
ACAD
 70
     0
  0
ENDTAB
  0
TABLE
  2
DIMSTYLE
  5
A
330
0
100
AcDbSymbolTable
 70
     2
100
AcDbDimStyleTable
  0
DIMSTYLE
105
27
330
A
100
AcDbSymbolTableRecord
100
AcDbDimStyleTableRecord
  2
ISO-25
 70
     0
 41
2.5
 42
0.625
 43
3.75
 44
1.25
 73
     0
 74
     0
 77
     1
 78
     8
140
2.5
141
2.5
143
0.03937
147
0.625
171
     3
172
     1
271
     2
272
     2
274
     3
278
    44
283
     0
284
     8
340
11
  0
DIMSTYLE
105
63
102
{ACAD_REACTORS
330
1CE
330
1CF
330
1D0
330
1D1
330
1D2
330
1D4
330
1D5
330
1D6
330
1D7
330
1D8
330
1D9
330
1DA
330
1DB
330
1DC
330
1DD
330
1DE
102
}
330
A
100
AcDbSymbolTableRecord
100
AcDbDimStyleTableRecord
  2
Standard
 70
     0
 41
1.5
 42
0.0
 44
0.5
 73
     0
 74
     0
 77
     1
 78
     8
 79
     2
140
4.0
146
0.8
147
1.0
172
     1
179
     1
271
     1
340
11
  0
ENDTAB
  0
TABLE
  2
BLOCK_RECORD
  5
1
330
0
100
AcDbSymbolTable
 70
    20
  0
BLOCK_RECORD
  5
1F
330
1
100
AcDbSymbolTableRecord
100
AcDbBlockTableRecord
  2
*Model_Space
340
22
  0
BLOCK_RECORD
  5
1B
330
1
100
AcDbSymbolTableRecord
100
AcDbBlockTableRecord
  2
*Paper_Space
340
1E
  0
BLOCK_RECORD
  5
23
330
1
100
AcDbSymbolTableRecord
100
AcDbBlockTableRecord
  2
*Paper_Space0
340
26
  0
BLOCK_RECORD
  5
64
330
1
100
AcDbSymbolTableRecord
100
AcDbBlockTableRecord
  2
JZB-1
340
0
102
{BLKREFS
331
1BB
102
}
  0
BLOCK_RECORD
  5
6F
330
1
100
AcDbSymbolTableRecord
100
AcDbBlockTableRecord
  2
JZB-2
340
0
102
{BLKREFS
331
1BC
102
}
  0
BLOCK_RECORD
  5
7A
330
1
100
AcDbSymbolTableRecord
100
AcDbBlockTableRecord
  2
*D3
340
0
  0
BLOCK_RECORD
  5
8D
330
1
100
AcDbSymbolTableRecord
100
AcDbBlockTableRecord
  2
*D4
340
0
  0
BLOCK_RECORD
  5
A1
330
1
100
AcDbSymbolTableRecord
100
AcDbBlockTableRecord
  2
*D5
340
0
  0
BLOCK_RECORD
  5
B5
330
1
100
AcDbSymbolTableRecord
100
AcDbBlockTableRecord
  2
*D6
340
0
  0
BLOCK_RECORD
  5
CB
330
1
100
AcDbSymbolTableRecord
100
AcDbBlockTableRecord
  2
*D7
340
0
  0
BLOCK_RECORD
  5
E0
330
1
100
AcDbSymbolTableRecord
100
AcDbBlockTableRecord
  2
DIM-3
340
0
102
{BLKREFS
331
1D3
102
}
  0
BLOCK_RECORD
  5
EE
330
1
100
AcDbSymbolTableRecord
100
AcDbBlockTableRecord
  2
*D9
340
0
  0
BLOCK_RECORD
  5
102
330
1
100
AcDbSymbolTableRecord
100
AcDbBlockTableRecord
  2
*D10
340
0
  0
BLOCK_RECORD
  5
116
330
1
100
AcDbSymbolTableRecord
100
AcDbBlockTableRecord
  2
*D11
340
0
  0
BLOCK_RECORD
  5
12C
330
1
100
AcDbSymbolTableRecord
100
AcDbBlockTableRecord
  2
*D12
340
0
  0
BLOCK_RECORD
  5
142
330
1
100
AcDbSymbolTableRecord
100
AcDbBlockTableRecord
  2
*D13
340
0
  0
BLOCK_RECORD
  5
14F
330
1
100
AcDbSymbolTableRecord
100
AcDbBlockTableRecord
  2
*D14
340
0
  0
BLOCK_RECORD
  5
15C
330
1
100
AcDbSymbolTableRecord
100
AcDbBlockTableRecord
  2
*D15
340
0
  0
BLOCK_RECORD
  5
169
330
1
100
AcDbSymbolTableRecord
100
AcDbBlockTableRecord
  2
*D16
340
0
  0
BLOCK_RECORD
  5
17F
330
1
100
AcDbSymbolTableRecord
100
AcDbBlockTableRecord
  2
*D17
340
0
  0
BLOCK_RECORD
  5
193
330
1
100
AcDbSymbolTableRecord
100
AcDbBlockTableRecord
  2
*D18
340
0
  0
BLOCK_RECORD
  5
1A7
330
1
100
AcDbSymbolTableRecord
100
AcDbBlockTableRecord
  2
*D19
340
0
  0
ENDTAB
  0
ENDSEC
  0
SECTION
  2
BLOCKS
  0
BLOCK
  5
20
330
1F
100
AcDbEntity
  8
0
100
AcDbBlockBegin
  2
*Model_Space
 70
     0
 10
0.0
 20
0.0
 30
0.0
  3
*Model_Space
  1

  0
ENDBLK
  5
21
330
1F
100
AcDbEntity
  8
0
100
AcDbBlockEnd
  0
BLOCK
  5
1C
330
1B
100
AcDbEntity
 67
     1
  8
0
100
AcDbBlockBegin
  2
*Paper_Space
 70
     0
 10
0.0
 20
0.0
 30
0.0
  3
*Paper_Space
  1

  0
ENDBLK
  5
1D
330
1B
100
AcDbEntity
 67
     1
  8
0
100
AcDbBlockEnd
  0
BLOCK
  5
24
330
23
100
AcDbEntity
  8
0
100
AcDbBlockBegin
  2
*Paper_Space0
 70
     0
 10
0.0
 20
0.0
 30
0.0
  3
*Paper_Space0
  1

  0
ENDBLK
  5
25
330
23
100
AcDbEntity
  8
0
100
AcDbBlockEnd
  0
BLOCK
  5
65
330
64
100
AcDbEntity
  8
0
100
AcDbBlockBegin
  2
JZB-1
 70
     0
 10
0.0
 20
0.0
 30
0.0
  3
JZB-1
  1

  0
LINE
  5
67
330
64
100
AcDbEntity
  8
001
 62
     2
370
    30
100
AcDbLine
 10
88.779364
 20
149.744324
 30
0.0
 11
88.428885
 21
152.026976
 31
0.0
  0
LINE
  5
68
330
64
100
AcDbEntity
  8
001
 62
     2
370
    30
100
AcDbLine
 10
90.931438
 20
148.906523
 30
0.0
 11
88.779364
 21
149.744324
 31
0.0
  0
LINE
  5
69
330
64
100
AcDbEntity
  8
001
 62
     2
370
    30
100
AcDbLine
 10
92.733033
 20
150.351372
 30
0.0
 11
90.931438
 21
148.906523
 31
0.0
  0
LINE
  5
6A
330
64
100
AcDbEntity
  8
001
 62
     2
370
    30
100
AcDbLine
 10
92.382553
 20
152.634024
 30
0.0
 11
92.733033
 21
150.351372
 31
0.0
  0
LINE
  5
6B
330
64
100
AcDbEntity
  8
001
 62
     2
370
    30
100
AcDbLine
 10
90.23048
 20
153.471826
 30
0.0
 11
92.382553
 21
152.634024
 31
0.0
  0
LINE
  5
6C
330
64
100
AcDbEntity
  8
001
 62
     2
370
    30
100
AcDbLine
 10
88.428885
 20
152.026976
 30
0.0
 11
90.23048
 21
153.471826
 31
0.0
  0
CIRCLE
  5
6D
330
64
100
AcDbEntity
  8
001
 62
     2
370
    30
100
AcDbCircle
 10
90.580959
 20
151.189174
 30
0.0
 40
3.3235
  0
CIRCLE
  5
6E
330
64
100
AcDbEntity
  8
001
 62
     2
370
    30
100
AcDbCircle
 10
90.580959
 20
151.189174
 30
0.0
 40
4.0
  0
ENDBLK
  5
66
330
64
100
AcDbEntity
  8
0
100
AcDbBlockEnd
  0
BLOCK
  5
70
330
6F
100
AcDbEntity
  8
0
100
AcDbBlockBegin
  2
JZB-2
 70
     0
 10
0.0
 20
0.0
 30
0.0
  3
JZB-2
  1

  0
LINE
  5
72
330
6F
100
AcDbEntity
  8
001
 62
     2
370
    30
100
AcDbLine
 10
73.779364
 20
149.744324
 30
0.0
 11
73.428885
 21
152.026976
 31
0.0
  0
LINE
  5
73
330
6F
100
AcDbEntity
  8
001
 62
     2
370
    30
100
AcDbLine
 10
75.931438
 20
148.906523
 30
0.0
 11
73.779364
 21
149.744324
 31
0.0
  0
LINE
  5
74
330
6F
100
AcDbEntity
  8
001
 62
     2
370
    30
100
AcDbLine
 10
77.733033
 20
150.351372
 30
0.0
 11
75.931438
 21
148.906523
 31
0.0
  0
LINE
  5
75
330
6F
100
AcDbEntity
  8
001
 62
     2
370
    30
100
AcDbLine
 10
77.382553
 20
152.634024
 30
0.0
 11
77.733033
 21
150.351372
 31
0.0
  0
LINE
  5
76
330
6F
100
AcDbEntity
  8
001
 62
     2
370
    30
100
AcDbLine
 10
75.23048
 20
153.471826
 30
0.0
 11
77.382553
 21
152.634024
 31
0.0
  0
LINE
  5
77
330
6F
100
AcDbEntity
  8
001
 62
     2
370
    30
100
AcDbLine
 10
73.428885
 20
152.026976
 30
0.0
 11
75.23048
 21
153.471826
 31
0.0
  0
CIRCLE
  5
78
330
6F
100
AcDbEntity
  8
001
 62
     2
370
    30
100
AcDbCircle
 10
75.580959
 20
151.189174
 30
0.0
 40
3.3235
  0
CIRCLE
  5
79
330
6F
100
AcDbEntity
  8
001
 62
     2
370
    30
100
AcDbCircle
 10
75.580959
 20
151.189174
 30
0.0
 40
4.0
  0
ENDBLK
  5
71
330
6F
100
AcDbEntity
  8
0
100
AcDbBlockEnd
  0
BLOCK
  5
7B
330
7A
100
AcDbEntity
  8
0
100
AcDbBlockBegin
  2
*D3
 70
     1
 10
0.0
 20
0.0
 30
0.0
  3
*D3
  1

  0
LINE
  5
7D
330
7A
100
AcDbEntity
  8
001
370
     9
100
AcDbLine
 10
82.580959
 20
135.689174
 30
0.0
 11
82.580959
 21
111.328504
 31
0.0
  0
LINE
  5
7E
330
7A
100
AcDbEntity
  8
001
370
     9
100
AcDbLine
 10
82.580959
 20
114.766004
 30
0.0
 11
62.580959
 21
114.766004
 31
0.0
  0
POLYLINE
  5
7F
330
7A
100
AcDbEntity
  8
001
370
     9
100
AcDb2dPolyline
 66
     1
 10
0.0
 20
0.0
 30
0.0
  0
VERTEX
  5
81
330
7F
100
AcDbEntity
  8
001
370
     9
100
AcDbVertex
100
AcDb2dVertex
 10
80.705959
 20
115.268409
 30
0.0
  0
VERTEX
  5
82
330
7F
100
AcDbEntity
  8
001
370
     9
100
AcDbVertex
100
AcDb2dVertex
 10
82.580959
 20
114.766004
 30
0.0
  0
VERTEX
  5
83
330
7F
100
AcDbEntity
  8
001
370
     9
100
AcDbVertex
100
AcDb2dVertex
 10
80.705959
 20
114.263599
 30
0.0
  0
SEQEND
  5
80
330
7F
100
AcDbEntity
  8
001
370
     9
  0
POLYLINE
  5
84
330
7A
100
AcDbEntity
  8
001
370
     9
100
AcDb2dPolyline
 66
     1
 10
0.0
 20
0.0
 30
0.0
  0
VERTEX
  5
86
330
84
100
AcDbEntity
  8
001
370
     9
100
AcDbVertex
100
AcDb2dVertex
 10
64.455959
 20
114.263599
 30
0.0
  0
VERTEX
  5
87
330
84
100
AcDbEntity
  8
001
370
     9
100
AcDbVertex
100
AcDb2dVertex
 10
62.580959
 20
114.766004
 30
0.0
  0
VERTEX
  5
88
330
84
100
AcDbEntity
  8
001
370
     9
100
AcDbVertex
100
AcDb2dVertex
 10
64.455959
 20
115.268409
 30
0.0
  0
SEQEND
  5
85
330
84
100
AcDbEntity
  8
001
370
     9
  0
TEXT
  5
89
330
7A
100
AcDbEntity
  8
001
370
    30
100
AcDbText
 10
67.580959
 20
116.016004
 30
0.0
 40
5.0
  1
２０
 41
0.833333
100
AcDbText
  0
POINT
  5
8A
330
7A
100
AcDbEntity
  8
001
370
     9
100
AcDbPoint
 10
82.580959
 20
135.689174
 30
0.0
  0
POINT
  5
8B
330
7A
100
AcDbEntity
  8
001
370
     9
100
AcDbPoint
 10
62.580959
 20
118.203504
 30
0.0
  0
POINT
  5
8C
330
7A
100
AcDbEntity
  8
001
370
     9
100
AcDbPoint
 10
62.580959
 20
114.766004
 30
0.0
  0
ENDBLK
  5
7C
330
7A
100
AcDbEntity
  8
0
100
AcDbBlockEnd
  0
BLOCK
  5
8E
330
8D
100
AcDbEntity
  8
0
100
AcDbBlockBegin
  2
*D4
 70
     1
 10
0.0
 20
0.0
 30
0.0
  3
*D4
  1

  0
LINE
  5
90
330
8D
100
AcDbEntity
  8
001
370
     9
100
AcDbLine
 10
102.580959
 20
128.689174
 30
0.0
 11
102.580959
 21
98.534493
 31
0.0
  0
LINE
  5
91
330
8D
100
AcDbEntity
  8
001
370
     9
100
AcDbLine
 10
182.580959
 20
133.189174
 30
0.0
 11
182.580959
 21
98.534493
 31
0.0
  0
LINE
  5
92
330
8D
100
AcDbEntity
  8
001
370
     9
100
AcDbLine
 10
102.580959
 20
101.971993
 30
0.0
 11
182.580959
 21
101.971993
 31
0.0
  0
POLYLINE
  5
93
330
8D
100
AcDbEntity
  8
001
370
     9
100
AcDb2dPolyline
 66
     1
 10
0.0
 20
0.0
 30
0.0
  0
VERTEX
  5
95
330
93
100
AcDbEntity
  8
001
370
     9
100
AcDbVertex
100
AcDb2dVertex
 10
104.455959
 20
101.469588
 30
0.0
  0
VERTEX
  5
96
330
93
100
AcDbEntity
  8
001
370
     9
100
AcDbVertex
100
AcDb2dVertex
 10
102.580959
 20
101.971993
 30
0.0
  0
VERTEX
  5
97
330
93
100
AcDbEntity
  8
001
370
     9
100
AcDbVertex
100
AcDb2dVertex
 10
104.455959
 20
102.474398
 30
0.0
  0
SEQEND
  5
94
330
93
100
AcDbEntity
  8
001
370
     9
  0
POLYLINE
  5
98
330
8D
100
AcDbEntity
  8
001
370
     9
100
AcDb2dPolyline
 66
     1
 10
0.0
 20
0.0
 30
0.0
  0
VERTEX
  5
9A
330
98
100
AcDbEntity
  8
001
370
     9
100
AcDbVertex
100
AcDb2dVertex
 10
180.705959
 20
102.474398
 30
0.0
  0
VERTEX
  5
9B
330
98
100
AcDbEntity
  8
001
370
     9
100
AcDbVertex
100
AcDb2dVertex
 10
182.580959
 20
101.971993
 30
0.0
  0
VERTEX
  5
9C
330
98
100
AcDbEntity
  8
001
370
     9
100
AcDbVertex
100
AcDb2dVertex
 10
180.705959
 20
101.469588
 30
0.0
  0
SEQEND
  5
99
330
98
100
AcDbEntity
  8
001
370
     9
  0
TEXT
  5
9D
330
8D
100
AcDbEntity
  8
001
370
    30
100
AcDbText
 10
133.95311
 20
103.221993
 30
0.0
 40
5.0
  1
（８０）
 41
0.833333
100
AcDbText
  0
POINT
  5
9E
330
8D
100
AcDbEntity
  8
001
370
     9
100
AcDbPoint
 10
102.580959
 20
128.689174
 30
0.0
  0
POINT
  5
9F
330
8D
100
AcDbEntity
  8
001
370
     9
100
AcDbPoint
 10
182.580959
 20
133.189174
 30
0.0
  0
POINT
  5
A0
330
8D
100
AcDbEntity
  8
001
370
     9
100
AcDbPoint
 10
182.580959
 20
101.971993
 30
0.0
  0
ENDBLK
  5
8F
330
8D
100
AcDbEntity
  8
0
100
AcDbBlockEnd
  0
BLOCK
  5
A2
330
A1
100
AcDbEntity
  8
0
100
AcDbBlockBegin
  2
*D5
 70
     1
 10
0.0
 20
0.0
 30
0.0
  3
*D5
  1

  0
LINE
  5
A4
330
A1
100
AcDbEntity
  8
001
370
     9
100
AcDbLine
 10
83.080959
 20
167.189174
 30
0.0
 11
27.335961
 21
167.189174
 31
0.0
  0
LINE
  5
A5
330
A1
100
AcDbEntity
  8
001
370
     9
100
AcDbLine
 10
83.080959
 20
135.189174
 30
0.0
 11
27.335961
 21
135.189174
 31
0.0
  0
LINE
  5
A6
330
A1
100
AcDbEntity
  8
001
370
     9
100
AcDbLine
 10
30.773461
 20
167.189174
 30
0.0
 11
30.773461
 21
135.189174
 31
0.0
  0
POLYLINE
  5
A7
330
A1
100
AcDbEntity
  8
001
370
     9
100
AcDb2dPolyline
 66
     1
 10
0.0
 20
0.0
 30
0.0
  0
VERTEX
  5
A9
330
A7
100
AcDbEntity
  8
001
370
     9
100
AcDbVertex
100
AcDb2dVertex
 10
30.271056
 20
165.314174
 30
0.0
  0
VERTEX
  5
AA
330
A7
100
AcDbEntity
  8
001
370
     9
100
AcDbVertex
100
AcDb2dVertex
 10
30.773461
 20
167.189174
 30
0.0
  0
VERTEX
  5
AB
330
A7
100
AcDbEntity
  8
001
370
     9
100
AcDbVertex
100
AcDb2dVertex
 10
31.275866
 20
165.314174
 30
0.0
  0
SEQEND
  5
A8
330
A7
100
AcDbEntity
  8
001
370
     9
  0
POLYLINE
  5
AC
330
A1
100
AcDbEntity
  8
001
370
     9
100
AcDb2dPolyline
 66
     1
 10
0.0
 20
0.0
 30
0.0
  0
VERTEX
  5
AE
330
AC
100
AcDbEntity
  8
001
370
     9
100
AcDbVertex
100
AcDb2dVertex
 10
31.275866
 20
137.064174
 30
0.0
  0
VERTEX
  5
AF
330
AC
100
AcDbEntity
  8
001
370
     9
100
AcDbVertex
100
AcDb2dVertex
 10
30.773461
 20
135.189174
 30
0.0
  0
VERTEX
  5
B0
330
AC
100
AcDbEntity
  8
001
370
     9
100
AcDbVertex
100
AcDb2dVertex
 10
30.271056
 20
137.064174
 30
0.0
  0
SEQEND
  5
AD
330
AC
100
AcDbEntity
  8
001
370
     9
  0
TEXT
  5
B1
330
A1
100
AcDbEntity
  8
001
370
    30
100
AcDbText
 10
29.523461
 20
143.689174
 30
0.0
 40
5.0
  1
%%c３２
 50
90.000003
 41
0.882353
100
AcDbText
  0
POINT
  5
B2
330
A1
100
AcDbEntity
  8
001
370
     9
100
AcDbPoint
 10
83.080959
 20
167.189174
 30
0.0
  0
POINT
  5
B3
330
A1
100
AcDbEntity
  8
001
370
     9
100
AcDbPoint
 10
83.080959
 20
135.189174
 30
0.0
  0
POINT
  5
B4
330
A1
100
AcDbEntity
  8
001
370
     9
100
AcDbPoint
 10
30.773461
 20
135.189174
 30
0.0
  0
ENDBLK
  5
A3
330
A1
100
AcDbEntity
  8
0
100
AcDbBlockEnd
  0
BLOCK
  5
B6
330
B5
100
AcDbEntity
  8
0
100
AcDbBlockBegin
  2
*D6
 70
     1
 10
0.0
 20
0.0
 30
0.0
  3
*D6
  1

  0
LINE
  5
B8
330
B5
100
AcDbEntity
  8
001
370
     9
100
AcDbLine
 10
75.580959
 20
73.929661
 30
0.0
 11
75.580959
 21
80.723774
 31
0.0
  0
LINE
  5
B9
330
B5
100
AcDbEntity
  8
001
370
     9
100
AcDbLine
 10
62.580959
 20
64.114122
 30
0.0
 11
62.580959
 21
80.723774
 31
0.0
  0
LINE
  5
BA
330
B5
100
AcDbEntity
  8
001
370
     9
100
AcDbLine
 10
75.580959
 20
77.286274
 30
0.0
 11
62.580959
 21
77.286274
 31
0.0
  0
POLYLINE
  5
BB
330
B5
100
AcDbEntity
  8
001
370
     9
100
AcDb2dPolyline
 66
     1
 10
0.0
 20
0.0
 30
0.0
  0
VERTEX
  5
BD
330
BB
100
AcDbEntity
  8
001
370
     9
100
AcDbVertex
100
AcDb2dVertex
 10
77.455959
 20
76.783869
 30
0.0
  0
VERTEX
  5
BE
330
BB
100
AcDbEntity
  8
001
370
     9
100
AcDbVertex
100
AcDb2dVertex
 10
75.580959
 20
77.286274
 30
0.0
  0
VERTEX
  5
BF
330
BB
100
AcDbEntity
  8
001
370
     9
100
AcDbVertex
100
AcDb2dVertex
 10
77.455959
 20
77.788678
 30
0.0
  0
SEQEND
  5
BC
330
BB
100
AcDbEntity
  8
001
370
     9
  0
POLYLINE
  5
C0
330
B5
100
AcDbEntity
  8
001
370
     9
100
AcDb2dPolyline
 66
     1
 10
0.0
 20
0.0
 30
0.0
  0
VERTEX
  5
C2
330
C0
100
AcDbEntity
  8
001
370
     9
100
AcDbVertex
100
AcDb2dVertex
 10
60.705959
 20
77.788678
 30
0.0
  0
VERTEX
  5
C3
330
C0
100
AcDbEntity
  8
001
370
     9
100
AcDbVertex
100
AcDb2dVertex
 10
62.580959
 20
77.286274
 30
0.0
  0
VERTEX
  5
C4
330
C0
100
AcDbEntity
  8
001
370
     9
100
AcDbVertex
100
AcDb2dVertex
 10
60.705959
 20
76.783869
 30
0.0
  0
SEQEND
  5
C1
330
C0
100
AcDbEntity
  8
001
370
     9
  0
TEXT
  5
C5
330
B5
100
AcDbEntity
  8
001
370
    30
100
AcDbText
 10
48.205959
 20
78.536274
 30
0.0
 40
5.0
  1
１３
 41
0.833333
100
AcDbText
  0
POINT
  5
C6
330
B5
100
AcDbEntity
  8
001
370
     9
100
AcDbPoint
 10
75.580959
 20
73.929661
 30
0.0
  0
POINT
  5
C7
330
B5
100
AcDbEntity
  8
001
370
     9
100
AcDbPoint
 10
62.580959
 20
64.114122
 30
0.0
  0
POINT
  5
C8
330
B5
100
AcDbEntity
  8
001
370
     9
100
AcDbPoint
 10
62.580959
 20
77.286274
 30
0.0
  0
LINE
  5
C9
330
B5
100
AcDbEntity
  8
001
370
     9
100
AcDbLine
 10
75.580959
 20
77.286274
 30
0.0
 11
78.705959
 21
77.286274
 31
0.0
  0
LINE
  5
CA
330
B5
100
AcDbEntity
  8
001
370
     9
100
AcDbLine
 10
62.580959
 20
77.286274
 30
0.0
 11
44.455959
 21
77.286274
 31
0.0
  0
ENDBLK
  5
B7
330
B5
100
AcDbEntity
  8
0
100
AcDbBlockEnd
  0
BLOCK
  5
CC
330
CB
100
AcDbEntity
  8
0
100
AcDbBlockBegin
  2
*D7
 70
     1
 10
0.0
 20
0.0
 30
0.0
  3
*D7
  1

  0
LINE
  5
CE
330
CB
100
AcDbEntity
  8
001
370
     9
100
AcDbLine
 10
180.580959
 20
171.189174
 30
0.0
 11
212.174824
 21
171.189174
 31
0.0
  0
LINE
  5
CF
330
CB
100
AcDbEntity
  8
001
370
     9
100
AcDbLine
 10
180.580959
 20
131.189174
 30
0.0
 11
212.174824
 21
131.189174
 31
0.0
  0
LINE
  5
D0
330
CB
100
AcDbEntity
  8
001
370
     9
100
AcDbLine
 10
208.737324
 20
171.189174
 30
0.0
 11
208.737324
 21
131.189174
 31
0.0
  0
POLYLINE
  5
D1
330
CB
100
AcDbEntity
  8
001
370
     9
100
AcDb2dPolyline
 66
     1
 10
0.0
 20
0.0
 30
0.0
  0
VERTEX
  5
D3
330
D1
100
AcDbEntity
  8
001
370
     9
100
AcDbVertex
100
AcDb2dVertex
 10
208.23492
 20
169.314174
 30
0.0
  0
VERTEX
  5
D4
330
D1
100
AcDbEntity
  8
001
370
     9
100
AcDbVertex
100
AcDb2dVertex
 10
208.737324
 20
171.189174
 30
0.0
  0
VERTEX
  5
D5
330
D1
100
AcDbEntity
  8
001
370
     9
100
AcDbVertex
100
AcDb2dVertex
 10
209.239729
 20
169.314174
 30
0.0
  0
SEQEND
  5
D2
330
D1
100
AcDbEntity
  8
001
370
     9
  0
POLYLINE
  5
D6
330
CB
100
AcDbEntity
  8
001
370
     9
100
AcDb2dPolyline
 66
     1
 10
0.0
 20
0.0
 30
0.0
  0
VERTEX
  5
D8
330
D6
100
AcDbEntity
  8
001
370
     9
100
AcDbVertex
100
AcDb2dVertex
 10
209.239729
 20
133.064174
 30
0.0
  0
VERTEX
  5
D9
330
D6
100
AcDbEntity
  8
001
370
     9
100
AcDbVertex
100
AcDb2dVertex
 10
208.737324
 20
131.189174
 30
0.0
  0
VERTEX
  5
DA
330
D6
100
AcDbEntity
  8
001
370
     9
100
AcDbVertex
100
AcDb2dVertex
 10
208.23492
 20
133.064174
 30
0.0
  0
SEQEND
  5
D7
330
D6
100
AcDbEntity
  8
001
370
     9
  0
TEXT
  5
DB
330
CB
100
AcDbEntity
  8
001
370
    30
100
AcDbText
 10
207.487324
 20
139.689174
 30
0.0
 40
5.0
  1
%%c４０
 50
90.000003
 41
0.882353
100
AcDbText
  0
TEXT
  5
DC
330
CB
100
AcDbEntity
  8
001
370
    30
100
AcDbText
 10
206.987324
 20
154.689174
 30
0.0
 40
4.0
  1
ｈ７
 50
90.000003
 41
0.833333
100
AcDbText
  0
POINT
  5
DD
330
CB
100
AcDbEntity
  8
001
370
     9
100
AcDbPoint
 10
180.580959
 20
171.189174
 30
0.0
  0
POINT
  5
DE
330
CB
100
AcDbEntity
  8
001
370
     9
100
AcDbPoint
 10
180.580959
 20
131.189174
 30
0.0
  0
POINT
  5
DF
330
CB
100
AcDbEntity
  8
001
370
     9
100
AcDbPoint
 10
208.737324
 20
131.189174
 30
0.0
  0
ENDBLK
  5
CD
330
CB
100
AcDbEntity
  8
0
100
AcDbBlockEnd
  0
BLOCK
  5
E1
330
E0
100
AcDbEntity
  8
0
100
AcDbBlockBegin
  2
DIM-3
 70
     0
 10
0.0
 20
0.0
 30
0.0
  3
DIM-3
  1

  0
TEXT
  5
E3
330
E0
100
AcDbEntity
  8
001
370
    30
100
AcDbText
 10
-13.359896
 20
116.940131
 30
0.0
 40
5.0
  1
２－Ｍ８×１．２５，貫通
 41
0.833333
100
AcDbText
  0
POLYLINE
  5
E4
330
E0
100
AcDbEntity
  8
001
370
     9
100
AcDb2dPolyline
 66
     1
 10
0.0
 20
0.0
 30
0.0
  0
VERTEX
  5
E6
330
E4
100
AcDbEntity
  8
001
370
     9
100
AcDbVertex
100
AcDb2dVertex
 10
72.529839
 20
146.989785
 30
0.0
  0
VERTEX
  5
E7
330
E4
100
AcDbEntity
  8
001
370
     9
100
AcDbVertex
100
AcDb2dVertex
 10
74.069993
 20
148.171293
 30
0.0
  0
VERTEX
  5
E8
330
E4
100
AcDbEntity
  8
001
370
     9
100
AcDbVertex
100
AcDb2dVertex
 10
73.326934
 20
146.378
 30
0.0
  0
SEQEND
  5
E5
330
E4
100
AcDbEntity
  8
001
370
     9
  0
POLYLINE
  5
E9
330
E0
100
AcDbEntity
  8
001
370
     9
100
AcDb2dPolyline
 66
     1
 10
0.0
 20
0.0
 30
0.0
  0
VERTEX
  5
EB
330
E9
100
AcDbEntity
  8
001
370
     9
100
AcDbVertex
100
AcDb2dVertex
 10
74.069993
 20
148.171293
 30
0.0
  0
VERTEX
  5
EC
330
E9
100
AcDbEntity
  8
001
370
     9
100
AcDbVertex
100
AcDb2dVertex
 10
49.140104
 20
115.690131
 30
0.0
  0
VERTEX
  5
ED
330
E9
100
AcDbEntity
  8
001
370
     9
100
AcDbVertex
100
AcDb2dVertex
 10
-15.859896
 20
115.690131
 30
0.0
  0
SEQEND
  5
EA
330
E9
100
AcDbEntity
  8
001
370
     9
  0
ENDBLK
  5
E2
330
E0
100
AcDbEntity
  8
0
100
AcDbBlockEnd
  0
BLOCK
  5
EF
330
EE
100
AcDbEntity
  8
0
100
AcDbBlockBegin
  2
*D9
 70
     1
 10
0.0
 20
0.0
 30
0.0
  3
*D9
  1

  0
LINE
  5
F1
330
EE
100
AcDbEntity
  8
001
370
     9
100
AcDbLine
 10
270.062728
 20
143.918354
 30
0.0
 11
270.062728
 21
95.441462
 31
0.0
  0
LINE
  5
F2
330
EE
100
AcDbEntity
  8
001
370
     9
100
AcDbLine
 10
232.062728
 20
135.200556
 30
0.0
 11
232.062728
 21
95.441462
 31
0.0
  0
LINE
  5
F3
330
EE
100
AcDbEntity
  8
001
370
     9
100
AcDbLine
 10
270.062728
 20
98.878962
 30
0.0
 11
232.062728
 21
98.878962
 31
0.0
  0
POLYLINE
  5
F4
330
EE
100
AcDbEntity
  8
001
370
     9
100
AcDb2dPolyline
 66
     1
 10
0.0
 20
0.0
 30
0.0
  0
VERTEX
  5
F6
330
F4
100
AcDbEntity
  8
001
370
     9
100
AcDbVertex
100
AcDb2dVertex
 10
268.187728
 20
99.381367
 30
0.0
  0
VERTEX
  5
F7
330
F4
100
AcDbEntity
  8
001
370
     9
100
AcDbVertex
100
AcDb2dVertex
 10
270.062728
 20
98.878962
 30
0.0
  0
VERTEX
  5
F8
330
F4
100
AcDbEntity
  8
001
370
     9
100
AcDbVertex
100
AcDb2dVertex
 10
268.187728
 20
98.376557
 30
0.0
  0
SEQEND
  5
F5
330
F4
100
AcDbEntity
  8
001
370
     9
  0
POLYLINE
  5
F9
330
EE
100
AcDbEntity
  8
001
370
     9
100
AcDb2dPolyline
 66
     1
 10
0.0
 20
0.0
 30
0.0
  0
VERTEX
  5
FB
330
F9
100
AcDbEntity
  8
001
370
     9
100
AcDbVertex
100
AcDb2dVertex
 10
233.937728
 20
98.376557
 30
0.0
  0
VERTEX
  5
FC
330
F9
100
AcDbEntity
  8
001
370
     9
100
AcDbVertex
100
AcDb2dVertex
 10
232.062728
 20
98.878962
 30
0.0
  0
VERTEX
  5
FD
330
F9
100
AcDbEntity
  8
001
370
     9
100
AcDbVertex
100
AcDb2dVertex
 10
233.937728
 20
99.381367
 30
0.0
  0
SEQEND
  5
FA
330
F9
100
AcDbEntity
  8
001
370
     9
  0
TEXT
  5
FE
330
EE
100
AcDbEntity
  8
001
370
    30
100
AcDbText
 10
246.062728
 20
100.128962
 30
0.0
 40
5.0
  1
３８
 41
0.833333
100
AcDbText
  0
POINT
  5
FF
330
EE
100
AcDbEntity
  8
001
370
     9
100
AcDbPoint
 10
270.062728
 20
143.918354
 30
0.0
  0
POINT
  5
100
330
EE
100
AcDbEntity
  8
001
370
     9
100
AcDbPoint
 10
232.062728
 20
135.200556
 30
0.0
  0
POINT
  5
101
330
EE
100
AcDbEntity
  8
001
370
     9
100
AcDbPoint
 10
232.062728
 20
98.878962
 30
0.0
  0
ENDBLK
  5
F0
330
EE
100
AcDbEntity
  8
0
100
AcDbBlockEnd
  0
BLOCK
  5
103
330
102
100
AcDbEntity
  8
0
100
AcDbBlockBegin
  2
*D10
 70
     1
 10
0.0
 20
0.0
 30
0.0
  3
*D10
  1

  0
LINE
  5
105
330
102
100
AcDbEntity
  8
001
370
     9
100
AcDbLine
 10
98.580959
 20
174.689174
 30
0.0
 11
13.556587
 21
174.689174
 31
0.0
  0
LINE
  5
106
330
102
100
AcDbEntity
  8
001
370
     9
100
AcDbLine
 10
98.580959
 20
127.689174
 30
0.0
 11
13.556587
 21
127.689174
 31
0.0
  0
LINE
  5
107
330
102
100
AcDbEntity
  8
001
370
     9
100
AcDbLine
 10
16.994087
 20
174.689174
 30
0.0
 11
16.994087
 21
127.689174
 31
0.0
  0
POLYLINE
  5
108
330
102
100
AcDbEntity
  8
001
370
     9
100
AcDb2dPolyline
 66
     1
 10
0.0
 20
0.0
 30
0.0
  0
VERTEX
  5
10A
330
108
100
AcDbEntity
  8
001
370
     9
100
AcDbVertex
100
AcDb2dVertex
 10
16.491683
 20
172.814174
 30
0.0
  0
VERTEX
  5
10B
330
108
100
AcDbEntity
  8
001
370
     9
100
AcDbVertex
100
AcDb2dVertex
 10
16.994087
 20
174.689174
 30
0.0
  0
VERTEX
  5
10C
330
108
100
AcDbEntity
  8
001
370
     9
100
AcDbVertex
100
AcDb2dVertex
 10
17.496492
 20
172.814174
 30
0.0
  0
SEQEND
  5
109
330
108
100
AcDbEntity
  8
001
370
     9
  0
POLYLINE
  5
10D
330
102
100
AcDbEntity
  8
001
370
     9
100
AcDb2dPolyline
 66
     1
 10
0.0
 20
0.0
 30
0.0
  0
VERTEX
  5
10F
330
10D
100
AcDbEntity
  8
001
370
     9
100
AcDbVertex
100
AcDb2dVertex
 10
17.496492
 20
129.564174
 30
0.0
  0
VERTEX
  5
110
330
10D
100
AcDbEntity
  8
001
370
     9
100
AcDbVertex
100
AcDb2dVertex
 10
16.994087
 20
127.689174
 30
0.0
  0
VERTEX
  5
111
330
10D
100
AcDbEntity
  8
001
370
     9
100
AcDbVertex
100
AcDb2dVertex
 10
16.491683
 20
129.564174
 30
0.0
  0
SEQEND
  5
10E
330
10D
100
AcDbEntity
  8
001
370
     9
  0
TEXT
  5
112
330
102
100
AcDbEntity
  8
001
370
    30
100
AcDbText
 10
15.744087
 20
143.689174
 30
0.0
 40
5.0
  1
%%c４７
 50
90.000003
 41
0.882353
100
AcDbText
  0
POINT
  5
113
330
102
100
AcDbEntity
  8
001
370
     9
100
AcDbPoint
 10
98.580959
 20
174.689174
 30
0.0
  0
POINT
  5
114
330
102
100
AcDbEntity
  8
001
370
     9
100
AcDbPoint
 10
98.580959
 20
127.689174
 30
0.0
  0
POINT
  5
115
330
102
100
AcDbEntity
  8
001
370
     9
100
AcDbPoint
 10
16.994087
 20
127.689174
 30
0.0
  0
ENDBLK
  5
104
330
102
100
AcDbEntity
  8
0
100
AcDbBlockEnd
  0
BLOCK
  5
117
330
116
100
AcDbEntity
  8
0
100
AcDbBlockBegin
  2
*D11
 70
     1
 10
0.0
 20
0.0
 30
0.0
  3
*D11
  1

  0
LINE
  5
119
330
116
100
AcDbEntity
  8
001
370
     9
100
AcDbLine
 10
62.580959
 20
161.725072
 30
0.0
 11
62.580959
 21
188.37595
 31
0.0
  0
LINE
  5
11A
330
116
100
AcDbEntity
  8
001
370
     9
100
AcDbLine
 10
67.580959
 20
165.189174
 30
0.0
 11
67.580959
 21
188.37595
 31
0.0
  0
LINE
  5
11B
330
116
100
AcDbEntity
  8
001
370
     9
100
AcDbLine
 10
62.580959
 20
184.93845
 30
0.0
 11
67.580959
 21
184.93845
 31
0.0
  0
POLYLINE
  5
11C
330
116
100
AcDbEntity
  8
001
370
     9
100
AcDb2dPolyline
 66
     1
 10
0.0
 20
0.0
 30
0.0
  0
VERTEX
  5
11E
330
11C
100
AcDbEntity
  8
001
370
     9
100
AcDbVertex
100
AcDb2dVertex
 10
60.705959
 20
185.440855
 30
0.0
  0
VERTEX
  5
11F
330
11C
100
AcDbEntity
  8
001
370
     9
100
AcDbVertex
100
AcDb2dVertex
 10
62.580959
 20
184.93845
 30
0.0
  0
VERTEX
  5
120
330
11C
100
AcDbEntity
  8
001
370
     9
100
AcDbVertex
100
AcDb2dVertex
 10
60.705959
 20
184.436046
 30
0.0
  0
SEQEND
  5
11D
330
11C
100
AcDbEntity
  8
001
370
     9
  0
POLYLINE
  5
121
330
116
100
AcDbEntity
  8
001
370
     9
100
AcDb2dPolyline
 66
     1
 10
0.0
 20
0.0
 30
0.0
  0
VERTEX
  5
123
330
121
100
AcDbEntity
  8
001
370
     9
100
AcDbVertex
100
AcDb2dVertex
 10
69.455959
 20
184.436046
 30
0.0
  0
VERTEX
  5
124
330
121
100
AcDbEntity
  8
001
370
     9
100
AcDbVertex
100
AcDb2dVertex
 10
67.580959
 20
184.93845
 30
0.0
  0
VERTEX
  5
125
330
121
100
AcDbEntity
  8
001
370
     9
100
AcDbVertex
100
AcDb2dVertex
 10
69.455959
 20
185.440855
 30
0.0
  0
SEQEND
  5
122
330
121
100
AcDbEntity
  8
001
370
     9
  0
TEXT
  5
126
330
116
100
AcDbEntity
  8
001
370
    30
100
AcDbText
 10
43.726182
 20
186.18845
 30
0.0
 40
5.0
  1
（５）
 41
0.833333
100
AcDbText
  0
POINT
  5
127
330
116
100
AcDbEntity
  8
001
370
     9
100
AcDbPoint
 10
62.580959
 20
161.725072
 30
0.0
  0
POINT
  5
128
330
116
100
AcDbEntity
  8
001
370
     9
100
AcDbPoint
 10
67.580959
 20
165.189174
 30
0.0
  0
POINT
  5
129
330
116
100
AcDbEntity
  8
001
370
     9
100
AcDbPoint
 10
67.580959
 20
184.93845
 30
0.0
  0
LINE
  5
12A
330
116
100
AcDbEntity
  8
001
370
     9
100
AcDbLine
 10
62.580959
 20
184.93845
 30
0.0
 11
39.976182
 21
184.93845
 31
0.0
  0
LINE
  5
12B
330
116
100
AcDbEntity
  8
001
370
     9
100
AcDbLine
 10
67.580959
 20
184.93845
 30
0.0
 11
70.705959
 21
184.93845
 31
0.0
  0
ENDBLK
  5
118
330
116
100
AcDbEntity
  8
0
100
AcDbBlockEnd
  0
BLOCK
  5
12D
330
12C
100
AcDbEntity
  8
0
100
AcDbBlockBegin
  2
*D12
 70
     1
 10
0.0
 20
0.0
 30
0.0
  3
*D12
  1

  0
LINE
  5
12F
330
12C
100
AcDbEntity
  8
001
370
     9
100
AcDbLine
 10
90.580959
 20
73.929661
 30
0.0
 11
90.580959
 21
80.723774
 31
0.0
  0
LINE
  5
130
330
12C
100
AcDbEntity
  8
001
370
     9
100
AcDbLine
 10
75.580959
 20
73.929661
 30
0.0
 11
75.580959
 21
80.723774
 31
0.0
  0
LINE
  5
131
330
12C
100
AcDbEntity
  8
001
370
     9
100
AcDbLine
 10
90.580959
 20
77.286274
 30
0.0
 11
75.580959
 21
77.286274
 31
0.0
  0
POLYLINE
  5
132
330
12C
100
AcDbEntity
  8
001
370
     9
100
AcDb2dPolyline
 66
     1
 10
0.0
 20
0.0
 30
0.0
  0
VERTEX
  5
134
330
132
100
AcDbEntity
  8
001
370
     9
100
AcDbVertex
100
AcDb2dVertex
 10
92.455959
 20
76.783869
 30
0.0
  0
VERTEX
  5
135
330
132
100
AcDbEntity
  8
001
370
     9
100
AcDbVertex
100
AcDb2dVertex
 10
90.580959
 20
77.286274
 30
0.0
  0
VERTEX
  5
136
330
132
100
AcDbEntity
  8
001
370
     9
100
AcDbVertex
100
AcDb2dVertex
 10
92.455959
 20
77.788678
 30
0.0
  0
SEQEND
  5
133
330
132
100
AcDbEntity
  8
001
370
     9
  0
POLYLINE
  5
137
330
12C
100
AcDbEntity
  8
001
370
     9
100
AcDb2dPolyline
 66
     1
 10
0.0
 20
0.0
 30
0.0
  0
VERTEX
  5
139
330
137
100
AcDbEntity
  8
001
370
     9
100
AcDbVertex
100
AcDb2dVertex
 10
73.705959
 20
77.788678
 30
0.0
  0
VERTEX
  5
13A
330
137
100
AcDbEntity
  8
001
370
     9
100
AcDbVertex
100
AcDb2dVertex
 10
75.580959
 20
77.286274
 30
0.0
  0
VERTEX
  5
13B
330
137
100
AcDbEntity
  8
001
370
     9
100
AcDbVertex
100
AcDb2dVertex
 10
73.705959
 20
76.783869
 30
0.0
  0
SEQEND
  5
138
330
137
100
AcDbEntity
  8
001
370
     9
  0
TEXT
  5
13C
330
12C
100
AcDbEntity
  8
001
370
    30
100
AcDbText
 10
78.080959
 20
78.536274
 30
0.0
 40
5.0
  1
１５
 41
0.833333
100
AcDbText
  0
POINT
  5
13D
330
12C
100
AcDbEntity
  8
001
370
     9
100
AcDbPoint
 10
90.580959
 20
73.929661
 30
0.0
  0
POINT
  5
13E
330
12C
100
AcDbEntity
  8
001
370
     9
100
AcDbPoint
 10
75.580959
 20
73.929661
 30
0.0
  0
POINT
  5
13F
330
12C
100
AcDbEntity
  8
001
370
     9
100
AcDbPoint
 10
75.580959
 20
77.286274
 30
0.0
  0
LINE
  5
140
330
12C
100
AcDbEntity
  8
001
370
     9
100
AcDbLine
 10
90.580959
 20
77.286274
 30
0.0
 11
93.705959
 21
77.286274
 31
0.0
  0
LINE
  5
141
330
12C
100
AcDbEntity
  8
001
370
     9
100
AcDbLine
 10
75.580959
 20
77.286274
 30
0.0
 11
72.455959
 21
77.286274
 31
0.0
  0
ENDBLK
  5
12E
330
12C
100
AcDbEntity
  8
0
100
AcDbBlockEnd
  0
BLOCK
  5
143
330
142
100
AcDbEntity
  8
0
100
AcDbBlockBegin
  2
*D13
 70
     1
 10
0.0
 20
0.0
 30
0.0
  3
*D13
  1

  0
LINE
  5
145
330
142
100
AcDbEntity
  8
001
370
     9
100
AcDbLine
 10
180.580959
 20
169.189174
 30
0.0
 11
181.996375
 21
170.602184
 31
0.0
  0
POLYLINE
  5
146
330
142
100
AcDbEntity
  8
001
370
     9
100
AcDb2dPolyline
 66
     1
 10
0.0
 20
0.0
 30
0.0
  0
VERTEX
  5
148
330
146
100
AcDbEntity
  8
001
370
     9
100
AcDbVertex
100
AcDb2dVertex
 10
183.67828
 20
171.571324
 30
0.0
  0
VERTEX
  5
149
330
146
100
AcDbEntity
  8
001
370
     9
100
AcDbVertex
100
AcDb2dVertex
 10
181.996375
 20
170.602184
 30
0.0
  0
VERTEX
  5
14A
330
146
100
AcDbEntity
  8
001
370
     9
100
AcDbVertex
100
AcDb2dVertex
 10
182.968377
 20
172.282436
 30
0.0
  0
SEQEND
  5
147
330
146
100
AcDbEntity
  8
001
370
     9
  0
TEXT
  5
14B
330
142
100
AcDbEntity
  8
001
370
    30
100
AcDbText
 10
184.209468
 20
174.577778
 30
0.0
 40
5.0
  1
Ｒ２
 50
44.951244
 41
0.833333
100
AcDbText
  0
POINT
  5
14C
330
142
100
AcDbEntity
  8
001
370
     9
100
AcDbPoint
 10
181.996375
 20
170.602184
 30
0.0
  0
POINT
  5
14D
330
142
100
AcDbEntity
  8
001
370
     9
100
AcDbPoint
 10
180.580959
 20
169.189174
 30
0.0
  0
LINE
  5
14E
330
142
100
AcDbEntity
  8
001
370
     9
100
AcDbLine
 10
181.996375
 20
170.602184
 30
0.0
 11
194.823587
 21
183.407584
 31
0.0
  0
ENDBLK
  5
144
330
142
100
AcDbEntity
  8
0
100
AcDbBlockEnd
  0
BLOCK
  5
150
330
14F
100
AcDbEntity
  8
0
100
AcDbBlockBegin
  2
*D14
 70
     1
 10
0.0
 20
0.0
 30
0.0
  3
*D14
  1

  0
LINE
  5
152
330
14F
100
AcDbEntity
  8
001
370
     9
100
AcDbLine
 10
101.580959
 20
31.191472
 30
0.0
 11
102.291978
 21
30.488299
 31
0.0
  0
POLYLINE
  5
153
330
14F
100
AcDbEntity
  8
001
370
     9
100
AcDb2dPolyline
 66
     1
 10
0.0
 20
0.0
 30
0.0
  0
VERTEX
  5
155
330
153
100
AcDbEntity
  8
001
370
     9
100
AcDbVertex
100
AcDb2dVertex
 10
103.271861
 20
28.812631
 30
0.0
  0
VERTEX
  5
156
330
153
100
AcDbEntity
  8
001
370
     9
100
AcDbVertex
100
AcDb2dVertex
 10
102.291978
 20
30.488299
 30
0.0
  0
VERTEX
  5
157
330
153
100
AcDbEntity
  8
001
370
     9
100
AcDbVertex
100
AcDb2dVertex
 10
103.978416
 20
29.52707
 30
0.0
  0
SEQEND
  5
154
330
153
100
AcDbEntity
  8
001
370
     9
  0
TEXT
  5
158
330
14F
100
AcDbEntity
  8
001
370
    30
100
AcDbText
 10
106.281652
 20
28.300693
 30
0.0
 40
5.0
  1
２－Ｒ１
 50
315.317896
 41
0.833333
100
AcDbText
  0
POINT
  5
159
330
14F
100
AcDbEntity
  8
001
370
     9
100
AcDbPoint
 10
102.291978
 20
30.488299
 30
0.0
  0
POINT
  5
15A
330
14F
100
AcDbEntity
  8
001
370
     9
100
AcDbPoint
 10
101.580959
 20
31.191472
 30
0.0
  0
LINE
  5
15B
330
14F
100
AcDbEntity
  8
001
370
     9
100
AcDbLine
 10
102.291978
 20
30.488299
 30
0.0
 11
122.28939
 21
10.711568
 31
0.0
  0
ENDBLK
  5
151
330
14F
100
AcDbEntity
  8
0
100
AcDbBlockEnd
  0
BLOCK
  5
15D
330
15C
100
AcDbEntity
  8
0
100
AcDbBlockBegin
  2
*D15
 70
     1
 10
0.0
 20
0.0
 30
0.0
  3
*D15
  1

  0
LINE
  5
15F
330
15C
100
AcDbEntity
  8
001
370
     9
100
AcDbLine
 10
63.580959
 20
42.768822
 30
0.0
 11
62.711495
 21
42.274826
 31
0.0
  0
POLYLINE
  5
160
330
15C
100
AcDbEntity
  8
001
370
     9
100
AcDb2dPolyline
 66
     1
 10
0.0
 20
0.0
 30
0.0
  0
VERTEX
  5
162
330
160
100
AcDbEntity
  8
001
370
     9
100
AcDbVertex
100
AcDb2dVertex
 10
60.833064
 20
41.785406
 30
0.0
  0
VERTEX
  5
163
330
160
100
AcDbEntity
  8
001
370
     9
100
AcDbVertex
100
AcDb2dVertex
 10
62.711495
 20
42.274826
 30
0.0
  0
VERTEX
  5
164
330
160
100
AcDbEntity
  8
001
370
     9
100
AcDbVertex
100
AcDb2dVertex
 10
61.329436
 20
40.91176
 30
0.0
  0
SEQEND
  5
161
330
160
100
AcDbEntity
  8
001
370
     9
  0
TEXT
  5
165
330
15C
100
AcDbEntity
  8
001
370
    30
100
AcDbText
 10
40.900814
 20
31.320496
 30
0.0
 40
5.0
  1
２－Ｒ１
 50
29.603587
 41
0.833333
100
AcDbText
  0
POINT
  5
166
330
15C
100
AcDbEntity
  8
001
370
     9
100
AcDbPoint
 10
62.711495
 20
42.274826
 30
0.0
  0
POINT
  5
167
330
15C
100
AcDbEntity
  8
001
370
     9
100
AcDbPoint
 10
63.580959
 20
42.768822
 30
0.0
  0
LINE
  5
168
330
15C
100
AcDbEntity
  8
001
370
     9
100
AcDbLine
 10
62.711495
 20
42.274826
 30
0.0
 11
38.25782
 21
28.38118
 31
0.0
  0
ENDBLK
  5
15E
330
15C
100
AcDbEntity
  8
0
100
AcDbBlockEnd
  0
BLOCK
  5
16A
330
169
100
AcDbEntity
  8
0
100
AcDbBlockBegin
  2
*D16
 70
     1
 10
0.0
 20
0.0
 30
0.0
  3
*D16
  1

  0
LINE
  5
16C
330
169
100
AcDbEntity
  8
001
370
     9
100
AcDbLine
 10
62.580959
 20
58.691472
 30
0.0
 11
33.552649
 21
58.691472
 31
0.0
  0
LINE
  5
16D
330
169
100
AcDbEntity
  8
001
370
     9
100
AcDbLine
 10
62.580959
 20
48.691472
 30
0.0
 11
33.552649
 21
48.691472
 31
0.0
  0
LINE
  5
16E
330
169
100
AcDbEntity
  8
001
370
     9
100
AcDbLine
 10
36.990149
 20
58.691472
 30
0.0
 11
36.990149
 21
48.691472
 31
0.0
  0
POLYLINE
  5
16F
330
169
100
AcDbEntity
  8
001
370
     9
100
AcDb2dPolyline
 66
     1
 10
0.0
 20
0.0
 30
0.0
  0
VERTEX
  5
171
330
16F
100
AcDbEntity
  8
001
370
     9
100
AcDbVertex
100
AcDb2dVertex
 10
37.492553
 20
60.566472
 30
0.0
  0
VERTEX
  5
172
330
16F
100
AcDbEntity
  8
001
370
     9
100
AcDbVertex
100
AcDb2dVertex
 10
36.990149
 20
58.691472
 30
0.0
  0
VERTEX
  5
173
330
16F
100
AcDbEntity
  8
001
370
     9
100
AcDbVertex
100
AcDb2dVertex
 10
36.487744
 20
60.566472
 30
0.0
  0
SEQEND
  5
170
330
16F
100
AcDbEntity
  8
001
370
     9
  0
POLYLINE
  5
174
330
169
100
AcDbEntity
  8
001
370
     9
100
AcDb2dPolyline
 66
     1
 10
0.0
 20
0.0
 30
0.0
  0
VERTEX
  5
176
330
174
100
AcDbEntity
  8
001
370
     9
100
AcDbVertex
100
AcDb2dVertex
 10
36.487744
 20
46.816472
 30
0.0
  0
VERTEX
  5
177
330
174
100
AcDbEntity
  8
001
370
     9
100
AcDbVertex
100
AcDb2dVertex
 10
36.990149
 20
48.691472
 30
0.0
  0
VERTEX
  5
178
330
174
100
AcDbEntity
  8
001
370
     9
100
AcDbVertex
100
AcDb2dVertex
 10
37.492553
 20
46.816472
 30
0.0
  0
SEQEND
  5
175
330
174
100
AcDbEntity
  8
001
370
     9
  0
TEXT
  5
179
330
169
100
AcDbEntity
  8
001
370
    30
100
AcDbText
 10
35.740149
 20
63.066472
 30
0.0
 40
5.0
  1
%%c１０
 50
90.000003
 41
0.882353
100
AcDbText
  0
POINT
  5
17A
330
169
100
AcDbEntity
  8
001
370
     9
100
AcDbPoint
 10
62.580959
 20
58.691472
 30
0.0
  0
POINT
  5
17B
330
169
100
AcDbEntity
  8
001
370
     9
100
AcDbPoint
 10
62.580959
 20
48.691472
 30
0.0
  0
POINT
  5
17C
330
169
100
AcDbEntity
  8
001
370
     9
100
AcDbPoint
 10
36.990149
 20
48.691472
 30
0.0
  0
LINE
  5
17D
330
169
100
AcDbEntity
  8
001
370
     9
100
AcDbLine
 10
36.990149
 20
58.691472
 30
0.0
 11
36.990149
 21
81.816472
 31
0.0
  0
LINE
  5
17E
330
169
100
AcDbEntity
  8
001
370
     9
100
AcDbLine
 10
36.990149
 20
48.691472
 30
0.0
 11
36.990149
 21
45.566472
 31
0.0
  0
ENDBLK
  5
16B
330
169
100
AcDbEntity
  8
0
100
AcDbBlockEnd
  0
BLOCK
  5
180
330
17F
100
AcDbEntity
  8
0
100
AcDbBlockBegin
  2
*D17
 70
     1
 10
0.0
 20
0.0
 30
0.0
  3
*D17
  1

  0
LINE
  5
182
330
17F
100
AcDbEntity
  8
001
370
     9
100
AcDbLine
 10
62.580959
 20
140.653276
 30
0.0
 11
62.580959
 21
98.534493
 31
0.0
  0
LINE
  5
183
330
17F
100
AcDbEntity
  8
001
370
     9
100
AcDbLine
 10
97.580959
 20
128.689174
 30
0.0
 11
97.580959
 21
98.534493
 31
0.0
  0
LINE
  5
184
330
17F
100
AcDbEntity
  8
001
370
     9
100
AcDbLine
 10
62.580959
 20
101.971993
 30
0.0
 11
97.580959
 21
101.971993
 31
0.0
  0
POLYLINE
  5
185
330
17F
100
AcDbEntity
  8
001
370
     9
100
AcDb2dPolyline
 66
     1
 10
0.0
 20
0.0
 30
0.0
  0
VERTEX
  5
187
330
185
100
AcDbEntity
  8
001
370
     9
100
AcDbVertex
100
AcDb2dVertex
 10
64.455959
 20
101.469588
 30
0.0
  0
VERTEX
  5
188
330
185
100
AcDbEntity
  8
001
370
     9
100
AcDbVertex
100
AcDb2dVertex
 10
62.580959
 20
101.971993
 30
0.0
  0
VERTEX
  5
189
330
185
100
AcDbEntity
  8
001
370
     9
100
AcDbVertex
100
AcDb2dVertex
 10
64.455959
 20
102.474398
 30
0.0
  0
SEQEND
  5
186
330
185
100
AcDbEntity
  8
001
370
     9
  0
POLYLINE
  5
18A
330
17F
100
AcDbEntity
  8
001
370
     9
100
AcDb2dPolyline
 66
     1
 10
0.0
 20
0.0
 30
0.0
  0
VERTEX
  5
18C
330
18A
100
AcDbEntity
  8
001
370
     9
100
AcDbVertex
100
AcDb2dVertex
 10
95.705959
 20
102.474398
 30
0.0
  0
VERTEX
  5
18D
330
18A
100
AcDbEntity
  8
001
370
     9
100
AcDbVertex
100
AcDb2dVertex
 10
97.580959
 20
101.971993
 30
0.0
  0
VERTEX
  5
18E
330
18A
100
AcDbEntity
  8
001
370
     9
100
AcDbVertex
100
AcDb2dVertex
 10
95.705959
 20
101.469588
 30
0.0
  0
SEQEND
  5
18B
330
18A
100
AcDbEntity
  8
001
370
     9
  0
TEXT
  5
18F
330
17F
100
AcDbEntity
  8
001
370
    30
100
AcDbText
 10
75.080959
 20
103.221993
 30
0.0
 40
5.0
  1
３５
 41
0.833333
100
AcDbText
  0
POINT
  5
190
330
17F
100
AcDbEntity
  8
001
370
     9
100
AcDbPoint
 10
62.580959
 20
140.653276
 30
0.0
  0
POINT
  5
191
330
17F
100
AcDbEntity
  8
001
370
     9
100
AcDbPoint
 10
97.580959
 20
128.689174
 30
0.0
  0
POINT
  5
192
330
17F
100
AcDbEntity
  8
001
370
     9
100
AcDbPoint
 10
97.580959
 20
101.971993
 30
0.0
  0
ENDBLK
  5
181
330
17F
100
AcDbEntity
  8
0
100
AcDbBlockEnd
  0
BLOCK
  5
194
330
193
100
AcDbEntity
  8
0
100
AcDbBlockBegin
  2
*D18
 70
     1
 10
0.0
 20
0.0
 30
0.0
  3
*D18
  1

  0
LINE
  5
196
330
193
100
AcDbEntity
  8
001
370
     9
100
AcDbLine
 10
67.348908
 20
165.0552
 30
0.0
 11
110.487153
 21
189.961077
 31
0.0
  0
ARC
  5
197
330
193
100
AcDbEntity
  8
001
370
     9
100
AcDbCircle
 10
43.332248
 20
151.189174
 30
0.0
 40
74.10630538834144
100
AcDbArc
 50
0.0
 51
30.0
  0
POLYLINE
  5
198
330
193
100
AcDbEntity
  8
001
370
     9
100
AcDb2dPolyline
 66
     1
 10
0.0
 20
0.0
 30
0.0
  0
VERTEX
  5
19A
330
198
100
AcDbEntity
  8
001
370
     9
100
AcDbVertex
100
AcDb2dVertex
 10
107.988836
 20
186.361121
 30
0.0
  0
VERTEX
  5
19B
330
198
100
AcDbEntity
  8
001
370
     9
100
AcDbVertex
100
AcDb2dVertex
 10
107.510191
 20
188.242327
 30
0.0
  0
VERTEX
  5
19C
330
198
100
AcDbEntity
  8
001
370
     9
100
AcDbVertex
100
AcDb2dVertex
 10
108.865312
 20
186.852477
 30
0.0
  0
SEQEND
  5
199
330
198
100
AcDbEntity
  8
001
370
     9
  0
POLYLINE
  5
19D
330
193
100
AcDbEntity
  8
001
370
     9
100
AcDb2dPolyline
 66
     1
 10
0.0
 20
0.0
 30
0.0
  0
VERTEX
  5
19F
330
19D
100
AcDbEntity
  8
001
370
     9
100
AcDbVertex
100
AcDb2dVertex
 10
117.917198
 20
153.07038
 30
0.0
  0
VERTEX
  5
1A0
330
19D
100
AcDbEntity
  8
001
370
     9
100
AcDbVertex
100
AcDb2dVertex
 10
117.438553
 20
151.189174
 30
0.0
  0
VERTEX
  5
1A1
330
19D
100
AcDbEntity
  8
001
370
     9
100
AcDbVertex
100
AcDb2dVertex
 10
116.912469
 20
153.057668
 30
0.0
  0
SEQEND
  5
19E
330
19D
100
AcDbEntity
  8
001
370
     9
  0
TEXT
  5
1A2
330
193
100
AcDbEntity
  8
001
370
    30
100
AcDbText
 10
110.344001
 20
186.46307
 30
0.0
 40
5.0
  1
３０%%d
 50
292.077822
 41
0.978261
100
AcDbText
  0
POINT
  5
1A3
330
193
100
AcDbEntity
  8
001
370
     9
100
AcDbPoint
 10
67.348908
 20
165.0552
 30
0.0
  0
POINT
  5
1A4
330
193
100
AcDbEntity
  8
001
370
     9
100
AcDbPoint
 10
43.332248
 20
151.189174
 30
0.0
  0
POINT
  5
1A5
330
193
100
AcDbEntity
  8
001
370
     9
100
AcDbPoint
 10
43.332248
 20
151.189174
 30
0.0
  0
POINT
  5
1A6
330
193
100
AcDbEntity
  8
001
370
     9
100
AcDbPoint
 10
55.397188
 20
151.189174
 30
0.0
  0
ENDBLK
  5
195
330
193
100
AcDbEntity
  8
0
100
AcDbBlockEnd
  0
BLOCK
  5
1A8
330
1A7
100
AcDbEntity
  8
0
100
AcDbBlockBegin
  2
*D19
 70
     1
 10
0.0
 20
0.0
 30
0.0
  3
*D19
  1

  0
LINE
  5
1AA
330
1A7
100
AcDbEntity
  8
001
370
     9
100
AcDbLine
 10
67.848908
 20
137.189174
 30
0.0
 11
39.877633
 21
137.189174
 31
0.0
  0
LINE
  5
1AB
330
1A7
100
AcDbEntity
  8
001
370
     9
100
AcDbLine
 10
67.848908
 20
165.189174
 30
0.0
 11
39.877633
 21
165.189174
 31
0.0
  0
LINE
  5
1AC
330
1A7
100
AcDbEntity
  8
001
370
     9
100
AcDbLine
 10
43.315133
 20
137.189174
 30
0.0
 11
43.315133
 21
165.189174
 31
0.0
  0
POLYLINE
  5
1AD
330
1A7
100
AcDbEntity
  8
001
370
     9
100
AcDb2dPolyline
 66
     1
 10
0.0
 20
0.0
 30
0.0
  0
VERTEX
  5
1AF
330
1AD
100
AcDbEntity
  8
001
370
     9
100
AcDbVertex
100
AcDb2dVertex
 10
43.817538
 20
139.064174
 30
0.0
  0
VERTEX
  5
1B0
330
1AD
100
AcDbEntity
  8
001
370
     9
100
AcDbVertex
100
AcDb2dVertex
 10
43.315133
 20
137.189174
 30
0.0
  0
VERTEX
  5
1B1
330
1AD
100
AcDbEntity
  8
001
370
     9
100
AcDbVertex
100
AcDb2dVertex
 10
42.812728
 20
139.064174
 30
0.0
  0
SEQEND
  5
1AE
330
1AD
100
AcDbEntity
  8
001
370
     9
  0
POLYLINE
  5
1B2
330
1A7
100
AcDbEntity
  8
001
370
     9
100
AcDb2dPolyline
 66
     1
 10
0.0
 20
0.0
 30
0.0
  0
VERTEX
  5
1B4
330
1B2
100
AcDbEntity
  8
001
370
     9
100
AcDbVertex
100
AcDb2dVertex
 10
42.812728
 20
163.314174
 30
0.0
  0
VERTEX
  5
1B5
330
1B2
100
AcDbEntity
  8
001
370
     9
100
AcDbVertex
100
AcDb2dVertex
 10
43.315133
 20
165.189174
 30
0.0
  0
VERTEX
  5
1B6
330
1B2
100
AcDbEntity
  8
001
370
     9
100
AcDbVertex
100
AcDb2dVertex
 10
43.817538
 20
163.314174
 30
0.0
  0
SEQEND
  5
1B3
330
1B2
100
AcDbEntity
  8
001
370
     9
  0
TEXT
  5
1B7
330
1A7
100
AcDbEntity
  8
001
370
    30
100
AcDbText
 10
42.065133
 20
143.689174
 30
0.0
 40
5.0
  1
%%c２８
 50
90.000003
 41
0.882353
100
AcDbText
  0
POINT
  5
1B8
330
1A7
100
AcDbEntity
  8
001
370
     9
100
AcDbPoint
 10
67.848908
 20
137.189174
 30
0.0
  0
POINT
  5
1B9
330
1A7
100
AcDbEntity
  8
001
370
     9
100
AcDbPoint
 10
67.848908
 20
165.189174
 30
0.0
  0
POINT
  5
1BA
330
1A7
100
AcDbEntity
  8
001
370
     9
100
AcDbPoint
 10
43.315133
 20
165.189174
 30
0.0
  0
ENDBLK
  5
1A9
330
1A7
100
AcDbEntity
  8
0
100
AcDbBlockEnd
  0
ENDSEC
  0
SECTION
  2
ENTITIES
  0
INSERT
  5
1BB
330
1F
100
AcDbEntity
  8
001
  6
ByBlock
 62
     0
370
    -2
100
AcDbBlockReference
  2
JZB-1
 10
0.0
 20
0.0
 30
0.0
  0
INSERT
  5
1BC
330
1F
100
AcDbEntity
  8
001
  6
ByBlock
 62
     0
370
    -2
100
AcDbBlockReference
  2
JZB-2
 10
0.0
 20
0.0
 30
0.0
  0
TEXT
  5
1BD
330
1F
100
AcDbEntity
  8
001
370
    30
100
AcDbText
 10
97.580959
 20
103.221993
 30
0.0
 40
5.0
  1
５
 41
0.833333
100
AcDbText
  0
POLYLINE
  5
1BE
330
1F
100
AcDbEntity
  8
001
370
     9
100
AcDb2dPolyline
 66
     1
 10
0.0
 20
0.0
 30
0.0
  0
VERTEX
  5
1C0
330
1BE
100
AcDbEntity
  8
001
370
     9
100
AcDbVertex
100
AcDb2dVertex
 10
95.705959
 20
102.474398
 30
0.0
  0
VERTEX
  5
1C1
330
1BE
100
AcDbEntity
  8
001
370
     9
100
AcDbVertex
100
AcDb2dVertex
 10
97.580959
 20
101.971993
 30
0.0
  0
VERTEX
  5
1C2
330
1BE
100
AcDbEntity
  8
001
370
     9
100
AcDbVertex
100
AcDb2dVertex
 10
95.705959
 20
101.469588
 30
0.0
  0
SEQEND
  5
1BF
330
1BE
100
AcDbEntity
  8
001
370
     9
  0
POLYLINE
  5
1C3
330
1F
100
AcDbEntity
  8
001
370
     9
100
AcDb2dPolyline
 66
     1
 10
0.0
 20
0.0
 30
0.0
  0
VERTEX
  5
1C5
330
1C3
100
AcDbEntity
  8
001
370
     9
100
AcDbVertex
100
AcDb2dVertex
 10
104.455959
 20
101.469588
 30
0.0
  0
VERTEX
  5
1C6
330
1C3
100
AcDbEntity
  8
001
370
     9
100
AcDbVertex
100
AcDb2dVertex
 10
102.580959
 20
101.971993
 30
0.0
  0
VERTEX
  5
1C7
330
1C3
100
AcDbEntity
  8
001
370
     9
100
AcDbVertex
100
AcDb2dVertex
 10
104.455959
 20
102.474398
 30
0.0
  0
SEQEND
  5
1C4
330
1C3
100
AcDbEntity
  8
001
370
     9
  0
LINE
  5
1C8
330
1F
100
AcDbEntity
  8
001
370
     9
100
AcDbLine
 10
94.455959
 20
101.971993
 30
0.0
 11
105.705959
 21
101.971993
 31
0.0
  0
POLYLINE
  5
1C9
330
1F
100
AcDbEntity
  8
001
370
     9
100
AcDb2dPolyline
 66
     1
 10
0.0
 20
0.0
 30
0.0
  0
VERTEX
  5
1CB
330
1C9
100
AcDbEntity
  8
001
370
     9
100
AcDbVertex
100
AcDb2dVertex
 10
97.580959
 20
135.189174
 30
0.0
  0
VERTEX
  5
1CC
330
1C9
100
AcDbEntity
  8
001
370
     9
100
AcDbVertex
100
AcDb2dVertex
 10
97.580959
 20
101.971993
 30
0.0
  0
VERTEX
  5
1CD
330
1C9
100
AcDbEntity
  8
001
370
     9
100
AcDbVertex
100
AcDb2dVertex
 10
97.580959
 20
98.534493
 30
0.0
  0
SEQEND
  5
1CA
330
1C9
100
AcDbEntity
  8
001
370
     9
  0
DIMENSION
  5
1CE
330
1F
100
AcDbEntity
  8
001
370
     9
100
AcDbDimension
  2
*D3
 10
62.580959
 20
114.766004
 30
0.0
 11
72.580959
 21
118.516004
 31
0.0
 70
   160
 71
     5
 42
-1.0
  3
Standard
100
AcDbAlignedDimension
 13
82.580959
 23
135.689174
 33
0.0
 14
62.580959
 24
118.203504
 34
0.0
 50
180.0
100
AcDbRotatedDimension
  0
DIMENSION
  5
1CF
330
1F
100
AcDbEntity
  8
001
370
     9
100
AcDbDimension
  2
*D4
 10
182.580959
 20
101.971993
 30
0.0
 11
143.95311
 21
105.721993
 31
0.0
 70
   160
 71
     5
 42
-1.0
  3
Standard
100
AcDbAlignedDimension
 13
102.580959
 23
128.689174
 33
0.0
 14
182.580959
 24
133.189174
 34
0.0
100
AcDbRotatedDimension
  0
DIMENSION
  5
1D0
330
1F
100
AcDbEntity
  8
001
370
     9
100
AcDbDimension
  2
*D5
 10
30.773461
 20
135.189174
 30
0.0
 11
27.023461
 21
151.189174
 31
0.0
 70
   160
 71
     5
 42
-1.0
  3
Standard
100
AcDbAlignedDimension
 13
83.080959
 23
167.189174
 33
0.0
 14
83.080959
 24
135.189174
 34
0.0
 50
270.0
100
AcDbRotatedDimension
  0
DIMENSION
  5
1D1
330
1F
100
AcDbEntity
  8
001
370
     9
100
AcDbDimension
  2
*D6
 10
62.580959
 20
77.286274
 30
0.0
 11
53.205959
 21
81.036274
 31
0.0
 70
   160
 71
     5
 42
-1.0
  3
Standard
100
AcDbAlignedDimension
 13
75.580959
 23
73.929661
 33
0.0
 14
62.580959
 24
64.114122
 34
0.0
 50
180.0
100
AcDbRotatedDimension
  0
DIMENSION
  5
1D2
330
1F
100
AcDbEntity
  8
001
370
     9
100
AcDbDimension
  2
*D7
 10
208.737324
 20
131.189174
 30
0.0
 11
204.987324
 21
151.189174
 31
0.0
 70
   160
 71
     5
 42
-1.0
  3
Standard
100
AcDbAlignedDimension
 13
180.580959
 23
171.189174
 33
0.0
 14
180.580959
 24
131.189174
 34
0.0
 50
270.0
100
AcDbRotatedDimension
  0
INSERT
  5
1D3
330
1F
100
AcDbEntity
  8
001
  6
ByBlock
 62
     0
370
    -2
100
AcDbBlockReference
  2
DIM-3
 10
0.0
 20
0.0
 30
0.0
  0
DIMENSION
  5
1D4
330
1F
100
AcDbEntity
  8
001
370
     9
100
AcDbDimension
  2
*D9
 10
232.062728
 20
98.878962
 30
0.0
 11
251.062728
 21
102.628962
 31
0.0
 70
   160
 71
     5
 42
-1.0
  3
Standard
100
AcDbAlignedDimension
 13
270.062728
 23
143.918354
 33
0.0
 14
232.062728
 24
135.200556
 34
0.0
 50
180.0
100
AcDbRotatedDimension
  0
DIMENSION
  5
1D5
330
1F
100
AcDbEntity
  8
001
370
     9
100
AcDbDimension
  2
*D10
 10
16.994087
 20
127.689174
 30
0.0
 11
13.244087
 21
151.189174
 31
0.0
 70
   160
 71
     5
 42
-1.0
  3
Standard
100
AcDbAlignedDimension
 13
98.580959
 23
174.689174
 33
0.0
 14
98.580959
 24
127.689174
 34
0.0
 50
270.0
100
AcDbRotatedDimension
  0
DIMENSION
  5
1D6
330
1F
100
AcDbEntity
  8
001
370
     9
100
AcDbDimension
  2
*D11
 10
67.580959
 20
184.93845
 30
0.0
 11
51.226182
 21
188.68845
 31
0.0
 70
   160
 71
     5
 42
-1.0
  3
Standard
100
AcDbAlignedDimension
 13
62.580959
 23
161.725072
 33
0.0
 14
67.580959
 24
165.189174
 34
0.0
100
AcDbRotatedDimension
  0
DIMENSION
  5
1D7
330
1F
100
AcDbEntity
  8
001
370
     9
100
AcDbDimension
  2
*D12
 10
75.580959
 20
77.286274
 30
0.0
 11
83.080959
 21
81.036274
 31
0.0
 70
   160
 71
     5
 42
-1.0
  3
Standard
100
AcDbAlignedDimension
 13
90.580959
 23
73.929661
 33
0.0
 14
75.580959
 24
73.929661
 34
0.0
 50
180.0
100
AcDbRotatedDimension
  0
DIMENSION
  5
1D8
330
1F
100
AcDbEntity
  8
001
370
     9
100
AcDbDimension
  2
*D13
 10
180.580959
 20
169.189174
 30
0.0
 11
185.981747
 21
179.879572
 31
0.0
 70
   164
 71
     5
 42
-1.0
  3
Standard
100
AcDbRadialDimension
 15
181.996375
 25
170.602184
 35
0.0
 40
0.0
  0
DIMENSION
  5
1D9
330
1F
100
AcDbEntity
  8
001
370
     9
100
AcDbDimension
  2
*D14
 10
101.580959
 20
31.191472
 30
0.0
 11
115.149775
 21
23.046514
 31
0.0
 70
   164
 71
     5
 42
-1.0
  3
Standard
100
AcDbRadialDimension
 15
102.291978
 25
30.488299
 35
0.0
 40
0.0
  0
DIMENSION
  5
1DA
330
1F
100
AcDbEntity
  8
001
370
     9
100
AcDbDimension
  2
*D15
 10
63.580959
 20
42.768822
 30
0.0
 11
48.360464
 21
38.434119
 31
0.0
 70
   164
 71
     5
 42
-1.0
  3
Standard
100
AcDbRadialDimension
 15
62.711495
 25
42.274826
 35
0.0
 40
0.0
  0
DIMENSION
  5
1DB
330
1F
100
AcDbEntity
  8
001
370
     9
100
AcDbDimension
  2
*D16
 10
36.990149
 20
48.691472
 30
0.0
 11
33.240148
 21
70.566472
 31
0.0
 70
   160
 71
     5
 42
-1.0
  3
Standard
100
AcDbAlignedDimension
 13
62.580959
 23
58.691472
 33
0.0
 14
62.580959
 24
48.691472
 34
0.0
 50
270.0
100
AcDbRotatedDimension
  0
DIMENSION
  5
1DC
330
1F
100
AcDbEntity
  8
001
370
     9
100
AcDbDimension
  2
*D17
 10
97.580959
 20
101.971993
 30
0.0
 11
80.080959
 21
105.721993
 31
0.0
 70
   160
 71
     5
 42
-1.0
  3
Standard
100
AcDbAlignedDimension
 13
62.580959
 23
140.653276
 33
0.0
 14
97.580959
 24
128.689174
 34
0.0
100
AcDbRotatedDimension
  0
DIMENSION
  5
1DD
330
1F
100
AcDbEntity
  8
001
370
     9
100
AcDbDimension
  2
*D18
 10
43.332248
 20
151.189174
 30
0.0
 11
115.479678
 21
180.452677
 31
0.0
 70
    34
 71
     5
 42
-1.0
  3
Standard
100
AcDb2LineAngularDimension
 13
67.348908
 23
165.0552
 33
0.0
 14
43.332248
 24
151.189174
 34
0.0
 15
55.397188
 25
151.189174
 35
0.0
 16
114.913442
 26
170.369297
 36
0.0
  0
DIMENSION
  5
1DE
330
1F
100
AcDbEntity
  8
001
370
     9
100
AcDbDimension
  2
*D19
 10
43.315133
 20
165.189174
 30
0.0
 11
39.565133
 21
151.189174
 31
0.0
 70
   160
 71
     5
 42
-1.0
  3
Standard
100
AcDbAlignedDimension
 13
67.848908
 23
137.189174
 33
0.0
 14
67.848908
 24
165.189174
 34
0.0
 50
90.0
100
AcDbRotatedDimension
  0
TEXT
  5
1DF
330
1F
100
AcDbEntity
  8
001
370
    30
100
AcDbText
 10
64.711348
 20
21.589628
 30
0.0
 40
5.0
  1
Ｃ０．５
 50
45.000001
 41
0.833333
100
AcDbText
  0
POLYLINE
  5
1E0
330
1F
100
AcDbEntity
  8
001
370
     9
100
AcDb2dPolyline
 66
     1
 10
0.0
 20
0.0
 30
0.0
  0
VERTEX
  5
1E2
330
1E0
100
AcDbEntity
  8
001
370
     9
100
AcDbVertex
100
AcDb2dVertex
 10
81.14988
 20
36.970901
 30
0.0
  0
VERTEX
  5
1E3
330
1E0
100
AcDbEntity
  8
001
370
     9
100
AcDbVertex
100
AcDb2dVertex
 10
82.830959
 20
37.941472
 30
0.0
  0
VERTEX
  5
1E4
330
1E0
100
AcDbEntity
  8
001
370
     9
100
AcDbVertex
100
AcDb2dVertex
 10
81.860387
 20
36.260393
 30
0.0
  0
SEQEND
  5
1E1
330
1E0
100
AcDbEntity
  8
001
370
     9
  0
LINE
  5
1E5
330
1F
100
AcDbEntity
  8
001
370
     9
100
AcDbLine
 10
82.830959
 20
37.941472
 30
0.0
 11
62.943581
 21
18.054094
 31
0.0
  0
LINE
  5
1E6
330
1F
100
AcDbEntity
  8
001
  6
CENTER
 62
   253
370
     9
100
AcDbLine
 10
224.562728
 20
143.918354
 30
0.0
 11
275.562728
 21
143.918354
 31
0.0
  0
LINE
  5
1E7
330
1F
100
AcDbEntity
  8
001
  6
CENTER
 62
   253
370
     9
100
AcDbLine
 10
250.062728
 20
118.418354
 30
0.0
 11
250.062728
 21
169.418354
 31
0.0
  0
LINE
  5
1E8
330
1F
100
AcDbEntity
  8
001
 62
   253
370
    50
100
AcDbLine
 10
98.580959
 20
127.689174
 30
0.0
 11
101.580959
 21
127.689174
 31
0.0
  0
LINE
  5
1E9
330
1F
100
AcDbEntity
  8
001
 62
   253
370
    50
100
AcDbLine
 10
101.580959
 20
174.689174
 30
0.0
 11
98.580959
 21
174.689174
 31
0.0
  0
ARC
  5
1EA
330
1F
100
AcDbEntity
  8
001
 62
   253
370
    50
100
AcDbCircle
 10
101.580959
 20
128.689174
 30
0.0
 40
1.000000000000001
100
AcDbArc
 50
270.0
 51
0.0
  0
ARC
  5
1EB
330
1F
100
AcDbEntity
  8
001
 62
   253
370
    50
100
AcDbCircle
 10
101.580959
 20
173.689174
 30
0.0
 40
1.000000000000001
100
AcDbArc
 50
0.0
 51
90.0
  0
LINE
  5
1EC
330
1F
100
AcDbEntity
  8
001
 62
   253
370
    50
100
AcDbLine
 10
102.580959
 20
173.689174
 30
0.0
 11
102.580959
 21
128.689174
 31
0.0
  0
ARC
  5
1ED
330
1F
100
AcDbEntity
  8
001
 62
   253
370
    50
100
AcDbCircle
 10
98.580959
 20
128.689174
 30
0.0
 40
1.000000000000001
100
AcDbArc
 50
180.0
 51
270.0
  0
ARC
  5
1EE
330
1F
100
AcDbEntity
  8
001
 62
   253
370
    50
100
AcDbCircle
 10
98.580959
 20
173.689174
 30
0.0
 40
1.000000000000001
100
AcDbArc
 50
90.0
 51
180.0
  0
LINE
  5
1EF
330
1F
100
AcDbEntity
  8
001
 62
   253
370
    50
100
AcDbLine
 10
97.580959
 20
173.689174
 30
0.0
 11
97.580959
 21
128.689174
 31
0.0
  0
LINE
  5
1F0
330
1F
100
AcDbEntity
  8
001
 62
   253
370
    50
100
AcDbLine
 10
105.580959
 20
131.189174
 30
0.0
 11
180.580959
 21
131.189174
 31
0.0
  0
LINE
  5
1F1
330
1F
100
AcDbEntity
  8
001
 62
   253
370
    50
100
AcDbLine
 10
180.580959
 20
171.189174
 30
0.0
 11
105.580959
 21
171.189174
 31
0.0
  0
LINE
  5
1F2
330
1F
100
AcDbEntity
  8
001
 62
   253
370
    50
100
AcDbLine
 10
105.580959
 20
159.258251
 30
0.0
 11
180.580959
 21
159.258251
 31
0.0
  0
LINE
  5
1F3
330
1F
100
AcDbEntity
  8
001
 62
   253
370
    50
100
AcDbLine
 10
180.580959
 20
143.120097
 30
0.0
 11
105.580959
 21
143.120097
 31
0.0
  0
LINE
  5
1F4
330
1F
100
AcDbEntity
  8
001
 62
   253
370
    50
100
AcDbLine
 10
102.580959
 20
131.689174
 30
0.0
 11
105.580959
 21
131.689174
 31
0.0
  0
LINE
  5
1F5
330
1F
100
AcDbEntity
  8
001
 62
   253
370
    50
100
AcDbLine
 10
105.580959
 20
170.689174
 30
0.0
 11
102.580959
 21
170.689174
 31
0.0
  0
LINE
  5
1F6
330
1F
100
AcDbEntity
  8
001
 62
   253
370
    50
100
AcDbLine
 10
102.580959
 20
157.924157
 30
0.0
 11
105.580959
 21
157.924157
 31
0.0
  0
LINE
  5
1F7
330
1F
100
AcDbEntity
  8
001
 62
   253
370
    50
100
AcDbLine
 10
105.580959
 20
144.454191
 30
0.0
 11
102.580959
 21
144.454191
 31
0.0
  0
POLYLINE
  5
1F8
330
1F
100
AcDbEntity
  8
001
 62
   253
370
    50
100
AcDb2dPolyline
 66
     1
 10
0.0
 20
0.0
 30
0.0
  0
VERTEX
  5
1FA
330
1F8
100
AcDbEntity
  8
001
 62
   253
370
    50
100
AcDbVertex
100
AcDb2dVertex
 10
180.580959
 20
159.258251
 30
0.0
  0
VERTEX
  5
1FB
330
1F8
100
AcDbEntity
  8
001
 62
   253
370
    50
100
AcDbVertex
100
AcDb2dVertex
 10
180.641864
 20
159.255006
 30
0.0
  0
VERTEX
  5
1FC
330
1F8
100
AcDbEntity
  8
001
 62
   253
370
    50
100
AcDbVertex
100
AcDb2dVertex
 10
180.702457
 20
159.249091
 30
0.0
  0
VERTEX
  5
1FD
330
1F8
100
AcDbEntity
  8
001
 62
   253
370
    50
100
AcDbVertex
100
AcDb2dVertex
 10
180.836394
 20
159.218147
 30
0.0
  0
VERTEX
  5
1FE
330
1F8
100
AcDbEntity
  8
001
 62
   253
370
    50
100
AcDbVertex
100
AcDb2dVertex
 10
180.964248
 20
159.165923
 30
0.0
  0
VERTEX
  5
1FF
330
1F8
100
AcDbEntity
  8
001
 62
   253
370
    50
100
AcDbVertex
100
AcDb2dVertex
 10
181.053141
 20
159.116971
 30
0.0
  0
VERTEX
  5
200
330
1F8
100
AcDbEntity
  8
001
 62
   253
370
    50
100
AcDbVertex
100
AcDb2dVertex
 10
181.137229
 20
159.060559
 30
0.0
  0
VERTEX
  5
201
330
1F8
100
AcDbEntity
  8
001
 62
   253
370
    50
100
AcDbVertex
100
AcDb2dVertex
 10
181.216761
 20
158.99751
 30
0.0
  0
VERTEX
  5
202
330
1F8
100
AcDbEntity
  8
001
 62
   253
370
    50
100
AcDbVertex
100
AcDb2dVertex
 10
181.291733
 20
158.928979
 30
0.0
  0
VERTEX
  5
203
330
1F8
100
AcDbEntity
  8
001
 62
   253
370
    50
100
AcDbVertex
100
AcDb2dVertex
 10
181.408452
 20
158.803493
 30
0.0
  0
VERTEX
  5
204
330
1F8
100
AcDbEntity
  8
001
 62
   253
370
    50
100
AcDbVertex
100
AcDb2dVertex
 10
181.513726
 20
158.668184
 30
0.0
  0
VERTEX
  5
205
330
1F8
100
AcDbEntity
  8
001
 62
   253
370
    50
100
AcDbVertex
100
AcDb2dVertex
 10
181.608897
 20
158.525204
 30
0.0
  0
VERTEX
  5
206
330
1F8
100
AcDbEntity
  8
001
 62
   253
370
    50
100
AcDbVertex
100
AcDb2dVertex
 10
181.695174
 20
158.376679
 30
0.0
  0
VERTEX
  5
207
330
1F8
100
AcDbEntity
  8
001
 62
   253
370
    50
100
AcDbVertex
100
AcDb2dVertex
 10
181.827011
 20
158.110735
 30
0.0
  0
VERTEX
  5
208
330
1F8
100
AcDbEntity
  8
001
 62
   253
370
    50
100
AcDbVertex
100
AcDb2dVertex
 10
181.939506
 20
157.835929
 30
0.0
  0
VERTEX
  5
209
330
1F8
100
AcDbEntity
  8
001
 62
   253
370
    50
100
AcDbVertex
100
AcDb2dVertex
 10
182.035594
 20
157.553423
 30
0.0
  0
VERTEX
  5
20A
330
1F8
100
AcDbEntity
  8
001
 62
   253
370
    50
100
AcDbVertex
100
AcDb2dVertex
 10
182.117102
 20
157.266416
 30
0.0
  0
VERTEX
  5
20B
330
1F8
100
AcDbEntity
  8
001
 62
   253
370
    50
100
AcDbVertex
100
AcDb2dVertex
 10
182.186491
 20
156.976516
 30
0.0
  0
VERTEX
  5
20C
330
1F8
100
AcDbEntity
  8
001
 62
   253
370
    50
100
AcDbVertex
100
AcDb2dVertex
 10
182.246466
 20
156.684487
 30
0.0
  0
VERTEX
  5
20D
330
1F8
100
AcDbEntity
  8
001
 62
   253
370
    50
100
AcDbVertex
100
AcDb2dVertex
 10
182.358889
 20
156.00629
 30
0.0
  0
VERTEX
  5
20E
330
1F8
100
AcDbEntity
  8
001
 62
   253
370
    50
100
AcDbVertex
100
AcDb2dVertex
 10
182.440561
 20
155.323603
 30
0.0
  0
VERTEX
  5
20F
330
1F8
100
AcDbEntity
  8
001
 62
   253
370
    50
100
AcDbVertex
100
AcDb2dVertex
 10
182.496601
 20
154.637018
 30
0.0
  0
VERTEX
  5
210
330
1F8
100
AcDbEntity
  8
001
 62
   253
370
    50
100
AcDbVertex
100
AcDb2dVertex
 10
182.531613
 20
153.949073
 30
0.0
  0
VERTEX
  5
211
330
1F8
100
AcDbEntity
  8
001
 62
   253
370
    50
100
AcDbVertex
100
AcDb2dVertex
 10
182.550431
 20
153.258862
 30
0.0
  0
VERTEX
  5
212
330
1F8
100
AcDbEntity
  8
001
 62
   253
370
    50
100
AcDbVertex
100
AcDb2dVertex
 10
182.558057
 20
152.568422
 30
0.0
  0
VERTEX
  5
213
330
1F8
100
AcDbEntity
  8
001
 62
   253
370
    50
100
AcDbVertex
100
AcDb2dVertex
 10
182.559404
 20
151.878794
 30
0.0
  0
VERTEX
  5
214
330
1F8
100
AcDbEntity
  8
001
 62
   253
370
    50
100
AcDbVertex
100
AcDb2dVertex
 10
182.558331
 20
151.189174
 30
0.0
  0
VERTEX
  5
215
330
1F8
100
AcDbEntity
  8
001
 62
   253
370
    50
100
AcDbVertex
100
AcDb2dVertex
 10
182.557149
 20
150.521919
 30
0.0
  0
VERTEX
  5
216
330
1F8
100
AcDbEntity
  8
001
 62
   253
370
    50
100
AcDbVertex
100
AcDb2dVertex
 10
182.553023
 20
149.854676
 30
0.0
  0
VERTEX
  5
217
330
1F8
100
AcDbEntity
  8
001
 62
   253
370
    50
100
AcDbVertex
100
AcDb2dVertex
 10
182.542181
 20
149.187508
 30
0.0
  0
VERTEX
  5
218
330
1F8
100
AcDbEntity
  8
001
 62
   253
370
    50
100
AcDbVertex
100
AcDb2dVertex
 10
182.5219
 20
148.520552
 30
0.0
  0
VERTEX
  5
219
330
1F8
100
AcDbEntity
  8
001
 62
   253
370
    50
100
AcDbVertex
100
AcDb2dVertex
 10
182.489608
 20
147.854405
 30
0.0
  0
VERTEX
  5
21A
330
1F8
100
AcDbEntity
  8
001
 62
   253
370
    50
100
AcDbVertex
100
AcDb2dVertex
 10
182.442166
 20
147.189174
 30
0.0
  0
VERTEX
  5
21B
330
1F8
100
AcDbEntity
  8
001
 62
   253
370
    50
100
AcDbVertex
100
AcDb2dVertex
 10
182.402179
 20
146.76612
 30
0.0
  0
VERTEX
  5
21C
330
1F8
100
AcDbEntity
  8
001
 62
   253
370
    50
100
AcDbVertex
100
AcDb2dVertex
 10
182.351698
 20
146.344208
 30
0.0
  0
VERTEX
  5
21D
330
1F8
100
AcDbEntity
  8
001
 62
   253
370
    50
100
AcDbVertex
100
AcDb2dVertex
 10
182.287939
 20
145.924272
 30
0.0
  0
VERTEX
  5
21E
330
1F8
100
AcDbEntity
  8
001
 62
   253
370
    50
100
AcDbVertex
100
AcDb2dVertex
 10
182.208852
 20
145.506954
 30
0.0
  0
VERTEX
  5
21F
330
1F8
100
AcDbEntity
  8
001
 62
   253
370
    50
100
AcDbVertex
100
AcDb2dVertex
 10
182.145602
 20
145.227188
 30
0.0
  0
VERTEX
  5
220
330
1F8
100
AcDbEntity
  8
001
 62
   253
370
    50
100
AcDbVertex
100
AcDb2dVertex
 10
182.072443
 20
144.94987
 30
0.0
  0
VERTEX
  5
221
330
1F8
100
AcDbEntity
  8
001
 62
   253
370
    50
100
AcDbVertex
100
AcDb2dVertex
 10
181.98712
 20
144.675758
 30
0.0
  0
VERTEX
  5
222
330
1F8
100
AcDbEntity
  8
001
 62
   253
370
    50
100
AcDbVertex
100
AcDb2dVertex
 10
181.887114
 20
144.406615
 30
0.0
  0
VERTEX
  5
223
330
1F8
100
AcDbEntity
  8
001
 62
   253
370
    50
100
AcDbVertex
100
AcDb2dVertex
 10
181.770553
 20
144.14596
 30
0.0
  0
VERTEX
  5
224
330
1F8
100
AcDbEntity
  8
001
 62
   253
370
    50
100
AcDbVertex
100
AcDb2dVertex
 10
181.634395
 20
143.895125
 30
0.0
  0
VERTEX
  5
225
330
1F8
100
AcDbEntity
  8
001
 62
   253
370
    50
100
AcDbVertex
100
AcDb2dVertex
 10
181.554483
 20
143.769154
 30
0.0
  0
VERTEX
  5
226
330
1F8
100
AcDbEntity
  8
001
 62
   253
370
    50
100
AcDbVertex
100
AcDb2dVertex
 10
181.467437
 20
143.648055
 30
0.0
  0
VERTEX
  5
227
330
1F8
100
AcDbEntity
  8
001
 62
   253
370
    50
100
AcDbVertex
100
AcDb2dVertex
 10
181.372389
 20
143.533458
 30
0.0
  0
VERTEX
  5
228
330
1F8
100
AcDbEntity
  8
001
 62
   253
370
    50
100
AcDbVertex
100
AcDb2dVertex
 10
181.268275
 20
143.426931
 30
0.0
  0
VERTEX
  5
229
330
1F8
100
AcDbEntity
  8
001
 62
   253
370
    50
100
AcDbVertex
100
AcDb2dVertex
 10
181.125841
 20
143.309648
 30
0.0
  0
VERTEX
  5
22A
330
1F8
100
AcDbEntity
  8
001
 62
   253
370
    50
100
AcDbVertex
100
AcDb2dVertex
 10
180.967794
 20
143.214167
 30
0.0
  0
VERTEX
  5
22B
330
1F8
100
AcDbEntity
  8
001
 62
   253
370
    50
100
AcDbVertex
100
AcDb2dVertex
 10
180.829755
 20
143.158131
 30
0.0
  0
VERTEX
  5
22C
330
1F8
100
AcDbEntity
  8
001
 62
   253
370
    50
100
AcDbVertex
100
AcDb2dVertex
 10
180.684962
 20
143.126807
 30
0.0
  0
VERTEX
  5
22D
330
1F8
100
AcDbEntity
  8
001
 62
   253
370
    50
100
AcDbVertex
100
AcDb2dVertex
 10
180.633058
 20
143.122488
 30
0.0
  0
VERTEX
  5
22E
330
1F8
100
AcDbEntity
  8
001
 62
   253
370
    50
100
AcDbVertex
100
AcDb2dVertex
 10
180.580959
 20
143.120097
 30
0.0
  0
SEQEND
  5
1F9
330
1F8
100
AcDbEntity
  8
001
370
    50
  0
LINE
  5
22F
330
1F
100
AcDbEntity
  8
001
 62
   253
370
    50
100
AcDbLine
 10
105.580959
 20
157.924157
 30
0.0
 11
105.580959
 21
171.189174
 31
0.0
  0
LINE
  5
230
330
1F
100
AcDbEntity
  8
001
 62
   253
370
    50
100
AcDbLine
 10
105.580959
 20
131.189174
 30
0.0
 11
105.580959
 21
144.454191
 31
0.0
  0
ARC
  5
231
330
1F
100
AcDbEntity
  8
001
 62
   253
370
    50
100
AcDbCircle
 10
180.580959
 20
133.189174
 30
0.0
 40
2.000000000000002
100
AcDbArc
 50
270.0
 51
0.0
  0
ARC
  5
232
330
1F
100
AcDbEntity
  8
001
 62
   253
370
    50
100
AcDbCircle
 10
180.580959
 20
169.189174
 30
0.0
 40
2.000000000000002
100
AcDbArc
 50
0.0
 51
90.0
  0
LINE
  5
233
330
1F
100
AcDbEntity
  8
001
 62
   253
370
    50
100
AcDbLine
 10
182.580959
 20
169.189174
 30
0.0
 11
182.580959
 21
133.189174
 31
0.0
  0
LINE
  5
234
330
1F
100
AcDbEntity
  8
001
 62
   253
370
    50
100
AcDbLine
 10
92.342819
 20
147.313297
 30
0.0
 11
92.371722
 21
147.326566
 31
0.0
  0
POLYLINE
  5
235
330
1F
100
AcDbEntity
  8
001
 62
   253
370
    50
100
AcDb2dPolyline
 66
     1
 10
0.0
 20
0.0
 30
0.0
  0
VERTEX
  5
237
330
235
100
AcDbEntity
  8
001
 62
   253
370
    50
100
AcDbVertex
100
AcDb2dVertex
 10
92.371722
 20
147.326566
 30
0.0
  0
VERTEX
  5
238
330
235
100
AcDbEntity
  8
001
 62
   253
370
    50
100
AcDbVertex
100
AcDb2dVertex
 10
92.406951
 20
147.343144
 30
0.0
  0
VERTEX
  5
239
330
235
100
AcDbEntity
  8
001
 62
   253
370
    50
100
AcDbVertex
100
AcDb2dVertex
 10
92.442061
 20
147.359961
 30
0.0
  0
VERTEX
  5
23A
330
235
100
AcDbEntity
  8
001
 62
   253
370
    50
100
AcDbVertex
100
AcDb2dVertex
 10
92.530921
 20
147.404766
 30
0.0
  0
VERTEX
  5
23B
330
235
100
AcDbEntity
  8
001
 62
   253
370
    50
100
AcDbVertex
100
AcDb2dVertex
 10
92.619006
 20
147.451134
 30
0.0
  0
SEQEND
  5
236
330
235
100
AcDbEntity
  8
001
370
    50
  0
LINE
  5
23C
330
1F
100
AcDbEntity
  8
001
 62
   253
370
    50
100
AcDbLine
 10
92.619006
 20
147.451134
 30
0.0
 11
92.68874
 21
147.490007
 31
0.0
  0
LINE
  5
23D
330
1F
100
AcDbEntity
  8
001
 62
   253
370
    50
100
AcDbLine
 10
92.206879
 20
147.254335
 30
0.0
 11
92.396332
 21
147.338071
 31
0.0
  0
POLYLINE
  5
23E
330
1F
100
AcDbEntity
  8
001
 62
   253
370
    50
100
AcDb2dPolyline
 66
     1
 10
0.0
 20
0.0
 30
0.0
  0
VERTEX
  5
240
330
23E
100
AcDbEntity
  8
001
 62
   253
370
    50
100
AcDbVertex
100
AcDb2dVertex
 10
90.178249
 20
146.95665
 30
0.0
  0
VERTEX
  5
241
330
23E
100
AcDbEntity
  8
001
 62
   253
370
    50
100
AcDbVertex
100
AcDb2dVertex
 10
90.385352
 20
146.940693
 30
0.0
  0
VERTEX
  5
242
330
23E
100
AcDbEntity
  8
001
 62
   253
370
    50
100
AcDbVertex
100
AcDb2dVertex
 10
90.592631
 20
146.931948
 30
0.0
  0
VERTEX
  5
243
330
23E
100
AcDbEntity
  8
001
 62
   253
370
    50
100
AcDbVertex
100
AcDb2dVertex
 10
90.871656
 20
146.940482
 30
0.0
  0
VERTEX
  5
244
330
23E
100
AcDbEntity
  8
001
 62
   253
370
    50
100
AcDbVertex
100
AcDb2dVertex
 10
91.149651
 20
146.97012
 30
0.0
  0
VERTEX
  5
245
330
23E
100
AcDbEntity
  8
001
 62
   253
370
    50
100
AcDbVertex
100
AcDb2dVertex
 10
91.432278
 20
147.018314
 30
0.0
  0
VERTEX
  5
246
330
23E
100
AcDbEntity
  8
001
 62
   253
370
    50
100
AcDbVertex
100
AcDb2dVertex
 10
91.711125
 20
147.084468
 30
0.0
  0
VERTEX
  5
247
330
23E
100
AcDbEntity
  8
001
 62
   253
370
    50
100
AcDbVertex
100
AcDb2dVertex
 10
91.984453
 20
147.169427
 30
0.0
  0
VERTEX
  5
248
330
23E
100
AcDbEntity
  8
001
 62
   253
370
    50
100
AcDbVertex
100
AcDb2dVertex
 10
92.250513
 20
147.274514
 30
0.0
  0
VERTEX
  5
249
330
23E
100
AcDbEntity
  8
001
 62
   253
370
    50
100
AcDbVertex
100
AcDb2dVertex
 10
92.278772
 20
147.287126
 30
0.0
  0
VERTEX
  5
24A
330
23E
100
AcDbEntity
  8
001
 62
   253
370
    50
100
AcDbVertex
100
AcDb2dVertex
 10
92.306973
 20
147.299863
 30
0.0
  0
SEQEND
  5
23F
330
23E
100
AcDbEntity
  8
001
370
    50
  0
LINE
  5
24B
330
1F
100
AcDbEntity
  8
001
 62
   253
370
    50
100
AcDbLine
 10
92.306973
 20
147.299863
 30
0.0
 11
92.372126
 21
147.328797
 31
0.0
  0
POLYLINE
  5
24C
330
1F
100
AcDbEntity
  8
001
 62
   253
370
    50
100
AcDb2dPolyline
 66
     1
 10
0.0
 20
0.0
 30
0.0
  0
VERTEX
  5
24E
330
24C
100
AcDbEntity
  8
001
 62
   253
370
    50
100
AcDbVertex
100
AcDb2dVertex
 10
92.372126
 20
147.328797
 30
0.0
  0
VERTEX
  5
24F
330
24C
100
AcDbEntity
  8
001
 62
   253
370
    50
100
AcDbVertex
100
AcDb2dVertex
 10
92.456196
 20
147.3685
 30
0.0
  0
VERTEX
  5
250
330
24C
100
AcDbEntity
  8
001
 62
   253
370
    50
100
AcDbVertex
100
AcDb2dVertex
 10
92.539533
 20
147.409654
 30
0.0
  0
VERTEX
  5
251
330
24C
100
AcDbEntity
  8
001
 62
   253
370
    50
100
AcDbVertex
100
AcDb2dVertex
 10
92.580138
 20
147.430814
 30
0.0
  0
VERTEX
  5
252
330
24C
100
AcDbEntity
  8
001
 62
   253
370
    50
100
AcDbVertex
100
AcDb2dVertex
 10
92.620565
 20
147.452327
 30
0.0
  0
SEQEND
  5
24D
330
24C
100
AcDbEntity
  8
001
370
    50
  0
LINE
  5
253
330
1F
100
AcDbEntity
  8
001
 62
   253
370
    50
100
AcDbLine
 10
92.620565
 20
147.452327
 30
0.0
 11
92.690381
 21
147.491046
 31
0.0
  0
POLYLINE
  5
254
330
1F
100
AcDbEntity
  8
001
 62
   253
370
    50
100
AcDb2dPolyline
 66
     1
 10
0.0
 20
0.0
 30
0.0
  0
VERTEX
  5
256
330
254
100
AcDbEntity
  8
001
 62
   253
370
    50
100
AcDbVertex
100
AcDb2dVertex
 10
89.69833
 20
147.083665
 30
0.0
  0
VERTEX
  5
257
330
254
100
AcDbEntity
  8
001
 62
   253
370
    50
100
AcDbVertex
100
AcDb2dVertex
 10
89.78156
 20
147.047563
 30
0.0
  0
VERTEX
  5
258
330
254
100
AcDbEntity
  8
001
 62
   253
370
    50
100
AcDbVertex
100
AcDb2dVertex
 10
89.866385
 20
147.016337
 30
0.0
  0
VERTEX
  5
259
330
254
100
AcDbEntity
  8
001
 62
   253
370
    50
100
AcDbVertex
100
AcDb2dVertex
 10
89.957772
 20
146.992629
 30
0.0
  0
VERTEX
  5
25A
330
254
100
AcDbEntity
  8
001
 62
   253
370
    50
100
AcDbVertex
100
AcDb2dVertex
 10
90.050915
 20
146.975558
 30
0.0
  0
VERTEX
  5
25B
330
254
100
AcDbEntity
  8
001
 62
   253
370
    50
100
AcDbVertex
100
AcDb2dVertex
 10
90.114578
 20
146.965797
 30
0.0
  0
VERTEX
  5
25C
330
254
100
AcDbEntity
  8
001
 62
   253
370
    50
100
AcDbVertex
100
AcDb2dVertex
 10
90.178249
 20
146.95665
 30
0.0
  0
SEQEND
  5
255
330
254
100
AcDbEntity
  8
001
370
    50
  0
POLYLINE
  5
25D
330
1F
100
AcDbEntity
  8
001
 62
   253
370
    50
100
AcDb2dPolyline
 66
     1
 10
0.0
 20
0.0
 30
0.0
  0
VERTEX
  5
25F
330
25D
100
AcDbEntity
  8
001
 62
   253
370
    50
100
AcDbVertex
100
AcDb2dVertex
 10
89.69833
 20
147.083665
 30
0.0
  0
VERTEX
  5
260
330
25D
100
AcDbEntity
  8
001
 62
   253
370
    50
100
AcDbVertex
100
AcDb2dVertex
 10
89.640375
 20
147.093945
 30
0.0
  0
VERTEX
  5
261
330
25D
100
AcDbEntity
  8
001
 62
   253
370
    50
100
AcDbVertex
100
AcDb2dVertex
 10
89.582485
 20
147.104588
 30
0.0
  0
VERTEX
  5
262
330
25D
100
AcDbEntity
  8
001
 62
   253
370
    50
100
AcDbVertex
100
AcDb2dVertex
 10
89.30203
 20
147.166375
 30
0.0
  0
VERTEX
  5
263
330
25D
100
AcDbEntity
  8
001
 62
   253
370
    50
100
AcDbVertex
100
AcDb2dVertex
 10
89.025459
 20
147.244142
 30
0.0
  0
VERTEX
  5
264
330
25D
100
AcDbEntity
  8
001
 62
   253
370
    50
100
AcDbVertex
100
AcDb2dVertex
 10
88.75319
 20
147.337028
 30
0.0
  0
VERTEX
  5
265
330
25D
100
AcDbEntity
  8
001
 62
   253
370
    50
100
AcDbVertex
100
AcDb2dVertex
 10
88.486522
 20
147.44483
 30
0.0
  0
VERTEX
  5
266
330
25D
100
AcDbEntity
  8
001
 62
   253
370
    50
100
AcDbVertex
100
AcDb2dVertex
 10
88.22772
 20
147.566985
 30
0.0
  0
VERTEX
  5
267
330
25D
100
AcDbEntity
  8
001
 62
   253
370
    50
100
AcDbVertex
100
AcDb2dVertex
 10
87.976475
 20
147.704017
 30
0.0
  0
VERTEX
  5
268
330
25D
100
AcDbEntity
  8
001
 62
   253
370
    50
100
AcDbVertex
100
AcDb2dVertex
 10
87.737736
 20
147.853248
 30
0.0
  0
VERTEX
  5
269
330
25D
100
AcDbEntity
  8
001
 62
   253
370
    50
100
AcDbVertex
100
AcDb2dVertex
 10
87.508266
 20
148.016375
 30
0.0
  0
VERTEX
  5
26A
330
25D
100
AcDbEntity
  8
001
 62
   253
370
    50
100
AcDbVertex
100
AcDb2dVertex
 10
87.288369
 20
148.193439
 30
0.0
  0
VERTEX
  5
26B
330
25D
100
AcDbEntity
  8
001
 62
   253
370
    50
100
AcDbVertex
100
AcDb2dVertex
 10
87.079689
 20
148.383609
 30
0.0
  0
VERTEX
  5
26C
330
25D
100
AcDbEntity
  8
001
 62
   253
370
    50
100
AcDbVertex
100
AcDb2dVertex
 10
86.884081
 20
148.585678
 30
0.0
  0
VERTEX
  5
26D
330
25D
100
AcDbEntity
  8
001
 62
   253
370
    50
100
AcDbVertex
100
AcDb2dVertex
 10
86.702072
 20
148.800037
 30
0.0
  0
VERTEX
  5
26E
330
25D
100
AcDbEntity
  8
001
 62
   253
370
    50
100
AcDbVertex
100
AcDb2dVertex
 10
86.547411
 20
149.008268
 30
0.0
  0
VERTEX
  5
26F
330
25D
100
AcDbEntity
  8
001
 62
   253
370
    50
100
AcDbVertex
100
AcDb2dVertex
 10
86.406148
 20
149.225823
 30
0.0
  0
VERTEX
  5
270
330
25D
100
AcDbEntity
  8
001
 62
   253
370
    50
100
AcDbVertex
100
AcDb2dVertex
 10
86.278241
 20
149.453143
 30
0.0
  0
VERTEX
  5
271
330
25D
100
AcDbEntity
  8
001
 62
   253
370
    50
100
AcDbVertex
100
AcDb2dVertex
 10
86.165268
 20
149.688242
 30
0.0
  0
VERTEX
  5
272
330
25D
100
AcDbEntity
  8
001
 62
   253
370
    50
100
AcDbVertex
100
AcDb2dVertex
 10
86.068352
 20
149.929575
 30
0.0
  0
VERTEX
  5
273
330
25D
100
AcDbEntity
  8
001
 62
   253
370
    50
100
AcDbVertex
100
AcDb2dVertex
 10
85.988215
 20
150.176987
 30
0.0
  0
VERTEX
  5
274
330
25D
100
AcDbEntity
  8
001
 62
   253
370
    50
100
AcDbVertex
100
AcDb2dVertex
 10
85.911013
 20
150.503853
 30
0.0
  0
VERTEX
  5
275
330
25D
100
AcDbEntity
  8
001
 62
   253
370
    50
100
AcDbVertex
100
AcDb2dVertex
 10
85.863688
 20
150.836514
 30
0.0
  0
VERTEX
  5
276
330
25D
100
AcDbEntity
  8
001
 62
   253
370
    50
100
AcDbVertex
100
AcDb2dVertex
 10
85.846381
 20
151.172303
 30
0.0
  0
VERTEX
  5
277
330
25D
100
AcDbEntity
  8
001
 62
   253
370
    50
100
AcDbVertex
100
AcDb2dVertex
 10
85.859893
 20
151.508128
 30
0.0
  0
VERTEX
  5
278
330
25D
100
AcDbEntity
  8
001
 62
   253
370
    50
100
AcDbVertex
100
AcDb2dVertex
 10
85.898928
 20
151.808603
 30
0.0
  0
VERTEX
  5
279
330
25D
100
AcDbEntity
  8
001
 62
   253
370
    50
100
AcDbVertex
100
AcDb2dVertex
 10
85.962496
 20
152.104912
 30
0.0
  0
VERTEX
  5
27A
330
25D
100
AcDbEntity
  8
001
 62
   253
370
    50
100
AcDbVertex
100
AcDb2dVertex
 10
86.049312
 20
152.394786
 30
0.0
  0
VERTEX
  5
27B
330
25D
100
AcDbEntity
  8
001
 62
   253
370
    50
100
AcDbVertex
100
AcDb2dVertex
 10
86.158787
 20
152.676832
 30
0.0
  0
VERTEX
  5
27C
330
25D
100
AcDbEntity
  8
001
 62
   253
370
    50
100
AcDbVertex
100
AcDb2dVertex
 10
86.292897
 20
152.954457
 30
0.0
  0
VERTEX
  5
27D
330
25D
100
AcDbEntity
  8
001
 62
   253
370
    50
100
AcDbVertex
100
AcDb2dVertex
 10
86.448151
 20
153.220891
 30
0.0
  0
VERTEX
  5
27E
330
25D
100
AcDbEntity
  8
001
 62
   253
370
    50
100
AcDbVertex
100
AcDb2dVertex
 10
86.622582
 20
153.47462
 30
0.0
  0
VERTEX
  5
27F
330
25D
100
AcDbEntity
  8
001
 62
   253
370
    50
100
AcDbVertex
100
AcDb2dVertex
 10
86.81511
 20
153.714877
 30
0.0
  0
VERTEX
  5
280
330
25D
100
AcDbEntity
  8
001
 62
   253
370
    50
100
AcDbVertex
100
AcDb2dVertex
 10
87.048431
 20
153.964507
 30
0.0
  0
VERTEX
  5
281
330
25D
100
AcDbEntity
  8
001
 62
   253
370
    50
100
AcDbVertex
100
AcDb2dVertex
 10
87.300309
 20
154.195488
 30
0.0
  0
VERTEX
  5
282
330
25D
100
AcDbEntity
  8
001
 62
   253
370
    50
100
AcDbVertex
100
AcDb2dVertex
 10
87.568766
 20
154.407294
 30
0.0
  0
VERTEX
  5
283
330
25D
100
AcDbEntity
  8
001
 62
   253
370
    50
100
AcDbVertex
100
AcDb2dVertex
 10
87.851907
 20
154.598992
 30
0.0
  0
VERTEX
  5
284
330
25D
100
AcDbEntity
  8
001
 62
   253
370
    50
100
AcDbVertex
100
AcDb2dVertex
 10
88.187824
 20
154.790789
 30
0.0
  0
VERTEX
  5
285
330
25D
100
AcDbEntity
  8
001
 62
   253
370
    50
100
AcDbVertex
100
AcDb2dVertex
 10
88.537801
 20
154.955718
 30
0.0
  0
VERTEX
  5
286
330
25D
100
AcDbEntity
  8
001
 62
   253
370
    50
100
AcDbVertex
100
AcDb2dVertex
 10
88.900203
 20
155.093876
 30
0.0
  0
VERTEX
  5
287
330
25D
100
AcDbEntity
  8
001
 62
   253
370
    50
100
AcDbVertex
100
AcDb2dVertex
 10
89.271974
 20
155.20423
 30
0.0
  0
VERTEX
  5
288
330
25D
100
AcDbEntity
  8
001
 62
   253
370
    50
100
AcDbVertex
100
AcDb2dVertex
 10
89.68355
 20
155.291953
 30
0.0
  0
VERTEX
  5
289
330
25D
100
AcDbEntity
  8
001
 62
   253
370
    50
100
AcDbVertex
100
AcDb2dVertex
 10
90.100922
 20
155.34652
 30
0.0
  0
VERTEX
  5
28A
330
25D
100
AcDbEntity
  8
001
 62
   253
370
    50
100
AcDbVertex
100
AcDb2dVertex
 10
90.521731
 20
155.36814
 30
0.0
  0
VERTEX
  5
28B
330
25D
100
AcDbEntity
  8
001
 62
   253
370
    50
100
AcDbVertex
100
AcDb2dVertex
 10
90.942786
 20
155.356316
 30
0.0
  0
VERTEX
  5
28C
330
25D
100
AcDbEntity
  8
001
 62
   253
370
    50
100
AcDbVertex
100
AcDb2dVertex
 10
91.228794
 20
155.328832
 30
0.0
  0
VERTEX
  5
28D
330
25D
100
AcDbEntity
  8
001
 62
   253
370
    50
100
AcDbVertex
100
AcDb2dVertex
 10
91.512851
 20
155.285777
 30
0.0
  0
VERTEX
  5
28E
330
25D
100
AcDbEntity
  8
001
 62
   253
370
    50
100
AcDbVertex
100
AcDb2dVertex
 10
91.794706
 20
155.227253
 30
0.0
  0
VERTEX
  5
28F
330
25D
100
AcDbEntity
  8
001
 62
   253
370
    50
100
AcDbVertex
100
AcDb2dVertex
 10
92.072949
 20
155.153424
 30
0.0
  0
VERTEX
  5
290
330
25D
100
AcDbEntity
  8
001
 62
   253
370
    50
100
AcDbVertex
100
AcDb2dVertex
 10
92.345345
 20
155.064805
 30
0.0
  0
VERTEX
  5
291
330
25D
100
AcDbEntity
  8
001
 62
   253
370
    50
100
AcDbVertex
100
AcDb2dVertex
 10
92.612333
 20
154.96101
 30
0.0
  0
VERTEX
  5
292
330
25D
100
AcDbEntity
  8
001
 62
   253
370
    50
100
AcDbVertex
100
AcDb2dVertex
 10
92.87153
 20
154.842706
 30
0.0
  0
VERTEX
  5
293
330
25D
100
AcDbEntity
  8
001
 62
   253
370
    50
100
AcDbVertex
100
AcDb2dVertex
 10
93.123386
 20
154.70958
 30
0.0
  0
VERTEX
  5
294
330
25D
100
AcDbEntity
  8
001
 62
   253
370
    50
100
AcDbVertex
100
AcDb2dVertex
 10
93.367426
 20
154.561697
 30
0.0
  0
VERTEX
  5
295
330
25D
100
AcDbEntity
  8
001
 62
   253
370
    50
100
AcDbVertex
100
AcDb2dVertex
 10
93.602714
 20
154.399989
 30
0.0
  0
VERTEX
  5
296
330
25D
100
AcDbEntity
  8
001
 62
   253
370
    50
100
AcDbVertex
100
AcDb2dVertex
 10
93.827323
 20
154.225639
 30
0.0
  0
VERTEX
  5
297
330
25D
100
AcDbEntity
  8
001
 62
   253
370
    50
100
AcDbVertex
100
AcDb2dVertex
 10
94.039192
 20
154.036545
 30
0.0
  0
VERTEX
  5
298
330
25D
100
AcDbEntity
  8
001
 62
   253
370
    50
100
AcDbVertex
100
AcDb2dVertex
 10
94.22721
 20
153.84291
 30
0.0
  0
VERTEX
  5
299
330
25D
100
AcDbEntity
  8
001
 62
   253
370
    50
100
AcDbVertex
100
AcDb2dVertex
 10
94.407782
 20
153.641787
 30
0.0
  0
SEQEND
  5
25E
330
25D
100
AcDbEntity
  8
001
370
    50
  0
POLYLINE
  5
29A
330
1F
100
AcDbEntity
  8
001
 62
   253
370
    50
100
AcDb2dPolyline
 66
     1
 10
0.0
 20
0.0
 30
0.0
  0
VERTEX
  5
29C
330
29A
100
AcDbEntity
  8
001
 62
   253
370
    50
100
AcDbVertex
100
AcDb2dVertex
 10
94.407782
 20
153.641787
 30
0.0
  0
VERTEX
  5
29D
330
29A
100
AcDbEntity
  8
001
 62
   253
370
    50
100
AcDbVertex
100
AcDb2dVertex
 10
94.571243
 20
153.424916
 30
0.0
  0
VERTEX
  5
29E
330
29A
100
AcDbEntity
  8
001
 62
   253
370
    50
100
AcDbVertex
100
AcDb2dVertex
 10
94.725431
 20
153.201847
 30
0.0
  0
VERTEX
  5
29F
330
29A
100
AcDbEntity
  8
001
 62
   253
370
    50
100
AcDbVertex
100
AcDb2dVertex
 10
94.862346
 20
152.968572
 30
0.0
  0
VERTEX
  5
2A0
330
29A
100
AcDbEntity
  8
001
 62
   253
370
    50
100
AcDbVertex
100
AcDb2dVertex
 10
94.981604
 20
152.725415
 30
0.0
  0
VERTEX
  5
2A1
330
29A
100
AcDbEntity
  8
001
 62
   253
370
    50
100
AcDbVertex
100
AcDb2dVertex
 10
95.112232
 20
152.394352
 30
0.0
  0
VERTEX
  5
2A2
330
29A
100
AcDbEntity
  8
001
 62
   253
370
    50
100
AcDbVertex
100
AcDb2dVertex
 10
95.212019
 20
152.052786
 30
0.0
  0
VERTEX
  5
2A3
330
29A
100
AcDbEntity
  8
001
 62
   253
370
    50
100
AcDbVertex
100
AcDb2dVertex
 10
95.279377
 20
151.702724
 30
0.0
  0
VERTEX
  5
2A4
330
29A
100
AcDbEntity
  8
001
 62
   253
370
    50
100
AcDbVertex
100
AcDb2dVertex
 10
95.312518
 20
151.347875
 30
0.0
  0
VERTEX
  5
2A5
330
29A
100
AcDbEntity
  8
001
 62
   253
370
    50
100
AcDbVertex
100
AcDb2dVertex
 10
95.312554
 20
151.037093
 30
0.0
  0
VERTEX
  5
2A6
330
29A
100
AcDbEntity
  8
001
 62
   253
370
    50
100
AcDbVertex
100
AcDb2dVertex
 10
95.286199
 20
150.727386
 30
0.0
  0
VERTEX
  5
2A7
330
29A
100
AcDbEntity
  8
001
 62
   253
370
    50
100
AcDbVertex
100
AcDb2dVertex
 10
95.234265
 20
150.421167
 30
0.0
  0
VERTEX
  5
2A8
330
29A
100
AcDbEntity
  8
001
 62
   253
370
    50
100
AcDbVertex
100
AcDb2dVertex
 10
95.157088
 20
150.120433
 30
0.0
  0
VERTEX
  5
2A9
330
29A
100
AcDbEntity
  8
001
 62
   253
370
    50
100
AcDbVertex
100
AcDb2dVertex
 10
95.09382
 20
149.929605
 30
0.0
  0
VERTEX
  5
2AA
330
29A
100
AcDbEntity
  8
001
 62
   253
370
    50
100
AcDbVertex
100
AcDb2dVertex
 10
95.020568
 20
149.742408
 30
0.0
  0
VERTEX
  5
2AB
330
29A
100
AcDbEntity
  8
001
 62
   253
370
    50
100
AcDbVertex
100
AcDb2dVertex
 10
94.937905
 20
149.559473
 30
0.0
  0
VERTEX
  5
2AC
330
29A
100
AcDbEntity
  8
001
 62
   253
370
    50
100
AcDbVertex
100
AcDb2dVertex
 10
94.845994
 20
149.380977
 30
0.0
  0
VERTEX
  5
2AD
330
29A
100
AcDbEntity
  8
001
 62
   253
370
    50
100
AcDbVertex
100
AcDb2dVertex
 10
94.668441
 20
149.087476
 30
0.0
  0
VERTEX
  5
2AE
330
29A
100
AcDbEntity
  8
001
 62
   253
370
    50
100
AcDbVertex
100
AcDb2dVertex
 10
94.467005
 20
148.809609
 30
0.0
  0
VERTEX
  5
2AF
330
29A
100
AcDbEntity
  8
001
 62
   253
370
    50
100
AcDbVertex
100
AcDb2dVertex
 10
94.244227
 20
148.548976
 30
0.0
  0
VERTEX
  5
2B0
330
29A
100
AcDbEntity
  8
001
 62
   253
370
    50
100
AcDbVertex
100
AcDb2dVertex
 10
94.001719
 20
148.306776
 30
0.0
  0
VERTEX
  5
2B1
330
29A
100
AcDbEntity
  8
001
 62
   253
370
    50
100
AcDbVertex
100
AcDb2dVertex
 10
93.730404
 20
148.075577
 30
0.0
  0
VERTEX
  5
2B2
330
29A
100
AcDbEntity
  8
001
 62
   253
370
    50
100
AcDbVertex
100
AcDb2dVertex
 10
93.442207
 20
147.865377
 30
0.0
  0
VERTEX
  5
2B3
330
29A
100
AcDbEntity
  8
001
 62
   253
370
    50
100
AcDbVertex
100
AcDb2dVertex
 10
93.138987
 20
147.676156
 30
0.0
  0
VERTEX
  5
2B4
330
29A
100
AcDbEntity
  8
001
 62
   253
370
    50
100
AcDbVertex
100
AcDb2dVertex
 10
92.822188
 20
147.511663
 30
0.0
  0
VERTEX
  5
2B5
330
29A
100
AcDbEntity
  8
001
 62
   253
370
    50
100
AcDbVertex
100
AcDb2dVertex
 10
92.56655
 20
147.401363
 30
0.0
  0
VERTEX
  5
2B6
330
29A
100
AcDbEntity
  8
001
 62
   253
370
    50
100
AcDbVertex
100
AcDb2dVertex
 10
92.306973
 20
147.299863
 30
0.0
  0
SEQEND
  5
29B
330
29A
100
AcDbEntity
  8
001
370
    50
  0
LINE
  5
2B7
330
1F
100
AcDbEntity
  8
001
 62
   253
370
    50
100
AcDbLine
 10
83.080959
 20
135.189174
 30
0.0
 11
83.080959
 21
167.189174
 31
0.0
  0
LINE
  5
2B8
330
1F
100
AcDbEntity
  8
001
 62
   253
370
    50
100
AcDbLine
 10
83.080959
 20
135.189174
 30
0.0
 11
97.580959
 21
135.189174
 31
0.0
  0
LINE
  5
2B9
330
1F
100
AcDbEntity
  8
001
 62
   253
370
    50
100
AcDbLine
 10
97.580959
 20
167.189174
 30
0.0
 11
83.080959
 21
167.189174
 31
0.0
  0
LINE
  5
2BA
330
1F
100
AcDbEntity
  8
001
 62
   253
370
    50
100
AcDbLine
 10
82.580959
 20
135.689174
 30
0.0
 11
82.580959
 21
166.689174
 31
0.0
  0
LINE
  5
2BB
330
1F
100
AcDbEntity
  8
001
 62
   253
370
    50
100
AcDbLine
 10
83.080959
 20
167.189174
 30
0.0
 11
82.580959
 21
166.689174
 31
0.0
  0
LINE
  5
2BC
330
1F
100
AcDbEntity
  8
001
 62
   253
370
    50
100
AcDbLine
 10
82.580959
 20
135.689174
 30
0.0
 11
83.080959
 21
135.189174
 31
0.0
  0
LINE
  5
2BD
330
1F
100
AcDbEntity
  8
001
 62
   253
370
    50
100
AcDbLine
 10
77.627593
 20
147.455907
 30
0.0
 11
77.703569
 21
147.498569
 31
0.0
  0
POLYLINE
  5
2BE
330
1F
100
AcDbEntity
  8
001
 62
   253
370
    50
100
AcDb2dPolyline
 66
     1
 10
0.0
 20
0.0
 30
0.0
  0
VERTEX
  5
2C0
330
2BE
100
AcDbEntity
  8
001
 62
   253
370
    50
100
AcDbVertex
100
AcDb2dVertex
 10
74.874677
 20
146.990681
 30
0.0
  0
VERTEX
  5
2C1
330
2BE
100
AcDbEntity
  8
001
 62
   253
370
    50
100
AcDbVertex
100
AcDb2dVertex
 10
75.026493
 20
146.970905
 30
0.0
  0
VERTEX
  5
2C2
330
2BE
100
AcDbEntity
  8
001
 62
   253
370
    50
100
AcDbVertex
100
AcDb2dVertex
 10
75.178645
 20
146.954795
 30
0.0
  0
VERTEX
  5
2C3
330
2BE
100
AcDbEntity
  8
001
 62
   253
370
    50
100
AcDbVertex
100
AcDb2dVertex
 10
75.538601
 20
146.942953
 30
0.0
  0
VERTEX
  5
2C4
330
2BE
100
AcDbEntity
  8
001
 62
   253
370
    50
100
AcDbVertex
100
AcDb2dVertex
 10
75.898805
 20
146.963204
 30
0.0
  0
VERTEX
  5
2C5
330
2BE
100
AcDbEntity
  8
001
 62
   253
370
    50
100
AcDbVertex
100
AcDb2dVertex
 10
76.255361
 20
147.008367
 30
0.0
  0
VERTEX
  5
2C6
330
2BE
100
AcDbEntity
  8
001
 62
   253
370
    50
100
AcDbVertex
100
AcDb2dVertex
 10
76.608085
 20
147.077261
 30
0.0
  0
VERTEX
  5
2C7
330
2BE
100
AcDbEntity
  8
001
 62
   253
370
    50
100
AcDbVertex
100
AcDb2dVertex
 10
76.949286
 20
147.169284
 30
0.0
  0
VERTEX
  5
2C8
330
2BE
100
AcDbEntity
  8
001
 62
   253
370
    50
100
AcDbVertex
100
AcDb2dVertex
 10
77.280472
 20
147.290834
 30
0.0
  0
VERTEX
  5
2C9
330
2BE
100
AcDbEntity
  8
001
 62
   253
370
    50
100
AcDbVertex
100
AcDb2dVertex
 10
77.4552
 20
147.370705
 30
0.0
  0
VERTEX
  5
2CA
330
2BE
100
AcDbEntity
  8
001
 62
   253
370
    50
100
AcDbVertex
100
AcDb2dVertex
 10
77.627593
 20
147.455907
 30
0.0
  0
SEQEND
  5
2BF
330
2BE
100
AcDbEntity
  8
001
370
    50
  0
LINE
  5
2CB
330
1F
100
AcDbEntity
  8
001
 62
   253
370
    50
100
AcDbLine
 10
77.625031
 20
147.454426
 30
0.0
 11
77.80674
 21
147.559784
 31
0.0
  0
LINE
  5
2CC
330
1F
100
AcDbEntity
  8
001
 62
   253
370
    50
100
AcDbLine
 10
74.649218
 20
147.034847
 30
0.0
 11
74.867327
 21
146.991877
 31
0.0
  0
LINE
  5
2CD
330
1F
100
AcDbEntity
  8
001
 62
   253
370
    50
100
AcDbLine
 10
77.703569
 20
147.498569
 30
0.0
 11
77.809373
 21
147.561427
 31
0.0
  0
POLYLINE
  5
2CE
330
1F
100
AcDbEntity
  8
001
 62
   253
370
    50
100
AcDb2dPolyline
 66
     1
 10
0.0
 20
0.0
 30
0.0
  0
VERTEX
  5
2D0
330
2CE
100
AcDbEntity
  8
001
 62
   253
370
    50
100
AcDbVertex
100
AcDb2dVertex
 10
74.223503
 20
147.23114
 30
0.0
  0
VERTEX
  5
2D1
330
2CE
100
AcDbEntity
  8
001
 62
   253
370
    50
100
AcDbVertex
100
AcDb2dVertex
 10
74.263365
 20
147.196187
 30
0.0
  0
VERTEX
  5
2D2
330
2CE
100
AcDbEntity
  8
001
 62
   253
370
    50
100
AcDbVertex
100
AcDb2dVertex
 10
74.305145
 20
147.164203
 30
0.0
  0
VERTEX
  5
2D3
330
2CE
100
AcDbEntity
  8
001
 62
   253
370
    50
100
AcDbVertex
100
AcDb2dVertex
 10
74.403312
 20
147.113408
 30
0.0
  0
VERTEX
  5
2D4
330
2CE
100
AcDbEntity
  8
001
 62
   253
370
    50
100
AcDbVertex
100
AcDb2dVertex
 10
74.509445
 20
147.077523
 30
0.0
  0
VERTEX
  5
2D5
330
2CE
100
AcDbEntity
  8
001
 62
   253
370
    50
100
AcDbVertex
100
AcDb2dVertex
 10
74.581284
 20
147.056539
 30
0.0
  0
VERTEX
  5
2D6
330
2CE
100
AcDbEntity
  8
001
 62
   253
370
    50
100
AcDbVertex
100
AcDb2dVertex
 10
74.652891
 20
147.036364
 30
0.0
  0
SEQEND
  5
2CF
330
2CE
100
AcDbEntity
  8
001
370
    50
  0
POLYLINE
  5
2D7
330
1F
100
AcDbEntity
  8
001
 62
   253
370
    50
100
AcDb2dPolyline
 66
     1
 10
0.0
 20
0.0
 30
0.0
  0
VERTEX
  5
2D9
330
2D7
100
AcDbEntity
  8
001
 62
   253
370
    50
100
AcDbVertex
100
AcDb2dVertex
 10
74.652891
 20
147.036364
 30
0.0
  0
VERTEX
  5
2DA
330
2D7
100
AcDbEntity
  8
001
 62
   253
370
    50
100
AcDbVertex
100
AcDb2dVertex
 10
74.692012
 20
147.026984
 30
0.0
  0
VERTEX
  5
2DB
330
2D7
100
AcDbEntity
  8
001
 62
   253
370
    50
100
AcDbVertex
100
AcDb2dVertex
 10
74.731224
 20
147.018038
 30
0.0
  0
VERTEX
  5
2DC
330
2D7
100
AcDbEntity
  8
001
 62
   253
370
    50
100
AcDbVertex
100
AcDb2dVertex
 10
74.802799
 20
147.003645
 30
0.0
  0
VERTEX
  5
2DD
330
2D7
100
AcDbEntity
  8
001
 62
   253
370
    50
100
AcDbVertex
100
AcDb2dVertex
 10
74.874677
 20
146.990681
 30
0.0
  0
SEQEND
  5
2D8
330
2D7
100
AcDbEntity
  8
001
370
    50
  0
LINE
  5
2DE
330
1F
100
AcDbEntity
  8
001
 62
   253
370
    50
100
AcDbLine
 10
67.848908
 20
165.189174
 30
0.0
 11
82.580959
 21
165.189174
 31
0.0
  0
POLYLINE
  5
2DF
330
1F
100
AcDbEntity
  8
001
 62
   253
370
    50
100
AcDb2dPolyline
 66
     1
 10
0.0
 20
0.0
 30
0.0
  0
VERTEX
  5
2E1
330
2DF
100
AcDbEntity
  8
001
 62
   253
370
    50
100
AcDbVertex
100
AcDb2dVertex
 10
74.223503
 20
147.23114
 30
0.0
  0
VERTEX
  5
2E2
330
2DF
100
AcDbEntity
  8
001
 62
   253
370
    50
100
AcDbVertex
100
AcDb2dVertex
 10
73.89172
 20
147.335143
 30
0.0
  0
VERTEX
  5
2E3
330
2DF
100
AcDbEntity
  8
001
 62
   253
370
    50
100
AcDbVertex
100
AcDb2dVertex
 10
73.565202
 20
147.453067
 30
0.0
  0
VERTEX
  5
2E4
330
2DF
100
AcDbEntity
  8
001
 62
   253
370
    50
100
AcDbVertex
100
AcDb2dVertex
 10
73.24932
 20
147.595439
 30
0.0
  0
VERTEX
  5
2E5
330
2DF
100
AcDbEntity
  8
001
 62
   253
370
    50
100
AcDbVertex
100
AcDb2dVertex
 10
72.944829
 20
147.761583
 30
0.0
  0
VERTEX
  5
2E6
330
2DF
100
AcDbEntity
  8
001
 62
   253
370
    50
100
AcDbVertex
100
AcDb2dVertex
 10
72.705939
 20
147.91219
 30
0.0
  0
VERTEX
  5
2E7
330
2DF
100
AcDbEntity
  8
001
 62
   253
370
    50
100
AcDbVertex
100
AcDb2dVertex
 10
72.476306
 20
148.076301
 30
0.0
  0
VERTEX
  5
2E8
330
2DF
100
AcDbEntity
  8
001
 62
   253
370
    50
100
AcDbVertex
100
AcDb2dVertex
 10
72.256432
 20
148.254597
 30
0.0
  0
VERTEX
  5
2E9
330
2DF
100
AcDbEntity
  8
001
 62
   253
370
    50
100
AcDbVertex
100
AcDb2dVertex
 10
72.048002
 20
148.44623
 30
0.0
  0
VERTEX
  5
2EA
330
2DF
100
AcDbEntity
  8
001
 62
   253
370
    50
100
AcDbVertex
100
AcDb2dVertex
 10
71.852876
 20
148.64984
 30
0.0
  0
VERTEX
  5
2EB
330
2DF
100
AcDbEntity
  8
001
 62
   253
370
    50
100
AcDbVertex
100
AcDb2dVertex
 10
71.671577
 20
148.865825
 30
0.0
  0
VERTEX
  5
2EC
330
2DF
100
AcDbEntity
  8
001
 62
   253
370
    50
100
AcDbVertex
100
AcDb2dVertex
 10
71.481308
 20
149.129849
 30
0.0
  0
VERTEX
  5
2ED
330
2DF
100
AcDbEntity
  8
001
 62
   253
370
    50
100
AcDbVertex
100
AcDb2dVertex
 10
71.312744
 20
149.408334
 30
0.0
  0
VERTEX
  5
2EE
330
2DF
100
AcDbEntity
  8
001
 62
   253
370
    50
100
AcDbVertex
100
AcDb2dVertex
 10
71.167143
 20
149.700242
 30
0.0
  0
VERTEX
  5
2EF
330
2DF
100
AcDbEntity
  8
001
 62
   253
370
    50
100
AcDbVertex
100
AcDb2dVertex
 10
71.047004
 20
150.003426
 30
0.0
  0
VERTEX
  5
2F0
330
2DF
100
AcDbEntity
  8
001
 62
   253
370
    50
100
AcDbVertex
100
AcDb2dVertex
 10
70.953663
 20
150.318663
 30
0.0
  0
VERTEX
  5
2F1
330
2DF
100
AcDbEntity
  8
001
 62
   253
370
    50
100
AcDbVertex
100
AcDb2dVertex
 10
70.888887
 20
150.641086
 30
0.0
  0
VERTEX
  5
2F2
330
2DF
100
AcDbEntity
  8
001
 62
   253
370
    50
100
AcDbVertex
100
AcDb2dVertex
 10
70.853152
 20
150.968431
 30
0.0
  0
VERTEX
  5
2F3
330
2DF
100
AcDbEntity
  8
001
 62
   253
370
    50
100
AcDbVertex
100
AcDb2dVertex
 10
70.847597
 20
151.297551
 30
0.0
  0
VERTEX
  5
2F4
330
2DF
100
AcDbEntity
  8
001
 62
   253
370
    50
100
AcDbVertex
100
AcDb2dVertex
 10
70.869218
 20
151.594435
 30
0.0
  0
VERTEX
  5
2F5
330
2DF
100
AcDbEntity
  8
001
 62
   253
370
    50
100
AcDbVertex
100
AcDb2dVertex
 10
70.915391
 20
151.888554
 30
0.0
  0
VERTEX
  5
2F6
330
2DF
100
AcDbEntity
  8
001
 62
   253
370
    50
100
AcDbVertex
100
AcDb2dVertex
 10
70.985017
 20
152.17757
 30
0.0
  0
VERTEX
  5
2F7
330
2DF
100
AcDbEntity
  8
001
 62
   253
370
    50
100
AcDbVertex
100
AcDb2dVertex
 10
71.077628
 20
152.460006
 30
0.0
  0
VERTEX
  5
2F8
330
2DF
100
AcDbEntity
  8
001
 62
   253
370
    50
100
AcDbVertex
100
AcDb2dVertex
 10
71.192612
 20
152.734102
 30
0.0
  0
VERTEX
  5
2F9
330
2DF
100
AcDbEntity
  8
001
 62
   253
370
    50
100
AcDbVertex
100
AcDb2dVertex
 10
71.328474
 20
152.998522
 30
0.0
  0
VERTEX
  5
2FA
330
2DF
100
AcDbEntity
  8
001
 62
   253
370
    50
100
AcDbVertex
100
AcDb2dVertex
 10
71.483302
 20
153.251604
 30
0.0
  0
VERTEX
  5
2FB
330
2DF
100
AcDbEntity
  8
001
 62
   253
370
    50
100
AcDbVertex
100
AcDb2dVertex
 10
71.656154
 20
153.492708
 30
0.0
  0
VERTEX
  5
2FC
330
2DF
100
AcDbEntity
  8
001
 62
   253
370
    50
100
AcDbVertex
100
AcDb2dVertex
 10
71.867316
 20
153.744642
 30
0.0
  0
VERTEX
  5
2FD
330
2DF
100
AcDbEntity
  8
001
 62
   253
370
    50
100
AcDbVertex
100
AcDb2dVertex
 10
72.097109
 20
153.979785
 30
0.0
  0
VERTEX
  5
2FE
330
2DF
100
AcDbEntity
  8
001
 62
   253
370
    50
100
AcDbVertex
100
AcDb2dVertex
 10
72.343515
 20
154.197485
 30
0.0
  0
VERTEX
  5
2FF
330
2DF
100
AcDbEntity
  8
001
 62
   253
370
    50
100
AcDbVertex
100
AcDb2dVertex
 10
72.604869
 20
154.396964
 30
0.0
  0
VERTEX
  5
300
330
2DF
100
AcDbEntity
  8
001
 62
   253
370
    50
100
AcDbVertex
100
AcDb2dVertex
 10
72.920721
 20
154.602341
 30
0.0
  0
VERTEX
  5
301
330
2DF
100
AcDbEntity
  8
001
 62
   253
370
    50
100
AcDbVertex
100
AcDb2dVertex
 10
73.251614
 20
154.782637
 30
0.0
  0
VERTEX
  5
302
330
2DF
100
AcDbEntity
  8
001
 62
   253
370
    50
100
AcDbVertex
100
AcDb2dVertex
 10
73.596023
 20
154.937988
 30
0.0
  0
VERTEX
  5
303
330
2DF
100
AcDbEntity
  8
001
 62
   253
370
    50
100
AcDbVertex
100
AcDb2dVertex
 10
73.950988
 20
155.067324
 30
0.0
  0
VERTEX
  5
304
330
2DF
100
AcDbEntity
  8
001
 62
   253
370
    50
100
AcDbVertex
100
AcDb2dVertex
 10
74.35323
 20
155.179469
 30
0.0
  0
VERTEX
  5
305
330
2DF
100
AcDbEntity
  8
001
 62
   253
370
    50
100
AcDbVertex
100
AcDb2dVertex
 10
74.763178
 20
155.259387
 30
0.0
  0
VERTEX
  5
306
330
2DF
100
AcDbEntity
  8
001
 62
   253
370
    50
100
AcDbVertex
100
AcDb2dVertex
 10
75.178875
 20
155.307286
 30
0.0
  0
VERTEX
  5
307
330
2DF
100
AcDbEntity
  8
001
 62
   253
370
    50
100
AcDbVertex
100
AcDb2dVertex
 10
75.596982
 20
155.322541
 30
0.0
  0
VERTEX
  5
308
330
2DF
100
AcDbEntity
  8
001
 62
   253
370
    50
100
AcDbVertex
100
AcDb2dVertex
 10
76.02866
 20
155.303623
 30
0.0
  0
VERTEX
  5
309
330
2DF
100
AcDbEntity
  8
001
 62
   253
370
    50
100
AcDbVertex
100
AcDb2dVertex
 10
76.457502
 20
155.249907
 30
0.0
  0
VERTEX
  5
30A
330
2DF
100
AcDbEntity
  8
001
 62
   253
370
    50
100
AcDbVertex
100
AcDb2dVertex
 10
76.879801
 20
155.162098
 30
0.0
  0
VERTEX
  5
30B
330
2DF
100
AcDbEntity
  8
001
 62
   253
370
    50
100
AcDbVertex
100
AcDb2dVertex
 10
77.293301
 20
155.03995
 30
0.0
  0
VERTEX
  5
30C
330
2DF
100
AcDbEntity
  8
001
 62
   253
370
    50
100
AcDbVertex
100
AcDb2dVertex
 10
77.561952
 20
154.939571
 30
0.0
  0
VERTEX
  5
30D
330
2DF
100
AcDbEntity
  8
001
 62
   253
370
    50
100
AcDbVertex
100
AcDb2dVertex
 10
77.824466
 20
154.824161
 30
0.0
  0
VERTEX
  5
30E
330
2DF
100
AcDbEntity
  8
001
 62
   253
370
    50
100
AcDbVertex
100
AcDb2dVertex
 10
78.080322
 20
154.693843
 30
0.0
  0
VERTEX
  5
30F
330
2DF
100
AcDbEntity
  8
001
 62
   253
370
    50
100
AcDbVertex
100
AcDb2dVertex
 10
78.328234
 20
154.548955
 30
0.0
  0
VERTEX
  5
310
330
2DF
100
AcDbEntity
  8
001
 62
   253
370
    50
100
AcDbVertex
100
AcDb2dVertex
 10
78.565965
 20
154.390505
 30
0.0
  0
VERTEX
  5
311
330
2DF
100
AcDbEntity
  8
001
 62
   253
370
    50
100
AcDbVertex
100
AcDb2dVertex
 10
78.793566
 20
154.217855
 30
0.0
  0
VERTEX
  5
312
330
2DF
100
AcDbEntity
  8
001
 62
   253
370
    50
100
AcDbVertex
100
AcDb2dVertex
 10
79.002342
 20
154.038007
 30
0.0
  0
VERTEX
  5
313
330
2DF
100
AcDbEntity
  8
001
 62
   253
370
    50
100
AcDbVertex
100
AcDb2dVertex
 10
79.199625
 20
153.84561
 30
0.0
  0
VERTEX
  5
314
330
2DF
100
AcDbEntity
  8
001
 62
   253
370
    50
100
AcDbVertex
100
AcDb2dVertex
 10
79.385273
 20
153.64038
 30
0.0
  0
VERTEX
  5
315
330
2DF
100
AcDbEntity
  8
001
 62
   253
370
    50
100
AcDbVertex
100
AcDb2dVertex
 10
79.557399
 20
153.423667
 30
0.0
  0
VERTEX
  5
316
330
2DF
100
AcDbEntity
  8
001
 62
   253
370
    50
100
AcDbVertex
100
AcDb2dVertex
 10
79.714379
 20
153.196777
 30
0.0
  0
VERTEX
  5
317
330
2DF
100
AcDbEntity
  8
001
 62
   253
370
    50
100
AcDbVertex
100
AcDb2dVertex
 10
79.85531
 20
152.959639
 30
0.0
  0
VERTEX
  5
318
330
2DF
100
AcDbEntity
  8
001
 62
   253
370
    50
100
AcDbVertex
100
AcDb2dVertex
 10
79.964847
 20
152.743244
 30
0.0
  0
VERTEX
  5
319
330
2DF
100
AcDbEntity
  8
001
 62
   253
370
    50
100
AcDbVertex
100
AcDb2dVertex
 10
80.060441
 20
152.520331
 30
0.0
  0
VERTEX
  5
31A
330
2DF
100
AcDbEntity
  8
001
 62
   253
370
    50
100
AcDbVertex
100
AcDb2dVertex
 10
80.14219
 20
152.29039
 30
0.0
  0
VERTEX
  5
31B
330
2DF
100
AcDbEntity
  8
001
 62
   253
370
    50
100
AcDbVertex
100
AcDb2dVertex
 10
80.208956
 20
152.055661
 30
0.0
  0
VERTEX
  5
31C
330
2DF
100
AcDbEntity
  8
001
 62
   253
370
    50
100
AcDbVertex
100
AcDb2dVertex
 10
80.260016
 20
151.817807
 30
0.0
  0
VERTEX
  5
31D
330
2DF
100
AcDbEntity
  8
001
 62
   253
370
    50
100
AcDbVertex
100
AcDb2dVertex
 10
80.294847
 20
151.577044
 30
0.0
  0
VERTEX
  5
31E
330
2DF
100
AcDbEntity
  8
001
 62
   253
370
    50
100
AcDbVertex
100
AcDb2dVertex
 10
80.314834
 20
151.267798
 30
0.0
  0
VERTEX
  5
31F
330
2DF
100
AcDbEntity
  8
001
 62
   253
370
    50
100
AcDbVertex
100
AcDb2dVertex
 10
80.307913
 20
150.957856
 30
0.0
  0
VERTEX
  5
320
330
2DF
100
AcDbEntity
  8
001
 62
   253
370
    50
100
AcDbVertex
100
AcDb2dVertex
 10
80.274708
 20
150.649797
 30
0.0
  0
VERTEX
  5
321
330
2DF
100
AcDbEntity
  8
001
 62
   253
370
    50
100
AcDbVertex
100
AcDb2dVertex
 10
80.215308
 20
150.345818
 30
0.0
  0
VERTEX
  5
322
330
2DF
100
AcDbEntity
  8
001
 62
   253
370
    50
100
AcDbVertex
100
AcDb2dVertex
 10
80.145975
 20
150.097338
 30
0.0
  0
VERTEX
  5
323
330
2DF
100
AcDbEntity
  8
001
 62
   253
370
    50
100
AcDbVertex
100
AcDb2dVertex
 10
80.059484
 20
149.854289
 30
0.0
  0
VERTEX
  5
324
330
2DF
100
AcDbEntity
  8
001
 62
   253
370
    50
100
AcDbVertex
100
AcDb2dVertex
 10
79.95701
 20
149.618089
 30
0.0
  0
VERTEX
  5
325
330
2DF
100
AcDbEntity
  8
001
 62
   253
370
    50
100
AcDbVertex
100
AcDb2dVertex
 10
79.839017
 20
149.389241
 30
0.0
  0
VERTEX
  5
326
330
2DF
100
AcDbEntity
  8
001
 62
   253
370
    50
100
AcDbVertex
100
AcDb2dVertex
 10
79.659451
 20
149.098186
 30
0.0
  0
VERTEX
  5
327
330
2DF
100
AcDbEntity
  8
001
 62
   253
370
    50
100
AcDbVertex
100
AcDb2dVertex
 10
79.456037
 20
148.823112
 30
0.0
  0
VERTEX
  5
328
330
2DF
100
AcDbEntity
  8
001
 62
   253
370
    50
100
AcDbVertex
100
AcDb2dVertex
 10
79.231452
 20
148.565547
 30
0.0
  0
VERTEX
  5
329
330
2DF
100
AcDbEntity
  8
001
 62
   253
370
    50
100
AcDbVertex
100
AcDb2dVertex
 10
78.987404
 20
148.326459
 30
0.0
  0
VERTEX
  5
32A
330
2DF
100
AcDbEntity
  8
001
 62
   253
370
    50
100
AcDbVertex
100
AcDb2dVertex
 10
78.715796
 20
148.099181
 30
0.0
  0
VERTEX
  5
32B
330
2DF
100
AcDbEntity
  8
001
 62
   253
370
    50
100
AcDbVertex
100
AcDb2dVertex
 10
78.427608
 20
147.893099
 30
0.0
  0
VERTEX
  5
32C
330
2DF
100
AcDbEntity
  8
001
 62
   253
370
    50
100
AcDbVertex
100
AcDb2dVertex
 10
78.124551
 20
147.708208
 30
0.0
  0
VERTEX
  5
32D
330
2DF
100
AcDbEntity
  8
001
 62
   253
370
    50
100
AcDbVertex
100
AcDb2dVertex
 10
77.808812
 20
147.546451
 30
0.0
  0
VERTEX
  5
32E
330
2DF
100
AcDbEntity
  8
001
 62
   253
370
    50
100
AcDbVertex
100
AcDb2dVertex
 10
77.756265
 20
147.522344
 30
0.0
  0
VERTEX
  5
32F
330
2DF
100
AcDbEntity
  8
001
 62
   253
370
    50
100
AcDbVertex
100
AcDb2dVertex
 10
77.703569
 20
147.498569
 30
0.0
  0
SEQEND
  5
2E0
330
2DF
100
AcDbEntity
  8
001
370
    50
  0
LINE
  5
330
330
1F
100
AcDbEntity
  8
001
 62
   253
370
    50
100
AcDbLine
 10
98.580959
 20
30.191472
 30
0.0
 11
101.580959
 21
30.191472
 31
0.0
  0
LINE
  5
331
330
1F
100
AcDbEntity
  8
001
 62
   253
370
    50
100
AcDbLine
 10
101.580959
 20
77.191472
 30
0.0
 11
98.580959
 21
77.191472
 31
0.0
  0
ARC
  5
332
330
1F
100
AcDbEntity
  8
001
 62
   253
370
    50
100
AcDbCircle
 10
101.580959
 20
31.191472
 30
0.0
 40
1.000000000000001
100
AcDbArc
 50
270.0
 51
0.0
  0
ARC
  5
333
330
1F
100
AcDbEntity
  8
001
 62
   253
370
    50
100
AcDbCircle
 10
101.580959
 20
76.191472
 30
0.0
 40
1.000000000000001
100
AcDbArc
 50
0.0
 51
90.0
  0
LINE
  5
334
330
1F
100
AcDbEntity
  8
001
 62
   253
370
    50
100
AcDbLine
 10
102.580959
 20
31.191472
 30
0.0
 11
102.580959
 21
76.191472
 31
0.0
  0
ARC
  5
335
330
1F
100
AcDbEntity
  8
001
 62
   253
370
    50
100
AcDbCircle
 10
98.580959
 20
31.191472
 30
0.0
 40
1.000000000000001
100
AcDbArc
 50
180.0
 51
270.0
  0
ARC
  5
336
330
1F
100
AcDbEntity
  8
001
 62
   253
370
    50
100
AcDbCircle
 10
98.580959
 20
76.191472
 30
0.0
 40
1.000000000000001
100
AcDbArc
 50
90.0
 51
180.0
  0
LINE
  5
337
330
1F
100
AcDbEntity
  8
001
 62
   253
370
    50
100
AcDbLine
 10
97.580959
 20
31.191472
 30
0.0
 11
97.580959
 21
76.191472
 31
0.0
  0
LINE
  5
338
330
1F
100
AcDbEntity
  8
001
 62
   253
370
    50
100
AcDbLine
 10
102.580959
 20
34.191472
 30
0.0
 11
105.580959
 21
34.191472
 31
0.0
  0
LINE
  5
339
330
1F
100
AcDbEntity
  8
001
 62
   253
370
    50
100
AcDbLine
 10
83.080959
 20
37.691472
 30
0.0
 11
83.080959
 21
69.691472
 31
0.0
  0
LINE
  5
33A
330
1F
100
AcDbEntity
  8
001
 62
   253
370
    50
100
AcDbLine
 10
82.580959
 20
38.191472
 30
0.0
 11
82.580959
 21
69.191472
 31
0.0
  0
LINE
  5
33B
330
1F
100
AcDbEntity
  8
001
 62
   253
370
    50
100
AcDbLine
 10
83.080959
 20
69.691472
 30
0.0
 11
82.580959
 21
69.191472
 31
0.0
  0
LINE
  5
33C
330
1F
100
AcDbEntity
  8
001
 62
   253
370
    50
100
AcDbLine
 10
82.580959
 20
38.191472
 30
0.0
 11
83.080959
 21
37.691472
 31
0.0
  0
POLYLINE
  5
33D
330
1F
100
AcDbEntity
  8
001
 62
   253
370
    50
100
AcDb2dPolyline
 66
     1
 10
0.0
 20
0.0
 30
0.0
  0
VERTEX
  5
33F
330
33D
100
AcDbEntity
  8
001
 62
   253
370
    50
100
AcDbVertex
100
AcDb2dVertex
 10
95.315966
 20
69.691472
 30
0.0
  0
VERTEX
  5
340
330
33D
100
AcDbEntity
  8
001
 62
   253
370
    50
100
AcDbVertex
100
AcDb2dVertex
 10
95.30191
 20
69.688269
 30
0.0
  0
VERTEX
  5
341
330
33D
100
AcDbEntity
  8
001
 62
   253
370
    50
100
AcDbVertex
100
AcDb2dVertex
 10
95.287853
 20
69.685069
 30
0.0
  0
VERTEX
  5
342
330
33D
100
AcDbEntity
  8
001
 62
   253
370
    50
100
AcDbVertex
100
AcDb2dVertex
 10
95.222491
 20
69.670312
 30
0.0
  0
VERTEX
  5
343
330
33D
100
AcDbEntity
  8
001
 62
   253
370
    50
100
AcDbVertex
100
AcDb2dVertex
 10
95.157088
 20
69.655738
 30
0.0
  0
VERTEX
  5
344
330
33D
100
AcDbEntity
  8
001
 62
   253
370
    50
100
AcDbVertex
100
AcDb2dVertex
 10
95.089308
 20
69.640829
 30
0.0
  0
VERTEX
  5
345
330
33D
100
AcDbEntity
  8
001
 62
   253
370
    50
100
AcDbVertex
100
AcDb2dVertex
 10
95.021487
 20
69.62611
 30
0.0
  0
VERTEX
  5
346
330
33D
100
AcDbEntity
  8
001
 62
   253
370
    50
100
AcDbVertex
100
AcDb2dVertex
 10
94.933775
 20
69.607376
 30
0.0
  0
VERTEX
  5
347
330
33D
100
AcDbEntity
  8
001
 62
   253
370
    50
100
AcDbVertex
100
AcDb2dVertex
 10
94.845994
 20
69.58897
 30
0.0
  0
VERTEX
  5
348
330
33D
100
AcDbEntity
  8
001
 62
   253
370
    50
100
AcDbVertex
100
AcDb2dVertex
 10
94.659557
 20
69.551016
 30
0.0
  0
VERTEX
  5
349
330
33D
100
AcDbEntity
  8
001
 62
   253
370
    50
100
AcDbVertex
100
AcDb2dVertex
 10
94.472819
 20
69.514566
 30
0.0
  0
VERTEX
  5
34A
330
33D
100
AcDbEntity
  8
001
 62
   253
370
    50
100
AcDbVertex
100
AcDb2dVertex
 10
94.237493
 20
69.470884
 30
0.0
  0
VERTEX
  5
34B
330
33D
100
AcDbEntity
  8
001
 62
   253
370
    50
100
AcDbVertex
100
AcDb2dVertex
 10
94.001719
 20
69.429699
 30
0.0
  0
VERTEX
  5
34C
330
33D
100
AcDbEntity
  8
001
 62
   253
370
    50
100
AcDbVertex
100
AcDb2dVertex
 10
93.725634
 20
69.384806
 30
0.0
  0
VERTEX
  5
34D
330
33D
100
AcDbEntity
  8
001
 62
   253
370
    50
100
AcDbVertex
100
AcDb2dVertex
 10
93.449005
 20
69.343341
 30
0.0
  0
VERTEX
  5
34E
330
33D
100
AcDbEntity
  8
001
 62
   253
370
    50
100
AcDbVertex
100
AcDb2dVertex
 10
93.135915
 20
69.30067
 30
0.0
  0
VERTEX
  5
34F
330
33D
100
AcDbEntity
  8
001
 62
   253
370
    50
100
AcDbVertex
100
AcDb2dVertex
 10
92.822188
 20
69.26311
 30
0.0
  0
VERTEX
  5
350
330
33D
100
AcDbEntity
  8
001
 62
   253
370
    50
100
AcDbVertex
100
AcDb2dVertex
 10
92.564688
 20
69.236335
 30
0.0
  0
VERTEX
  5
351
330
33D
100
AcDbEntity
  8
001
 62
   253
370
    50
100
AcDbVertex
100
AcDb2dVertex
 10
92.306973
 20
69.211564
 30
0.0
  0
SEQEND
  5
33E
330
33D
100
AcDbEntity
  8
001
370
    50
  0
POLYLINE
  5
352
330
1F
100
AcDbEntity
  8
001
 62
   253
370
    50
100
AcDb2dPolyline
 66
     1
 10
0.0
 20
0.0
 30
0.0
  0
VERTEX
  5
354
330
352
100
AcDbEntity
  8
001
 62
   253
370
    50
100
AcDbVertex
100
AcDb2dVertex
 10
89.781817
 20
69.152208
 30
0.0
  0
VERTEX
  5
355
330
352
100
AcDbEntity
  8
001
 62
   253
370
    50
100
AcDbVertex
100
AcDb2dVertex
 10
89.935614
 20
69.146812
 30
0.0
  0
VERTEX
  5
356
330
352
100
AcDbEntity
  8
001
 62
   253
370
    50
100
AcDbVertex
100
AcDb2dVertex
 10
90.089432
 20
69.142104
 30
0.0
  0
VERTEX
  5
357
330
352
100
AcDbEntity
  8
001
 62
   253
370
    50
100
AcDbVertex
100
AcDb2dVertex
 10
90.516077
 20
69.135804
 30
0.0
  0
VERTEX
  5
358
330
352
100
AcDbEntity
  8
001
 62
   253
370
    50
100
AcDbVertex
100
AcDb2dVertex
 10
90.942786
 20
69.139285
 30
0.0
  0
VERTEX
  5
359
330
352
100
AcDbEntity
  8
001
 62
   253
370
    50
100
AcDbVertex
100
AcDb2dVertex
 10
91.362966
 20
69.151624
 30
0.0
  0
VERTEX
  5
35A
330
352
100
AcDbEntity
  8
001
 62
   253
370
    50
100
AcDbVertex
100
AcDb2dVertex
 10
91.782783
 20
69.172683
 30
0.0
  0
VERTEX
  5
35B
330
352
100
AcDbEntity
  8
001
 62
   253
370
    50
100
AcDbVertex
100
AcDb2dVertex
 10
91.993258
 20
69.186568
 30
0.0
  0
VERTEX
  5
35C
330
352
100
AcDbEntity
  8
001
 62
   253
370
    50
100
AcDbVertex
100
AcDb2dVertex
 10
92.203558
 20
69.20282
 30
0.0
  0
VERTEX
  5
35D
330
352
100
AcDbEntity
  8
001
 62
   253
370
    50
100
AcDbVertex
100
AcDb2dVertex
 10
92.30724
 20
69.211707
 30
0.0
  0
VERTEX
  5
35E
330
352
100
AcDbEntity
  8
001
 62
   253
370
    50
100
AcDbVertex
100
AcDb2dVertex
 10
92.410895
 20
69.220903
 30
0.0
  0
SEQEND
  5
353
330
352
100
AcDbEntity
  8
001
370
    50
  0
LINE
  5
35F
330
1F
100
AcDbEntity
  8
001
 62
   253
370
    50
100
AcDbLine
 10
83.080959
 20
37.691472
 30
0.0
 11
97.580959
 21
37.691472
 31
0.0
  0
LINE
  5
360
330
1F
100
AcDbEntity
  8
001
 62
   253
370
    50
100
AcDbLine
 10
85.86189
 20
69.691472
 30
0.0
 11
83.080959
 21
69.691472
 31
0.0
  0
LINE
  5
361
330
1F
100
AcDbEntity
  8
001
 62
   253
370
    50
100
AcDbLine
 10
97.580959
 20
69.691472
 30
0.0
 11
95.306116
 21
69.691472
 31
0.0
  0
POLYLINE
  5
362
330
1F
100
AcDbEntity
  8
001
 62
   253
370
    50
100
AcDb2dPolyline
 66
     1
 10
0.0
 20
0.0
 30
0.0
  0
VERTEX
  5
364
330
362
100
AcDbEntity
  8
001
 62
   253
370
    50
100
AcDbVertex
100
AcDb2dVertex
 10
89.69833
 20
69.155779
 30
0.0
  0
VERTEX
  5
365
330
362
100
AcDbEntity
  8
001
 62
   253
370
    50
100
AcDbVertex
100
AcDb2dVertex
 10
89.640405
 20
69.158504
 30
0.0
  0
VERTEX
  5
366
330
362
100
AcDbEntity
  8
001
 62
   253
370
    50
100
AcDbVertex
100
AcDb2dVertex
 10
89.582485
 20
69.161319
 30
0.0
  0
VERTEX
  5
367
330
362
100
AcDbEntity
  8
001
 62
   253
370
    50
100
AcDbVertex
100
AcDb2dVertex
 10
89.17338
 20
69.186199
 30
0.0
  0
VERTEX
  5
368
330
362
100
AcDbEntity
  8
001
 62
   253
370
    50
100
AcDbVertex
100
AcDb2dVertex
 10
88.764873
 20
69.219628
 30
0.0
  0
VERTEX
  5
369
330
362
100
AcDbEntity
  8
001
 62
   253
370
    50
100
AcDbVertex
100
AcDb2dVertex
 10
88.563474
 20
69.239132
 30
0.0
  0
VERTEX
  5
36A
330
362
100
AcDbEntity
  8
001
 62
   253
370
    50
100
AcDbVertex
100
AcDb2dVertex
 10
88.36228
 20
69.260594
 30
0.0
  0
VERTEX
  5
36B
330
362
100
AcDbEntity
  8
001
 62
   253
370
    50
100
AcDbVertex
100
AcDb2dVertex
 10
88.169269
 20
69.283044
 30
0.0
  0
VERTEX
  5
36C
330
362
100
AcDbEntity
  8
001
 62
   253
370
    50
100
AcDbVertex
100
AcDb2dVertex
 10
87.976475
 20
69.307287
 30
0.0
  0
VERTEX
  5
36D
330
362
100
AcDbEntity
  8
001
 62
   253
370
    50
100
AcDbVertex
100
AcDb2dVertex
 10
87.801657
 20
69.330833
 30
0.0
  0
VERTEX
  5
36E
330
362
100
AcDbEntity
  8
001
 62
   253
370
    50
100
AcDbVertex
100
AcDb2dVertex
 10
87.627039
 20
69.355816
 30
0.0
  0
VERTEX
  5
36F
330
362
100
AcDbEntity
  8
001
 62
   253
370
    50
100
AcDbVertex
100
AcDb2dVertex
 10
87.462902
 20
69.380618
 30
0.0
  0
VERTEX
  5
370
330
362
100
AcDbEntity
  8
001
 62
   253
370
    50
100
AcDbVertex
100
AcDb2dVertex
 10
87.298957
 20
69.406664
 30
0.0
  0
VERTEX
  5
371
330
362
100
AcDbEntity
  8
001
 62
   253
370
    50
100
AcDbVertex
100
AcDb2dVertex
 10
87.142154
 20
69.432763
 30
0.0
  0
VERTEX
  5
372
330
362
100
AcDbEntity
  8
001
 62
   253
370
    50
100
AcDbVertex
100
AcDb2dVertex
 10
86.98554
 20
69.459974
 30
0.0
  0
VERTEX
  5
373
330
362
100
AcDbEntity
  8
001
 62
   253
370
    50
100
AcDbVertex
100
AcDb2dVertex
 10
86.843724
 20
69.485588
 30
0.0
  0
VERTEX
  5
374
330
362
100
AcDbEntity
  8
001
 62
   253
370
    50
100
AcDbVertex
100
AcDb2dVertex
 10
86.702072
 20
69.512092
 30
0.0
  0
VERTEX
  5
375
330
362
100
AcDbEntity
  8
001
 62
   253
370
    50
100
AcDbVertex
100
AcDb2dVertex
 10
86.493207
 20
69.552843
 30
0.0
  0
VERTEX
  5
376
330
362
100
AcDbEntity
  8
001
 62
   253
370
    50
100
AcDbVertex
100
AcDb2dVertex
 10
86.284719
 20
69.595474
 30
0.0
  0
VERTEX
  5
377
330
362
100
AcDbEntity
  8
001
 62
   253
370
    50
100
AcDbVertex
100
AcDb2dVertex
 10
86.201107
 20
69.613112
 30
0.0
  0
VERTEX
  5
378
330
362
100
AcDbEntity
  8
001
 62
   253
370
    50
100
AcDbVertex
100
AcDb2dVertex
 10
86.117558
 20
69.631047
 30
0.0
  0
VERTEX
  5
379
330
362
100
AcDbEntity
  8
001
 62
   253
370
    50
100
AcDbVertex
100
AcDb2dVertex
 10
86.052867
 20
69.645148
 30
0.0
  0
VERTEX
  5
37A
330
362
100
AcDbEntity
  8
001
 62
   253
370
    50
100
AcDbVertex
100
AcDb2dVertex
 10
85.988215
 20
69.659424
 30
0.0
  0
VERTEX
  5
37B
330
362
100
AcDbEntity
  8
001
 62
   253
370
    50
100
AcDbVertex
100
AcDb2dVertex
 10
85.926175
 20
69.67329
 30
0.0
  0
VERTEX
  5
37C
330
362
100
AcDbEntity
  8
001
 62
   253
370
    50
100
AcDbVertex
100
AcDb2dVertex
 10
85.864172
 20
69.687318
 30
0.0
  0
VERTEX
  5
37D
330
362
100
AcDbEntity
  8
001
 62
   253
370
    50
100
AcDbVertex
100
AcDb2dVertex
 10
85.855062
 20
69.689394
 30
0.0
  0
VERTEX
  5
37E
330
362
100
AcDbEntity
  8
001
 62
   253
370
    50
100
AcDbVertex
100
AcDb2dVertex
 10
85.845952
 20
69.691472
 30
0.0
  0
SEQEND
  5
363
330
362
100
AcDbEntity
  8
001
370
    50
  0
POLYLINE
  5
37F
330
1F
100
AcDbEntity
  8
001
 62
   253
370
    50
100
AcDb2dPolyline
 66
     1
 10
0.0
 20
0.0
 30
0.0
  0
VERTEX
  5
381
330
37F
100
AcDbEntity
  8
001
 62
   253
370
    50
100
AcDbVertex
100
AcDb2dVertex
 10
89.69833
 20
69.155779
 30
0.0
  0
VERTEX
  5
382
330
37F
100
AcDbEntity
  8
001
 62
   253
370
    50
100
AcDbVertex
100
AcDb2dVertex
 10
89.783483
 20
69.145787
 30
0.0
  0
VERTEX
  5
383
330
37F
100
AcDbEntity
  8
001
 62
   253
370
    50
100
AcDbVertex
100
AcDb2dVertex
 10
89.868764
 20
69.137283
 30
0.0
  0
VERTEX
  5
384
330
37F
100
AcDbEntity
  8
001
 62
   253
370
    50
100
AcDbVertex
100
AcDb2dVertex
 10
89.959764
 20
69.130999
 30
0.0
  0
VERTEX
  5
385
330
37F
100
AcDbEntity
  8
001
 62
   253
370
    50
100
AcDbVertex
100
AcDb2dVertex
 10
90.050915
 20
69.126674
 30
0.0
  0
VERTEX
  5
386
330
37F
100
AcDbEntity
  8
001
 62
   253
370
    50
100
AcDbVertex
100
AcDb2dVertex
 10
90.325141
 20
69.117774
 30
0.0
  0
VERTEX
  5
387
330
37F
100
AcDbEntity
  8
001
 62
   253
370
    50
100
AcDbVertex
100
AcDb2dVertex
 10
90.599437
 20
69.114465
 30
0.0
  0
VERTEX
  5
388
330
37F
100
AcDbEntity
  8
001
 62
   253
370
    50
100
AcDbVertex
100
AcDb2dVertex
 10
90.874584
 20
69.11715
 30
0.0
  0
VERTEX
  5
389
330
37F
100
AcDbEntity
  8
001
 62
   253
370
    50
100
AcDbVertex
100
AcDb2dVertex
 10
91.149651
 20
69.125188
 30
0.0
  0
VERTEX
  5
38A
330
37F
100
AcDbEntity
  8
001
 62
   253
370
    50
100
AcDbVertex
100
AcDb2dVertex
 10
91.430524
 20
69.138171
 30
0.0
  0
VERTEX
  5
38B
330
37F
100
AcDbEntity
  8
001
 62
   253
370
    50
100
AcDbVertex
100
AcDb2dVertex
 10
91.711125
 20
69.155992
 30
0.0
  0
VERTEX
  5
38C
330
37F
100
AcDbEntity
  8
001
 62
   253
370
    50
100
AcDbVertex
100
AcDb2dVertex
 10
91.981062
 20
69.177987
 30
0.0
  0
VERTEX
  5
38D
330
37F
100
AcDbEntity
  8
001
 62
   253
370
    50
100
AcDbVertex
100
AcDb2dVertex
 10
92.250513
 20
69.20519
 30
0.0
  0
VERTEX
  5
38E
330
37F
100
AcDbEntity
  8
001
 62
   253
370
    50
100
AcDbVertex
100
AcDb2dVertex
 10
92.278745
 20
69.208361
 30
0.0
  0
VERTEX
  5
38F
330
37F
100
AcDbEntity
  8
001
 62
   253
370
    50
100
AcDbVertex
100
AcDb2dVertex
 10
92.306973
 20
69.211564
 30
0.0
  0
SEQEND
  5
380
330
37F
100
AcDbEntity
  8
001
370
    50
  0
POLYLINE
  5
390
330
1F
100
AcDbEntity
  8
001
 62
   253
370
    50
100
AcDb2dPolyline
 66
     1
 10
0.0
 20
0.0
 30
0.0
  0
VERTEX
  5
392
330
390
100
AcDbEntity
  8
001
 62
   253
370
    50
100
AcDbVertex
100
AcDb2dVertex
 10
80.315966
 20
67.691472
 30
0.0
  0
VERTEX
  5
393
330
390
100
AcDbEntity
  8
001
 62
   253
370
    50
100
AcDbVertex
100
AcDb2dVertex
 10
80.265645
 20
67.679165
 30
0.0
  0
VERTEX
  5
394
330
390
100
AcDbEntity
  8
001
 62
   253
370
    50
100
AcDbVertex
100
AcDb2dVertex
 10
80.215308
 20
67.666926
 30
0.0
  0
VERTEX
  5
395
330
390
100
AcDbEntity
  8
001
 62
   253
370
    50
100
AcDbVertex
100
AcDb2dVertex
 10
80.138427
 20
67.64848
 30
0.0
  0
VERTEX
  5
396
330
390
100
AcDbEntity
  8
001
 62
   253
370
    50
100
AcDbVertex
100
AcDb2dVertex
 10
80.06148
 20
67.630315
 30
0.0
  0
VERTEX
  5
397
330
390
100
AcDbEntity
  8
001
 62
   253
370
    50
100
AcDbVertex
100
AcDb2dVertex
 10
79.95031
 20
67.604548
 30
0.0
  0
VERTEX
  5
398
330
390
100
AcDbEntity
  8
001
 62
   253
370
    50
100
AcDbVertex
100
AcDb2dVertex
 10
79.839017
 20
67.579323
 30
0.0
  0
VERTEX
  5
399
330
390
100
AcDbEntity
  8
001
 62
   253
370
    50
100
AcDbVertex
100
AcDb2dVertex
 10
79.650647
 20
67.537972
 30
0.0
  0
VERTEX
  5
39A
330
390
100
AcDbEntity
  8
001
 62
   253
370
    50
100
AcDbVertex
100
AcDb2dVertex
 10
79.461925
 20
67.498255
 30
0.0
  0
VERTEX
  5
39B
330
390
100
AcDbEntity
  8
001
 62
   253
370
    50
100
AcDbVertex
100
AcDb2dVertex
 10
79.224925
 20
67.450824
 30
0.0
  0
VERTEX
  5
39C
330
390
100
AcDbEntity
  8
001
 62
   253
370
    50
100
AcDbVertex
100
AcDb2dVertex
 10
78.987404
 20
67.406072
 30
0.0
  0
VERTEX
  5
39D
330
390
100
AcDbEntity
  8
001
 62
   253
370
    50
100
AcDbVertex
100
AcDb2dVertex
 10
78.711149
 20
67.357588
 30
0.0
  0
VERTEX
  5
39E
330
390
100
AcDbEntity
  8
001
 62
   253
370
    50
100
AcDbVertex
100
AcDb2dVertex
 10
78.434259
 20
67.312848
 30
0.0
  0
VERTEX
  5
39F
330
390
100
AcDbEntity
  8
001
 62
   253
370
    50
100
AcDbVertex
100
AcDb2dVertex
 10
78.121887
 20
67.267063
 30
0.0
  0
VERTEX
  5
3A0
330
390
100
AcDbEntity
  8
001
 62
   253
370
    50
100
AcDbVertex
100
AcDb2dVertex
 10
77.808812
 20
67.226449
 30
0.0
  0
VERTEX
  5
3A1
330
390
100
AcDbEntity
  8
001
 62
   253
370
    50
100
AcDbVertex
100
AcDb2dVertex
 10
77.756195
 20
67.220152
 30
0.0
  0
VERTEX
  5
3A2
330
390
100
AcDbEntity
  8
001
 62
   253
370
    50
100
AcDbVertex
100
AcDb2dVertex
 10
77.703569
 20
67.213934
 30
0.0
  0
SEQEND
  5
391
330
390
100
AcDbEntity
  8
001
370
    50
  0
POLYLINE
  5
3A3
330
1F
100
AcDbEntity
  8
001
 62
   253
370
    50
100
AcDb2dPolyline
 66
     1
 10
0.0
 20
0.0
 30
0.0
  0
VERTEX
  5
3A5
330
3A3
100
AcDbEntity
  8
001
 62
   253
370
    50
100
AcDbVertex
100
AcDb2dVertex
 10
74.261837
 20
67.137978
 30
0.0
  0
VERTEX
  5
3A6
330
3A3
100
AcDbEntity
  8
001
 62
   253
370
    50
100
AcDbVertex
100
AcDb2dVertex
 10
74.506878
 20
67.122441
 30
0.0
  0
VERTEX
  5
3A7
330
3A3
100
AcDbEntity
  8
001
 62
   253
370
    50
100
AcDbVertex
100
AcDb2dVertex
 10
74.752023
 20
67.108889
 30
0.0
  0
VERTEX
  5
3A8
330
3A3
100
AcDbEntity
  8
001
 62
   253
370
    50
100
AcDbVertex
100
AcDb2dVertex
 10
75.174359
 20
67.094097
 30
0.0
  0
VERTEX
  5
3A9
330
3A3
100
AcDbEntity
  8
001
 62
   253
370
    50
100
AcDbVertex
100
AcDb2dVertex
 10
75.596982
 20
67.089863
 30
0.0
  0
VERTEX
  5
3AA
330
3A3
100
AcDbEntity
  8
001
 62
   253
370
    50
100
AcDbVertex
100
AcDb2dVertex
 10
76.021315
 20
67.09529
 30
0.0
  0
VERTEX
  5
3AB
330
3A3
100
AcDbEntity
  8
001
 62
   253
370
    50
100
AcDbVertex
100
AcDb2dVertex
 10
76.445372
 20
67.110552
 30
0.0
  0
VERTEX
  5
3AC
330
3A3
100
AcDbEntity
  8
001
 62
   253
370
    50
100
AcDbVertex
100
AcDb2dVertex
 10
76.659789
 20
67.122115
 30
0.0
  0
VERTEX
  5
3AD
330
3A3
100
AcDbEntity
  8
001
 62
   253
370
    50
100
AcDbVertex
100
AcDb2dVertex
 10
76.874066
 20
67.136122
 30
0.0
  0
VERTEX
  5
3AE
330
3A3
100
AcDbEntity
  8
001
 62
   253
370
    50
100
AcDbVertex
100
AcDb2dVertex
 10
77.083799
 20
67.152143
 30
0.0
  0
VERTEX
  5
3AF
330
3A3
100
AcDbEntity
  8
001
 62
   253
370
    50
100
AcDbVertex
100
AcDb2dVertex
 10
77.293301
 20
67.170797
 30
0.0
  0
VERTEX
  5
3B0
330
3A3
100
AcDbEntity
  8
001
 62
   253
370
    50
100
AcDbVertex
100
AcDb2dVertex
 10
77.629892
 20
67.206518
 30
0.0
  0
VERTEX
  5
3B1
330
3A3
100
AcDbEntity
  8
001
 62
   253
370
    50
100
AcDbVertex
100
AcDb2dVertex
 10
77.966076
 20
67.246243
 30
0.0
  0
SEQEND
  5
3A4
330
3A3
100
AcDbEntity
  8
001
370
    50
  0
LINE
  5
3B2
330
1F
100
AcDbEntity
  8
001
 62
   253
370
    50
100
AcDbLine
 10
70.854478
 20
67.691472
 30
0.0
 11
68.04506
 21
67.691472
 31
0.0
  0
LINE
  5
3B3
330
1F
100
AcDbEntity
  8
001
 62
   253
370
    50
100
AcDbLine
 10
82.580959
 20
67.691472
 30
0.0
 11
80.303912
 21
67.691472
 31
0.0
  0
POLYLINE
  5
3B4
330
1F
100
AcDbEntity
  8
001
 62
   253
370
    50
100
AcDb2dPolyline
 66
     1
 10
0.0
 20
0.0
 30
0.0
  0
VERTEX
  5
3B6
330
3B4
100
AcDbEntity
  8
001
 62
   253
370
    50
100
AcDbVertex
100
AcDb2dVertex
 10
74.223503
 20
67.140808
 30
0.0
  0
VERTEX
  5
3B7
330
3B4
100
AcDbEntity
  8
001
 62
   253
370
    50
100
AcDbVertex
100
AcDb2dVertex
 10
73.897226
 20
67.169181
 30
0.0
  0
VERTEX
  5
3B8
330
3B4
100
AcDbEntity
  8
001
 62
   253
370
    50
100
AcDbVertex
100
AcDb2dVertex
 10
73.571317
 20
67.201156
 30
0.0
  0
VERTEX
  5
3B9
330
3B4
100
AcDbEntity
  8
001
 62
   253
370
    50
100
AcDbVertex
100
AcDb2dVertex
 10
73.257729
 20
67.238046
 30
0.0
  0
VERTEX
  5
3BA
330
3B4
100
AcDbEntity
  8
001
 62
   253
370
    50
100
AcDbVertex
100
AcDb2dVertex
 10
72.944829
 20
67.280532
 30
0.0
  0
VERTEX
  5
3BB
330
3B4
100
AcDbEntity
  8
001
 62
   253
370
    50
100
AcDbVertex
100
AcDb2dVertex
 10
72.769896
 20
67.306406
 30
0.0
  0
VERTEX
  5
3BC
330
3B4
100
AcDbEntity
  8
001
 62
   253
370
    50
100
AcDbVertex
100
AcDb2dVertex
 10
72.595195
 20
67.333762
 30
0.0
  0
VERTEX
  5
3BD
330
3B4
100
AcDbEntity
  8
001
 62
   253
370
    50
100
AcDbVertex
100
AcDb2dVertex
 10
72.431084
 20
67.360897
 30
0.0
  0
VERTEX
  5
3BE
330
3B4
100
AcDbEntity
  8
001
 62
   253
370
    50
100
AcDbVertex
100
AcDb2dVertex
 10
72.267199
 20
67.389371
 30
0.0
  0
VERTEX
  5
3BF
330
3B4
100
AcDbEntity
  8
001
 62
   253
370
    50
100
AcDbVertex
100
AcDb2dVertex
 10
72.110552
 20
67.417853
 30
0.0
  0
VERTEX
  5
3C0
330
3B4
100
AcDbEntity
  8
001
 62
   253
370
    50
100
AcDbVertex
100
AcDb2dVertex
 10
71.954125
 20
67.447511
 30
0.0
  0
VERTEX
  5
3C1
330
3B4
100
AcDbEntity
  8
001
 62
   253
370
    50
100
AcDbVertex
100
AcDb2dVertex
 10
71.812757
 20
67.47535
 30
0.0
  0
VERTEX
  5
3C2
330
3B4
100
AcDbEntity
  8
001
 62
   253
370
    50
100
AcDbVertex
100
AcDb2dVertex
 10
71.671577
 20
67.504126
 30
0.0
  0
VERTEX
  5
3C3
330
3B4
100
AcDbEntity
  8
001
 62
   253
370
    50
100
AcDbVertex
100
AcDb2dVertex
 10
71.494037
 20
67.541685
 30
0.0
  0
VERTEX
  5
3C4
330
3B4
100
AcDbEntity
  8
001
 62
   253
370
    50
100
AcDbVertex
100
AcDb2dVertex
 10
71.316808
 20
67.580688
 30
0.0
  0
VERTEX
  5
3C5
330
3B4
100
AcDbEntity
  8
001
 62
   253
370
    50
100
AcDbVertex
100
AcDb2dVertex
 10
71.181813
 20
67.611397
 30
0.0
  0
VERTEX
  5
3C6
330
3B4
100
AcDbEntity
  8
001
 62
   253
370
    50
100
AcDbVertex
100
AcDb2dVertex
 10
71.047004
 20
67.642908
 30
0.0
  0
VERTEX
  5
3C7
330
3B4
100
AcDbEntity
  8
001
 62
   253
370
    50
100
AcDbVertex
100
AcDb2dVertex
 10
70.968479
 20
67.661647
 30
0.0
  0
VERTEX
  5
3C8
330
3B4
100
AcDbEntity
  8
001
 62
   253
370
    50
100
AcDbVertex
100
AcDb2dVertex
 10
70.890022
 20
67.680668
 30
0.0
  0
VERTEX
  5
3C9
330
3B4
100
AcDbEntity
  8
001
 62
   253
370
    50
100
AcDbVertex
100
AcDb2dVertex
 10
70.867985
 20
67.686064
 30
0.0
  0
VERTEX
  5
3CA
330
3B4
100
AcDbEntity
  8
001
 62
   253
370
    50
100
AcDbVertex
100
AcDb2dVertex
 10
70.845952
 20
67.691472
 30
0.0
  0
SEQEND
  5
3B5
330
3B4
100
AcDbEntity
  8
001
370
    50
  0
POLYLINE
  5
3CB
330
1F
100
AcDbEntity
  8
001
 62
   253
370
    50
100
AcDb2dPolyline
 66
     1
 10
0.0
 20
0.0
 30
0.0
  0
VERTEX
  5
3CD
330
3CB
100
AcDbEntity
  8
001
 62
   253
370
    50
100
AcDbVertex
100
AcDb2dVertex
 10
74.223503
 20
67.140808
 30
0.0
  0
VERTEX
  5
3CE
330
3CB
100
AcDbEntity
  8
001
 62
   253
370
    50
100
AcDbVertex
100
AcDb2dVertex
 10
74.264238
 20
67.130772
 30
0.0
  0
VERTEX
  5
3CF
330
3CB
100
AcDbEntity
  8
001
 62
   253
370
    50
100
AcDbVertex
100
AcDb2dVertex
 10
74.305145
 20
67.121641
 30
0.0
  0
VERTEX
  5
3D0
330
3CB
100
AcDbEntity
  8
001
 62
   253
370
    50
100
AcDbVertex
100
AcDb2dVertex
 10
74.407648
 20
67.105586
 30
0.0
  0
VERTEX
  5
3D1
330
3CB
100
AcDbEntity
  8
001
 62
   253
370
    50
100
AcDbVertex
100
AcDb2dVertex
 10
74.511123
 20
67.09545
 30
0.0
  0
VERTEX
  5
3D2
330
3CB
100
AcDbEntity
  8
001
 62
   253
370
    50
100
AcDbVertex
100
AcDb2dVertex
 10
74.621185
 20
67.086456
 30
0.0
  0
VERTEX
  5
3D3
330
3CB
100
AcDbEntity
  8
001
 62
   253
370
    50
100
AcDbVertex
100
AcDb2dVertex
 10
74.731224
 20
67.078575
 30
0.0
  0
VERTEX
  5
3D4
330
3CB
100
AcDbEntity
  8
001
 62
   253
370
    50
100
AcDbVertex
100
AcDb2dVertex
 10
74.954785
 20
67.066592
 30
0.0
  0
VERTEX
  5
3D5
330
3CB
100
AcDbEntity
  8
001
 62
   253
370
    50
100
AcDbVertex
100
AcDb2dVertex
 10
75.178645
 20
67.059422
 30
0.0
  0
VERTEX
  5
3D6
330
3CB
100
AcDbEntity
  8
001
 62
   253
370
    50
100
AcDbVertex
100
AcDb2dVertex
 10
75.53876
 20
67.056194
 30
0.0
  0
VERTEX
  5
3D7
330
3CB
100
AcDbEntity
  8
001
 62
   253
370
    50
100
AcDbVertex
100
AcDb2dVertex
 10
75.898805
 20
67.061987
 30
0.0
  0
VERTEX
  5
3D8
330
3CB
100
AcDbEntity
  8
001
 62
   253
370
    50
100
AcDbVertex
100
AcDb2dVertex
 10
76.253602
 20
67.075505
 30
0.0
  0
VERTEX
  5
3D9
330
3CB
100
AcDbEntity
  8
001
 62
   253
370
    50
100
AcDbVertex
100
AcDb2dVertex
 10
76.608085
 20
67.096226
 30
0.0
  0
VERTEX
  5
3DA
330
3CB
100
AcDbEntity
  8
001
 62
   253
370
    50
100
AcDbVertex
100
AcDb2dVertex
 10
76.944698
 20
67.122671
 30
0.0
  0
VERTEX
  5
3DB
330
3CB
100
AcDbEntity
  8
001
 62
   253
370
    50
100
AcDbVertex
100
AcDb2dVertex
 10
77.280472
 20
67.157608
 30
0.0
  0
VERTEX
  5
3DC
330
3CB
100
AcDbEntity
  8
001
 62
   253
370
    50
100
AcDbVertex
100
AcDb2dVertex
 10
77.492152
 20
67.184686
 30
0.0
  0
VERTEX
  5
3DD
330
3CB
100
AcDbEntity
  8
001
 62
   253
370
    50
100
AcDbVertex
100
AcDb2dVertex
 10
77.703569
 20
67.213934
 30
0.0
  0
SEQEND
  5
3CC
330
3CB
100
AcDbEntity
  8
001
370
    50
  0
ARC
  5
3DE
330
1F
100
AcDbEntity
  8
001
 62
   253
370
    50
100
AcDbCircle
 10
68.04506
 20
66.691472
 30
0.0
 40
0.9999999999999974
100
AcDbArc
 50
90.0
 51
120.0
  0
LINE
  5
3DF
330
1F
100
AcDbEntity
  8
001
 62
   253
370
    50
100
AcDbLine
 10
67.54506
 20
67.557498
 30
0.0
 11
63.080959
 21
64.980147
 31
0.0
  0
ARC
  5
3E0
330
1F
100
AcDbEntity
  8
001
 62
   253
370
    50
100
AcDbCircle
 10
63.580959
 20
64.114122
 30
0.0
 40
0.9999999999999981
100
AcDbArc
 50
120.0
 51
180.0
  0
ARC
  5
3E1
330
1F
100
AcDbEntity
  8
001
 62
   253
370
    50
100
AcDbCircle
 10
250.062728
 20
143.918354
 30
0.0
 40
20.0
100
AcDbArc
 50
205.841933
 51
154.158067
  0
CIRCLE
  5
3E2
330
1F
100
AcDbEntity
  8
001
 62
   253
370
    50
100
AcDbCircle
 10
250.062728
 20
143.918354
 30
0.0
 40
5.999999999999992
  0
CIRCLE
  5
3E3
330
1F
100
AcDbEntity
  8
001
 62
   253
370
    50
100
AcDbCircle
 10
250.062728
 20
143.918354
 30
0.0
 40
23.5
  0
LINE
  5
3E4
330
1F
100
AcDbEntity
  8
001
  6
DASHED
370
    50
100
AcDbLine
 10
182.580959
 20
156.189174
 30
0.0
 11
62.580959
 21
156.189174
 31
0.0
  0
LINE
  5
3E5
330
1F
100
AcDbEntity
  8
001
  6
DASHED
370
    50
100
AcDbLine
 10
182.580959
 20
146.189174
 30
0.0
 11
62.580959
 21
146.189174
 31
0.0
  0
LINE
  5
3E6
330
1F
100
AcDbEntity
  8
001
  6
CENTER
370
     9
100
AcDbLine
 10
55.397188
 20
151.189174
 30
0.0
 11
187.832351
 21
151.189174
 31
0.0
  0
LINE
  5
3E7
330
1F
100
AcDbEntity
  8
001
  6
CENTER
 62
   253
370
     9
100
AcDbLine
 10
75.580959
 20
140.266524
 30
0.0
 11
75.580959
 21
162.111824
 31
0.0
  0
LINE
  5
3E8
330
1F
100
AcDbEntity
  8
001
  6
CENTER
 62
   253
370
     9
100
AcDbLine
 10
90.580959
 20
140.266524
 30
0.0
 11
90.580959
 21
162.111824
 31
0.0
  0
LINE
  5
3E9
330
1F
100
AcDbEntity
  8
001
  6
CENTER
 62
   253
370
     9
100
AcDbLine
 10
90.580959
 20
55.469675
 30
0.0
 11
90.580959
 21
74.429661
 31
0.0
  0
LINE
  5
3EA
330
1F
100
AcDbEntity
  8
001
  6
CENTER
 62
   253
370
     9
100
AcDbLine
 10
75.580959
 20
55.469675
 30
0.0
 11
75.580959
 21
74.429661
 31
0.0
  0
LINE
  5
3EB
330
1F
100
AcDbEntity
  8
001
 62
   253
370
    50
100
AcDbLine
 10
105.580959
 20
33.691472
 30
0.0
 11
105.580959
 21
71.691472
 31
0.0
  0
LINE
  5
3EC
330
1F
100
AcDbEntity
  8
001
370
    50
100
AcDbLine
 10
63.080959
 20
162.591098
 30
0.0
 11
67.348908
 21
165.0552
 31
0.0
  0
ARC
  5
3ED
330
1F
100
AcDbEntity
  8
001
370
    50
100
AcDbCircle
 10
67.848908
 20
164.189174
 30
0.0
 40
1.0
100
AcDbArc
 50
90.0
 51
120.0
  0
ARC
  5
3EE
330
1F
100
AcDbEntity
  8
001
 62
   253
370
    50
100
AcDbCircle
 10
63.580959
 20
161.725072
 30
0.0
 40
1.0
100
AcDbArc
 50
120.0
 51
180.0
  0
LINE
  5
3EF
330
1F
100
AcDbEntity
  8
001
 62
   253
370
    50
100
AcDbLine
 10
105.580959
 20
33.691472
 30
0.0
 11
131.604707
 21
33.691472
 31
0.0
  0
LINE
  5
3F0
330
1F
100
AcDbEntity
  8
001
  6
DASHED
370
    50
100
AcDbLine
 10
131.604707
 20
48.691472
 30
0.0
 11
62.580959
 21
48.691472
 31
0.0
  0
LINE
  5
3F1
330
1F
100
AcDbEntity
  8
001
  6
CENTER
370
     9
100
AcDbLine
 10
55.397188
 20
53.691472
 30
0.0
 11
137.1836
 21
53.691472
 31
0.0
  0
LINE
  5
3F2
330
1F
100
AcDbEntity
  8
001
  6
DASHED
370
    50
100
AcDbLine
 10
131.604707
 20
58.691472
 30
0.0
 11
62.580959
 21
58.691472
 31
0.0
  0
LINE
  5
3F3
330
1F
100
AcDbEntity
  8
001
 62
   253
370
    50
100
AcDbLine
 10
131.604707
 20
71.691472
 30
0.0
 11
102.580959
 21
71.691472
 31
0.0
  0
LINE
  5
3F4
330
1F
100
AcDbEntity
  8
001
 62
   253
370
    50
100
AcDbLine
 10
232.062728
 20
135.200556
 30
0.0
 11
232.062728
 21
152.636151
 31
0.0
  0
LINE
  5
3F5
330
1F
100
AcDbEntity
  8
001
  6
CENTER
 62
   253
370
     9
100
AcDbLine
 10
67.848908
 20
165.189174
 30
0.0
 11
67.580959
 21
165.189174
 31
0.0
  0
LINE
  5
3F6
330
1F
100
AcDbEntity
  8
001
  6
CENTER
370
     9
100
AcDbLine
 10
67.348908
 20
165.0552
 30
0.0
 11
67.580959
 21
165.189174
 31
0.0
  0
LINE
  5
3F7
330
1F
100
AcDbEntity
  8
001
370
     9
100
AcDbLine
 10
105.580959
 20
159.258251
 30
0.0
 11
180.580959
 21
143.120097
 31
0.0
  0
LINE
  5
3F8
330
1F
100
AcDbEntity
  8
001
370
     9
100
AcDbLine
 10
180.580959
 20
159.258251
 30
0.0
 11
105.580959
 21
143.120097
 31
0.0
  0
LINE
  5
3F9
330
1F
100
AcDbEntity
  8
001
 62
   253
370
    50
100
AcDbLine
 10
62.580959
 20
161.725072
 30
0.0
 11
62.580959
 21
151.189174
 31
0.0
  0
LINE
  5
3FA
330
1F
100
AcDbEntity
  8
001
 62
   253
370
    50
100
AcDbLine
 10
67.848908
 20
137.189174
 30
0.0
 11
82.580959
 21
137.189174
 31
0.0
  0
LINE
  5
3FB
330
1F
100
AcDbEntity
  8
001
370
    50
100
AcDbLine
 10
63.080959
 20
139.78725
 30
0.0
 11
67.348908
 21
137.323149
 31
0.0
  0
ARC
  5
3FC
330
1F
100
AcDbEntity
  8
001
370
    50
100
AcDbCircle
 10
67.848908
 20
138.189174
 30
0.0
 40
1.0
100
AcDbArc
 50
240.0
 51
270.0
  0
ARC
  5
3FD
330
1F
100
AcDbEntity
  8
001
 62
   253
370
    50
100
AcDbCircle
 10
63.580959
 20
140.653276
 30
0.0
 40
1.0
100
AcDbArc
 50
180.0
 51
240.0
  0
LINE
  5
3FE
330
1F
100
AcDbEntity
  8
001
  6
CENTER
 62
   253
370
     9
100
AcDbLine
 10
67.848908
 20
137.189174
 30
0.0
 11
67.580959
 21
137.189174
 31
0.0
  0
LINE
  5
3FF
330
1F
100
AcDbEntity
  8
001
  6
CENTER
370
     9
100
AcDbLine
 10
67.348908
 20
137.323149
 30
0.0
 11
67.580959
 21
137.189174
 31
0.0
  0
LINE
  5
400
330
1F
100
AcDbEntity
  8
001
 62
   253
370
    50
100
AcDbLine
 10
62.580959
 20
140.653276
 30
0.0
 11
62.580959
 21
151.189174
 31
0.0
  0
ARC
  5
401
330
1F
100
AcDbEntity
  8
001
 62
   253
370
    50
100
AcDbCircle
 10
68.04506
 20
40.691472
 30
0.0
 40
0.9999999999999974
100
AcDbArc
 50
240.0
 51
270.0
  0
LINE
  5
402
330
1F
100
AcDbEntity
  8
001
 62
   253
370
    50
100
AcDbLine
 10
67.54506
 20
39.825447
 30
0.0
 11
63.080959
 21
42.402797
 31
0.0
  0
ARC
  5
403
330
1F
100
AcDbEntity
  8
001
 62
   253
370
    50
100
AcDbCircle
 10
63.580959
 20
43.268822
 30
0.0
 40
0.9999999999999981
100
AcDbArc
 50
180.0
 51
240.0
  0
LINE
  5
404
330
1F
100
AcDbEntity
  8
001
370
    50
100
AcDbLine
 10
62.580959
 20
64.114122
 30
0.0
 11
62.580959
 21
43.268822
 31
0.0
  0
LINE
  5
405
330
1F
100
AcDbEntity
  8
001
 62
   253
370
    50
100
AcDbLine
 10
82.580959
 20
39.691472
 30
0.0
 11
68.04506
 21
39.691472
 31
0.0
  0
LINE
  5
406
330
1F
100
AcDbEntity
  8
001
  6
DASHED
370
    30
100
AcDbLine
 10
79.580959
 20
67.523106
 30
0.0
 11
79.580959
 21
58.691472
 31
0.0
  0
LINE
  5
407
330
1F
100
AcDbEntity
  8
001
  6
DASHED
370
    30
100
AcDbLine
 10
78.980959
 20
67.404897
 30
0.0
 11
78.980959
 21
58.691472
 31
0.0
  0
LINE
  5
408
330
1F
100
AcDbEntity
  8
001
  6
DASHED
370
    30
100
AcDbLine
 10
72.180959
 20
67.4049
 30
0.0
 11
72.180959
 21
58.691472
 31
0.0
  0
LINE
  5
409
330
1F
100
AcDbEntity
  8
001
  6
DASHED
370
    30
100
AcDbLine
 10
71.580959
 20
67.523106
 30
0.0
 11
71.580959
 21
58.691472
 31
0.0
  0
LINE
  5
40A
330
1F
100
AcDbEntity
  8
001
  6
DASHED
370
    30
100
AcDbLine
 10
86.580959
 20
69.535481
 30
0.0
 11
86.580959
 21
58.691472
 31
0.0
  0
LINE
  5
40B
330
1F
100
AcDbEntity
  8
001
  6
DASHED
370
    30
100
AcDbLine
 10
87.180959
 20
69.426197
 30
0.0
 11
87.180959
 21
58.691472
 31
0.0
  0
LINE
  5
40C
330
1F
100
AcDbEntity
  8
001
  6
DASHED
370
    30
100
AcDbLine
 10
93.980959
 20
69.426198
 30
0.0
 11
93.980959
 21
58.691472
 31
0.0
  0
LINE
  5
40D
330
1F
100
AcDbEntity
  8
001
  6
DASHED
370
    30
100
AcDbLine
 10
94.580959
 20
69.535483
 30
0.0
 11
94.580959
 21
58.691472
 31
0.0
  0
TEXT
  5
40E
330
1F
100
AcDbEntity
  8
001
370
    30
100
AcDbText
 10
46.547902
 20
212.014228
 30
0.0
 40
10.0
  1
オイルッシャー　ＫＪＤ４０Ｓ１０
 41
0.833333
100
AcDbText
  0
ENDSEC
  0
SECTION
  2
OBJECTS
  0
DICTIONARY
  5
C
330
0
100
AcDbDictionary
281
     1
  3
ACAD_GROUP
350
D
  3
ACAD_LAYOUT
350
1A
  3
ACAD_MLEADERSTYLE
350
412
  3
ACAD_MLINESTYLE
350
17
  3
ACAD_PLOTSETTINGS
350
19
  3
ACAD_PLOTSTYLENAME
350
E
  3
ACAD_SCALELIST
350
3B
  3
ACAD_TABLESTYLE
350
411
  3
ACAD_VISUALSTYLE
350
2A
  3
AcDbVariableDictionary
350
40F
  0
DICTIONARY
  5
D
102
{ACAD_REACTORS
330
C
102
}
330
C
100
AcDbDictionary
281
     1
  0
DICTIONARY
  5
1A
102
{ACAD_REACTORS
330
C
102
}
330
C
100
AcDbDictionary
281
     1
  3
Layout1
350
1E
  3
Layout2
350
26
  3
Model
350
22
  0
DICTIONARY
  5
412
102
{ACAD_REACTORS
330
C
102
}
330
C
100
AcDbDictionary
281
     1
  0
DICTIONARY
  5
17
102
{ACAD_REACTORS
330
C
102
}
330
C
100
AcDbDictionary
281
     1
  3
Standard
350
18
  0
DICTIONARY
  5
19
102
{ACAD_REACTORS
330
C
102
}
330
C
100
AcDbDictionary
281
     1
  0
ACDBDICTIONARYWDFLT
  5
E
102
{ACAD_REACTORS
330
C
102
}
330
C
100
AcDbDictionary
281
     1
  3
Normal
350
F
100
AcDbDictionaryWithDefault
340
F
  0
DICTIONARY
  5
3B
102
{ACAD_REACTORS
330
C
102
}
330
C
100
AcDbDictionary
281
     1
  3
A0
350
3C
  3
A1
350
3D
  3
A2
350
3E
  3
A3
350
3F
  3
A4
350
40
  3
A5
350
41
  3
A6
350
42
  3
A7
350
43
  3
A8
350
44
  3
A9
350
45
  3
B0
350
46
  3
B1
350
47
  3
B2
350
48
  3
B3
350
49
  3
B4
350
4A
  3
B5
350
4B
  3
B6
350
4C
  3
B7
350
4D
  3
B8
350
4E
  3
B9
350
4F
  3
C0
350
50
  3
C1
350
51
  3
C2
350
52
  3
C3
350
53
  3
C4
350
54
  3
C5
350
55
  3
C6
350
56
  3
C7
350
57
  3
C8
350
58
  3
C9
350
59
  3
D0
350
5A
  3
D1
350
5B
  3
D2
350
5C
  0
DICTIONARY
  5
411
102
{ACAD_REACTORS
330
C
102
}
330
C
100
AcDbDictionary
281
     1
  0
DICTIONARY
  5
2A
102
{ACAD_REACTORS
330
C
102
}
330
C
100
AcDbDictionary
281
     1
  3
2dWireframe
350
2F
  3
3D Hidden
350
31
  3
3dWireframe
350
30
  3
Basic
350
32
  3
Brighten
350
36
  3
ColorChange
350
3A
  3
Conceptual
350
34
  3
Dim
350
35
  3
Facepattern
350
39
  3
Flat
350
2B
  3
FlatWithEdges
350
2C
  3
Gouraud
350
2D
  3
GouraudWithEdges
350
2E
  3
Linepattern
350
38
  3
Realistic
350
33
  3
Thicken
350
37
  0
DICTIONARY
  5
40F
102
{ACAD_REACTORS
330
C
102
}
330
C
100
AcDbDictionary
281
     1
  3
CANNOSCALE
350
410
  3
PSOLHEIGHT
350
414
  3
PSOLWIDTH
350
413
  0
LAYOUT
  5
1E
102
{ACAD_REACTORS
330
1A
102
}
330
1A
100
AcDbPlotSettings
  1

  2
none_device
  4

  6

 40
0.0
 41
0.0
 42
0.0
 43
0.0
 44
0.0
 45
0.0
 46
0.0
 47
0.0
 48
0.0
 49
0.0
140
0.0
141
0.0
142
1.0
143
1.0
 70
   688
 72
     0
 73
     0
 74
     5
  7

 75
    16
147
1.0
148
0.0
149
0.0
100
AcDbLayout
  1
Layout1
 70
     1
 71
     1
 10
0.0
 20
0.0
 11
12.0
 21
9.0
 12
0.0
 22
0.0
 32
0.0
 14
1.000000E+20
 24
1.000000E+20
 34
0.0
 15
-1.000000E+20
 25
-1.000000E+20
 35
0.0
146
0.0
 13
0.0
 23
0.0
 33
0.0
 16
1.0
 26
0.0
 36
0.0
 17
0.0
 27
1.0
 37
0.0
 76
     0
330
1B
  0
LAYOUT
  5
26
102
{ACAD_REACTORS
330
1A
102
}
330
1A
100
AcDbPlotSettings
  1

  2
none_device
  4

  6

 40
0.0
 41
0.0
 42
0.0
 43
0.0
 44
0.0
 45
0.0
 46
0.0
 47
0.0
 48
0.0
 49
0.0
140
0.0
141
0.0
142
1.0
143
1.0
 70
   688
 72
     0
 73
     0
 74
     5
  7

 75
    16
147
1.0
148
0.0
149
0.0
100
AcDbLayout
  1
Layout2
 70
     1
 71
     2
 10
0.0
 20
0.0
 11
0.0
 21
0.0
 12
0.0
 22
0.0
 32
0.0
 14
0.0
 24
0.0
 34
0.0
 15
0.0
 25
0.0
 35
0.0
146
0.0
 13
0.0
 23
0.0
 33
0.0
 16
1.0
 26
0.0
 36
0.0
 17
0.0
 27
1.0
 37
0.0
 76
     0
330
23
  0
LAYOUT
  5
22
102
{ACAD_REACTORS
330
1A
102
}
330
1A
100
AcDbPlotSettings
  1

  2
none_device
  4

  6

 40
0.0
 41
0.0
 42
0.0
 43
0.0
 44
0.0
 45
0.0
 46
0.0
 47
0.0
 48
0.0
 49
0.0
140
0.0
141
0.0
142
1.0
143
1.0
 70
  1712
 72
     0
 73
     0
 74
     0
  7

 75
     0
147
1.0
148
0.0
149
0.0
100
AcDbLayout
  1
Model
 70
     1
 71
     0
 10
0.0
 20
0.0
 11
12.0
 21
9.0
 12
0.0
 22
0.0
 32
0.0
 14
-15.859894
 24
10.711563
 34
0.0
 15
275.562714
 25
222.014221
 35
0.0
146
0.0
 13
0.0
 23
0.0
 33
0.0
 16
1.0
 26
0.0
 36
0.0
 17
0.0
 27
1.0
 37
0.0
 76
     0
330
1F
331
29
  0
MLINESTYLE
  5
18
102
{ACAD_REACTORS
330
17
102
}
330
17
100
AcDbMlineStyle
  2
Standard
 70
     0
  3

 62
   256
 51
90.0
 52
90.0
 71
     2
 49
0.5
 62
   256
  6
BYLAYER
 49
-0.5
 62
   256
  6
BYLAYER
  0
ACDBPLACEHOLDER
  5
F
102
{ACAD_REACTORS
330
E
102
}
330
E
  0
SCALE
  5
3C
102
{ACAD_REACTORS
330
3B
102
}
330
3B
100
AcDbScale
 70
     0
300
1:1
140
1.0
141
1.0
290
     1
  0
SCALE
  5
3D
102
{ACAD_REACTORS
330
3B
102
}
330
3B
100
AcDbScale
 70
     0
300
1:2
140
1.0
141
2.0
290
     0
  0
SCALE
  5
3E
102
{ACAD_REACTORS
330
3B
102
}
330
3B
100
AcDbScale
 70
     0
300
1:4
140
1.0
141
4.0
290
     0
  0
SCALE
  5
3F
102
{ACAD_REACTORS
330
3B
102
}
330
3B
100
AcDbScale
 70
     0
300
1:5
140
1.0
141
5.0
290
     0
  0
SCALE
  5
40
102
{ACAD_REACTORS
330
3B
102
}
330
3B
100
AcDbScale
 70
     0
300
1:8
140
1.0
141
8.0
290
     0
  0
SCALE
  5
41
102
{ACAD_REACTORS
330
3B
102
}
330
3B
100
AcDbScale
 70
     0
300
1:10
140
1.0
141
10.0
290
     0
  0
SCALE
  5
42
102
{ACAD_REACTORS
330
3B
102
}
330
3B
100
AcDbScale
 70
     0
300
1:16
140
1.0
141
16.0
290
     0
  0
SCALE
  5
43
102
{ACAD_REACTORS
330
3B
102
}
330
3B
100
AcDbScale
 70
     0
300
1:20
140
1.0
141
20.0
290
     0
  0
SCALE
  5
44
102
{ACAD_REACTORS
330
3B
102
}
330
3B
100
AcDbScale
 70
     0
300
1:30
140
1.0
141
30.0
290
     0
  0
SCALE
  5
45
102
{ACAD_REACTORS
330
3B
102
}
330
3B
100
AcDbScale
 70
     0
300
1:40
140
1.0
141
40.0
290
     0
  0
SCALE
  5
46
102
{ACAD_REACTORS
330
3B
102
}
330
3B
100
AcDbScale
 70
     0
300
1:50
140
1.0
141
50.0
290
     0
  0
SCALE
  5
47
102
{ACAD_REACTORS
330
3B
102
}
330
3B
100
AcDbScale
 70
     0
300
1:100
140
1.0
141
100.0
290
     0
  0
SCALE
  5
48
102
{ACAD_REACTORS
330
3B
102
}
330
3B
100
AcDbScale
 70
     0
300
2:1
140
2.0
141
1.0
290
     0
  0
SCALE
  5
49
102
{ACAD_REACTORS
330
3B
102
}
330
3B
100
AcDbScale
 70
     0
300
4:1
140
4.0
141
1.0
290
     0
  0
SCALE
  5
4A
102
{ACAD_REACTORS
330
3B
102
}
330
3B
100
AcDbScale
 70
     0
300
8:1
140
8.0
141
1.0
290
     0
  0
SCALE
  5
4B
102
{ACAD_REACTORS
330
3B
102
}
330
3B
100
AcDbScale
 70
     0
300
10:1
140
10.0
141
1.0
290
     0
  0
SCALE
  5
4C
102
{ACAD_REACTORS
330
3B
102
}
330
3B
100
AcDbScale
 70
     0
300
100:1
140
100.0
141
1.0
290
     0
  0
SCALE
  5
4D
102
{ACAD_REACTORS
330
3B
102
}
330
3B
100
AcDbScale
 70
     0
300
1/128" = 1'-0"
140
0.007812
141
12.0
290
     0
  0
SCALE
  5
4E
102
{ACAD_REACTORS
330
3B
102
}
330
3B
100
AcDbScale
 70
     0
300
1/64" = 1'-0"
140
0.015625
141
12.0
290
     0
  0
SCALE
  5
4F
102
{ACAD_REACTORS
330
3B
102
}
330
3B
100
AcDbScale
 70
     0
300
1/32" = 1'-0"
140
0.03125
141
12.0
290
     0
  0
SCALE
  5
50
102
{ACAD_REACTORS
330
3B
102
}
330
3B
100
AcDbScale
 70
     0
300
1/16" = 1'-0"
140
0.0625
141
12.0
290
     0
  0
SCALE
  5
51
102
{ACAD_REACTORS
330
3B
102
}
330
3B
100
AcDbScale
 70
     0
300
3/32" = 1'-0"
140
0.09375
141
12.0
290
     0
  0
SCALE
  5
52
102
{ACAD_REACTORS
330
3B
102
}
330
3B
100
AcDbScale
 70
     0
300
1/8" = 1'-0"
140
0.125
141
12.0
290
     0
  0
SCALE
  5
53
102
{ACAD_REACTORS
330
3B
102
}
330
3B
100
AcDbScale
 70
     0
300
3/16" = 1'-0"
140
0.1875
141
12.0
290
     0
  0
SCALE
  5
54
102
{ACAD_REACTORS
330
3B
102
}
330
3B
100
AcDbScale
 70
     0
300
1/4" = 1'-0"
140
0.25
141
12.0
290
     0
  0
SCALE
  5
55
102
{ACAD_REACTORS
330
3B
102
}
330
3B
100
AcDbScale
 70
     0
300
3/8" = 1'-0"
140
0.375
141
12.0
290
     0
  0
SCALE
  5
56
102
{ACAD_REACTORS
330
3B
102
}
330
3B
100
AcDbScale
 70
     0
300
1/2" = 1'-0"
140
0.5
141
12.0
290
     0
  0
SCALE
  5
57
102
{ACAD_REACTORS
330
3B
102
}
330
3B
100
AcDbScale
 70
     0
300
3/4" = 1'-0"
140
0.75
141
12.0
290
     0
  0
SCALE
  5
58
102
{ACAD_REACTORS
330
3B
102
}
330
3B
100
AcDbScale
 70
     0
300
1" = 1'-0"
140
1.0
141
12.0
290
     0
  0
SCALE
  5
59
102
{ACAD_REACTORS
330
3B
102
}
330
3B
100
AcDbScale
 70
     0
300
1-1/2" = 1'-0"
140
1.5
141
12.0
290
     0
  0
SCALE
  5
5A
102
{ACAD_REACTORS
330
3B
102
}
330
3B
100
AcDbScale
 70
     0
300
3" = 1'-0"
140
3.0
141
12.0
290
     0
  0
SCALE
  5
5B
102
{ACAD_REACTORS
330
3B
102
}
330
3B
100
AcDbScale
 70
     0
300
6" = 1'-0"
140
6.0
141
12.0
290
     0
  0
SCALE
  5
5C
102
{ACAD_REACTORS
330
3B
102
}
330
3B
100
AcDbScale
 70
     0
300
1'-0" = 1'-0"
140
12.0
141
12.0
290
     0
  0
VISUALSTYLE
  5
2F
102
{ACAD_REACTORS
330
2A
102
}
330
2A
100
AcDbVisualStyle
  2
2dWireframe
 70
     4
 71
     0
 72
     2
 73
     0
 90
        0
 40
-0.6
 41
-30.0
 62
     5
 63
     7
 74
     1
 91
        4
 64
     7
 65
   257
 75
     1
175
     1
 42
1.0
 92
        0
 66
   257
 43
1.0
 76
     1
 77
     6
 78
     2
 67
     7
 79
     5
170
     0
171
     0
290
     0
174
     0
 93
        1
 44
0.0
173
     0
291
     0
 45
0.0
1001
ACAD
1000
AcDbSavedByObjectVersion
1070
     0
  0
VISUALSTYLE
  5
31
102
{ACAD_REACTORS
330
2A
102
}
330
2A
100
AcDbVisualStyle
  2
3D Hidden
 70
     6
 71
     1
 72
     2
 73
     2
 90
        0
 40
-0.6
 41
-30.0
 62
     5
 63
     7
 74
     2
 91
        2
 64
     7
 65
   257
 75
     2
175
     1
 42
40.0
 92
        0
 66
   257
 43
1.0
 76
     1
 77
     6
 78
     2
 67
     7
 79
     3
170
     0
171
     0
290
     0
174
     0
 93
        1
 44
0.0
173
     0
291
     0
 45
0.0
1001
ACAD
1000
AcDbSavedByObjectVersion
1070
     0
  0
VISUALSTYLE
  5
30
102
{ACAD_REACTORS
330
2A
102
}
330
2A
100
AcDbVisualStyle
  2
3dWireframe
 70
     5
 71
     0
 72
     2
 73
     0
 90
        0
 40
-0.6
 41
-30.0
 62
     5
 63
     7
 74
     1
 91
        4
 64
     7
 65
   257
 75
     1
175
     1
 42
1.0
 92
        0
 66
   257
 43
1.0
 76
     1
 77
     6
 78
     2
 67
     7
 79
     5
170
     0
171
     0
290
     0
174
     0
 93
        1
 44
0.0
173
     0
291
     0
 45
0.0
1001
ACAD
1000
AcDbSavedByObjectVersion
1070
     0
  0
VISUALSTYLE
  5
32
102
{ACAD_REACTORS
330
2A
102
}
330
2A
100
AcDbVisualStyle
  2
Basic
 70
     7
 71
     1
 72
     0
 73
     1
 90
        0
 40
-0.6
 41
-30.0
 62
     5
 63
     7
 74
     0
 91
        4
 64
     7
 65
   257
 75
     1
175
     1
 42
1.0
 92
        8
 66
     7
 43
1.0
 76
     1
 77
     6
 78
     2
 67
     7
 79
     5
170
     0
171
     0
290
     0
174
     0
 93
        1
 44
0.0
173
     0
291
     1
 45
0.0
1001
ACAD
1000
AcDbSavedByObjectVersion
1070
     0
  0
VISUALSTYLE
  5
36
102
{ACAD_REACTORS
330
2A
102
}
330
2A
100
AcDbVisualStyle
  2
Brighten
 70
    12
 71
     2
 72
     2
 73
     0
 90
        0
 40
-0.6
 41
-30.0
 62
     5
 63
     7
 74
     1
 91
        4
 64
     7
 65
   257
 75
     1
175
     1
 42
1.0
 92
        8
 66
     7
 43
1.0
 76
     1
 77
     6
 78
     2
 67
     7
 79
     5
170
     0
171
     0
290
     0
174
     0
 93
        1
 44
50.0
173
     0
291
     1
 45
0.0
1001
ACAD
1000
AcDbSavedByObjectVersion
1070
     0
  0
VISUALSTYLE
  5
3A
102
{ACAD_REACTORS
330
2A
102
}
330
2A
100
AcDbVisualStyle
  2
ColorChange
 70
    16
 71
     2
 72
     2
 73
     3
 90
        0
 40
-0.6
 41
-30.0
 62
     5
 63
     8
 74
     1
 91
        4
 64
     7
 65
   257
 75
     1
175
     1
 42
1.0
 92
        8
 66
     8
 43
1.0
 76
     1
 77
     6
 78
     2
 67
     7
 79
     5
170
     0
171
     0
290
     0
174
     0
 93
        1
 44
0.0
173
     0
291
     1
 45
0.0
1001
ACAD
1000
AcDbSavedByObjectVersion
1070
     0
  0
VISUALSTYLE
  5
34
102
{ACAD_REACTORS
330
2A
102
}
330
2A
100
AcDbVisualStyle
  2
Conceptual
 70
     9
 71
     3
 72
     2
 73
     0
 90
        0
 40
-0.6
 41
-30.0
 62
     5
 63
     7
 74
     2
 91
        2
 64
     7
 65
   257
 75
     1
175
     1
 42
40.0
 92
        8
 66
     7
 43
1.0
 76
     1
 77
     6
 78
     2
 67
     7
 79
     3
170
     0
171
     0
290
     0
174
     0
 93
        1
 44
0.0
173
     0
291
     0
 45
0.0
1001
ACAD
1000
AcDbSavedByObjectVersion
1070
     0
  0
VISUALSTYLE
  5
35
102
{ACAD_REACTORS
330
2A
102
}
330
2A
100
AcDbVisualStyle
  2
Dim
 70
    11
 71
     2
 72
     2
 73
     0
 90
        0
 40
-0.6
 41
-30.0
 62
     5
 63
     7
 74
     1
 91
        4
 64
     7
 65
   257
 75
     1
175
     1
 42
1.0
 92
        8
 66
     7
 43
1.0
 76
     1
 77
     6
 78
     2
 67
     7
 79
     5
170
     0
171
     0
290
     0
174
     0
 93
        1
 44
-50.0
173
     0
291
     1
 45
0.0
1001
ACAD
1000
AcDbSavedByObjectVersion
1070
     0
  0
VISUALSTYLE
  5
39
102
{ACAD_REACTORS
330
2A
102
}
330
2A
100
AcDbVisualStyle
  2
Facepattern
 70
    15
 71
     2
 72
     2
 73
     0
 90
        0
 40
-0.6
 41
-30.0
 62
     5
 63
     7
 74
     1
 91
        4
 64
     7
 65
   257
 75
     1
175
     1
 42
1.0
 92
        8
 66
     7
 43
1.0
 76
     1
 77
     6
 78
     2
 67
     7
 79
     5
170
     0
171
     0
290
     0
174
     0
 93
        1
 44
0.0
173
     0
291
     1
 45
0.0
1001
ACAD
1000
AcDbSavedByObjectVersion
1070
     0
  0
VISUALSTYLE
  5
2B
102
{ACAD_REACTORS
330
2A
102
}
330
2A
100
AcDbVisualStyle
  2
Flat
 70
     0
 71
     2
 72
     1
 73
     1
 90
        2
 40
-0.6
 41
30.0
 62
     5
 63
     7
 74
     0
 91
        4
 64
     7
 65
   257
 75
     1
175
     1
 42
1.0
 92
        8
 66
     7
 43
1.0
 76
     1
 77
     6
 78
     2
 67
     7
 79
     5
170
     0
171
     0
290
     0
174
     0
 93
       13
 44
0.0
173
     0
291
     1
 45
0.0
1001
ACAD
1000
AcDbSavedByObjectVersion
1070
     0
  0
VISUALSTYLE
  5
2C
102
{ACAD_REACTORS
330
2A
102
}
330
2A
100
AcDbVisualStyle
  2
FlatWithEdges
 70
     1
 71
     2
 72
     1
 73
     1
 90
        2
 40
-0.6
 41
30.0
 62
     5
 63
     7
 74
     1
 91
        4
 64
     7
 65
   257
 75
     1
175
     1
 42
1.0
 92
        0
 66
   257
 43
1.0
 76
     1
 77
     6
 78
     2
 67
     7
 79
     5
170
     0
171
     0
290
     0
174
     0
 93
       13
 44
0.0
173
     0
291
     1
 45
0.0
1001
ACAD
1000
AcDbSavedByObjectVersion
1070
     0
  0
VISUALSTYLE
  5
2D
102
{ACAD_REACTORS
330
2A
102
}
330
2A
100
AcDbVisualStyle
  2
Gouraud
 70
     2
 71
     2
 72
     2
 73
     1
 90
        2
 40
-0.6
 41
30.0
 62
     5
 63
     7
 74
     0
 91
        4
 64
     7
 65
   257
 75
     1
175
     1
 42
1.0
 92
        0
 66
     7
 43
1.0
 76
     1
 77
     6
 78
     2
 67
     7
 79
     5
170
     0
171
     0
290
     0
174
     0
 93
       13
 44
0.0
173
     0
291
     1
 45
0.0
1001
ACAD
1000
AcDbSavedByObjectVersion
1070
     0
  0
VISUALSTYLE
  5
2E
102
{ACAD_REACTORS
330
2A
102
}
330
2A
100
AcDbVisualStyle
  2
GouraudWithEdges
 70
     3
 71
     2
 72
     2
 73
     1
 90
        2
 40
-0.6
 41
30.0
 62
     5
 63
     7
 74
     1
 91
        4
 64
     7
 65
   257
 75
     1
175
     1
 42
1.0
 92
        0
 66
   257
 43
1.0
 76
     1
 77
     6
 78
     2
 67
     7
 79
     5
170
     0
171
     0
290
     0
174
     0
 93
       13
 44
0.0
173
     0
291
     1
 45
0.0
1001
ACAD
1000
AcDbSavedByObjectVersion
1070
     0
  0
VISUALSTYLE
  5
38
102
{ACAD_REACTORS
330
2A
102
}
330
2A
100
AcDbVisualStyle
  2
Linepattern
 70
    14
 71
     2
 72
     2
 73
     0
 90
        0
 40
-0.6
 41
-30.0
 62
     5
 63
     7
 74
     1
 91
        4
 64
     7
 65
   257
 75
     7
175
     7
 42
1.0
 92
        8
 66
     7
 43
1.0
 76
     1
 77
     6
 78
     2
 67
     7
 79
     5
170
     0
171
     0
290
     0
174
     0
 93
        1
 44
0.0
173
     0
291
     1
 45
0.0
1001
ACAD
1000
AcDbSavedByObjectVersion
1070
     0
  0
VISUALSTYLE
  5
33
102
{ACAD_REACTORS
330
2A
102
}
330
2A
100
AcDbVisualStyle
  2
Realistic
 70
     8
 71
     2
 72
     2
 73
     0
 90
        0
 40
-0.6
 41
-30.0
 62
     5
 63
     7
 74
     1
 91
        0
 64
     7
 65
   257
 75
     1
175
     1
 42
1.0
 92
        8
 66
     8
 43
1.0
 76
     1
 77
     6
 78
     2
 67
     7
 79
     5
170
     0
171
     0
290
     0
174
     0
 93
       13
 44
0.0
173
     0
291
     0
 45
0.0
1001
ACAD
1000
AcDbSavedByObjectVersion
1070
     0
  0
VISUALSTYLE
  5
37
102
{ACAD_REACTORS
330
2A
102
}
330
2A
100
AcDbVisualStyle
  2
Thicken
 70
    13
 71
     2
 72
     2
 73
     0
 90
        0
 40
-0.6
 41
-30.0
 62
     5
 63
     7
 74
     1
 91
        4
 64
     7
 65
   257
 75
     1
175
     1
 42
1.0
 92
       12
 66
     7
 43
1.0
 76
     1
 77
     6
 78
     2
 67
     7
 79
     5
170
     0
171
     0
290
     0
174
     0
 93
        1
 44
0.0
173
     0
291
     1
 45
0.0
1001
ACAD
1000
AcDbSavedByObjectVersion
1070
     0
  0
DICTIONARYVAR
  5
410
102
{ACAD_REACTORS
330
40F
102
}
330
40F
100
DictionaryVariables
280
     0
  1
1:1
  0
DICTIONARYVAR
  5
414
102
{ACAD_REACTORS
330
40F
102
}
330
40F
100
DictionaryVariables
280
     0
  1
80.000000
  0
DICTIONARYVAR
  5
413
102
{ACAD_REACTORS
330
40F
102
}
330
40F
100
DictionaryVariables
280
     0
  1
5.000000
  0
ENDSEC
  0
EOF
