  0
SECTION
  2
HEADER
  9
$ACADVER
  1
AC1015
  9
$ACADMAINTVER
 70
     6
  9
$DWGCODEPAGE
  3
ANSI_932
  9
$INSBASE
 10
0.0
 20
0.0
 30
0.0
  9
$EXTMIN
 10
-2.515289
 20
8.948471
 30
0.0
  9
$EXTMAX
 10
288.931824
 20
222.014221
 30
0.0
  9
$LIMMIN
 10
0.0
 20
0.0
  9
$LIMMAX
 10
12.0
 20
9.0
  9
$ORTHOMODE
 70
     0
  9
$REGENMODE
 70
     1
  9
$FILLMODE
 70
     1
  9
$QTEXTMODE
 70
     0
  9
$MIRRTEXT
 70
     1
  9
$LTSCALE
 40
3.610241
  9
$ATTMODE
 70
     1
  9
$TEXTSIZE
 40
3.2
  9
$TRACEWID
 40
1.0
  9
$TEXTSTYLE
  7
Standard
  9
$CLAYER
  8
0
  9
$CELTYPE
  6
ByLayer
  9
$CECOLOR
 62
   256
  9
$CELTSCALE
 40
1.0
  9
$DISPSILH
 70
     0
  9
$DIMSCALE
 40
1.0
  9
$DIMASZ
 40
2.5
  9
$DIMEXO
 40
0.625
  9
$DIMDLI
 40
3.75
  9
$DIMRND
 40
0.0
  9
$DIMDLE
 40
0.0
  9
$DIMEXE
 40
1.25
  9
$DIMTP
 40
0.0
  9
$DIMTM
 40
0.0
  9
$DIMTXT
 40
2.5
  9
$DIMCEN
 40
0.09
  9
$DIMTSZ
 40
0.0
  9
$DIMTOL
 70
     0
  9
$DIMLIM
 70
     0
  9
$DIMTIH
 70
     0
  9
$DIMTOH
 70
     0
  9
$DIMSE1
 70
     0
  9
$DIMSE2
 70
     0
  9
$DIMTAD
 70
     0
  9
$DIMZIN
 70
     8
  9
$DIMBLK
  1

  9
$DIMASO
 70
     1
  9
$DIMSHO
 70
     0
  9
$DIMPOST
  1

  9
$DIMAPOST
  1

  9
$DIMALT
 70
     0
  9
$DIMALTD
 70
     3
  9
$DIMALTF
 40
0.03937
  9
$DIMLFAC
 40
1.0
  9
$DIMTOFL
 70
     1
  9
$DIMTVP
 40
0.0
  9
$DIMTIX
 70
     0
  9
$DIMSOXD
 70
     0
  9
$DIMSAH
 70
     0
  9
$DIMBLK1
  1

  9
$DIMBLK2
  1

  9
$DIMSTYLE
  2
ISO-25
  9
$DIMCLRD
 70
     0
  9
$DIMCLRE
 70
     0
  9
$DIMCLRT
 70
     0
  9
$DIMTFAC
 40
1.0
  9
$DIMGAP
 40
0.625
  9
$DIMJUST
 70
     0
  9
$DIMSD1
 70
     0
  9
$DIMSD2
 70
     0
  9
$DIMTOLJ
 70
     0
  9
$DIMTZIN
 70
     8
  9
$DIMALTZ
 70
     0
  9
$DIMALTTZ
 70
     0
  9
$DIMUPT
 70
     0
  9
$DIMDEC
 70
     2
  9
$DIMTDEC
 70
     2
  9
$DIMALTU
 70
     2
  9
$DIMALTTD
 70
     3
  9
$DIMTXSTY
  7
Standard
  9
$DIMAUNIT
 70
     0
  9
$DIMADEC
 70
     0
  9
$DIMALTRND
 40
0.0
  9
$DIMAZIN
 70
     0
  9
$DIMDSEP
 70
    44
  9
$DIMATFIT
 70
     3
  9
$DIMFRAC
 70
     0
  9
$DIMLDRBLK
  1

  9
$DIMLUNIT
 70
     2
  9
$DIMLWD
 70
    -2
  9
$DIMLWE
 70
    -2
  9
$DIMTMOVE
 70
     0
  9
$LUNITS
 70
     2
  9
$LUPREC
 70
     4
  9
$SKETCHINC
 40
1.0
  9
$FILLETRAD
 40
0.0
  9
$AUNITS
 70
     0
  9
$AUPREC
 70
     0
  9
$MENU
  1
.
  9
$ELEVATION
 40
0.0
  9
$PELEVATION
 40
0.0
  9
$THICKNESS
 40
0.0
  9
$LIMCHECK
 70
     0
  9
$CHAMFERA
 40
10.0
  9
$CHAMFERB
 40
10.0
  9
$CHAMFERC
 40
20.0
  9
$CHAMFERD
 40
0.0
  9
$SKPOLY
 70
     0
  9
$TDCREATE
 40
2455405.448414166
  9
$TDUCREATE
 40
2455405.073414166
  9
$TDUPDATE
 40
2455405.448414178
  9
$TDUUPDATE
 40
2455405.073414178
  9
$TDINDWG
 40
0.0000000116
  9
$TDUSRTIMER
 40
0.0000000116
  9
$USRTIMER
 70
     1
  9
$ANGBASE
 50
0.0
  9
$ANGDIR
 70
     0
  9
$PDMODE
 70
     0
  9
$PDSIZE
 40
0.0
  9
$PLINEWID
 40
0.0
  9
$SPLFRAME
 70
     0
  9
$SPLINETYPE
 70
     6
  9
$SPLINESEGS
 70
     8
  9
$HANDSEED
  5
5D0
  9
$SURFTAB1
 70
     6
  9
$SURFTAB2
 70
     6
  9
$SURFTYPE
 70
     6
  9
$SURFU
 70
     6
  9
$SURFV
 70
     6
  9
$UCSBASE
  2

  9
$UCSNAME
  2

  9
$UCSORG
 10
0.0
 20
0.0
 30
0.0
  9
$UCSXDIR
 10
1.0
 20
0.0
 30
0.0
  9
$UCSYDIR
 10
0.0
 20
1.0
 30
0.0
  9
$UCSORTHOREF
  2

  9
$UCSORTHOVIEW
 70
     0
  9
$UCSORGTOP
 10
0.0
 20
0.0
 30
0.0
  9
$UCSORGBOTTOM
 10
0.0
 20
0.0
 30
0.0
  9
$UCSORGLEFT
 10
0.0
 20
0.0
 30
0.0
  9
$UCSORGRIGHT
 10
0.0
 20
0.0
 30
0.0
  9
$UCSORGFRONT
 10
0.0
 20
0.0
 30
0.0
  9
$UCSORGBACK
 10
0.0
 20
0.0
 30
0.0
  9
$PUCSBASE
  2

  9
$PUCSNAME
  2

  9
$PUCSORG
 10
0.0
 20
0.0
 30
0.0
  9
$PUCSXDIR
 10
1.0
 20
0.0
 30
0.0
  9
$PUCSYDIR
 10
0.0
 20
1.0
 30
0.0
  9
$PUCSORTHOREF
  2

  9
$PUCSORTHOVIEW
 70
     0
  9
$PUCSORGTOP
 10
0.0
 20
0.0
 30
0.0
  9
$PUCSORGBOTTOM
 10
0.0
 20
0.0
 30
0.0
  9
$PUCSORGLEFT
 10
0.0
 20
0.0
 30
0.0
  9
$PUCSORGRIGHT
 10
0.0
 20
0.0
 30
0.0
  9
$PUCSORGFRONT
 10
0.0
 20
0.0
 30
0.0
  9
$PUCSORGBACK
 10
0.0
 20
0.0
 30
0.0
  9
$USERI1
 70
     0
  9
$USERI2
 70
     0
  9
$USERI3
 70
     0
  9
$USERI4
 70
     0
  9
$USERI5
 70
     0
  9
$USERR1
 40
0.0
  9
$USERR2
 40
0.0
  9
$USERR3
 40
0.0
  9
$USERR4
 40
0.0
  9
$USERR5
 40
0.0
  9
$WORLDVIEW
 70
     1
  9
$SHADEDGE
 70
     3
  9
$SHADEDIF
 70
    70
  9
$TILEMODE
 70
     1
  9
$MAXACTVP
 70
    64
  9
$PINSBASE
 10
0.0
 20
0.0
 30
0.0
  9
$PLIMCHECK
 70
     0
  9
$PEXTMIN
 10
1.000000E+20
 20
1.000000E+20
 30
0.0
  9
$PEXTMAX
 10
-1.000000E+20
 20
-1.000000E+20
 30
0.0
  9
$PLIMMIN
 10
0.0
 20
0.0
  9
$PLIMMAX
 10
12.0
 20
9.0
  9
$UNITMODE
 70
     0
  9
$VISRETAIN
 70
     1
  9
$PLINEGEN
 70
     0
  9
$PSLTSCALE
 70
     1
  9
$TREEDEPTH
 70
  3020
  9
$CMLSTYLE
  2
Standard
  9
$CMLJUST
 70
     0
  9
$CMLSCALE
 40
20.0
  9
$PROXYGRAPHICS
 70
     1
  9
$MEASUREMENT
 70
     1
  9
$CELWEIGHT
370
    -1
  9
$ENDCAPS
280
     0
  9
$JOINSTYLE
280
     0
  9
$LWDISPLAY
290
     0
  9
$INSUNITS
 70
     4
  9
$HYPERLINKBASE
  1

  9
$STYLESHEET
  1

  9
$XEDIT
290
     1
  9
$CEPSNTYPE
380
     0
  9
$PSTYLEMODE
290
     1
  9
$FINGERPRINTGUID
  2
{723DD08D-5759-4945-A2DF-CD29B749C321}
  9
$VERSIONGUID
  2
{FAEB1C32-E019-11D5-929B-00C0DF256EC4}
  9
$EXTNAMES
290
     1
  9
$PSVPSCALE
 40
0.0
  9
$OLESTARTUP
290
     0
  0
ENDSEC
  0
SECTION
  2
CLASSES
  0
CLASS
  1
ACDBDICTIONARYWDFLT
  2
AcDbDictionaryWithDefault
  3
ObjectDBX Classes
 90
        0
280
     0
281
     0
  0
CLASS
  1
VISUALSTYLE
  2
AcDbVisualStyle
  3
ObjectDBX Classes
 90
     4095
280
     0
281
     0
  0
CLASS
  1
SCALE
  2
AcDbScale
  3
ObjectDBX Classes
 90
     1153
280
     0
281
     0
  0
CLASS
  1
DICTIONARYVAR
  2
AcDbDictionaryVar
  3
ObjectDBX Classes
 90
        0
280
     0
281
     0
  0
CLASS
  1
ACDBPLACEHOLDER
  2
AcDbPlaceHolder
  3
ObjectDBX Classes
 90
        0
280
     0
281
     0
  0
CLASS
  1
LAYOUT
  2
AcDbLayout
  3
ObjectDBX Classes
 90
        0
280
     0
281
     0
  0
ENDSEC
  0
SECTION
  2
TABLES
  0
TABLE
  2
VPORT
  5
8
330
0
100
AcDbSymbolTable
 70
     1
  0
VPORT
  5
29
330
8
100
AcDbSymbolTableRecord
100
AcDbViewportTableRecord
  2
*Active
 70
     0
 10
0.0
 20
0.0
 11
1.0
 21
1.0
 12
143.208267
 22
115.481346
 13
0.0
 23
0.0
 14
1.0
 24
1.0
 15
0.0
 25
0.0
 16
0.0
 26
0.0
 36
1.0
 17
0.0
 27
0.0
 37
0.0
 40
215.196408
 41
1.691288
 42
50.0
 43
0.0
 44
0.0
 50
0.0
 51
0.0
 71
     0
 72
   100
 73
     1
 74
     3
 75
     0
 76
     0
 77
     0
 78
     0
281
     0
 65
     1
110
0.0
120
0.0
130
0.0
111
1.0
121
0.0
131
0.0
112
0.0
122
1.0
132
0.0
 79
     0
146
0.0
  0
ENDTAB
  0
TABLE
  2
LTYPE
  5
5
330
0
100
AcDbSymbolTable
 70
     5
  0
LTYPE
  5
14
330
5
100
AcDbSymbolTableRecord
100
AcDbLinetypeTableRecord
  2
ByBlock
 70
     0
  3

 72
    65
 73
     0
 40
0.0
  0
LTYPE
  5
15
330
5
100
AcDbSymbolTableRecord
100
AcDbLinetypeTableRecord
  2
ByLayer
 70
     0
  3

 72
    65
 73
     0
 40
0.0
  0
LTYPE
  5
16
330
5
100
AcDbSymbolTableRecord
100
AcDbLinetypeTableRecord
  2
Continuous
 70
     0
  3
Solid line
 72
    65
 73
     0
 40
0.0
  0
LTYPE
  5
5D
330
5
100
AcDbSymbolTableRecord
100
AcDbLinetypeTableRecord
  2
DASHED
 70
     0
  3
DASHED
 72
    83
 73
     2
 40
0.75
 49
0.5
 74
     0
 49
-0.25
 74
     0
  0
LTYPE
  5
5E
330
5
100
AcDbSymbolTableRecord
100
AcDbLinetypeTableRecord
  2
HIDDEN
 70
     0
  3
HIDDEN
 72
    83
 73
     2
 40
0.375
 49
0.25
 74
     0
 49
-0.125
 74
     0
  0
LTYPE
  5
5F
330
5
100
AcDbSymbolTableRecord
100
AcDbLinetypeTableRecord
  2
CENTER
 70
     0
  3
CENTER
 72
    83
 73
     4
 40
2.0
 49
1.25
 74
     0
 49
-0.25
 74
     0
 49
0.25
 74
     0
 49
-0.25
 74
     0
  0
LTYPE
  5
60
330
5
100
AcDbSymbolTableRecord
100
AcDbLinetypeTableRecord
  2
PHANTOM
 70
     0
  3
PHANTOM
 72
    83
 73
     6
 40
2.5
 49
1.25
 74
     0
 49
-0.25
 74
     0
 49
0.25
 74
     0
 49
-0.25
 74
     0
 49
0.25
 74
     0
 49
-0.25
 74
     0
  0
ENDTAB
  0
TABLE
  2
LAYER
  5
2
330
0
100
AcDbSymbolTable
 70
     2
  0
LAYER
  5
10
330
2
100
AcDbSymbolTableRecord
100
AcDbLayerTableRecord
  2
0
 70
     0
 62
     7
  6
Continuous
370
    -3
390
F
  0
LAYER
  5
61
330
2
100
AcDbSymbolTableRecord
100
AcDbLayerTableRecord
  2
001
 70
     0
 62
     7
  6
Continuous
370
    -3
390
F
  0
ENDTAB
  0
TABLE
  2
STYLE
  5
3
330
0
100
AcDbSymbolTable
 70
     2
  0
STYLE
  5
11
330
3
100
AcDbSymbolTableRecord
100
AcDbTextStyleTableRecord
  2
Standard
 70
     0
 40
0.0
 41
1.0
 50
0.0
 71
     0
 42
0.2
  3
TXT
  4
BIGFONT
  0
STYLE
  5
62
330
3
100
AcDbSymbolTableRecord
100
AcDbTextStyleTableRecord
  2
TATEGAKI
 70
     4
 40
1.0
 41
1.0
 50
0.0
 71
     0
 42
0.2
  3
TXT
  4
BIGFONT
  0
ENDTAB
  0
TABLE
  2
VIEW
  5
6
330
0
100
AcDbSymbolTable
 70
     0
  0
ENDTAB
  0
TABLE
  2
UCS
  5
7
330
0
100
AcDbSymbolTable
 70
     0
  0
ENDTAB
  0
TABLE
  2
APPID
  5
9
330
0
100
AcDbSymbolTable
 70
     1
  0
APPID
  5
12
330
9
100
AcDbSymbolTableRecord
100
AcDbRegAppTableRecord
  2
ACAD
 70
     0
  0
ENDTAB
  0
TABLE
  2
DIMSTYLE
  5
A
330
0
100
AcDbSymbolTable
 70
     2
100
AcDbDimStyleTable
  0
DIMSTYLE
105
27
330
A
100
AcDbSymbolTableRecord
100
AcDbDimStyleTableRecord
  2
ISO-25
 70
     0
 41
2.5
 42
0.625
 43
3.75
 44
1.25
 73
     0
 74
     0
 77
     1
 78
     8
140
2.5
141
2.5
143
0.03937
147
0.625
171
     3
172
     1
271
     2
272
     2
274
     3
278
    44
283
     0
284
     8
340
11
  0
DIMSTYLE
105
63
102
{ACAD_REACTORS
330
2ED
330
2EE
330
2EF
330
2F0
330
2F1
330
2F2
330
2F4
330
2F5
330
2F6
330
2F7
330
2F8
330
2F9
330
2FA
330
2FB
330
2FC
330
2FD
102
}
330
A
100
AcDbSymbolTableRecord
100
AcDbDimStyleTableRecord
  2
Standard
 70
     0
 41
1.5
 42
0.0
 44
0.5
 73
     0
 74
     0
 77
     1
 78
     8
 79
     2
140
4.0
146
0.8
147
1.0
172
     1
179
     1
271
     1
340
11
  0
ENDTAB
  0
TABLE
  2
BLOCK_RECORD
  5
1
330
0
100
AcDbSymbolTable
 70
    22
  0
BLOCK_RECORD
  5
1F
330
1
100
AcDbSymbolTableRecord
100
AcDbBlockTableRecord
  2
*Model_Space
340
22
  0
BLOCK_RECORD
  5
1B
330
1
100
AcDbSymbolTableRecord
100
AcDbBlockTableRecord
  2
*Paper_Space
340
1E
  0
BLOCK_RECORD
  5
23
330
1
100
AcDbSymbolTableRecord
100
AcDbBlockTableRecord
  2
*Paper_Space0
340
26
  0
BLOCK_RECORD
  5
64
330
1
100
AcDbSymbolTableRecord
100
AcDbBlockTableRecord
  2
JZB-1
340
0
102
{BLKREFS
331
2E9
102
}
  0
BLOCK_RECORD
  5
A8
330
1
100
AcDbSymbolTableRecord
100
AcDbBlockTableRecord
  2
JZB-2
340
0
102
{BLKREFS
331
2EA
102
}
  0
BLOCK_RECORD
  5
169
330
1
100
AcDbSymbolTableRecord
100
AcDbBlockTableRecord
  2
JZB-3
340
0
102
{BLKREFS
331
2EB
102
}
  0
BLOCK_RECORD
  5
16D
330
1
100
AcDbSymbolTableRecord
100
AcDbBlockTableRecord
  2
JZB-4
340
0
102
{BLKREFS
331
2EC
102
}
  0
BLOCK_RECORD
  5
1A7
330
1
100
AcDbSymbolTableRecord
100
AcDbBlockTableRecord
  2
*D5
340
0
  0
BLOCK_RECORD
  5
1BD
330
1
100
AcDbSymbolTableRecord
100
AcDbBlockTableRecord
  2
*D6
340
0
  0
BLOCK_RECORD
  5
1D1
330
1
100
AcDbSymbolTableRecord
100
AcDbBlockTableRecord
  2
*D7
340
0
  0
BLOCK_RECORD
  5
1E5
330
1
100
AcDbSymbolTableRecord
100
AcDbBlockTableRecord
  2
*D8
340
0
  0
BLOCK_RECORD
  5
1F9
330
1
100
AcDbSymbolTableRecord
100
AcDbBlockTableRecord
  2
*D9
340
0
  0
BLOCK_RECORD
  5
20D
330
1
100
AcDbSymbolTableRecord
100
AcDbBlockTableRecord
  2
*D10
340
0
  0
BLOCK_RECORD
  5
222
330
1
100
AcDbSymbolTableRecord
100
AcDbBlockTableRecord
  2
DIM-5
340
0
102
{BLKREFS
331
2F3
102
}
  0
BLOCK_RECORD
  5
230
330
1
100
AcDbSymbolTableRecord
100
AcDbBlockTableRecord
  2
*D12
340
0
  0
BLOCK_RECORD
  5
246
330
1
100
AcDbSymbolTableRecord
100
AcDbBlockTableRecord
  2
*D13
340
0
  0
BLOCK_RECORD
  5
253
330
1
100
AcDbSymbolTableRecord
100
AcDbBlockTableRecord
  2
*D14
340
0
  0
BLOCK_RECORD
  5
260
330
1
100
AcDbSymbolTableRecord
100
AcDbBlockTableRecord
  2
*D15
340
0
  0
BLOCK_RECORD
  5
26D
330
1
100
AcDbSymbolTableRecord
100
AcDbBlockTableRecord
  2
*D16
340
0
  0
BLOCK_RECORD
  5
281
330
1
100
AcDbSymbolTableRecord
100
AcDbBlockTableRecord
  2
*D17
340
0
  0
BLOCK_RECORD
  5
295
330
1
100
AcDbSymbolTableRecord
100
AcDbBlockTableRecord
  2
*D18
340
0
  0
BLOCK_RECORD
  5
2AB
330
1
100
AcDbSymbolTableRecord
100
AcDbBlockTableRecord
  2
*D19
340
0
  0
BLOCK_RECORD
  5
2BF
330
1
100
AcDbSymbolTableRecord
100
AcDbBlockTableRecord
  2
*D20
340
0
  0
BLOCK_RECORD
  5
2D5
330
1
100
AcDbSymbolTableRecord
100
AcDbBlockTableRecord
  2
*D21
340
0
  0
ENDTAB
  0
ENDSEC
  0
SECTION
  2
BLOCKS
  0
BLOCK
  5
20
330
1F
100
AcDbEntity
  8
0
100
AcDbBlockBegin
  2
*Model_Space
 70
     0
 10
0.0
 20
0.0
 30
0.0
  3
*Model_Space
  1

  0
ENDBLK
  5
21
330
1F
100
AcDbEntity
  8
0
100
AcDbBlockEnd
  0
BLOCK
  5
1C
330
1B
100
AcDbEntity
 67
     1
  8
0
100
AcDbBlockBegin
  2
*Paper_Space
 70
     0
 10
0.0
 20
0.0
 30
0.0
  3
*Paper_Space
  1

  0
ENDBLK
  5
1D
330
1B
100
AcDbEntity
 67
     1
  8
0
100
AcDbBlockEnd
  0
BLOCK
  5
24
330
23
100
AcDbEntity
  8
0
100
AcDbBlockBegin
  2
*Paper_Space0
 70
     0
 10
0.0
 20
0.0
 30
0.0
  3
*Paper_Space0
  1

  0
ENDBLK
  5
25
330
23
100
AcDbEntity
  8
0
100
AcDbBlockEnd
  0
BLOCK
  5
65
330
64
100
AcDbEntity
  8
0
100
AcDbBlockBegin
  2
JZB-1
 70
     0
 10
0.0
 20
0.0
 30
0.0
  3
JZB-1
  1

  0
LINE
  5
67
330
64
100
AcDbEntity
  8
001
 62
   140
370
    30
100
AcDbLine
 10
108.803806
 20
145.037001
 30
0.0
 11
109.052913
 21
145.002336
 31
0.0
  0
POLYLINE
  5
68
330
64
100
AcDbEntity
  8
001
 62
   140
370
    30
100
AcDb2dPolyline
 66
     1
 10
0.0
 20
0.0
 30
0.0
  0
VERTEX
  5
6A
330
68
100
AcDbEntity
  8
001
 62
   140
370
    30
100
AcDbVertex
100
AcDb2dVertex
 10
109.052913
 20
145.002336
 30
0.0
  0
VERTEX
  5
6B
330
68
100
AcDbEntity
  8
001
 62
   140
370
    30
100
AcDbVertex
100
AcDb2dVertex
 10
109.150319
 20
144.992831
 30
0.0
  0
VERTEX
  5
6C
330
68
100
AcDbEntity
  8
001
 62
   140
370
    30
100
AcDbVertex
100
AcDb2dVertex
 10
109.247817
 20
144.984849
 30
0.0
  0
VERTEX
  5
6D
330
68
100
AcDbEntity
  8
001
 62
   140
370
    30
100
AcDbVertex
100
AcDb2dVertex
 10
109.428159
 20
144.976783
 30
0.0
  0
VERTEX
  5
6E
330
68
100
AcDbEntity
  8
001
 62
   140
370
    30
100
AcDbVertex
100
AcDb2dVertex
 10
109.608812
 20
144.973904
 30
0.0
  0
SEQEND
  5
69
330
68
100
AcDbEntity
  8
001
370
    30
  0
POLYLINE
  5
6F
330
64
100
AcDbEntity
  8
001
 62
   140
370
    30
100
AcDb2dPolyline
 66
     1
 10
0.0
 20
0.0
 30
0.0
  0
VERTEX
  5
71
330
6F
100
AcDbEntity
  8
001
 62
   140
370
    30
100
AcDbVertex
100
AcDb2dVertex
 10
108.502284
 20
153.712748
 30
0.0
  0
VERTEX
  5
72
330
6F
100
AcDbEntity
  8
001
 62
   140
370
    30
100
AcDbVertex
100
AcDb2dVertex
 10
108.21562
 20
153.624036
 30
0.0
  0
VERTEX
  5
73
330
6F
100
AcDbEntity
  8
001
 62
   140
370
    30
100
AcDbVertex
100
AcDb2dVertex
 10
107.933208
 20
153.523924
 30
0.0
  0
VERTEX
  5
74
330
6F
100
AcDbEntity
  8
001
 62
   140
370
    30
100
AcDbVertex
100
AcDb2dVertex
 10
107.584666
 20
153.366534
 30
0.0
  0
VERTEX
  5
75
330
6F
100
AcDbEntity
  8
001
 62
   140
370
    30
100
AcDbVertex
100
AcDb2dVertex
 10
107.251277
 20
153.177827
 30
0.0
  0
VERTEX
  5
76
330
6F
100
AcDbEntity
  8
001
 62
   140
370
    30
100
AcDbVertex
100
AcDb2dVertex
 10
106.925459
 20
152.955919
 30
0.0
  0
VERTEX
  5
77
330
6F
100
AcDbEntity
  8
001
 62
   140
370
    30
100
AcDbVertex
100
AcDb2dVertex
 10
106.619899
 20
152.707348
 30
0.0
  0
VERTEX
  5
78
330
6F
100
AcDbEntity
  8
001
 62
   140
370
    30
100
AcDbVertex
100
AcDb2dVertex
 10
106.348005
 20
152.444223
 30
0.0
  0
VERTEX
  5
79
330
6F
100
AcDbEntity
  8
001
 62
   140
370
    30
100
AcDbVertex
100
AcDb2dVertex
 10
106.099164
 20
152.159058
 30
0.0
  0
VERTEX
  5
7A
330
6F
100
AcDbEntity
  8
001
 62
   140
370
    30
100
AcDbVertex
100
AcDb2dVertex
 10
105.868896
 20
151.844695
 30
0.0
  0
VERTEX
  5
7B
330
6F
100
AcDbEntity
  8
001
 62
   140
370
    30
100
AcDbVertex
100
AcDb2dVertex
 10
105.666737
 20
151.511608
 30
0.0
  0
VERTEX
  5
7C
330
6F
100
AcDbEntity
  8
001
 62
   140
370
    30
100
AcDbVertex
100
AcDb2dVertex
 10
105.500644
 20
151.176375
 30
0.0
  0
VERTEX
  5
7D
330
6F
100
AcDbEntity
  8
001
 62
   140
370
    30
100
AcDbVertex
100
AcDb2dVertex
 10
105.363225
 20
150.828391
 30
0.0
  0
VERTEX
  5
7E
330
6F
100
AcDbEntity
  8
001
 62
   140
370
    30
100
AcDbVertex
100
AcDb2dVertex
 10
105.252818
 20
150.459301
 30
0.0
  0
VERTEX
  5
7F
330
6F
100
AcDbEntity
  8
001
 62
   140
370
    30
100
AcDbVertex
100
AcDb2dVertex
 10
105.174835
 20
150.082038
 30
0.0
  0
VERTEX
  5
80
330
6F
100
AcDbEntity
  8
001
 62
   140
370
    30
100
AcDbVertex
100
AcDb2dVertex
 10
105.131164
 20
149.714791
 30
0.0
  0
VERTEX
  5
81
330
6F
100
AcDbEntity
  8
001
 62
   140
370
    30
100
AcDbVertex
100
AcDb2dVertex
 10
105.11841
 20
149.345164
 30
0.0
  0
VERTEX
  5
82
330
6F
100
AcDbEntity
  8
001
 62
   140
370
    30
100
AcDbVertex
100
AcDb2dVertex
 10
105.1378
 20
148.9648
 30
0.0
  0
VERTEX
  5
83
330
6F
100
AcDbEntity
  8
001
 62
   140
370
    30
100
AcDbVertex
100
AcDb2dVertex
 10
105.190144
 20
148.587608
 30
0.0
  0
VERTEX
  5
84
330
6F
100
AcDbEntity
  8
001
 62
   140
370
    30
100
AcDbVertex
100
AcDb2dVertex
 10
105.261805
 20
148.266222
 30
0.0
  0
VERTEX
  5
85
330
6F
100
AcDbEntity
  8
001
 62
   140
370
    30
100
AcDbVertex
100
AcDb2dVertex
 10
105.357369
 20
147.951109
 30
0.0
  0
VERTEX
  5
86
330
6F
100
AcDbEntity
  8
001
 62
   140
370
    30
100
AcDbVertex
100
AcDb2dVertex
 10
105.479222
 20
147.63688
 30
0.0
  0
VERTEX
  5
87
330
6F
100
AcDbEntity
  8
001
 62
   140
370
    30
100
AcDbVertex
100
AcDb2dVertex
 10
105.624714
 20
147.332954
 30
0.0
  0
VERTEX
  5
88
330
6F
100
AcDbEntity
  8
001
 62
   140
370
    30
100
AcDbVertex
100
AcDb2dVertex
 10
105.788925
 20
147.04764
 30
0.0
  0
VERTEX
  5
89
330
6F
100
AcDbEntity
  8
001
 62
   140
370
    30
100
AcDbVertex
100
AcDb2dVertex
 10
105.973538
 20
146.77483
 30
0.0
  0
VERTEX
  5
8A
330
6F
100
AcDbEntity
  8
001
 62
   140
370
    30
100
AcDbVertex
100
AcDb2dVertex
 10
106.177519
 20
146.515879
 30
0.0
  0
VERTEX
  5
8B
330
6F
100
AcDbEntity
  8
001
 62
   140
370
    30
100
AcDbVertex
100
AcDb2dVertex
 10
106.401601
 20
146.274781
 30
0.0
  0
VERTEX
  5
8C
330
6F
100
AcDbEntity
  8
001
 62
   140
370
    30
100
AcDbVertex
100
AcDb2dVertex
 10
106.617326
 20
146.076961
 30
0.0
  0
VERTEX
  5
8D
330
6F
100
AcDbEntity
  8
001
 62
   140
370
    30
100
AcDbVertex
100
AcDb2dVertex
 10
106.841486
 20
145.88803
 30
0.0
  0
SEQEND
  5
70
330
6F
100
AcDbEntity
  8
001
370
    30
  0
POLYLINE
  5
8E
330
64
100
AcDbEntity
  8
001
 62
   140
370
    30
100
AcDb2dPolyline
 66
     1
 10
0.0
 20
0.0
 30
0.0
  0
VERTEX
  5
90
330
8E
100
AcDbEntity
  8
001
 62
   140
370
    30
100
AcDbVertex
100
AcDb2dVertex
 10
106.841486
 20
145.88803
 30
0.0
  0
VERTEX
  5
91
330
8E
100
AcDbEntity
  8
001
 62
   140
370
    30
100
AcDbVertex
100
AcDb2dVertex
 10
106.876651
 20
145.861454
 30
0.0
  0
VERTEX
  5
92
330
8E
100
AcDbEntity
  8
001
 62
   140
370
    30
100
AcDbVertex
100
AcDb2dVertex
 10
106.911961
 20
145.835066
 30
0.0
  0
VERTEX
  5
93
330
8E
100
AcDbEntity
  8
001
 62
   140
370
    30
100
AcDbVertex
100
AcDb2dVertex
 10
107.24302
 20
145.613637
 30
0.0
  0
VERTEX
  5
94
330
8E
100
AcDbEntity
  8
001
 62
   140
370
    30
100
AcDbVertex
100
AcDb2dVertex
 10
107.593258
 20
145.423282
 30
0.0
  0
VERTEX
  5
95
330
8E
100
AcDbEntity
  8
001
 62
   140
370
    30
100
AcDbVertex
100
AcDb2dVertex
 10
107.820382
 20
145.320274
 30
0.0
  0
VERTEX
  5
96
330
8E
100
AcDbEntity
  8
001
 62
   140
370
    30
100
AcDbVertex
100
AcDb2dVertex
 10
108.052962
 20
145.23086
 30
0.0
  0
VERTEX
  5
97
330
8E
100
AcDbEntity
  8
001
 62
   140
370
    30
100
AcDbVertex
100
AcDb2dVertex
 10
108.117089
 20
145.208968
 30
0.0
  0
VERTEX
  5
98
330
8E
100
AcDbEntity
  8
001
 62
   140
370
    30
100
AcDbVertex
100
AcDb2dVertex
 10
108.181409
 20
145.187627
 30
0.0
  0
SEQEND
  5
8F
330
8E
100
AcDbEntity
  8
001
370
    30
  0
POLYLINE
  5
99
330
64
100
AcDbEntity
  8
001
 62
   140
370
    30
100
AcDb2dPolyline
 66
     1
 10
0.0
 20
0.0
 30
0.0
  0
VERTEX
  5
9B
330
99
100
AcDbEntity
  8
001
 62
   140
370
    30
100
AcDbVertex
100
AcDb2dVertex
 10
108.181409
 20
145.187627
 30
0.0
  0
VERTEX
  5
9C
330
99
100
AcDbEntity
  8
001
 62
   140
370
    30
100
AcDbVertex
100
AcDb2dVertex
 10
108.358894
 20
145.135958
 30
0.0
  0
VERTEX
  5
9D
330
99
100
AcDbEntity
  8
001
 62
   140
370
    30
100
AcDbVertex
100
AcDb2dVertex
 10
108.537731
 20
145.08986
 30
0.0
  0
VERTEX
  5
9E
330
99
100
AcDbEntity
  8
001
 62
   140
370
    30
100
AcDbVertex
100
AcDb2dVertex
 10
108.616561
 20
145.072637
 30
0.0
  0
VERTEX
  5
9F
330
99
100
AcDbEntity
  8
001
 62
   140
370
    30
100
AcDbVertex
100
AcDb2dVertex
 10
108.695648
 20
145.056477
 30
0.0
  0
SEQEND
  5
9A
330
99
100
AcDbEntity
  8
001
370
    30
  0
LINE
  5
A0
330
64
100
AcDbEntity
  8
001
 62
   140
370
    30
100
AcDbLine
 10
108.695648
 20
145.056477
 30
0.0
 11
108.803806
 21
145.037001
 31
0.0
  0
CIRCLE
  5
A1
330
64
100
AcDbEntity
  8
001
 62
   140
370
    30
100
AcDbCircle
 10
109.515278
 20
149.227196
 30
0.0
 40
4.188
  0
LINE
  5
A2
330
64
100
AcDbEntity
  8
001
 62
   140
370
    30
100
AcDbLine
 10
110.841771
 20
146.663264
 30
0.0
 11
107.958093
 21
146.796453
 31
0.0
  0
LINE
  5
A3
330
64
100
AcDbEntity
  8
001
 62
   140
370
    30
100
AcDbLine
 10
112.398955
 20
149.094006
 30
0.0
 11
110.841771
 21
146.663264
 31
0.0
  0
LINE
  5
A4
330
64
100
AcDbEntity
  8
001
 62
   140
370
    30
100
AcDbLine
 10
111.072462
 20
151.657939
 30
0.0
 11
112.398955
 21
149.094006
 31
0.0
  0
LINE
  5
A5
330
64
100
AcDbEntity
  8
001
 62
   140
370
    30
100
AcDbLine
 10
108.188785
 20
151.791129
 30
0.0
 11
111.072462
 21
151.657939
 31
0.0
  0
LINE
  5
A6
330
64
100
AcDbEntity
  8
001
 62
   140
370
    30
100
AcDbLine
 10
107.958093
 20
146.796453
 30
0.0
 11
106.6316
 21
149.360386
 31
0.0
  0
LINE
  5
A7
330
64
100
AcDbEntity
  8
001
 62
   140
370
    30
100
AcDbLine
 10
106.6316
 20
149.360386
 30
0.0
 11
108.188785
 21
151.791129
 31
0.0
  0
ENDBLK
  5
66
330
64
100
AcDbEntity
  8
0
100
AcDbBlockEnd
  0
BLOCK
  5
A9
330
A8
100
AcDbEntity
  8
0
100
AcDbBlockBegin
  2
JZB-2
 70
     0
 10
0.0
 20
0.0
 30
0.0
  3
JZB-2
  1

  0
POLYLINE
  5
AB
330
A8
100
AcDbEntity
  8
001
 62
   140
370
    30
100
AcDb2dPolyline
 66
     1
 10
0.0
 20
0.0
 30
0.0
  0
VERTEX
  5
AD
330
AB
100
AcDbEntity
  8
001
 62
   140
370
    30
100
AcDbVertex
100
AcDb2dVertex
 10
88.660489
 20
151.836395
 30
0.0
  0
VERTEX
  5
AE
330
AB
100
AcDbEntity
  8
001
 62
   140
370
    30
100
AcDbVertex
100
AcDb2dVertex
 10
88.560826
 20
151.701071
 30
0.0
  0
VERTEX
  5
AF
330
AB
100
AcDbEntity
  8
001
 62
   140
370
    30
100
AcDbVertex
100
AcDb2dVertex
 10
88.464128
 20
151.563713
 30
0.0
  0
VERTEX
  5
B0
330
AB
100
AcDbEntity
  8
001
 62
   140
370
    30
100
AcDbVertex
100
AcDb2dVertex
 10
88.292038
 20
151.286838
 30
0.0
  0
VERTEX
  5
B1
330
AB
100
AcDbEntity
  8
001
 62
   140
370
    30
100
AcDbVertex
100
AcDb2dVertex
 10
88.139716
 20
150.998173
 30
0.0
  0
VERTEX
  5
B2
330
AB
100
AcDbEntity
  8
001
 62
   140
370
    30
100
AcDbVertex
100
AcDb2dVertex
 10
88.07002
 20
150.851136
 30
0.0
  0
VERTEX
  5
B3
330
AB
100
AcDbEntity
  8
001
 62
   140
370
    30
100
AcDbVertex
100
AcDb2dVertex
 10
88.002246
 20
150.703614
 30
0.0
  0
VERTEX
  5
B4
330
AB
100
AcDbEntity
  8
001
 62
   140
370
    30
100
AcDbVertex
100
AcDb2dVertex
 10
87.98073
 20
150.656939
 30
0.0
  0
VERTEX
  5
B5
330
AB
100
AcDbEntity
  8
001
 62
   140
370
    30
100
AcDbVertex
100
AcDb2dVertex
 10
87.958828
 20
150.610129
 30
0.0
  0
VERTEX
  5
B6
330
AB
100
AcDbEntity
  8
001
 62
   140
370
    30
100
AcDbVertex
100
AcDb2dVertex
 10
87.949297
 20
150.590493
 30
0.0
  0
VERTEX
  5
B7
330
AB
100
AcDbEntity
  8
001
 62
   140
370
    30
100
AcDbVertex
100
AcDb2dVertex
 10
87.938879
 20
150.571649
 30
0.0
  0
VERTEX
  5
B8
330
AB
100
AcDbEntity
  8
001
 62
   140
370
    30
100
AcDbVertex
100
AcDb2dVertex
 10
87.935243
 20
150.565784
 30
0.0
  0
VERTEX
  5
B9
330
AB
100
AcDbEntity
  8
001
 62
   140
370
    30
100
AcDbVertex
100
AcDb2dVertex
 10
87.931704
 20
150.559611
 30
0.0
  0
VERTEX
  5
BA
330
AB
100
AcDbEntity
  8
001
 62
   140
370
    30
100
AcDbVertex
100
AcDb2dVertex
 10
87.926832
 20
150.550487
 30
0.0
  0
VERTEX
  5
BB
330
AB
100
AcDbEntity
  8
001
 62
   140
370
    30
100
AcDbVertex
100
AcDb2dVertex
 10
87.919812
 20
150.544058
 30
0.0
  0
VERTEX
  5
BC
330
AB
100
AcDbEntity
  8
001
 62
   140
370
    30
100
AcDbVertex
100
AcDb2dVertex
 10
87.913936
 20
150.54305
 30
0.0
  0
VERTEX
  5
BD
330
AB
100
AcDbEntity
  8
001
 62
   140
370
    30
100
AcDbVertex
100
AcDb2dVertex
 10
87.908273
 20
150.544151
 30
0.0
  0
VERTEX
  5
BE
330
AB
100
AcDbEntity
  8
001
 62
   140
370
    30
100
AcDbVertex
100
AcDb2dVertex
 10
87.901752
 20
150.558692
 30
0.0
  0
VERTEX
  5
BF
330
AB
100
AcDbEntity
  8
001
 62
   140
370
    30
100
AcDbVertex
100
AcDb2dVertex
 10
87.906065
 20
150.581694
 30
0.0
  0
VERTEX
  5
C0
330
AB
100
AcDbEntity
  8
001
 62
   140
370
    30
100
AcDbVertex
100
AcDb2dVertex
 10
87.919298
 20
150.650991
 30
0.0
  0
VERTEX
  5
C1
330
AB
100
AcDbEntity
  8
001
 62
   140
370
    30
100
AcDbVertex
100
AcDb2dVertex
 10
87.926658
 20
150.707997
 30
0.0
  0
VERTEX
  5
C2
330
AB
100
AcDbEntity
  8
001
 62
   140
370
    30
100
AcDbVertex
100
AcDb2dVertex
 10
87.981309
 20
150.947767
 30
0.0
  0
VERTEX
  5
C3
330
AB
100
AcDbEntity
  8
001
 62
   140
370
    30
100
AcDbVertex
100
AcDb2dVertex
 10
88.067072
 20
151.200985
 30
0.0
  0
VERTEX
  5
C4
330
AB
100
AcDbEntity
  8
001
 62
   140
370
    30
100
AcDbVertex
100
AcDb2dVertex
 10
88.208314
 20
151.550648
 30
0.0
  0
VERTEX
  5
C5
330
AB
100
AcDbEntity
  8
001
 62
   140
370
    30
100
AcDbVertex
100
AcDb2dVertex
 10
88.370848
 20
151.879909
 30
0.0
  0
VERTEX
  5
C6
330
AB
100
AcDbEntity
  8
001
 62
   140
370
    30
100
AcDbVertex
100
AcDb2dVertex
 10
88.569165
 20
152.205987
 30
0.0
  0
VERTEX
  5
C7
330
AB
100
AcDbEntity
  8
001
 62
   140
370
    30
100
AcDbVertex
100
AcDb2dVertex
 10
88.796463
 20
152.516146
 30
0.0
  0
VERTEX
  5
C8
330
AB
100
AcDbEntity
  8
001
 62
   140
370
    30
100
AcDbVertex
100
AcDb2dVertex
 10
89.042366
 20
152.799348
 30
0.0
  0
VERTEX
  5
C9
330
AB
100
AcDbEntity
  8
001
 62
   140
370
    30
100
AcDbVertex
100
AcDb2dVertex
 10
89.309877
 20
153.061172
 30
0.0
  0
VERTEX
  5
CA
330
AB
100
AcDbEntity
  8
001
 62
   140
370
    30
100
AcDbVertex
100
AcDb2dVertex
 10
89.605858
 20
153.30705
 30
0.0
  0
VERTEX
  5
CB
330
AB
100
AcDbEntity
  8
001
 62
   140
370
    30
100
AcDbVertex
100
AcDb2dVertex
 10
89.921098
 20
153.527969
 30
0.0
  0
VERTEX
  5
CC
330
AB
100
AcDbEntity
  8
001
 62
   140
370
    30
100
AcDbVertex
100
AcDb2dVertex
 10
90.257664
 20
153.724818
 30
0.0
  0
VERTEX
  5
CD
330
AB
100
AcDbEntity
  8
001
 62
   140
370
    30
100
AcDbVertex
100
AcDb2dVertex
 10
90.609044
 20
153.894114
 30
0.0
  0
VERTEX
  5
CE
330
AB
100
AcDbEntity
  8
001
 62
   140
370
    30
100
AcDbVertex
100
AcDb2dVertex
 10
90.982905
 20
154.038652
 30
0.0
  0
VERTEX
  5
CF
330
AB
100
AcDbEntity
  8
001
 62
   140
370
    30
100
AcDbVertex
100
AcDb2dVertex
 10
91.367447
 20
154.150343
 30
0.0
  0
VERTEX
  5
D0
330
AB
100
AcDbEntity
  8
001
 62
   140
370
    30
100
AcDbVertex
100
AcDb2dVertex
 10
91.516293
 20
154.183982
 30
0.0
  0
VERTEX
  5
D1
330
AB
100
AcDbEntity
  8
001
 62
   140
370
    30
100
AcDbVertex
100
AcDb2dVertex
 10
91.665741
 20
154.214964
 30
0.0
  0
SEQEND
  5
AC
330
AB
100
AcDbEntity
  8
001
370
    30
  0
POLYLINE
  5
D2
330
A8
100
AcDbEntity
  8
001
 62
   140
370
    30
100
AcDb2dPolyline
 66
     1
 10
0.0
 20
0.0
 30
0.0
  0
VERTEX
  5
D4
330
D2
100
AcDbEntity
  8
001
 62
   140
370
    30
100
AcDbVertex
100
AcDb2dVertex
 10
91.665741
 20
154.214964
 30
0.0
  0
VERTEX
  5
D5
330
D2
100
AcDbEntity
  8
001
 62
   140
370
    30
100
AcDbVertex
100
AcDb2dVertex
 10
91.843322
 20
154.223081
 30
0.0
  0
VERTEX
  5
D6
330
D2
100
AcDbEntity
  8
001
 62
   140
370
    30
100
AcDbVertex
100
AcDb2dVertex
 10
92.020958
 20
154.227193
 30
0.0
  0
VERTEX
  5
D7
330
D2
100
AcDbEntity
  8
001
 62
   140
370
    30
100
AcDbVertex
100
AcDb2dVertex
 10
92.198657
 20
154.22414
 30
0.0
  0
VERTEX
  5
D8
330
D2
100
AcDbEntity
  8
001
 62
   140
370
    30
100
AcDbVertex
100
AcDb2dVertex
 10
92.376166
 20
154.214155
 30
0.0
  0
VERTEX
  5
D9
330
D2
100
AcDbEntity
  8
001
 62
   140
370
    30
100
AcDbVertex
100
AcDb2dVertex
 10
92.553269
 20
154.198086
 30
0.0
  0
VERTEX
  5
DA
330
D2
100
AcDbEntity
  8
001
 62
   140
370
    30
100
AcDbVertex
100
AcDb2dVertex
 10
92.729681
 20
154.175896
 30
0.0
  0
VERTEX
  5
DB
330
D2
100
AcDbEntity
  8
001
 62
   140
370
    30
100
AcDbVertex
100
AcDb2dVertex
 10
92.90506
 20
154.147409
 30
0.0
  0
VERTEX
  5
DC
330
D2
100
AcDbEntity
  8
001
 62
   140
370
    30
100
AcDbVertex
100
AcDb2dVertex
 10
93.07932
 20
154.112666
 30
0.0
  0
VERTEX
  5
DD
330
D2
100
AcDbEntity
  8
001
 62
   140
370
    30
100
AcDbVertex
100
AcDb2dVertex
 10
93.252391
 20
154.071728
 30
0.0
  0
VERTEX
  5
DE
330
D2
100
AcDbEntity
  8
001
 62
   140
370
    30
100
AcDbVertex
100
AcDb2dVertex
 10
93.423896
 20
154.024674
 30
0.0
  0
VERTEX
  5
DF
330
D2
100
AcDbEntity
  8
001
 62
   140
370
    30
100
AcDbVertex
100
AcDb2dVertex
 10
93.593461
 20
153.971598
 30
0.0
  0
VERTEX
  5
E0
330
D2
100
AcDbEntity
  8
001
 62
   140
370
    30
100
AcDbVertex
100
AcDb2dVertex
 10
93.761033
 20
153.912528
 30
0.0
  0
VERTEX
  5
E1
330
D2
100
AcDbEntity
  8
001
 62
   140
370
    30
100
AcDbVertex
100
AcDb2dVertex
 10
93.926537
 20
153.847486
 30
0.0
  0
VERTEX
  5
E2
330
D2
100
AcDbEntity
  8
001
 62
   140
370
    30
100
AcDbVertex
100
AcDb2dVertex
 10
94.089624
 20
153.776601
 30
0.0
  0
VERTEX
  5
E3
330
D2
100
AcDbEntity
  8
001
 62
   140
370
    30
100
AcDbVertex
100
AcDb2dVertex
 10
94.250005
 20
153.700002
 30
0.0
  0
VERTEX
  5
E4
330
D2
100
AcDbEntity
  8
001
 62
   140
370
    30
100
AcDbVertex
100
AcDb2dVertex
 10
94.407564
 20
153.61775
 30
0.0
  0
VERTEX
  5
E5
330
D2
100
AcDbEntity
  8
001
 62
   140
370
    30
100
AcDbVertex
100
AcDb2dVertex
 10
94.562119
 20
153.529939
 30
0.0
  0
VERTEX
  5
E6
330
D2
100
AcDbEntity
  8
001
 62
   140
370
    30
100
AcDbVertex
100
AcDb2dVertex
 10
94.713455
 20
153.43669
 30
0.0
  0
VERTEX
  5
E7
330
D2
100
AcDbEntity
  8
001
 62
   140
370
    30
100
AcDbVertex
100
AcDb2dVertex
 10
94.861426
 20
153.338089
 30
0.0
  0
VERTEX
  5
E8
330
D2
100
AcDbEntity
  8
001
 62
   140
370
    30
100
AcDbVertex
100
AcDb2dVertex
 10
95.005798
 20
153.234289
 30
0.0
  0
VERTEX
  5
E9
330
D2
100
AcDbEntity
  8
001
 62
   140
370
    30
100
AcDbVertex
100
AcDb2dVertex
 10
95.146287
 20
153.1255
 30
0.0
  0
VERTEX
  5
EA
330
D2
100
AcDbEntity
  8
001
 62
   140
370
    30
100
AcDbVertex
100
AcDb2dVertex
 10
95.282824
 20
153.011789
 30
0.0
  0
VERTEX
  5
EB
330
D2
100
AcDbEntity
  8
001
 62
   140
370
    30
100
AcDbVertex
100
AcDb2dVertex
 10
95.415349
 20
152.89319
 30
0.0
  0
VERTEX
  5
EC
330
D2
100
AcDbEntity
  8
001
 62
   140
370
    30
100
AcDbVertex
100
AcDb2dVertex
 10
95.543574
 20
152.769953
 30
0.0
  0
VERTEX
  5
ED
330
D2
100
AcDbEntity
  8
001
 62
   140
370
    30
100
AcDbVertex
100
AcDb2dVertex
 10
95.667219
 20
152.642357
 30
0.0
  0
VERTEX
  5
EE
330
D2
100
AcDbEntity
  8
001
 62
   140
370
    30
100
AcDbVertex
100
AcDb2dVertex
 10
95.786252
 20
152.510449
 30
0.0
  0
VERTEX
  5
EF
330
D2
100
AcDbEntity
  8
001
 62
   140
370
    30
100
AcDbVertex
100
AcDb2dVertex
 10
95.90062
 20
152.374276
 30
0.0
  0
VERTEX
  5
F0
330
D2
100
AcDbEntity
  8
001
 62
   140
370
    30
100
AcDbVertex
100
AcDb2dVertex
 10
96.010073
 20
152.234123
 30
0.0
  0
VERTEX
  5
F1
330
D2
100
AcDbEntity
  8
001
 62
   140
370
    30
100
AcDbVertex
100
AcDb2dVertex
 10
96.114418
 20
152.090247
 30
0.0
  0
VERTEX
  5
F2
330
D2
100
AcDbEntity
  8
001
 62
   140
370
    30
100
AcDbVertex
100
AcDb2dVertex
 10
96.21358
 20
151.942754
 30
0.0
  0
VERTEX
  5
F3
330
D2
100
AcDbEntity
  8
001
 62
   140
370
    30
100
AcDbVertex
100
AcDb2dVertex
 10
96.307452
 20
151.791798
 30
0.0
  0
VERTEX
  5
F4
330
D2
100
AcDbEntity
  8
001
 62
   140
370
    30
100
AcDbVertex
100
AcDb2dVertex
 10
96.39591
 20
151.637603
 30
0.0
  0
VERTEX
  5
F5
330
D2
100
AcDbEntity
  8
001
 62
   140
370
    30
100
AcDbVertex
100
AcDb2dVertex
 10
96.478866
 20
151.480324
 30
0.0
  0
VERTEX
  5
F6
330
D2
100
AcDbEntity
  8
001
 62
   140
370
    30
100
AcDbVertex
100
AcDb2dVertex
 10
96.556135
 20
151.320188
 30
0.0
  0
VERTEX
  5
F7
330
D2
100
AcDbEntity
  8
001
 62
   140
370
    30
100
AcDbVertex
100
AcDb2dVertex
 10
96.627555
 20
151.157501
 30
0.0
  0
VERTEX
  5
F8
330
D2
100
AcDbEntity
  8
001
 62
   140
370
    30
100
AcDbVertex
100
AcDb2dVertex
 10
96.693313
 20
150.992412
 30
0.0
  0
VERTEX
  5
F9
330
D2
100
AcDbEntity
  8
001
 62
   140
370
    30
100
AcDbVertex
100
AcDb2dVertex
 10
96.753433
 20
150.824997
 30
0.0
  0
VERTEX
  5
FA
330
D2
100
AcDbEntity
  8
001
 62
   140
370
    30
100
AcDbVertex
100
AcDb2dVertex
 10
96.806954
 20
150.655426
 30
0.0
  0
VERTEX
  5
FB
330
D2
100
AcDbEntity
  8
001
 62
   140
370
    30
100
AcDbVertex
100
AcDb2dVertex
 10
96.853543
 20
150.484028
 30
0.0
  0
VERTEX
  5
FC
330
D2
100
AcDbEntity
  8
001
 62
   140
370
    30
100
AcDbVertex
100
AcDb2dVertex
 10
96.89628
 20
150.311545
 30
0.0
  0
SEQEND
  5
D3
330
D2
100
AcDbEntity
  8
001
370
    30
  0
POLYLINE
  5
FD
330
A8
100
AcDbEntity
  8
001
 62
   140
370
    30
100
AcDb2dPolyline
 66
     1
 10
0.0
 20
0.0
 30
0.0
  0
VERTEX
  5
FF
330
FD
100
AcDbEntity
  8
001
 62
   140
370
    30
100
AcDbVertex
100
AcDb2dVertex
 10
96.89628
 20
150.311545
 30
0.0
  0
VERTEX
  5
100
330
FD
100
AcDbEntity
  8
001
 62
   140
370
    30
100
AcDbVertex
100
AcDb2dVertex
 10
96.919507
 20
150.198687
 30
0.0
  0
VERTEX
  5
101
330
FD
100
AcDbEntity
  8
001
 62
   140
370
    30
100
AcDbVertex
100
AcDb2dVertex
 10
96.941054
 20
150.085524
 30
0.0
  0
VERTEX
  5
102
330
FD
100
AcDbEntity
  8
001
 62
   140
370
    30
100
AcDbVertex
100
AcDb2dVertex
 10
96.959618
 20
149.971808
 30
0.0
  0
VERTEX
  5
103
330
FD
100
AcDbEntity
  8
001
 62
   140
370
    30
100
AcDbVertex
100
AcDb2dVertex
 10
96.975372
 20
149.857642
 30
0.0
  0
VERTEX
  5
104
330
FD
100
AcDbEntity
  8
001
 62
   140
370
    30
100
AcDbVertex
100
AcDb2dVertex
 10
96.988668
 20
149.743267
 30
0.0
  0
VERTEX
  5
105
330
FD
100
AcDbEntity
  8
001
 62
   140
370
    30
100
AcDbVertex
100
AcDb2dVertex
 10
96.999137
 20
149.628625
 30
0.0
  0
VERTEX
  5
106
330
FD
100
AcDbEntity
  8
001
 62
   140
370
    30
100
AcDbVertex
100
AcDb2dVertex
 10
97.006586
 20
149.513738
 30
0.0
  0
VERTEX
  5
107
330
FD
100
AcDbEntity
  8
001
 62
   140
370
    30
100
AcDbVertex
100
AcDb2dVertex
 10
97.012334
 20
149.398727
 30
0.0
  0
SEQEND
  5
FE
330
FD
100
AcDbEntity
  8
001
370
    30
  0
POLYLINE
  5
108
330
A8
100
AcDbEntity
  8
001
 62
   140
370
    30
100
AcDb2dPolyline
 66
     1
 10
0.0
 20
0.0
 30
0.0
  0
VERTEX
  5
10A
330
108
100
AcDbEntity
  8
001
 62
   140
370
    30
100
AcDbVertex
100
AcDb2dVertex
 10
97.012334
 20
149.398727
 30
0.0
  0
VERTEX
  5
10B
330
108
100
AcDbEntity
  8
001
 62
   140
370
    30
100
AcDbVertex
100
AcDb2dVertex
 10
97.014641
 20
149.281101
 30
0.0
  0
VERTEX
  5
10C
330
108
100
AcDbEntity
  8
001
 62
   140
370
    30
100
AcDbVertex
100
AcDb2dVertex
 10
97.014872
 20
149.163502
 30
0.0
  0
VERTEX
  5
10D
330
108
100
AcDbEntity
  8
001
 62
   140
370
    30
100
AcDbVertex
100
AcDb2dVertex
 10
97.011646
 20
149.045982
 30
0.0
  0
VERTEX
  5
10E
330
108
100
AcDbEntity
  8
001
 62
   140
370
    30
100
AcDbVertex
100
AcDb2dVertex
 10
97.006347
 20
148.928488
 30
0.0
  0
SEQEND
  5
109
330
108
100
AcDbEntity
  8
001
370
    30
  0
POLYLINE
  5
10F
330
A8
100
AcDbEntity
  8
001
 62
   140
370
    30
100
AcDb2dPolyline
 66
     1
 10
0.0
 20
0.0
 30
0.0
  0
VERTEX
  5
111
330
10F
100
AcDbEntity
  8
001
 62
   140
370
    30
100
AcDbVertex
100
AcDb2dVertex
 10
97.006347
 20
148.928488
 30
0.0
  0
VERTEX
  5
112
330
10F
100
AcDbEntity
  8
001
 62
   140
370
    30
100
AcDbVertex
100
AcDb2dVertex
 10
96.997679
 20
148.81374
 30
0.0
  0
VERTEX
  5
113
330
10F
100
AcDbEntity
  8
001
 62
   140
370
    30
100
AcDbVertex
100
AcDb2dVertex
 10
96.987317
 20
148.699159
 30
0.0
  0
VERTEX
  5
114
330
10F
100
AcDbEntity
  8
001
 62
   140
370
    30
100
AcDbVertex
100
AcDb2dVertex
 10
96.973932
 20
148.584782
 30
0.0
  0
VERTEX
  5
115
330
10F
100
AcDbEntity
  8
001
 62
   140
370
    30
100
AcDbVertex
100
AcDb2dVertex
 10
96.957724
 20
148.470743
 30
0.0
  0
VERTEX
  5
116
330
10F
100
AcDbEntity
  8
001
 62
   140
370
    30
100
AcDbVertex
100
AcDb2dVertex
 10
96.939075
 20
148.357043
 30
0.0
  0
VERTEX
  5
117
330
10F
100
AcDbEntity
  8
001
 62
   140
370
    30
100
AcDbVertex
100
AcDb2dVertex
 10
96.91763
 20
148.243863
 30
0.0
  0
VERTEX
  5
118
330
10F
100
AcDbEntity
  8
001
 62
   140
370
    30
100
AcDbVertex
100
AcDb2dVertex
 10
96.893233
 20
148.131377
 30
0.0
  0
VERTEX
  5
119
330
10F
100
AcDbEntity
  8
001
 62
   140
370
    30
100
AcDbVertex
100
AcDb2dVertex
 10
96.867168
 20
148.019239
 30
0.0
  0
SEQEND
  5
110
330
10F
100
AcDbEntity
  8
001
370
    30
  0
POLYLINE
  5
11A
330
A8
100
AcDbEntity
  8
001
 62
   140
370
    30
100
AcDb2dPolyline
 66
     1
 10
0.0
 20
0.0
 30
0.0
  0
VERTEX
  5
11C
330
11A
100
AcDbEntity
  8
001
 62
   140
370
    30
100
AcDbVertex
100
AcDb2dVertex
 10
87.102778
 20
148.295879
 30
0.0
  0
VERTEX
  5
11D
330
11A
100
AcDbEntity
  8
001
 62
   140
370
    30
100
AcDbVertex
100
AcDb2dVertex
 10
87.151324
 20
148.1023
 30
0.0
  0
VERTEX
  5
11E
330
11A
100
AcDbEntity
  8
001
 62
   140
370
    30
100
AcDbVertex
100
AcDb2dVertex
 10
87.204422
 20
147.910009
 30
0.0
  0
VERTEX
  5
11F
330
11A
100
AcDbEntity
  8
001
 62
   140
370
    30
100
AcDbVertex
100
AcDb2dVertex
 10
87.336027
 20
147.532137
 30
0.0
  0
VERTEX
  5
120
330
11A
100
AcDbEntity
  8
001
 62
   140
370
    30
100
AcDbVertex
100
AcDb2dVertex
 10
87.499699
 20
147.166483
 30
0.0
  0
VERTEX
  5
121
330
11A
100
AcDbEntity
  8
001
 62
   140
370
    30
100
AcDbVertex
100
AcDb2dVertex
 10
87.697199
 20
146.805661
 30
0.0
  0
VERTEX
  5
122
330
11A
100
AcDbEntity
  8
001
 62
   140
370
    30
100
AcDbVertex
100
AcDb2dVertex
 10
87.923368
 20
146.462353
 30
0.0
  0
VERTEX
  5
123
330
11A
100
AcDbEntity
  8
001
 62
   140
370
    30
100
AcDbVertex
100
AcDb2dVertex
 10
88.170487
 20
146.147408
 30
0.0
  0
VERTEX
  5
124
330
11A
100
AcDbEntity
  8
001
 62
   140
370
    30
100
AcDbVertex
100
AcDb2dVertex
 10
88.442518
 20
145.853603
 30
0.0
  0
VERTEX
  5
125
330
11A
100
AcDbEntity
  8
001
 62
   140
370
    30
100
AcDbVertex
100
AcDb2dVertex
 10
88.746058
 20
145.575742
 30
0.0
  0
VERTEX
  5
126
330
11A
100
AcDbEntity
  8
001
 62
   140
370
    30
100
AcDbVertex
100
AcDb2dVertex
 10
89.071792
 20
145.324305
 30
0.0
  0
VERTEX
  5
127
330
11A
100
AcDbEntity
  8
001
 62
   140
370
    30
100
AcDbVertex
100
AcDb2dVertex
 10
89.414868
 20
145.102767
 30
0.0
  0
VERTEX
  5
128
330
11A
100
AcDbEntity
  8
001
 62
   140
370
    30
100
AcDbVertex
100
AcDb2dVertex
 10
89.775302
 20
144.910718
 30
0.0
  0
VERTEX
  5
129
330
11A
100
AcDbEntity
  8
001
 62
   140
370
    30
100
AcDbVertex
100
AcDb2dVertex
 10
90.161924
 20
144.74533
 30
0.0
  0
VERTEX
  5
12A
330
11A
100
AcDbEntity
  8
001
 62
   140
370
    30
100
AcDbVertex
100
AcDb2dVertex
 10
90.561406
 20
144.61404
 30
0.0
  0
VERTEX
  5
12B
330
11A
100
AcDbEntity
  8
001
 62
   140
370
    30
100
AcDbVertex
100
AcDb2dVertex
 10
90.954716
 20
144.521051
 30
0.0
  0
VERTEX
  5
12C
330
11A
100
AcDbEntity
  8
001
 62
   140
370
    30
100
AcDbVertex
100
AcDb2dVertex
 10
91.35443
 20
144.461317
 30
0.0
  0
VERTEX
  5
12D
330
11A
100
AcDbEntity
  8
001
 62
   140
370
    30
100
AcDbVertex
100
AcDb2dVertex
 10
91.769749
 20
144.435126
 30
0.0
  0
VERTEX
  5
12E
330
11A
100
AcDbEntity
  8
001
 62
   140
370
    30
100
AcDbVertex
100
AcDb2dVertex
 10
92.185772
 20
144.445003
 30
0.0
  0
VERTEX
  5
12F
330
11A
100
AcDbEntity
  8
001
 62
   140
370
    30
100
AcDbVertex
100
AcDb2dVertex
 10
92.583264
 20
144.48855
 30
0.0
  0
VERTEX
  5
130
330
11A
100
AcDbEntity
  8
001
 62
   140
370
    30
100
AcDbVertex
100
AcDb2dVertex
 10
92.975712
 20
144.565225
 30
0.0
  0
VERTEX
  5
131
330
11A
100
AcDbEntity
  8
001
 62
   140
370
    30
100
AcDbVertex
100
AcDb2dVertex
 10
93.371601
 20
144.678347
 30
0.0
  0
VERTEX
  5
132
330
11A
100
AcDbEntity
  8
001
 62
   140
370
    30
100
AcDbVertex
100
AcDb2dVertex
 10
93.756201
 20
144.825336
 30
0.0
  0
VERTEX
  5
133
330
11A
100
AcDbEntity
  8
001
 62
   140
370
    30
100
AcDbVertex
100
AcDb2dVertex
 10
94.112328
 20
144.997562
 30
0.0
  0
VERTEX
  5
134
330
11A
100
AcDbEntity
  8
001
 62
   140
370
    30
100
AcDbVertex
100
AcDb2dVertex
 10
94.45278
 20
145.199003
 30
0.0
  0
VERTEX
  5
135
330
11A
100
AcDbEntity
  8
001
 62
   140
370
    30
100
AcDbVertex
100
AcDb2dVertex
 10
94.784369
 20
145.435566
 30
0.0
  0
VERTEX
  5
136
330
11A
100
AcDbEntity
  8
001
 62
   140
370
    30
100
AcDbVertex
100
AcDb2dVertex
 10
95.094214
 20
145.699965
 30
0.0
  0
VERTEX
  5
137
330
11A
100
AcDbEntity
  8
001
 62
   140
370
    30
100
AcDbVertex
100
AcDb2dVertex
 10
95.36912
 20
145.97843
 30
0.0
  0
VERTEX
  5
138
330
11A
100
AcDbEntity
  8
001
 62
   140
370
    30
100
AcDbVertex
100
AcDb2dVertex
 10
95.619738
 20
146.278938
 30
0.0
  0
VERTEX
  5
139
330
11A
100
AcDbEntity
  8
001
 62
   140
370
    30
100
AcDbVertex
100
AcDb2dVertex
 10
95.850462
 20
146.609251
 30
0.0
  0
VERTEX
  5
13A
330
11A
100
AcDbEntity
  8
001
 62
   140
370
    30
100
AcDbVertex
100
AcDb2dVertex
 10
96.051693
 20
146.958312
 30
0.0
  0
VERTEX
  5
13B
330
11A
100
AcDbEntity
  8
001
 62
   140
370
    30
100
AcDbVertex
100
AcDb2dVertex
 10
96.215675
 20
147.308869
 30
0.0
  0
VERTEX
  5
13C
330
11A
100
AcDbEntity
  8
001
 62
   140
370
    30
100
AcDbVertex
100
AcDb2dVertex
 10
96.349718
 20
147.671927
 30
0.0
  0
VERTEX
  5
13D
330
11A
100
AcDbEntity
  8
001
 62
   140
370
    30
100
AcDbVertex
100
AcDb2dVertex
 10
96.455345
 20
148.056178
 30
0.0
  0
VERTEX
  5
13E
330
11A
100
AcDbEntity
  8
001
 62
   140
370
    30
100
AcDbVertex
100
AcDb2dVertex
 10
96.527271
 20
148.448134
 30
0.0
  0
VERTEX
  5
13F
330
11A
100
AcDbEntity
  8
001
 62
   140
370
    30
100
AcDbVertex
100
AcDb2dVertex
 10
96.563978
 20
148.829097
 30
0.0
  0
VERTEX
  5
140
330
11A
100
AcDbEntity
  8
001
 62
   140
370
    30
100
AcDbVertex
100
AcDb2dVertex
 10
96.568643
 20
149.211795
 30
0.0
  0
VERTEX
  5
141
330
11A
100
AcDbEntity
  8
001
 62
   140
370
    30
100
AcDbVertex
100
AcDb2dVertex
 10
96.539806
 20
149.604832
 30
0.0
  0
VERTEX
  5
142
330
11A
100
AcDbEntity
  8
001
 62
   140
370
    30
100
AcDbVertex
100
AcDb2dVertex
 10
96.477006
 20
149.993886
 30
0.0
  0
VERTEX
  5
143
330
11A
100
AcDbEntity
  8
001
 62
   140
370
    30
100
AcDbVertex
100
AcDb2dVertex
 10
96.385037
 20
150.360981
 30
0.0
  0
VERTEX
  5
144
330
11A
100
AcDbEntity
  8
001
 62
   140
370
    30
100
AcDbVertex
100
AcDb2dVertex
 10
96.262638
 20
150.71908
 30
0.0
  0
VERTEX
  5
145
330
11A
100
AcDbEntity
  8
001
 62
   140
370
    30
100
AcDbVertex
100
AcDb2dVertex
 10
96.105594
 20
151.075716
 30
0.0
  0
VERTEX
  5
146
330
11A
100
AcDbEntity
  8
001
 62
   140
370
    30
100
AcDbVertex
100
AcDb2dVertex
 10
95.918222
 20
151.417389
 30
0.0
  0
VERTEX
  5
147
330
11A
100
AcDbEntity
  8
001
 62
   140
370
    30
100
AcDbVertex
100
AcDb2dVertex
 10
95.71097
 20
151.728897
 30
0.0
  0
VERTEX
  5
148
330
11A
100
AcDbEntity
  8
001
 62
   140
370
    30
100
AcDbVertex
100
AcDb2dVertex
 10
95.478348
 20
152.021944
 30
0.0
  0
VERTEX
  5
149
330
11A
100
AcDbEntity
  8
001
 62
   140
370
    30
100
AcDbVertex
100
AcDb2dVertex
 10
95.21393
 20
152.302154
 30
0.0
  0
VERTEX
  5
14A
330
11A
100
AcDbEntity
  8
001
 62
   140
370
    30
100
AcDbVertex
100
AcDb2dVertex
 10
94.926213
 20
152.558372
 30
0.0
  0
VERTEX
  5
14B
330
11A
100
AcDbEntity
  8
001
 62
   140
370
    30
100
AcDbVertex
100
AcDb2dVertex
 10
94.630009
 20
152.779866
 30
0.0
  0
VERTEX
  5
14C
330
11A
100
AcDbEntity
  8
001
 62
   140
370
    30
100
AcDbVertex
100
AcDb2dVertex
 10
94.316283
 20
152.975769
 30
0.0
  0
VERTEX
  5
14D
330
11A
100
AcDbEntity
  8
001
 62
   140
370
    30
100
AcDbVertex
100
AcDb2dVertex
 10
93.977183
 20
153.1492
 30
0.0
  0
VERTEX
  5
14E
330
11A
100
AcDbEntity
  8
001
 62
   140
370
    30
100
AcDbVertex
100
AcDb2dVertex
 10
93.624341
 20
153.292516
 30
0.0
  0
VERTEX
  5
14F
330
11A
100
AcDbEntity
  8
001
 62
   140
370
    30
100
AcDbVertex
100
AcDb2dVertex
 10
93.310037
 20
153.391239
 30
0.0
  0
VERTEX
  5
150
330
11A
100
AcDbEntity
  8
001
 62
   140
370
    30
100
AcDbVertex
100
AcDb2dVertex
 10
92.989225
 20
153.466063
 30
0.0
  0
VERTEX
  5
151
330
11A
100
AcDbEntity
  8
001
 62
   140
370
    30
100
AcDbVertex
100
AcDb2dVertex
 10
92.65604
 20
153.517601
 30
0.0
  0
VERTEX
  5
152
330
11A
100
AcDbEntity
  8
001
 62
   140
370
    30
100
AcDbVertex
100
AcDb2dVertex
 10
92.319891
 20
153.543645
 30
0.0
  0
VERTEX
  5
153
330
11A
100
AcDbEntity
  8
001
 62
   140
370
    30
100
AcDbVertex
100
AcDb2dVertex
 10
91.990427
 20
153.544355
 30
0.0
  0
VERTEX
  5
154
330
11A
100
AcDbEntity
  8
001
 62
   140
370
    30
100
AcDbVertex
100
AcDb2dVertex
 10
91.661832
 20
153.520556
 30
0.0
  0
VERTEX
  5
155
330
11A
100
AcDbEntity
  8
001
 62
   140
370
    30
100
AcDbVertex
100
AcDb2dVertex
 10
91.328384
 20
153.470854
 30
0.0
  0
VERTEX
  5
156
330
11A
100
AcDbEntity
  8
001
 62
   140
370
    30
100
AcDbVertex
100
AcDb2dVertex
 10
90.999704
 20
153.395771
 30
0.0
  0
VERTEX
  5
157
330
11A
100
AcDbEntity
  8
001
 62
   140
370
    30
100
AcDbVertex
100
AcDb2dVertex
 10
90.649967
 20
153.285771
 30
0.0
  0
VERTEX
  5
158
330
11A
100
AcDbEntity
  8
001
 62
   140
370
    30
100
AcDbVertex
100
AcDb2dVertex
 10
90.310543
 20
153.146996
 30
0.0
  0
VERTEX
  5
159
330
11A
100
AcDbEntity
  8
001
 62
   140
370
    30
100
AcDbVertex
100
AcDb2dVertex
 10
89.974432
 20
152.975065
 30
0.0
  0
VERTEX
  5
15A
330
11A
100
AcDbEntity
  8
001
 62
   140
370
    30
100
AcDbVertex
100
AcDb2dVertex
 10
89.654495
 20
152.774931
 30
0.0
  0
VERTEX
  5
15B
330
11A
100
AcDbEntity
  8
001
 62
   140
370
    30
100
AcDbVertex
100
AcDb2dVertex
 10
89.45488
 20
152.629255
 30
0.0
  0
VERTEX
  5
15C
330
11A
100
AcDbEntity
  8
001
 62
   140
370
    30
100
AcDbVertex
100
AcDb2dVertex
 10
89.263507
 20
152.472841
 30
0.0
  0
VERTEX
  5
15D
330
11A
100
AcDbEntity
  8
001
 62
   140
370
    30
100
AcDbVertex
100
AcDb2dVertex
 10
89.078539
 20
152.304035
 30
0.0
  0
VERTEX
  5
15E
330
11A
100
AcDbEntity
  8
001
 62
   140
370
    30
100
AcDbVertex
100
AcDb2dVertex
 10
88.904305
 20
152.12441
 30
0.0
  0
VERTEX
  5
15F
330
11A
100
AcDbEntity
  8
001
 62
   140
370
    30
100
AcDbVertex
100
AcDb2dVertex
 10
88.780565
 20
151.982025
 30
0.0
  0
VERTEX
  5
160
330
11A
100
AcDbEntity
  8
001
 62
   140
370
    30
100
AcDbVertex
100
AcDb2dVertex
 10
88.660489
 20
151.836395
 30
0.0
  0
SEQEND
  5
11B
330
11A
100
AcDbEntity
  8
001
370
    30
  0
ARC
  5
161
330
A8
100
AcDbEntity
  8
001
 62
   140
370
    30
100
AcDbCircle
 10
92.015278
 20
149.227196
 30
0.0
 40
5.0
100
AcDbArc
 50
94.008667
 51
190.734798
  0
CIRCLE
  5
162
330
A8
100
AcDbEntity
  8
001
 62
   140
370
    30
100
AcDbCircle
 10
92.015278
 20
149.227196
 30
0.0
 40
4.188
  0
LINE
  5
163
330
A8
100
AcDbEntity
  8
001
 62
   140
370
    30
100
AcDbLine
 10
92.015278
 20
146.340445
 30
0.0
 11
89.515278
 21
147.78382
 31
0.0
  0
LINE
  5
164
330
A8
100
AcDbEntity
  8
001
 62
   140
370
    30
100
AcDbLine
 10
92.015278
 20
152.113947
 30
0.0
 11
94.515278
 21
150.670572
 31
0.0
  0
LINE
  5
165
330
A8
100
AcDbEntity
  8
001
 62
   140
370
    30
100
AcDbLine
 10
89.515278
 20
150.670572
 30
0.0
 11
92.015278
 21
152.113947
 31
0.0
  0
LINE
  5
166
330
A8
100
AcDbEntity
  8
001
 62
   140
370
    30
100
AcDbLine
 10
89.515278
 20
147.78382
 30
0.0
 11
89.515278
 21
150.670572
 31
0.0
  0
LINE
  5
167
330
A8
100
AcDbEntity
  8
001
 62
   140
370
    30
100
AcDbLine
 10
94.515278
 20
150.670572
 30
0.0
 11
94.515278
 21
147.78382
 31
0.0
  0
LINE
  5
168
330
A8
100
AcDbEntity
  8
001
 62
   140
370
    30
100
AcDbLine
 10
94.515278
 20
147.78382
 30
0.0
 11
92.015278
 21
146.340445
 31
0.0
  0
ENDBLK
  5
AA
330
A8
100
AcDbEntity
  8
0
100
AcDbBlockEnd
  0
BLOCK
  5
16A
330
169
100
AcDbEntity
  8
0
100
AcDbBlockBegin
  2
JZB-3
 70
     0
 10
0.0
 20
0.0
 30
0.0
  3
JZB-3
  1

  0
LINE
  5
16C
330
169
100
AcDbEntity
  8
001
 62
   140
370
    30
100
AcDbLine
 10
250.431954
 20
149.168604
 30
0.0
 11
250.431954
 21
149.285789
 31
0.0
  0
ENDBLK
  5
16B
330
169
100
AcDbEntity
  8
0
100
AcDbBlockEnd
  0
BLOCK
  5
16E
330
16D
100
AcDbEntity
  8
0
100
AcDbBlockBegin
  2
JZB-4
 70
     0
 10
0.0
 20
0.0
 30
0.0
  3
JZB-4
  1

  0
LINE
  5
170
330
16D
100
AcDbEntity
  8
001
 62
   140
370
    30
100
AcDbLine
 10
96.5675
 20
73.504076
 30
0.0
 11
96.203278
 21
73.868298
 31
0.0
  0
LINE
  5
171
330
16D
100
AcDbEntity
  8
001
 62
   140
370
    30
100
AcDbLine
 10
87.827278
 20
73.868298
 30
0.0
 11
87.153374
 21
73.194394
 31
0.0
  0
POLYLINE
  5
172
330
16D
100
AcDbEntity
  8
001
 62
   140
370
    30
100
AcDb2dPolyline
 66
     1
 10
0.0
 20
0.0
 30
0.0
  0
VERTEX
  5
174
330
172
100
AcDbEntity
  8
001
 62
   140
370
    30
100
AcDbVertex
100
AcDb2dVertex
 10
87.647604
 20
73.102318
 30
0.0
  0
VERTEX
  5
175
330
172
100
AcDbEntity
  8
001
 62
   140
370
    30
100
AcDbVertex
100
AcDb2dVertex
 10
87.785479
 20
73.11024
 30
0.0
  0
VERTEX
  5
176
330
172
100
AcDbEntity
  8
001
 62
   140
370
    30
100
AcDbVertex
100
AcDb2dVertex
 10
87.923368
 20
73.117869
 30
0.0
  0
VERTEX
  5
177
330
172
100
AcDbEntity
  8
001
 62
   140
370
    30
100
AcDbVertex
100
AcDb2dVertex
 10
88.18291
 20
73.130846
 30
0.0
  0
VERTEX
  5
178
330
172
100
AcDbEntity
  8
001
 62
   140
370
    30
100
AcDbVertex
100
AcDb2dVertex
 10
88.442518
 20
73.142466
 30
0.0
  0
VERTEX
  5
179
330
172
100
AcDbEntity
  8
001
 62
   140
370
    30
100
AcDbVertex
100
AcDb2dVertex
 10
88.75714
 20
73.15557
 30
0.0
  0
VERTEX
  5
17A
330
172
100
AcDbEntity
  8
001
 62
   140
370
    30
100
AcDbVertex
100
AcDb2dVertex
 10
89.071792
 20
73.167876
 30
0.0
  0
VERTEX
  5
17B
330
172
100
AcDbEntity
  8
001
 62
   140
370
    30
100
AcDbVertex
100
AcDb2dVertex
 10
89.423535
 20
73.180859
 30
0.0
  0
VERTEX
  5
17C
330
172
100
AcDbEntity
  8
001
 62
   140
370
    30
100
AcDbVertex
100
AcDb2dVertex
 10
89.775302
 20
73.193225
 30
0.0
  0
VERTEX
  5
17D
330
172
100
AcDbEntity
  8
001
 62
   140
370
    30
100
AcDbVertex
100
AcDb2dVertex
 10
90.168347
 20
73.20654
 30
0.0
  0
VERTEX
  5
17E
330
172
100
AcDbEntity
  8
001
 62
   140
370
    30
100
AcDbVertex
100
AcDb2dVertex
 10
90.561406
 20
73.219465
 30
0.0
  0
VERTEX
  5
17F
330
172
100
AcDbEntity
  8
001
 62
   140
370
    30
100
AcDbVertex
100
AcDb2dVertex
 10
90.957915
 20
73.232229
 30
0.0
  0
VERTEX
  5
180
330
172
100
AcDbEntity
  8
001
 62
   140
370
    30
100
AcDbVertex
100
AcDb2dVertex
 10
91.35443
 20
73.244819
 30
0.0
  0
VERTEX
  5
181
330
172
100
AcDbEntity
  8
001
 62
   140
370
    30
100
AcDbVertex
100
AcDb2dVertex
 10
91.770101
 20
73.257935
 30
0.0
  0
VERTEX
  5
182
330
172
100
AcDbEntity
  8
001
 62
   140
370
    30
100
AcDbVertex
100
AcDb2dVertex
 10
92.185772
 20
73.271066
 30
0.0
  0
VERTEX
  5
183
330
172
100
AcDbEntity
  8
001
 62
   140
370
    30
100
AcDbVertex
100
AcDb2dVertex
 10
92.580744
 20
73.28365
 30
0.0
  0
VERTEX
  5
184
330
172
100
AcDbEntity
  8
001
 62
   140
370
    30
100
AcDbVertex
100
AcDb2dVertex
 10
92.975712
 20
73.296423
 30
0.0
  0
VERTEX
  5
185
330
172
100
AcDbEntity
  8
001
 62
   140
370
    30
100
AcDbVertex
100
AcDb2dVertex
 10
93.365967
 20
73.309328
 30
0.0
  0
VERTEX
  5
186
330
172
100
AcDbEntity
  8
001
 62
   140
370
    30
100
AcDbVertex
100
AcDb2dVertex
 10
93.756201
 20
73.322674
 30
0.0
  0
VERTEX
  5
187
330
172
100
AcDbEntity
  8
001
 62
   140
370
    30
100
AcDbVertex
100
AcDb2dVertex
 10
94.104489
 20
73.335087
 30
0.0
  0
VERTEX
  5
188
330
172
100
AcDbEntity
  8
001
 62
   140
370
    30
100
AcDbVertex
100
AcDb2dVertex
 10
94.45278
 20
73.348033
 30
0.0
  0
VERTEX
  5
189
330
172
100
AcDbEntity
  8
001
 62
   140
370
    30
100
AcDbVertex
100
AcDb2dVertex
 10
94.773558
 20
73.360575
 30
0.0
  0
VERTEX
  5
18A
330
172
100
AcDbEntity
  8
001
 62
   140
370
    30
100
AcDbVertex
100
AcDb2dVertex
 10
95.094214
 20
73.374289
 30
0.0
  0
VERTEX
  5
18B
330
172
100
AcDbEntity
  8
001
 62
   140
370
    30
100
AcDbVertex
100
AcDb2dVertex
 10
95.356886
 20
73.386702
 30
0.0
  0
VERTEX
  5
18C
330
172
100
AcDbEntity
  8
001
 62
   140
370
    30
100
AcDbVertex
100
AcDb2dVertex
 10
95.619738
 20
73.399651
 30
0.0
  0
VERTEX
  5
18D
330
172
100
AcDbEntity
  8
001
 62
   140
370
    30
100
AcDbVertex
100
AcDb2dVertex
 10
95.836106
 20
73.41091
 30
0.0
  0
VERTEX
  5
18E
330
172
100
AcDbEntity
  8
001
 62
   140
370
    30
100
AcDbVertex
100
AcDb2dVertex
 10
96.051693
 20
73.425911
 30
0.0
  0
VERTEX
  5
18F
330
172
100
AcDbEntity
  8
001
 62
   140
370
    30
100
AcDbVertex
100
AcDb2dVertex
 10
96.200068
 20
73.439403
 30
0.0
  0
VERTEX
  5
190
330
172
100
AcDbEntity
  8
001
 62
   140
370
    30
100
AcDbVertex
100
AcDb2dVertex
 10
96.349718
 20
73.451275
 30
0.0
  0
VERTEX
  5
191
330
172
100
AcDbEntity
  8
001
 62
   140
370
    30
100
AcDbVertex
100
AcDb2dVertex
 10
96.440194
 20
73.458131
 30
0.0
  0
VERTEX
  5
192
330
172
100
AcDbEntity
  8
001
 62
   140
370
    30
100
AcDbVertex
100
AcDb2dVertex
 10
96.527271
 20
73.47754
 30
0.0
  0
VERTEX
  5
193
330
172
100
AcDbEntity
  8
001
 62
   140
370
    30
100
AcDbVertex
100
AcDb2dVertex
 10
96.548816
 20
73.486287
 30
0.0
  0
VERTEX
  5
194
330
172
100
AcDbEntity
  8
001
 62
   140
370
    30
100
AcDbVertex
100
AcDb2dVertex
 10
96.570089
 20
73.495964
 30
0.0
  0
SEQEND
  5
173
330
172
100
AcDbEntity
  8
001
370
    30
  0
LINE
  5
195
330
16D
100
AcDbEntity
  8
001
 62
   140
370
    30
100
AcDbLine
 10
96.203278
 20
73.868298
 30
0.0
 11
87.827278
 21
73.868298
 31
0.0
  0
POLYLINE
  5
196
330
16D
100
AcDbEntity
  8
001
 62
   140
370
    30
100
AcDb2dPolyline
 66
     1
 10
0.0
 20
0.0
 30
0.0
  0
VERTEX
  5
198
330
196
100
AcDbEntity
  8
001
 62
   140
370
    30
100
AcDbVertex
100
AcDb2dVertex
 10
96.309622
 20
73.092669
 30
0.0
  0
VERTEX
  5
199
330
196
100
AcDbEntity
  8
001
 62
   140
370
    30
100
AcDbVertex
100
AcDb2dVertex
 10
96.300109
 20
73.105272
 30
0.0
  0
VERTEX
  5
19A
330
196
100
AcDbEntity
  8
001
 62
   140
370
    30
100
AcDbVertex
100
AcDb2dVertex
 10
96.291263
 20
73.118325
 30
0.0
  0
VERTEX
  5
19B
330
196
100
AcDbEntity
  8
001
 62
   140
370
    30
100
AcDbVertex
100
AcDb2dVertex
 10
96.27565
 20
73.151421
 30
0.0
  0
VERTEX
  5
19C
330
196
100
AcDbEntity
  8
001
 62
   140
370
    30
100
AcDbVertex
100
AcDb2dVertex
 10
96.267089
 20
73.187141
 30
0.0
  0
VERTEX
  5
19D
330
196
100
AcDbEntity
  8
001
 62
   140
370
    30
100
AcDbVertex
100
AcDb2dVertex
 10
96.265641
 20
73.201448
 30
0.0
  0
VERTEX
  5
19E
330
196
100
AcDbEntity
  8
001
 62
   140
370
    30
100
AcDbVertex
100
AcDb2dVertex
 10
96.265294
 20
73.215781
 30
0.0
  0
VERTEX
  5
19F
330
196
100
AcDbEntity
  8
001
 62
   140
370
    30
100
AcDbVertex
100
AcDb2dVertex
 10
96.267351
 20
73.240715
 30
0.0
  0
VERTEX
  5
1A0
330
196
100
AcDbEntity
  8
001
 62
   140
370
    30
100
AcDbVertex
100
AcDb2dVertex
 10
96.272691
 20
73.265296
 30
0.0
  0
VERTEX
  5
1A1
330
196
100
AcDbEntity
  8
001
 62
   140
370
    30
100
AcDbVertex
100
AcDb2dVertex
 10
96.287109
 20
73.301592
 30
0.0
  0
VERTEX
  5
1A2
330
196
100
AcDbEntity
  8
001
 62
   140
370
    30
100
AcDbVertex
100
AcDb2dVertex
 10
96.308743
 20
73.333698
 30
0.0
  0
VERTEX
  5
1A3
330
196
100
AcDbEntity
  8
001
 62
   140
370
    30
100
AcDbVertex
100
AcDb2dVertex
 10
96.344434
 20
73.365469
 30
0.0
  0
VERTEX
  5
1A4
330
196
100
AcDbEntity
  8
001
 62
   140
370
    30
100
AcDbVertex
100
AcDb2dVertex
 10
96.385447
 20
73.391541
 30
0.0
  0
VERTEX
  5
1A5
330
196
100
AcDbEntity
  8
001
 62
   140
370
    30
100
AcDbVertex
100
AcDb2dVertex
 10
96.467606
 20
73.438778
 30
0.0
  0
VERTEX
  5
1A6
330
196
100
AcDbEntity
  8
001
 62
   140
370
    30
100
AcDbVertex
100
AcDb2dVertex
 10
96.549684
 20
73.48424
 30
0.0
  0
SEQEND
  5
197
330
196
100
AcDbEntity
  8
001
370
    30
  0
ENDBLK
  5
16F
330
16D
100
AcDbEntity
  8
0
100
AcDbBlockEnd
  0
BLOCK
  5
1A8
330
1A7
100
AcDbEntity
  8
0
100
AcDbBlockBegin
  2
*D5
 70
     1
 10
0.0
 20
0.0
 30
0.0
  3
*D5
  1

  0
LINE
  5
1AA
330
1A7
100
AcDbEntity
  8
001
370
     9
100
AcDbLine
 10
117.015278
 20
126.227196
 30
0.0
 11
117.015278
 21
105.636375
 31
0.0
  0
LINE
  5
1AB
330
1A7
100
AcDbEntity
  8
001
370
     9
100
AcDbLine
 10
102.015278
 20
126.227196
 30
0.0
 11
102.015278
 21
105.636375
 31
0.0
  0
LINE
  5
1AC
330
1A7
100
AcDbEntity
  8
001
370
     9
100
AcDbLine
 10
117.015278
 20
109.073875
 30
0.0
 11
102.015278
 21
109.073875
 31
0.0
  0
POLYLINE
  5
1AD
330
1A7
100
AcDbEntity
  8
001
370
     9
100
AcDb2dPolyline
 66
     1
 10
0.0
 20
0.0
 30
0.0
  0
VERTEX
  5
1AF
330
1AD
100
AcDbEntity
  8
001
370
     9
100
AcDbVertex
100
AcDb2dVertex
 10
118.890278
 20
108.57147
 30
0.0
  0
VERTEX
  5
1B0
330
1AD
100
AcDbEntity
  8
001
370
     9
100
AcDbVertex
100
AcDb2dVertex
 10
117.015278
 20
109.073875
 30
0.0
  0
VERTEX
  5
1B1
330
1AD
100
AcDbEntity
  8
001
370
     9
100
AcDbVertex
100
AcDb2dVertex
 10
118.890278
 20
109.57628
 30
0.0
  0
SEQEND
  5
1AE
330
1AD
100
AcDbEntity
  8
001
370
     9
  0
POLYLINE
  5
1B2
330
1A7
100
AcDbEntity
  8
001
370
     9
100
AcDb2dPolyline
 66
     1
 10
0.0
 20
0.0
 30
0.0
  0
VERTEX
  5
1B4
330
1B2
100
AcDbEntity
  8
001
370
     9
100
AcDbVertex
100
AcDb2dVertex
 10
100.140278
 20
109.57628
 30
0.0
  0
VERTEX
  5
1B5
330
1B2
100
AcDbEntity
  8
001
370
     9
100
AcDbVertex
100
AcDb2dVertex
 10
102.015278
 20
109.073875
 30
0.0
  0
VERTEX
  5
1B6
330
1B2
100
AcDbEntity
  8
001
370
     9
100
AcDbVertex
100
AcDb2dVertex
 10
100.140278
 20
108.57147
 30
0.0
  0
SEQEND
  5
1B3
330
1B2
100
AcDbEntity
  8
001
370
     9
  0
TEXT
  5
1B7
330
1A7
100
AcDbEntity
  8
001
370
    30
100
AcDbText
 10
104.515278
 20
110.323875
 30
0.0
 40
5.0
  1
１５
 41
0.833333
100
AcDbText
  0
POINT
  5
1B8
330
1A7
100
AcDbEntity
  8
001
370
     9
100
AcDbPoint
 10
117.015278
 20
126.227196
 30
0.0
  0
POINT
  5
1B9
330
1A7
100
AcDbEntity
  8
001
370
     9
100
AcDbPoint
 10
102.015278
 20
126.227196
 30
0.0
  0
POINT
  5
1BA
330
1A7
100
AcDbEntity
  8
001
370
     9
100
AcDbPoint
 10
102.015278
 20
109.073875
 30
0.0
  0
LINE
  5
1BB
330
1A7
100
AcDbEntity
  8
001
370
     9
100
AcDbLine
 10
117.015278
 20
109.073875
 30
0.0
 11
120.140278
 21
109.073875
 31
0.0
  0
LINE
  5
1BC
330
1A7
100
AcDbEntity
  8
001
370
     9
100
AcDbLine
 10
102.015278
 20
109.073875
 30
0.0
 11
98.890278
 21
109.073875
 31
0.0
  0
ENDBLK
  5
1A9
330
1A7
100
AcDbEntity
  8
0
100
AcDbBlockEnd
  0
BLOCK
  5
1BE
330
1BD
100
AcDbEntity
  8
0
100
AcDbBlockBegin
  2
*D6
 70
     1
 10
0.0
 20
0.0
 30
0.0
  3
*D6
  1

  0
LINE
  5
1C0
330
1BD
100
AcDbEntity
  8
001
370
     9
100
AcDbLine
 10
102.015278
 20
126.227196
 30
0.0
 11
102.015278
 21
105.636375
 31
0.0
  0
LINE
  5
1C1
330
1BD
100
AcDbEntity
  8
001
370
     9
100
AcDbLine
 10
77.015278
 20
134.423349
 30
0.0
 11
77.015278
 21
105.636375
 31
0.0
  0
LINE
  5
1C2
330
1BD
100
AcDbEntity
  8
001
370
     9
100
AcDbLine
 10
102.015278
 20
109.073875
 30
0.0
 11
77.015278
 21
109.073875
 31
0.0
  0
POLYLINE
  5
1C3
330
1BD
100
AcDbEntity
  8
001
370
     9
100
AcDb2dPolyline
 66
     1
 10
0.0
 20
0.0
 30
0.0
  0
VERTEX
  5
1C5
330
1C3
100
AcDbEntity
  8
001
370
     9
100
AcDbVertex
100
AcDb2dVertex
 10
100.140278
 20
109.57628
 30
0.0
  0
VERTEX
  5
1C6
330
1C3
100
AcDbEntity
  8
001
370
     9
100
AcDbVertex
100
AcDb2dVertex
 10
102.015278
 20
109.073875
 30
0.0
  0
VERTEX
  5
1C7
330
1C3
100
AcDbEntity
  8
001
370
     9
100
AcDbVertex
100
AcDb2dVertex
 10
100.140278
 20
108.57147
 30
0.0
  0
SEQEND
  5
1C4
330
1C3
100
AcDbEntity
  8
001
370
     9
  0
POLYLINE
  5
1C8
330
1BD
100
AcDbEntity
  8
001
370
     9
100
AcDb2dPolyline
 66
     1
 10
0.0
 20
0.0
 30
0.0
  0
VERTEX
  5
1CA
330
1C8
100
AcDbEntity
  8
001
370
     9
100
AcDbVertex
100
AcDb2dVertex
 10
78.890278
 20
108.57147
 30
0.0
  0
VERTEX
  5
1CB
330
1C8
100
AcDbEntity
  8
001
370
     9
100
AcDbVertex
100
AcDb2dVertex
 10
77.015278
 20
109.073875
 30
0.0
  0
VERTEX
  5
1CC
330
1C8
100
AcDbEntity
  8
001
370
     9
100
AcDbVertex
100
AcDb2dVertex
 10
78.890278
 20
109.57628
 30
0.0
  0
SEQEND
  5
1C9
330
1C8
100
AcDbEntity
  8
001
370
     9
  0
TEXT
  5
1CD
330
1BD
100
AcDbEntity
  8
001
370
    30
100
AcDbText
 10
84.515278
 20
110.323875
 30
0.0
 40
5.0
  1
２５
 41
0.833333
100
AcDbText
  0
POINT
  5
1CE
330
1BD
100
AcDbEntity
  8
001
370
     9
100
AcDbPoint
 10
102.015278
 20
126.227196
 30
0.0
  0
POINT
  5
1CF
330
1BD
100
AcDbEntity
  8
001
370
     9
100
AcDbPoint
 10
77.015278
 20
134.423349
 30
0.0
  0
POINT
  5
1D0
330
1BD
100
AcDbEntity
  8
001
370
     9
100
AcDbPoint
 10
77.015278
 20
109.073875
 30
0.0
  0
ENDBLK
  5
1BF
330
1BD
100
AcDbEntity
  8
0
100
AcDbBlockEnd
  0
BLOCK
  5
1D2
330
1D1
100
AcDbEntity
  8
0
100
AcDbBlockBegin
  2
*D7
 70
     1
 10
0.0
 20
0.0
 30
0.0
  3
*D7
  1

  0
LINE
  5
1D4
330
1D1
100
AcDbEntity
  8
001
370
     9
100
AcDbLine
 10
77.015278
 20
134.423349
 30
0.0
 11
77.015278
 21
93.264313
 31
0.0
  0
LINE
  5
1D5
330
1D1
100
AcDbEntity
  8
001
370
     9
100
AcDbLine
 10
197.015278
 20
131.227196
 30
0.0
 11
197.015278
 21
93.264313
 31
0.0
  0
LINE
  5
1D6
330
1D1
100
AcDbEntity
  8
001
370
     9
100
AcDbLine
 10
77.015278
 20
96.701813
 30
0.0
 11
197.015278
 21
96.701813
 31
0.0
  0
POLYLINE
  5
1D7
330
1D1
100
AcDbEntity
  8
001
370
     9
100
AcDb2dPolyline
 66
     1
 10
0.0
 20
0.0
 30
0.0
  0
VERTEX
  5
1D9
330
1D7
100
AcDbEntity
  8
001
370
     9
100
AcDbVertex
100
AcDb2dVertex
 10
78.890278
 20
96.199408
 30
0.0
  0
VERTEX
  5
1DA
330
1D7
100
AcDbEntity
  8
001
370
     9
100
AcDbVertex
100
AcDb2dVertex
 10
77.015278
 20
96.701813
 30
0.0
  0
VERTEX
  5
1DB
330
1D7
100
AcDbEntity
  8
001
370
     9
100
AcDbVertex
100
AcDb2dVertex
 10
78.890278
 20
97.204218
 30
0.0
  0
SEQEND
  5
1D8
330
1D7
100
AcDbEntity
  8
001
370
     9
  0
POLYLINE
  5
1DC
330
1D1
100
AcDbEntity
  8
001
370
     9
100
AcDb2dPolyline
 66
     1
 10
0.0
 20
0.0
 30
0.0
  0
VERTEX
  5
1DE
330
1DC
100
AcDbEntity
  8
001
370
     9
100
AcDbVertex
100
AcDb2dVertex
 10
195.140278
 20
97.204218
 30
0.0
  0
VERTEX
  5
1DF
330
1DC
100
AcDbEntity
  8
001
370
     9
100
AcDbVertex
100
AcDb2dVertex
 10
197.015278
 20
96.701813
 30
0.0
  0
VERTEX
  5
1E0
330
1DC
100
AcDbEntity
  8
001
370
     9
100
AcDbVertex
100
AcDb2dVertex
 10
195.140278
 20
96.199408
 30
0.0
  0
SEQEND
  5
1DD
330
1DC
100
AcDbEntity
  8
001
370
     9
  0
TEXT
  5
1E1
330
1D1
100
AcDbEntity
  8
001
370
    30
100
AcDbText
 10
129.515278
 20
97.951813
 30
0.0
 40
5.0
  1
１２０
 41
0.833333
100
AcDbText
  0
POINT
  5
1E2
330
1D1
100
AcDbEntity
  8
001
370
     9
100
AcDbPoint
 10
77.015278
 20
134.423349
 30
0.0
  0
POINT
  5
1E3
330
1D1
100
AcDbEntity
  8
001
370
     9
100
AcDbPoint
 10
197.015278
 20
131.227196
 30
0.0
  0
POINT
  5
1E4
330
1D1
100
AcDbEntity
  8
001
370
     9
100
AcDbPoint
 10
197.015278
 20
96.701813
 30
0.0
  0
ENDBLK
  5
1D3
330
1D1
100
AcDbEntity
  8
0
100
AcDbBlockEnd
  0
BLOCK
  5
1E6
330
1E5
100
AcDbEntity
  8
0
100
AcDbBlockBegin
  2
*D8
 70
     1
 10
0.0
 20
0.0
 30
0.0
  3
*D8
  1

  0
LINE
  5
1E8
330
1E5
100
AcDbEntity
  8
001
370
     9
100
AcDbLine
 10
84.551176
 20
129.227196
 30
0.0
 11
52.923672
 21
129.227196
 31
0.0
  0
LINE
  5
1E9
330
1E5
100
AcDbEntity
  8
001
370
     9
100
AcDbLine
 10
84.551176
 20
169.227196
 30
0.0
 11
52.923672
 21
169.227196
 31
0.0
  0
LINE
  5
1EA
330
1E5
100
AcDbEntity
  8
001
370
     9
100
AcDbLine
 10
56.361172
 20
129.227196
 30
0.0
 11
56.361172
 21
169.227196
 31
0.0
  0
POLYLINE
  5
1EB
330
1E5
100
AcDbEntity
  8
001
370
     9
100
AcDb2dPolyline
 66
     1
 10
0.0
 20
0.0
 30
0.0
  0
VERTEX
  5
1ED
330
1EB
100
AcDbEntity
  8
001
370
     9
100
AcDbVertex
100
AcDb2dVertex
 10
56.863577
 20
131.102196
 30
0.0
  0
VERTEX
  5
1EE
330
1EB
100
AcDbEntity
  8
001
370
     9
100
AcDbVertex
100
AcDb2dVertex
 10
56.361172
 20
129.227196
 30
0.0
  0
VERTEX
  5
1EF
330
1EB
100
AcDbEntity
  8
001
370
     9
100
AcDbVertex
100
AcDb2dVertex
 10
55.858767
 20
131.102196
 30
0.0
  0
SEQEND
  5
1EC
330
1EB
100
AcDbEntity
  8
001
370
     9
  0
POLYLINE
  5
1F0
330
1E5
100
AcDbEntity
  8
001
370
     9
100
AcDb2dPolyline
 66
     1
 10
0.0
 20
0.0
 30
0.0
  0
VERTEX
  5
1F2
330
1F0
100
AcDbEntity
  8
001
370
     9
100
AcDbVertex
100
AcDb2dVertex
 10
55.858767
 20
167.352196
 30
0.0
  0
VERTEX
  5
1F3
330
1F0
100
AcDbEntity
  8
001
370
     9
100
AcDbVertex
100
AcDb2dVertex
 10
56.361172
 20
169.227196
 30
0.0
  0
VERTEX
  5
1F4
330
1F0
100
AcDbEntity
  8
001
370
     9
100
AcDbVertex
100
AcDb2dVertex
 10
56.863577
 20
167.352196
 30
0.0
  0
SEQEND
  5
1F1
330
1F0
100
AcDbEntity
  8
001
370
     9
  0
TEXT
  5
1F5
330
1E5
100
AcDbEntity
  8
001
370
    30
100
AcDbText
 10
55.111172
 20
141.727196
 30
0.0
 40
5.0
  1
%%c４０
 50
90.000003
 41
0.882353
100
AcDbText
  0
POINT
  5
1F6
330
1E5
100
AcDbEntity
  8
001
370
     9
100
AcDbPoint
 10
84.551176
 20
129.227196
 30
0.0
  0
POINT
  5
1F7
330
1E5
100
AcDbEntity
  8
001
370
     9
100
AcDbPoint
 10
84.551176
 20
169.227196
 30
0.0
  0
POINT
  5
1F8
330
1E5
100
AcDbEntity
  8
001
370
     9
100
AcDbPoint
 10
56.361172
 20
169.227196
 30
0.0
  0
ENDBLK
  5
1E7
330
1E5
100
AcDbEntity
  8
0
100
AcDbBlockEnd
  0
BLOCK
  5
1FA
330
1F9
100
AcDbEntity
  8
0
100
AcDbBlockBegin
  2
*D9
 70
     1
 10
0.0
 20
0.0
 30
0.0
  3
*D9
  1

  0
LINE
  5
1FC
330
1F9
100
AcDbEntity
  8
001
370
     9
100
AcDbLine
 10
103.015278
 20
173.227196
 30
0.0
 11
36.375973
 21
173.227196
 31
0.0
  0
LINE
  5
1FD
330
1F9
100
AcDbEntity
  8
001
370
     9
100
AcDbLine
 10
103.015278
 20
125.227196
 30
0.0
 11
36.375973
 21
125.227196
 31
0.0
  0
LINE
  5
1FE
330
1F9
100
AcDbEntity
  8
001
370
     9
100
AcDbLine
 10
39.813473
 20
173.227196
 30
0.0
 11
39.813473
 21
125.227196
 31
0.0
  0
POLYLINE
  5
1FF
330
1F9
100
AcDbEntity
  8
001
370
     9
100
AcDb2dPolyline
 66
     1
 10
0.0
 20
0.0
 30
0.0
  0
VERTEX
  5
201
330
1FF
100
AcDbEntity
  8
001
370
     9
100
AcDbVertex
100
AcDb2dVertex
 10
39.311068
 20
171.352196
 30
0.0
  0
VERTEX
  5
202
330
1FF
100
AcDbEntity
  8
001
370
     9
100
AcDbVertex
100
AcDb2dVertex
 10
39.813473
 20
173.227196
 30
0.0
  0
VERTEX
  5
203
330
1FF
100
AcDbEntity
  8
001
370
     9
100
AcDbVertex
100
AcDb2dVertex
 10
40.315877
 20
171.352196
 30
0.0
  0
SEQEND
  5
200
330
1FF
100
AcDbEntity
  8
001
370
     9
  0
POLYLINE
  5
204
330
1F9
100
AcDbEntity
  8
001
370
     9
100
AcDb2dPolyline
 66
     1
 10
0.0
 20
0.0
 30
0.0
  0
VERTEX
  5
206
330
204
100
AcDbEntity
  8
001
370
     9
100
AcDbVertex
100
AcDb2dVertex
 10
40.315877
 20
127.102196
 30
0.0
  0
VERTEX
  5
207
330
204
100
AcDbEntity
  8
001
370
     9
100
AcDbVertex
100
AcDb2dVertex
 10
39.813473
 20
125.227196
 30
0.0
  0
VERTEX
  5
208
330
204
100
AcDbEntity
  8
001
370
     9
100
AcDbVertex
100
AcDb2dVertex
 10
39.311068
 20
127.102196
 30
0.0
  0
SEQEND
  5
205
330
204
100
AcDbEntity
  8
001
370
     9
  0
TEXT
  5
209
330
1F9
100
AcDbEntity
  8
001
370
    30
100
AcDbText
 10
38.563473
 20
141.727196
 30
0.0
 40
5.0
  1
%%c４８
 50
90.000003
 41
0.882353
100
AcDbText
  0
POINT
  5
20A
330
1F9
100
AcDbEntity
  8
001
370
     9
100
AcDbPoint
 10
103.015278
 20
173.227196
 30
0.0
  0
POINT
  5
20B
330
1F9
100
AcDbEntity
  8
001
370
     9
100
AcDbPoint
 10
103.015278
 20
125.227196
 30
0.0
  0
POINT
  5
20C
330
1F9
100
AcDbEntity
  8
001
370
     9
100
AcDbPoint
 10
39.813473
 20
125.227196
 30
0.0
  0
ENDBLK
  5
1FB
330
1F9
100
AcDbEntity
  8
0
100
AcDbBlockEnd
  0
BLOCK
  5
20E
330
20D
100
AcDbEntity
  8
0
100
AcDbBlockBegin
  2
*D10
 70
     1
 10
0.0
 20
0.0
 30
0.0
  3
*D10
  1

  0
LINE
  5
210
330
20D
100
AcDbEntity
  8
001
370
     9
100
AcDbLine
 10
195.015278
 20
129.227196
 30
0.0
 11
224.686806
 21
129.227196
 31
0.0
  0
LINE
  5
211
330
20D
100
AcDbEntity
  8
001
370
     9
100
AcDbLine
 10
195.015278
 20
169.227196
 30
0.0
 11
224.686806
 21
169.227196
 31
0.0
  0
LINE
  5
212
330
20D
100
AcDbEntity
  8
001
370
     9
100
AcDbLine
 10
221.249306
 20
129.227196
 30
0.0
 11
221.249306
 21
169.227196
 31
0.0
  0
POLYLINE
  5
213
330
20D
100
AcDbEntity
  8
001
370
     9
100
AcDb2dPolyline
 66
     1
 10
0.0
 20
0.0
 30
0.0
  0
VERTEX
  5
215
330
213
100
AcDbEntity
  8
001
370
     9
100
AcDbVertex
100
AcDb2dVertex
 10
221.751711
 20
131.102196
 30
0.0
  0
VERTEX
  5
216
330
213
100
AcDbEntity
  8
001
370
     9
100
AcDbVertex
100
AcDb2dVertex
 10
221.249306
 20
129.227196
 30
0.0
  0
VERTEX
  5
217
330
213
100
AcDbEntity
  8
001
370
     9
100
AcDbVertex
100
AcDb2dVertex
 10
220.746901
 20
131.102196
 30
0.0
  0
SEQEND
  5
214
330
213
100
AcDbEntity
  8
001
370
     9
  0
POLYLINE
  5
218
330
20D
100
AcDbEntity
  8
001
370
     9
100
AcDb2dPolyline
 66
     1
 10
0.0
 20
0.0
 30
0.0
  0
VERTEX
  5
21A
330
218
100
AcDbEntity
  8
001
370
     9
100
AcDbVertex
100
AcDb2dVertex
 10
220.746901
 20
167.352196
 30
0.0
  0
VERTEX
  5
21B
330
218
100
AcDbEntity
  8
001
370
     9
100
AcDbVertex
100
AcDb2dVertex
 10
221.249306
 20
169.227196
 30
0.0
  0
VERTEX
  5
21C
330
218
100
AcDbEntity
  8
001
370
     9
100
AcDbVertex
100
AcDb2dVertex
 10
221.751711
 20
167.352196
 30
0.0
  0
SEQEND
  5
219
330
218
100
AcDbEntity
  8
001
370
     9
  0
TEXT
  5
21D
330
20D
100
AcDbEntity
  8
001
370
    30
100
AcDbText
 10
219.999306
 20
137.727196
 30
0.0
 40
5.0
  1
%%c４０
 50
90.000003
 41
0.882353
100
AcDbText
  0
TEXT
  5
21E
330
20D
100
AcDbEntity
  8
001
370
    30
100
AcDbText
 10
219.499306
 20
152.727196
 30
0.0
 40
4.0
  1
ｈ７
 50
90.000003
 41
0.833333
100
AcDbText
  0
POINT
  5
21F
330
20D
100
AcDbEntity
  8
001
370
     9
100
AcDbPoint
 10
195.015278
 20
129.227196
 30
0.0
  0
POINT
  5
220
330
20D
100
AcDbEntity
  8
001
370
     9
100
AcDbPoint
 10
195.015278
 20
169.227196
 30
0.0
  0
POINT
  5
221
330
20D
100
AcDbEntity
  8
001
370
     9
100
AcDbPoint
 10
221.249306
 20
169.227196
 30
0.0
  0
ENDBLK
  5
20F
330
20D
100
AcDbEntity
  8
0
100
AcDbBlockEnd
  0
BLOCK
  5
223
330
222
100
AcDbEntity
  8
0
100
AcDbBlockBegin
  2
DIM-5
 70
     0
 10
0.0
 20
0.0
 30
0.0
  3
DIM-5
  1

  0
TEXT
  5
225
330
222
100
AcDbEntity
  8
001
370
    30
100
AcDbText
 10
-0.015286
 20
109.071272
 30
0.0
 40
5.0
  1
２－Ｍ１０×１．５，貫通
 41
0.833333
100
AcDbText
  0
POLYLINE
  5
226
330
222
100
AcDbEntity
  8
001
370
     9
100
AcDb2dPolyline
 66
     1
 10
0.0
 20
0.0
 30
0.0
  0
VERTEX
  5
228
330
226
100
AcDbEntity
  8
001
370
     9
100
AcDbVertex
100
AcDb2dVertex
 10
87.079797
 20
144.100858
 30
0.0
  0
VERTEX
  5
229
330
226
100
AcDbEntity
  8
001
370
     9
100
AcDbVertex
100
AcDb2dVertex
 10
88.562245
 20
145.354007
 30
0.0
  0
VERTEX
  5
22A
330
226
100
AcDbEntity
  8
001
370
     9
100
AcDbVertex
100
AcDb2dVertex
 10
87.904982
 20
143.527524
 30
0.0
  0
SEQEND
  5
227
330
226
100
AcDbEntity
  8
001
370
     9
  0
POLYLINE
  5
22B
330
222
100
AcDbEntity
  8
001
370
     9
100
AcDb2dPolyline
 66
     1
 10
0.0
 20
0.0
 30
0.0
  0
VERTEX
  5
22D
330
22B
100
AcDbEntity
  8
001
370
     9
100
AcDbVertex
100
AcDb2dVertex
 10
88.562245
 20
145.354007
 30
0.0
  0
VERTEX
  5
22E
330
22B
100
AcDbEntity
  8
001
370
     9
100
AcDbVertex
100
AcDb2dVertex
 10
62.484714
 20
107.821272
 30
0.0
  0
VERTEX
  5
22F
330
22B
100
AcDbEntity
  8
001
370
     9
100
AcDbVertex
100
AcDb2dVertex
 10
-2.515286
 20
107.821272
 30
0.0
  0
SEQEND
  5
22C
330
22B
100
AcDbEntity
  8
001
370
     9
  0
ENDBLK
  5
224
330
222
100
AcDbEntity
  8
0
100
AcDbBlockEnd
  0
BLOCK
  5
231
330
230
100
AcDbEntity
  8
0
100
AcDbBlockBegin
  2
*D12
 70
     1
 10
0.0
 20
0.0
 30
0.0
  3
*D12
  1

  0
LINE
  5
233
330
230
100
AcDbEntity
  8
001
370
     9
100
AcDbLine
 10
92.015278
 20
77.531829
 30
0.0
 11
92.015278
 21
88.240156
 31
0.0
  0
LINE
  5
234
330
230
100
AcDbEntity
  8
001
370
     9
100
AcDbLine
 10
77.015278
 20
68.172283
 30
0.0
 11
77.015278
 21
88.240156
 31
0.0
  0
LINE
  5
235
330
230
100
AcDbEntity
  8
001
370
     9
100
AcDbLine
 10
92.015278
 20
84.802656
 30
0.0
 11
77.015278
 21
84.802656
 31
0.0
  0
POLYLINE
  5
236
330
230
100
AcDbEntity
  8
001
370
     9
100
AcDb2dPolyline
 66
     1
 10
0.0
 20
0.0
 30
0.0
  0
VERTEX
  5
238
330
236
100
AcDbEntity
  8
001
370
     9
100
AcDbVertex
100
AcDb2dVertex
 10
93.890278
 20
84.300251
 30
0.0
  0
VERTEX
  5
239
330
236
100
AcDbEntity
  8
001
370
     9
100
AcDbVertex
100
AcDb2dVertex
 10
92.015278
 20
84.802656
 30
0.0
  0
VERTEX
  5
23A
330
236
100
AcDbEntity
  8
001
370
     9
100
AcDbVertex
100
AcDb2dVertex
 10
93.890278
 20
85.305061
 30
0.0
  0
SEQEND
  5
237
330
236
100
AcDbEntity
  8
001
370
     9
  0
POLYLINE
  5
23B
330
230
100
AcDbEntity
  8
001
370
     9
100
AcDb2dPolyline
 66
     1
 10
0.0
 20
0.0
 30
0.0
  0
VERTEX
  5
23D
330
23B
100
AcDbEntity
  8
001
370
     9
100
AcDbVertex
100
AcDb2dVertex
 10
75.140278
 20
85.305061
 30
0.0
  0
VERTEX
  5
23E
330
23B
100
AcDbEntity
  8
001
370
     9
100
AcDbVertex
100
AcDb2dVertex
 10
77.015278
 20
84.802656
 30
0.0
  0
VERTEX
  5
23F
330
23B
100
AcDbEntity
  8
001
370
     9
100
AcDbVertex
100
AcDb2dVertex
 10
75.140278
 20
84.300251
 30
0.0
  0
SEQEND
  5
23C
330
23B
100
AcDbEntity
  8
001
370
     9
  0
TEXT
  5
240
330
230
100
AcDbEntity
  8
001
370
    30
100
AcDbText
 10
79.515278
 20
86.052656
 30
0.0
 40
5.0
  1
１５
 41
0.833333
100
AcDbText
  0
POINT
  5
241
330
230
100
AcDbEntity
  8
001
370
     9
100
AcDbPoint
 10
92.015278
 20
77.531829
 30
0.0
  0
POINT
  5
242
330
230
100
AcDbEntity
  8
001
370
     9
100
AcDbPoint
 10
77.015278
 20
68.172283
 30
0.0
  0
POINT
  5
243
330
230
100
AcDbEntity
  8
001
370
     9
100
AcDbPoint
 10
77.015278
 20
84.802656
 30
0.0
  0
LINE
  5
244
330
230
100
AcDbEntity
  8
001
370
     9
100
AcDbLine
 10
92.015278
 20
84.802656
 30
0.0
 11
95.140278
 21
84.802656
 31
0.0
  0
LINE
  5
245
330
230
100
AcDbEntity
  8
001
370
     9
100
AcDbLine
 10
77.015278
 20
84.802656
 30
0.0
 11
73.890278
 21
84.802656
 31
0.0
  0
ENDBLK
  5
232
330
230
100
AcDbEntity
  8
0
100
AcDbBlockEnd
  0
BLOCK
  5
247
330
246
100
AcDbEntity
  8
0
100
AcDbBlockBegin
  2
*D13
 70
     1
 10
0.0
 20
0.0
 30
0.0
  3
*D13
  1

  0
LINE
  5
249
330
246
100
AcDbEntity
  8
001
370
     9
100
AcDbLine
 10
79.015278
 20
38.564588
 30
0.0
 11
77.433466
 21
37.340712
 31
0.0
  0
POLYLINE
  5
24A
330
246
100
AcDbEntity
  8
001
370
     9
100
AcDb2dPolyline
 66
     1
 10
0.0
 20
0.0
 30
0.0
  0
VERTEX
  5
24C
330
24A
100
AcDbEntity
  8
001
370
     9
100
AcDbVertex
100
AcDb2dVertex
 10
75.643076
 20
36.590684
 30
0.0
  0
VERTEX
  5
24D
330
24A
100
AcDbEntity
  8
001
370
     9
100
AcDbVertex
100
AcDb2dVertex
 10
77.433466
 20
37.340712
 30
0.0
  0
VERTEX
  5
24E
330
24A
100
AcDbEntity
  8
001
370
     9
100
AcDbVertex
100
AcDb2dVertex
 10
76.257957
 20
35.795974
 30
0.0
  0
SEQEND
  5
24B
330
24A
100
AcDbEntity
  8
001
370
     9
  0
TEXT
  5
24F
330
246
100
AcDbEntity
  8
001
370
    30
100
AcDbText
 10
57.390209
 20
23.413365
 30
0.0
 40
5.0
  1
２－Ｒ２
 50
37.72974
 41
0.833333
100
AcDbText
  0
POINT
  5
250
330
246
100
AcDbEntity
  8
001
370
     9
100
AcDbPoint
 10
77.433466
 20
37.340712
 30
0.0
  0
POINT
  5
251
330
246
100
AcDbEntity
  8
001
370
     9
100
AcDbPoint
 10
79.015278
 20
38.564588
 30
0.0
  0
LINE
  5
252
330
246
100
AcDbEntity
  8
001
370
     9
100
AcDbLine
 10
77.433466
 20
37.340712
 30
0.0
 11
55.189234
 21
20.129966
 31
0.0
  0
ENDBLK
  5
248
330
246
100
AcDbEntity
  8
0
100
AcDbBlockEnd
  0
BLOCK
  5
254
330
253
100
AcDbEntity
  8
0
100
AcDbBlockBegin
  2
*D14
 70
     1
 10
0.0
 20
0.0
 30
0.0
  3
*D14
  1

  0
LINE
  5
256
330
253
100
AcDbEntity
  8
001
370
     9
100
AcDbLine
 10
116.015278
 20
30.368435
 30
0.0
 11
116.692857
 21
29.632986
 31
0.0
  0
POLYLINE
  5
257
330
253
100
AcDbEntity
  8
001
370
     9
100
AcDb2dPolyline
 66
     1
 10
0.0
 20
0.0
 30
0.0
  0
VERTEX
  5
259
330
257
100
AcDbEntity
  8
001
370
     9
100
AcDbVertex
100
AcDb2dVertex
 10
117.593826
 20
27.913599
 30
0.0
  0
VERTEX
  5
25A
330
257
100
AcDbEntity
  8
001
370
     9
100
AcDbVertex
100
AcDb2dVertex
 10
116.692857
 20
29.632986
 30
0.0
  0
VERTEX
  5
25B
330
257
100
AcDbEntity
  8
001
370
     9
100
AcDbVertex
100
AcDb2dVertex
 10
118.332812
 20
28.594437
 30
0.0
  0
SEQEND
  5
258
330
257
100
AcDbEntity
  8
001
370
     9
  0
TEXT
  5
25C
330
253
100
AcDbEntity
  8
001
370
    30
100
AcDbText
 10
120.57658
 20
27.262368
 30
0.0
 40
5.0
  1
２－Ｒ１
 50
312.654778
 41
0.833333
100
AcDbText
  0
POINT
  5
25D
330
253
100
AcDbEntity
  8
001
370
     9
100
AcDbPoint
 10
116.692857
 20
29.632986
 30
0.0
  0
POINT
  5
25E
330
253
100
AcDbEntity
  8
001
370
     9
100
AcDbPoint
 10
116.015278
 20
30.368435
 30
0.0
  0
LINE
  5
25F
330
253
100
AcDbEntity
  8
001
370
     9
100
AcDbLine
 10
116.692857
 20
29.632986
 30
0.0
 11
135.749782
 21
8.948468
 31
0.0
  0
ENDBLK
  5
255
330
253
100
AcDbEntity
  8
0
100
AcDbBlockEnd
  0
BLOCK
  5
261
330
260
100
AcDbEntity
  8
0
100
AcDbBlockBegin
  2
*D15
 70
     1
 10
0.0
 20
0.0
 30
0.0
  3
*D15
  1

  0
LINE
  5
263
330
260
100
AcDbEntity
  8
001
370
     9
100
AcDbLine
 10
195.015278
 20
167.227196
 30
0.0
 11
196.453033
 21
168.617469
 31
0.0
  0
POLYLINE
  5
264
330
260
100
AcDbEntity
  8
001
370
     9
100
AcDb2dPolyline
 66
     1
 10
0.0
 20
0.0
 30
0.0
  0
VERTEX
  5
266
330
264
100
AcDbEntity
  8
001
370
     9
100
AcDbVertex
100
AcDb2dVertex
 10
198.150169
 20
169.559682
 30
0.0
  0
VERTEX
  5
267
330
264
100
AcDbEntity
  8
001
370
     9
100
AcDbVertex
100
AcDb2dVertex
 10
196.453033
 20
168.617469
 30
0.0
  0
VERTEX
  5
268
330
264
100
AcDbEntity
  8
001
370
     9
100
AcDbVertex
100
AcDb2dVertex
 10
197.45169
 20
170.282017
 30
0.0
  0
SEQEND
  5
265
330
264
100
AcDbEntity
  8
001
370
     9
  0
TEXT
  5
269
330
260
100
AcDbEntity
  8
001
370
    30
100
AcDbText
 10
198.729204
 20
172.557288
 30
0.0
 40
5.0
  1
（Ｒ２）
 50
44.038085
 41
0.833333
100
AcDbText
  0
POINT
  5
26A
330
260
100
AcDbEntity
  8
001
370
     9
100
AcDbPoint
 10
196.453033
 20
168.617469
 30
0.0
  0
POINT
  5
26B
330
260
100
AcDbEntity
  8
001
370
     9
100
AcDbPoint
 10
195.015278
 20
167.227196
 30
0.0
  0
LINE
  5
26C
330
260
100
AcDbEntity
  8
001
370
     9
100
AcDbLine
 10
196.453033
 20
168.617469
 30
0.0
 11
216.671473
 21
188.16818
 31
0.0
  0
ENDBLK
  5
262
330
260
100
AcDbEntity
  8
0
100
AcDbBlockEnd
  0
BLOCK
  5
26E
330
26D
100
AcDbEntity
  8
0
100
AcDbBlockBegin
  2
*D16
 70
     1
 10
0.0
 20
0.0
 30
0.0
  3
*D16
  1

  0
LINE
  5
270
330
26D
100
AcDbEntity
  8
001
370
     9
100
AcDbLine
 10
117.015278
 20
126.227196
 30
0.0
 11
117.015278
 21
105.636375
 31
0.0
  0
LINE
  5
271
330
26D
100
AcDbEntity
  8
001
370
     9
100
AcDbLine
 10
197.015278
 20
131.227196
 30
0.0
 11
197.015278
 21
105.636375
 31
0.0
  0
LINE
  5
272
330
26D
100
AcDbEntity
  8
001
370
     9
100
AcDbLine
 10
117.015278
 20
109.073875
 30
0.0
 11
197.015278
 21
109.073875
 31
0.0
  0
POLYLINE
  5
273
330
26D
100
AcDbEntity
  8
001
370
     9
100
AcDb2dPolyline
 66
     1
 10
0.0
 20
0.0
 30
0.0
  0
VERTEX
  5
275
330
273
100
AcDbEntity
  8
001
370
     9
100
AcDbVertex
100
AcDb2dVertex
 10
118.890278
 20
108.57147
 30
0.0
  0
VERTEX
  5
276
330
273
100
AcDbEntity
  8
001
370
     9
100
AcDbVertex
100
AcDb2dVertex
 10
117.015278
 20
109.073875
 30
0.0
  0
VERTEX
  5
277
330
273
100
AcDbEntity
  8
001
370
     9
100
AcDbVertex
100
AcDb2dVertex
 10
118.890278
 20
109.57628
 30
0.0
  0
SEQEND
  5
274
330
273
100
AcDbEntity
  8
001
370
     9
  0
POLYLINE
  5
278
330
26D
100
AcDbEntity
  8
001
370
     9
100
AcDb2dPolyline
 66
     1
 10
0.0
 20
0.0
 30
0.0
  0
VERTEX
  5
27A
330
278
100
AcDbEntity
  8
001
370
     9
100
AcDbVertex
100
AcDb2dVertex
 10
195.140278
 20
109.57628
 30
0.0
  0
VERTEX
  5
27B
330
278
100
AcDbEntity
  8
001
370
     9
100
AcDbVertex
100
AcDb2dVertex
 10
197.015278
 20
109.073875
 30
0.0
  0
VERTEX
  5
27C
330
278
100
AcDbEntity
  8
001
370
     9
100
AcDbVertex
100
AcDb2dVertex
 10
195.140278
 20
108.57147
 30
0.0
  0
SEQEND
  5
279
330
278
100
AcDbEntity
  8
001
370
     9
  0
TEXT
  5
27D
330
26D
100
AcDbEntity
  8
001
370
    30
100
AcDbText
 10
147.015278
 20
110.323875
 30
0.0
 40
5.0
  1
（８０）
 41
0.833333
100
AcDbText
  0
POINT
  5
27E
330
26D
100
AcDbEntity
  8
001
370
     9
100
AcDbPoint
 10
117.015278
 20
126.227196
 30
0.0
  0
POINT
  5
27F
330
26D
100
AcDbEntity
  8
001
370
     9
100
AcDbPoint
 10
197.015278
 20
131.227196
 30
0.0
  0
POINT
  5
280
330
26D
100
AcDbEntity
  8
001
370
     9
100
AcDbPoint
 10
197.015278
 20
109.073875
 30
0.0
  0
ENDBLK
  5
26F
330
26D
100
AcDbEntity
  8
0
100
AcDbBlockEnd
  0
BLOCK
  5
282
330
281
100
AcDbEntity
  8
0
100
AcDbBlockBegin
  2
*D17
 70
     1
 10
0.0
 20
0.0
 30
0.0
  3
*D17
  1

  0
LINE
  5
284
330
281
100
AcDbEntity
  8
001
370
     9
100
AcDbLine
 10
282.931816
 20
149.227196
 30
0.0
 11
282.931816
 21
104.799954
 31
0.0
  0
LINE
  5
285
330
281
100
AcDbEntity
  8
001
370
     9
100
AcDbLine
 10
244.631816
 20
141.158119
 30
0.0
 11
244.631816
 21
104.799954
 31
0.0
  0
LINE
  5
286
330
281
100
AcDbEntity
  8
001
370
     9
100
AcDbLine
 10
282.931816
 20
108.237454
 30
0.0
 11
244.631816
 21
108.237454
 31
0.0
  0
POLYLINE
  5
287
330
281
100
AcDbEntity
  8
001
370
     9
100
AcDb2dPolyline
 66
     1
 10
0.0
 20
0.0
 30
0.0
  0
VERTEX
  5
289
330
287
100
AcDbEntity
  8
001
370
     9
100
AcDbVertex
100
AcDb2dVertex
 10
281.056816
 20
108.739859
 30
0.0
  0
VERTEX
  5
28A
330
287
100
AcDbEntity
  8
001
370
     9
100
AcDbVertex
100
AcDb2dVertex
 10
282.931816
 20
108.237454
 30
0.0
  0
VERTEX
  5
28B
330
287
100
AcDbEntity
  8
001
370
     9
100
AcDbVertex
100
AcDb2dVertex
 10
281.056816
 20
107.73505
 30
0.0
  0
SEQEND
  5
288
330
287
100
AcDbEntity
  8
001
370
     9
  0
POLYLINE
  5
28C
330
281
100
AcDbEntity
  8
001
370
     9
100
AcDb2dPolyline
 66
     1
 10
0.0
 20
0.0
 30
0.0
  0
VERTEX
  5
28E
330
28C
100
AcDbEntity
  8
001
370
     9
100
AcDbVertex
100
AcDb2dVertex
 10
246.506816
 20
107.73505
 30
0.0
  0
VERTEX
  5
28F
330
28C
100
AcDbEntity
  8
001
370
     9
100
AcDbVertex
100
AcDb2dVertex
 10
244.631816
 20
108.237454
 30
0.0
  0
VERTEX
  5
290
330
28C
100
AcDbEntity
  8
001
370
     9
100
AcDbVertex
100
AcDb2dVertex
 10
246.506816
 20
108.739859
 30
0.0
  0
SEQEND
  5
28D
330
28C
100
AcDbEntity
  8
001
370
     9
  0
TEXT
  5
291
330
281
100
AcDbEntity
  8
001
370
    30
100
AcDbText
 10
258.781816
 20
109.487454
 30
0.0
 40
5.0
  1
３８
 41
0.833333
100
AcDbText
  0
POINT
  5
292
330
281
100
AcDbEntity
  8
001
370
     9
100
AcDbPoint
 10
282.931816
 20
149.227196
 30
0.0
  0
POINT
  5
293
330
281
100
AcDbEntity
  8
001
370
     9
100
AcDbPoint
 10
244.631816
 20
141.158119
 30
0.0
  0
POINT
  5
294
330
281
100
AcDbEntity
  8
001
370
     9
100
AcDbPoint
 10
244.631816
 20
108.237454
 30
0.0
  0
ENDBLK
  5
283
330
281
100
AcDbEntity
  8
0
100
AcDbBlockEnd
  0
BLOCK
  5
296
330
295
100
AcDbEntity
  8
0
100
AcDbBlockBegin
  2
*D18
 70
     1
 10
0.0
 20
0.0
 30
0.0
  3
*D18
  1

  0
LINE
  5
298
330
295
100
AcDbEntity
  8
001
370
     9
100
AcDbLine
 10
109.515278
 20
79.868878
 30
0.0
 11
109.515278
 21
88.240156
 31
0.0
  0
LINE
  5
299
330
295
100
AcDbEntity
  8
001
370
     9
100
AcDbLine
 10
92.015278
 20
77.531829
 30
0.0
 11
92.015278
 21
88.240156
 31
0.0
  0
LINE
  5
29A
330
295
100
AcDbEntity
  8
001
370
     9
100
AcDbLine
 10
109.515278
 20
84.802656
 30
0.0
 11
92.015278
 21
84.802656
 31
0.0
  0
POLYLINE
  5
29B
330
295
100
AcDbEntity
  8
001
370
     9
100
AcDb2dPolyline
 66
     1
 10
0.0
 20
0.0
 30
0.0
  0
VERTEX
  5
29D
330
29B
100
AcDbEntity
  8
001
370
     9
100
AcDbVertex
100
AcDb2dVertex
 10
111.390278
 20
84.300251
 30
0.0
  0
VERTEX
  5
29E
330
29B
100
AcDbEntity
  8
001
370
     9
100
AcDbVertex
100
AcDb2dVertex
 10
109.515278
 20
84.802656
 30
0.0
  0
VERTEX
  5
29F
330
29B
100
AcDbEntity
  8
001
370
     9
100
AcDbVertex
100
AcDb2dVertex
 10
111.390278
 20
85.305061
 30
0.0
  0
SEQEND
  5
29C
330
29B
100
AcDbEntity
  8
001
370
     9
  0
POLYLINE
  5
2A0
330
295
100
AcDbEntity
  8
001
370
     9
100
AcDb2dPolyline
 66
     1
 10
0.0
 20
0.0
 30
0.0
  0
VERTEX
  5
2A2
330
2A0
100
AcDbEntity
  8
001
370
     9
100
AcDbVertex
100
AcDb2dVertex
 10
90.140278
 20
85.305061
 30
0.0
  0
VERTEX
  5
2A3
330
2A0
100
AcDbEntity
  8
001
370
     9
100
AcDbVertex
100
AcDb2dVertex
 10
92.015278
 20
84.802656
 30
0.0
  0
VERTEX
  5
2A4
330
2A0
100
AcDbEntity
  8
001
370
     9
100
AcDbVertex
100
AcDb2dVertex
 10
90.140278
 20
84.300251
 30
0.0
  0
SEQEND
  5
2A1
330
2A0
100
AcDbEntity
  8
001
370
     9
  0
TEXT
  5
2A5
330
295
100
AcDbEntity
  8
001
370
    30
100
AcDbText
 10
95.531688
 20
86.052656
 30
0.0
 40
5.0
  1
１７．５
 41
0.833333
100
AcDbText
  0
POINT
  5
2A6
330
295
100
AcDbEntity
  8
001
370
     9
100
AcDbPoint
 10
109.515278
 20
79.868878
 30
0.0
  0
POINT
  5
2A7
330
295
100
AcDbEntity
  8
001
370
     9
100
AcDbPoint
 10
92.015278
 20
77.531829
 30
0.0
  0
POINT
  5
2A8
330
295
100
AcDbEntity
  8
001
370
     9
100
AcDbPoint
 10
92.015278
 20
84.802656
 30
0.0
  0
LINE
  5
2A9
330
295
100
AcDbEntity
  8
001
370
     9
100
AcDbLine
 10
109.515278
 20
84.802656
 30
0.0
 11
112.640278
 21
84.802656
 31
0.0
  0
LINE
  5
2AA
330
295
100
AcDbEntity
  8
001
370
     9
100
AcDbLine
 10
92.015278
 20
84.802656
 30
0.0
 11
88.890278
 21
84.802656
 31
0.0
  0
ENDBLK
  5
297
330
295
100
AcDbEntity
  8
0
100
AcDbBlockEnd
  0
BLOCK
  5
2AC
330
2AB
100
AcDbEntity
  8
0
100
AcDbBlockBegin
  2
*D19
 70
     1
 10
0.0
 20
0.0
 30
0.0
  3
*D19
  1

  0
LINE
  5
2AE
330
2AB
100
AcDbEntity
  8
001
370
     9
100
AcDbLine
 10
83.551176
 20
168.959247
 30
0.0
 11
125.249267
 21
193.033651
 31
0.0
  0
ARC
  5
2AF
330
2AB
100
AcDbEntity
  8
001
370
     9
100
AcDbCircle
 10
49.374261
 20
149.227196
 30
0.0
 40
84.17540969282871
100
AcDbArc
 50
0.0
 51
30.0
  0
POLYLINE
  5
2B0
330
2AB
100
AcDbEntity
  8
001
370
     9
100
AcDb2dPolyline
 66
     1
 10
0.0
 20
0.0
 30
0.0
  0
VERTEX
  5
2B2
330
2B0
100
AcDbEntity
  8
001
370
     9
100
AcDbVertex
100
AcDb2dVertex
 10
122.753796
 20
189.434422
 30
0.0
  0
VERTEX
  5
2B3
330
2B0
100
AcDbEntity
  8
001
370
     9
100
AcDbVertex
100
AcDb2dVertex
 10
122.272305
 20
191.314901
 30
0.0
  0
VERTEX
  5
2B4
330
2B0
100
AcDbEntity
  8
001
370
     9
100
AcDbVertex
100
AcDb2dVertex
 10
123.629528
 20
189.927104
 30
0.0
  0
SEQEND
  5
2B1
330
2B0
100
AcDbEntity
  8
001
370
     9
  0
POLYLINE
  5
2B5
330
2AB
100
AcDbEntity
  8
001
370
     9
100
AcDb2dPolyline
 66
     1
 10
0.0
 20
0.0
 30
0.0
  0
VERTEX
  5
2B7
330
2B5
100
AcDbEntity
  8
001
370
     9
100
AcDbVertex
100
AcDb2dVertex
 10
134.031162
 20
151.107675
 30
0.0
  0
VERTEX
  5
2B8
330
2B5
100
AcDbEntity
  8
001
370
     9
100
AcDbVertex
100
AcDb2dVertex
 10
133.549671
 20
149.227196
 30
0.0
  0
VERTEX
  5
2B9
330
2B5
100
AcDbEntity
  8
001
370
     9
100
AcDbVertex
100
AcDb2dVertex
 10
133.026415
 20
151.096484
 30
0.0
  0
SEQEND
  5
2B6
330
2B5
100
AcDbEntity
  8
001
370
     9
  0
TEXT
  5
2BA
330
2AB
100
AcDbEntity
  8
001
370
    30
100
AcDbText
 10
126.833815
 20
186.020785
 30
0.0
 40
5.0
  1
３０%%d
 50
290.390438
 41
0.978261
100
AcDbText
  0
POINT
  5
2BB
330
2AB
100
AcDbEntity
  8
001
370
     9
100
AcDbPoint
 10
83.551176
 20
168.959247
 30
0.0
  0
POINT
  5
2BC
330
2AB
100
AcDbEntity
  8
001
370
     9
100
AcDbPoint
 10
49.374261
 20
149.227196
 30
0.0
  0
POINT
  5
2BD
330
2AB
100
AcDbEntity
  8
001
370
     9
100
AcDbPoint
 10
49.374261
 20
149.227196
 30
0.0
  0
POINT
  5
2BE
330
2AB
100
AcDbEntity
  8
001
370
     9
100
AcDbPoint
 10
67.638043
 20
149.227196
 30
0.0
  0
ENDBLK
  5
2AD
330
2AB
100
AcDbEntity
  8
0
100
AcDbBlockEnd
  0
BLOCK
  5
2C0
330
2BF
100
AcDbEntity
  8
0
100
AcDbBlockBegin
  2
*D20
 70
     1
 10
0.0
 20
0.0
 30
0.0
  3
*D20
  1

  0
LINE
  5
2C2
330
2BF
100
AcDbEntity
  8
001
370
     9
100
AcDbLine
 10
84.015278
 20
169.227196
 30
0.0
 11
84.015278
 21
187.572436
 31
0.0
  0
LINE
  5
2C3
330
2BF
100
AcDbEntity
  8
001
370
     9
100
AcDbLine
 10
77.015278
 20
164.031044
 30
0.0
 11
77.015278
 21
187.572436
 31
0.0
  0
LINE
  5
2C4
330
2BF
100
AcDbEntity
  8
001
370
     9
100
AcDbLine
 10
84.015278
 20
184.134936
 30
0.0
 11
77.015278
 21
184.134936
 31
0.0
  0
POLYLINE
  5
2C5
330
2BF
100
AcDbEntity
  8
001
370
     9
100
AcDb2dPolyline
 66
     1
 10
0.0
 20
0.0
 30
0.0
  0
VERTEX
  5
2C7
330
2C5
100
AcDbEntity
  8
001
370
     9
100
AcDbVertex
100
AcDb2dVertex
 10
85.890278
 20
183.632531
 30
0.0
  0
VERTEX
  5
2C8
330
2C5
100
AcDbEntity
  8
001
370
     9
100
AcDbVertex
100
AcDb2dVertex
 10
84.015278
 20
184.134936
 30
0.0
  0
VERTEX
  5
2C9
330
2C5
100
AcDbEntity
  8
001
370
     9
100
AcDbVertex
100
AcDb2dVertex
 10
85.890278
 20
184.637341
 30
0.0
  0
SEQEND
  5
2C6
330
2C5
100
AcDbEntity
  8
001
370
     9
  0
POLYLINE
  5
2CA
330
2BF
100
AcDbEntity
  8
001
370
     9
100
AcDb2dPolyline
 66
     1
 10
0.0
 20
0.0
 30
0.0
  0
VERTEX
  5
2CC
330
2CA
100
AcDbEntity
  8
001
370
     9
100
AcDbVertex
100
AcDb2dVertex
 10
75.140278
 20
184.637341
 30
0.0
  0
VERTEX
  5
2CD
330
2CA
100
AcDbEntity
  8
001
370
     9
100
AcDbVertex
100
AcDb2dVertex
 10
77.015278
 20
184.134936
 30
0.0
  0
VERTEX
  5
2CE
330
2CA
100
AcDbEntity
  8
001
370
     9
100
AcDbVertex
100
AcDb2dVertex
 10
75.140278
 20
183.632531
 30
0.0
  0
SEQEND
  5
2CB
330
2CA
100
AcDbEntity
  8
001
370
     9
  0
TEXT
  5
2CF
330
2BF
100
AcDbEntity
  8
001
370
    30
100
AcDbText
 10
57.640278
 20
185.384936
 30
0.0
 40
5.0
  1
（７）
 41
0.833333
100
AcDbText
  0
POINT
  5
2D0
330
2BF
100
AcDbEntity
  8
001
370
     9
100
AcDbPoint
 10
84.015278
 20
169.227196
 30
0.0
  0
POINT
  5
2D1
330
2BF
100
AcDbEntity
  8
001
370
     9
100
AcDbPoint
 10
77.015278
 20
164.031044
 30
0.0
  0
POINT
  5
2D2
330
2BF
100
AcDbEntity
  8
001
370
     9
100
AcDbPoint
 10
77.015278
 20
184.134936
 30
0.0
  0
LINE
  5
2D3
330
2BF
100
AcDbEntity
  8
001
370
     9
100
AcDbLine
 10
84.015278
 20
184.134936
 30
0.0
 11
87.140278
 21
184.134936
 31
0.0
  0
LINE
  5
2D4
330
2BF
100
AcDbEntity
  8
001
370
     9
100
AcDbLine
 10
77.015278
 20
184.134936
 30
0.0
 11
53.890278
 21
184.134936
 31
0.0
  0
ENDBLK
  5
2C1
330
2BF
100
AcDbEntity
  8
0
100
AcDbBlockEnd
  0
BLOCK
  5
2D6
330
2D5
100
AcDbEntity
  8
0
100
AcDbBlockBegin
  2
*D21
 70
     1
 10
0.0
 20
0.0
 30
0.0
  3
*D21
  1

  0
LINE
  5
2D8
330
2D5
100
AcDbEntity
  8
001
370
     9
100
AcDbLine
 10
77.015278
 20
40.868435
 30
0.0
 11
53.860334
 21
40.868435
 31
0.0
  0
LINE
  5
2D9
330
2D5
100
AcDbEntity
  8
001
370
     9
100
AcDbLine
 10
77.015278
 20
65.868435
 30
0.0
 11
53.860334
 21
65.868435
 31
0.0
  0
LINE
  5
2DA
330
2D5
100
AcDbEntity
  8
001
370
     9
100
AcDbLine
 10
57.297834
 20
40.868435
 30
0.0
 11
57.297834
 21
65.868435
 31
0.0
  0
POLYLINE
  5
2DB
330
2D5
100
AcDbEntity
  8
001
370
     9
100
AcDb2dPolyline
 66
     1
 10
0.0
 20
0.0
 30
0.0
  0
VERTEX
  5
2DD
330
2DB
100
AcDbEntity
  8
001
370
     9
100
AcDbVertex
100
AcDb2dVertex
 10
57.800239
 20
42.743435
 30
0.0
  0
VERTEX
  5
2DE
330
2DB
100
AcDbEntity
  8
001
370
     9
100
AcDbVertex
100
AcDb2dVertex
 10
57.297834
 20
40.868435
 30
0.0
  0
VERTEX
  5
2DF
330
2DB
100
AcDbEntity
  8
001
370
     9
100
AcDbVertex
100
AcDb2dVertex
 10
56.79543
 20
42.743435
 30
0.0
  0
SEQEND
  5
2DC
330
2DB
100
AcDbEntity
  8
001
370
     9
  0
POLYLINE
  5
2E0
330
2D5
100
AcDbEntity
  8
001
370
     9
100
AcDb2dPolyline
 66
     1
 10
0.0
 20
0.0
 30
0.0
  0
VERTEX
  5
2E2
330
2E0
100
AcDbEntity
  8
001
370
     9
100
AcDbVertex
100
AcDb2dVertex
 10
56.79543
 20
63.993435
 30
0.0
  0
VERTEX
  5
2E3
330
2E0
100
AcDbEntity
  8
001
370
     9
100
AcDbVertex
100
AcDb2dVertex
 10
57.297834
 20
65.868435
 30
0.0
  0
VERTEX
  5
2E4
330
2E0
100
AcDbEntity
  8
001
370
     9
100
AcDbVertex
100
AcDb2dVertex
 10
57.800239
 20
63.993435
 30
0.0
  0
SEQEND
  5
2E1
330
2E0
100
AcDbEntity
  8
001
370
     9
  0
TEXT
  5
2E5
330
2D5
100
AcDbEntity
  8
001
370
    30
100
AcDbText
 10
56.047834
 20
45.868435
 30
0.0
 40
5.0
  1
%%c２５
 50
90.000003
 41
0.882353
100
AcDbText
  0
POINT
  5
2E6
330
2D5
100
AcDbEntity
  8
001
370
     9
100
AcDbPoint
 10
77.015278
 20
40.868435
 30
0.0
  0
POINT
  5
2E7
330
2D5
100
AcDbEntity
  8
001
370
     9
100
AcDbPoint
 10
77.015278
 20
65.868435
 30
0.0
  0
POINT
  5
2E8
330
2D5
100
AcDbEntity
  8
001
370
     9
100
AcDbPoint
 10
57.297834
 20
65.868435
 30
0.0
  0
ENDBLK
  5
2D7
330
2D5
100
AcDbEntity
  8
0
100
AcDbBlockEnd
  0
ENDSEC
  0
SECTION
  2
ENTITIES
  0
INSERT
  5
2E9
330
1F
100
AcDbEntity
  8
001
  6
ByBlock
 62
     0
370
    -2
100
AcDbBlockReference
  2
JZB-1
 10
0.0
 20
0.0
 30
0.0
  0
INSERT
  5
2EA
330
1F
100
AcDbEntity
  8
001
  6
ByBlock
 62
     0
370
    -2
100
AcDbBlockReference
  2
JZB-2
 10
0.0
 20
0.0
 30
0.0
  0
INSERT
  5
2EB
330
1F
100
AcDbEntity
  8
001
  6
ByBlock
 62
     0
370
    -2
100
AcDbBlockReference
  2
JZB-3
 10
0.0
 20
0.0
 30
0.0
  0
INSERT
  5
2EC
330
1F
100
AcDbEntity
  8
001
  6
ByBlock
 62
     0
370
    -2
100
AcDbBlockReference
  2
JZB-4
 10
0.0
 20
0.0
 30
0.0
  0
DIMENSION
  5
2ED
330
1F
100
AcDbEntity
  8
001
370
     9
100
AcDbDimension
  2
*D5
 10
102.015278
 20
109.073875
 30
0.0
 11
109.515278
 21
112.823875
 31
0.0
 70
   160
 71
     5
 42
-1.0
  3
Standard
100
AcDbAlignedDimension
 13
117.015278
 23
126.227196
 33
0.0
 14
102.015278
 24
126.227196
 34
0.0
 50
180.0
100
AcDbRotatedDimension
  0
DIMENSION
  5
2EE
330
1F
100
AcDbEntity
  8
001
370
     9
100
AcDbDimension
  2
*D6
 10
77.015278
 20
109.073875
 30
0.0
 11
89.515278
 21
112.823875
 31
0.0
 70
   160
 71
     5
 42
-1.0
  3
Standard
100
AcDbAlignedDimension
 13
102.015278
 23
126.227196
 33
0.0
 14
77.015278
 24
134.423349
 34
0.0
 50
180.0
100
AcDbRotatedDimension
  0
DIMENSION
  5
2EF
330
1F
100
AcDbEntity
  8
001
370
     9
100
AcDbDimension
  2
*D7
 10
197.015278
 20
96.701813
 30
0.0
 11
137.015278
 21
100.451813
 31
0.0
 70
   160
 71
     5
 42
-1.0
  3
Standard
100
AcDbAlignedDimension
 13
77.015278
 23
134.423349
 33
0.0
 14
197.015278
 24
131.227196
 34
0.0
100
AcDbRotatedDimension
  0
DIMENSION
  5
2F0
330
1F
100
AcDbEntity
  8
001
370
     9
100
AcDbDimension
  2
*D8
 10
56.361172
 20
169.227196
 30
0.0
 11
52.611172
 21
149.227196
 31
0.0
 70
   160
 71
     5
 42
-1.0
  3
Standard
100
AcDbAlignedDimension
 13
84.551176
 23
129.227196
 33
0.0
 14
84.551176
 24
169.227196
 34
0.0
 50
90.0
100
AcDbRotatedDimension
  0
DIMENSION
  5
2F1
330
1F
100
AcDbEntity
  8
001
370
     9
100
AcDbDimension
  2
*D9
 10
39.813473
 20
125.227196
 30
0.0
 11
36.063472
 21
149.227196
 31
0.0
 70
   160
 71
     5
 42
-1.0
  3
Standard
100
AcDbAlignedDimension
 13
103.015278
 23
173.227196
 33
0.0
 14
103.015278
 24
125.227196
 34
0.0
 50
270.0
100
AcDbRotatedDimension
  0
DIMENSION
  5
2F2
330
1F
100
AcDbEntity
  8
001
370
     9
100
AcDbDimension
  2
*D10
 10
221.249306
 20
169.227196
 30
0.0
 11
217.499306
 21
149.227196
 31
0.0
 70
   160
 71
     5
 42
-1.0
  3
Standard
100
AcDbAlignedDimension
 13
195.015278
 23
129.227196
 33
0.0
 14
195.015278
 24
169.227196
 34
0.0
 50
90.0
100
AcDbRotatedDimension
  0
INSERT
  5
2F3
330
1F
100
AcDbEntity
  8
001
  6
ByBlock
 62
     0
370
    -2
100
AcDbBlockReference
  2
DIM-5
 10
0.0
 20
0.0
 30
0.0
  0
DIMENSION
  5
2F4
330
1F
100
AcDbEntity
  8
001
370
     9
100
AcDbDimension
  2
*D12
 10
77.015278
 20
84.802656
 30
0.0
 11
84.515278
 21
88.552656
 31
0.0
 70
   160
 71
     5
 42
-1.0
  3
Standard
100
AcDbAlignedDimension
 13
92.015278
 23
77.531829
 33
0.0
 14
77.015278
 24
68.172283
 34
0.0
 50
180.0
100
AcDbRotatedDimension
  0
DIMENSION
  5
2F5
330
1F
100
AcDbEntity
  8
001
370
     9
100
AcDbDimension
  2
*D13
 10
79.015278
 20
38.564588
 30
0.0
 11
63.769425
 21
31.510007
 31
0.0
 70
   164
 71
     5
 42
-1.0
  3
Standard
100
AcDbRadialDimension
 15
77.433466
 25
37.340712
 35
0.0
 40
0.0
  0
DIMENSION
  5
2F6
330
1F
100
AcDbEntity
  8
001
370
     9
100
AcDbDimension
  2
*D14
 10
116.015278
 20
30.368435
 30
0.0
 11
129.190998
 21
21.601821
 31
0.0
 70
   164
 71
     5
 42
-1.0
  3
Standard
100
AcDbRadialDimension
 15
116.692857
 25
29.632986
 35
0.0
 40
0.0
  0
DIMENSION
  5
2F7
330
1F
100
AcDbEntity
  8
001
370
     9
100
AcDbDimension
  2
*D15
 10
195.015278
 20
167.227196
 30
0.0
 11
204.180142
 21
181.305846
 31
0.0
 70
   164
 71
     5
 42
-1.0
  3
Standard
100
AcDbRadialDimension
 15
196.453033
 25
168.617469
 35
0.0
 40
0.0
  0
DIMENSION
  5
2F8
330
1F
100
AcDbEntity
  8
001
370
     9
100
AcDbDimension
  2
*D16
 10
197.015278
 20
109.073875
 30
0.0
 11
157.015278
 21
112.823875
 31
0.0
 70
   160
 71
     5
 42
-1.0
  3
Standard
100
AcDbAlignedDimension
 13
117.015278
 23
126.227196
 33
0.0
 14
197.015278
 24
131.227196
 34
0.0
100
AcDbRotatedDimension
  0
DIMENSION
  5
2F9
330
1F
100
AcDbEntity
  8
001
370
     9
100
AcDbDimension
  2
*D17
 10
244.631816
 20
108.237454
 30
0.0
 11
263.781816
 21
111.987454
 31
0.0
 70
   160
 71
     5
 42
-1.0
  3
Standard
100
AcDbAlignedDimension
 13
282.931816
 23
149.227196
 33
0.0
 14
244.631816
 24
141.158119
 34
0.0
 50
180.0
100
AcDbRotatedDimension
  0
DIMENSION
  5
2FA
330
1F
100
AcDbEntity
  8
001
370
     9
100
AcDbDimension
  2
*D18
 10
92.015278
 20
84.802656
 30
0.0
 11
105.531688
 21
88.552656
 31
0.0
 70
   160
 71
     5
 42
-1.0
  3
Standard
100
AcDbAlignedDimension
 13
109.515278
 23
79.868878
 33
0.0
 14
92.015278
 24
77.531829
 34
0.0
 50
180.0
100
AcDbRotatedDimension
  0
DIMENSION
  5
2FB
330
1F
100
AcDbEntity
  8
001
370
     9
100
AcDbDimension
  2
*D19
 10
49.374261
 20
149.227196
 30
0.0
 11
131.790283
 21
179.861772
 31
0.0
 70
    34
 71
     5
 42
-1.0
  3
Standard
100
AcDb2LineAngularDimension
 13
83.551176
 23
168.959247
 33
0.0
 14
49.374261
 24
149.227196
 34
0.0
 15
67.638043
 25
149.227196
 35
0.0
 16
130.681464
 26
171.013395
 36
0.0
  0
DIMENSION
  5
2FC
330
1F
100
AcDbEntity
  8
001
370
     9
100
AcDbDimension
  2
*D20
 10
77.015278
 20
184.134936
 30
0.0
 11
65.140278
 21
187.884936
 31
0.0
 70
   160
 71
     5
 42
-1.0
  3
Standard
100
AcDbAlignedDimension
 13
84.015278
 23
169.227196
 33
0.0
 14
77.015278
 24
164.031044
 34
0.0
 50
180.0
100
AcDbRotatedDimension
  0
DIMENSION
  5
2FD
330
1F
100
AcDbEntity
  8
001
370
     9
100
AcDbDimension
  2
*D21
 10
57.297834
 20
65.868435
 30
0.0
 11
53.547834
 21
53.368435
 31
0.0
 70
   160
 71
     5
 42
-1.0
  3
Standard
100
AcDbAlignedDimension
 13
77.015278
 23
40.868435
 33
0.0
 14
77.015278
 24
65.868435
 34
0.0
 50
90.0
100
AcDbRotatedDimension
  0
TEXT
  5
2FE
330
1F
100
AcDbEntity
  8
001
370
    30
100
AcDbText
 10
46.547902
 20
212.014228
 30
0.0
 40
10.0
  1
オイルッシャー　ＫＪＤ４０Ｓ２５
 41
0.833333
100
AcDbText
  0
POLYLINE
  5
2FF
330
1F
100
AcDbEntity
  8
001
 62
   253
370
    50
100
AcDb2dPolyline
 66
     1
 10
0.0
 20
0.0
 30
0.0
  0
VERTEX
  5
301
330
2FF
100
AcDbEntity
  8
001
 62
   253
370
    50
100
AcDbVertex
100
AcDb2dVertex
 10
114.587505
 20
148.36293
 30
0.0
  0
VERTEX
  5
302
330
2FF
100
AcDbEntity
  8
001
 62
   253
370
    50
100
AcDbVertex
100
AcDb2dVertex
 10
114.613783
 20
148.565061
 30
0.0
  0
VERTEX
  5
303
330
2FF
100
AcDbEntity
  8
001
 62
   253
370
    50
100
AcDbVertex
100
AcDb2dVertex
 10
114.633822
 20
148.766537
 30
0.0
  0
VERTEX
  5
304
330
2FF
100
AcDbEntity
  8
001
 62
   253
370
    50
100
AcDbVertex
100
AcDb2dVertex
 10
114.642409
 20
148.968623
 30
0.0
  0
VERTEX
  5
305
330
2FF
100
AcDbEntity
  8
001
 62
   253
370
    50
100
AcDbVertex
100
AcDb2dVertex
 10
114.638246
 20
149.174665
 30
0.0
  0
VERTEX
  5
306
330
2FF
100
AcDbEntity
  8
001
 62
   253
370
    50
100
AcDbVertex
100
AcDb2dVertex
 10
114.632044
 20
149.264752
 30
0.0
  0
VERTEX
  5
307
330
2FF
100
AcDbEntity
  8
001
 62
   253
370
    50
100
AcDbVertex
100
AcDb2dVertex
 10
114.620791
 20
149.349643
 30
0.0
  0
VERTEX
  5
308
330
2FF
100
AcDbEntity
  8
001
 62
   253
370
    50
100
AcDbVertex
100
AcDb2dVertex
 10
114.617507
 20
149.365522
 30
0.0
  0
VERTEX
  5
309
330
2FF
100
AcDbEntity
  8
001
 62
   253
370
    50
100
AcDbVertex
100
AcDb2dVertex
 10
114.612424
 20
149.383206
 30
0.0
  0
VERTEX
  5
30A
330
2FF
100
AcDbEntity
  8
001
 62
   253
370
    50
100
AcDbVertex
100
AcDb2dVertex
 10
114.609954
 20
149.389706
 30
0.0
  0
VERTEX
  5
30B
330
2FF
100
AcDbEntity
  8
001
 62
   253
370
    50
100
AcDbVertex
100
AcDb2dVertex
 10
114.606968
 20
149.393909
 30
0.0
  0
VERTEX
  5
30C
330
2FF
100
AcDbEntity
  8
001
 62
   253
370
    50
100
AcDbVertex
100
AcDb2dVertex
 10
114.599183
 20
149.389286
 30
0.0
  0
VERTEX
  5
30D
330
2FF
100
AcDbEntity
  8
001
 62
   253
370
    50
100
AcDbVertex
100
AcDb2dVertex
 10
114.591196
 20
149.374475
 30
0.0
  0
VERTEX
  5
30E
330
2FF
100
AcDbEntity
  8
001
 62
   253
370
    50
100
AcDbVertex
100
AcDb2dVertex
 10
114.577643
 20
149.328121
 30
0.0
  0
VERTEX
  5
30F
330
2FF
100
AcDbEntity
  8
001
 62
   253
370
    50
100
AcDbVertex
100
AcDb2dVertex
 10
114.57653
 20
149.290462
 30
0.0
  0
VERTEX
  5
310
330
2FF
100
AcDbEntity
  8
001
 62
   253
370
    50
100
AcDbVertex
100
AcDb2dVertex
 10
114.562176
 20
149.12789
 30
0.0
  0
VERTEX
  5
311
330
2FF
100
AcDbEntity
  8
001
 62
   253
370
    50
100
AcDbVertex
100
AcDb2dVertex
 10
114.529683
 20
148.951243
 30
0.0
  0
VERTEX
  5
312
330
2FF
100
AcDbEntity
  8
001
 62
   253
370
    50
100
AcDbVertex
100
AcDb2dVertex
 10
114.45652
 20
148.609979
 30
0.0
  0
VERTEX
  5
313
330
2FF
100
AcDbEntity
  8
001
 62
   253
370
    50
100
AcDbVertex
100
AcDb2dVertex
 10
114.369085
 20
148.283869
 30
0.0
  0
VERTEX
  5
314
330
2FF
100
AcDbEntity
  8
001
 62
   253
370
    50
100
AcDbVertex
100
AcDb2dVertex
 10
114.253048
 20
147.955218
 30
0.0
  0
VERTEX
  5
315
330
2FF
100
AcDbEntity
  8
001
 62
   253
370
    50
100
AcDbVertex
100
AcDb2dVertex
 10
114.111195
 20
147.633202
 30
0.0
  0
VERTEX
  5
316
330
2FF
100
AcDbEntity
  8
001
 62
   253
370
    50
100
AcDbVertex
100
AcDb2dVertex
 10
113.950787
 20
147.329122
 30
0.0
  0
VERTEX
  5
317
330
2FF
100
AcDbEntity
  8
001
 62
   253
370
    50
100
AcDbVertex
100
AcDb2dVertex
 10
113.769694
 20
147.037969
 30
0.0
  0
VERTEX
  5
318
330
2FF
100
AcDbEntity
  8
001
 62
   253
370
    50
100
AcDbVertex
100
AcDb2dVertex
 10
113.563335
 20
146.754759
 30
0.0
  0
VERTEX
  5
319
330
2FF
100
AcDbEntity
  8
001
 62
   253
370
    50
100
AcDbVertex
100
AcDb2dVertex
 10
113.336286
 20
146.487477
 30
0.0
  0
VERTEX
  5
31A
330
2FF
100
AcDbEntity
  8
001
 62
   253
370
    50
100
AcDbVertex
100
AcDb2dVertex
 10
113.055382
 20
146.206025
 30
0.0
  0
VERTEX
  5
31B
330
2FF
100
AcDbEntity
  8
001
 62
   253
370
    50
100
AcDbVertex
100
AcDb2dVertex
 10
112.751352
 20
145.949726
 30
0.0
  0
VERTEX
  5
31C
330
2FF
100
AcDbEntity
  8
001
 62
   253
370
    50
100
AcDbVertex
100
AcDb2dVertex
 10
112.415779
 20
145.714114
 30
0.0
  0
VERTEX
  5
31D
330
2FF
100
AcDbEntity
  8
001
 62
   253
370
    50
100
AcDbVertex
100
AcDb2dVertex
 10
112.060286
 20
145.51003
 30
0.0
  0
VERTEX
  5
31E
330
2FF
100
AcDbEntity
  8
001
 62
   253
370
    50
100
AcDbVertex
100
AcDb2dVertex
 10
111.713011
 20
145.349974
 30
0.0
  0
VERTEX
  5
31F
330
2FF
100
AcDbEntity
  8
001
 62
   253
370
    50
100
AcDbVertex
100
AcDb2dVertex
 10
111.353163
 20
145.219847
 30
0.0
  0
VERTEX
  5
320
330
2FF
100
AcDbEntity
  8
001
 62
   253
370
    50
100
AcDbVertex
100
AcDb2dVertex
 10
110.971613
 20
145.118173
 30
0.0
  0
VERTEX
  5
321
330
2FF
100
AcDbEntity
  8
001
 62
   253
370
    50
100
AcDbVertex
100
AcDb2dVertex
 10
110.582603
 20
145.054283
 30
0.0
  0
VERTEX
  5
322
330
2FF
100
AcDbEntity
  8
001
 62
   253
370
    50
100
AcDbVertex
100
AcDb2dVertex
 10
110.364774
 20
145.035947
 30
0.0
  0
VERTEX
  5
323
330
2FF
100
AcDbEntity
  8
001
 62
   253
370
    50
100
AcDbVertex
100
AcDb2dVertex
 10
110.146311
 20
145.024305
 30
0.0
  0
SEQEND
  5
300
330
2FF
100
AcDbEntity
  8
001
370
    50
  0
POLYLINE
  5
324
330
1F
100
AcDbEntity
  8
001
 62
   253
370
    50
100
AcDb2dPolyline
 66
     1
 10
0.0
 20
0.0
 30
0.0
  0
VERTEX
  5
326
330
324
100
AcDbEntity
  8
001
 62
   253
370
    50
100
AcDbVertex
100
AcDb2dVertex
 10
114.053438
 20
146.802491
 30
0.0
  0
VERTEX
  5
327
330
324
100
AcDbEntity
  8
001
 62
   253
370
    50
100
AcDbVertex
100
AcDb2dVertex
 10
114.060907
 20
146.8163
 30
0.0
  0
VERTEX
  5
328
330
324
100
AcDbEntity
  8
001
 62
   253
370
    50
100
AcDbVertex
100
AcDb2dVertex
 10
114.068359
 20
146.83012
 30
0.0
  0
VERTEX
  5
329
330
324
100
AcDbEntity
  8
001
 62
   253
370
    50
100
AcDbVertex
100
AcDb2dVertex
 10
114.250521
 20
147.203887
 30
0.0
  0
VERTEX
  5
32A
330
324
100
AcDbEntity
  8
001
 62
   253
370
    50
100
AcDbVertex
100
AcDb2dVertex
 10
114.397869
 20
147.592335
 30
0.0
  0
VERTEX
  5
32B
330
324
100
AcDbEntity
  8
001
 62
   253
370
    50
100
AcDbVertex
100
AcDb2dVertex
 10
114.502646
 20
147.974745
 30
0.0
  0
VERTEX
  5
32C
330
324
100
AcDbEntity
  8
001
 62
   253
370
    50
100
AcDbVertex
100
AcDb2dVertex
 10
114.587505
 20
148.36293
 30
0.0
  0
SEQEND
  5
325
330
324
100
AcDbEntity
  8
001
370
    50
  0
POLYLINE
  5
32D
330
1F
100
AcDbEntity
  8
001
 62
   253
370
    50
100
AcDb2dPolyline
 66
     1
 10
0.0
 20
0.0
 30
0.0
  0
VERTEX
  5
32F
330
32D
100
AcDbEntity
  8
001
 62
   253
370
    50
100
AcDbVertex
100
AcDb2dVertex
 10
106.888071
 20
145.886494
 30
0.0
  0
VERTEX
  5
330
330
32D
100
AcDbEntity
  8
001
 62
   253
370
    50
100
AcDbVertex
100
AcDb2dVertex
 10
106.961422
 20
145.83055
 30
0.0
  0
VERTEX
  5
331
330
32D
100
AcDbEntity
  8
001
 62
   253
370
    50
100
AcDbVertex
100
AcDb2dVertex
 10
107.035522
 20
145.77563
 30
0.0
  0
VERTEX
  5
332
330
32D
100
AcDbEntity
  8
001
 62
   253
370
    50
100
AcDbVertex
100
AcDb2dVertex
 10
107.111027
 20
145.722497
 30
0.0
  0
VERTEX
  5
333
330
32D
100
AcDbEntity
  8
001
 62
   253
370
    50
100
AcDbVertex
100
AcDb2dVertex
 10
107.187789
 20
145.671173
 30
0.0
  0
VERTEX
  5
334
330
32D
100
AcDbEntity
  8
001
 62
   253
370
    50
100
AcDbVertex
100
AcDb2dVertex
 10
107.265606
 20
145.62147
 30
0.0
  0
VERTEX
  5
335
330
32D
100
AcDbEntity
  8
001
 62
   253
370
    50
100
AcDbVertex
100
AcDb2dVertex
 10
107.344453
 20
145.573428
 30
0.0
  0
VERTEX
  5
336
330
32D
100
AcDbEntity
  8
001
 62
   253
370
    50
100
AcDbVertex
100
AcDb2dVertex
 10
107.424263
 20
145.527169
 30
0.0
  0
VERTEX
  5
337
330
32D
100
AcDbEntity
  8
001
 62
   253
370
    50
100
AcDbVertex
100
AcDb2dVertex
 10
107.505066
 20
145.48266
 30
0.0
  0
VERTEX
  5
338
330
32D
100
AcDbEntity
  8
001
 62
   253
370
    50
100
AcDbVertex
100
AcDb2dVertex
 10
107.586827
 20
145.439899
 30
0.0
  0
VERTEX
  5
339
330
32D
100
AcDbEntity
  8
001
 62
   253
370
    50
100
AcDbVertex
100
AcDb2dVertex
 10
107.669499
 20
145.398933
 30
0.0
  0
VERTEX
  5
33A
330
32D
100
AcDbEntity
  8
001
 62
   253
370
    50
100
AcDbVertex
100
AcDb2dVertex
 10
107.753113
 20
145.35976
 30
0.0
  0
VERTEX
  5
33B
330
32D
100
AcDbEntity
  8
001
 62
   253
370
    50
100
AcDbVertex
100
AcDb2dVertex
 10
107.837544
 20
145.322365
 30
0.0
  0
VERTEX
  5
33C
330
32D
100
AcDbEntity
  8
001
 62
   253
370
    50
100
AcDbVertex
100
AcDb2dVertex
 10
107.922729
 20
145.286749
 30
0.0
  0
VERTEX
  5
33D
330
32D
100
AcDbEntity
  8
001
 62
   253
370
    50
100
AcDbVertex
100
AcDb2dVertex
 10
108.008728
 20
145.25318
 30
0.0
  0
VERTEX
  5
33E
330
32D
100
AcDbEntity
  8
001
 62
   253
370
    50
100
AcDbVertex
100
AcDb2dVertex
 10
108.095436
 20
145.22177
 30
0.0
  0
VERTEX
  5
33F
330
32D
100
AcDbEntity
  8
001
 62
   253
370
    50
100
AcDbVertex
100
AcDb2dVertex
 10
108.182584
 20
145.191552
 30
0.0
  0
SEQEND
  5
32E
330
32D
100
AcDbEntity
  8
001
370
    50
  0
POLYLINE
  5
340
330
1F
100
AcDbEntity
  8
001
 62
   253
370
    50
100
AcDb2dPolyline
 66
     1
 10
0.0
 20
0.0
 30
0.0
  0
VERTEX
  5
342
330
340
100
AcDbEntity
  8
001
 62
   253
370
    50
100
AcDbVertex
100
AcDb2dVertex
 10
108.182584
 20
145.191552
 30
0.0
  0
VERTEX
  5
343
330
340
100
AcDbEntity
  8
001
 62
   253
370
    50
100
AcDbVertex
100
AcDb2dVertex
 10
108.309368
 20
145.152411
 30
0.0
  0
VERTEX
  5
344
330
340
100
AcDbEntity
  8
001
 62
   253
370
    50
100
AcDbVertex
100
AcDb2dVertex
 10
108.43694
 20
145.116273
 30
0.0
  0
VERTEX
  5
345
330
340
100
AcDbEntity
  8
001
 62
   253
370
    50
100
AcDbVertex
100
AcDb2dVertex
 10
108.565859
 20
145.085132
 30
0.0
  0
VERTEX
  5
346
330
340
100
AcDbEntity
  8
001
 62
   253
370
    50
100
AcDbVertex
100
AcDb2dVertex
 10
108.695565
 20
145.056996
 30
0.0
  0
SEQEND
  5
341
330
340
100
AcDbEntity
  8
001
370
    50
  0
POLYLINE
  5
347
330
1F
100
AcDbEntity
  8
001
 62
   253
370
    50
100
AcDb2dPolyline
 66
     1
 10
0.0
 20
0.0
 30
0.0
  0
VERTEX
  5
349
330
347
100
AcDbEntity
  8
001
 62
   253
370
    50
100
AcDbVertex
100
AcDb2dVertex
 10
108.695565
 20
145.056996
 30
0.0
  0
VERTEX
  5
34A
330
347
100
AcDbEntity
  8
001
 62
   253
370
    50
100
AcDbVertex
100
AcDb2dVertex
 10
108.740001
 20
145.048594
 30
0.0
  0
VERTEX
  5
34B
330
347
100
AcDbEntity
  8
001
 62
   253
370
    50
100
AcDbVertex
100
AcDb2dVertex
 10
108.784491
 20
145.040497
 30
0.0
  0
VERTEX
  5
34C
330
347
100
AcDbEntity
  8
001
 62
   253
370
    50
100
AcDbVertex
100
AcDb2dVertex
 10
108.829057
 20
145.032945
 30
0.0
  0
VERTEX
  5
34D
330
347
100
AcDbEntity
  8
001
 62
   253
370
    50
100
AcDbVertex
100
AcDb2dVertex
 10
108.873708
 20
145.0259
 30
0.0
  0
VERTEX
  5
34E
330
347
100
AcDbEntity
  8
001
 62
   253
370
    50
100
AcDbVertex
100
AcDb2dVertex
 10
108.918455
 20
145.019293
 30
0.0
  0
VERTEX
  5
34F
330
347
100
AcDbEntity
  8
001
 62
   253
370
    50
100
AcDbVertex
100
AcDb2dVertex
 10
108.963272
 20
145.013197
 30
0.0
  0
VERTEX
  5
350
330
347
100
AcDbEntity
  8
001
 62
   253
370
    50
100
AcDbVertex
100
AcDb2dVertex
 10
109.008182
 20
145.007644
 30
0.0
  0
VERTEX
  5
351
330
347
100
AcDbEntity
  8
001
 62
   253
370
    50
100
AcDbVertex
100
AcDb2dVertex
 10
109.053132
 20
145.002398
 30
0.0
  0
SEQEND
  5
348
330
347
100
AcDbEntity
  8
001
370
    50
  0
POLYLINE
  5
352
330
1F
100
AcDbEntity
  8
001
 62
   253
370
    50
100
AcDb2dPolyline
 66
     1
 10
0.0
 20
0.0
 30
0.0
  0
VERTEX
  5
354
330
352
100
AcDbEntity
  8
001
 62
   253
370
    50
100
AcDbVertex
100
AcDb2dVertex
 10
109.053132
 20
145.002398
 30
0.0
  0
VERTEX
  5
355
330
352
100
AcDbEntity
  8
001
 62
   253
370
    50
100
AcDbVertex
100
AcDb2dVertex
 10
109.123061
 20
144.995541
 30
0.0
  0
VERTEX
  5
356
330
352
100
AcDbEntity
  8
001
 62
   253
370
    50
100
AcDbVertex
100
AcDb2dVertex
 10
109.193051
 20
144.989429
 30
0.0
  0
VERTEX
  5
357
330
352
100
AcDbEntity
  8
001
 62
   253
370
    50
100
AcDbVertex
100
AcDb2dVertex
 10
109.263139
 20
144.98464
 30
0.0
  0
VERTEX
  5
358
330
352
100
AcDbEntity
  8
001
 62
   253
370
    50
100
AcDbVertex
100
AcDb2dVertex
 10
109.333308
 20
144.981094
 30
0.0
  0
VERTEX
  5
359
330
352
100
AcDbEntity
  8
001
 62
   253
370
    50
100
AcDbVertex
100
AcDb2dVertex
 10
109.403477
 20
144.978626
 30
0.0
  0
VERTEX
  5
35A
330
352
100
AcDbEntity
  8
001
 62
   253
370
    50
100
AcDbVertex
100
AcDb2dVertex
 10
109.473671
 20
144.9774
 30
0.0
  0
VERTEX
  5
35B
330
352
100
AcDbEntity
  8
001
 62
   253
370
    50
100
AcDbVertex
100
AcDb2dVertex
 10
109.543836
 20
144.977499
 30
0.0
  0
VERTEX
  5
35C
330
352
100
AcDbEntity
  8
001
 62
   253
370
    50
100
AcDbVertex
100
AcDb2dVertex
 10
109.614005
 20
144.978343
 30
0.0
  0
SEQEND
  5
353
330
352
100
AcDbEntity
  8
001
370
    50
  0
POLYLINE
  5
35D
330
1F
100
AcDbEntity
  8
001
 62
   253
370
    50
100
AcDb2dPolyline
 66
     1
 10
0.0
 20
0.0
 30
0.0
  0
VERTEX
  5
35F
330
35D
100
AcDbEntity
  8
001
 62
   253
370
    50
100
AcDbVertex
100
AcDb2dVertex
 10
109.614005
 20
144.978343
 30
0.0
  0
VERTEX
  5
360
330
35D
100
AcDbEntity
  8
001
 62
   253
370
    50
100
AcDbVertex
100
AcDb2dVertex
 10
109.747586
 20
144.984077
 30
0.0
  0
VERTEX
  5
361
330
35D
100
AcDbEntity
  8
001
 62
   253
370
    50
100
AcDbVertex
100
AcDb2dVertex
 10
109.880895
 20
144.992952
 30
0.0
  0
VERTEX
  5
362
330
35D
100
AcDbEntity
  8
001
 62
   253
370
    50
100
AcDbVertex
100
AcDb2dVertex
 10
110.013739
 20
145.007058
 30
0.0
  0
VERTEX
  5
363
330
35D
100
AcDbEntity
  8
001
 62
   253
370
    50
100
AcDbVertex
100
AcDb2dVertex
 10
110.146311
 20
145.024305
 30
0.0
  0
SEQEND
  5
35E
330
35D
100
AcDbEntity
  8
001
370
    50
  0
POLYLINE
  5
364
330
1F
100
AcDbEntity
  8
001
 62
   253
370
    50
100
AcDb2dPolyline
 66
     1
 10
0.0
 20
0.0
 30
0.0
  0
VERTEX
  5
366
330
364
100
AcDbEntity
  8
001
 62
   253
370
    50
100
AcDbVertex
100
AcDb2dVertex
 10
113.333978
 20
147.361712
 30
0.0
  0
VERTEX
  5
367
330
364
100
AcDbEntity
  8
001
 62
   253
370
    50
100
AcDbVertex
100
AcDb2dVertex
 10
113.422136
 20
147.540973
 30
0.0
  0
VERTEX
  5
368
330
364
100
AcDbEntity
  8
001
 62
   253
370
    50
100
AcDbVertex
100
AcDb2dVertex
 10
113.505167
 20
147.722519
 30
0.0
  0
VERTEX
  5
369
330
364
100
AcDbEntity
  8
001
 62
   253
370
    50
100
AcDbVertex
100
AcDb2dVertex
 10
113.629488
 20
148.055467
 30
0.0
  0
VERTEX
  5
36A
330
364
100
AcDbEntity
  8
001
 62
   253
370
    50
100
AcDbVertex
100
AcDb2dVertex
 10
113.723835
 20
148.398629
 30
0.0
  0
VERTEX
  5
36B
330
364
100
AcDbEntity
  8
001
 62
   253
370
    50
100
AcDbVertex
100
AcDb2dVertex
 10
113.791598
 20
148.758307
 30
0.0
  0
VERTEX
  5
36C
330
364
100
AcDbEntity
  8
001
 62
   253
370
    50
100
AcDbVertex
100
AcDb2dVertex
 10
113.829081
 20
149.122155
 30
0.0
  0
VERTEX
  5
36D
330
364
100
AcDbEntity
  8
001
 62
   253
370
    50
100
AcDbVertex
100
AcDb2dVertex
 10
113.835615
 20
149.477629
 30
0.0
  0
VERTEX
  5
36E
330
364
100
AcDbEntity
  8
001
 62
   253
370
    50
100
AcDbVertex
100
AcDb2dVertex
 10
113.812802
 20
149.832512
 30
0.0
  0
VERTEX
  5
36F
330
364
100
AcDbEntity
  8
001
 62
   253
370
    50
100
AcDbVertex
100
AcDb2dVertex
 10
113.759151
 20
150.194183
 30
0.0
  0
VERTEX
  5
370
330
364
100
AcDbEntity
  8
001
 62
   253
370
    50
100
AcDbVertex
100
AcDb2dVertex
 10
113.675378
 20
150.550059
 30
0.0
  0
VERTEX
  5
371
330
364
100
AcDbEntity
  8
001
 62
   253
370
    50
100
AcDbVertex
100
AcDb2dVertex
 10
113.563796
 20
150.893036
 30
0.0
  0
VERTEX
  5
372
330
364
100
AcDbEntity
  8
001
 62
   253
370
    50
100
AcDbVertex
100
AcDb2dVertex
 10
113.424343
 20
151.225669
 30
0.0
  0
VERTEX
  5
373
330
364
100
AcDbEntity
  8
001
 62
   253
370
    50
100
AcDbVertex
100
AcDb2dVertex
 10
113.252923
 20
151.554605
 30
0.0
  0
VERTEX
  5
374
330
364
100
AcDbEntity
  8
001
 62
   253
370
    50
100
AcDbVertex
100
AcDb2dVertex
 10
113.054431
 20
151.86795
 30
0.0
  0
VERTEX
  5
375
330
364
100
AcDbEntity
  8
001
 62
   253
370
    50
100
AcDbVertex
100
AcDb2dVertex
 10
112.834175
 20
152.158828
 30
0.0
  0
VERTEX
  5
376
330
364
100
AcDbEntity
  8
001
 62
   253
370
    50
100
AcDbVertex
100
AcDb2dVertex
 10
112.590713
 20
152.430585
 30
0.0
  0
VERTEX
  5
377
330
364
100
AcDbEntity
  8
001
 62
   253
370
    50
100
AcDbVertex
100
AcDb2dVertex
 10
112.317912
 20
152.68822
 30
0.0
  0
VERTEX
  5
378
330
364
100
AcDbEntity
  8
001
 62
   253
370
    50
100
AcDbVertex
100
AcDb2dVertex
 10
112.024393
 20
152.921983
 30
0.0
  0
VERTEX
  5
379
330
364
100
AcDbEntity
  8
001
 62
   253
370
    50
100
AcDbVertex
100
AcDb2dVertex
 10
111.71755
 20
153.127034
 30
0.0
  0
VERTEX
  5
37A
330
364
100
AcDbEntity
  8
001
 62
   253
370
    50
100
AcDbVertex
100
AcDb2dVertex
 10
111.394861
 20
153.306122
 30
0.0
  0
VERTEX
  5
37B
330
364
100
AcDbEntity
  8
001
 62
   253
370
    50
100
AcDbVertex
100
AcDb2dVertex
 10
111.048805
 20
153.461994
 30
0.0
  0
VERTEX
  5
37C
330
364
100
AcDbEntity
  8
001
 62
   253
370
    50
100
AcDbVertex
100
AcDb2dVertex
 10
110.690853
 20
153.588183
 30
0.0
  0
VERTEX
  5
37D
330
364
100
AcDbEntity
  8
001
 62
   253
370
    50
100
AcDbVertex
100
AcDb2dVertex
 10
110.329725
 20
153.682503
 30
0.0
  0
VERTEX
  5
37E
330
364
100
AcDbEntity
  8
001
 62
   253
370
    50
100
AcDbVertex
100
AcDb2dVertex
 10
109.962053
 20
153.746762
 30
0.0
  0
VERTEX
  5
37F
330
364
100
AcDbEntity
  8
001
 62
   253
370
    50
100
AcDbVertex
100
AcDb2dVertex
 10
109.579738
 20
153.781094
 30
0.0
  0
VERTEX
  5
380
330
364
100
AcDbEntity
  8
001
 62
   253
370
    50
100
AcDbVertex
100
AcDb2dVertex
 10
109.195887
 20
153.783116
 30
0.0
  0
VERTEX
  5
381
330
364
100
AcDbEntity
  8
001
 62
   253
370
    50
100
AcDbVertex
100
AcDb2dVertex
 10
108.819606
 20
153.753632
 30
0.0
  0
VERTEX
  5
382
330
364
100
AcDbEntity
  8
001
 62
   253
370
    50
100
AcDbVertex
100
AcDb2dVertex
 10
108.44703
 20
153.693258
 30
0.0
  0
VERTEX
  5
383
330
364
100
AcDbEntity
  8
001
 62
   253
370
    50
100
AcDbVertex
100
AcDb2dVertex
 10
108.070372
 20
153.599434
 30
0.0
  0
VERTEX
  5
384
330
364
100
AcDbEntity
  8
001
 62
   253
370
    50
100
AcDbVertex
100
AcDb2dVertex
 10
107.70295
 20
153.474227
 30
0.0
  0
VERTEX
  5
385
330
364
100
AcDbEntity
  8
001
 62
   253
370
    50
100
AcDbVertex
100
AcDb2dVertex
 10
107.353243
 20
153.321441
 30
0.0
  0
VERTEX
  5
386
330
364
100
AcDbEntity
  8
001
 62
   253
370
    50
100
AcDbVertex
100
AcDb2dVertex
 10
107.017306
 20
153.140369
 30
0.0
  0
VERTEX
  5
387
330
364
100
AcDbEntity
  8
001
 62
   253
370
    50
100
AcDbVertex
100
AcDb2dVertex
 10
106.688548
 20
152.925986
 30
0.0
  0
VERTEX
  5
388
330
364
100
AcDbEntity
  8
001
 62
   253
370
    50
100
AcDbVertex
100
AcDb2dVertex
 10
106.379011
 20
152.684677
 30
0.0
  0
VERTEX
  5
389
330
364
100
AcDbEntity
  8
001
 62
   253
370
    50
100
AcDbVertex
100
AcDb2dVertex
 10
106.095569
 20
152.422918
 30
0.0
  0
VERTEX
  5
38A
330
364
100
AcDbEntity
  8
001
 62
   253
370
    50
100
AcDbVertex
100
AcDb2dVertex
 10
105.834651
 20
152.138699
 30
0.0
  0
VERTEX
  5
38B
330
364
100
AcDbEntity
  8
001
 62
   253
370
    50
100
AcDbVertex
100
AcDb2dVertex
 10
105.591624
 20
151.825036
 30
0.0
  0
VERTEX
  5
38C
330
364
100
AcDbEntity
  8
001
 62
   253
370
    50
100
AcDbVertex
100
AcDb2dVertex
 10
105.375878
 20
151.492015
 30
0.0
  0
VERTEX
  5
38D
330
364
100
AcDbEntity
  8
001
 62
   253
370
    50
100
AcDbVertex
100
AcDb2dVertex
 10
105.191857
 20
151.148145
 30
0.0
  0
VERTEX
  5
38E
330
364
100
AcDbEntity
  8
001
 62
   253
370
    50
100
AcDbVertex
100
AcDb2dVertex
 10
105.036789
 20
150.790282
 30
0.0
  0
VERTEX
  5
38F
330
364
100
AcDbEntity
  8
001
 62
   253
370
    50
100
AcDbVertex
100
AcDb2dVertex
 10
104.908562
 20
150.410219
 30
0.0
  0
VERTEX
  5
390
330
364
100
AcDbEntity
  8
001
 62
   253
370
    50
100
AcDbVertex
100
AcDb2dVertex
 10
104.812806
 20
150.020702
 30
0.0
  0
VERTEX
  5
391
330
364
100
AcDbEntity
  8
001
 62
   253
370
    50
100
AcDbVertex
100
AcDb2dVertex
 10
104.750956
 20
149.631377
 30
0.0
  0
VERTEX
  5
392
330
364
100
AcDbEntity
  8
001
 62
   253
370
    50
100
AcDbVertex
100
AcDb2dVertex
 10
104.721389
 20
149.238278
 30
0.0
  0
VERTEX
  5
393
330
364
100
AcDbEntity
  8
001
 62
   253
370
    50
100
AcDbVertex
100
AcDb2dVertex
 10
104.724811
 20
148.832866
 30
0.0
  0
VERTEX
  5
394
330
364
100
AcDbEntity
  8
001
 62
   253
370
    50
100
AcDbVertex
100
AcDb2dVertex
 10
104.762377
 20
148.42918
 30
0.0
  0
VERTEX
  5
395
330
364
100
AcDbEntity
  8
001
 62
   253
370
    50
100
AcDbVertex
100
AcDb2dVertex
 10
104.832252
 20
148.036954
 30
0.0
  0
VERTEX
  5
396
330
364
100
AcDbEntity
  8
001
 62
   253
370
    50
100
AcDbVertex
100
AcDb2dVertex
 10
104.934206
 20
147.651816
 30
0.0
  0
VERTEX
  5
397
330
364
100
AcDbEntity
  8
001
 62
   253
370
    50
100
AcDbVertex
100
AcDb2dVertex
 10
105.071741
 20
147.265845
 30
0.0
  0
VERTEX
  5
398
330
364
100
AcDbEntity
  8
001
 62
   253
370
    50
100
AcDbVertex
100
AcDb2dVertex
 10
105.24131
 20
146.892833
 30
0.0
  0
VERTEX
  5
399
330
364
100
AcDbEntity
  8
001
 62
   253
370
    50
100
AcDbVertex
100
AcDb2dVertex
 10
105.437914
 20
146.541505
 30
0.0
  0
VERTEX
  5
39A
330
364
100
AcDbEntity
  8
001
 62
   253
370
    50
100
AcDbVertex
100
AcDb2dVertex
 10
105.662799
 20
146.207569
 30
0.0
  0
VERTEX
  5
39B
330
364
100
AcDbEntity
  8
001
 62
   253
370
    50
100
AcDbVertex
100
AcDb2dVertex
 10
105.921933
 20
145.884622
 30
0.0
  0
VERTEX
  5
39C
330
364
100
AcDbEntity
  8
001
 62
   253
370
    50
100
AcDbVertex
100
AcDb2dVertex
 10
106.207363
 20
145.584659
 30
0.0
  0
VERTEX
  5
39D
330
364
100
AcDbEntity
  8
001
 62
   253
370
    50
100
AcDbVertex
100
AcDb2dVertex
 10
106.51139
 20
145.314386
 30
0.0
  0
VERTEX
  5
39E
330
364
100
AcDbEntity
  8
001
 62
   253
370
    50
100
AcDbVertex
100
AcDb2dVertex
 10
106.836657
 20
145.070083
 30
0.0
  0
VERTEX
  5
39F
330
364
100
AcDbEntity
  8
001
 62
   253
370
    50
100
AcDbVertex
100
AcDb2dVertex
 10
107.190983
 20
144.847614
 30
0.0
  0
VERTEX
  5
3A0
330
364
100
AcDbEntity
  8
001
 62
   253
370
    50
100
AcDbVertex
100
AcDb2dVertex
 10
107.562801
 20
144.655798
 30
0.0
  0
VERTEX
  5
3A1
330
364
100
AcDbEntity
  8
001
 62
   253
370
    50
100
AcDbVertex
100
AcDb2dVertex
 10
107.942498
 20
144.4985
 30
0.0
  0
VERTEX
  5
3A2
330
364
100
AcDbEntity
  8
001
 62
   253
370
    50
100
AcDbVertex
100
AcDb2dVertex
 10
108.333869
 20
144.373034
 30
0.0
  0
VERTEX
  5
3A3
330
364
100
AcDbEntity
  8
001
 62
   253
370
    50
100
AcDbVertex
100
AcDb2dVertex
 10
108.74575
 20
144.278043
 30
0.0
  0
VERTEX
  5
3A4
330
364
100
AcDbEntity
  8
001
 62
   253
370
    50
100
AcDbVertex
100
AcDb2dVertex
 10
109.164175
 20
144.218083
 30
0.0
  0
VERTEX
  5
3A5
330
364
100
AcDbEntity
  8
001
 62
   253
370
    50
100
AcDbVertex
100
AcDb2dVertex
 10
109.578641
 20
144.193656
 30
0.0
  0
VERTEX
  5
3A6
330
364
100
AcDbEntity
  8
001
 62
   253
370
    50
100
AcDbVertex
100
AcDb2dVertex
 10
109.993715
 20
144.203562
 30
0.0
  0
VERTEX
  5
3A7
330
364
100
AcDbEntity
  8
001
 62
   253
370
    50
100
AcDbVertex
100
AcDb2dVertex
 10
110.418441
 20
144.249656
 30
0.0
  0
VERTEX
  5
3A8
330
364
100
AcDbEntity
  8
001
 62
   253
370
    50
100
AcDbVertex
100
AcDb2dVertex
 10
110.837635
 20
144.331971
 30
0.0
  0
VERTEX
  5
3A9
330
364
100
AcDbEntity
  8
001
 62
   253
370
    50
100
AcDbVertex
100
AcDb2dVertex
 10
111.237053
 20
144.446393
 30
0.0
  0
VERTEX
  5
3AA
330
364
100
AcDbEntity
  8
001
 62
   253
370
    50
100
AcDbVertex
100
AcDb2dVertex
 10
111.625588
 20
144.593709
 30
0.0
  0
VERTEX
  5
3AB
330
364
100
AcDbEntity
  8
001
 62
   253
370
    50
100
AcDbVertex
100
AcDb2dVertex
 10
112.000614
 20
144.772791
 30
0.0
  0
VERTEX
  5
3AC
330
364
100
AcDbEntity
  8
001
 62
   253
370
    50
100
AcDbVertex
100
AcDb2dVertex
 10
112.359278
 20
144.982483
 30
0.0
  0
VERTEX
  5
3AD
330
364
100
AcDbEntity
  8
001
 62
   253
370
    50
100
AcDbVertex
100
AcDb2dVertex
 10
112.708588
 20
145.228752
 30
0.0
  0
VERTEX
  5
3AE
330
364
100
AcDbEntity
  8
001
 62
   253
370
    50
100
AcDbVertex
100
AcDb2dVertex
 10
113.036493
 20
145.503474
 30
0.0
  0
VERTEX
  5
3AF
330
364
100
AcDbEntity
  8
001
 62
   253
370
    50
100
AcDbVertex
100
AcDb2dVertex
 10
113.332959
 20
145.795996
 30
0.0
  0
VERTEX
  5
3B0
330
364
100
AcDbEntity
  8
001
 62
   253
370
    50
100
AcDbVertex
100
AcDb2dVertex
 10
113.601077
 20
146.113589
 30
0.0
  0
VERTEX
  5
3B1
330
364
100
AcDbEntity
  8
001
 62
   253
370
    50
100
AcDbVertex
100
AcDb2dVertex
 10
113.835972
 20
146.4517
 30
0.0
  0
VERTEX
  5
3B2
330
364
100
AcDbEntity
  8
001
 62
   253
370
    50
100
AcDbVertex
100
AcDb2dVertex
 10
114.053438
 20
146.802491
 30
0.0
  0
SEQEND
  5
365
330
364
100
AcDbEntity
  8
001
370
    50
  0
ARC
  5
3B3
330
1F
100
AcDbEntity
  8
001
 62
   253
370
    50
100
AcDbCircle
 10
116.015278
 20
172.227196
 30
0.0
 40
1.0
100
AcDbArc
 50
0.0
 51
90.0
  0
ARC
  5
3B4
330
1F
100
AcDbEntity
  8
001
 62
   253
370
    50
100
AcDbCircle
 10
116.015278
 20
126.227196
 30
0.0
 40
1.0
100
AcDbArc
 50
270.0
 51
0.0
  0
LINE
  5
3B5
330
1F
100
AcDbEntity
  8
001
 62
   253
370
    50
100
AcDbLine
 10
117.015278
 20
172.227196
 30
0.0
 11
117.015278
 21
126.227196
 31
0.0
  0
ARC
  5
3B6
330
1F
100
AcDbEntity
  8
001
 62
   253
370
    50
100
AcDbCircle
 10
103.015278
 20
126.227196
 30
0.0
 40
0.9999999999999966
100
AcDbArc
 50
180.0
 51
270.0
  0
ARC
  5
3B7
330
1F
100
AcDbEntity
  8
001
 62
   253
370
    50
100
AcDbCircle
 10
103.015278
 20
172.227196
 30
0.0
 40
0.9999999999999966
100
AcDbArc
 50
90.0
 51
180.0
  0
LINE
  5
3B8
330
1F
100
AcDbEntity
  8
001
 62
   253
370
    50
100
AcDbLine
 10
102.015278
 20
126.227196
 30
0.0
 11
102.015278
 21
172.227196
 31
0.0
  0
ARC
  5
3B9
330
1F
100
AcDbEntity
  8
001
 62
   253
370
    50
100
AcDbCircle
 10
109.515278
 20
149.227196
 30
0.0
 40
4.25
100
AcDbArc
 50
278.538758
 51
333.963896
  0
POLYLINE
  5
3BA
330
1F
100
AcDbEntity
  8
001
 62
   253
370
    50
100
AcDb2dPolyline
 66
     1
 10
0.0
 20
0.0
 30
0.0
  0
VERTEX
  5
3BC
330
3BA
100
AcDbEntity
  8
001
 62
   253
370
    50
100
AcDbVertex
100
AcDb2dVertex
 10
113.320546
 20
145.486509
 30
0.0
  0
VERTEX
  5
3BD
330
3BA
100
AcDbEntity
  8
001
 62
   253
370
    50
100
AcDbVertex
100
AcDb2dVertex
 10
113.611197
 20
145.753429
 30
0.0
  0
VERTEX
  5
3BE
330
3BA
100
AcDbEntity
  8
001
 62
   253
370
    50
100
AcDbVertex
100
AcDb2dVertex
 10
113.888545
 20
146.033138
 30
0.0
  0
VERTEX
  5
3BF
330
3BA
100
AcDbEntity
  8
001
 62
   253
370
    50
100
AcDbVertex
100
AcDb2dVertex
 10
114.141652
 20
146.335496
 30
0.0
  0
VERTEX
  5
3C0
330
3BA
100
AcDbEntity
  8
001
 62
   253
370
    50
100
AcDbVertex
100
AcDb2dVertex
 10
114.368832
 20
146.658384
 30
0.0
  0
VERTEX
  5
3C1
330
3BA
100
AcDbEntity
  8
001
 62
   253
370
    50
100
AcDbVertex
100
AcDb2dVertex
 10
114.523301
 20
146.912871
 30
0.0
  0
VERTEX
  5
3C2
330
3BA
100
AcDbEntity
  8
001
 62
   253
370
    50
100
AcDbVertex
100
AcDb2dVertex
 10
114.662377
 20
147.175875
 30
0.0
  0
VERTEX
  5
3C3
330
3BA
100
AcDbEntity
  8
001
 62
   253
370
    50
100
AcDbVertex
100
AcDb2dVertex
 10
114.785681
 20
147.448297
 30
0.0
  0
VERTEX
  5
3C4
330
3BA
100
AcDbEntity
  8
001
 62
   253
370
    50
100
AcDbVertex
100
AcDb2dVertex
 10
114.891909
 20
147.72789
 30
0.0
  0
VERTEX
  5
3C5
330
3BA
100
AcDbEntity
  8
001
 62
   253
370
    50
100
AcDbVertex
100
AcDb2dVertex
 10
114.980218
 20
148.012648
 30
0.0
  0
VERTEX
  5
3C6
330
3BA
100
AcDbEntity
  8
001
 62
   253
370
    50
100
AcDbVertex
100
AcDb2dVertex
 10
115.05004
 20
148.302481
 30
0.0
  0
VERTEX
  5
3C7
330
3BA
100
AcDbEntity
  8
001
 62
   253
370
    50
100
AcDbVertex
100
AcDb2dVertex
 10
115.113669
 20
148.700063
 30
0.0
  0
VERTEX
  5
3C8
330
3BA
100
AcDbEntity
  8
001
 62
   253
370
    50
100
AcDbVertex
100
AcDb2dVertex
 10
115.142153
 20
149.10188
 30
0.0
  0
VERTEX
  5
3C9
330
3BA
100
AcDbEntity
  8
001
 62
   253
370
    50
100
AcDbVertex
100
AcDb2dVertex
 10
115.135729
 20
149.504683
 30
0.0
  0
VERTEX
  5
3CA
330
3BA
100
AcDbEntity
  8
001
 62
   253
370
    50
100
AcDbVertex
100
AcDb2dVertex
 10
115.093945
 20
149.905224
 30
0.0
  0
VERTEX
  5
3CB
330
3BA
100
AcDbEntity
  8
001
 62
   253
370
    50
100
AcDbVertex
100
AcDb2dVertex
 10
115.022225
 20
150.276967
 30
0.0
  0
VERTEX
  5
3CC
330
3BA
100
AcDbEntity
  8
001
 62
   253
370
    50
100
AcDbVertex
100
AcDb2dVertex
 10
114.920372
 20
150.641679
 30
0.0
  0
VERTEX
  5
3CD
330
3BA
100
AcDbEntity
  8
001
 62
   253
370
    50
100
AcDbVertex
100
AcDb2dVertex
 10
114.790068
 20
150.996758
 30
0.0
  0
VERTEX
  5
3CE
330
3BA
100
AcDbEntity
  8
001
 62
   253
370
    50
100
AcDbVertex
100
AcDb2dVertex
 10
114.632173
 20
151.340396
 30
0.0
  0
VERTEX
  5
3CF
330
3BA
100
AcDbEntity
  8
001
 62
   253
370
    50
100
AcDbVertex
100
AcDb2dVertex
 10
114.441292
 20
151.681045
 30
0.0
  0
VERTEX
  5
3D0
330
3BA
100
AcDbEntity
  8
001
 62
   253
370
    50
100
AcDbVertex
100
AcDb2dVertex
 10
114.224216
 20
152.005709
 30
0.0
  0
VERTEX
  5
3D1
330
3BA
100
AcDbEntity
  8
001
 62
   253
370
    50
100
AcDbVertex
100
AcDb2dVertex
 10
113.983322
 20
152.312751
 30
0.0
  0
VERTEX
  5
3D2
330
3BA
100
AcDbEntity
  8
001
 62
   253
370
    50
100
AcDbVertex
100
AcDb2dVertex
 10
113.720162
 20
152.600886
 30
0.0
  0
VERTEX
  5
3D3
330
3BA
100
AcDbEntity
  8
001
 62
   253
370
    50
100
AcDbVertex
100
AcDb2dVertex
 10
113.408143
 20
152.893379
 30
0.0
  0
VERTEX
  5
3D4
330
3BA
100
AcDbEntity
  8
001
 62
   253
370
    50
100
AcDbVertex
100
AcDb2dVertex
 10
113.074103
 20
153.1606
 30
0.0
  0
VERTEX
  5
3D5
330
3BA
100
AcDbEntity
  8
001
 62
   253
370
    50
100
AcDbVertex
100
AcDb2dVertex
 10
112.720429
 20
153.401954
 30
0.0
  0
VERTEX
  5
3D6
330
3BA
100
AcDbEntity
  8
001
 62
   253
370
    50
100
AcDbVertex
100
AcDb2dVertex
 10
112.349751
 20
153.61606
 30
0.0
  0
VERTEX
  5
3D7
330
3BA
100
AcDbEntity
  8
001
 62
   253
370
    50
100
AcDbVertex
100
AcDb2dVertex
 10
112.068163
 20
153.755264
 30
0.0
  0
VERTEX
  5
3D8
330
3BA
100
AcDbEntity
  8
001
 62
   253
370
    50
100
AcDbVertex
100
AcDb2dVertex
 10
111.779545
 20
153.879182
 30
0.0
  0
VERTEX
  5
3D9
330
3BA
100
AcDbEntity
  8
001
 62
   253
370
    50
100
AcDbVertex
100
AcDb2dVertex
 10
111.483635
 20
153.988215
 30
0.0
  0
VERTEX
  5
3DA
330
3BA
100
AcDbEntity
  8
001
 62
   253
370
    50
100
AcDbVertex
100
AcDb2dVertex
 10
111.182453
 20
154.081732
 30
0.0
  0
VERTEX
  5
3DB
330
3BA
100
AcDbEntity
  8
001
 62
   253
370
    50
100
AcDbVertex
100
AcDb2dVertex
 10
110.877381
 20
154.159451
 30
0.0
  0
VERTEX
  5
3DC
330
3BA
100
AcDbEntity
  8
001
 62
   253
370
    50
100
AcDbVertex
100
AcDb2dVertex
 10
110.568698
 20
154.221257
 30
0.0
  0
VERTEX
  5
3DD
330
3BA
100
AcDbEntity
  8
001
 62
   253
370
    50
100
AcDbVertex
100
AcDb2dVertex
 10
110.238463
 20
154.269132
 30
0.0
  0
VERTEX
  5
3DE
330
3BA
100
AcDbEntity
  8
001
 62
   253
370
    50
100
AcDbVertex
100
AcDb2dVertex
 10
109.906097
 20
154.298978
 30
0.0
  0
VERTEX
  5
3DF
330
3BA
100
AcDbEntity
  8
001
 62
   253
370
    50
100
AcDbVertex
100
AcDb2dVertex
 10
109.571486
 20
154.310986
 30
0.0
  0
VERTEX
  5
3E0
330
3BA
100
AcDbEntity
  8
001
 62
   253
370
    50
100
AcDbVertex
100
AcDb2dVertex
 10
109.236714
 20
154.305062
 30
0.0
  0
VERTEX
  5
3E1
330
3BA
100
AcDbEntity
  8
001
 62
   253
370
    50
100
AcDbVertex
100
AcDb2dVertex
 10
108.903832
 20
154.281274
 30
0.0
  0
VERTEX
  5
3E2
330
3BA
100
AcDbEntity
  8
001
 62
   253
370
    50
100
AcDbVertex
100
AcDb2dVertex
 10
108.572745
 20
154.239426
 30
0.0
  0
VERTEX
  5
3E3
330
3BA
100
AcDbEntity
  8
001
 62
   253
370
    50
100
AcDbVertex
100
AcDb2dVertex
 10
108.239287
 20
154.17828
 30
0.0
  0
VERTEX
  5
3E4
330
3BA
100
AcDbEntity
  8
001
 62
   253
370
    50
100
AcDbVertex
100
AcDb2dVertex
 10
107.909741
 20
154.098646
 30
0.0
  0
VERTEX
  5
3E5
330
3BA
100
AcDbEntity
  8
001
 62
   253
370
    50
100
AcDbVertex
100
AcDb2dVertex
 10
107.584432
 20
154.000659
 30
0.0
  0
VERTEX
  5
3E6
330
3BA
100
AcDbEntity
  8
001
 62
   253
370
    50
100
AcDbVertex
100
AcDb2dVertex
 10
107.265097
 20
153.884669
 30
0.0
  0
VERTEX
  5
3E7
330
3BA
100
AcDbEntity
  8
001
 62
   253
370
    50
100
AcDbVertex
100
AcDb2dVertex
 10
106.954221
 20
153.751449
 30
0.0
  0
VERTEX
  5
3E8
330
3BA
100
AcDbEntity
  8
001
 62
   253
370
    50
100
AcDbVertex
100
AcDb2dVertex
 10
106.651574
 20
153.600498
 30
0.0
  0
VERTEX
  5
3E9
330
3BA
100
AcDbEntity
  8
001
 62
   253
370
    50
100
AcDbVertex
100
AcDb2dVertex
 10
106.362357
 20
153.434323
 30
0.0
  0
VERTEX
  5
3EA
330
3BA
100
AcDbEntity
  8
001
 62
   253
370
    50
100
AcDbVertex
100
AcDb2dVertex
 10
106.083359
 20
153.251487
 30
0.0
  0
VERTEX
  5
3EB
330
3BA
100
AcDbEntity
  8
001
 62
   253
370
    50
100
AcDbVertex
100
AcDb2dVertex
 10
105.814858
 20
153.052026
 30
0.0
  0
VERTEX
  5
3EC
330
3BA
100
AcDbEntity
  8
001
 62
   253
370
    50
100
AcDbVertex
100
AcDb2dVertex
 10
105.558742
 20
152.836895
 30
0.0
  0
VERTEX
  5
3ED
330
3BA
100
AcDbEntity
  8
001
 62
   253
370
    50
100
AcDbVertex
100
AcDb2dVertex
 10
105.317158
 20
152.60749
 30
0.0
  0
VERTEX
  5
3EE
330
3BA
100
AcDbEntity
  8
001
 62
   253
370
    50
100
AcDbVertex
100
AcDb2dVertex
 10
105.090472
 20
152.363364
 30
0.0
  0
VERTEX
  5
3EF
330
3BA
100
AcDbEntity
  8
001
 62
   253
370
    50
100
AcDbVertex
100
AcDb2dVertex
 10
104.892316
 20
152.121008
 30
0.0
  0
VERTEX
  5
3F0
330
3BA
100
AcDbEntity
  8
001
 62
   253
370
    50
100
AcDbVertex
100
AcDb2dVertex
 10
104.709535
 20
151.866919
 30
0.0
  0
VERTEX
  5
3F1
330
3BA
100
AcDbEntity
  8
001
 62
   253
370
    50
100
AcDbVertex
100
AcDb2dVertex
 10
104.542155
 20
151.600788
 30
0.0
  0
VERTEX
  5
3F2
330
3BA
100
AcDbEntity
  8
001
 62
   253
370
    50
100
AcDbVertex
100
AcDb2dVertex
 10
104.391216
 20
151.324802
 30
0.0
  0
VERTEX
  5
3F3
330
3BA
100
AcDbEntity
  8
001
 62
   253
370
    50
100
AcDbVertex
100
AcDb2dVertex
 10
104.257899
 20
151.040815
 30
0.0
  0
VERTEX
  5
3F4
330
3BA
100
AcDbEntity
  8
001
 62
   253
370
    50
100
AcDbVertex
100
AcDb2dVertex
 10
104.145531
 20
150.748341
 30
0.0
  0
VERTEX
  5
3F5
330
3BA
100
AcDbEntity
  8
001
 62
   253
370
    50
100
AcDbVertex
100
AcDb2dVertex
 10
104.064562
 20
150.481302
 30
0.0
  0
VERTEX
  5
3F6
330
3BA
100
AcDbEntity
  8
001
 62
   253
370
    50
100
AcDbVertex
100
AcDb2dVertex
 10
103.993739
 20
150.210997
 30
0.0
  0
SEQEND
  5
3BB
330
3BA
100
AcDbEntity
  8
001
370
    50
  0
POLYLINE
  5
3F7
330
1F
100
AcDbEntity
  8
001
 62
   253
370
    50
100
AcDb2dPolyline
 66
     1
 10
0.0
 20
0.0
 30
0.0
  0
VERTEX
  5
3F9
330
3F7
100
AcDbEntity
  8
001
 62
   253
370
    50
100
AcDbVertex
100
AcDb2dVertex
 10
103.993739
 20
150.210997
 30
0.0
  0
VERTEX
  5
3FA
330
3F7
100
AcDbEntity
  8
001
 62
   253
370
    50
100
AcDbVertex
100
AcDb2dVertex
 10
103.945004
 20
149.934571
 30
0.0
  0
VERTEX
  5
3FB
330
3F7
100
AcDbEntity
  8
001
 62
   253
370
    50
100
AcDbVertex
100
AcDb2dVertex
 10
103.906885
 20
149.656857
 30
0.0
  0
VERTEX
  5
3FC
330
3F7
100
AcDbEntity
  8
001
 62
   253
370
    50
100
AcDbVertex
100
AcDb2dVertex
 10
103.887893
 20
149.378047
 30
0.0
  0
VERTEX
  5
3FD
330
3F7
100
AcDbEntity
  8
001
 62
   253
370
    50
100
AcDbVertex
100
AcDb2dVertex
 10
103.887801
 20
149.098272
 30
0.0
  0
VERTEX
  5
3FE
330
3F7
100
AcDbEntity
  8
001
 62
   253
370
    50
100
AcDbVertex
100
AcDb2dVertex
 10
103.915267
 20
148.716253
 30
0.0
  0
VERTEX
  5
3FF
330
3F7
100
AcDbEntity
  8
001
 62
   253
370
    50
100
AcDbVertex
100
AcDb2dVertex
 10
103.973915
 20
148.337844
 30
0.0
  0
VERTEX
  5
400
330
3F7
100
AcDbEntity
  8
001
 62
   253
370
    50
100
AcDbVertex
100
AcDb2dVertex
 10
104.063403
 20
147.965792
 30
0.0
  0
VERTEX
  5
401
330
3F7
100
AcDbEntity
  8
001
 62
   253
370
    50
100
AcDbVertex
100
AcDb2dVertex
 10
104.183118
 20
147.602342
 30
0.0
  0
VERTEX
  5
402
330
3F7
100
AcDbEntity
  8
001
 62
   253
370
    50
100
AcDbVertex
100
AcDb2dVertex
 10
104.332106
 20
147.249912
 30
0.0
  0
VERTEX
  5
403
330
3F7
100
AcDbEntity
  8
001
 62
   253
370
    50
100
AcDbVertex
100
AcDb2dVertex
 10
104.508528
 20
146.910343
 30
0.0
  0
VERTEX
  5
404
330
3F7
100
AcDbEntity
  8
001
 62
   253
370
    50
100
AcDbVertex
100
AcDb2dVertex
 10
104.710239
 20
146.585636
 30
0.0
  0
VERTEX
  5
405
330
3F7
100
AcDbEntity
  8
001
 62
   253
370
    50
100
AcDbVertex
100
AcDb2dVertex
 10
104.935937
 20
146.277156
 30
0.0
  0
VERTEX
  5
406
330
3F7
100
AcDbEntity
  8
001
 62
   253
370
    50
100
AcDbVertex
100
AcDb2dVertex
 10
105.204811
 20
145.964117
 30
0.0
  0
VERTEX
  5
407
330
3F7
100
AcDbEntity
  8
001
 62
   253
370
    50
100
AcDbVertex
100
AcDb2dVertex
 10
105.497371
 20
145.672991
 30
0.0
  0
VERTEX
  5
408
330
3F7
100
AcDbEntity
  8
001
 62
   253
370
    50
100
AcDbVertex
100
AcDb2dVertex
 10
105.811171
 20
145.404717
 30
0.0
  0
VERTEX
  5
409
330
3F7
100
AcDbEntity
  8
001
 62
   253
370
    50
100
AcDbVertex
100
AcDb2dVertex
 10
106.144062
 20
145.160597
 30
0.0
  0
VERTEX
  5
40A
330
3F7
100
AcDbEntity
  8
001
 62
   253
370
    50
100
AcDbVertex
100
AcDb2dVertex
 10
106.532221
 20
144.919901
 30
0.0
  0
VERTEX
  5
40B
330
3F7
100
AcDbEntity
  8
001
 62
   253
370
    50
100
AcDbVertex
100
AcDb2dVertex
 10
106.938286
 20
144.710589
 30
0.0
  0
VERTEX
  5
40C
330
3F7
100
AcDbEntity
  8
001
 62
   253
370
    50
100
AcDbVertex
100
AcDb2dVertex
 10
107.359966
 20
144.532824
 30
0.0
  0
VERTEX
  5
40D
330
3F7
100
AcDbEntity
  8
001
 62
   253
370
    50
100
AcDbVertex
100
AcDb2dVertex
 10
107.793892
 20
144.387893
 30
0.0
  0
VERTEX
  5
40E
330
3F7
100
AcDbEntity
  8
001
 62
   253
370
    50
100
AcDbVertex
100
AcDb2dVertex
 10
108.111637
 20
144.304543
 30
0.0
  0
VERTEX
  5
40F
330
3F7
100
AcDbEntity
  8
001
 62
   253
370
    50
100
AcDbVertex
100
AcDb2dVertex
 10
108.433399
 20
144.238502
 30
0.0
  0
VERTEX
  5
410
330
3F7
100
AcDbEntity
  8
001
 62
   253
370
    50
100
AcDbVertex
100
AcDb2dVertex
 10
108.759462
 20
144.189499
 30
0.0
  0
VERTEX
  5
411
330
3F7
100
AcDbEntity
  8
001
 62
   253
370
    50
100
AcDbVertex
100
AcDb2dVertex
 10
109.087672
 20
144.157832
 30
0.0
  0
VERTEX
  5
412
330
3F7
100
AcDbEntity
  8
001
 62
   253
370
    50
100
AcDbVertex
100
AcDb2dVertex
 10
109.41623
 20
144.1436
 30
0.0
  0
VERTEX
  5
413
330
3F7
100
AcDbEntity
  8
001
 62
   253
370
    50
100
AcDbVertex
100
AcDb2dVertex
 10
109.74507
 20
144.146941
 30
0.0
  0
VERTEX
  5
414
330
3F7
100
AcDbEntity
  8
001
 62
   253
370
    50
100
AcDbVertex
100
AcDb2dVertex
 10
110.082849
 20
144.168924
 30
0.0
  0
VERTEX
  5
415
330
3F7
100
AcDbEntity
  8
001
 62
   253
370
    50
100
AcDbVertex
100
AcDb2dVertex
 10
110.418911
 20
144.209495
 30
0.0
  0
VERTEX
  5
416
330
3F7
100
AcDbEntity
  8
001
 62
   253
370
    50
100
AcDbVertex
100
AcDb2dVertex
 10
110.75306
 20
144.268525
 30
0.0
  0
VERTEX
  5
417
330
3F7
100
AcDbEntity
  8
001
 62
   253
370
    50
100
AcDbVertex
100
AcDb2dVertex
 10
111.083495
 20
144.345768
 30
0.0
  0
VERTEX
  5
418
330
3F7
100
AcDbEntity
  8
001
 62
   253
370
    50
100
AcDbVertex
100
AcDb2dVertex
 10
111.407805
 20
144.440711
 30
0.0
  0
VERTEX
  5
419
330
3F7
100
AcDbEntity
  8
001
 62
   253
370
    50
100
AcDbVertex
100
AcDb2dVertex
 10
111.72614
 20
144.553869
 30
0.0
  0
VERTEX
  5
41A
330
3F7
100
AcDbEntity
  8
001
 62
   253
370
    50
100
AcDbVertex
100
AcDb2dVertex
 10
112.011182
 20
144.67342
 30
0.0
  0
VERTEX
  5
41B
330
3F7
100
AcDbEntity
  8
001
 62
   253
370
    50
100
AcDbVertex
100
AcDb2dVertex
 10
112.289848
 20
144.807453
 30
0.0
  0
VERTEX
  5
41C
330
3F7
100
AcDbEntity
  8
001
 62
   253
370
    50
100
AcDbVertex
100
AcDb2dVertex
 10
112.561949
 20
144.955741
 30
0.0
  0
VERTEX
  5
41D
330
3F7
100
AcDbEntity
  8
001
 62
   253
370
    50
100
AcDbVertex
100
AcDb2dVertex
 10
112.824617
 20
145.119629
 30
0.0
  0
VERTEX
  5
41E
330
3F7
100
AcDbEntity
  8
001
 62
   253
370
    50
100
AcDbVertex
100
AcDb2dVertex
 10
113.075614
 20
145.29868
 30
0.0
  0
VERTEX
  5
41F
330
3F7
100
AcDbEntity
  8
001
 62
   253
370
    50
100
AcDbVertex
100
AcDb2dVertex
 10
113.320546
 20
145.486509
 30
0.0
  0
SEQEND
  5
3F8
330
3F7
100
AcDbEntity
  8
001
370
    50
  0
LINE
  5
420
330
1F
100
AcDbEntity
  8
001
 62
   253
370
    50
100
AcDbLine
 10
116.015278
 20
173.227196
 30
0.0
 11
103.015278
 21
173.227196
 31
0.0
  0
LINE
  5
421
330
1F
100
AcDbEntity
  8
001
 62
   253
370
    50
100
AcDbLine
 10
103.015278
 20
125.227196
 30
0.0
 11
116.015278
 21
125.227196
 31
0.0
  0
POLYLINE
  5
422
330
1F
100
AcDbEntity
  8
001
 62
   253
370
    50
100
AcDb2dPolyline
 66
     1
 10
0.0
 20
0.0
 30
0.0
  0
VERTEX
  5
424
330
422
100
AcDbEntity
  8
001
 62
   253
370
    50
100
AcDbVertex
100
AcDb2dVertex
 10
93.630251
 20
154.116414
 30
0.0
  0
VERTEX
  5
425
330
422
100
AcDbEntity
  8
001
 62
   253
370
    50
100
AcDbVertex
100
AcDb2dVertex
 10
93.678622
 20
154.099993
 30
0.0
  0
VERTEX
  5
426
330
422
100
AcDbEntity
  8
001
 62
   253
370
    50
100
AcDbVertex
100
AcDb2dVertex
 10
93.726784
 20
154.083028
 30
0.0
  0
VERTEX
  5
427
330
422
100
AcDbEntity
  8
001
 62
   253
370
    50
100
AcDbVertex
100
AcDb2dVertex
 10
93.880265
 20
154.021921
 30
0.0
  0
VERTEX
  5
428
330
422
100
AcDbEntity
  8
001
 62
   253
370
    50
100
AcDbVertex
100
AcDb2dVertex
 10
94.031569
 20
153.955121
 30
0.0
  0
SEQEND
  5
423
330
422
100
AcDbEntity
  8
001
370
    50
  0
POLYLINE
  5
429
330
1F
100
AcDbEntity
  8
001
 62
   253
370
    50
100
AcDb2dPolyline
 66
     1
 10
0.0
 20
0.0
 30
0.0
  0
VERTEX
  5
42B
330
429
100
AcDbEntity
  8
001
 62
   253
370
    50
100
AcDbVertex
100
AcDb2dVertex
 10
90.849252
 20
154.176428
 30
0.0
  0
VERTEX
  5
42C
330
429
100
AcDbEntity
  8
001
 62
   253
370
    50
100
AcDbVertex
100
AcDb2dVertex
 10
90.857522
 20
154.175006
 30
0.0
  0
VERTEX
  5
42D
330
429
100
AcDbEntity
  8
001
 62
   253
370
    50
100
AcDbVertex
100
AcDb2dVertex
 10
90.865807
 20
154.173782
 30
0.0
  0
VERTEX
  5
42E
330
429
100
AcDbEntity
  8
001
 62
   253
370
    50
100
AcDbVertex
100
AcDb2dVertex
 10
90.905932
 20
154.172467
 30
0.0
  0
VERTEX
  5
42F
330
429
100
AcDbEntity
  8
001
 62
   253
370
    50
100
AcDbVertex
100
AcDb2dVertex
 10
90.946332
 20
154.175576
 30
0.0
  0
VERTEX
  5
430
330
429
100
AcDbEntity
  8
001
 62
   253
370
    50
100
AcDbVertex
100
AcDb2dVertex
 10
91.108016
 20
154.188447
 30
0.0
  0
VERTEX
  5
431
330
429
100
AcDbEntity
  8
001
 62
   253
370
    50
100
AcDbVertex
100
AcDb2dVertex
 10
91.269241
 20
154.196325
 30
0.0
  0
VERTEX
  5
432
330
429
100
AcDbEntity
  8
001
 62
   253
370
    50
100
AcDbVertex
100
AcDb2dVertex
 10
91.370539
 20
154.19859
 30
0.0
  0
VERTEX
  5
433
330
429
100
AcDbEntity
  8
001
 62
   253
370
    50
100
AcDbVertex
100
AcDb2dVertex
 10
91.471999
 20
154.199721
 30
0.0
  0
SEQEND
  5
42A
330
429
100
AcDbEntity
  8
001
370
    50
  0
POLYLINE
  5
434
330
1F
100
AcDbEntity
  8
001
 62
   253
370
    50
100
AcDb2dPolyline
 66
     1
 10
0.0
 20
0.0
 30
0.0
  0
VERTEX
  5
436
330
434
100
AcDbEntity
  8
001
 62
   253
370
    50
100
AcDbVertex
100
AcDb2dVertex
 10
90.849252
 20
154.176428
 30
0.0
  0
VERTEX
  5
437
330
434
100
AcDbEntity
  8
001
 62
   253
370
    50
100
AcDbVertex
100
AcDb2dVertex
 10
91.004439
 20
154.208599
 30
0.0
  0
VERTEX
  5
438
330
434
100
AcDbEntity
  8
001
 62
   253
370
    50
100
AcDbVertex
100
AcDb2dVertex
 10
91.160073
 20
154.238345
 30
0.0
  0
VERTEX
  5
439
330
434
100
AcDbEntity
  8
001
 62
   253
370
    50
100
AcDbVertex
100
AcDb2dVertex
 10
91.316976
 20
154.263813
 30
0.0
  0
VERTEX
  5
43A
330
434
100
AcDbEntity
  8
001
 62
   253
370
    50
100
AcDbVertex
100
AcDb2dVertex
 10
91.474554
 20
154.28498
 30
0.0
  0
VERTEX
  5
43B
330
434
100
AcDbEntity
  8
001
 62
   253
370
    50
100
AcDbVertex
100
AcDb2dVertex
 10
91.71221
 20
154.309527
 30
0.0
  0
VERTEX
  5
43C
330
434
100
AcDbEntity
  8
001
 62
   253
370
    50
100
AcDbVertex
100
AcDb2dVertex
 10
91.950624
 20
154.324963
 30
0.0
  0
VERTEX
  5
43D
330
434
100
AcDbEntity
  8
001
 62
   253
370
    50
100
AcDbVertex
100
AcDb2dVertex
 10
92.191243
 20
154.330597
 30
0.0
  0
VERTEX
  5
43E
330
434
100
AcDbEntity
  8
001
 62
   253
370
    50
100
AcDbVertex
100
AcDb2dVertex
 10
92.431859
 20
154.325645
 30
0.0
  0
VERTEX
  5
43F
330
434
100
AcDbEntity
  8
001
 62
   253
370
    50
100
AcDbVertex
100
AcDb2dVertex
 10
92.678413
 20
154.308957
 30
0.0
  0
VERTEX
  5
440
330
434
100
AcDbEntity
  8
001
 62
   253
370
    50
100
AcDbVertex
100
AcDb2dVertex
 10
92.923929
 20
154.280176
 30
0.0
  0
VERTEX
  5
441
330
434
100
AcDbEntity
  8
001
 62
   253
370
    50
100
AcDbVertex
100
AcDb2dVertex
 10
93.170373
 20
154.238121
 30
0.0
  0
VERTEX
  5
442
330
434
100
AcDbEntity
  8
001
 62
   253
370
    50
100
AcDbVertex
100
AcDb2dVertex
 10
93.413533
 20
154.180825
 30
0.0
  0
VERTEX
  5
443
330
434
100
AcDbEntity
  8
001
 62
   253
370
    50
100
AcDbVertex
100
AcDb2dVertex
 10
93.522148
 20
154.149533
 30
0.0
  0
VERTEX
  5
444
330
434
100
AcDbEntity
  8
001
 62
   253
370
    50
100
AcDbVertex
100
AcDb2dVertex
 10
93.630251
 20
154.116414
 30
0.0
  0
SEQEND
  5
435
330
434
100
AcDbEntity
  8
001
370
    50
  0
POLYLINE
  5
445
330
1F
100
AcDbEntity
  8
001
 62
   253
370
    50
100
AcDb2dPolyline
 66
     1
 10
0.0
 20
0.0
 30
0.0
  0
VERTEX
  5
447
330
445
100
AcDbEntity
  8
001
 62
   253
370
    50
100
AcDbVertex
100
AcDb2dVertex
 10
92.434586
 20
144.468206
 30
0.0
  0
VERTEX
  5
448
330
445
100
AcDbEntity
  8
001
 62
   253
370
    50
100
AcDbVertex
100
AcDb2dVertex
 10
92.694591
 20
144.492794
 30
0.0
  0
VERTEX
  5
449
330
445
100
AcDbEntity
  8
001
 62
   253
370
    50
100
AcDbVertex
100
AcDb2dVertex
 10
92.953391
 20
144.525952
 30
0.0
  0
VERTEX
  5
44A
330
445
100
AcDbEntity
  8
001
 62
   253
370
    50
100
AcDbVertex
100
AcDb2dVertex
 10
93.350137
 20
144.608222
 30
0.0
  0
VERTEX
  5
44B
330
445
100
AcDbEntity
  8
001
 62
   253
370
    50
100
AcDbVertex
100
AcDb2dVertex
 10
93.738377
 20
144.726298
 30
0.0
  0
VERTEX
  5
44C
330
445
100
AcDbEntity
  8
001
 62
   253
370
    50
100
AcDbVertex
100
AcDb2dVertex
 10
94.109017
 20
144.872788
 30
0.0
  0
VERTEX
  5
44D
330
445
100
AcDbEntity
  8
001
 62
   253
370
    50
100
AcDbVertex
100
AcDb2dVertex
 10
94.466359
 20
145.048619
 30
0.0
  0
VERTEX
  5
44E
330
445
100
AcDbEntity
  8
001
 62
   253
370
    50
100
AcDbVertex
100
AcDb2dVertex
 10
94.817447
 20
145.259752
 30
0.0
  0
VERTEX
  5
44F
330
445
100
AcDbEntity
  8
001
 62
   253
370
    50
100
AcDbVertex
100
AcDb2dVertex
 10
95.14954
 20
145.499902
 30
0.0
  0
VERTEX
  5
450
330
445
100
AcDbEntity
  8
001
 62
   253
370
    50
100
AcDbVertex
100
AcDb2dVertex
 10
95.455101
 20
145.76217
 30
0.0
  0
VERTEX
  5
451
330
445
100
AcDbEntity
  8
001
 62
   253
370
    50
100
AcDbVertex
100
AcDb2dVertex
 10
95.737816
 20
146.048718
 30
0.0
  0
VERTEX
  5
452
330
445
100
AcDbEntity
  8
001
 62
   253
370
    50
100
AcDbVertex
100
AcDb2dVertex
 10
96.002692
 20
146.366753
 30
0.0
  0
VERTEX
  5
453
330
445
100
AcDbEntity
  8
001
 62
   253
370
    50
100
AcDbVertex
100
AcDb2dVertex
 10
96.240602
 20
146.705831
 30
0.0
  0
VERTEX
  5
454
330
445
100
AcDbEntity
  8
001
 62
   253
370
    50
100
AcDbVertex
100
AcDb2dVertex
 10
96.446752
 20
147.056995
 30
0.0
  0
VERTEX
  5
455
330
445
100
AcDbEntity
  8
001
 62
   253
370
    50
100
AcDbVertex
100
AcDb2dVertex
 10
96.620423
 20
147.424555
 30
0.0
  0
VERTEX
  5
456
330
445
100
AcDbEntity
  8
001
 62
   253
370
    50
100
AcDbVertex
100
AcDb2dVertex
 10
96.73249
 20
147.722996
 30
0.0
  0
VERTEX
  5
457
330
445
100
AcDbEntity
  8
001
 62
   253
370
    50
100
AcDbVertex
100
AcDb2dVertex
 10
96.83269
 20
148.026111
 30
0.0
  0
SEQEND
  5
446
330
445
100
AcDbEntity
  8
001
370
    50
  0
POLYLINE
  5
458
330
1F
100
AcDbEntity
  8
001
 62
   253
370
    50
100
AcDb2dPolyline
 66
     1
 10
0.0
 20
0.0
 30
0.0
  0
VERTEX
  5
45A
330
458
100
AcDbEntity
  8
001
 62
   253
370
    50
100
AcDbVertex
100
AcDb2dVertex
 10
96.83269
 20
148.026111
 30
0.0
  0
VERTEX
  5
45B
330
458
100
AcDbEntity
  8
001
 62
   253
370
    50
100
AcDbVertex
100
AcDb2dVertex
 10
96.858452
 20
148.12208
 30
0.0
  0
VERTEX
  5
45C
330
458
100
AcDbEntity
  8
001
 62
   253
370
    50
100
AcDbVertex
100
AcDb2dVertex
 10
96.882759
 20
148.218357
 30
0.0
  0
VERTEX
  5
45D
330
458
100
AcDbEntity
  8
001
 62
   253
370
    50
100
AcDbVertex
100
AcDb2dVertex
 10
96.950531
 20
148.571638
 30
0.0
  0
VERTEX
  5
45E
330
458
100
AcDbEntity
  8
001
 62
   253
370
    50
100
AcDbVertex
100
AcDb2dVertex
 10
96.999177
 20
148.928966
 30
0.0
  0
SEQEND
  5
459
330
458
100
AcDbEntity
  8
001
370
    50
  0
POLYLINE
  5
45F
330
1F
100
AcDbEntity
  8
001
 62
   253
370
    50
100
AcDb2dPolyline
 66
     1
 10
0.0
 20
0.0
 30
0.0
  0
VERTEX
  5
461
330
45F
100
AcDbEntity
  8
001
 62
   253
370
    50
100
AcDbVertex
100
AcDb2dVertex
 10
96.999177
 20
148.928966
 30
0.0
  0
VERTEX
  5
462
330
45F
100
AcDbEntity
  8
001
 62
   253
370
    50
100
AcDbVertex
100
AcDb2dVertex
 10
97.003421
 20
148.979553
 30
0.0
  0
VERTEX
  5
463
330
45F
100
AcDbEntity
  8
001
 62
   253
370
    50
100
AcDbVertex
100
AcDb2dVertex
 10
97.00728
 20
149.030161
 30
0.0
  0
VERTEX
  5
464
330
45F
100
AcDbEntity
  8
001
 62
   253
370
    50
100
AcDbVertex
100
AcDb2dVertex
 10
97.015875
 20
149.213957
 30
0.0
  0
VERTEX
  5
465
330
45F
100
AcDbEntity
  8
001
 62
   253
370
    50
100
AcDbVertex
100
AcDb2dVertex
 10
97.019397
 20
149.398038
 30
0.0
  0
SEQEND
  5
460
330
45F
100
AcDbEntity
  8
001
370
    50
  0
POLYLINE
  5
466
330
1F
100
AcDbEntity
  8
001
 62
   253
370
    50
100
AcDb2dPolyline
 66
     1
 10
0.0
 20
0.0
 30
0.0
  0
VERTEX
  5
468
330
466
100
AcDbEntity
  8
001
 62
   253
370
    50
100
AcDbVertex
100
AcDb2dVertex
 10
97.019397
 20
149.398038
 30
0.0
  0
VERTEX
  5
469
330
466
100
AcDbEntity
  8
001
 62
   253
370
    50
100
AcDbVertex
100
AcDb2dVertex
 10
97.011324
 20
149.636797
 30
0.0
  0
VERTEX
  5
46A
330
466
100
AcDbEntity
  8
001
 62
   253
370
    50
100
AcDbVertex
100
AcDb2dVertex
 10
96.994784
 20
149.874725
 30
0.0
  0
VERTEX
  5
46B
330
466
100
AcDbEntity
  8
001
 62
   253
370
    50
100
AcDbVertex
100
AcDb2dVertex
 10
96.966285
 20
150.097649
 30
0.0
  0
VERTEX
  5
46C
330
466
100
AcDbEntity
  8
001
 62
   253
370
    50
100
AcDbVertex
100
AcDb2dVertex
 10
96.930269
 20
150.319836
 30
0.0
  0
SEQEND
  5
467
330
466
100
AcDbEntity
  8
001
370
    50
  0
POLYLINE
  5
46D
330
1F
100
AcDbEntity
  8
001
 62
   253
370
    50
100
AcDb2dPolyline
 66
     1
 10
0.0
 20
0.0
 30
0.0
  0
VERTEX
  5
46F
330
46D
100
AcDbEntity
  8
001
 62
   253
370
    50
100
AcDbVertex
100
AcDb2dVertex
 10
96.930269
 20
150.319836
 30
0.0
  0
VERTEX
  5
470
330
46D
100
AcDbEntity
  8
001
 62
   253
370
    50
100
AcDbVertex
100
AcDb2dVertex
 10
96.88959
 20
150.505795
 30
0.0
  0
VERTEX
  5
471
330
46D
100
AcDbEntity
  8
001
 62
   253
370
    50
100
AcDbVertex
100
AcDb2dVertex
 10
96.844785
 20
150.690737
 30
0.0
  0
VERTEX
  5
472
330
46D
100
AcDbEntity
  8
001
 62
   253
370
    50
100
AcDbVertex
100
AcDb2dVertex
 10
96.71664
 20
151.098069
 30
0.0
  0
VERTEX
  5
473
330
46D
100
AcDbEntity
  8
001
 62
   253
370
    50
100
AcDbVertex
100
AcDb2dVertex
 10
96.551831
 20
151.492546
 30
0.0
  0
VERTEX
  5
474
330
46D
100
AcDbEntity
  8
001
 62
   253
370
    50
100
AcDbVertex
100
AcDb2dVertex
 10
96.360312
 20
151.861386
 30
0.0
  0
VERTEX
  5
475
330
46D
100
AcDbEntity
  8
001
 62
   253
370
    50
100
AcDbVertex
100
AcDb2dVertex
 10
96.139266
 20
152.213091
 30
0.0
  0
VERTEX
  5
476
330
46D
100
AcDbEntity
  8
001
 62
   253
370
    50
100
AcDbVertex
100
AcDb2dVertex
 10
95.881809
 20
152.554585
 30
0.0
  0
VERTEX
  5
477
330
46D
100
AcDbEntity
  8
001
 62
   253
370
    50
100
AcDbVertex
100
AcDb2dVertex
 10
95.595958
 20
152.872715
 30
0.0
  0
VERTEX
  5
478
330
46D
100
AcDbEntity
  8
001
 62
   253
370
    50
100
AcDbVertex
100
AcDb2dVertex
 10
95.293767
 20
153.15671
 30
0.0
  0
VERTEX
  5
479
330
46D
100
AcDbEntity
  8
001
 62
   253
370
    50
100
AcDbVertex
100
AcDb2dVertex
 10
94.969264
 20
153.415151
 30
0.0
  0
VERTEX
  5
47A
330
46D
100
AcDbEntity
  8
001
 62
   253
370
    50
100
AcDbVertex
100
AcDb2dVertex
 10
94.614413
 20
153.652654
 30
0.0
  0
VERTEX
  5
47B
330
46D
100
AcDbEntity
  8
001
 62
   253
370
    50
100
AcDbVertex
100
AcDb2dVertex
 10
94.240275
 20
153.857573
 30
0.0
  0
VERTEX
  5
47C
330
46D
100
AcDbEntity
  8
001
 62
   253
370
    50
100
AcDbVertex
100
AcDb2dVertex
 10
94.136239
 20
153.907021
 30
0.0
  0
VERTEX
  5
47D
330
46D
100
AcDbEntity
  8
001
 62
   253
370
    50
100
AcDbVertex
100
AcDb2dVertex
 10
94.031569
 20
153.955121
 30
0.0
  0
SEQEND
  5
46E
330
46D
100
AcDbEntity
  8
001
370
    50
  0
POLYLINE
  5
47E
330
1F
100
AcDbEntity
  8
001
 62
   253
370
    50
100
AcDb2dPolyline
 66
     1
 10
0.0
 20
0.0
 30
0.0
  0
VERTEX
  5
480
330
47E
100
AcDbEntity
  8
001
 62
   253
370
    50
100
AcDbVertex
100
AcDb2dVertex
 10
90.849252
 20
154.176428
 30
0.0
  0
VERTEX
  5
481
330
47E
100
AcDbEntity
  8
001
 62
   253
370
    50
100
AcDbVertex
100
AcDb2dVertex
 10
90.52167
 20
154.102659
 30
0.0
  0
VERTEX
  5
482
330
47E
100
AcDbEntity
  8
001
 62
   253
370
    50
100
AcDbVertex
100
AcDb2dVertex
 10
90.197129
 20
154.017884
 30
0.0
  0
VERTEX
  5
483
330
47E
100
AcDbEntity
  8
001
 62
   253
370
    50
100
AcDbVertex
100
AcDb2dVertex
 10
89.877766
 20
153.91329
 30
0.0
  0
VERTEX
  5
484
330
47E
100
AcDbEntity
  8
001
 62
   253
370
    50
100
AcDbVertex
100
AcDb2dVertex
 10
89.564913
 20
153.789801
 30
0.0
  0
VERTEX
  5
485
330
47E
100
AcDbEntity
  8
001
 62
   253
370
    50
100
AcDbVertex
100
AcDb2dVertex
 10
89.260594
 20
153.650633
 30
0.0
  0
VERTEX
  5
486
330
47E
100
AcDbEntity
  8
001
 62
   253
370
    50
100
AcDbVertex
100
AcDb2dVertex
 10
88.964497
 20
153.495033
 30
0.0
  0
VERTEX
  5
487
330
47E
100
AcDbEntity
  8
001
 62
   253
370
    50
100
AcDbVertex
100
AcDb2dVertex
 10
88.673746
 20
153.31972
 30
0.0
  0
VERTEX
  5
488
330
47E
100
AcDbEntity
  8
001
 62
   253
370
    50
100
AcDbVertex
100
AcDb2dVertex
 10
88.393874
 20
153.127408
 30
0.0
  0
VERTEX
  5
489
330
47E
100
AcDbEntity
  8
001
 62
   253
370
    50
100
AcDbVertex
100
AcDb2dVertex
 10
88.12522
 20
152.918267
 30
0.0
  0
VERTEX
  5
48A
330
47E
100
AcDbEntity
  8
001
 62
   253
370
    50
100
AcDbVertex
100
AcDb2dVertex
 10
87.869735
 20
152.693242
 30
0.0
  0
VERTEX
  5
48B
330
47E
100
AcDbEntity
  8
001
 62
   253
370
    50
100
AcDbVertex
100
AcDb2dVertex
 10
87.629671
 20
152.453725
 30
0.0
  0
VERTEX
  5
48C
330
47E
100
AcDbEntity
  8
001
 62
   253
370
    50
100
AcDbVertex
100
AcDb2dVertex
 10
87.405593
 20
152.199228
 30
0.0
  0
VERTEX
  5
48D
330
47E
100
AcDbEntity
  8
001
 62
   253
370
    50
100
AcDbVertex
100
AcDb2dVertex
 10
87.213409
 20
151.950215
 30
0.0
  0
VERTEX
  5
48E
330
47E
100
AcDbEntity
  8
001
 62
   253
370
    50
100
AcDbVertex
100
AcDb2dVertex
 10
87.037184
 20
151.689657
 30
0.0
  0
VERTEX
  5
48F
330
47E
100
AcDbEntity
  8
001
 62
   253
370
    50
100
AcDbVertex
100
AcDb2dVertex
 10
86.876877
 20
151.417069
 30
0.0
  0
VERTEX
  5
490
330
47E
100
AcDbEntity
  8
001
 62
   253
370
    50
100
AcDbVertex
100
AcDb2dVertex
 10
86.734388
 20
151.134742
 30
0.0
  0
VERTEX
  5
491
330
47E
100
AcDbEntity
  8
001
 62
   253
370
    50
100
AcDbVertex
100
AcDb2dVertex
 10
86.6111
 20
150.84452
 30
0.0
  0
VERTEX
  5
492
330
47E
100
AcDbEntity
  8
001
 62
   253
370
    50
100
AcDbVertex
100
AcDb2dVertex
 10
86.507912
 20
150.546615
 30
0.0
  0
VERTEX
  5
493
330
47E
100
AcDbEntity
  8
001
 62
   253
370
    50
100
AcDbVertex
100
AcDb2dVertex
 10
86.435733
 20
150.283289
 30
0.0
  0
VERTEX
  5
494
330
47E
100
AcDbEntity
  8
001
 62
   253
370
    50
100
AcDbVertex
100
AcDb2dVertex
 10
86.379666
 20
150.01606
 30
0.0
  0
VERTEX
  5
495
330
47E
100
AcDbEntity
  8
001
 62
   253
370
    50
100
AcDbVertex
100
AcDb2dVertex
 10
86.339554
 20
149.744658
 30
0.0
  0
VERTEX
  5
496
330
47E
100
AcDbEntity
  8
001
 62
   253
370
    50
100
AcDbVertex
100
AcDb2dVertex
 10
86.315873
 20
149.471337
 30
0.0
  0
VERTEX
  5
497
330
47E
100
AcDbEntity
  8
001
 62
   253
370
    50
100
AcDbVertex
100
AcDb2dVertex
 10
86.308869
 20
149.198098
 30
0.0
  0
VERTEX
  5
498
330
47E
100
AcDbEntity
  8
001
 62
   253
370
    50
100
AcDbVertex
100
AcDb2dVertex
 10
86.318796
 20
148.924939
 30
0.0
  0
VERTEX
  5
499
330
47E
100
AcDbEntity
  8
001
 62
   253
370
    50
100
AcDbVertex
100
AcDb2dVertex
 10
86.359427
 20
148.557722
 30
0.0
  0
VERTEX
  5
49A
330
47E
100
AcDbEntity
  8
001
 62
   253
370
    50
100
AcDbVertex
100
AcDb2dVertex
 10
86.430247
 20
148.194977
 30
0.0
  0
VERTEX
  5
49B
330
47E
100
AcDbEntity
  8
001
 62
   253
370
    50
100
AcDbVertex
100
AcDb2dVertex
 10
86.529778
 20
147.839581
 30
0.0
  0
VERTEX
  5
49C
330
47E
100
AcDbEntity
  8
001
 62
   253
370
    50
100
AcDbVertex
100
AcDb2dVertex
 10
86.657354
 20
147.493346
 30
0.0
  0
VERTEX
  5
49D
330
47E
100
AcDbEntity
  8
001
 62
   253
370
    50
100
AcDbVertex
100
AcDb2dVertex
 10
86.814193
 20
147.15436
 30
0.0
  0
VERTEX
  5
49E
330
47E
100
AcDbEntity
  8
001
 62
   253
370
    50
100
AcDbVertex
100
AcDb2dVertex
 10
86.996985
 20
146.828563
 30
0.0
  0
VERTEX
  5
49F
330
47E
100
AcDbEntity
  8
001
 62
   253
370
    50
100
AcDbVertex
100
AcDb2dVertex
 10
87.203389
 20
146.517846
 30
0.0
  0
VERTEX
  5
4A0
330
47E
100
AcDbEntity
  8
001
 62
   253
370
    50
100
AcDbVertex
100
AcDb2dVertex
 10
87.432119
 20
146.223216
 30
0.0
  0
VERTEX
  5
4A1
330
47E
100
AcDbEntity
  8
001
 62
   253
370
    50
100
AcDbVertex
100
AcDb2dVertex
 10
87.708478
 20
145.918461
 30
0.0
  0
VERTEX
  5
4A2
330
47E
100
AcDbEntity
  8
001
 62
   253
370
    50
100
AcDbVertex
100
AcDb2dVertex
 10
88.007568
 20
145.635872
 30
0.0
  0
VERTEX
  5
4A3
330
47E
100
AcDbEntity
  8
001
 62
   253
370
    50
100
AcDbVertex
100
AcDb2dVertex
 10
88.326974
 20
145.376168
 30
0.0
  0
VERTEX
  5
4A4
330
47E
100
AcDbEntity
  8
001
 62
   253
370
    50
100
AcDbVertex
100
AcDb2dVertex
 10
88.664462
 20
145.140494
 30
0.0
  0
VERTEX
  5
4A5
330
47E
100
AcDbEntity
  8
001
 62
   253
370
    50
100
AcDbVertex
100
AcDb2dVertex
 10
89.064182
 20
144.904639
 30
0.0
  0
VERTEX
  5
4A6
330
47E
100
AcDbEntity
  8
001
 62
   253
370
    50
100
AcDbVertex
100
AcDb2dVertex
 10
89.481262
 20
144.700798
 30
0.0
  0
VERTEX
  5
4A7
330
47E
100
AcDbEntity
  8
001
 62
   253
370
    50
100
AcDbVertex
100
AcDb2dVertex
 10
89.91367
 20
144.528909
 30
0.0
  0
VERTEX
  5
4A8
330
47E
100
AcDbEntity
  8
001
 62
   253
370
    50
100
AcDbVertex
100
AcDb2dVertex
 10
90.357723
 20
144.390258
 30
0.0
  0
VERTEX
  5
4A9
330
47E
100
AcDbEntity
  8
001
 62
   253
370
    50
100
AcDbVertex
100
AcDb2dVertex
 10
90.684763
 20
144.311083
 30
0.0
  0
VERTEX
  5
4AA
330
47E
100
AcDbEntity
  8
001
 62
   253
370
    50
100
AcDbVertex
100
AcDb2dVertex
 10
91.015557
 20
144.249591
 30
0.0
  0
VERTEX
  5
4AB
330
47E
100
AcDbEntity
  8
001
 62
   253
370
    50
100
AcDbVertex
100
AcDb2dVertex
 10
91.350501
 20
144.205499
 30
0.0
  0
VERTEX
  5
4AC
330
47E
100
AcDbEntity
  8
001
 62
   253
370
    50
100
AcDbVertex
100
AcDb2dVertex
 10
91.68731
 20
144.179089
 30
0.0
  0
VERTEX
  5
4AD
330
47E
100
AcDbEntity
  8
001
 62
   253
370
    50
100
AcDbVertex
100
AcDb2dVertex
 10
92.024153
 20
144.170429
 30
0.0
  0
VERTEX
  5
4AE
330
47E
100
AcDbEntity
  8
001
 62
   253
370
    50
100
AcDbVertex
100
AcDb2dVertex
 10
92.360972
 20
144.179661
 30
0.0
  0
VERTEX
  5
4AF
330
47E
100
AcDbEntity
  8
001
 62
   253
370
    50
100
AcDbVertex
100
AcDb2dVertex
 10
92.705594
 20
144.207923
 30
0.0
  0
VERTEX
  5
4B0
330
47E
100
AcDbEntity
  8
001
 62
   253
370
    50
100
AcDbVertex
100
AcDb2dVertex
 10
93.048161
 20
144.254996
 30
0.0
  0
VERTEX
  5
4B1
330
47E
100
AcDbEntity
  8
001
 62
   253
370
    50
100
AcDbVertex
100
AcDb2dVertex
 10
93.388358
 20
144.320742
 30
0.0
  0
VERTEX
  5
4B2
330
47E
100
AcDbEntity
  8
001
 62
   253
370
    50
100
AcDbVertex
100
AcDb2dVertex
 10
93.72449
 20
144.404923
 30
0.0
  0
VERTEX
  5
4B3
330
47E
100
AcDbEntity
  8
001
 62
   253
370
    50
100
AcDbVertex
100
AcDb2dVertex
 10
94.053942
 20
144.50695
 30
0.0
  0
VERTEX
  5
4B4
330
47E
100
AcDbEntity
  8
001
 62
   253
370
    50
100
AcDbVertex
100
AcDb2dVertex
 10
94.37702
 20
144.627438
 30
0.0
  0
VERTEX
  5
4B5
330
47E
100
AcDbEntity
  8
001
 62
   253
370
    50
100
AcDbVertex
100
AcDb2dVertex
 10
94.678048
 20
144.759602
 30
0.0
  0
VERTEX
  5
4B6
330
47E
100
AcDbEntity
  8
001
 62
   253
370
    50
100
AcDbVertex
100
AcDb2dVertex
 10
94.971719
 20
144.907738
 30
0.0
  0
VERTEX
  5
4B7
330
47E
100
AcDbEntity
  8
001
 62
   253
370
    50
100
AcDbVertex
100
AcDb2dVertex
 10
95.257699
 20
145.071584
 30
0.0
  0
VERTEX
  5
4B8
330
47E
100
AcDbEntity
  8
001
 62
   253
370
    50
100
AcDbVertex
100
AcDb2dVertex
 10
95.532689
 20
145.252657
 30
0.0
  0
VERTEX
  5
4B9
330
47E
100
AcDbEntity
  8
001
 62
   253
370
    50
100
AcDbVertex
100
AcDb2dVertex
 10
95.794017
 20
145.450376
 30
0.0
  0
VERTEX
  5
4BA
330
47E
100
AcDbEntity
  8
001
 62
   253
370
    50
100
AcDbVertex
100
AcDb2dVertex
 10
96.048254
 20
145.657786
 30
0.0
  0
SEQEND
  5
47F
330
47E
100
AcDbEntity
  8
001
370
    50
  0
POLYLINE
  5
4BB
330
1F
100
AcDbEntity
  8
001
 62
   253
370
    50
100
AcDb2dPolyline
 66
     1
 10
0.0
 20
0.0
 30
0.0
  0
VERTEX
  5
4BD
330
4BB
100
AcDbEntity
  8
001
 62
   253
370
    50
100
AcDbVertex
100
AcDb2dVertex
 10
96.048254
 20
145.657786
 30
0.0
  0
VERTEX
  5
4BE
330
4BB
100
AcDbEntity
  8
001
 62
   253
370
    50
100
AcDbVertex
100
AcDb2dVertex
 10
96.332082
 20
145.936426
 30
0.0
  0
VERTEX
  5
4BF
330
4BB
100
AcDbEntity
  8
001
 62
   253
370
    50
100
AcDbVertex
100
AcDb2dVertex
 10
96.601802
 20
146.227732
 30
0.0
  0
VERTEX
  5
4C0
330
4BB
100
AcDbEntity
  8
001
 62
   253
370
    50
100
AcDbVertex
100
AcDb2dVertex
 10
96.845901
 20
146.541586
 30
0.0
  0
VERTEX
  5
4C1
330
4BB
100
AcDbEntity
  8
001
 62
   253
370
    50
100
AcDbVertex
100
AcDb2dVertex
 10
97.062409
 20
146.875664
 30
0.0
  0
VERTEX
  5
4C2
330
4BB
100
AcDbEntity
  8
001
 62
   253
370
    50
100
AcDbVertex
100
AcDb2dVertex
 10
97.205031
 20
147.133171
 30
0.0
  0
VERTEX
  5
4C3
330
4BB
100
AcDbEntity
  8
001
 62
   253
370
    50
100
AcDbVertex
100
AcDb2dVertex
 10
97.33188
 20
147.398594
 30
0.0
  0
VERTEX
  5
4C4
330
4BB
100
AcDbEntity
  8
001
 62
   253
370
    50
100
AcDbVertex
100
AcDb2dVertex
 10
97.442578
 20
147.672965
 30
0.0
  0
VERTEX
  5
4C5
330
4BB
100
AcDbEntity
  8
001
 62
   253
370
    50
100
AcDbVertex
100
AcDb2dVertex
 10
97.535803
 20
147.953825
 30
0.0
  0
VERTEX
  5
4C6
330
4BB
100
AcDbEntity
  8
001
 62
   253
370
    50
100
AcDbVertex
100
AcDb2dVertex
 10
97.610772
 20
148.239155
 30
0.0
  0
VERTEX
  5
4C7
330
4BB
100
AcDbEntity
  8
001
 62
   253
370
    50
100
AcDbVertex
100
AcDb2dVertex
 10
97.666865
 20
148.52877
 30
0.0
  0
VERTEX
  5
4C8
330
4BB
100
AcDbEntity
  8
001
 62
   253
370
    50
100
AcDbVertex
100
AcDb2dVertex
 10
97.710785
 20
148.915903
 30
0.0
  0
VERTEX
  5
4C9
330
4BB
100
AcDbEntity
  8
001
 62
   253
370
    50
100
AcDbVertex
100
AcDb2dVertex
 10
97.720667
 20
149.30557
 30
0.0
  0
VERTEX
  5
4CA
330
4BB
100
AcDbEntity
  8
001
 62
   253
370
    50
100
AcDbVertex
100
AcDb2dVertex
 10
97.697
 20
149.694573
 30
0.0
  0
VERTEX
  5
4CB
330
4BB
100
AcDbEntity
  8
001
 62
   253
370
    50
100
AcDbVertex
100
AcDb2dVertex
 10
97.639596
 20
150.07991
 30
0.0
  0
VERTEX
  5
4CC
330
4BB
100
AcDbEntity
  8
001
 62
   253
370
    50
100
AcDbVertex
100
AcDb2dVertex
 10
97.554949
 20
150.436002
 30
0.0
  0
VERTEX
  5
4CD
330
4BB
100
AcDbEntity
  8
001
 62
   253
370
    50
100
AcDbVertex
100
AcDb2dVertex
 10
97.441977
 20
150.784214
 30
0.0
  0
VERTEX
  5
4CE
330
4BB
100
AcDbEntity
  8
001
 62
   253
370
    50
100
AcDbVertex
100
AcDb2dVertex
 10
97.302559
 20
151.122044
 30
0.0
  0
VERTEX
  5
4CF
330
4BB
100
AcDbEntity
  8
001
 62
   253
370
    50
100
AcDbVertex
100
AcDb2dVertex
 10
97.137617
 20
151.448112
 30
0.0
  0
VERTEX
  5
4D0
330
4BB
100
AcDbEntity
  8
001
 62
   253
370
    50
100
AcDbVertex
100
AcDb2dVertex
 10
96.93778
 20
151.776532
 30
0.0
  0
VERTEX
  5
4D1
330
4BB
100
AcDbEntity
  8
001
 62
   253
370
    50
100
AcDbVertex
100
AcDb2dVertex
 10
96.713148
 20
152.088629
 30
0.0
  0
VERTEX
  5
4D2
330
4BB
100
AcDbEntity
  8
001
 62
   253
370
    50
100
AcDbVertex
100
AcDb2dVertex
 10
96.466193
 20
152.382955
 30
0.0
  0
VERTEX
  5
4D3
330
4BB
100
AcDbEntity
  8
001
 62
   253
370
    50
100
AcDbVertex
100
AcDb2dVertex
 10
96.1984
 20
152.658303
 30
0.0
  0
VERTEX
  5
4D4
330
4BB
100
AcDbEntity
  8
001
 62
   253
370
    50
100
AcDbVertex
100
AcDb2dVertex
 10
95.875657
 20
152.942857
 30
0.0
  0
VERTEX
  5
4D5
330
4BB
100
AcDbEntity
  8
001
 62
   253
370
    50
100
AcDbVertex
100
AcDb2dVertex
 10
95.531983
 20
153.202321
 30
0.0
  0
VERTEX
  5
4D6
330
4BB
100
AcDbEntity
  8
001
 62
   253
370
    50
100
AcDbVertex
100
AcDb2dVertex
 10
95.16973
 20
153.436636
 30
0.0
  0
VERTEX
  5
4D7
330
4BB
100
AcDbEntity
  8
001
 62
   253
370
    50
100
AcDbVertex
100
AcDb2dVertex
 10
94.79046
 20
153.640904
 30
0.0
  0
VERTEX
  5
4D8
330
4BB
100
AcDbEntity
  8
001
 62
   253
370
    50
100
AcDbVertex
100
AcDb2dVertex
 10
94.41474
 20
153.806098
 30
0.0
  0
VERTEX
  5
4D9
330
4BB
100
AcDbEntity
  8
001
 62
   253
370
    50
100
AcDbVertex
100
AcDb2dVertex
 10
94.031569
 20
153.955121
 30
0.0
  0
SEQEND
  5
4BC
330
4BB
100
AcDbEntity
  8
001
370
    50
  0
LINE
  5
4DA
330
1F
100
AcDbEntity
  8
001
 62
   253
370
    50
100
AcDbLine
 10
102.015278
 20
169.227196
 30
0.0
 11
84.551176
 21
169.227196
 31
0.0
  0
LINE
  5
4DB
330
1F
100
AcDbEntity
  8
001
 62
   253
370
    50
100
AcDbLine
 10
84.551176
 20
129.227196
 30
0.0
 11
102.015278
 21
129.227196
 31
0.0
  0
ARC
  5
4DC
330
1F
100
AcDbEntity
  8
001
 62
   253
370
    50
100
AcDbCircle
 10
84.551176
 20
131.227196
 30
0.0
 40
1.999999999999993
100
AcDbArc
 50
240.0
 51
270.0
  0
ARC
  5
4DD
330
1F
100
AcDbEntity
  8
001
 62
   253
370
    50
100
AcDbCircle
 10
84.551176
 20
167.227196
 30
0.0
 40
1.999999999999993
100
AcDbArc
 50
90.0
 51
120.0
  0
LINE
  5
4DE
330
1F
100
AcDbEntity
  8
001
 62
   253
370
    50
100
AcDbLine
 10
83.551176
 20
168.959247
 30
0.0
 11
78.015278
 21
165.763095
 31
0.0
  0
LINE
  5
4DF
330
1F
100
AcDbEntity
  8
001
 62
   253
370
    50
100
AcDbLine
 10
78.015278
 20
132.691298
 30
0.0
 11
83.551176
 21
129.495145
 31
0.0
  0
LINE
  5
4E0
330
1F
100
AcDbEntity
  8
001
 62
   253
370
    50
100
AcDbLine
 10
195.015278
 20
157.296273
 30
0.0
 11
120.015278
 21
157.296273
 31
0.0
  0
POLYLINE
  5
4E1
330
1F
100
AcDbEntity
  8
001
 62
   253
370
    50
100
AcDb2dPolyline
 66
     1
 10
0.0
 20
0.0
 30
0.0
  0
VERTEX
  5
4E3
330
4E1
100
AcDbEntity
  8
001
 62
   253
370
    50
100
AcDbVertex
100
AcDb2dVertex
 10
195.015278
 20
141.158119
 30
0.0
  0
VERTEX
  5
4E4
330
4E1
100
AcDbEntity
  8
001
 62
   253
370
    50
100
AcDbVertex
100
AcDb2dVertex
 10
195.076183
 20
141.161364
 30
0.0
  0
VERTEX
  5
4E5
330
4E1
100
AcDbEntity
  8
001
 62
   253
370
    50
100
AcDbVertex
100
AcDb2dVertex
 10
195.136776
 20
141.167279
 30
0.0
  0
VERTEX
  5
4E6
330
4E1
100
AcDbEntity
  8
001
 62
   253
370
    50
100
AcDbVertex
100
AcDb2dVertex
 10
195.270713
 20
141.198223
 30
0.0
  0
VERTEX
  5
4E7
330
4E1
100
AcDbEntity
  8
001
 62
   253
370
    50
100
AcDbVertex
100
AcDb2dVertex
 10
195.398567
 20
141.250447
 30
0.0
  0
VERTEX
  5
4E8
330
4E1
100
AcDbEntity
  8
001
 62
   253
370
    50
100
AcDbVertex
100
AcDb2dVertex
 10
195.487459
 20
141.299399
 30
0.0
  0
VERTEX
  5
4E9
330
4E1
100
AcDbEntity
  8
001
 62
   253
370
    50
100
AcDbVertex
100
AcDb2dVertex
 10
195.571548
 20
141.355811
 30
0.0
  0
VERTEX
  5
4EA
330
4E1
100
AcDbEntity
  8
001
 62
   253
370
    50
100
AcDbVertex
100
AcDb2dVertex
 10
195.651079
 20
141.418861
 30
0.0
  0
VERTEX
  5
4EB
330
4E1
100
AcDbEntity
  8
001
 62
   253
370
    50
100
AcDbVertex
100
AcDb2dVertex
 10
195.726052
 20
141.487391
 30
0.0
  0
VERTEX
  5
4EC
330
4E1
100
AcDbEntity
  8
001
 62
   253
370
    50
100
AcDbVertex
100
AcDb2dVertex
 10
195.842771
 20
141.612877
 30
0.0
  0
VERTEX
  5
4ED
330
4E1
100
AcDbEntity
  8
001
 62
   253
370
    50
100
AcDbVertex
100
AcDb2dVertex
 10
195.948045
 20
141.748186
 30
0.0
  0
VERTEX
  5
4EE
330
4E1
100
AcDbEntity
  8
001
 62
   253
370
    50
100
AcDbVertex
100
AcDb2dVertex
 10
196.043215
 20
141.891166
 30
0.0
  0
VERTEX
  5
4EF
330
4E1
100
AcDbEntity
  8
001
 62
   253
370
    50
100
AcDbVertex
100
AcDb2dVertex
 10
196.129493
 20
142.039691
 30
0.0
  0
VERTEX
  5
4F0
330
4E1
100
AcDbEntity
  8
001
 62
   253
370
    50
100
AcDbVertex
100
AcDb2dVertex
 10
196.26133
 20
142.305636
 30
0.0
  0
VERTEX
  5
4F1
330
4E1
100
AcDbEntity
  8
001
 62
   253
370
    50
100
AcDbVertex
100
AcDb2dVertex
 10
196.373824
 20
142.580441
 30
0.0
  0
VERTEX
  5
4F2
330
4E1
100
AcDbEntity
  8
001
 62
   253
370
    50
100
AcDbVertex
100
AcDb2dVertex
 10
196.469912
 20
142.862947
 30
0.0
  0
VERTEX
  5
4F3
330
4E1
100
AcDbEntity
  8
001
 62
   253
370
    50
100
AcDbVertex
100
AcDb2dVertex
 10
196.551421
 20
143.149954
 30
0.0
  0
VERTEX
  5
4F4
330
4E1
100
AcDbEntity
  8
001
 62
   253
370
    50
100
AcDbVertex
100
AcDb2dVertex
 10
196.62081
 20
143.439854
 30
0.0
  0
VERTEX
  5
4F5
330
4E1
100
AcDbEntity
  8
001
 62
   253
370
    50
100
AcDbVertex
100
AcDb2dVertex
 10
196.680784
 20
143.731883
 30
0.0
  0
VERTEX
  5
4F6
330
4E1
100
AcDbEntity
  8
001
 62
   253
370
    50
100
AcDbVertex
100
AcDb2dVertex
 10
196.793208
 20
144.410081
 30
0.0
  0
VERTEX
  5
4F7
330
4E1
100
AcDbEntity
  8
001
 62
   253
370
    50
100
AcDbVertex
100
AcDb2dVertex
 10
196.87488
 20
145.092767
 30
0.0
  0
VERTEX
  5
4F8
330
4E1
100
AcDbEntity
  8
001
 62
   253
370
    50
100
AcDbVertex
100
AcDb2dVertex
 10
196.93092
 20
145.779352
 30
0.0
  0
VERTEX
  5
4F9
330
4E1
100
AcDbEntity
  8
001
 62
   253
370
    50
100
AcDbVertex
100
AcDb2dVertex
 10
196.965931
 20
146.467297
 30
0.0
  0
VERTEX
  5
4FA
330
4E1
100
AcDbEntity
  8
001
 62
   253
370
    50
100
AcDbVertex
100
AcDb2dVertex
 10
196.98475
 20
147.157509
 30
0.0
  0
VERTEX
  5
4FB
330
4E1
100
AcDbEntity
  8
001
 62
   253
370
    50
100
AcDbVertex
100
AcDb2dVertex
 10
196.992376
 20
147.847948
 30
0.0
  0
VERTEX
  5
4FC
330
4E1
100
AcDbEntity
  8
001
 62
   253
370
    50
100
AcDbVertex
100
AcDb2dVertex
 10
196.993723
 20
148.537576
 30
0.0
  0
VERTEX
  5
4FD
330
4E1
100
AcDbEntity
  8
001
 62
   253
370
    50
100
AcDbVertex
100
AcDb2dVertex
 10
196.99265
 20
149.227196
 30
0.0
  0
VERTEX
  5
4FE
330
4E1
100
AcDbEntity
  8
001
 62
   253
370
    50
100
AcDbVertex
100
AcDb2dVertex
 10
196.991468
 20
149.894452
 30
0.0
  0
VERTEX
  5
4FF
330
4E1
100
AcDbEntity
  8
001
 62
   253
370
    50
100
AcDbVertex
100
AcDb2dVertex
 10
196.987342
 20
150.561694
 30
0.0
  0
VERTEX
  5
500
330
4E1
100
AcDbEntity
  8
001
 62
   253
370
    50
100
AcDbVertex
100
AcDb2dVertex
 10
196.9765
 20
151.228863
 30
0.0
  0
VERTEX
  5
501
330
4E1
100
AcDbEntity
  8
001
 62
   253
370
    50
100
AcDbVertex
100
AcDb2dVertex
 10
196.956219
 20
151.895818
 30
0.0
  0
VERTEX
  5
502
330
4E1
100
AcDbEntity
  8
001
 62
   253
370
    50
100
AcDbVertex
100
AcDb2dVertex
 10
196.923926
 20
152.561966
 30
0.0
  0
VERTEX
  5
503
330
4E1
100
AcDbEntity
  8
001
 62
   253
370
    50
100
AcDbVertex
100
AcDb2dVertex
 10
196.876484
 20
153.227196
 30
0.0
  0
VERTEX
  5
504
330
4E1
100
AcDbEntity
  8
001
 62
   253
370
    50
100
AcDbVertex
100
AcDb2dVertex
 10
196.836498
 20
153.65025
 30
0.0
  0
VERTEX
  5
505
330
4E1
100
AcDbEntity
  8
001
 62
   253
370
    50
100
AcDbVertex
100
AcDb2dVertex
 10
196.786017
 20
154.072162
 30
0.0
  0
VERTEX
  5
506
330
4E1
100
AcDbEntity
  8
001
 62
   253
370
    50
100
AcDbVertex
100
AcDb2dVertex
 10
196.722258
 20
154.492098
 30
0.0
  0
VERTEX
  5
507
330
4E1
100
AcDbEntity
  8
001
 62
   253
370
    50
100
AcDbVertex
100
AcDb2dVertex
 10
196.643171
 20
154.909417
 30
0.0
  0
VERTEX
  5
508
330
4E1
100
AcDbEntity
  8
001
 62
   253
370
    50
100
AcDbVertex
100
AcDb2dVertex
 10
196.579921
 20
155.189182
 30
0.0
  0
VERTEX
  5
509
330
4E1
100
AcDbEntity
  8
001
 62
   253
370
    50
100
AcDbVertex
100
AcDb2dVertex
 10
196.506762
 20
155.4665
 30
0.0
  0
VERTEX
  5
50A
330
4E1
100
AcDbEntity
  8
001
 62
   253
370
    50
100
AcDbVertex
100
AcDb2dVertex
 10
196.421439
 20
155.740613
 30
0.0
  0
VERTEX
  5
50B
330
4E1
100
AcDbEntity
  8
001
 62
   253
370
    50
100
AcDbVertex
100
AcDb2dVertex
 10
196.321432
 20
156.009755
 30
0.0
  0
VERTEX
  5
50C
330
4E1
100
AcDbEntity
  8
001
 62
   253
370
    50
100
AcDbVertex
100
AcDb2dVertex
 10
196.204872
 20
156.27041
 30
0.0
  0
VERTEX
  5
50D
330
4E1
100
AcDbEntity
  8
001
 62
   253
370
    50
100
AcDbVertex
100
AcDb2dVertex
 10
196.068714
 20
156.521246
 30
0.0
  0
VERTEX
  5
50E
330
4E1
100
AcDbEntity
  8
001
 62
   253
370
    50
100
AcDbVertex
100
AcDb2dVertex
 10
195.988802
 20
156.647217
 30
0.0
  0
VERTEX
  5
50F
330
4E1
100
AcDbEntity
  8
001
 62
   253
370
    50
100
AcDbVertex
100
AcDb2dVertex
 10
195.901755
 20
156.768316
 30
0.0
  0
VERTEX
  5
510
330
4E1
100
AcDbEntity
  8
001
 62
   253
370
    50
100
AcDbVertex
100
AcDb2dVertex
 10
195.806708
 20
156.882912
 30
0.0
  0
VERTEX
  5
511
330
4E1
100
AcDbEntity
  8
001
 62
   253
370
    50
100
AcDbVertex
100
AcDb2dVertex
 10
195.702594
 20
156.989439
 30
0.0
  0
VERTEX
  5
512
330
4E1
100
AcDbEntity
  8
001
 62
   253
370
    50
100
AcDbVertex
100
AcDb2dVertex
 10
195.56016
 20
157.106723
 30
0.0
  0
VERTEX
  5
513
330
4E1
100
AcDbEntity
  8
001
 62
   253
370
    50
100
AcDbVertex
100
AcDb2dVertex
 10
195.402113
 20
157.202204
 30
0.0
  0
VERTEX
  5
514
330
4E1
100
AcDbEntity
  8
001
 62
   253
370
    50
100
AcDbVertex
100
AcDb2dVertex
 10
195.264074
 20
157.258239
 30
0.0
  0
VERTEX
  5
515
330
4E1
100
AcDbEntity
  8
001
 62
   253
370
    50
100
AcDbVertex
100
AcDb2dVertex
 10
195.119281
 20
157.289563
 30
0.0
  0
VERTEX
  5
516
330
4E1
100
AcDbEntity
  8
001
 62
   253
370
    50
100
AcDbVertex
100
AcDb2dVertex
 10
195.067377
 20
157.293883
 30
0.0
  0
VERTEX
  5
517
330
4E1
100
AcDbEntity
  8
001
 62
   253
370
    50
100
AcDbVertex
100
AcDb2dVertex
 10
195.015278
 20
157.296273
 30
0.0
  0
SEQEND
  5
4E2
330
4E1
100
AcDbEntity
  8
001
370
    50
  0
LINE
  5
518
330
1F
100
AcDbEntity
  8
001
 62
   253
370
    50
100
AcDbLine
 10
120.015278
 20
141.158119
 30
0.0
 11
195.015278
 21
141.158119
 31
0.0
  0
LINE
  5
519
330
1F
100
AcDbEntity
  8
001
 62
   253
370
    50
100
AcDbLine
 10
117.015278
 20
142.492213
 30
0.0
 11
120.015278
 21
142.492213
 31
0.0
  0
LINE
  5
51A
330
1F
100
AcDbEntity
  8
001
 62
   253
370
    50
100
AcDbLine
 10
120.015278
 20
155.962179
 30
0.0
 11
117.015278
 21
155.962179
 31
0.0
  0
ARC
  5
51B
330
1F
100
AcDbEntity
  8
001
 62
   253
370
    50
100
AcDbCircle
 10
195.015278
 20
167.227196
 30
0.0
 40
2.0
100
AcDbArc
 50
0.0
 51
90.0
  0
ARC
  5
51C
330
1F
100
AcDbEntity
  8
001
 62
   253
370
    50
100
AcDbCircle
 10
195.015278
 20
131.227196
 30
0.0
 40
2.0
100
AcDbArc
 50
270.0
 51
0.0
  0
LINE
  5
51D
330
1F
100
AcDbEntity
  8
001
 62
   253
370
    50
100
AcDbLine
 10
197.015278
 20
167.227196
 30
0.0
 11
197.015278
 21
131.227196
 31
0.0
  0
LINE
  5
51E
330
1F
100
AcDbEntity
  8
001
 62
   253
370
    50
100
AcDbLine
 10
120.015278
 20
168.727196
 30
0.0
 11
117.015278
 21
168.727196
 31
0.0
  0
LINE
  5
51F
330
1F
100
AcDbEntity
  8
001
 62
   253
370
    50
100
AcDbLine
 10
117.015278
 20
129.727196
 30
0.0
 11
120.015278
 21
129.727196
 31
0.0
  0
LINE
  5
520
330
1F
100
AcDbEntity
  8
001
 62
   253
370
    50
100
AcDbLine
 10
120.015278
 20
129.227196
 30
0.0
 11
120.015278
 21
142.492213
 31
0.0
  0
LINE
  5
521
330
1F
100
AcDbEntity
  8
001
 62
   253
370
    50
100
AcDbLine
 10
195.015278
 20
169.227196
 30
0.0
 11
120.015278
 21
169.227196
 31
0.0
  0
LINE
  5
522
330
1F
100
AcDbEntity
  8
001
 62
   253
370
    50
100
AcDbLine
 10
120.015278
 20
129.227196
 30
0.0
 11
195.015278
 21
129.227196
 31
0.0
  0
LINE
  5
523
330
1F
100
AcDbEntity
  8
001
 62
   253
370
    50
100
AcDbLine
 10
120.015278
 20
155.962179
 30
0.0
 11
120.015278
 21
169.227196
 31
0.0
  0
ARC
  5
524
330
1F
100
AcDbEntity
  8
001
 62
   253
370
    50
100
AcDbCircle
 10
79.015278
 20
134.423349
 30
0.0
 40
1.999999999999999
100
AcDbArc
 50
180.0
 51
240.0
  0
ARC
  5
525
330
1F
100
AcDbEntity
  8
001
 62
   253
370
    50
100
AcDbCircle
 10
79.015278
 20
164.031044
 30
0.0
 40
1.999999999999999
100
AcDbArc
 50
120.0
 51
180.0
  0
LINE
  5
526
330
1F
100
AcDbEntity
  8
001
 62
   253
370
    50
100
AcDbLine
 10
77.015278
 20
134.423349
 30
0.0
 11
77.015278
 21
164.031044
 31
0.0
  0
ARC
  5
527
330
1F
100
AcDbEntity
  8
001
 62
   253
370
    50
100
AcDbCircle
 10
262.931816
 20
149.227196
 30
0.0
 40
20.0
100
AcDbArc
 50
203.794273
 51
156.205727
  0
LINE
  5
528
330
1F
100
AcDbEntity
  8
001
 62
   253
370
    50
100
AcDbLine
 10
244.631816
 20
141.158119
 30
0.0
 11
244.631816
 21
157.296273
 31
0.0
  0
CIRCLE
  5
529
330
1F
100
AcDbEntity
  8
001
 62
   253
370
    50
100
AcDbCircle
 10
262.931816
 20
149.227196
 30
0.0
 40
12.99999999999999
  0
CIRCLE
  5
52A
330
1F
100
AcDbEntity
  8
001
 62
   253
370
    50
100
AcDbCircle
 10
262.931816
 20
149.227196
 30
0.0
 40
12.49999999999999
  0
CIRCLE
  5
52B
330
1F
100
AcDbEntity
  8
001
 62
   253
370
    50
100
AcDbCircle
 10
262.931816
 20
149.227196
 30
0.0
 40
24.0
  0
ARC
  5
52C
330
1F
100
AcDbEntity
  8
001
 62
   253
370
    50
100
AcDbCircle
 10
103.015278
 20
30.368435
 30
0.0
 40
0.9999999999999966
100
AcDbArc
 50
180.0
 51
270.0
  0
ARC
  5
52D
330
1F
100
AcDbEntity
  8
001
 62
   253
370
    50
100
AcDbCircle
 10
103.015278
 20
76.368435
 30
0.0
 40
0.9999999999999966
100
AcDbArc
 50
90.0
 51
180.0
  0
LINE
  5
52E
330
1F
100
AcDbEntity
  8
001
 62
   253
370
    50
100
AcDbLine
 10
102.015278
 20
76.368435
 30
0.0
 11
102.015278
 21
30.368435
 31
0.0
  0
ARC
  5
52F
330
1F
100
AcDbEntity
  8
001
 62
   253
370
    50
100
AcDbCircle
 10
116.015278
 20
76.368435
 30
0.0
 40
1.0
100
AcDbArc
 50
0.0
 51
90.0
  0
ARC
  5
530
330
1F
100
AcDbEntity
  8
001
 62
   253
370
    50
100
AcDbCircle
 10
116.015278
 20
30.368435
 30
0.0
 40
1.0
100
AcDbArc
 50
270.0
 51
0.0
  0
LINE
  5
531
330
1F
100
AcDbEntity
  8
001
 62
   253
370
    50
100
AcDbLine
 10
117.015278
 20
30.368435
 30
0.0
 11
117.015278
 21
76.368435
 31
0.0
  0
POLYLINE
  5
532
330
1F
100
AcDbEntity
  8
001
 62
   253
370
    50
100
AcDb2dPolyline
 66
     1
 10
0.0
 20
0.0
 30
0.0
  0
VERTEX
  5
534
330
532
100
AcDbEntity
  8
001
 62
   253
370
    50
100
AcDbVertex
100
AcDb2dVertex
 10
103.885978
 20
77.368435
 30
0.0
  0
VERTEX
  5
535
330
532
100
AcDbEntity
  8
001
 62
   253
370
    50
100
AcDbVertex
100
AcDb2dVertex
 10
103.928629
 20
77.360372
 30
0.0
  0
VERTEX
  5
536
330
532
100
AcDbEntity
  8
001
 62
   253
370
    50
100
AcDbVertex
100
AcDb2dVertex
 10
103.971286
 20
77.352342
 30
0.0
  0
VERTEX
  5
537
330
532
100
AcDbEntity
  8
001
 62
   253
370
    50
100
AcDbVertex
100
AcDb2dVertex
 10
104.077168
 20
77.332674
 30
0.0
  0
VERTEX
  5
538
330
532
100
AcDbEntity
  8
001
 62
   253
370
    50
100
AcDbVertex
100
AcDb2dVertex
 10
104.183118
 20
77.313369
 30
0.0
  0
VERTEX
  5
539
330
532
100
AcDbEntity
  8
001
 62
   253
370
    50
100
AcDbVertex
100
AcDb2dVertex
 10
104.343295
 20
77.284848
 30
0.0
  0
VERTEX
  5
53A
330
532
100
AcDbEntity
  8
001
 62
   253
370
    50
100
AcDbVertex
100
AcDb2dVertex
 10
104.503609
 20
77.25711
 30
0.0
  0
VERTEX
  5
53B
330
532
100
AcDbEntity
  8
001
 62
   253
370
    50
100
AcDbVertex
100
AcDb2dVertex
 10
104.719652
 20
77.221038
 30
0.0
  0
VERTEX
  5
53C
330
532
100
AcDbEntity
  8
001
 62
   253
370
    50
100
AcDbVertex
100
AcDb2dVertex
 10
104.935937
 20
77.186438
 30
0.0
  0
VERTEX
  5
53D
330
532
100
AcDbEntity
  8
001
 62
   253
370
    50
100
AcDbVertex
100
AcDb2dVertex
 10
105.212838
 20
77.14436
 30
0.0
  0
VERTEX
  5
53E
330
532
100
AcDbEntity
  8
001
 62
   253
370
    50
100
AcDbVertex
100
AcDb2dVertex
 10
105.490103
 20
77.104743
 30
0.0
  0
VERTEX
  5
53F
330
532
100
AcDbEntity
  8
001
 62
   253
370
    50
100
AcDbVertex
100
AcDb2dVertex
 10
105.816859
 20
77.061317
 30
0.0
  0
VERTEX
  5
540
330
532
100
AcDbEntity
  8
001
 62
   253
370
    50
100
AcDbVertex
100
AcDb2dVertex
 10
106.144062
 20
77.0214
 30
0.0
  0
VERTEX
  5
541
330
532
100
AcDbEntity
  8
001
 62
   253
370
    50
100
AcDbVertex
100
AcDb2dVertex
 10
106.53573
 20
76.978356
 30
0.0
  0
VERTEX
  5
542
330
532
100
AcDbEntity
  8
001
 62
   253
370
    50
100
AcDbVertex
100
AcDb2dVertex
 10
106.927934
 20
76.940464
 30
0.0
  0
VERTEX
  5
543
330
532
100
AcDbEntity
  8
001
 62
   253
370
    50
100
AcDbVertex
100
AcDb2dVertex
 10
107.360674
 20
76.904758
 30
0.0
  0
VERTEX
  5
544
330
532
100
AcDbEntity
  8
001
 62
   253
370
    50
100
AcDbVertex
100
AcDb2dVertex
 10
107.793892
 20
76.87548
 30
0.0
  0
VERTEX
  5
545
330
532
100
AcDbEntity
  8
001
 62
   253
370
    50
100
AcDbVertex
100
AcDb2dVertex
 10
108.029861
 20
76.862273
 30
0.0
  0
VERTEX
  5
546
330
532
100
AcDbEntity
  8
001
 62
   253
370
    50
100
AcDbVertex
100
AcDb2dVertex
 10
108.265929
 20
76.850993
 30
0.0
  0
VERTEX
  5
547
330
532
100
AcDbEntity
  8
001
 62
   253
370
    50
100
AcDbVertex
100
AcDb2dVertex
 10
108.505991
 20
76.841502
 30
0.0
  0
VERTEX
  5
548
330
532
100
AcDbEntity
  8
001
 62
   253
370
    50
100
AcDbVertex
100
AcDb2dVertex
 10
108.746124
 20
76.834021
 30
0.0
  0
VERTEX
  5
549
330
532
100
AcDbEntity
  8
001
 62
   253
370
    50
100
AcDbVertex
100
AcDb2dVertex
 10
108.995378
 20
76.828404
 30
0.0
  0
VERTEX
  5
54A
330
532
100
AcDbEntity
  8
001
 62
   253
370
    50
100
AcDbVertex
100
AcDb2dVertex
 10
109.244671
 20
76.824959
 30
0.0
  0
VERTEX
  5
54B
330
532
100
AcDbEntity
  8
001
 62
   253
370
    50
100
AcDbVertex
100
AcDb2dVertex
 10
109.49487
 20
76.823676
 30
0.0
  0
VERTEX
  5
54C
330
532
100
AcDbEntity
  8
001
 62
   253
370
    50
100
AcDbVertex
100
AcDb2dVertex
 10
109.74507
 20
76.824586
 30
0.0
  0
VERTEX
  5
54D
330
532
100
AcDbEntity
  8
001
 62
   253
370
    50
100
AcDbVertex
100
AcDb2dVertex
 10
109.994802
 20
76.827696
 30
0.0
  0
VERTEX
  5
54E
330
532
100
AcDbEntity
  8
001
 62
   253
370
    50
100
AcDbVertex
100
AcDb2dVertex
 10
110.244498
 20
76.832989
 30
0.0
  0
VERTEX
  5
54F
330
532
100
AcDbEntity
  8
001
 62
   253
370
    50
100
AcDbVertex
100
AcDb2dVertex
 10
110.491741
 20
76.840363
 30
0.0
  0
VERTEX
  5
550
330
532
100
AcDbEntity
  8
001
 62
   253
370
    50
100
AcDbVertex
100
AcDb2dVertex
 10
110.738912
 20
76.849868
 30
0.0
  0
VERTEX
  5
551
330
532
100
AcDbEntity
  8
001
 62
   253
370
    50
100
AcDbVertex
100
AcDb2dVertex
 10
110.98895
 20
76.861666
 30
0.0
  0
VERTEX
  5
552
330
532
100
AcDbEntity
  8
001
 62
   253
370
    50
100
AcDbVertex
100
AcDb2dVertex
 10
111.238877
 20
76.875628
 30
0.0
  0
VERTEX
  5
553
330
532
100
AcDbEntity
  8
001
 62
   253
370
    50
100
AcDbVertex
100
AcDb2dVertex
 10
111.482578
 20
76.89131
 30
0.0
  0
VERTEX
  5
554
330
532
100
AcDbEntity
  8
001
 62
   253
370
    50
100
AcDbVertex
100
AcDb2dVertex
 10
111.72614
 20
76.909039
 30
0.0
  0
VERTEX
  5
555
330
532
100
AcDbEntity
  8
001
 62
   253
370
    50
100
AcDbVertex
100
AcDb2dVertex
 10
112.138913
 20
76.943788
 30
0.0
  0
VERTEX
  5
556
330
532
100
AcDbEntity
  8
001
 62
   253
370
    50
100
AcDbVertex
100
AcDb2dVertex
 10
112.551171
 20
76.984228
 30
0.0
  0
VERTEX
  5
557
330
532
100
AcDbEntity
  8
001
 62
   253
370
    50
100
AcDbVertex
100
AcDb2dVertex
 10
112.749234
 20
77.005663
 30
0.0
  0
VERTEX
  5
558
330
532
100
AcDbEntity
  8
001
 62
   253
370
    50
100
AcDbVertex
100
AcDb2dVertex
 10
112.947133
 20
77.028534
 30
0.0
  0
VERTEX
  5
559
330
532
100
AcDbEntity
  8
001
 62
   253
370
    50
100
AcDbVertex
100
AcDb2dVertex
 10
113.133883
 20
77.051471
 30
0.0
  0
VERTEX
  5
55A
330
532
100
AcDbEntity
  8
001
 62
   253
370
    50
100
AcDbVertex
100
AcDb2dVertex
 10
113.320546
 20
77.075127
 30
0.0
  0
SEQEND
  5
533
330
532
100
AcDbEntity
  8
001
370
    50
  0
LINE
  5
55B
330
1F
100
AcDbEntity
  8
001
 62
   253
370
    50
100
AcDbLine
 10
103.890213
 20
77.368435
 30
0.0
 11
103.015278
 21
77.368435
 31
0.0
  0
LINE
  5
55C
330
1F
100
AcDbEntity
  8
001
 62
   253
370
    50
100
AcDbLine
 10
116.015278
 20
77.368435
 30
0.0
 11
115.134251
 21
77.368435
 31
0.0
  0
LINE
  5
55D
330
1F
100
AcDbEntity
  8
001
 62
   253
370
    50
100
AcDbLine
 10
103.015278
 20
29.368435
 30
0.0
 11
116.015278
 21
29.368435
 31
0.0
  0
POLYLINE
  5
55E
330
1F
100
AcDbEntity
  8
001
 62
   253
370
    50
100
AcDb2dPolyline
 66
     1
 10
0.0
 20
0.0
 30
0.0
  0
VERTEX
  5
560
330
55E
100
AcDbEntity
  8
001
 62
   253
370
    50
100
AcDbVertex
100
AcDb2dVertex
 10
113.320546
 20
77.075127
 30
0.0
  0
VERTEX
  5
561
330
55E
100
AcDbEntity
  8
001
 62
   253
370
    50
100
AcDbVertex
100
AcDb2dVertex
 10
113.601807
 20
77.113758
 30
0.0
  0
VERTEX
  5
562
330
55E
100
AcDbEntity
  8
001
 62
   253
370
    50
100
AcDbVertex
100
AcDb2dVertex
 10
113.882829
 20
77.154028
 30
0.0
  0
VERTEX
  5
563
330
55E
100
AcDbEntity
  8
001
 62
   253
370
    50
100
AcDbVertex
100
AcDb2dVertex
 10
114.12599
 20
77.191271
 30
0.0
  0
VERTEX
  5
564
330
55E
100
AcDbEntity
  8
001
 62
   253
370
    50
100
AcDbVertex
100
AcDb2dVertex
 10
114.368832
 20
77.230564
 30
0.0
  0
VERTEX
  5
565
330
55E
100
AcDbEntity
  8
001
 62
   253
370
    50
100
AcDbVertex
100
AcDb2dVertex
 10
114.480346
 20
77.249209
 30
0.0
  0
VERTEX
  5
566
330
55E
100
AcDbEntity
  8
001
 62
   253
370
    50
100
AcDbVertex
100
AcDb2dVertex
 10
114.591796
 20
77.268228
 30
0.0
  0
VERTEX
  5
567
330
55E
100
AcDbEntity
  8
001
 62
   253
370
    50
100
AcDbVertex
100
AcDb2dVertex
 10
114.686014
 20
77.284622
 30
0.0
  0
VERTEX
  5
568
330
55E
100
AcDbEntity
  8
001
 62
   253
370
    50
100
AcDbVertex
100
AcDb2dVertex
 10
114.780183
 20
77.301292
 30
0.0
  0
VERTEX
  5
569
330
55E
100
AcDbEntity
  8
001
 62
   253
370
    50
100
AcDbVertex
100
AcDb2dVertex
 10
114.858174
 20
77.315309
 30
0.0
  0
VERTEX
  5
56A
330
55E
100
AcDbEntity
  8
001
 62
   253
370
    50
100
AcDbVertex
100
AcDb2dVertex
 10
114.936131
 20
77.329509
 30
0.0
  0
VERTEX
  5
56B
330
55E
100
AcDbEntity
  8
001
 62
   253
370
    50
100
AcDbVertex
100
AcDb2dVertex
 10
114.993096
 20
77.340007
 30
0.0
  0
VERTEX
  5
56C
330
55E
100
AcDbEntity
  8
001
 62
   253
370
    50
100
AcDbVertex
100
AcDb2dVertex
 10
115.05004
 20
77.350614
 30
0.0
  0
VERTEX
  5
56D
330
55E
100
AcDbEntity
  8
001
 62
   253
370
    50
100
AcDbVertex
100
AcDb2dVertex
 10
115.097312
 20
77.359504
 30
0.0
  0
VERTEX
  5
56E
330
55E
100
AcDbEntity
  8
001
 62
   253
370
    50
100
AcDbVertex
100
AcDb2dVertex
 10
115.144577
 20
77.368435
 30
0.0
  0
SEQEND
  5
55F
330
55E
100
AcDbEntity
  8
001
370
    50
  0
ARC
  5
56F
330
1F
100
AcDbEntity
  8
001
 62
   253
370
    50
100
AcDbCircle
 10
195.015278
 20
35.368435
 30
0.0
 40
2.0
100
AcDbArc
 50
270.0
 51
0.0
  0
LINE
  5
570
330
1F
100
AcDbEntity
  8
001
 62
   253
370
    50
100
AcDbLine
 10
197.015278
 20
71.368435
 30
0.0
 11
197.015278
 21
35.368435
 31
0.0
  0
ARC
  5
571
330
1F
100
AcDbEntity
  8
001
 62
   253
370
    50
100
AcDbCircle
 10
84.551176
 20
35.368435
 30
0.0
 40
1.999999999999993
100
AcDbArc
 50
240.0
 51
270.0
  0
ARC
  5
572
330
1F
100
AcDbEntity
  8
001
 62
   253
370
    50
100
AcDbCircle
 10
84.551176
 20
71.368435
 30
0.0
 40
1.999999999999993
100
AcDbArc
 50
90.0
 51
120.0
  0
POLYLINE
  5
573
330
1F
100
AcDbEntity
  8
001
 62
   253
370
    50
100
AcDb2dPolyline
 66
     1
 10
0.0
 20
0.0
 30
0.0
  0
VERTEX
  5
575
330
573
100
AcDbEntity
  8
001
 62
   253
370
    50
100
AcDbVertex
100
AcDb2dVertex
 10
86.308499
 20
73.368435
 30
0.0
  0
VERTEX
  5
576
330
573
100
AcDbEntity
  8
001
 62
   253
370
    50
100
AcDbVertex
100
AcDb2dVertex
 10
86.313648
 20
73.367293
 30
0.0
  0
VERTEX
  5
577
330
573
100
AcDbEntity
  8
001
 62
   253
370
    50
100
AcDbVertex
100
AcDb2dVertex
 10
86.318796
 20
73.366151
 30
0.0
  0
VERTEX
  5
578
330
573
100
AcDbEntity
  8
001
 62
   253
370
    50
100
AcDbVertex
100
AcDb2dVertex
 10
86.373091
 20
73.354168
 30
0.0
  0
VERTEX
  5
579
330
573
100
AcDbEntity
  8
001
 62
   253
370
    50
100
AcDbVertex
100
AcDb2dVertex
 10
86.427408
 20
73.342286
 30
0.0
  0
VERTEX
  5
57A
330
573
100
AcDbEntity
  8
001
 62
   253
370
    50
100
AcDbVertex
100
AcDb2dVertex
 10
86.542333
 20
73.317488
 30
0.0
  0
VERTEX
  5
57B
330
573
100
AcDbEntity
  8
001
 62
   253
370
    50
100
AcDbVertex
100
AcDb2dVertex
 10
86.657354
 20
73.293137
 30
0.0
  0
VERTEX
  5
57C
330
573
100
AcDbEntity
  8
001
 62
   253
370
    50
100
AcDbVertex
100
AcDb2dVertex
 10
86.824669
 20
73.25856
 30
0.0
  0
VERTEX
  5
57D
330
573
100
AcDbEntity
  8
001
 62
   253
370
    50
100
AcDbVertex
100
AcDb2dVertex
 10
86.992181
 20
73.224952
 30
0.0
  0
VERTEX
  5
57E
330
573
100
AcDbEntity
  8
001
 62
   253
370
    50
100
AcDbVertex
100
AcDb2dVertex
 10
87.211987
 20
73.182396
 30
0.0
  0
VERTEX
  5
57F
330
573
100
AcDbEntity
  8
001
 62
   253
370
    50
100
AcDbVertex
100
AcDb2dVertex
 10
87.432119
 20
73.141551
 30
0.0
  0
VERTEX
  5
580
330
573
100
AcDbEntity
  8
001
 62
   253
370
    50
100
AcDbVertex
100
AcDb2dVertex
 10
87.716037
 20
73.09152
 30
0.0
  0
VERTEX
  5
581
330
573
100
AcDbEntity
  8
001
 62
   253
370
    50
100
AcDbVertex
100
AcDb2dVertex
 10
88.000458
 20
73.044425
 30
0.0
  0
VERTEX
  5
582
330
573
100
AcDbEntity
  8
001
 62
   253
370
    50
100
AcDbVertex
100
AcDb2dVertex
 10
88.332154
 20
72.993373
 30
0.0
  0
VERTEX
  5
583
330
573
100
AcDbEntity
  8
001
 62
   253
370
    50
100
AcDbVertex
100
AcDb2dVertex
 10
88.664462
 20
72.946455
 30
0.0
  0
VERTEX
  5
584
330
573
100
AcDbEntity
  8
001
 62
   253
370
    50
100
AcDbVertex
100
AcDb2dVertex
 10
89.067253
 20
72.895329
 30
0.0
  0
VERTEX
  5
585
330
573
100
AcDbEntity
  8
001
 62
   253
370
    50
100
AcDbVertex
100
AcDb2dVertex
 10
89.470797
 20
72.850488
 30
0.0
  0
VERTEX
  5
586
330
573
100
AcDbEntity
  8
001
 62
   253
370
    50
100
AcDbVertex
100
AcDb2dVertex
 10
89.913929
 20
72.80869
 30
0.0
  0
VERTEX
  5
587
330
573
100
AcDbEntity
  8
001
 62
   253
370
    50
100
AcDbVertex
100
AcDb2dVertex
 10
90.357723
 20
72.774724
 30
0.0
  0
VERTEX
  5
588
330
573
100
AcDbEntity
  8
001
 62
   253
370
    50
100
AcDbVertex
100
AcDb2dVertex
 10
90.600483
 20
72.759516
 30
0.0
  0
VERTEX
  5
589
330
573
100
AcDbEntity
  8
001
 62
   253
370
    50
100
AcDbVertex
100
AcDb2dVertex
 10
90.843378
 20
72.746686
 30
0.0
  0
VERTEX
  5
58A
330
573
100
AcDbEntity
  8
001
 62
   253
370
    50
100
AcDbVertex
100
AcDb2dVertex
 10
91.090004
 20
72.736102
 30
0.0
  0
VERTEX
  5
58B
330
573
100
AcDbEntity
  8
001
 62
   253
370
    50
100
AcDbVertex
100
AcDb2dVertex
 10
91.336724
 20
72.727997
 30
0.0
  0
VERTEX
  5
58C
330
573
100
AcDbEntity
  8
001
 62
   253
370
    50
100
AcDbVertex
100
AcDb2dVertex
 10
91.592475
 20
72.72224
 30
0.0
  0
VERTEX
  5
58D
330
573
100
AcDbEntity
  8
001
 62
   253
370
    50
100
AcDbVertex
100
AcDb2dVertex
 10
91.848272
 20
72.719159
 30
0.0
  0
VERTEX
  5
58E
330
573
100
AcDbEntity
  8
001
 62
   253
370
    50
100
AcDbVertex
100
AcDb2dVertex
 10
92.104627
 20
72.718742
 30
0.0
  0
VERTEX
  5
58F
330
573
100
AcDbEntity
  8
001
 62
   253
370
    50
100
AcDbVertex
100
AcDb2dVertex
 10
92.360972
 20
72.721016
 30
0.0
  0
VERTEX
  5
590
330
573
100
AcDbEntity
  8
001
 62
   253
370
    50
100
AcDbVertex
100
AcDb2dVertex
 10
92.615729
 20
72.725961
 30
0.0
  0
VERTEX
  5
591
330
573
100
AcDbEntity
  8
001
 62
   253
370
    50
100
AcDbVertex
100
AcDb2dVertex
 10
92.870422
 20
72.733559
 30
0.0
  0
VERTEX
  5
592
330
573
100
AcDbEntity
  8
001
 62
   253
370
    50
100
AcDbVertex
100
AcDb2dVertex
 10
93.122259
 20
72.743655
 30
0.0
  0
VERTEX
  5
593
330
573
100
AcDbEntity
  8
001
 62
   253
370
    50
100
AcDbVertex
100
AcDb2dVertex
 10
93.37398
 20
72.756328
 30
0.0
  0
VERTEX
  5
594
330
573
100
AcDbEntity
  8
001
 62
   253
370
    50
100
AcDbVertex
100
AcDb2dVertex
 10
93.628272
 20
72.771761
 30
0.0
  0
VERTEX
  5
595
330
573
100
AcDbEntity
  8
001
 62
   253
370
    50
100
AcDbVertex
100
AcDb2dVertex
 10
93.882392
 20
72.789795
 30
0.0
  0
VERTEX
  5
596
330
573
100
AcDbEntity
  8
001
 62
   253
370
    50
100
AcDbVertex
100
AcDb2dVertex
 10
94.129811
 20
72.809834
 30
0.0
  0
VERTEX
  5
597
330
573
100
AcDbEntity
  8
001
 62
   253
370
    50
100
AcDbVertex
100
AcDb2dVertex
 10
94.37702
 20
72.832305
 30
0.0
  0
VERTEX
  5
598
330
573
100
AcDbEntity
  8
001
 62
   253
370
    50
100
AcDbVertex
100
AcDb2dVertex
 10
94.598748
 20
72.854545
 30
0.0
  0
VERTEX
  5
599
330
573
100
AcDbEntity
  8
001
 62
   253
370
    50
100
AcDbVertex
100
AcDb2dVertex
 10
94.820274
 20
72.878712
 30
0.0
  0
VERTEX
  5
59A
330
573
100
AcDbEntity
  8
001
 62
   253
370
    50
100
AcDbVertex
100
AcDb2dVertex
 10
95.032847
 20
72.903708
 30
0.0
  0
VERTEX
  5
59B
330
573
100
AcDbEntity
  8
001
 62
   253
370
    50
100
AcDbVertex
100
AcDb2dVertex
 10
95.245208
 20
72.930447
 30
0.0
  0
VERTEX
  5
59C
330
573
100
AcDbEntity
  8
001
 62
   253
370
    50
100
AcDbVertex
100
AcDb2dVertex
 10
95.452697
 20
72.958276
 30
0.0
  0
VERTEX
  5
59D
330
573
100
AcDbEntity
  8
001
 62
   253
370
    50
100
AcDbVertex
100
AcDb2dVertex
 10
95.659962
 20
72.987738
 30
0.0
  0
VERTEX
  5
59E
330
573
100
AcDbEntity
  8
001
 62
   253
370
    50
100
AcDbVertex
100
AcDb2dVertex
 10
95.854215
 20
73.016839
 30
0.0
  0
VERTEX
  5
59F
330
573
100
AcDbEntity
  8
001
 62
   253
370
    50
100
AcDbVertex
100
AcDb2dVertex
 10
96.048254
 20
73.04734
 30
0.0
  0
VERTEX
  5
5A0
330
573
100
AcDbEntity
  8
001
 62
   253
370
    50
100
AcDbVertex
100
AcDb2dVertex
 10
96.322383
 20
73.092863
 30
0.0
  0
VERTEX
  5
5A1
330
573
100
AcDbEntity
  8
001
 62
   253
370
    50
100
AcDbVertex
100
AcDb2dVertex
 10
96.596044
 20
73.141117
 30
0.0
  0
VERTEX
  5
5A2
330
573
100
AcDbEntity
  8
001
 62
   253
370
    50
100
AcDbVertex
100
AcDb2dVertex
 10
96.829409
 20
73.184455
 30
0.0
  0
VERTEX
  5
5A3
330
573
100
AcDbEntity
  8
001
 62
   253
370
    50
100
AcDbVertex
100
AcDb2dVertex
 10
97.062409
 20
73.229711
 30
0.0
  0
VERTEX
  5
5A4
330
573
100
AcDbEntity
  8
001
 62
   253
370
    50
100
AcDbVertex
100
AcDb2dVertex
 10
97.165067
 20
73.250275
 30
0.0
  0
VERTEX
  5
5A5
330
573
100
AcDbEntity
  8
001
 62
   253
370
    50
100
AcDbVertex
100
AcDb2dVertex
 10
97.267652
 20
73.271206
 30
0.0
  0
VERTEX
  5
5A6
330
573
100
AcDbEntity
  8
001
 62
   253
370
    50
100
AcDbVertex
100
AcDb2dVertex
 10
97.352641
 20
73.288834
 30
0.0
  0
VERTEX
  5
5A7
330
573
100
AcDbEntity
  8
001
 62
   253
370
    50
100
AcDbVertex
100
AcDb2dVertex
 10
97.437578
 20
73.306708
 30
0.0
  0
VERTEX
  5
5A8
330
573
100
AcDbEntity
  8
001
 62
   253
370
    50
100
AcDbVertex
100
AcDb2dVertex
 10
97.505671
 20
73.321219
 30
0.0
  0
VERTEX
  5
5A9
330
573
100
AcDbEntity
  8
001
 62
   253
370
    50
100
AcDbVertex
100
AcDb2dVertex
 10
97.57373
 20
73.335887
 30
0.0
  0
VERTEX
  5
5AA
330
573
100
AcDbEntity
  8
001
 62
   253
370
    50
100
AcDbVertex
100
AcDb2dVertex
 10
97.620306
 20
73.346022
 30
0.0
  0
VERTEX
  5
5AB
330
573
100
AcDbEntity
  8
001
 62
   253
370
    50
100
AcDbVertex
100
AcDb2dVertex
 10
97.666865
 20
73.356236
 30
0.0
  0
VERTEX
  5
5AC
330
573
100
AcDbEntity
  8
001
 62
   253
370
    50
100
AcDbVertex
100
AcDb2dVertex
 10
97.694462
 20
73.362328
 30
0.0
  0
VERTEX
  5
5AD
330
573
100
AcDbEntity
  8
001
 62
   253
370
    50
100
AcDbVertex
100
AcDb2dVertex
 10
97.722056
 20
73.368435
 30
0.0
  0
SEQEND
  5
574
330
573
100
AcDbEntity
  8
001
370
    50
  0
LINE
  5
5AE
330
1F
100
AcDbEntity
  8
001
 62
   253
370
    50
100
AcDbLine
 10
86.312473
 20
73.368435
 30
0.0
 11
84.551176
 21
73.368435
 31
0.0
  0
LINE
  5
5AF
330
1F
100
AcDbEntity
  8
001
 62
   253
370
    50
100
AcDbLine
 10
102.015278
 20
73.368435
 30
0.0
 11
97.716863
 21
73.368435
 31
0.0
  0
LINE
  5
5B0
330
1F
100
AcDbEntity
  8
001
 62
   253
370
    50
100
AcDbLine
 10
84.551176
 20
33.368435
 30
0.0
 11
102.015278
 21
33.368435
 31
0.0
  0
LINE
  5
5B1
330
1F
100
AcDbEntity
  8
001
 62
   253
370
    50
100
AcDbLine
 10
120.015278
 20
33.368435
 30
0.0
 11
195.015278
 21
33.368435
 31
0.0
  0
LINE
  5
5B2
330
1F
100
AcDbEntity
  8
001
 62
   253
370
    50
100
AcDbLine
 10
83.551176
 20
73.100486
 30
0.0
 11
78.015278
 21
69.904333
 31
0.0
  0
LINE
  5
5B3
330
1F
100
AcDbEntity
  8
001
 62
   253
370
    50
100
AcDbLine
 10
78.015278
 20
36.832537
 30
0.0
 11
83.551176
 21
33.636384
 31
0.0
  0
LINE
  5
5B4
330
1F
100
AcDbEntity
  8
001
 62
   253
370
    50
100
AcDbLine
 10
117.015278
 20
33.868435
 30
0.0
 11
120.015278
 21
33.868435
 31
0.0
  0
LINE
  5
5B5
330
1F
100
AcDbEntity
  8
001
 62
   253
370
    50
100
AcDbLine
 10
197.015278
 20
71.368435
 30
0.0
 11
117.015278
 21
71.368435
 31
0.0
  0
ARC
  5
5B6
330
1F
100
AcDbEntity
  8
001
 62
   253
370
    50
100
AcDbCircle
 10
79.015278
 20
38.564588
 30
0.0
 40
1.999999999999999
100
AcDbArc
 50
180.0
 51
240.0
  0
ARC
  5
5B7
330
1F
100
AcDbEntity
  8
001
 62
   253
370
    50
100
AcDbCircle
 10
79.015278
 20
68.172283
 30
0.0
 40
1.999999999999999
100
AcDbArc
 50
120.0
 51
180.0
  0
LINE
  5
5B8
330
1F
100
AcDbEntity
  8
001
 62
   253
370
    50
100
AcDbLine
 10
77.015278
 20
38.564588
 30
0.0
 11
77.015278
 21
68.172283
 31
0.0
  0
LINE
  5
5B9
330
1F
100
AcDbEntity
  8
001
  6
CENTER
 62
   253
370
     9
100
AcDbLine
 10
236.931816
 20
149.227196
 30
0.0
 11
288.931816
 21
149.227196
 31
0.0
  0
LINE
  5
5BA
330
1F
100
AcDbEntity
  8
001
  6
CENTER
 62
   253
370
     9
100
AcDbLine
 10
262.931816
 20
123.227196
 30
0.0
 11
262.931816
 21
175.227196
 31
0.0
  0
LINE
  5
5BB
330
1F
100
AcDbEntity
  8
001
 62
   253
370
    50
100
AcDbLine
 10
120.015278
 20
33.368435
 30
0.0
 11
120.015278
 21
71.368435
 31
0.0
  0
LINE
  5
5BC
330
1F
100
AcDbEntity
  8
001
  6
CENTER
370
     9
100
AcDbLine
 10
67.638043
 20
149.227196
 30
0.0
 11
203.524037
 21
149.227196
 31
0.0
  0
LINE
  5
5BD
330
1F
100
AcDbEntity
  8
001
  6
CENTER
370
     9
100
AcDbLine
 10
67.638043
 20
53.368435
 30
0.0
 11
203.524037
 21
53.368435
 31
0.0
  0
LINE
  5
5BE
330
1F
100
AcDbEntity
  8
001
  6
DASHED
370
    50
100
AcDbLine
 10
77.015278
 20
65.868435
 30
0.0
 11
197.015278
 21
65.868435
 31
0.0
  0
LINE
  5
5BF
330
1F
100
AcDbEntity
  8
001
  6
DASHED
370
    50
100
AcDbLine
 10
77.015278
 20
40.868435
 30
0.0
 11
197.015278
 21
40.868435
 31
0.0
  0
LINE
  5
5C0
330
1F
100
AcDbEntity
  8
001
  6
CENTER
370
     9
100
AcDbLine
 10
92.015278
 20
77.531829
 30
0.0
 11
92.015278
 21
60.133797
 31
0.0
  0
LINE
  5
5C1
330
1F
100
AcDbEntity
  8
001
  6
CENTER
370
     9
100
AcDbLine
 10
109.515278
 20
79.868878
 30
0.0
 11
109.515278
 21
60.912813
 31
0.0
  0
LINE
  5
5C2
330
1F
100
AcDbEntity
  8
001
  6
DASHED
370
    30
100
AcDbLine
 10
97.015278
 20
73.187905
 30
0.0
 11
97.015278
 21
65.868435
 31
0.0
  0
LINE
  5
5C3
330
1F
100
AcDbEntity
  8
001
  6
DASHED
370
    30
100
AcDbLine
 10
96.265278
 20
73.035508
 30
0.0
 11
96.265278
 21
65.868435
 31
0.0
  0
LINE
  5
5C4
330
1F
100
AcDbEntity
  8
001
  6
DASHED
370
    30
100
AcDbLine
 10
87.015278
 20
73.187905
 30
0.0
 11
87.015278
 21
65.868435
 31
0.0
  0
LINE
  5
5C5
330
1F
100
AcDbEntity
  8
001
  6
DASHED
370
    30
100
AcDbLine
 10
87.765278
 20
73.035508
 30
0.0
 11
87.765278
 21
65.868435
 31
0.0
  0
LINE
  5
5C6
330
1F
100
AcDbEntity
  8
001
  6
DASHED
370
    30
100
AcDbLine
 10
105.265278
 20
77.136673
 30
0.0
 11
105.265278
 21
65.868435
 31
0.0
  0
LINE
  5
5C7
330
1F
100
AcDbEntity
  8
001
  6
DASHED
370
    30
100
AcDbLine
 10
104.515278
 20
77.255123
 30
0.0
 11
104.515278
 21
65.868435
 31
0.0
  0
LINE
  5
5C8
330
1F
100
AcDbEntity
  8
001
  6
DASHED
370
    30
100
AcDbLine
 10
113.765278
 20
77.131781
 30
0.0
 11
113.765278
 21
65.868435
 31
0.0
  0
LINE
  5
5C9
330
1F
100
AcDbEntity
  8
001
  6
DASHED
370
    30
100
AcDbLine
 10
114.515278
 20
77.227322
 30
0.0
 11
114.515278
 21
65.868435
 31
0.0
  0
ENDSEC
  0
SECTION
  2
OBJECTS
  0
DICTIONARY
  5
C
330
0
100
AcDbDictionary
281
     1
  3
ACAD_GROUP
350
D
  3
ACAD_LAYOUT
350
1A
  3
ACAD_MLEADERSTYLE
350
5CD
  3
ACAD_MLINESTYLE
350
17
  3
ACAD_PLOTSETTINGS
350
19
  3
ACAD_PLOTSTYLENAME
350
E
  3
ACAD_SCALELIST
350
3B
  3
ACAD_TABLESTYLE
350
5CC
  3
ACAD_VISUALSTYLE
350
2A
  3
AcDbVariableDictionary
350
5CA
  0
DICTIONARY
  5
D
102
{ACAD_REACTORS
330
C
102
}
330
C
100
AcDbDictionary
281
     1
  0
DICTIONARY
  5
1A
102
{ACAD_REACTORS
330
C
102
}
330
C
100
AcDbDictionary
281
     1
  3
Layout1
350
1E
  3
Layout2
350
26
  3
Model
350
22
  0
DICTIONARY
  5
5CD
102
{ACAD_REACTORS
330
C
102
}
330
C
100
AcDbDictionary
281
     1
  0
DICTIONARY
  5
17
102
{ACAD_REACTORS
330
C
102
}
330
C
100
AcDbDictionary
281
     1
  3
Standard
350
18
  0
DICTIONARY
  5
19
102
{ACAD_REACTORS
330
C
102
}
330
C
100
AcDbDictionary
281
     1
  0
ACDBDICTIONARYWDFLT
  5
E
102
{ACAD_REACTORS
330
C
102
}
330
C
100
AcDbDictionary
281
     1
  3
Normal
350
F
100
AcDbDictionaryWithDefault
340
F
  0
DICTIONARY
  5
3B
102
{ACAD_REACTORS
330
C
102
}
330
C
100
AcDbDictionary
281
     1
  3
A0
350
3C
  3
A1
350
3D
  3
A2
350
3E
  3
A3
350
3F
  3
A4
350
40
  3
A5
350
41
  3
A6
350
42
  3
A7
350
43
  3
A8
350
44
  3
A9
350
45
  3
B0
350
46
  3
B1
350
47
  3
B2
350
48
  3
B3
350
49
  3
B4
350
4A
  3
B5
350
4B
  3
B6
350
4C
  3
B7
350
4D
  3
B8
350
4E
  3
B9
350
4F
  3
C0
350
50
  3
C1
350
51
  3
C2
350
52
  3
C3
350
53
  3
C4
350
54
  3
C5
350
55
  3
C6
350
56
  3
C7
350
57
  3
C8
350
58
  3
C9
350
59
  3
D0
350
5A
  3
D1
350
5B
  3
D2
350
5C
  0
DICTIONARY
  5
5CC
102
{ACAD_REACTORS
330
C
102
}
330
C
100
AcDbDictionary
281
     1
  0
DICTIONARY
  5
2A
102
{ACAD_REACTORS
330
C
102
}
330
C
100
AcDbDictionary
281
     1
  3
2dWireframe
350
2F
  3
3D Hidden
350
31
  3
3dWireframe
350
30
  3
Basic
350
32
  3
Brighten
350
36
  3
ColorChange
350
3A
  3
Conceptual
350
34
  3
Dim
350
35
  3
Facepattern
350
39
  3
Flat
350
2B
  3
FlatWithEdges
350
2C
  3
Gouraud
350
2D
  3
GouraudWithEdges
350
2E
  3
Linepattern
350
38
  3
Realistic
350
33
  3
Thicken
350
37
  0
DICTIONARY
  5
5CA
102
{ACAD_REACTORS
330
C
102
}
330
C
100
AcDbDictionary
281
     1
  3
CANNOSCALE
350
5CB
  3
PSOLHEIGHT
350
5CF
  3
PSOLWIDTH
350
5CE
  0
LAYOUT
  5
1E
102
{ACAD_REACTORS
330
1A
102
}
330
1A
100
AcDbPlotSettings
  1

  2
none_device
  4

  6

 40
0.0
 41
0.0
 42
0.0
 43
0.0
 44
0.0
 45
0.0
 46
0.0
 47
0.0
 48
0.0
 49
0.0
140
0.0
141
0.0
142
1.0
143
1.0
 70
   688
 72
     0
 73
     0
 74
     5
  7

 75
    16
147
1.0
148
0.0
149
0.0
100
AcDbLayout
  1
Layout1
 70
     1
 71
     1
 10
0.0
 20
0.0
 11
12.0
 21
9.0
 12
0.0
 22
0.0
 32
0.0
 14
1.000000E+20
 24
1.000000E+20
 34
0.0
 15
-1.000000E+20
 25
-1.000000E+20
 35
0.0
146
0.0
 13
0.0
 23
0.0
 33
0.0
 16
1.0
 26
0.0
 36
0.0
 17
0.0
 27
1.0
 37
0.0
 76
     0
330
1B
  0
LAYOUT
  5
26
102
{ACAD_REACTORS
330
1A
102
}
330
1A
100
AcDbPlotSettings
  1

  2
none_device
  4

  6

 40
0.0
 41
0.0
 42
0.0
 43
0.0
 44
0.0
 45
0.0
 46
0.0
 47
0.0
 48
0.0
 49
0.0
140
0.0
141
0.0
142
1.0
143
1.0
 70
   688
 72
     0
 73
     0
 74
     5
  7

 75
    16
147
1.0
148
0.0
149
0.0
100
AcDbLayout
  1
Layout2
 70
     1
 71
     2
 10
0.0
 20
0.0
 11
0.0
 21
0.0
 12
0.0
 22
0.0
 32
0.0
 14
0.0
 24
0.0
 34
0.0
 15
0.0
 25
0.0
 35
0.0
146
0.0
 13
0.0
 23
0.0
 33
0.0
 16
1.0
 26
0.0
 36
0.0
 17
0.0
 27
1.0
 37
0.0
 76
     0
330
23
  0
LAYOUT
  5
22
102
{ACAD_REACTORS
330
1A
102
}
330
1A
100
AcDbPlotSettings
  1

  2
none_device
  4

  6

 40
0.0
 41
0.0
 42
0.0
 43
0.0
 44
0.0
 45
0.0
 46
0.0
 47
0.0
 48
0.0
 49
0.0
140
0.0
141
0.0
142
1.0
143
1.0
 70
  1712
 72
     0
 73
     0
 74
     0
  7

 75
     0
147
1.0
148
0.0
149
0.0
100
AcDbLayout
  1
Model
 70
     1
 71
     0
 10
0.0
 20
0.0
 11
12.0
 21
9.0
 12
0.0
 22
0.0
 32
0.0
 14
-2.515289
 24
8.948471
 34
0.0
 15
288.931824
 25
222.014221
 35
0.0
146
0.0
 13
0.0
 23
0.0
 33
0.0
 16
1.0
 26
0.0
 36
0.0
 17
0.0
 27
1.0
 37
0.0
 76
     0
330
1F
331
29
  0
MLINESTYLE
  5
18
102
{ACAD_REACTORS
330
17
102
}
330
17
100
AcDbMlineStyle
  2
Standard
 70
     0
  3

 62
   256
 51
90.0
 52
90.0
 71
     2
 49
0.5
 62
   256
  6
BYLAYER
 49
-0.5
 62
   256
  6
BYLAYER
  0
ACDBPLACEHOLDER
  5
F
102
{ACAD_REACTORS
330
E
102
}
330
E
  0
SCALE
  5
3C
102
{ACAD_REACTORS
330
3B
102
}
330
3B
100
AcDbScale
 70
     0
300
1:1
140
1.0
141
1.0
290
     1
  0
SCALE
  5
3D
102
{ACAD_REACTORS
330
3B
102
}
330
3B
100
AcDbScale
 70
     0
300
1:2
140
1.0
141
2.0
290
     0
  0
SCALE
  5
3E
102
{ACAD_REACTORS
330
3B
102
}
330
3B
100
AcDbScale
 70
     0
300
1:4
140
1.0
141
4.0
290
     0
  0
SCALE
  5
3F
102
{ACAD_REACTORS
330
3B
102
}
330
3B
100
AcDbScale
 70
     0
300
1:5
140
1.0
141
5.0
290
     0
  0
SCALE
  5
40
102
{ACAD_REACTORS
330
3B
102
}
330
3B
100
AcDbScale
 70
     0
300
1:8
140
1.0
141
8.0
290
     0
  0
SCALE
  5
41
102
{ACAD_REACTORS
330
3B
102
}
330
3B
100
AcDbScale
 70
     0
300
1:10
140
1.0
141
10.0
290
     0
  0
SCALE
  5
42
102
{ACAD_REACTORS
330
3B
102
}
330
3B
100
AcDbScale
 70
     0
300
1:16
140
1.0
141
16.0
290
     0
  0
SCALE
  5
43
102
{ACAD_REACTORS
330
3B
102
}
330
3B
100
AcDbScale
 70
     0
300
1:20
140
1.0
141
20.0
290
     0
  0
SCALE
  5
44
102
{ACAD_REACTORS
330
3B
102
}
330
3B
100
AcDbScale
 70
     0
300
1:30
140
1.0
141
30.0
290
     0
  0
SCALE
  5
45
102
{ACAD_REACTORS
330
3B
102
}
330
3B
100
AcDbScale
 70
     0
300
1:40
140
1.0
141
40.0
290
     0
  0
SCALE
  5
46
102
{ACAD_REACTORS
330
3B
102
}
330
3B
100
AcDbScale
 70
     0
300
1:50
140
1.0
141
50.0
290
     0
  0
SCALE
  5
47
102
{ACAD_REACTORS
330
3B
102
}
330
3B
100
AcDbScale
 70
     0
300
1:100
140
1.0
141
100.0
290
     0
  0
SCALE
  5
48
102
{ACAD_REACTORS
330
3B
102
}
330
3B
100
AcDbScale
 70
     0
300
2:1
140
2.0
141
1.0
290
     0
  0
SCALE
  5
49
102
{ACAD_REACTORS
330
3B
102
}
330
3B
100
AcDbScale
 70
     0
300
4:1
140
4.0
141
1.0
290
     0
  0
SCALE
  5
4A
102
{ACAD_REACTORS
330
3B
102
}
330
3B
100
AcDbScale
 70
     0
300
8:1
140
8.0
141
1.0
290
     0
  0
SCALE
  5
4B
102
{ACAD_REACTORS
330
3B
102
}
330
3B
100
AcDbScale
 70
     0
300
10:1
140
10.0
141
1.0
290
     0
  0
SCALE
  5
4C
102
{ACAD_REACTORS
330
3B
102
}
330
3B
100
AcDbScale
 70
     0
300
100:1
140
100.0
141
1.0
290
     0
  0
SCALE
  5
4D
102
{ACAD_REACTORS
330
3B
102
}
330
3B
100
AcDbScale
 70
     0
300
1/128" = 1'-0"
140
0.007812
141
12.0
290
     0
  0
SCALE
  5
4E
102
{ACAD_REACTORS
330
3B
102
}
330
3B
100
AcDbScale
 70
     0
300
1/64" = 1'-0"
140
0.015625
141
12.0
290
     0
  0
SCALE
  5
4F
102
{ACAD_REACTORS
330
3B
102
}
330
3B
100
AcDbScale
 70
     0
300
1/32" = 1'-0"
140
0.03125
141
12.0
290
     0
  0
SCALE
  5
50
102
{ACAD_REACTORS
330
3B
102
}
330
3B
100
AcDbScale
 70
     0
300
1/16" = 1'-0"
140
0.0625
141
12.0
290
     0
  0
SCALE
  5
51
102
{ACAD_REACTORS
330
3B
102
}
330
3B
100
AcDbScale
 70
     0
300
3/32" = 1'-0"
140
0.09375
141
12.0
290
     0
  0
SCALE
  5
52
102
{ACAD_REACTORS
330
3B
102
}
330
3B
100
AcDbScale
 70
     0
300
1/8" = 1'-0"
140
0.125
141
12.0
290
     0
  0
SCALE
  5
53
102
{ACAD_REACTORS
330
3B
102
}
330
3B
100
AcDbScale
 70
     0
300
3/16" = 1'-0"
140
0.1875
141
12.0
290
     0
  0
SCALE
  5
54
102
{ACAD_REACTORS
330
3B
102
}
330
3B
100
AcDbScale
 70
     0
300
1/4" = 1'-0"
140
0.25
141
12.0
290
     0
  0
SCALE
  5
55
102
{ACAD_REACTORS
330
3B
102
}
330
3B
100
AcDbScale
 70
     0
300
3/8" = 1'-0"
140
0.375
141
12.0
290
     0
  0
SCALE
  5
56
102
{ACAD_REACTORS
330
3B
102
}
330
3B
100
AcDbScale
 70
     0
300
1/2" = 1'-0"
140
0.5
141
12.0
290
     0
  0
SCALE
  5
57
102
{ACAD_REACTORS
330
3B
102
}
330
3B
100
AcDbScale
 70
     0
300
3/4" = 1'-0"
140
0.75
141
12.0
290
     0
  0
SCALE
  5
58
102
{ACAD_REACTORS
330
3B
102
}
330
3B
100
AcDbScale
 70
     0
300
1" = 1'-0"
140
1.0
141
12.0
290
     0
  0
SCALE
  5
59
102
{ACAD_REACTORS
330
3B
102
}
330
3B
100
AcDbScale
 70
     0
300
1-1/2" = 1'-0"
140
1.5
141
12.0
290
     0
  0
SCALE
  5
5A
102
{ACAD_REACTORS
330
3B
102
}
330
3B
100
AcDbScale
 70
     0
300
3" = 1'-0"
140
3.0
141
12.0
290
     0
  0
SCALE
  5
5B
102
{ACAD_REACTORS
330
3B
102
}
330
3B
100
AcDbScale
 70
     0
300
6" = 1'-0"
140
6.0
141
12.0
290
     0
  0
SCALE
  5
5C
102
{ACAD_REACTORS
330
3B
102
}
330
3B
100
AcDbScale
 70
     0
300
1'-0" = 1'-0"
140
12.0
141
12.0
290
     0
  0
VISUALSTYLE
  5
2F
102
{ACAD_REACTORS
330
2A
102
}
330
2A
100
AcDbVisualStyle
  2
2dWireframe
 70
     4
 71
     0
 72
     2
 73
     0
 90
        0
 40
-0.6
 41
-30.0
 62
     5
 63
     7
 74
     1
 91
        4
 64
     7
 65
   257
 75
     1
175
     1
 42
1.0
 92
        0
 66
   257
 43
1.0
 76
     1
 77
     6
 78
     2
 67
     7
 79
     5
170
     0
171
     0
290
     0
174
     0
 93
        1
 44
0.0
173
     0
291
     0
 45
0.0
1001
ACAD
1000
AcDbSavedByObjectVersion
1070
     0
  0
VISUALSTYLE
  5
31
102
{ACAD_REACTORS
330
2A
102
}
330
2A
100
AcDbVisualStyle
  2
3D Hidden
 70
     6
 71
     1
 72
     2
 73
     2
 90
        0
 40
-0.6
 41
-30.0
 62
     5
 63
     7
 74
     2
 91
        2
 64
     7
 65
   257
 75
     2
175
     1
 42
40.0
 92
        0
 66
   257
 43
1.0
 76
     1
 77
     6
 78
     2
 67
     7
 79
     3
170
     0
171
     0
290
     0
174
     0
 93
        1
 44
0.0
173
     0
291
     0
 45
0.0
1001
ACAD
1000
AcDbSavedByObjectVersion
1070
     0
  0
VISUALSTYLE
  5
30
102
{ACAD_REACTORS
330
2A
102
}
330
2A
100
AcDbVisualStyle
  2
3dWireframe
 70
     5
 71
     0
 72
     2
 73
     0
 90
        0
 40
-0.6
 41
-30.0
 62
     5
 63
     7
 74
     1
 91
        4
 64
     7
 65
   257
 75
     1
175
     1
 42
1.0
 92
        0
 66
   257
 43
1.0
 76
     1
 77
     6
 78
     2
 67
     7
 79
     5
170
     0
171
     0
290
     0
174
     0
 93
        1
 44
0.0
173
     0
291
     0
 45
0.0
1001
ACAD
1000
AcDbSavedByObjectVersion
1070
     0
  0
VISUALSTYLE
  5
32
102
{ACAD_REACTORS
330
2A
102
}
330
2A
100
AcDbVisualStyle
  2
Basic
 70
     7
 71
     1
 72
     0
 73
     1
 90
        0
 40
-0.6
 41
-30.0
 62
     5
 63
     7
 74
     0
 91
        4
 64
     7
 65
   257
 75
     1
175
     1
 42
1.0
 92
        8
 66
     7
 43
1.0
 76
     1
 77
     6
 78
     2
 67
     7
 79
     5
170
     0
171
     0
290
     0
174
     0
 93
        1
 44
0.0
173
     0
291
     1
 45
0.0
1001
ACAD
1000
AcDbSavedByObjectVersion
1070
     0
  0
VISUALSTYLE
  5
36
102
{ACAD_REACTORS
330
2A
102
}
330
2A
100
AcDbVisualStyle
  2
Brighten
 70
    12
 71
     2
 72
     2
 73
     0
 90
        0
 40
-0.6
 41
-30.0
 62
     5
 63
     7
 74
     1
 91
        4
 64
     7
 65
   257
 75
     1
175
     1
 42
1.0
 92
        8
 66
     7
 43
1.0
 76
     1
 77
     6
 78
     2
 67
     7
 79
     5
170
     0
171
     0
290
     0
174
     0
 93
        1
 44
50.0
173
     0
291
     1
 45
0.0
1001
ACAD
1000
AcDbSavedByObjectVersion
1070
     0
  0
VISUALSTYLE
  5
3A
102
{ACAD_REACTORS
330
2A
102
}
330
2A
100
AcDbVisualStyle
  2
ColorChange
 70
    16
 71
     2
 72
     2
 73
     3
 90
        0
 40
-0.6
 41
-30.0
 62
     5
 63
     8
 74
     1
 91
        4
 64
     7
 65
   257
 75
     1
175
     1
 42
1.0
 92
        8
 66
     8
 43
1.0
 76
     1
 77
     6
 78
     2
 67
     7
 79
     5
170
     0
171
     0
290
     0
174
     0
 93
        1
 44
0.0
173
     0
291
     1
 45
0.0
1001
ACAD
1000
AcDbSavedByObjectVersion
1070
     0
  0
VISUALSTYLE
  5
34
102
{ACAD_REACTORS
330
2A
102
}
330
2A
100
AcDbVisualStyle
  2
Conceptual
 70
     9
 71
     3
 72
     2
 73
     0
 90
        0
 40
-0.6
 41
-30.0
 62
     5
 63
     7
 74
     2
 91
        2
 64
     7
 65
   257
 75
     1
175
     1
 42
40.0
 92
        8
 66
     7
 43
1.0
 76
     1
 77
     6
 78
     2
 67
     7
 79
     3
170
     0
171
     0
290
     0
174
     0
 93
        1
 44
0.0
173
     0
291
     0
 45
0.0
1001
ACAD
1000
AcDbSavedByObjectVersion
1070
     0
  0
VISUALSTYLE
  5
35
102
{ACAD_REACTORS
330
2A
102
}
330
2A
100
AcDbVisualStyle
  2
Dim
 70
    11
 71
     2
 72
     2
 73
     0
 90
        0
 40
-0.6
 41
-30.0
 62
     5
 63
     7
 74
     1
 91
        4
 64
     7
 65
   257
 75
     1
175
     1
 42
1.0
 92
        8
 66
     7
 43
1.0
 76
     1
 77
     6
 78
     2
 67
     7
 79
     5
170
     0
171
     0
290
     0
174
     0
 93
        1
 44
-50.0
173
     0
291
     1
 45
0.0
1001
ACAD
1000
AcDbSavedByObjectVersion
1070
     0
  0
VISUALSTYLE
  5
39
102
{ACAD_REACTORS
330
2A
102
}
330
2A
100
AcDbVisualStyle
  2
Facepattern
 70
    15
 71
     2
 72
     2
 73
     0
 90
        0
 40
-0.6
 41
-30.0
 62
     5
 63
     7
 74
     1
 91
        4
 64
     7
 65
   257
 75
     1
175
     1
 42
1.0
 92
        8
 66
     7
 43
1.0
 76
     1
 77
     6
 78
     2
 67
     7
 79
     5
170
     0
171
     0
290
     0
174
     0
 93
        1
 44
0.0
173
     0
291
     1
 45
0.0
1001
ACAD
1000
AcDbSavedByObjectVersion
1070
     0
  0
VISUALSTYLE
  5
2B
102
{ACAD_REACTORS
330
2A
102
}
330
2A
100
AcDbVisualStyle
  2
Flat
 70
     0
 71
     2
 72
     1
 73
     1
 90
        2
 40
-0.6
 41
30.0
 62
     5
 63
     7
 74
     0
 91
        4
 64
     7
 65
   257
 75
     1
175
     1
 42
1.0
 92
        8
 66
     7
 43
1.0
 76
     1
 77
     6
 78
     2
 67
     7
 79
     5
170
     0
171
     0
290
     0
174
     0
 93
       13
 44
0.0
173
     0
291
     1
 45
0.0
1001
ACAD
1000
AcDbSavedByObjectVersion
1070
     0
  0
VISUALSTYLE
  5
2C
102
{ACAD_REACTORS
330
2A
102
}
330
2A
100
AcDbVisualStyle
  2
FlatWithEdges
 70
     1
 71
     2
 72
     1
 73
     1
 90
        2
 40
-0.6
 41
30.0
 62
     5
 63
     7
 74
     1
 91
        4
 64
     7
 65
   257
 75
     1
175
     1
 42
1.0
 92
        0
 66
   257
 43
1.0
 76
     1
 77
     6
 78
     2
 67
     7
 79
     5
170
     0
171
     0
290
     0
174
     0
 93
       13
 44
0.0
173
     0
291
     1
 45
0.0
1001
ACAD
1000
AcDbSavedByObjectVersion
1070
     0
  0
VISUALSTYLE
  5
2D
102
{ACAD_REACTORS
330
2A
102
}
330
2A
100
AcDbVisualStyle
  2
Gouraud
 70
     2
 71
     2
 72
     2
 73
     1
 90
        2
 40
-0.6
 41
30.0
 62
     5
 63
     7
 74
     0
 91
        4
 64
     7
 65
   257
 75
     1
175
     1
 42
1.0
 92
        0
 66
     7
 43
1.0
 76
     1
 77
     6
 78
     2
 67
     7
 79
     5
170
     0
171
     0
290
     0
174
     0
 93
       13
 44
0.0
173
     0
291
     1
 45
0.0
1001
ACAD
1000
AcDbSavedByObjectVersion
1070
     0
  0
VISUALSTYLE
  5
2E
102
{ACAD_REACTORS
330
2A
102
}
330
2A
100
AcDbVisualStyle
  2
GouraudWithEdges
 70
     3
 71
     2
 72
     2
 73
     1
 90
        2
 40
-0.6
 41
30.0
 62
     5
 63
     7
 74
     1
 91
        4
 64
     7
 65
   257
 75
     1
175
     1
 42
1.0
 92
        0
 66
   257
 43
1.0
 76
     1
 77
     6
 78
     2
 67
     7
 79
     5
170
     0
171
     0
290
     0
174
     0
 93
       13
 44
0.0
173
     0
291
     1
 45
0.0
1001
ACAD
1000
AcDbSavedByObjectVersion
1070
     0
  0
VISUALSTYLE
  5
38
102
{ACAD_REACTORS
330
2A
102
}
330
2A
100
AcDbVisualStyle
  2
Linepattern
 70
    14
 71
     2
 72
     2
 73
     0
 90
        0
 40
-0.6
 41
-30.0
 62
     5
 63
     7
 74
     1
 91
        4
 64
     7
 65
   257
 75
     7
175
     7
 42
1.0
 92
        8
 66
     7
 43
1.0
 76
     1
 77
     6
 78
     2
 67
     7
 79
     5
170
     0
171
     0
290
     0
174
     0
 93
        1
 44
0.0
173
     0
291
     1
 45
0.0
1001
ACAD
1000
AcDbSavedByObjectVersion
1070
     0
  0
VISUALSTYLE
  5
33
102
{ACAD_REACTORS
330
2A
102
}
330
2A
100
AcDbVisualStyle
  2
Realistic
 70
     8
 71
     2
 72
     2
 73
     0
 90
        0
 40
-0.6
 41
-30.0
 62
     5
 63
     7
 74
     1
 91
        0
 64
     7
 65
   257
 75
     1
175
     1
 42
1.0
 92
        8
 66
     8
 43
1.0
 76
     1
 77
     6
 78
     2
 67
     7
 79
     5
170
     0
171
     0
290
     0
174
     0
 93
       13
 44
0.0
173
     0
291
     0
 45
0.0
1001
ACAD
1000
AcDbSavedByObjectVersion
1070
     0
  0
VISUALSTYLE
  5
37
102
{ACAD_REACTORS
330
2A
102
}
330
2A
100
AcDbVisualStyle
  2
Thicken
 70
    13
 71
     2
 72
     2
 73
     0
 90
        0
 40
-0.6
 41
-30.0
 62
     5
 63
     7
 74
     1
 91
        4
 64
     7
 65
   257
 75
     1
175
     1
 42
1.0
 92
       12
 66
     7
 43
1.0
 76
     1
 77
     6
 78
     2
 67
     7
 79
     5
170
     0
171
     0
290
     0
174
     0
 93
        1
 44
0.0
173
     0
291
     1
 45
0.0
1001
ACAD
1000
AcDbSavedByObjectVersion
1070
     0
  0
DICTIONARYVAR
  5
5CB
102
{ACAD_REACTORS
330
5CA
102
}
330
5CA
100
DictionaryVariables
280
     0
  1
1:1
  0
DICTIONARYVAR
  5
5CF
102
{ACAD_REACTORS
330
5CA
102
}
330
5CA
100
DictionaryVariables
280
     0
  1
80.000000
  0
DICTIONARYVAR
  5
5CE
102
{ACAD_REACTORS
330
5CA
102
}
330
5CA
100
DictionaryVariables
280
     0
  1
5.000000
  0
ENDSEC
  0
EOF
