  0
SECTION
  2
HEADER
  9
$ACADVER
  1
AC1015
  9
$ACADMAINTVER
 70
     6
  9
$DWGCODEPAGE
  3
ANSI_932
  9
$INSBASE
 10
0.0
 20
0.0
 30
0.0
  9
$EXTMIN
 10
14.570404
 20
7.460014
 30
0.0
  9
$EXTMAX
 10
194.366974
 20
102.632011
 30
0.0
  9
$LIMMIN
 10
0.0
 20
0.0
  9
$LIMMAX
 10
12.0
 20
9.0
  9
$ORTHOMODE
 70
     0
  9
$REGENMODE
 70
     1
  9
$FILLMODE
 70
     1
  9
$QTEXTMODE
 70
     0
  9
$MIRRTEXT
 70
     1
  9
$LTSCALE
 40
2.996609
  9
$ATTMODE
 70
     1
  9
$TEXTSIZE
 40
3.2
  9
$TRACEWID
 40
1.0
  9
$TEXTSTYLE
  7
Standard
  9
$CLAYER
  8
0
  9
$CELTYPE
  6
ByLayer
  9
$CECOLOR
 62
   256
  9
$CELTSCALE
 40
1.0
  9
$DISPSILH
 70
     0
  9
$DIMSCALE
 40
1.0
  9
$DIMASZ
 40
2.5
  9
$DIMEXO
 40
0.625
  9
$DIMDLI
 40
3.75
  9
$DIMRND
 40
0.0
  9
$DIMDLE
 40
0.0
  9
$DIMEXE
 40
1.25
  9
$DIMTP
 40
0.0
  9
$DIMTM
 40
0.0
  9
$DIMTXT
 40
2.5
  9
$DIMCEN
 40
0.09
  9
$DIMTSZ
 40
0.0
  9
$DIMTOL
 70
     0
  9
$DIMLIM
 70
     0
  9
$DIMTIH
 70
     0
  9
$DIMTOH
 70
     0
  9
$DIMSE1
 70
     0
  9
$DIMSE2
 70
     0
  9
$DIMTAD
 70
     0
  9
$DIMZIN
 70
     8
  9
$DIMBLK
  1

  9
$DIMASO
 70
     1
  9
$DIMSHO
 70
     0
  9
$DIMPOST
  1

  9
$DIMAPOST
  1

  9
$DIMALT
 70
     0
  9
$DIMALTD
 70
     3
  9
$DIMALTF
 40
0.03937
  9
$DIMLFAC
 40
1.0
  9
$DIMTOFL
 70
     1
  9
$DIMTVP
 40
0.0
  9
$DIMTIX
 70
     0
  9
$DIMSOXD
 70
     0
  9
$DIMSAH
 70
     0
  9
$DIMBLK1
  1

  9
$DIMBLK2
  1

  9
$DIMSTYLE
  2
ISO-25
  9
$DIMCLRD
 70
     0
  9
$DIMCLRE
 70
     0
  9
$DIMCLRT
 70
     0
  9
$DIMTFAC
 40
1.0
  9
$DIMGAP
 40
0.625
  9
$DIMJUST
 70
     0
  9
$DIMSD1
 70
     0
  9
$DIMSD2
 70
     0
  9
$DIMTOLJ
 70
     0
  9
$DIMTZIN
 70
     8
  9
$DIMALTZ
 70
     0
  9
$DIMALTTZ
 70
     0
  9
$DIMUPT
 70
     0
  9
$DIMDEC
 70
     2
  9
$DIMTDEC
 70
     2
  9
$DIMALTU
 70
     2
  9
$DIMALTTD
 70
     3
  9
$DIMTXSTY
  7
Standard
  9
$DIMAUNIT
 70
     0
  9
$DIMADEC
 70
     0
  9
$DIMALTRND
 40
0.0
  9
$DIMAZIN
 70
     0
  9
$DIMDSEP
 70
    44
  9
$DIMATFIT
 70
     3
  9
$DIMFRAC
 70
     0
  9
$DIMLDRBLK
  1

  9
$DIMLUNIT
 70
     2
  9
$DIMLWD
 70
    -2
  9
$DIMLWE
 70
    -2
  9
$DIMTMOVE
 70
     0
  9
$LUNITS
 70
     2
  9
$LUPREC
 70
     4
  9
$SKETCHINC
 40
1.0
  9
$FILLETRAD
 40
0.0
  9
$AUNITS
 70
     0
  9
$AUPREC
 70
     0
  9
$MENU
  1
.
  9
$ELEVATION
 40
0.0
  9
$PELEVATION
 40
0.0
  9
$THICKNESS
 40
0.0
  9
$LIMCHECK
 70
     0
  9
$CHAMFERA
 40
10.0
  9
$CHAMFERB
 40
10.0
  9
$CHAMFERC
 40
20.0
  9
$CHAMFERD
 40
0.0
  9
$SKPOLY
 70
     0
  9
$TDCREATE
 40
2454620.646848958
  9
$TDUCREATE
 40
2454620.271848958
  9
$TDUPDATE
 40
2454620.64684897
  9
$TDUUPDATE
 40
2454620.27184897
  9
$TDINDWG
 40
0.0000000116
  9
$TDUSRTIMER
 40
0.0000000116
  9
$USRTIMER
 70
     1
  9
$ANGBASE
 50
0.0
  9
$ANGDIR
 70
     0
  9
$PDMODE
 70
     0
  9
$PDSIZE
 40
0.0
  9
$PLINEWID
 40
0.0
  9
$SPLFRAME
 70
     0
  9
$SPLINETYPE
 70
     6
  9
$SPLINESEGS
 70
     8
  9
$HANDSEED
  5
1E6
  9
$SURFTAB1
 70
     6
  9
$SURFTAB2
 70
     6
  9
$SURFTYPE
 70
     6
  9
$SURFU
 70
     6
  9
$SURFV
 70
     6
  9
$UCSBASE
  2

  9
$UCSNAME
  2

  9
$UCSORG
 10
0.0
 20
0.0
 30
0.0
  9
$UCSXDIR
 10
1.0
 20
0.0
 30
0.0
  9
$UCSYDIR
 10
0.0
 20
1.0
 30
0.0
  9
$UCSORTHOREF
  2

  9
$UCSORTHOVIEW
 70
     0
  9
$UCSORGTOP
 10
0.0
 20
0.0
 30
0.0
  9
$UCSORGBOTTOM
 10
0.0
 20
0.0
 30
0.0
  9
$UCSORGLEFT
 10
0.0
 20
0.0
 30
0.0
  9
$UCSORGRIGHT
 10
0.0
 20
0.0
 30
0.0
  9
$UCSORGFRONT
 10
0.0
 20
0.0
 30
0.0
  9
$UCSORGBACK
 10
0.0
 20
0.0
 30
0.0
  9
$PUCSBASE
  2

  9
$PUCSNAME
  2

  9
$PUCSORG
 10
0.0
 20
0.0
 30
0.0
  9
$PUCSXDIR
 10
1.0
 20
0.0
 30
0.0
  9
$PUCSYDIR
 10
0.0
 20
1.0
 30
0.0
  9
$PUCSORTHOREF
  2

  9
$PUCSORTHOVIEW
 70
     0
  9
$PUCSORGTOP
 10
0.0
 20
0.0
 30
0.0
  9
$PUCSORGBOTTOM
 10
0.0
 20
0.0
 30
0.0
  9
$PUCSORGLEFT
 10
0.0
 20
0.0
 30
0.0
  9
$PUCSORGRIGHT
 10
0.0
 20
0.0
 30
0.0
  9
$PUCSORGFRONT
 10
0.0
 20
0.0
 30
0.0
  9
$PUCSORGBACK
 10
0.0
 20
0.0
 30
0.0
  9
$USERI1
 70
     0
  9
$USERI2
 70
     0
  9
$USERI3
 70
     0
  9
$USERI4
 70
     0
  9
$USERI5
 70
     0
  9
$USERR1
 40
0.0
  9
$USERR2
 40
0.0
  9
$USERR3
 40
0.0
  9
$USERR4
 40
0.0
  9
$USERR5
 40
0.0
  9
$WORLDVIEW
 70
     1
  9
$SHADEDGE
 70
     3
  9
$SHADEDIF
 70
    70
  9
$TILEMODE
 70
     1
  9
$MAXACTVP
 70
    64
  9
$PINSBASE
 10
0.0
 20
0.0
 30
0.0
  9
$PLIMCHECK
 70
     0
  9
$PEXTMIN
 10
1.000000E+20
 20
1.000000E+20
 30
0.0
  9
$PEXTMAX
 10
-1.000000E+20
 20
-1.000000E+20
 30
0.0
  9
$PLIMMIN
 10
0.0
 20
0.0
  9
$PLIMMAX
 10
12.0
 20
9.0
  9
$UNITMODE
 70
     0
  9
$VISRETAIN
 70
     1
  9
$PLINEGEN
 70
     0
  9
$PSLTSCALE
 70
     1
  9
$TREEDEPTH
 70
  3020
  9
$CMLSTYLE
  2
Standard
  9
$CMLJUST
 70
     0
  9
$CMLSCALE
 40
20.0
  9
$PROXYGRAPHICS
 70
     1
  9
$MEASUREMENT
 70
     1
  9
$CELWEIGHT
370
    -1
  9
$ENDCAPS
280
     0
  9
$JOINSTYLE
280
     0
  9
$LWDISPLAY
290
     0
  9
$INSUNITS
 70
     4
  9
$HYPERLINKBASE
  1

  9
$STYLESHEET
  1

  9
$XEDIT
290
     1
  9
$CEPSNTYPE
380
     0
  9
$PSTYLEMODE
290
     1
  9
$FINGERPRINTGUID
  2
{35552815-A087-4C3D-B31B-8136F697D84C}
  9
$VERSIONGUID
  2
{FAEB1C32-E019-11D5-929B-00C0DF256EC4}
  9
$EXTNAMES
290
     1
  9
$PSVPSCALE
 40
0.0
  9
$OLESTARTUP
290
     0
  0
ENDSEC
  0
SECTION
  2
CLASSES
  0
CLASS
  1
ACDBDICTIONARYWDFLT
  2
AcDbDictionaryWithDefault
  3
ObjectDBX Classes
 90
        0
280
     0
281
     0
  0
CLASS
  1
VISUALSTYLE
  2
AcDbVisualStyle
  3
ObjectDBX Classes
 90
     4095
280
     0
281
     0
  0
CLASS
  1
SCALE
  2
AcDbScale
  3
ObjectDBX Classes
 90
     1153
280
     0
281
     0
  0
CLASS
  1
DICTIONARYVAR
  2
AcDbDictionaryVar
  3
ObjectDBX Classes
 90
        0
280
     0
281
     0
  0
CLASS
  1
ACDBPLACEHOLDER
  2
AcDbPlaceHolder
  3
ObjectDBX Classes
 90
        0
280
     0
281
     0
  0
CLASS
  1
LAYOUT
  2
AcDbLayout
  3
ObjectDBX Classes
 90
        0
280
     0
281
     0
  0
ENDSEC
  0
SECTION
  2
TABLES
  0
TABLE
  2
VPORT
  5
8
330
0
100
AcDbSymbolTable
 70
     1
  0
VPORT
  5
29
330
8
100
AcDbSymbolTableRecord
100
AcDbViewportTableRecord
  2
*Active
 70
     0
 10
0.0
 20
0.0
 11
1.0
 21
1.0
 12
104.468689
 22
55.046013
 13
0.0
 23
0.0
 14
1.0
 24
1.0
 15
0.0
 25
0.0
 16
0.0
 26
0.0
 36
1.0
 17
0.0
 27
0.0
 37
0.0
 40
107.370558
 41
1.691288
 42
50.0
 43
0.0
 44
0.0
 50
0.0
 51
0.0
 71
     0
 72
   100
 73
     1
 74
     3
 75
     0
 76
     0
 77
     0
 78
     0
281
     0
 65
     1
110
0.0
120
0.0
130
0.0
111
1.0
121
0.0
131
0.0
112
0.0
122
1.0
132
0.0
 79
     0
146
0.0
  0
ENDTAB
  0
TABLE
  2
LTYPE
  5
5
330
0
100
AcDbSymbolTable
 70
     5
  0
LTYPE
  5
14
330
5
100
AcDbSymbolTableRecord
100
AcDbLinetypeTableRecord
  2
ByBlock
 70
     0
  3

 72
    65
 73
     0
 40
0.0
  0
LTYPE
  5
15
330
5
100
AcDbSymbolTableRecord
100
AcDbLinetypeTableRecord
  2
ByLayer
 70
     0
  3

 72
    65
 73
     0
 40
0.0
  0
LTYPE
  5
16
330
5
100
AcDbSymbolTableRecord
100
AcDbLinetypeTableRecord
  2
Continuous
 70
     0
  3
Solid line
 72
    65
 73
     0
 40
0.0
  0
LTYPE
  5
5D
330
5
100
AcDbSymbolTableRecord
100
AcDbLinetypeTableRecord
  2
DASHED
 70
     0
  3
DASHED
 72
    83
 73
     2
 40
0.75
 49
0.5
 74
     0
 49
-0.25
 74
     0
  0
LTYPE
  5
5E
330
5
100
AcDbSymbolTableRecord
100
AcDbLinetypeTableRecord
  2
HIDDEN
 70
     0
  3
HIDDEN
 72
    83
 73
     2
 40
0.375
 49
0.25
 74
     0
 49
-0.125
 74
     0
  0
LTYPE
  5
5F
330
5
100
AcDbSymbolTableRecord
100
AcDbLinetypeTableRecord
  2
CENTER
 70
     0
  3
CENTER
 72
    83
 73
     4
 40
2.0
 49
1.25
 74
     0
 49
-0.25
 74
     0
 49
0.25
 74
     0
 49
-0.25
 74
     0
  0
LTYPE
  5
60
330
5
100
AcDbSymbolTableRecord
100
AcDbLinetypeTableRecord
  2
PHANTOM
 70
     0
  3
PHANTOM
 72
    83
 73
     6
 40
2.5
 49
1.25
 74
     0
 49
-0.25
 74
     0
 49
0.25
 74
     0
 49
-0.25
 74
     0
 49
0.25
 74
     0
 49
-0.25
 74
     0
  0
ENDTAB
  0
TABLE
  2
LAYER
  5
2
330
0
100
AcDbSymbolTable
 70
     2
  0
LAYER
  5
10
330
2
100
AcDbSymbolTableRecord
100
AcDbLayerTableRecord
  2
0
 70
     0
 62
     7
  6
Continuous
370
    -3
390
F
  0
LAYER
  5
61
330
2
100
AcDbSymbolTableRecord
100
AcDbLayerTableRecord
  2
001
 70
     0
 62
     7
  6
Continuous
370
    -3
390
F
  0
ENDTAB
  0
TABLE
  2
STYLE
  5
3
330
0
100
AcDbSymbolTable
 70
     2
  0
STYLE
  5
11
330
3
100
AcDbSymbolTableRecord
100
AcDbTextStyleTableRecord
  2
Standard
 70
     0
 40
0.0
 41
1.0
 50
0.0
 71
     0
 42
0.2
  3
TXT
  4
BIGFONT
  0
STYLE
  5
62
330
3
100
AcDbSymbolTableRecord
100
AcDbTextStyleTableRecord
  2
TATEGAKI
 70
     4
 40
1.0
 41
1.0
 50
0.0
 71
     0
 42
0.2
  3
TXT
  4
BIGFONT
  0
ENDTAB
  0
TABLE
  2
VIEW
  5
6
330
0
100
AcDbSymbolTable
 70
     0
  0
ENDTAB
  0
TABLE
  2
UCS
  5
7
330
0
100
AcDbSymbolTable
 70
     0
  0
ENDTAB
  0
TABLE
  2
APPID
  5
9
330
0
100
AcDbSymbolTable
 70
     1
  0
APPID
  5
12
330
9
100
AcDbSymbolTableRecord
100
AcDbRegAppTableRecord
  2
ACAD
 70
     0
  0
ENDTAB
  0
TABLE
  2
DIMSTYLE
  5
A
330
0
100
AcDbSymbolTable
 70
     2
100
AcDbDimStyleTable
  0
DIMSTYLE
105
27
330
A
100
AcDbSymbolTableRecord
100
AcDbDimStyleTableRecord
  2
ISO-25
 70
     0
 41
2.5
 42
0.625
 43
3.75
 44
1.25
 73
     0
 74
     0
 77
     1
 78
     8
140
2.5
141
2.5
143
0.03937
147
0.625
171
     3
172
     1
271
     2
272
     2
274
     3
278
    44
283
     0
284
     8
340
11
  0
DIMSTYLE
105
63
102
{ACAD_REACTORS
330
E1
330
E2
330
E3
330
E4
330
E5
330
FE
102
}
330
A
100
AcDbSymbolTableRecord
100
AcDbDimStyleTableRecord
  2
Standard
 70
     0
 41
1.5
 42
0.0
 44
2.75
 73
     0
 74
     0
 77
     1
 78
     8
 79
     2
140
4.0
146
0.8
147
1.0
172
     1
179
     1
271
     1
340
11
  0
ENDTAB
  0
TABLE
  2
BLOCK_RECORD
  5
1
330
0
100
AcDbSymbolTable
 70
     7
  0
BLOCK_RECORD
  5
1F
330
1
100
AcDbSymbolTableRecord
100
AcDbBlockTableRecord
  2
*Model_Space
340
22
  0
BLOCK_RECORD
  5
1B
330
1
100
AcDbSymbolTableRecord
100
AcDbBlockTableRecord
  2
*Paper_Space
340
1E
  0
BLOCK_RECORD
  5
23
330
1
100
AcDbSymbolTableRecord
100
AcDbBlockTableRecord
  2
*Paper_Space0
340
26
  0
BLOCK_RECORD
  5
64
330
1
100
AcDbSymbolTableRecord
100
AcDbBlockTableRecord
  2
*D1
340
0
  0
BLOCK_RECORD
  5
78
330
1
100
AcDbSymbolTableRecord
100
AcDbBlockTableRecord
  2
*D2
340
0
  0
BLOCK_RECORD
  5
8C
330
1
100
AcDbSymbolTableRecord
100
AcDbBlockTableRecord
  2
*D3
340
0
  0
BLOCK_RECORD
  5
A0
330
1
100
AcDbSymbolTableRecord
100
AcDbBlockTableRecord
  2
*D4
340
0
  0
BLOCK_RECORD
  5
B6
330
1
100
AcDbSymbolTableRecord
100
AcDbBlockTableRecord
  2
*D5
340
0
  0
BLOCK_RECORD
  5
CD
330
1
100
AcDbSymbolTableRecord
100
AcDbBlockTableRecord
  2
*D6
340
0
  0
ENDTAB
  0
ENDSEC
  0
SECTION
  2
BLOCKS
  0
BLOCK
  5
20
330
1F
100
AcDbEntity
  8
0
100
AcDbBlockBegin
  2
*Model_Space
 70
     0
 10
0.0
 20
0.0
 30
0.0
  3
*Model_Space
  1

  0
ENDBLK
  5
21
330
1F
100
AcDbEntity
  8
0
100
AcDbBlockEnd
  0
BLOCK
  5
1C
330
1B
100
AcDbEntity
 67
     1
  8
0
100
AcDbBlockBegin
  2
*Paper_Space
 70
     0
 10
0.0
 20
0.0
 30
0.0
  3
*Paper_Space
  1

  0
ENDBLK
  5
1D
330
1B
100
AcDbEntity
 67
     1
  8
0
100
AcDbBlockEnd
  0
BLOCK
  5
24
330
23
100
AcDbEntity
  8
0
100
AcDbBlockBegin
  2
*Paper_Space0
 70
     0
 10
0.0
 20
0.0
 30
0.0
  3
*Paper_Space0
  1

  0
ENDBLK
  5
25
330
23
100
AcDbEntity
  8
0
100
AcDbBlockEnd
  0
BLOCK
  5
65
330
64
100
AcDbEntity
  8
0
100
AcDbBlockBegin
  2
*D1
 70
     1
 10
0.0
 20
0.0
 30
0.0
  3
*D1
  1

  0
LINE
  5
67
330
64
100
AcDbEntity
  8
001
370
     9
100
AcDbLine
 10
71.689693
 20
43.954544
 30
0.0
 11
71.689693
 21
18.588116
 31
0.0
  0
LINE
  5
68
330
64
100
AcDbEntity
  8
001
370
     9
100
AcDbLine
 10
171.689693
 20
49.854544
 30
0.0
 11
171.689693
 21
18.588116
 31
0.0
  0
LINE
  5
69
330
64
100
AcDbEntity
  8
001
370
     9
100
AcDbLine
 10
71.689693
 20
21.338116
 30
0.0
 11
171.689693
 21
21.338116
 31
0.0
  0
POLYLINE
  5
6A
330
64
100
AcDbEntity
  8
001
370
     9
100
AcDb2dPolyline
 66
     1
 10
0.0
 20
0.0
 30
0.0
  0
VERTEX
  5
6C
330
6A
100
AcDbEntity
  8
001
370
     9
100
AcDbVertex
100
AcDb2dVertex
 10
73.189693
 20
20.936192
 30
0.0
  0
VERTEX
  5
6D
330
6A
100
AcDbEntity
  8
001
370
     9
100
AcDbVertex
100
AcDb2dVertex
 10
71.689693
 20
21.338116
 30
0.0
  0
VERTEX
  5
6E
330
6A
100
AcDbEntity
  8
001
370
     9
100
AcDbVertex
100
AcDb2dVertex
 10
73.189693
 20
21.74004
 30
0.0
  0
SEQEND
  5
6B
330
6A
100
AcDbEntity
  8
001
370
     9
  0
POLYLINE
  5
6F
330
64
100
AcDbEntity
  8
001
370
     9
100
AcDb2dPolyline
 66
     1
 10
0.0
 20
0.0
 30
0.0
  0
VERTEX
  5
71
330
6F
100
AcDbEntity
  8
001
370
     9
100
AcDbVertex
100
AcDb2dVertex
 10
170.189693
 20
21.74004
 30
0.0
  0
VERTEX
  5
72
330
6F
100
AcDbEntity
  8
001
370
     9
100
AcDbVertex
100
AcDb2dVertex
 10
171.689693
 20
21.338116
 30
0.0
  0
VERTEX
  5
73
330
6F
100
AcDbEntity
  8
001
370
     9
100
AcDbVertex
100
AcDb2dVertex
 10
170.189693
 20
20.936192
 30
0.0
  0
SEQEND
  5
70
330
6F
100
AcDbEntity
  8
001
370
     9
  0
TEXT
  5
74
330
64
100
AcDbEntity
  8
001
370
    30
100
AcDbText
 10
115.689693
 20
22.338116
 30
0.0
 40
4.0
  1
１００
 41
0.833333
100
AcDbText
  0
POINT
  5
75
330
64
100
AcDbEntity
  8
001
370
     9
100
AcDbPoint
 10
71.689693
 20
43.954544
 30
0.0
  0
POINT
  5
76
330
64
100
AcDbEntity
  8
001
370
     9
100
AcDbPoint
 10
171.689693
 20
49.854544
 30
0.0
  0
POINT
  5
77
330
64
100
AcDbEntity
  8
001
370
     9
100
AcDbPoint
 10
171.689693
 20
21.338116
 30
0.0
  0
ENDBLK
  5
66
330
64
100
AcDbEntity
  8
0
100
AcDbBlockEnd
  0
BLOCK
  5
79
330
78
100
AcDbEntity
  8
0
100
AcDbBlockBegin
  2
*D2
 70
     1
 10
0.0
 20
0.0
 30
0.0
  3
*D2
  1

  0
LINE
  5
7B
330
78
100
AcDbEntity
  8
001
370
     9
100
AcDbLine
 10
41.689284
 20
38.782839
 30
0.0
 11
41.689284
 21
18.588116
 31
0.0
  0
LINE
  5
7C
330
78
100
AcDbEntity
  8
001
370
     9
100
AcDbLine
 10
71.689693
 20
43.954544
 30
0.0
 11
71.689693
 21
18.588116
 31
0.0
  0
LINE
  5
7D
330
78
100
AcDbEntity
  8
001
370
     9
100
AcDbLine
 10
41.689284
 20
21.338116
 30
0.0
 11
71.689693
 21
21.338116
 31
0.0
  0
POLYLINE
  5
7E
330
78
100
AcDbEntity
  8
001
370
     9
100
AcDb2dPolyline
 66
     1
 10
0.0
 20
0.0
 30
0.0
  0
VERTEX
  5
80
330
7E
100
AcDbEntity
  8
001
370
     9
100
AcDbVertex
100
AcDb2dVertex
 10
43.189284
 20
20.936192
 30
0.0
  0
VERTEX
  5
81
330
7E
100
AcDbEntity
  8
001
370
     9
100
AcDbVertex
100
AcDb2dVertex
 10
41.689284
 20
21.338116
 30
0.0
  0
VERTEX
  5
82
330
7E
100
AcDbEntity
  8
001
370
     9
100
AcDbVertex
100
AcDb2dVertex
 10
43.189284
 20
21.74004
 30
0.0
  0
SEQEND
  5
7F
330
7E
100
AcDbEntity
  8
001
370
     9
  0
POLYLINE
  5
83
330
78
100
AcDbEntity
  8
001
370
     9
100
AcDb2dPolyline
 66
     1
 10
0.0
 20
0.0
 30
0.0
  0
VERTEX
  5
85
330
83
100
AcDbEntity
  8
001
370
     9
100
AcDbVertex
100
AcDb2dVertex
 10
70.189693
 20
21.74004
 30
0.0
  0
VERTEX
  5
86
330
83
100
AcDbEntity
  8
001
370
     9
100
AcDbVertex
100
AcDb2dVertex
 10
71.689693
 20
21.338116
 30
0.0
  0
VERTEX
  5
87
330
83
100
AcDbEntity
  8
001
370
     9
100
AcDbVertex
100
AcDb2dVertex
 10
70.189693
 20
20.936192
 30
0.0
  0
SEQEND
  5
84
330
83
100
AcDbEntity
  8
001
370
     9
  0
TEXT
  5
88
330
78
100
AcDbEntity
  8
001
370
    30
100
AcDbText
 10
52.689488
 20
22.338116
 30
0.0
 40
4.0
  1
３０
 41
0.833333
100
AcDbText
  0
POINT
  5
89
330
78
100
AcDbEntity
  8
001
370
     9
100
AcDbPoint
 10
41.689284
 20
38.782839
 30
0.0
  0
POINT
  5
8A
330
78
100
AcDbEntity
  8
001
370
     9
100
AcDbPoint
 10
71.689693
 20
43.954544
 30
0.0
  0
POINT
  5
8B
330
78
100
AcDbEntity
  8
001
370
     9
100
AcDbPoint
 10
71.689693
 20
21.338116
 30
0.0
  0
ENDBLK
  5
7A
330
78
100
AcDbEntity
  8
0
100
AcDbBlockEnd
  0
BLOCK
  5
8D
330
8C
100
AcDbEntity
  8
0
100
AcDbBlockBegin
  2
*D3
 70
     1
 10
0.0
 20
0.0
 30
0.0
  3
*D3
  1

  0
LINE
  5
8F
330
8C
100
AcDbEntity
  8
001
370
     9
100
AcDbLine
 10
171.689693
 20
49.854544
 30
0.0
 11
171.689693
 21
7.460013
 31
0.0
  0
LINE
  5
90
330
8C
100
AcDbEntity
  8
001
370
     9
100
AcDbLine
 10
41.689284
 20
38.782839
 30
0.0
 11
41.689284
 21
7.460013
 31
0.0
  0
LINE
  5
91
330
8C
100
AcDbEntity
  8
001
370
     9
100
AcDbLine
 10
171.689693
 20
10.210013
 30
0.0
 11
41.689284
 21
10.210013
 31
0.0
  0
POLYLINE
  5
92
330
8C
100
AcDbEntity
  8
001
370
     9
100
AcDb2dPolyline
 66
     1
 10
0.0
 20
0.0
 30
0.0
  0
VERTEX
  5
94
330
92
100
AcDbEntity
  8
001
370
     9
100
AcDbVertex
100
AcDb2dVertex
 10
170.189693
 20
10.611937
 30
0.0
  0
VERTEX
  5
95
330
92
100
AcDbEntity
  8
001
370
     9
100
AcDbVertex
100
AcDb2dVertex
 10
171.689693
 20
10.210013
 30
0.0
  0
VERTEX
  5
96
330
92
100
AcDbEntity
  8
001
370
     9
100
AcDbVertex
100
AcDb2dVertex
 10
170.189693
 20
9.80809
 30
0.0
  0
SEQEND
  5
93
330
92
100
AcDbEntity
  8
001
370
     9
  0
POLYLINE
  5
97
330
8C
100
AcDbEntity
  8
001
370
     9
100
AcDb2dPolyline
 66
     1
 10
0.0
 20
0.0
 30
0.0
  0
VERTEX
  5
99
330
97
100
AcDbEntity
  8
001
370
     9
100
AcDbVertex
100
AcDb2dVertex
 10
43.189284
 20
9.80809
 30
0.0
  0
VERTEX
  5
9A
330
97
100
AcDbEntity
  8
001
370
     9
100
AcDbVertex
100
AcDb2dVertex
 10
41.689284
 20
10.210013
 30
0.0
  0
VERTEX
  5
9B
330
97
100
AcDbEntity
  8
001
370
     9
100
AcDbVertex
100
AcDb2dVertex
 10
43.189284
 20
10.611937
 30
0.0
  0
SEQEND
  5
98
330
97
100
AcDbEntity
  8
001
370
     9
  0
TEXT
  5
9C
330
8C
100
AcDbEntity
  8
001
370
    30
100
AcDbText
 10
100.689488
 20
11.210013
 30
0.0
 40
4.0
  1
１３０
 41
0.833333
100
AcDbText
  0
POINT
  5
9D
330
8C
100
AcDbEntity
  8
001
370
     9
100
AcDbPoint
 10
171.689693
 20
49.854544
 30
0.0
  0
POINT
  5
9E
330
8C
100
AcDbEntity
  8
001
370
     9
100
AcDbPoint
 10
41.689284
 20
38.782839
 30
0.0
  0
POINT
  5
9F
330
8C
100
AcDbEntity
  8
001
370
     9
100
AcDbPoint
 10
41.689284
 20
10.210013
 30
0.0
  0
ENDBLK
  5
8E
330
8C
100
AcDbEntity
  8
0
100
AcDbBlockEnd
  0
BLOCK
  5
A1
330
A0
100
AcDbEntity
  8
0
100
AcDbBlockBegin
  2
*D4
 70
     1
 10
0.0
 20
0.0
 30
0.0
  3
*D4
  1

  0
LINE
  5
A3
330
A0
100
AcDbEntity
  8
001
370
     9
100
AcDbLine
 10
41.689284
 20
38.782839
 30
0.0
 11
41.689284
 21
28.565522
 31
0.0
  0
LINE
  5
A4
330
A0
100
AcDbEntity
  8
001
370
     9
100
AcDbLine
 10
45.696464
 20
42.899544
 30
0.0
 11
45.696464
 21
28.565522
 31
0.0
  0
LINE
  5
A5
330
A0
100
AcDbEntity
  8
001
370
     9
100
AcDbLine
 10
41.689284
 20
31.315522
 30
0.0
 11
45.696464
 21
31.315522
 31
0.0
  0
POLYLINE
  5
A6
330
A0
100
AcDbEntity
  8
001
370
     9
100
AcDb2dPolyline
 66
     1
 10
0.0
 20
0.0
 30
0.0
  0
VERTEX
  5
A8
330
A6
100
AcDbEntity
  8
001
370
     9
100
AcDbVertex
100
AcDb2dVertex
 10
40.189284
 20
31.717446
 30
0.0
  0
VERTEX
  5
A9
330
A6
100
AcDbEntity
  8
001
370
     9
100
AcDbVertex
100
AcDb2dVertex
 10
41.689284
 20
31.315522
 30
0.0
  0
VERTEX
  5
AA
330
A6
100
AcDbEntity
  8
001
370
     9
100
AcDbVertex
100
AcDb2dVertex
 10
40.189284
 20
30.913598
 30
0.0
  0
SEQEND
  5
A7
330
A6
100
AcDbEntity
  8
001
370
     9
  0
POLYLINE
  5
AB
330
A0
100
AcDbEntity
  8
001
370
     9
100
AcDb2dPolyline
 66
     1
 10
0.0
 20
0.0
 30
0.0
  0
VERTEX
  5
AD
330
AB
100
AcDbEntity
  8
001
370
     9
100
AcDbVertex
100
AcDb2dVertex
 10
47.196464
 20
30.913598
 30
0.0
  0
VERTEX
  5
AE
330
AB
100
AcDbEntity
  8
001
370
     9
100
AcDbVertex
100
AcDb2dVertex
 10
45.696464
 20
31.315522
 30
0.0
  0
VERTEX
  5
AF
330
AB
100
AcDbEntity
  8
001
370
     9
100
AcDbVertex
100
AcDb2dVertex
 10
47.196464
 20
31.717446
 30
0.0
  0
SEQEND
  5
AC
330
AB
100
AcDbEntity
  8
001
370
     9
  0
TEXT
  5
B0
330
A0
100
AcDbEntity
  8
001
370
    30
100
AcDbText
 10
18.189284
 20
32.315522
 30
0.0
 40
4.0
  1
（４．０）
 41
0.833333
100
AcDbText
  0
POINT
  5
B1
330
A0
100
AcDbEntity
  8
001
370
     9
100
AcDbPoint
 10
41.689284
 20
38.782839
 30
0.0
  0
POINT
  5
B2
330
A0
100
AcDbEntity
  8
001
370
     9
100
AcDbPoint
 10
45.696464
 20
42.899544
 30
0.0
  0
POINT
  5
B3
330
A0
100
AcDbEntity
  8
001
370
     9
100
AcDbPoint
 10
45.696464
 20
31.315522
 30
0.0
  0
LINE
  5
B4
330
A0
100
AcDbEntity
  8
001
370
     9
100
AcDbLine
 10
41.689284
 20
31.315522
 30
0.0
 11
15.189284
 21
31.315522
 31
0.0
  0
LINE
  5
B5
330
A0
100
AcDbEntity
  8
001
370
     9
100
AcDbLine
 10
45.696464
 20
31.315522
 30
0.0
 11
48.196464
 21
31.315522
 31
0.0
  0
ENDBLK
  5
A2
330
A0
100
AcDbEntity
  8
0
100
AcDbBlockEnd
  0
BLOCK
  5
B7
330
B6
100
AcDbEntity
  8
0
100
AcDbBlockBegin
  2
*D5
 70
     1
 10
0.0
 20
0.0
 30
0.0
  3
*D5
  1

  0
LINE
  5
B9
330
B6
100
AcDbEntity
  8
001
370
     9
100
AcDbLine
 10
45.619145
 20
43.188103
 30
0.0
 11
50.784168
 21
23.911974
 31
0.0
  0
LINE
  5
BA
330
B6
100
AcDbEntity
  8
001
370
     9
100
AcDbLine
 10
41.689284
 20
38.782839
 30
0.0
 11
41.689284
 21
22.71461
 31
0.0
  0
ARC
  5
BB
330
B6
100
AcDbEntity
  8
001
370
     9
100
AcDbCircle
 10
41.689284
 20
57.854544
 30
0.0
 40
32.38993372113775
100
AcDbArc
 50
270.0
 51
285.0
  0
POLYLINE
  5
BC
330
B6
100
AcDbEntity
  8
001
370
     9
100
AcDb2dPolyline
 66
     1
 10
0.0
 20
0.0
 30
0.0
  0
VERTEX
  5
BE
330
BC
100
AcDbEntity
  8
001
370
     9
100
AcDbVertex
100
AcDb2dVertex
 10
51.624914
 20
26.604225
 30
0.0
  0
VERTEX
  5
BF
330
BC
100
AcDbEntity
  8
001
370
     9
100
AcDbVertex
100
AcDb2dVertex
 10
50.072416
 20
26.56827
 30
0.0
  0
VERTEX
  5
C0
330
BC
100
AcDbEntity
  8
001
370
     9
100
AcDbVertex
100
AcDb2dVertex
 10
51.398941
 20
27.375657
 30
0.0
  0
SEQEND
  5
BD
330
BC
100
AcDbEntity
  8
001
370
     9
  0
POLYLINE
  5
C1
330
B6
100
AcDbEntity
  8
001
370
     9
100
AcDb2dPolyline
 66
     1
 10
0.0
 20
0.0
 30
0.0
  0
VERTEX
  5
C3
330
C1
100
AcDbEntity
  8
001
370
     9
100
AcDbVertex
100
AcDb2dVertex
 10
40.198992
 20
25.901156
 30
0.0
  0
VERTEX
  5
C4
330
C1
100
AcDbEntity
  8
001
370
     9
100
AcDbVertex
100
AcDb2dVertex
 10
41.689284
 20
25.46461
 30
0.0
  0
VERTEX
  5
C5
330
C1
100
AcDbEntity
  8
001
370
     9
100
AcDbVertex
100
AcDb2dVertex
 10
40.18038
 20
25.097524
 30
0.0
  0
SEQEND
  5
C2
330
C1
100
AcDbEntity
  8
001
370
     9
  0
TEXT
  5
C6
330
B6
100
AcDbEntity
  8
001
370
    30
100
AcDbText
 10
52.935282
 20
27.940409
 30
0.0
 40
4.0
  1
１５%%d
 50
31.424601
 41
0.978261
100
AcDbText
  0
POINT
  5
C7
330
B6
100
AcDbEntity
  8
001
370
     9
100
AcDbPoint
 10
45.619145
 20
43.188103
 30
0.0
  0
POINT
  5
C8
330
B6
100
AcDbEntity
  8
001
370
     9
100
AcDbPoint
 10
41.689284
 20
57.854544
 30
0.0
  0
POINT
  5
C9
330
B6
100
AcDbEntity
  8
001
370
     9
100
AcDbPoint
 10
41.689284
 20
57.854544
 30
0.0
  0
POINT
  5
CA
330
B6
100
AcDbEntity
  8
001
370
     9
100
AcDbPoint
 10
41.689284
 20
38.782839
 30
0.0
  0
ARC
  5
CB
330
B6
100
AcDbEntity
  8
001
370
     9
100
AcDbCircle
 10
41.689284
 20
57.854544
 30
0.0
 40
32.38993372113775
100
AcDbArc
 50
265.577655
 51
270.0
  0
ARC
  5
CC
330
B6
100
AcDbEntity
  8
001
370
     9
100
AcDbCircle
 10
41.689284
 20
57.854544
 30
0.0
 40
32.38993372113775
100
AcDbArc
 50
285.0
 51
312.038228
  0
ENDBLK
  5
B8
330
B6
100
AcDbEntity
  8
0
100
AcDbBlockEnd
  0
BLOCK
  5
CE
330
CD
100
AcDbEntity
  8
0
100
AcDbBlockBegin
  2
*D6
 70
     1
 10
0.0
 20
0.0
 30
0.0
  3
*D6
  1

  0
LINE
  5
D0
330
CD
100
AcDbEntity
  8
001
370
     9
100
AcDbLine
 10
167.689693
 20
77.854544
 30
0.0
 11
194.366971
 21
77.854544
 31
0.0
  0
LINE
  5
D1
330
CD
100
AcDbEntity
  8
001
370
     9
100
AcDbLine
 10
167.689693
 20
45.854544
 30
0.0
 11
194.366971
 21
45.854544
 31
0.0
  0
LINE
  5
D2
330
CD
100
AcDbEntity
  8
001
370
     9
100
AcDbLine
 10
191.616971
 20
77.854544
 30
0.0
 11
191.616971
 21
45.854544
 31
0.0
  0
POLYLINE
  5
D3
330
CD
100
AcDbEntity
  8
001
370
     9
100
AcDb2dPolyline
 66
     1
 10
0.0
 20
0.0
 30
0.0
  0
VERTEX
  5
D5
330
D3
100
AcDbEntity
  8
001
370
     9
100
AcDbVertex
100
AcDb2dVertex
 10
191.215048
 20
76.354544
 30
0.0
  0
VERTEX
  5
D6
330
D3
100
AcDbEntity
  8
001
370
     9
100
AcDbVertex
100
AcDb2dVertex
 10
191.616971
 20
77.854544
 30
0.0
  0
VERTEX
  5
D7
330
D3
100
AcDbEntity
  8
001
370
     9
100
AcDbVertex
100
AcDb2dVertex
 10
192.018895
 20
76.354544
 30
0.0
  0
SEQEND
  5
D4
330
D3
100
AcDbEntity
  8
001
370
     9
  0
POLYLINE
  5
D8
330
CD
100
AcDbEntity
  8
001
370
     9
100
AcDb2dPolyline
 66
     1
 10
0.0
 20
0.0
 30
0.0
  0
VERTEX
  5
DA
330
D8
100
AcDbEntity
  8
001
370
     9
100
AcDbVertex
100
AcDb2dVertex
 10
192.018895
 20
47.354544
 30
0.0
  0
VERTEX
  5
DB
330
D8
100
AcDbEntity
  8
001
370
     9
100
AcDbVertex
100
AcDb2dVertex
 10
191.616971
 20
45.854544
 30
0.0
  0
VERTEX
  5
DC
330
D8
100
AcDbEntity
  8
001
370
     9
100
AcDbVertex
100
AcDb2dVertex
 10
191.215048
 20
47.354544
 30
0.0
  0
SEQEND
  5
D9
330
D8
100
AcDbEntity
  8
001
370
     9
  0
TEXT
  5
DD
330
CD
100
AcDbEntity
  8
001
370
    30
100
AcDbText
 10
190.616971
 20
54.659782
 30
0.0
 40
4.0
  1
%%c３２
 50
90.000003
 41
0.882353
100
AcDbText
  0
POINT
  5
DE
330
CD
100
AcDbEntity
  8
001
370
     9
100
AcDbPoint
 10
167.689693
 20
77.854544
 30
0.0
  0
POINT
  5
DF
330
CD
100
AcDbEntity
  8
001
370
     9
100
AcDbPoint
 10
167.689693
 20
45.854544
 30
0.0
  0
POINT
  5
E0
330
CD
100
AcDbEntity
  8
001
370
     9
100
AcDbPoint
 10
191.616971
 20
45.854544
 30
0.0
  0
ENDBLK
  5
CF
330
CD
100
AcDbEntity
  8
0
100
AcDbBlockEnd
  0
ENDSEC
  0
SECTION
  2
ENTITIES
  0
DIMENSION
  5
E1
330
1F
100
AcDbEntity
  8
001
370
     9
100
AcDbDimension
  2
*D1
 10
171.689693
 20
21.338116
 30
0.0
 11
121.689693
 21
24.338116
 31
0.0
 70
   160
 71
     5
 42
-1.0
  3
Standard
100
AcDbAlignedDimension
 13
71.689693
 23
43.954544
 33
0.0
 14
171.689693
 24
49.854544
 34
0.0
100
AcDbRotatedDimension
  0
DIMENSION
  5
E2
330
1F
100
AcDbEntity
  8
001
370
     9
100
AcDbDimension
  2
*D2
 10
71.689693
 20
21.338116
 30
0.0
 11
56.689488
 21
24.338116
 31
0.0
 70
   160
 71
     5
 42
-1.0
  3
Standard
100
AcDbAlignedDimension
 13
41.689284
 23
38.782839
 33
0.0
 14
71.689693
 24
43.954544
 34
0.0
100
AcDbRotatedDimension
  0
DIMENSION
  5
E3
330
1F
100
AcDbEntity
  8
001
370
     9
100
AcDbDimension
  2
*D3
 10
41.689284
 20
10.210013
 30
0.0
 11
106.689488
 21
13.210013
 31
0.0
 70
   160
 71
     5
 42
-1.0
  3
Standard
100
AcDbAlignedDimension
 13
171.689693
 23
49.854544
 33
0.0
 14
41.689284
 24
38.782839
 34
0.0
 50
180.0
100
AcDbRotatedDimension
  0
DIMENSION
  5
E4
330
1F
100
AcDbEntity
  8
001
370
     9
100
AcDbDimension
  2
*D4
 10
45.696464
 20
31.315522
 30
0.0
 11
28.189284
 21
34.315522
 31
0.0
 70
   160
 71
     5
 42
-1.0
  3
Standard
100
AcDbAlignedDimension
 13
41.689284
 23
38.782839
 33
0.0
 14
45.696464
 24
42.899544
 34
0.0
100
AcDbRotatedDimension
  0
DIMENSION
  5
E5
330
1F
100
AcDbEntity
  8
001
370
     9
100
AcDbDimension
  2
*D5
 10
41.689284
 20
57.854544
 30
0.0
 11
57.012492
 21
32.77532
 31
0.0
 70
    34
 71
     5
 42
-1.0
  3
Standard
100
AcDb2LineAngularDimension
 13
45.619145
 23
43.188103
 33
0.0
 14
41.689284
 24
57.854544
 34
0.0
 15
41.689284
 25
38.782839
 35
0.0
 16
45.917019
 26
25.741711
 36
0.0
  0
TEXT
  5
E6
330
1F
100
AcDbEntity
  8
001
370
    30
100
AcDbText
 10
27.987133
 20
57.854544
 30
0.0
 40
4.0
  1
%%c８
 50
90.000003
 41
0.909091
100
AcDbText
  0
POLYLINE
  5
E7
330
1F
100
AcDbEntity
  8
001
370
     9
100
AcDb2dPolyline
 66
     1
 10
0.0
 20
0.0
 30
0.0
  0
VERTEX
  5
E9
330
E7
100
AcDbEntity
  8
001
370
     9
100
AcDbVertex
100
AcDb2dVertex
 10
29.389057
 20
59.354544
 30
0.0
  0
VERTEX
  5
EA
330
E7
100
AcDbEntity
  8
001
370
     9
100
AcDbVertex
100
AcDb2dVertex
 10
28.987133
 20
57.854544
 30
0.0
  0
VERTEX
  5
EB
330
E7
100
AcDbEntity
  8
001
370
     9
100
AcDbVertex
100
AcDb2dVertex
 10
28.58521
 20
59.354544
 30
0.0
  0
SEQEND
  5
E8
330
E7
100
AcDbEntity
  8
001
370
     9
  0
LINE
  5
EC
330
1F
100
AcDbEntity
  8
001
370
     9
100
AcDbLine
 10
28.987133
 20
65.854544
 30
0.0
 11
28.987133
 21
57.854544
 31
0.0
  0
POLYLINE
  5
ED
330
1F
100
AcDbEntity
  8
001
370
     9
100
AcDb2dPolyline
 66
     1
 10
0.0
 20
0.0
 30
0.0
  0
VERTEX
  5
EF
330
ED
100
AcDbEntity
  8
001
370
     9
100
AcDbVertex
100
AcDb2dVertex
 10
41.689284
 20
57.854544
 30
0.0
  0
VERTEX
  5
F0
330
ED
100
AcDbEntity
  8
001
370
     9
100
AcDbVertex
100
AcDb2dVertex
 10
28.987133
 20
57.854544
 30
0.0
  0
VERTEX
  5
F1
330
ED
100
AcDbEntity
  8
001
370
     9
100
AcDbVertex
100
AcDb2dVertex
 10
26.237133
 20
57.854544
 30
0.0
  0
SEQEND
  5
EE
330
ED
100
AcDbEntity
  8
001
370
     9
  0
TEXT
  5
F2
330
1F
100
AcDbEntity
  8
001
370
    30
100
AcDbText
 10
18.570405
 20
45.854544
 30
0.0
 40
4.0
  1
（%%c３７．９１）
 50
90.000003
 41
0.851064
100
AcDbText
  0
POLYLINE
  5
F3
330
1F
100
AcDbEntity
  8
001
370
     9
100
AcDb2dPolyline
 66
     1
 10
0.0
 20
0.0
 30
0.0
  0
VERTEX
  5
F5
330
F3
100
AcDbEntity
  8
001
370
     9
100
AcDbVertex
100
AcDb2dVertex
 10
19.972329
 20
44.399544
 30
0.0
  0
VERTEX
  5
F6
330
F3
100
AcDbEntity
  8
001
370
     9
100
AcDbVertex
100
AcDb2dVertex
 10
19.570405
 20
42.899544
 30
0.0
  0
VERTEX
  5
F7
330
F3
100
AcDbEntity
  8
001
370
     9
100
AcDbVertex
100
AcDb2dVertex
 10
19.168482
 20
44.399544
 30
0.0
  0
SEQEND
  5
F4
330
F3
100
AcDbEntity
  8
001
370
     9
  0
LINE
  5
F8
330
1F
100
AcDbEntity
  8
001
370
     9
100
AcDbLine
 10
19.570405
 20
42.899544
 30
0.0
 11
19.570405
 21
80.809544
 31
0.0
  0
POLYLINE
  5
F9
330
1F
100
AcDbEntity
  8
001
370
     9
100
AcDb2dPolyline
 66
     1
 10
0.0
 20
0.0
 30
0.0
  0
VERTEX
  5
FB
330
F9
100
AcDbEntity
  8
001
370
     9
100
AcDbVertex
100
AcDb2dVertex
 10
37.61954
 20
42.899544
 30
0.0
  0
VERTEX
  5
FC
330
F9
100
AcDbEntity
  8
001
370
     9
100
AcDbVertex
100
AcDb2dVertex
 10
19.570405
 20
42.899544
 30
0.0
  0
VERTEX
  5
FD
330
F9
100
AcDbEntity
  8
001
370
     9
100
AcDbVertex
100
AcDb2dVertex
 10
16.820405
 20
42.899544
 30
0.0
  0
SEQEND
  5
FA
330
F9
100
AcDbEntity
  8
001
370
     9
  0
DIMENSION
  5
FE
330
1F
100
AcDbEntity
  8
001
370
     9
100
AcDbDimension
  2
*D6
 10
191.616971
 20
45.854544
 30
0.0
 11
188.616971
 21
60.659782
 31
0.0
 70
   160
 71
     5
 42
-1.0
  3
Standard
100
AcDbAlignedDimension
 13
167.689693
 23
77.854544
 33
0.0
 14
167.689693
 24
45.854544
 34
0.0
 50
270.0
100
AcDbRotatedDimension
  0
LINE
  5
FF
330
1F
100
AcDbEntity
  8
001
370
    50
100
AcDbLine
 10
71.689693
 20
43.954544
 30
0.0
 11
71.689693
 21
79.754544
 31
0.0
  0
POLYLINE
  5
100
330
1F
100
AcDbEntity
  8
001
370
    50
100
AcDb2dPolyline
 66
     1
 10
0.0
 20
0.0
 30
0.0
  0
VERTEX
  5
102
330
100
100
AcDbEntity
  8
001
370
    50
100
AcDbVertex
100
AcDb2dVertex
 10
59.920374
 20
47.85417
 30
0.0
  0
VERTEX
  5
103
330
100
100
AcDbEntity
  8
001
370
    50
100
AcDbVertex
100
AcDb2dVertex
 10
60.031412
 20
47.004012
 30
0.0
  0
VERTEX
  5
104
330
100
100
AcDbEntity
  8
001
370
    50
100
AcDbVertex
100
AcDb2dVertex
 10
60.249386
 20
45.771176
 30
0.0
  0
VERTEX
  5
105
330
100
100
AcDbEntity
  8
001
370
    50
100
AcDbVertex
100
AcDb2dVertex
 10
60.445072
 20
44.981137
 30
0.0
  0
VERTEX
  5
106
330
100
100
AcDbEntity
  8
001
370
    50
100
AcDbVertex
100
AcDb2dVertex
 10
60.615613
 20
44.45138
 30
0.0
  0
SEQEND
  5
101
330
100
100
AcDbEntity
  8
001
370
    50
  0
POLYLINE
  5
107
330
1F
100
AcDbEntity
  8
001
370
    50
100
AcDb2dPolyline
 66
     1
 10
0.0
 20
0.0
 30
0.0
  0
VERTEX
  5
109
330
107
100
AcDbEntity
  8
001
370
    50
100
AcDbVertex
100
AcDb2dVertex
 10
59.920374
 20
47.85417
 30
0.0
  0
VERTEX
  5
10A
330
107
100
AcDbEntity
  8
001
370
    50
100
AcDbVertex
100
AcDb2dVertex
 10
60.786489
 20
48.799273
 30
0.0
  0
VERTEX
  5
10B
330
107
100
AcDbEntity
  8
001
370
    50
100
AcDbVertex
100
AcDb2dVertex
 10
61.89367
 20
50.174713
 30
0.0
  0
VERTEX
  5
10C
330
107
100
AcDbEntity
  8
001
370
    50
100
AcDbVertex
100
AcDb2dVertex
 10
62.794269
 20
51.552718
 30
0.0
  0
VERTEX
  5
10D
330
107
100
AcDbEntity
  8
001
370
    50
100
AcDbVertex
100
AcDb2dVertex
 10
63.478974
 20
52.903431
 30
0.0
  0
VERTEX
  5
10E
330
107
100
AcDbEntity
  8
001
370
    50
100
AcDbVertex
100
AcDb2dVertex
 10
64.098066
 20
54.387564
 30
0.0
  0
VERTEX
  5
10F
330
107
100
AcDbEntity
  8
001
370
    50
100
AcDbVertex
100
AcDb2dVertex
 10
64.620886
 20
55.944963
 30
0.0
  0
VERTEX
  5
110
330
107
100
AcDbEntity
  8
001
370
    50
100
AcDbVertex
100
AcDb2dVertex
 10
65.017385
 20
57.559855
 30
0.0
  0
VERTEX
  5
111
330
107
100
AcDbEntity
  8
001
370
    50
100
AcDbVertex
100
AcDb2dVertex
 10
65.279499
 20
59.193016
 30
0.0
  0
VERTEX
  5
112
330
107
100
AcDbEntity
  8
001
370
    50
100
AcDbVertex
100
AcDb2dVertex
 10
65.419043
 20
60.859377
 30
0.0
  0
VERTEX
  5
113
330
107
100
AcDbEntity
  8
001
370
    50
100
AcDbVertex
100
AcDb2dVertex
 10
65.431798
 20
62.534082
 30
0.0
  0
VERTEX
  5
114
330
107
100
AcDbEntity
  8
001
370
    50
100
AcDbVertex
100
AcDb2dVertex
 10
65.31526
 20
64.200862
 30
0.0
  0
VERTEX
  5
115
330
107
100
AcDbEntity
  8
001
370
    50
100
AcDbVertex
100
AcDb2dVertex
 10
65.072458
 20
65.8514
 30
0.0
  0
VERTEX
  5
116
330
107
100
AcDbEntity
  8
001
370
    50
100
AcDbVertex
100
AcDb2dVertex
 10
64.710197
 20
67.453807
 30
0.0
  0
VERTEX
  5
117
330
107
100
AcDbEntity
  8
001
370
    50
100
AcDbVertex
100
AcDb2dVertex
 10
64.214039
 20
69.02904
 30
0.0
  0
VERTEX
  5
118
330
107
100
AcDbEntity
  8
001
370
    50
100
AcDbVertex
100
AcDb2dVertex
 10
63.596491
 20
70.532273
 30
0.0
  0
VERTEX
  5
119
330
107
100
AcDbEntity
  8
001
370
    50
100
AcDbVertex
100
AcDb2dVertex
 10
62.88654
 20
71.955953
 30
0.0
  0
VERTEX
  5
11A
330
107
100
AcDbEntity
  8
001
370
    50
100
AcDbVertex
100
AcDb2dVertex
 10
62.120568
 20
73.238445
 30
0.0
  0
VERTEX
  5
11B
330
107
100
AcDbEntity
  8
001
370
    50
100
AcDbVertex
100
AcDb2dVertex
 10
61.136352
 20
74.529854
 30
0.0
  0
VERTEX
  5
11C
330
107
100
AcDbEntity
  8
001
370
    50
100
AcDbVertex
100
AcDb2dVertex
 10
59.947004
 20
75.798608
 30
0.0
  0
VERTEX
  5
11D
330
107
100
AcDbEntity
  8
001
370
    50
100
AcDbVertex
100
AcDb2dVertex
 10
59.024638
 20
76.660791
 30
0.0
  0
SEQEND
  5
108
330
107
100
AcDbEntity
  8
001
370
    50
  0
POLYLINE
  5
11E
330
1F
100
AcDbEntity
  8
001
370
    50
100
AcDb2dPolyline
 66
     1
 10
0.0
 20
0.0
 30
0.0
  0
VERTEX
  5
120
330
11E
100
AcDbEntity
  8
001
370
    50
100
AcDbVertex
100
AcDb2dVertex
 10
59.024638
 20
76.660791
 30
0.0
  0
VERTEX
  5
121
330
11E
100
AcDbEntity
  8
001
370
    50
100
AcDbVertex
100
AcDb2dVertex
 10
57.476572
 20
76.764226
 30
0.0
  0
VERTEX
  5
122
330
11E
100
AcDbEntity
  8
001
370
    50
100
AcDbVertex
100
AcDb2dVertex
 10
55.213773
 20
76.911735
 30
0.0
  0
VERTEX
  5
123
330
11E
100
AcDbEntity
  8
001
370
    50
100
AcDbVertex
100
AcDb2dVertex
 10
52.593353
 20
77.077135
 30
0.0
  0
VERTEX
  5
124
330
11E
100
AcDbEntity
  8
001
370
    50
100
AcDbVertex
100
AcDb2dVertex
 10
49.90323
 20
77.239722
 30
0.0
  0
VERTEX
  5
125
330
11E
100
AcDbEntity
  8
001
370
    50
100
AcDbVertex
100
AcDb2dVertex
 10
47.579648
 20
77.375317
 30
0.0
  0
VERTEX
  5
126
330
11E
100
AcDbEntity
  8
001
370
    50
100
AcDbVertex
100
AcDb2dVertex
 10
45.989687
 20
77.465666
 30
0.0
  0
SEQEND
  5
11F
330
11E
100
AcDbEntity
  8
001
370
    50
  0
LINE
  5
127
330
1F
100
AcDbEntity
  8
001
370
    50
100
AcDbLine
 10
45.989687
 20
79.752558
 30
0.0
 11
45.989687
 21
77.465666
 31
0.0
  0
LINE
  5
128
330
1F
100
AcDbEntity
  8
001
370
    50
100
AcDbLine
 10
59.920374
 20
53.654544
 30
0.0
 11
59.920374
 21
47.85417
 31
0.0
  0
POLYLINE
  5
129
330
1F
100
AcDbEntity
  8
001
370
    50
100
AcDb2dPolyline
 66
     1
 10
0.0
 20
0.0
 30
0.0
  0
VERTEX
  5
12B
330
129
100
AcDbEntity
  8
001
370
    50
100
AcDbVertex
100
AcDb2dVertex
 10
59.920374
 20
53.654544
 30
0.0
  0
VERTEX
  5
12C
330
129
100
AcDbEntity
  8
001
370
    50
100
AcDbVertex
100
AcDb2dVertex
 10
59.877487
 20
54.449259
 30
0.0
  0
VERTEX
  5
12D
330
129
100
AcDbEntity
  8
001
370
    50
100
AcDbVertex
100
AcDb2dVertex
 10
59.692578
 20
55.591036
 30
0.0
  0
VERTEX
  5
12E
330
129
100
AcDbEntity
  8
001
370
    50
100
AcDbVertex
100
AcDb2dVertex
 10
59.343642
 20
56.678295
 30
0.0
  0
VERTEX
  5
12F
330
129
100
AcDbEntity
  8
001
370
    50
100
AcDbVertex
100
AcDb2dVertex
 10
59.024638
 20
57.396201
 30
0.0
  0
SEQEND
  5
12A
330
129
100
AcDbEntity
  8
001
370
    50
  0
LINE
  5
130
330
1F
100
AcDbEntity
  8
001
370
    50
100
AcDbLine
 10
59.024638
 20
76.660791
 30
0.0
 11
59.024638
 21
57.396201
 31
0.0
  0
LINE
  5
131
330
1F
100
AcDbEntity
  8
001
370
    50
100
AcDbLine
 10
171.689693
 20
49.854544
 30
0.0
 11
171.689693
 21
73.854544
 31
0.0
  0
POLYLINE
  5
132
330
1F
100
AcDbEntity
  8
001
370
    50
100
AcDb2dPolyline
 66
     1
 10
0.0
 20
0.0
 30
0.0
  0
VERTEX
  5
134
330
132
100
AcDbEntity
  8
001
370
    50
100
AcDbVertex
100
AcDb2dVertex
 10
59.024638
 20
57.396201
 30
0.0
  0
VERTEX
  5
135
330
132
100
AcDbEntity
  8
001
370
    50
100
AcDbVertex
100
AcDb2dVertex
 10
58.726839
 20
57.858932
 30
0.0
  0
VERTEX
  5
136
330
132
100
AcDbEntity
  8
001
370
    50
100
AcDbVertex
100
AcDb2dVertex
 10
58.278833
 20
58.469301
 30
0.0
  0
VERTEX
  5
137
330
132
100
AcDbEntity
  8
001
370
    50
100
AcDbVertex
100
AcDb2dVertex
 10
57.824689
 20
58.976729
 30
0.0
  0
VERTEX
  5
138
330
132
100
AcDbEntity
  8
001
370
    50
100
AcDbVertex
100
AcDb2dVertex
 10
57.358739
 20
59.395749
 30
0.0
  0
VERTEX
  5
139
330
132
100
AcDbEntity
  8
001
370
    50
100
AcDbVertex
100
AcDb2dVertex
 10
56.847694
 20
59.788418
 30
0.0
  0
VERTEX
  5
13A
330
132
100
AcDbEntity
  8
001
370
    50
100
AcDbVertex
100
AcDb2dVertex
 10
56.292384
 20
60.147326
 30
0.0
  0
VERTEX
  5
13B
330
132
100
AcDbEntity
  8
001
370
    50
100
AcDbVertex
100
AcDb2dVertex
 10
55.706023
 20
60.451817
 30
0.0
  0
VERTEX
  5
13C
330
132
100
AcDbEntity
  8
001
370
    50
100
AcDbVertex
100
AcDb2dVertex
 10
55.112246
 20
60.70114
 30
0.0
  0
VERTEX
  5
13D
330
132
100
AcDbEntity
  8
001
370
    50
100
AcDbVertex
100
AcDb2dVertex
 10
54.518702
 20
60.897874
 30
0.0
  0
VERTEX
  5
13E
330
132
100
AcDbEntity
  8
001
370
    50
100
AcDbVertex
100
AcDb2dVertex
 10
53.854272
 20
61.040323
 30
0.0
  0
VERTEX
  5
13F
330
132
100
AcDbEntity
  8
001
370
    50
100
AcDbVertex
100
AcDb2dVertex
 10
53.104492
 20
61.126004
 30
0.0
  0
VERTEX
  5
140
330
132
100
AcDbEntity
  8
001
370
    50
100
AcDbVertex
100
AcDb2dVertex
 10
52.556777
 20
61.154544
 30
0.0
  0
SEQEND
  5
133
330
132
100
AcDbEntity
  8
001
370
    50
  0
POLYLINE
  5
141
330
1F
100
AcDbEntity
  8
001
370
    50
100
AcDb2dPolyline
 66
     1
 10
0.0
 20
0.0
 30
0.0
  0
VERTEX
  5
143
330
141
100
AcDbEntity
  8
001
370
    50
100
AcDbVertex
100
AcDb2dVertex
 10
43.588254
 20
61.154544
 30
0.0
  0
VERTEX
  5
144
330
141
100
AcDbEntity
  8
001
370
    50
100
AcDbVertex
100
AcDb2dVertex
 10
43.58452
 20
61.956939
 30
0.0
  0
VERTEX
  5
145
330
141
100
AcDbEntity
  8
001
370
    50
100
AcDbVertex
100
AcDb2dVertex
 10
43.593307
 20
62.759108
 30
0.0
  0
VERTEX
  5
146
330
141
100
AcDbEntity
  8
001
370
    50
100
AcDbVertex
100
AcDb2dVertex
 10
43.624393
 20
63.562693
 30
0.0
  0
VERTEX
  5
147
330
141
100
AcDbEntity
  8
001
370
    50
100
AcDbVertex
100
AcDb2dVertex
 10
43.676072
 20
64.365366
 30
0.0
  0
VERTEX
  5
148
330
141
100
AcDbEntity
  8
001
370
    50
100
AcDbVertex
100
AcDb2dVertex
 10
43.746659
 20
65.190428
 30
0.0
  0
VERTEX
  5
149
330
141
100
AcDbEntity
  8
001
370
    50
100
AcDbVertex
100
AcDb2dVertex
 10
43.833332
 20
66.013893
 30
0.0
  0
VERTEX
  5
14A
330
141
100
AcDbEntity
  8
001
370
    50
100
AcDbVertex
100
AcDb2dVertex
 10
43.934988
 20
66.835704
 30
0.0
  0
VERTEX
  5
14B
330
141
100
AcDbEntity
  8
001
370
    50
100
AcDbVertex
100
AcDb2dVertex
 10
44.049699
 20
67.655819
 30
0.0
  0
VERTEX
  5
14C
330
141
100
AcDbEntity
  8
001
370
    50
100
AcDbVertex
100
AcDb2dVertex
 10
44.175947
 20
68.477184
 30
0.0
  0
VERTEX
  5
14D
330
141
100
AcDbEntity
  8
001
370
    50
100
AcDbVertex
100
AcDb2dVertex
 10
44.311938
 20
69.296983
 30
0.0
  0
VERTEX
  5
14E
330
141
100
AcDbEntity
  8
001
370
    50
100
AcDbVertex
100
AcDb2dVertex
 10
44.456395
 20
70.115334
 30
0.0
  0
VERTEX
  5
14F
330
141
100
AcDbEntity
  8
001
370
    50
100
AcDbVertex
100
AcDb2dVertex
 10
44.607962
 20
70.932406
 30
0.0
  0
VERTEX
  5
150
330
141
100
AcDbEntity
  8
001
370
    50
100
AcDbVertex
100
AcDb2dVertex
 10
44.929562
 20
72.570383
 30
0.0
  0
VERTEX
  5
151
330
141
100
AcDbEntity
  8
001
370
    50
100
AcDbVertex
100
AcDb2dVertex
 10
45.270439
 20
74.20447
 30
0.0
  0
VERTEX
  5
152
330
141
100
AcDbEntity
  8
001
370
    50
100
AcDbVertex
100
AcDb2dVertex
 10
45.626208
 20
75.835914
 30
0.0
  0
VERTEX
  5
153
330
141
100
AcDbEntity
  8
001
370
    50
100
AcDbVertex
100
AcDb2dVertex
 10
45.989687
 20
77.465666
 30
0.0
  0
SEQEND
  5
142
330
141
100
AcDbEntity
  8
001
370
    50
  0
POLYLINE
  5
154
330
1F
100
AcDbEntity
  8
001
370
    50
100
AcDb2dPolyline
 66
     1
 10
0.0
 20
0.0
 30
0.0
  0
VERTEX
  5
156
330
154
100
AcDbEntity
  8
001
370
    50
100
AcDbVertex
100
AcDb2dVertex
 10
52.079696
 20
71.160544
 30
0.0
  0
VERTEX
  5
157
330
154
100
AcDbEntity
  8
001
370
    50
100
AcDbVertex
100
AcDb2dVertex
 10
52.069449
 20
71.354823
 30
0.0
  0
VERTEX
  5
158
330
154
100
AcDbEntity
  8
001
370
    50
100
AcDbVertex
100
AcDb2dVertex
 10
52.038829
 20
71.620712
 30
0.0
  0
VERTEX
  5
159
330
154
100
AcDbEntity
  8
001
370
    50
100
AcDbVertex
100
AcDb2dVertex
 10
51.988014
 20
71.856337
 30
0.0
  0
VERTEX
  5
15A
330
154
100
AcDbEntity
  8
001
370
    50
100
AcDbVertex
100
AcDb2dVertex
 10
51.917471
 20
72.066897
 30
0.0
  0
VERTEX
  5
15B
330
154
100
AcDbEntity
  8
001
370
    50
100
AcDbVertex
100
AcDb2dVertex
 10
51.827597
 20
72.277939
 30
0.0
  0
VERTEX
  5
15C
330
154
100
AcDbEntity
  8
001
370
    50
100
AcDbVertex
100
AcDb2dVertex
 10
51.719309
 20
72.485544
 30
0.0
  0
VERTEX
  5
15D
330
154
100
AcDbEntity
  8
001
370
    50
100
AcDbVertex
100
AcDb2dVertex
 10
51.593183
 20
72.681346
 30
0.0
  0
VERTEX
  5
15E
330
154
100
AcDbEntity
  8
001
370
    50
100
AcDbVertex
100
AcDb2dVertex
 10
51.450363
 20
72.863931
 30
0.0
  0
VERTEX
  5
15F
330
154
100
AcDbEntity
  8
001
370
    50
100
AcDbVertex
100
AcDb2dVertex
 10
51.29152
 20
73.034287
 30
0.0
  0
VERTEX
  5
160
330
154
100
AcDbEntity
  8
001
370
    50
100
AcDbVertex
100
AcDb2dVertex
 10
51.118806
 20
73.190562
 30
0.0
  0
VERTEX
  5
161
330
154
100
AcDbEntity
  8
001
370
    50
100
AcDbVertex
100
AcDb2dVertex
 10
50.933221
 20
73.331424
 30
0.0
  0
VERTEX
  5
162
330
154
100
AcDbEntity
  8
001
370
    50
100
AcDbVertex
100
AcDb2dVertex
 10
50.734712
 20
73.455511
 30
0.0
  0
VERTEX
  5
163
330
154
100
AcDbEntity
  8
001
370
    50
100
AcDbVertex
100
AcDb2dVertex
 10
50.523787
 20
73.562289
 30
0.0
  0
VERTEX
  5
164
330
154
100
AcDbEntity
  8
001
370
    50
100
AcDbVertex
100
AcDb2dVertex
 10
50.309752
 20
73.65073
 30
0.0
  0
VERTEX
  5
165
330
154
100
AcDbEntity
  8
001
370
    50
100
AcDbVertex
100
AcDb2dVertex
 10
50.095834
 20
73.720265
 30
0.0
  0
VERTEX
  5
166
330
154
100
AcDbEntity
  8
001
370
    50
100
AcDbVertex
100
AcDb2dVertex
 10
49.856837
 20
73.770285
 30
0.0
  0
VERTEX
  5
167
330
154
100
AcDbEntity
  8
001
370
    50
100
AcDbVertex
100
AcDb2dVertex
 10
49.586906
 20
73.800456
 30
0.0
  0
VERTEX
  5
168
330
154
100
AcDbEntity
  8
001
370
    50
100
AcDbVertex
100
AcDb2dVertex
 10
49.389729
 20
73.810544
 30
0.0
  0
SEQEND
  5
155
330
154
100
AcDbEntity
  8
001
370
    50
  0
POLYLINE
  5
169
330
1F
100
AcDbEntity
  8
001
370
    50
100
AcDb2dPolyline
 66
     1
 10
0.0
 20
0.0
 30
0.0
  0
VERTEX
  5
16B
330
169
100
AcDbEntity
  8
001
370
    50
100
AcDbVertex
100
AcDb2dVertex
 10
49.389729
 20
68.510544
 30
0.0
  0
VERTEX
  5
16C
330
169
100
AcDbEntity
  8
001
370
    50
100
AcDbVertex
100
AcDb2dVertex
 10
49.586906
 20
68.520632
 30
0.0
  0
VERTEX
  5
16D
330
169
100
AcDbEntity
  8
001
370
    50
100
AcDbVertex
100
AcDb2dVertex
 10
49.856837
 20
68.550804
 30
0.0
  0
VERTEX
  5
16E
330
169
100
AcDbEntity
  8
001
370
    50
100
AcDbVertex
100
AcDb2dVertex
 10
50.095834
 20
68.600823
 30
0.0
  0
VERTEX
  5
16F
330
169
100
AcDbEntity
  8
001
370
    50
100
AcDbVertex
100
AcDb2dVertex
 10
50.309752
 20
68.670359
 30
0.0
  0
VERTEX
  5
170
330
169
100
AcDbEntity
  8
001
370
    50
100
AcDbVertex
100
AcDb2dVertex
 10
50.523787
 20
68.758799
 30
0.0
  0
VERTEX
  5
171
330
169
100
AcDbEntity
  8
001
370
    50
100
AcDbVertex
100
AcDb2dVertex
 10
50.734712
 20
68.865577
 30
0.0
  0
VERTEX
  5
172
330
169
100
AcDbEntity
  8
001
370
    50
100
AcDbVertex
100
AcDb2dVertex
 10
50.933221
 20
68.989664
 30
0.0
  0
VERTEX
  5
173
330
169
100
AcDbEntity
  8
001
370
    50
100
AcDbVertex
100
AcDb2dVertex
 10
51.118806
 20
69.130526
 30
0.0
  0
VERTEX
  5
174
330
169
100
AcDbEntity
  8
001
370
    50
100
AcDbVertex
100
AcDb2dVertex
 10
51.29152
 20
69.286801
 30
0.0
  0
VERTEX
  5
175
330
169
100
AcDbEntity
  8
001
370
    50
100
AcDbVertex
100
AcDb2dVertex
 10
51.450363
 20
69.457157
 30
0.0
  0
VERTEX
  5
176
330
169
100
AcDbEntity
  8
001
370
    50
100
AcDbVertex
100
AcDb2dVertex
 10
51.593183
 20
69.639742
 30
0.0
  0
VERTEX
  5
177
330
169
100
AcDbEntity
  8
001
370
    50
100
AcDbVertex
100
AcDb2dVertex
 10
51.719309
 20
69.835544
 30
0.0
  0
VERTEX
  5
178
330
169
100
AcDbEntity
  8
001
370
    50
100
AcDbVertex
100
AcDb2dVertex
 10
51.827597
 20
70.04315
 30
0.0
  0
VERTEX
  5
179
330
169
100
AcDbEntity
  8
001
370
    50
100
AcDbVertex
100
AcDb2dVertex
 10
51.917471
 20
70.254191
 30
0.0
  0
VERTEX
  5
17A
330
169
100
AcDbEntity
  8
001
370
    50
100
AcDbVertex
100
AcDb2dVertex
 10
51.988014
 20
70.464751
 30
0.0
  0
VERTEX
  5
17B
330
169
100
AcDbEntity
  8
001
370
    50
100
AcDbVertex
100
AcDb2dVertex
 10
52.038829
 20
70.700376
 30
0.0
  0
VERTEX
  5
17C
330
169
100
AcDbEntity
  8
001
370
    50
100
AcDbVertex
100
AcDb2dVertex
 10
52.069449
 20
70.966265
 30
0.0
  0
VERTEX
  5
17D
330
169
100
AcDbEntity
  8
001
370
    50
100
AcDbVertex
100
AcDb2dVertex
 10
52.079696
 20
71.160544
 30
0.0
  0
SEQEND
  5
16A
330
169
100
AcDbEntity
  8
001
370
    50
  0
POLYLINE
  5
17E
330
1F
100
AcDbEntity
  8
001
370
    50
100
AcDb2dPolyline
 66
     1
 10
0.0
 20
0.0
 30
0.0
  0
VERTEX
  5
180
330
17E
100
AcDbEntity
  8
001
370
    50
100
AcDbVertex
100
AcDb2dVertex
 10
49.389729
 20
73.810544
 30
0.0
  0
VERTEX
  5
181
330
17E
100
AcDbEntity
  8
001
370
    50
100
AcDbVertex
100
AcDb2dVertex
 10
49.192551
 20
73.800457
 30
0.0
  0
VERTEX
  5
182
330
17E
100
AcDbEntity
  8
001
370
    50
100
AcDbVertex
100
AcDb2dVertex
 10
48.922621
 20
73.770285
 30
0.0
  0
VERTEX
  5
183
330
17E
100
AcDbEntity
  8
001
370
    50
100
AcDbVertex
100
AcDb2dVertex
 10
48.683624
 20
73.720261
 30
0.0
  0
VERTEX
  5
184
330
17E
100
AcDbEntity
  8
001
370
    50
100
AcDbVertex
100
AcDb2dVertex
 10
48.469706
 20
73.65073
 30
0.0
  0
VERTEX
  5
185
330
17E
100
AcDbEntity
  8
001
370
    50
100
AcDbVertex
100
AcDb2dVertex
 10
48.25567
 20
73.562303
 30
0.0
  0
VERTEX
  5
186
330
17E
100
AcDbEntity
  8
001
370
    50
100
AcDbVertex
100
AcDb2dVertex
 10
48.044745
 20
73.455511
 30
0.0
  0
VERTEX
  5
187
330
17E
100
AcDbEntity
  8
001
370
    50
100
AcDbVertex
100
AcDb2dVertex
 10
47.846236
 20
73.331373
 30
0.0
  0
VERTEX
  5
188
330
17E
100
AcDbEntity
  8
001
370
    50
100
AcDbVertex
100
AcDb2dVertex
 10
47.660651
 20
73.190562
 30
0.0
  0
VERTEX
  5
189
330
17E
100
AcDbEntity
  8
001
370
    50
100
AcDbVertex
100
AcDb2dVertex
 10
47.487937
 20
73.034479
 30
0.0
  0
VERTEX
  5
18A
330
17E
100
AcDbEntity
  8
001
370
    50
100
AcDbVertex
100
AcDb2dVertex
 10
47.329094
 20
72.863931
 30
0.0
  0
VERTEX
  5
18B
330
17E
100
AcDbEntity
  8
001
370
    50
100
AcDbVertex
100
AcDb2dVertex
 10
47.186274
 20
72.680634
 30
0.0
  0
VERTEX
  5
18C
330
17E
100
AcDbEntity
  8
001
370
    50
100
AcDbVertex
100
AcDb2dVertex
 10
47.060149
 20
72.485544
 30
0.0
  0
VERTEX
  5
18D
330
17E
100
AcDbEntity
  8
001
370
    50
100
AcDbVertex
100
AcDb2dVertex
 10
46.95186
 20
72.280585
 30
0.0
  0
VERTEX
  5
18E
330
17E
100
AcDbEntity
  8
001
370
    50
100
AcDbVertex
100
AcDb2dVertex
 10
46.861986
 20
72.066897
 30
0.0
  0
VERTEX
  5
18F
330
17E
100
AcDbEntity
  8
001
370
    50
100
AcDbVertex
100
AcDb2dVertex
 10
46.791443
 20
71.846486
 30
0.0
  0
VERTEX
  5
190
330
17E
100
AcDbEntity
  8
001
370
    50
100
AcDbVertex
100
AcDb2dVertex
 10
46.740628
 20
71.620712
 30
0.0
  0
VERTEX
  5
191
330
17E
100
AcDbEntity
  8
001
370
    50
100
AcDbVertex
100
AcDb2dVertex
 10
46.710008
 20
71.391533
 30
0.0
  0
VERTEX
  5
192
330
17E
100
AcDbEntity
  8
001
370
    50
100
AcDbVertex
100
AcDb2dVertex
 10
46.699762
 20
71.160544
 30
0.0
  0
VERTEX
  5
193
330
17E
100
AcDbEntity
  8
001
370
    50
100
AcDbVertex
100
AcDb2dVertex
 10
46.710008
 20
70.929556
 30
0.0
  0
VERTEX
  5
194
330
17E
100
AcDbEntity
  8
001
370
    50
100
AcDbVertex
100
AcDb2dVertex
 10
46.740628
 20
70.700376
 30
0.0
  0
VERTEX
  5
195
330
17E
100
AcDbEntity
  8
001
370
    50
100
AcDbVertex
100
AcDb2dVertex
 10
46.791443
 20
70.474602
 30
0.0
  0
VERTEX
  5
196
330
17E
100
AcDbEntity
  8
001
370
    50
100
AcDbVertex
100
AcDb2dVertex
 10
46.861986
 20
70.254191
 30
0.0
  0
VERTEX
  5
197
330
17E
100
AcDbEntity
  8
001
370
    50
100
AcDbVertex
100
AcDb2dVertex
 10
46.95186
 20
70.040503
 30
0.0
  0
VERTEX
  5
198
330
17E
100
AcDbEntity
  8
001
370
    50
100
AcDbVertex
100
AcDb2dVertex
 10
47.060149
 20
69.835544
 30
0.0
  0
VERTEX
  5
199
330
17E
100
AcDbEntity
  8
001
370
    50
100
AcDbVertex
100
AcDb2dVertex
 10
47.186274
 20
69.640454
 30
0.0
  0
VERTEX
  5
19A
330
17E
100
AcDbEntity
  8
001
370
    50
100
AcDbVertex
100
AcDb2dVertex
 10
47.329094
 20
69.457157
 30
0.0
  0
VERTEX
  5
19B
330
17E
100
AcDbEntity
  8
001
370
    50
100
AcDbVertex
100
AcDb2dVertex
 10
47.487937
 20
69.286609
 30
0.0
  0
VERTEX
  5
19C
330
17E
100
AcDbEntity
  8
001
370
    50
100
AcDbVertex
100
AcDb2dVertex
 10
47.660651
 20
69.130526
 30
0.0
  0
VERTEX
  5
19D
330
17E
100
AcDbEntity
  8
001
370
    50
100
AcDbVertex
100
AcDb2dVertex
 10
47.846236
 20
68.989716
 30
0.0
  0
VERTEX
  5
19E
330
17E
100
AcDbEntity
  8
001
370
    50
100
AcDbVertex
100
AcDb2dVertex
 10
48.044745
 20
68.865577
 30
0.0
  0
VERTEX
  5
19F
330
17E
100
AcDbEntity
  8
001
370
    50
100
AcDbVertex
100
AcDb2dVertex
 10
48.25567
 20
68.758786
 30
0.0
  0
VERTEX
  5
1A0
330
17E
100
AcDbEntity
  8
001
370
    50
100
AcDbVertex
100
AcDb2dVertex
 10
48.469706
 20
68.670359
 30
0.0
  0
VERTEX
  5
1A1
330
17E
100
AcDbEntity
  8
001
370
    50
100
AcDbVertex
100
AcDb2dVertex
 10
48.683624
 20
68.600827
 30
0.0
  0
VERTEX
  5
1A2
330
17E
100
AcDbEntity
  8
001
370
    50
100
AcDbVertex
100
AcDb2dVertex
 10
48.922621
 20
68.550804
 30
0.0
  0
VERTEX
  5
1A3
330
17E
100
AcDbEntity
  8
001
370
    50
100
AcDbVertex
100
AcDb2dVertex
 10
49.192551
 20
68.520632
 30
0.0
  0
VERTEX
  5
1A4
330
17E
100
AcDbEntity
  8
001
370
    50
100
AcDbVertex
100
AcDb2dVertex
 10
49.389729
 20
68.510544
 30
0.0
  0
SEQEND
  5
17F
330
17E
100
AcDbEntity
  8
001
370
    50
  0
LINE
  5
1A5
330
1F
100
AcDbEntity
  8
001
370
    50
100
AcDbLine
 10
52.556777
 20
61.154544
 30
0.0
 11
42.189693
 21
61.154544
 31
0.0
  0
LINE
  5
1A6
330
1F
100
AcDbEntity
  8
001
  6
CENTER
370
     9
100
AcDbLine
 10
37.61954
 20
61.854544
 30
0.0
 11
176.978529
 21
61.854544
 31
0.0
  0
LINE
  5
1A7
330
1F
100
AcDbEntity
  8
001
370
    50
100
AcDbLine
 10
74.689693
 20
45.854544
 30
0.0
 11
74.689693
 21
77.854544
 31
0.0
  0
LINE
  5
1A8
330
1F
100
AcDbEntity
  8
001
370
    50
100
AcDbLine
 10
74.689693
 20
77.354544
 30
0.0
 11
71.689693
 21
77.354544
 31
0.0
  0
LINE
  5
1A9
330
1F
100
AcDbEntity
  8
001
370
    50
100
AcDbLine
 10
71.689693
 20
46.354544
 30
0.0
 11
74.689693
 21
46.354544
 31
0.0
  0
LINE
  5
1AA
330
1F
100
AcDbEntity
  8
001
370
    50
100
AcDbLine
 10
167.689693
 20
77.854544
 30
0.0
 11
74.689693
 21
77.854544
 31
0.0
  0
LINE
  5
1AB
330
1F
100
AcDbEntity
  8
001
370
    50
100
AcDbLine
 10
167.689693
 20
45.854544
 30
0.0
 11
74.689693
 21
45.854544
 31
0.0
  0
LINE
  5
1AC
330
1F
100
AcDbEntity
  8
001
370
    50
100
AcDbLine
 10
171.689693
 20
61.854544
 30
0.0
 11
176.01982
 21
64.354544
 31
0.0
  0
LINE
  5
1AD
330
1F
100
AcDbEntity
  8
001
370
    50
100
AcDbLine
 10
171.689693
 20
61.854544
 30
0.0
 11
176.01982
 21
59.354544
 31
0.0
  0
LINE
  5
1AE
330
1F
100
AcDbEntity
  8
001
370
    50
100
AcDbLine
 10
42.189693
 20
61.854544
 30
0.0
 11
38.725591
 21
63.854544
 31
0.0
  0
LINE
  5
1AF
330
1F
100
AcDbEntity
  8
001
370
    50
100
AcDbLine
 10
42.189693
 20
61.854544
 30
0.0
 11
38.725591
 21
59.854544
 31
0.0
  0
ARC
  5
1B0
330
1F
100
AcDbEntity
  8
001
370
    50
100
AcDbCircle
 10
167.689693
 20
73.854544
 30
0.0
 40
4.0
100
AcDbArc
 50
0.0
 51
90.0
  0
ARC
  5
1B1
330
1F
100
AcDbEntity
  8
001
370
    50
100
AcDbCircle
 10
167.689693
 20
49.854544
 30
0.0
 40
4.0
100
AcDbArc
 50
270.0
 51
0.0
  0
LINE
  5
1B2
330
1F
100
AcDbEntity
  8
001
370
    50
100
AcDbLine
 10
56.790523
 20
54.38213
 30
0.0
 11
42.192812
 21
58.293575
 31
0.0
  0
LINE
  5
1B3
330
1F
100
AcDbEntity
  8
001
370
    50
100
AcDbLine
 10
46.283572
 20
43.026651
 30
0.0
 11
56.969838
 21
53.712917
 31
0.0
  0
CIRCLE
  5
1B4
330
1F
100
AcDbEntity
  8
001
370
    50
100
AcDbCircle
 10
48.259003
 20
51.737486
 30
0.0
 40
1.9
  0
ARC
  5
1B5
330
1F
100
AcDbEntity
  8
001
370
    50
100
AcDbCircle
 10
42.089284
 20
57.907205
 30
0.0
 40
0.4
100
AcDbArc
 50
75.0
 51
195.0
  0
ARC
  5
1B6
330
1F
100
AcDbEntity
  8
001
370
    50
100
AcDbCircle
 10
56.686995
 20
53.99576
 30
0.0
 40
0.4
100
AcDbArc
 50
315.0
 51
75.0
  0
LINE
  5
1B7
330
1F
100
AcDbEntity
  8
001
370
     9
100
AcDbLine
 10
41.702914
 20
57.803677
 30
0.0
 11
41.689284
 21
57.854544
 31
0.0
  0
LINE
  5
1B8
330
1F
100
AcDbEntity
  8
001
370
    50
100
AcDbLine
 10
45.619145
 20
80.520985
 30
0.0
 11
41.702914
 21
65.905411
 31
0.0
  0
ARC
  5
1B9
330
1F
100
AcDbEntity
  8
001
370
    50
100
AcDbCircle
 10
55.141514
 20
53.581649
 30
0.0
 40
3.0
100
AcDbArc
 50
248.578178
 51
141.421822
  0
ARC
  5
1BA
330
1F
100
AcDbEntity
  8
001
370
    50
100
AcDbCircle
 10
70.689693
 20
79.754544
 30
0.0
 40
1.0
100
AcDbArc
 50
0.0
 51
90.0
  0
LINE
  5
1BB
330
1F
100
AcDbEntity
  8
001
370
    50
100
AcDbLine
 10
46.246684
 20
80.754544
 30
0.0
 11
70.689693
 21
80.754544
 31
0.0
  0
POLYLINE
  5
1BC
330
1F
100
AcDbEntity
  8
001
370
    50
100
AcDb2dPolyline
 66
     1
 10
0.0
 20
0.0
 30
0.0
  0
VERTEX
  5
1BE
330
1BC
100
AcDbEntity
  8
001
370
    50
100
AcDbVertex
100
AcDb2dVertex
 10
46.246684
 20
80.754544
 30
0.0
  0
VERTEX
  5
1BF
330
1BC
100
AcDbEntity
  8
001
370
    50
100
AcDbVertex
100
AcDb2dVertex
 10
46.118186
 20
80.253551
 30
0.0
  0
VERTEX
  5
1C0
330
1BC
100
AcDbEntity
  8
001
370
    50
100
AcDbVertex
100
AcDb2dVertex
 10
45.989687
 20
79.752558
 30
0.0
  0
VERTEX
  5
1C1
330
1BC
100
AcDbEntity
  8
001
370
    50
100
AcDbVertex
100
AcDb2dVertex
 10
45.354329
 20
77.275409
 30
0.0
  0
VERTEX
  5
1C2
330
1BC
100
AcDbEntity
  8
001
370
    50
100
AcDbVertex
100
AcDb2dVertex
 10
44.718984
 20
74.798256
 30
0.0
  0
VERTEX
  5
1C3
330
1BC
100
AcDbEntity
  8
001
370
    50
100
AcDbVertex
100
AcDb2dVertex
 10
44.083661
 20
72.321097
 30
0.0
  0
VERTEX
  5
1C4
330
1BC
100
AcDbEntity
  8
001
370
    50
100
AcDbVertex
100
AcDb2dVertex
 10
43.607436
 20
70.463155
 30
0.0
  0
VERTEX
  5
1C5
330
1BC
100
AcDbEntity
  8
001
370
    50
100
AcDbVertex
100
AcDb2dVertex
 10
43.132708
 20
68.604831
 30
0.0
  0
VERTEX
  5
1C6
330
1BC
100
AcDbEntity
  8
001
370
    50
100
AcDbVertex
100
AcDb2dVertex
 10
42.660456
 20
66.74586
 30
0.0
  0
VERTEX
  5
1C7
330
1BC
100
AcDbEntity
  8
001
370
    50
100
AcDbVertex
100
AcDb2dVertex
 10
42.189693
 20
64.88651
 30
0.0
  0
SEQEND
  5
1BD
330
1BC
100
AcDbEntity
  8
001
370
    50
  0
ARC
  5
1C8
330
1F
100
AcDbEntity
  8
001
370
    50
100
AcDbCircle
 10
70.689693
 20
43.954544
 30
0.0
 40
1.0
100
AcDbArc
 50
270.0
 51
0.0
  0
POLYLINE
  5
1C9
330
1F
100
AcDbEntity
  8
001
370
    50
100
AcDb2dPolyline
 66
     1
 10
0.0
 20
0.0
 30
0.0
  0
VERTEX
  5
1CB
330
1C9
100
AcDbEntity
  8
001
370
    50
100
AcDbVertex
100
AcDb2dVertex
 10
47.443704
 20
44.186784
 30
0.0
  0
VERTEX
  5
1CC
330
1C9
100
AcDbEntity
  8
001
370
    50
100
AcDbVertex
100
AcDb2dVertex
 10
49.164377
 20
44.215761
 30
0.0
  0
VERTEX
  5
1CD
330
1C9
100
AcDbEntity
  8
001
370
    50
100
AcDbVertex
100
AcDb2dVertex
 10
51.268226
 20
44.253199
 30
0.0
  0
VERTEX
  5
1CE
330
1C9
100
AcDbEntity
  8
001
370
    50
100
AcDbVertex
100
AcDb2dVertex
 10
53.563623
 20
44.296911
 30
0.0
  0
VERTEX
  5
1CF
330
1C9
100
AcDbEntity
  8
001
370
    50
100
AcDbVertex
100
AcDb2dVertex
 10
56.436724
 20
44.356566
 30
0.0
  0
VERTEX
  5
1D0
330
1C9
100
AcDbEntity
  8
001
370
    50
100
AcDbVertex
100
AcDb2dVertex
 10
58.917965
 20
44.411726
 30
0.0
  0
VERTEX
  5
1D1
330
1C9
100
AcDbEntity
  8
001
370
    50
100
AcDbVertex
100
AcDb2dVertex
 10
60.615613
 20
44.45138
 30
0.0
  0
SEQEND
  5
1CA
330
1C9
100
AcDbEntity
  8
001
370
    50
  0
LINE
  5
1D2
330
1F
100
AcDbEntity
  8
001
370
     9
100
AcDbLine
 10
41.689284
 20
38.782839
 30
0.0
 11
41.689284
 21
57.854544
 31
0.0
  0
ARC
  5
1D3
330
1F
100
AcDbEntity
  8
001
370
    50
100
AcDbCircle
 10
45.995202
 20
43.288867
 30
0.0
 40
0.3893227757868321
100
AcDbArc
 50
195.0
 51
317.719603
  0
ARC
  5
1D4
330
1F
100
AcDbEntity
  8
001
370
    50
100
AcDbCircle
 10
45.995202
 20
80.420221
 30
0.0
 40
0.3893227757868321
100
AcDbArc
 50
51.262038
 51
165.0
  0
LINE
  5
1D5
330
1F
100
AcDbEntity
  8
001
370
    50
100
AcDbLine
 10
42.488945
 20
58.214227
 30
0.0
 11
42.189693
 21
59.831524
 31
0.0
  0
LINE
  5
1D6
330
1F
100
AcDbEntity
  8
001
370
    50
100
AcDbLine
 10
42.189693
 20
64.88651
 30
0.0
 11
42.189693
 21
58.294397
 31
0.0
  0
LINE
  5
1D7
330
1F
100
AcDbEntity
  8
001
370
     9
100
AcDbLine
 10
37.61954
 20
42.899544
 30
0.0
 11
45.995202
 21
42.899544
 31
0.0
  0
LINE
  5
1D8
330
1F
100
AcDbEntity
  8
001
370
     9
100
AcDbLine
 10
45.619145
 20
43.188103
 30
0.0
 11
45.696464
 21
42.899544
 31
0.0
  0
LINE
  5
1D9
330
1F
100
AcDbEntity
  8
001
370
    50
100
AcDbLine
 10
45.619145
 20
43.188103
 30
0.0
 11
41.702914
 21
57.803677
 31
0.0
  0
LINE
  5
1DA
330
1F
100
AcDbEntity
  8
001
370
    50
100
AcDbLine
 10
46.194703
 20
42.954544
 30
0.0
 11
70.689693
 21
42.954544
 31
0.0
  0
ARC
  5
1DB
330
1F
100
AcDbEntity
  8
001
370
    50
100
AcDbCircle
 10
42.089284
 20
65.801883
 30
0.0
 40
0.4
100
AcDbArc
 50
165.0
 51
309.38691
  0
LINE
  5
1DC
330
1F
100
AcDbEntity
  8
001
370
     9
100
AcDbLine
 10
41.689284
 20
65.854544
 30
0.0
 11
41.702914
 21
65.905411
 31
0.0
  0
LINE
  5
1DD
330
1F
100
AcDbEntity
  8
001
370
     9
100
AcDbLine
 10
41.689284
 20
65.854544
 30
0.0
 11
41.689284
 21
65.801883
 31
0.0
  0
LINE
  5
1DE
330
1F
100
AcDbEntity
  8
001
370
     9
100
AcDbLine
 10
41.689284
 20
57.854544
 30
0.0
 11
41.689284
 21
57.907205
 31
0.0
  0
TEXT
  5
1DF
330
1F
100
AcDbEntity
  8
001
370
    30
100
AcDbText
 10
20.112703
 20
98.632011
 30
0.0
 40
4.0
  1
ＮＫ１５３６Ｔ（ＮＥＷ）
 41
0.833333
100
AcDbText
  0
ENDSEC
  0
SECTION
  2
OBJECTS
  0
DICTIONARY
  5
C
330
0
100
AcDbDictionary
281
     1
  3
ACAD_GROUP
350
D
  3
ACAD_LAYOUT
350
1A
  3
ACAD_MLEADERSTYLE
350
1E3
  3
ACAD_MLINESTYLE
350
17
  3
ACAD_PLOTSETTINGS
350
19
  3
ACAD_PLOTSTYLENAME
350
E
  3
ACAD_SCALELIST
350
3B
  3
ACAD_TABLESTYLE
350
1E2
  3
ACAD_VISUALSTYLE
350
2A
  3
AcDbVariableDictionary
350
1E0
  0
DICTIONARY
  5
D
102
{ACAD_REACTORS
330
C
102
}
330
C
100
AcDbDictionary
281
     1
  0
DICTIONARY
  5
1A
102
{ACAD_REACTORS
330
C
102
}
330
C
100
AcDbDictionary
281
     1
  3
Layout1
350
1E
  3
Layout2
350
26
  3
Model
350
22
  0
DICTIONARY
  5
1E3
102
{ACAD_REACTORS
330
C
102
}
330
C
100
AcDbDictionary
281
     1
  0
DICTIONARY
  5
17
102
{ACAD_REACTORS
330
C
102
}
330
C
100
AcDbDictionary
281
     1
  3
Standard
350
18
  0
DICTIONARY
  5
19
102
{ACAD_REACTORS
330
C
102
}
330
C
100
AcDbDictionary
281
     1
  0
ACDBDICTIONARYWDFLT
  5
E
102
{ACAD_REACTORS
330
C
102
}
330
C
100
AcDbDictionary
281
     1
  3
Normal
350
F
100
AcDbDictionaryWithDefault
340
F
  0
DICTIONARY
  5
3B
102
{ACAD_REACTORS
330
C
102
}
330
C
100
AcDbDictionary
281
     1
  3
A0
350
3C
  3
A1
350
3D
  3
A2
350
3E
  3
A3
350
3F
  3
A4
350
40
  3
A5
350
41
  3
A6
350
42
  3
A7
350
43
  3
A8
350
44
  3
A9
350
45
  3
B0
350
46
  3
B1
350
47
  3
B2
350
48
  3
B3
350
49
  3
B4
350
4A
  3
B5
350
4B
  3
B6
350
4C
  3
B7
350
4D
  3
B8
350
4E
  3
B9
350
4F
  3
C0
350
50
  3
C1
350
51
  3
C2
350
52
  3
C3
350
53
  3
C4
350
54
  3
C5
350
55
  3
C6
350
56
  3
C7
350
57
  3
C8
350
58
  3
C9
350
59
  3
D0
350
5A
  3
D1
350
5B
  3
D2
350
5C
  0
DICTIONARY
  5
1E2
102
{ACAD_REACTORS
330
C
102
}
330
C
100
AcDbDictionary
281
     1
  0
DICTIONARY
  5
2A
102
{ACAD_REACTORS
330
C
102
}
330
C
100
AcDbDictionary
281
     1
  3
2dWireframe
350
2F
  3
3D Hidden
350
31
  3
3dWireframe
350
30
  3
Basic
350
32
  3
Brighten
350
36
  3
ColorChange
350
3A
  3
Conceptual
350
34
  3
Dim
350
35
  3
Facepattern
350
39
  3
Flat
350
2B
  3
FlatWithEdges
350
2C
  3
Gouraud
350
2D
  3
GouraudWithEdges
350
2E
  3
Linepattern
350
38
  3
Realistic
350
33
  3
Thicken
350
37
  0
DICTIONARY
  5
1E0
102
{ACAD_REACTORS
330
C
102
}
330
C
100
AcDbDictionary
281
     1
  3
CANNOSCALE
350
1E1
  3
PSOLHEIGHT
350
1E5
  3
PSOLWIDTH
350
1E4
  0
LAYOUT
  5
1E
102
{ACAD_REACTORS
330
1A
102
}
330
1A
100
AcDbPlotSettings
  1

  2
none_device
  4

  6

 40
0.0
 41
0.0
 42
0.0
 43
0.0
 44
0.0
 45
0.0
 46
0.0
 47
0.0
 48
0.0
 49
0.0
140
0.0
141
0.0
142
1.0
143
1.0
 70
   688
 72
     0
 73
     0
 74
     5
  7

 75
    16
147
1.0
148
0.0
149
0.0
100
AcDbLayout
  1
Layout1
 70
     1
 71
     1
 10
0.0
 20
0.0
 11
12.0
 21
9.0
 12
0.0
 22
0.0
 32
0.0
 14
1.000000E+20
 24
1.000000E+20
 34
0.0
 15
-1.000000E+20
 25
-1.000000E+20
 35
0.0
146
0.0
 13
0.0
 23
0.0
 33
0.0
 16
1.0
 26
0.0
 36
0.0
 17
0.0
 27
1.0
 37
0.0
 76
     0
330
1B
  0
LAYOUT
  5
26
102
{ACAD_REACTORS
330
1A
102
}
330
1A
100
AcDbPlotSettings
  1

  2
none_device
  4

  6

 40
0.0
 41
0.0
 42
0.0
 43
0.0
 44
0.0
 45
0.0
 46
0.0
 47
0.0
 48
0.0
 49
0.0
140
0.0
141
0.0
142
1.0
143
1.0
 70
   688
 72
     0
 73
     0
 74
     5
  7

 75
    16
147
1.0
148
0.0
149
0.0
100
AcDbLayout
  1
Layout2
 70
     1
 71
     2
 10
0.0
 20
0.0
 11
0.0
 21
0.0
 12
0.0
 22
0.0
 32
0.0
 14
0.0
 24
0.0
 34
0.0
 15
0.0
 25
0.0
 35
0.0
146
0.0
 13
0.0
 23
0.0
 33
0.0
 16
1.0
 26
0.0
 36
0.0
 17
0.0
 27
1.0
 37
0.0
 76
     0
330
23
  0
LAYOUT
  5
22
102
{ACAD_REACTORS
330
1A
102
}
330
1A
100
AcDbPlotSettings
  1

  2
none_device
  4

  6

 40
0.0
 41
0.0
 42
0.0
 43
0.0
 44
0.0
 45
0.0
 46
0.0
 47
0.0
 48
0.0
 49
0.0
140
0.0
141
0.0
142
1.0
143
1.0
 70
  1712
 72
     0
 73
     0
 74
     0
  7

 75
     0
147
1.0
148
0.0
149
0.0
100
AcDbLayout
  1
Model
 70
     1
 71
     0
 10
0.0
 20
0.0
 11
12.0
 21
9.0
 12
0.0
 22
0.0
 32
0.0
 14
14.570404
 24
7.460014
 34
0.0
 15
194.366974
 25
102.632011
 35
0.0
146
0.0
 13
0.0
 23
0.0
 33
0.0
 16
1.0
 26
0.0
 36
0.0
 17
0.0
 27
1.0
 37
0.0
 76
     0
330
1F
331
29
  0
MLINESTYLE
  5
18
102
{ACAD_REACTORS
330
17
102
}
330
17
100
AcDbMlineStyle
  2
Standard
 70
     0
  3

 62
   256
 51
90.0
 52
90.0
 71
     2
 49
0.5
 62
   256
  6
BYLAYER
 49
-0.5
 62
   256
  6
BYLAYER
  0
ACDBPLACEHOLDER
  5
F
102
{ACAD_REACTORS
330
E
102
}
330
E
  0
SCALE
  5
3C
102
{ACAD_REACTORS
330
3B
102
}
330
3B
100
AcDbScale
 70
     0
300
1:1
140
1.0
141
1.0
290
     1
  0
SCALE
  5
3D
102
{ACAD_REACTORS
330
3B
102
}
330
3B
100
AcDbScale
 70
     0
300
1:2
140
1.0
141
2.0
290
     0
  0
SCALE
  5
3E
102
{ACAD_REACTORS
330
3B
102
}
330
3B
100
AcDbScale
 70
     0
300
1:4
140
1.0
141
4.0
290
     0
  0
SCALE
  5
3F
102
{ACAD_REACTORS
330
3B
102
}
330
3B
100
AcDbScale
 70
     0
300
1:5
140
1.0
141
5.0
290
     0
  0
SCALE
  5
40
102
{ACAD_REACTORS
330
3B
102
}
330
3B
100
AcDbScale
 70
     0
300
1:8
140
1.0
141
8.0
290
     0
  0
SCALE
  5
41
102
{ACAD_REACTORS
330
3B
102
}
330
3B
100
AcDbScale
 70
     0
300
1:10
140
1.0
141
10.0
290
     0
  0
SCALE
  5
42
102
{ACAD_REACTORS
330
3B
102
}
330
3B
100
AcDbScale
 70
     0
300
1:16
140
1.0
141
16.0
290
     0
  0
SCALE
  5
43
102
{ACAD_REACTORS
330
3B
102
}
330
3B
100
AcDbScale
 70
     0
300
1:20
140
1.0
141
20.0
290
     0
  0
SCALE
  5
44
102
{ACAD_REACTORS
330
3B
102
}
330
3B
100
AcDbScale
 70
     0
300
1:30
140
1.0
141
30.0
290
     0
  0
SCALE
  5
45
102
{ACAD_REACTORS
330
3B
102
}
330
3B
100
AcDbScale
 70
     0
300
1:40
140
1.0
141
40.0
290
     0
  0
SCALE
  5
46
102
{ACAD_REACTORS
330
3B
102
}
330
3B
100
AcDbScale
 70
     0
300
1:50
140
1.0
141
50.0
290
     0
  0
SCALE
  5
47
102
{ACAD_REACTORS
330
3B
102
}
330
3B
100
AcDbScale
 70
     0
300
1:100
140
1.0
141
100.0
290
     0
  0
SCALE
  5
48
102
{ACAD_REACTORS
330
3B
102
}
330
3B
100
AcDbScale
 70
     0
300
2:1
140
2.0
141
1.0
290
     0
  0
SCALE
  5
49
102
{ACAD_REACTORS
330
3B
102
}
330
3B
100
AcDbScale
 70
     0
300
4:1
140
4.0
141
1.0
290
     0
  0
SCALE
  5
4A
102
{ACAD_REACTORS
330
3B
102
}
330
3B
100
AcDbScale
 70
     0
300
8:1
140
8.0
141
1.0
290
     0
  0
SCALE
  5
4B
102
{ACAD_REACTORS
330
3B
102
}
330
3B
100
AcDbScale
 70
     0
300
10:1
140
10.0
141
1.0
290
     0
  0
SCALE
  5
4C
102
{ACAD_REACTORS
330
3B
102
}
330
3B
100
AcDbScale
 70
     0
300
100:1
140
100.0
141
1.0
290
     0
  0
SCALE
  5
4D
102
{ACAD_REACTORS
330
3B
102
}
330
3B
100
AcDbScale
 70
     0
300
1/128" = 1'-0"
140
0.007812
141
12.0
290
     0
  0
SCALE
  5
4E
102
{ACAD_REACTORS
330
3B
102
}
330
3B
100
AcDbScale
 70
     0
300
1/64" = 1'-0"
140
0.015625
141
12.0
290
     0
  0
SCALE
  5
4F
102
{ACAD_REACTORS
330
3B
102
}
330
3B
100
AcDbScale
 70
     0
300
1/32" = 1'-0"
140
0.03125
141
12.0
290
     0
  0
SCALE
  5
50
102
{ACAD_REACTORS
330
3B
102
}
330
3B
100
AcDbScale
 70
     0
300
1/16" = 1'-0"
140
0.0625
141
12.0
290
     0
  0
SCALE
  5
51
102
{ACAD_REACTORS
330
3B
102
}
330
3B
100
AcDbScale
 70
     0
300
3/32" = 1'-0"
140
0.09375
141
12.0
290
     0
  0
SCALE
  5
52
102
{ACAD_REACTORS
330
3B
102
}
330
3B
100
AcDbScale
 70
     0
300
1/8" = 1'-0"
140
0.125
141
12.0
290
     0
  0
SCALE
  5
53
102
{ACAD_REACTORS
330
3B
102
}
330
3B
100
AcDbScale
 70
     0
300
3/16" = 1'-0"
140
0.1875
141
12.0
290
     0
  0
SCALE
  5
54
102
{ACAD_REACTORS
330
3B
102
}
330
3B
100
AcDbScale
 70
     0
300
1/4" = 1'-0"
140
0.25
141
12.0
290
     0
  0
SCALE
  5
55
102
{ACAD_REACTORS
330
3B
102
}
330
3B
100
AcDbScale
 70
     0
300
3/8" = 1'-0"
140
0.375
141
12.0
290
     0
  0
SCALE
  5
56
102
{ACAD_REACTORS
330
3B
102
}
330
3B
100
AcDbScale
 70
     0
300
1/2" = 1'-0"
140
0.5
141
12.0
290
     0
  0
SCALE
  5
57
102
{ACAD_REACTORS
330
3B
102
}
330
3B
100
AcDbScale
 70
     0
300
3/4" = 1'-0"
140
0.75
141
12.0
290
     0
  0
SCALE
  5
58
102
{ACAD_REACTORS
330
3B
102
}
330
3B
100
AcDbScale
 70
     0
300
1" = 1'-0"
140
1.0
141
12.0
290
     0
  0
SCALE
  5
59
102
{ACAD_REACTORS
330
3B
102
}
330
3B
100
AcDbScale
 70
     0
300
1-1/2" = 1'-0"
140
1.5
141
12.0
290
     0
  0
SCALE
  5
5A
102
{ACAD_REACTORS
330
3B
102
}
330
3B
100
AcDbScale
 70
     0
300
3" = 1'-0"
140
3.0
141
12.0
290
     0
  0
SCALE
  5
5B
102
{ACAD_REACTORS
330
3B
102
}
330
3B
100
AcDbScale
 70
     0
300
6" = 1'-0"
140
6.0
141
12.0
290
     0
  0
SCALE
  5
5C
102
{ACAD_REACTORS
330
3B
102
}
330
3B
100
AcDbScale
 70
     0
300
1'-0" = 1'-0"
140
12.0
141
12.0
290
     0
  0
VISUALSTYLE
  5
2F
102
{ACAD_REACTORS
330
2A
102
}
330
2A
100
AcDbVisualStyle
  2
2dWireframe
 70
     4
 71
     0
 72
     2
 73
     0
 90
        0
 40
-0.6
 41
-30.0
 62
     5
 63
     7
 74
     1
 91
        4
 64
     7
 65
   257
 75
     1
175
     1
 42
1.0
 92
        0
 66
   257
 43
1.0
 76
     1
 77
     6
 78
     2
 67
     7
 79
     5
170
     0
171
     0
290
     0
174
     0
 93
        1
 44
0.0
173
     0
291
     0
 45
0.0
1001
ACAD
1000
AcDbSavedByObjectVersion
1070
     0
  0
VISUALSTYLE
  5
31
102
{ACAD_REACTORS
330
2A
102
}
330
2A
100
AcDbVisualStyle
  2
3D Hidden
 70
     6
 71
     1
 72
     2
 73
     2
 90
        0
 40
-0.6
 41
-30.0
 62
     5
 63
     7
 74
     2
 91
        2
 64
     7
 65
   257
 75
     2
175
     1
 42
40.0
 92
        0
 66
   257
 43
1.0
 76
     1
 77
     6
 78
     2
 67
     7
 79
     3
170
     0
171
     0
290
     0
174
     0
 93
        1
 44
0.0
173
     0
291
     0
 45
0.0
1001
ACAD
1000
AcDbSavedByObjectVersion
1070
     0
  0
VISUALSTYLE
  5
30
102
{ACAD_REACTORS
330
2A
102
}
330
2A
100
AcDbVisualStyle
  2
3dWireframe
 70
     5
 71
     0
 72
     2
 73
     0
 90
        0
 40
-0.6
 41
-30.0
 62
     5
 63
     7
 74
     1
 91
        4
 64
     7
 65
   257
 75
     1
175
     1
 42
1.0
 92
        0
 66
   257
 43
1.0
 76
     1
 77
     6
 78
     2
 67
     7
 79
     5
170
     0
171
     0
290
     0
174
     0
 93
        1
 44
0.0
173
     0
291
     0
 45
0.0
1001
ACAD
1000
AcDbSavedByObjectVersion
1070
     0
  0
VISUALSTYLE
  5
32
102
{ACAD_REACTORS
330
2A
102
}
330
2A
100
AcDbVisualStyle
  2
Basic
 70
     7
 71
     1
 72
     0
 73
     1
 90
        0
 40
-0.6
 41
-30.0
 62
     5
 63
     7
 74
     0
 91
        4
 64
     7
 65
   257
 75
     1
175
     1
 42
1.0
 92
        8
 66
     7
 43
1.0
 76
     1
 77
     6
 78
     2
 67
     7
 79
     5
170
     0
171
     0
290
     0
174
     0
 93
        1
 44
0.0
173
     0
291
     1
 45
0.0
1001
ACAD
1000
AcDbSavedByObjectVersion
1070
     0
  0
VISUALSTYLE
  5
36
102
{ACAD_REACTORS
330
2A
102
}
330
2A
100
AcDbVisualStyle
  2
Brighten
 70
    12
 71
     2
 72
     2
 73
     0
 90
        0
 40
-0.6
 41
-30.0
 62
     5
 63
     7
 74
     1
 91
        4
 64
     7
 65
   257
 75
     1
175
     1
 42
1.0
 92
        8
 66
     7
 43
1.0
 76
     1
 77
     6
 78
     2
 67
     7
 79
     5
170
     0
171
     0
290
     0
174
     0
 93
        1
 44
50.0
173
     0
291
     1
 45
0.0
1001
ACAD
1000
AcDbSavedByObjectVersion
1070
     0
  0
VISUALSTYLE
  5
3A
102
{ACAD_REACTORS
330
2A
102
}
330
2A
100
AcDbVisualStyle
  2
ColorChange
 70
    16
 71
     2
 72
     2
 73
     3
 90
        0
 40
-0.6
 41
-30.0
 62
     5
 63
     8
 74
     1
 91
        4
 64
     7
 65
   257
 75
     1
175
     1
 42
1.0
 92
        8
 66
     8
 43
1.0
 76
     1
 77
     6
 78
     2
 67
     7
 79
     5
170
     0
171
     0
290
     0
174
     0
 93
        1
 44
0.0
173
     0
291
     1
 45
0.0
1001
ACAD
1000
AcDbSavedByObjectVersion
1070
     0
  0
VISUALSTYLE
  5
34
102
{ACAD_REACTORS
330
2A
102
}
330
2A
100
AcDbVisualStyle
  2
Conceptual
 70
     9
 71
     3
 72
     2
 73
     0
 90
        0
 40
-0.6
 41
-30.0
 62
     5
 63
     7
 74
     2
 91
        2
 64
     7
 65
   257
 75
     1
175
     1
 42
40.0
 92
        8
 66
     7
 43
1.0
 76
     1
 77
     6
 78
     2
 67
     7
 79
     3
170
     0
171
     0
290
     0
174
     0
 93
        1
 44
0.0
173
     0
291
     0
 45
0.0
1001
ACAD
1000
AcDbSavedByObjectVersion
1070
     0
  0
VISUALSTYLE
  5
35
102
{ACAD_REACTORS
330
2A
102
}
330
2A
100
AcDbVisualStyle
  2
Dim
 70
    11
 71
     2
 72
     2
 73
     0
 90
        0
 40
-0.6
 41
-30.0
 62
     5
 63
     7
 74
     1
 91
        4
 64
     7
 65
   257
 75
     1
175
     1
 42
1.0
 92
        8
 66
     7
 43
1.0
 76
     1
 77
     6
 78
     2
 67
     7
 79
     5
170
     0
171
     0
290
     0
174
     0
 93
        1
 44
-50.0
173
     0
291
     1
 45
0.0
1001
ACAD
1000
AcDbSavedByObjectVersion
1070
     0
  0
VISUALSTYLE
  5
39
102
{ACAD_REACTORS
330
2A
102
}
330
2A
100
AcDbVisualStyle
  2
Facepattern
 70
    15
 71
     2
 72
     2
 73
     0
 90
        0
 40
-0.6
 41
-30.0
 62
     5
 63
     7
 74
     1
 91
        4
 64
     7
 65
   257
 75
     1
175
     1
 42
1.0
 92
        8
 66
     7
 43
1.0
 76
     1
 77
     6
 78
     2
 67
     7
 79
     5
170
     0
171
     0
290
     0
174
     0
 93
        1
 44
0.0
173
     0
291
     1
 45
0.0
1001
ACAD
1000
AcDbSavedByObjectVersion
1070
     0
  0
VISUALSTYLE
  5
2B
102
{ACAD_REACTORS
330
2A
102
}
330
2A
100
AcDbVisualStyle
  2
Flat
 70
     0
 71
     2
 72
     1
 73
     1
 90
        2
 40
-0.6
 41
30.0
 62
     5
 63
     7
 74
     0
 91
        4
 64
     7
 65
   257
 75
     1
175
     1
 42
1.0
 92
        8
 66
     7
 43
1.0
 76
     1
 77
     6
 78
     2
 67
     7
 79
     5
170
     0
171
     0
290
     0
174
     0
 93
       13
 44
0.0
173
     0
291
     1
 45
0.0
1001
ACAD
1000
AcDbSavedByObjectVersion
1070
     0
  0
VISUALSTYLE
  5
2C
102
{ACAD_REACTORS
330
2A
102
}
330
2A
100
AcDbVisualStyle
  2
FlatWithEdges
 70
     1
 71
     2
 72
     1
 73
     1
 90
        2
 40
-0.6
 41
30.0
 62
     5
 63
     7
 74
     1
 91
        4
 64
     7
 65
   257
 75
     1
175
     1
 42
1.0
 92
        0
 66
   257
 43
1.0
 76
     1
 77
     6
 78
     2
 67
     7
 79
     5
170
     0
171
     0
290
     0
174
     0
 93
       13
 44
0.0
173
     0
291
     1
 45
0.0
1001
ACAD
1000
AcDbSavedByObjectVersion
1070
     0
  0
VISUALSTYLE
  5
2D
102
{ACAD_REACTORS
330
2A
102
}
330
2A
100
AcDbVisualStyle
  2
Gouraud
 70
     2
 71
     2
 72
     2
 73
     1
 90
        2
 40
-0.6
 41
30.0
 62
     5
 63
     7
 74
     0
 91
        4
 64
     7
 65
   257
 75
     1
175
     1
 42
1.0
 92
        0
 66
     7
 43
1.0
 76
     1
 77
     6
 78
     2
 67
     7
 79
     5
170
     0
171
     0
290
     0
174
     0
 93
       13
 44
0.0
173
     0
291
     1
 45
0.0
1001
ACAD
1000
AcDbSavedByObjectVersion
1070
     0
  0
VISUALSTYLE
  5
2E
102
{ACAD_REACTORS
330
2A
102
}
330
2A
100
AcDbVisualStyle
  2
GouraudWithEdges
 70
     3
 71
     2
 72
     2
 73
     1
 90
        2
 40
-0.6
 41
30.0
 62
     5
 63
     7
 74
     1
 91
        4
 64
     7
 65
   257
 75
     1
175
     1
 42
1.0
 92
        0
 66
   257
 43
1.0
 76
     1
 77
     6
 78
     2
 67
     7
 79
     5
170
     0
171
     0
290
     0
174
     0
 93
       13
 44
0.0
173
     0
291
     1
 45
0.0
1001
ACAD
1000
AcDbSavedByObjectVersion
1070
     0
  0
VISUALSTYLE
  5
38
102
{ACAD_REACTORS
330
2A
102
}
330
2A
100
AcDbVisualStyle
  2
Linepattern
 70
    14
 71
     2
 72
     2
 73
     0
 90
        0
 40
-0.6
 41
-30.0
 62
     5
 63
     7
 74
     1
 91
        4
 64
     7
 65
   257
 75
     7
175
     7
 42
1.0
 92
        8
 66
     7
 43
1.0
 76
     1
 77
     6
 78
     2
 67
     7
 79
     5
170
     0
171
     0
290
     0
174
     0
 93
        1
 44
0.0
173
     0
291
     1
 45
0.0
1001
ACAD
1000
AcDbSavedByObjectVersion
1070
     0
  0
VISUALSTYLE
  5
33
102
{ACAD_REACTORS
330
2A
102
}
330
2A
100
AcDbVisualStyle
  2
Realistic
 70
     8
 71
     2
 72
     2
 73
     0
 90
        0
 40
-0.6
 41
-30.0
 62
     5
 63
     7
 74
     1
 91
        0
 64
     7
 65
   257
 75
     1
175
     1
 42
1.0
 92
        8
 66
     8
 43
1.0
 76
     1
 77
     6
 78
     2
 67
     7
 79
     5
170
     0
171
     0
290
     0
174
     0
 93
       13
 44
0.0
173
     0
291
     0
 45
0.0
1001
ACAD
1000
AcDbSavedByObjectVersion
1070
     0
  0
VISUALSTYLE
  5
37
102
{ACAD_REACTORS
330
2A
102
}
330
2A
100
AcDbVisualStyle
  2
Thicken
 70
    13
 71
     2
 72
     2
 73
     0
 90
        0
 40
-0.6
 41
-30.0
 62
     5
 63
     7
 74
     1
 91
        4
 64
     7
 65
   257
 75
     1
175
     1
 42
1.0
 92
       12
 66
     7
 43
1.0
 76
     1
 77
     6
 78
     2
 67
     7
 79
     5
170
     0
171
     0
290
     0
174
     0
 93
        1
 44
0.0
173
     0
291
     1
 45
0.0
1001
ACAD
1000
AcDbSavedByObjectVersion
1070
     0
  0
DICTIONARYVAR
  5
1E1
102
{ACAD_REACTORS
330
1E0
102
}
330
1E0
100
DictionaryVariables
280
     0
  1
1:1
  0
DICTIONARYVAR
  5
1E5
102
{ACAD_REACTORS
330
1E0
102
}
330
1E0
100
DictionaryVariables
280
     0
  1
80.000000
  0
DICTIONARYVAR
  5
1E4
102
{ACAD_REACTORS
330
1E0
102
}
330
1E0
100
DictionaryVariables
280
     0
  1
5.000000
  0
ENDSEC
  0
EOF
