  0
SECTION
  2
HEADER
  9
$ACADVER
  1
AC1015
  9
$ACADMAINTVER
 70
     6
  9
$DWGCODEPAGE
  3
ANSI_932
  9
$INSBASE
 10
0.0
 20
0.0
 30
0.0
  9
$EXTMIN
 10
21.879913
 20
9.534927
 30
0.0
  9
$EXTMAX
 10
212.424759
 20
105.691956
 30
0.0
  9
$LIMMIN
 10
0.0
 20
0.0
  9
$LIMMAX
 10
12.0
 20
9.0
  9
$ORTHOMODE
 70
     0
  9
$REGENMODE
 70
     1
  9
$FILLMODE
 70
     1
  9
$QTEXTMODE
 70
     0
  9
$MIRRTEXT
 70
     1
  9
$LTSCALE
 40
3.175747
  9
$ATTMODE
 70
     1
  9
$TEXTSIZE
 40
3.2
  9
$TRACEWID
 40
1.0
  9
$TEXTSTYLE
  7
Standard
  9
$CLAYER
  8
0
  9
$CELTYPE
  6
ByLayer
  9
$CECOLOR
 62
   256
  9
$CELTSCALE
 40
1.0
  9
$DISPSILH
 70
     0
  9
$DIMSCALE
 40
1.0
  9
$DIMASZ
 40
2.5
  9
$DIMEXO
 40
0.625
  9
$DIMDLI
 40
3.75
  9
$DIMRND
 40
0.0
  9
$DIMDLE
 40
0.0
  9
$DIMEXE
 40
1.25
  9
$DIMTP
 40
0.0
  9
$DIMTM
 40
0.0
  9
$DIMTXT
 40
2.5
  9
$DIMCEN
 40
0.09
  9
$DIMTSZ
 40
0.0
  9
$DIMTOL
 70
     0
  9
$DIMLIM
 70
     0
  9
$DIMTIH
 70
     0
  9
$DIMTOH
 70
     0
  9
$DIMSE1
 70
     0
  9
$DIMSE2
 70
     0
  9
$DIMTAD
 70
     0
  9
$DIMZIN
 70
     8
  9
$DIMBLK
  1

  9
$DIMASO
 70
     1
  9
$DIMSHO
 70
     0
  9
$DIMPOST
  1

  9
$DIMAPOST
  1

  9
$DIMALT
 70
     0
  9
$DIMALTD
 70
     3
  9
$DIMALTF
 40
0.03937
  9
$DIMLFAC
 40
1.0
  9
$DIMTOFL
 70
     1
  9
$DIMTVP
 40
0.0
  9
$DIMTIX
 70
     0
  9
$DIMSOXD
 70
     0
  9
$DIMSAH
 70
     0
  9
$DIMBLK1
  1

  9
$DIMBLK2
  1

  9
$DIMSTYLE
  2
ISO-25
  9
$DIMCLRD
 70
     0
  9
$DIMCLRE
 70
     0
  9
$DIMCLRT
 70
     0
  9
$DIMTFAC
 40
1.0
  9
$DIMGAP
 40
0.625
  9
$DIMJUST
 70
     0
  9
$DIMSD1
 70
     0
  9
$DIMSD2
 70
     0
  9
$DIMTOLJ
 70
     0
  9
$DIMTZIN
 70
     8
  9
$DIMALTZ
 70
     0
  9
$DIMALTTZ
 70
     0
  9
$DIMUPT
 70
     0
  9
$DIMDEC
 70
     2
  9
$DIMTDEC
 70
     2
  9
$DIMALTU
 70
     2
  9
$DIMALTTD
 70
     3
  9
$DIMTXSTY
  7
Standard
  9
$DIMAUNIT
 70
     0
  9
$DIMADEC
 70
     0
  9
$DIMALTRND
 40
0.0
  9
$DIMAZIN
 70
     0
  9
$DIMDSEP
 70
    44
  9
$DIMATFIT
 70
     3
  9
$DIMFRAC
 70
     0
  9
$DIMLDRBLK
  1

  9
$DIMLUNIT
 70
     2
  9
$DIMLWD
 70
    -2
  9
$DIMLWE
 70
    -2
  9
$DIMTMOVE
 70
     0
  9
$LUNITS
 70
     2
  9
$LUPREC
 70
     4
  9
$SKETCHINC
 40
1.0
  9
$FILLETRAD
 40
0.0
  9
$AUNITS
 70
     0
  9
$AUPREC
 70
     0
  9
$MENU
  1
.
  9
$ELEVATION
 40
0.0
  9
$PELEVATION
 40
0.0
  9
$THICKNESS
 40
0.0
  9
$LIMCHECK
 70
     0
  9
$CHAMFERA
 40
10.0
  9
$CHAMFERB
 40
10.0
  9
$CHAMFERC
 40
20.0
  9
$CHAMFERD
 40
0.0
  9
$SKPOLY
 70
     0
  9
$TDCREATE
 40
2454621.415715602
  9
$TDUCREATE
 40
2454621.040715602
  9
$TDUPDATE
 40
2454621.415715613
  9
$TDUUPDATE
 40
2454621.040715613
  9
$TDINDWG
 40
0.0000000116
  9
$TDUSRTIMER
 40
0.0000000116
  9
$USRTIMER
 70
     1
  9
$ANGBASE
 50
0.0
  9
$ANGDIR
 70
     0
  9
$PDMODE
 70
     0
  9
$PDSIZE
 40
0.0
  9
$PLINEWID
 40
0.0
  9
$SPLFRAME
 70
     0
  9
$SPLINETYPE
 70
     6
  9
$SPLINESEGS
 70
     8
  9
$HANDSEED
  5
211
  9
$SURFTAB1
 70
     6
  9
$SURFTAB2
 70
     6
  9
$SURFTYPE
 70
     6
  9
$SURFU
 70
     6
  9
$SURFV
 70
     6
  9
$UCSBASE
  2

  9
$UCSNAME
  2

  9
$UCSORG
 10
0.0
 20
0.0
 30
0.0
  9
$UCSXDIR
 10
1.0
 20
0.0
 30
0.0
  9
$UCSYDIR
 10
0.0
 20
1.0
 30
0.0
  9
$UCSORTHOREF
  2

  9
$UCSORTHOVIEW
 70
     0
  9
$UCSORGTOP
 10
0.0
 20
0.0
 30
0.0
  9
$UCSORGBOTTOM
 10
0.0
 20
0.0
 30
0.0
  9
$UCSORGLEFT
 10
0.0
 20
0.0
 30
0.0
  9
$UCSORGRIGHT
 10
0.0
 20
0.0
 30
0.0
  9
$UCSORGFRONT
 10
0.0
 20
0.0
 30
0.0
  9
$UCSORGBACK
 10
0.0
 20
0.0
 30
0.0
  9
$PUCSBASE
  2

  9
$PUCSNAME
  2

  9
$PUCSORG
 10
0.0
 20
0.0
 30
0.0
  9
$PUCSXDIR
 10
1.0
 20
0.0
 30
0.0
  9
$PUCSYDIR
 10
0.0
 20
1.0
 30
0.0
  9
$PUCSORTHOREF
  2

  9
$PUCSORTHOVIEW
 70
     0
  9
$PUCSORGTOP
 10
0.0
 20
0.0
 30
0.0
  9
$PUCSORGBOTTOM
 10
0.0
 20
0.0
 30
0.0
  9
$PUCSORGLEFT
 10
0.0
 20
0.0
 30
0.0
  9
$PUCSORGRIGHT
 10
0.0
 20
0.0
 30
0.0
  9
$PUCSORGFRONT
 10
0.0
 20
0.0
 30
0.0
  9
$PUCSORGBACK
 10
0.0
 20
0.0
 30
0.0
  9
$USERI1
 70
     0
  9
$USERI2
 70
     0
  9
$USERI3
 70
     0
  9
$USERI4
 70
     0
  9
$USERI5
 70
     0
  9
$USERR1
 40
0.0
  9
$USERR2
 40
0.0
  9
$USERR3
 40
0.0
  9
$USERR4
 40
0.0
  9
$USERR5
 40
0.0
  9
$WORLDVIEW
 70
     1
  9
$SHADEDGE
 70
     3
  9
$SHADEDIF
 70
    70
  9
$TILEMODE
 70
     1
  9
$MAXACTVP
 70
    64
  9
$PINSBASE
 10
0.0
 20
0.0
 30
0.0
  9
$PLIMCHECK
 70
     0
  9
$PEXTMIN
 10
1.000000E+20
 20
1.000000E+20
 30
0.0
  9
$PEXTMAX
 10
-1.000000E+20
 20
-1.000000E+20
 30
0.0
  9
$PLIMMIN
 10
0.0
 20
0.0
  9
$PLIMMAX
 10
12.0
 20
9.0
  9
$UNITMODE
 70
     0
  9
$VISRETAIN
 70
     1
  9
$PLINEGEN
 70
     0
  9
$PSLTSCALE
 70
     1
  9
$TREEDEPTH
 70
  3020
  9
$CMLSTYLE
  2
Standard
  9
$CMLJUST
 70
     0
  9
$CMLSCALE
 40
20.0
  9
$PROXYGRAPHICS
 70
     1
  9
$MEASUREMENT
 70
     1
  9
$CELWEIGHT
370
    -1
  9
$ENDCAPS
280
     0
  9
$JOINSTYLE
280
     0
  9
$LWDISPLAY
290
     0
  9
$INSUNITS
 70
     4
  9
$HYPERLINKBASE
  1

  9
$STYLESHEET
  1

  9
$XEDIT
290
     1
  9
$CEPSNTYPE
380
     0
  9
$PSTYLEMODE
290
     1
  9
$FINGERPRINTGUID
  2
{9F557801-A56E-425A-AB09-94947AB98B24}
  9
$VERSIONGUID
  2
{FAEB1C32-E019-11D5-929B-00C0DF256EC4}
  9
$EXTNAMES
290
     1
  9
$PSVPSCALE
 40
0.0
  9
$OLESTARTUP
290
     0
  0
ENDSEC
  0
SECTION
  2
CLASSES
  0
CLASS
  1
ACDBDICTIONARYWDFLT
  2
AcDbDictionaryWithDefault
  3
ObjectDBX Classes
 90
        0
280
     0
281
     0
  0
CLASS
  1
VISUALSTYLE
  2
AcDbVisualStyle
  3
ObjectDBX Classes
 90
     4095
280
     0
281
     0
  0
CLASS
  1
SCALE
  2
AcDbScale
  3
ObjectDBX Classes
 90
     1153
280
     0
281
     0
  0
CLASS
  1
DICTIONARYVAR
  2
AcDbDictionaryVar
  3
ObjectDBX Classes
 90
        0
280
     0
281
     0
  0
CLASS
  1
ACDBPLACEHOLDER
  2
AcDbPlaceHolder
  3
ObjectDBX Classes
 90
        0
280
     0
281
     0
  0
CLASS
  1
LAYOUT
  2
AcDbLayout
  3
ObjectDBX Classes
 90
        0
280
     0
281
     0
  0
ENDSEC
  0
SECTION
  2
TABLES
  0
TABLE
  2
VPORT
  5
8
330
0
100
AcDbSymbolTable
 70
     1
  0
VPORT
  5
29
330
8
100
AcDbSymbolTableRecord
100
AcDbViewportTableRecord
  2
*Active
 70
     0
 10
0.0
 20
0.0
 11
1.0
 21
1.0
 12
117.152336
 22
57.613441
 13
0.0
 23
0.0
 14
1.0
 24
1.0
 15
0.0
 25
0.0
 16
0.0
 26
0.0
 36
1.0
 17
0.0
 27
0.0
 37
0.0
 40
113.789191
 41
1.691288
 42
50.0
 43
0.0
 44
0.0
 50
0.0
 51
0.0
 71
     0
 72
   100
 73
     1
 74
     3
 75
     0
 76
     0
 77
     0
 78
     0
281
     0
 65
     1
110
0.0
120
0.0
130
0.0
111
1.0
121
0.0
131
0.0
112
0.0
122
1.0
132
0.0
 79
     0
146
0.0
  0
ENDTAB
  0
TABLE
  2
LTYPE
  5
5
330
0
100
AcDbSymbolTable
 70
     5
  0
LTYPE
  5
14
330
5
100
AcDbSymbolTableRecord
100
AcDbLinetypeTableRecord
  2
ByBlock
 70
     0
  3

 72
    65
 73
     0
 40
0.0
  0
LTYPE
  5
15
330
5
100
AcDbSymbolTableRecord
100
AcDbLinetypeTableRecord
  2
ByLayer
 70
     0
  3

 72
    65
 73
     0
 40
0.0
  0
LTYPE
  5
16
330
5
100
AcDbSymbolTableRecord
100
AcDbLinetypeTableRecord
  2
Continuous
 70
     0
  3
Solid line
 72
    65
 73
     0
 40
0.0
  0
LTYPE
  5
5D
330
5
100
AcDbSymbolTableRecord
100
AcDbLinetypeTableRecord
  2
DASHED
 70
     0
  3
DASHED
 72
    83
 73
     2
 40
0.75
 49
0.5
 74
     0
 49
-0.25
 74
     0
  0
LTYPE
  5
5E
330
5
100
AcDbSymbolTableRecord
100
AcDbLinetypeTableRecord
  2
HIDDEN
 70
     0
  3
HIDDEN
 72
    83
 73
     2
 40
0.375
 49
0.25
 74
     0
 49
-0.125
 74
     0
  0
LTYPE
  5
5F
330
5
100
AcDbSymbolTableRecord
100
AcDbLinetypeTableRecord
  2
CENTER
 70
     0
  3
CENTER
 72
    83
 73
     4
 40
2.0
 49
1.25
 74
     0
 49
-0.25
 74
     0
 49
0.25
 74
     0
 49
-0.25
 74
     0
  0
LTYPE
  5
60
330
5
100
AcDbSymbolTableRecord
100
AcDbLinetypeTableRecord
  2
PHANTOM
 70
     0
  3
PHANTOM
 72
    83
 73
     6
 40
2.5
 49
1.25
 74
     0
 49
-0.25
 74
     0
 49
0.25
 74
     0
 49
-0.25
 74
     0
 49
0.25
 74
     0
 49
-0.25
 74
     0
  0
ENDTAB
  0
TABLE
  2
LAYER
  5
2
330
0
100
AcDbSymbolTable
 70
     2
  0
LAYER
  5
10
330
2
100
AcDbSymbolTableRecord
100
AcDbLayerTableRecord
  2
0
 70
     0
 62
     7
  6
Continuous
370
    -3
390
F
  0
LAYER
  5
61
330
2
100
AcDbSymbolTableRecord
100
AcDbLayerTableRecord
  2
001
 70
     0
 62
     7
  6
Continuous
370
    -3
390
F
  0
ENDTAB
  0
TABLE
  2
STYLE
  5
3
330
0
100
AcDbSymbolTable
 70
     2
  0
STYLE
  5
11
330
3
100
AcDbSymbolTableRecord
100
AcDbTextStyleTableRecord
  2
Standard
 70
     0
 40
0.0
 41
1.0
 50
0.0
 71
     0
 42
0.2
  3
TXT
  4
BIGFONT
  0
STYLE
  5
62
330
3
100
AcDbSymbolTableRecord
100
AcDbTextStyleTableRecord
  2
TATEGAKI
 70
     4
 40
1.0
 41
1.0
 50
0.0
 71
     0
 42
0.2
  3
TXT
  4
BIGFONT
  0
ENDTAB
  0
TABLE
  2
VIEW
  5
6
330
0
100
AcDbSymbolTable
 70
     0
  0
ENDTAB
  0
TABLE
  2
UCS
  5
7
330
0
100
AcDbSymbolTable
 70
     0
  0
ENDTAB
  0
TABLE
  2
APPID
  5
9
330
0
100
AcDbSymbolTable
 70
     1
  0
APPID
  5
12
330
9
100
AcDbSymbolTableRecord
100
AcDbRegAppTableRecord
  2
ACAD
 70
     0
  0
ENDTAB
  0
TABLE
  2
DIMSTYLE
  5
A
330
0
100
AcDbSymbolTable
 70
     2
100
AcDbDimStyleTable
  0
DIMSTYLE
105
27
330
A
100
AcDbSymbolTableRecord
100
AcDbDimStyleTableRecord
  2
ISO-25
 70
     0
 41
2.5
 42
0.625
 43
3.75
 44
1.25
 73
     0
 74
     0
 77
     1
 78
     8
140
2.5
141
2.5
143
0.03937
147
0.625
171
     3
172
     1
271
     2
272
     2
274
     3
278
    44
283
     0
284
     8
340
11
  0
DIMSTYLE
105
63
102
{ACAD_REACTORS
330
E9
330
EA
330
F7
330
F8
330
F9
330
FA
102
}
330
A
100
AcDbSymbolTableRecord
100
AcDbDimStyleTableRecord
  2
Standard
 70
     0
 41
1.5
 42
0.0
 44
2.75
 73
     0
 74
     0
 77
     1
 78
     8
 79
     2
140
4.0
146
0.8
147
1.0
172
     1
179
     1
271
     1
340
11
  0
ENDTAB
  0
TABLE
  2
BLOCK_RECORD
  5
1
330
0
100
AcDbSymbolTable
 70
     7
  0
BLOCK_RECORD
  5
1F
330
1
100
AcDbSymbolTableRecord
100
AcDbBlockTableRecord
  2
*Model_Space
340
22
  0
BLOCK_RECORD
  5
1B
330
1
100
AcDbSymbolTableRecord
100
AcDbBlockTableRecord
  2
*Paper_Space
340
1E
  0
BLOCK_RECORD
  5
23
330
1
100
AcDbSymbolTableRecord
100
AcDbBlockTableRecord
  2
*Paper_Space0
340
26
  0
BLOCK_RECORD
  5
64
330
1
100
AcDbSymbolTableRecord
100
AcDbBlockTableRecord
  2
*D1
340
0
  0
BLOCK_RECORD
  5
78
330
1
100
AcDbSymbolTableRecord
100
AcDbBlockTableRecord
  2
*D2
340
0
  0
BLOCK_RECORD
  5
8C
330
1
100
AcDbSymbolTableRecord
100
AcDbBlockTableRecord
  2
*D3
340
0
  0
BLOCK_RECORD
  5
A1
330
1
100
AcDbSymbolTableRecord
100
AcDbBlockTableRecord
  2
*D4
340
0
  0
BLOCK_RECORD
  5
B5
330
1
100
AcDbSymbolTableRecord
100
AcDbBlockTableRecord
  2
*D5
340
0
  0
BLOCK_RECORD
  5
C9
330
1
100
AcDbSymbolTableRecord
100
AcDbBlockTableRecord
  2
*D6
340
0
  0
ENDTAB
  0
ENDSEC
  0
SECTION
  2
BLOCKS
  0
BLOCK
  5
20
330
1F
100
AcDbEntity
  8
0
100
AcDbBlockBegin
  2
*Model_Space
 70
     0
 10
0.0
 20
0.0
 30
0.0
  3
*Model_Space
  1

  0
ENDBLK
  5
21
330
1F
100
AcDbEntity
  8
0
100
AcDbBlockEnd
  0
BLOCK
  5
1C
330
1B
100
AcDbEntity
 67
     1
  8
0
100
AcDbBlockBegin
  2
*Paper_Space
 70
     0
 10
0.0
 20
0.0
 30
0.0
  3
*Paper_Space
  1

  0
ENDBLK
  5
1D
330
1B
100
AcDbEntity
 67
     1
  8
0
100
AcDbBlockEnd
  0
BLOCK
  5
24
330
23
100
AcDbEntity
  8
0
100
AcDbBlockBegin
  2
*Paper_Space0
 70
     0
 10
0.0
 20
0.0
 30
0.0
  3
*Paper_Space0
  1

  0
ENDBLK
  5
25
330
23
100
AcDbEntity
  8
0
100
AcDbBlockEnd
  0
BLOCK
  5
65
330
64
100
AcDbEntity
  8
0
100
AcDbBlockBegin
  2
*D1
 70
     1
 10
0.0
 20
0.0
 30
0.0
  3
*D1
  1

  0
LINE
  5
67
330
64
100
AcDbEntity
  8
001
370
     9
100
AcDbLine
 10
83.043525
 20
51.713484
 30
0.0
 11
83.043525
 21
19.640448
 31
0.0
  0
LINE
  5
68
330
64
100
AcDbEntity
  8
001
370
     9
100
AcDbLine
 10
53.043525
 20
63.963484
 30
0.0
 11
53.043525
 21
19.640448
 31
0.0
  0
LINE
  5
69
330
64
100
AcDbEntity
  8
001
370
     9
100
AcDbLine
 10
83.043525
 20
22.390448
 30
0.0
 11
53.043525
 21
22.390448
 31
0.0
  0
POLYLINE
  5
6A
330
64
100
AcDbEntity
  8
001
370
     9
100
AcDb2dPolyline
 66
     1
 10
0.0
 20
0.0
 30
0.0
  0
VERTEX
  5
6C
330
6A
100
AcDbEntity
  8
001
370
     9
100
AcDbVertex
100
AcDb2dVertex
 10
81.543525
 20
22.792371
 30
0.0
  0
VERTEX
  5
6D
330
6A
100
AcDbEntity
  8
001
370
     9
100
AcDbVertex
100
AcDb2dVertex
 10
83.043525
 20
22.390448
 30
0.0
  0
VERTEX
  5
6E
330
6A
100
AcDbEntity
  8
001
370
     9
100
AcDbVertex
100
AcDb2dVertex
 10
81.543525
 20
21.988524
 30
0.0
  0
SEQEND
  5
6B
330
6A
100
AcDbEntity
  8
001
370
     9
  0
POLYLINE
  5
6F
330
64
100
AcDbEntity
  8
001
370
     9
100
AcDb2dPolyline
 66
     1
 10
0.0
 20
0.0
 30
0.0
  0
VERTEX
  5
71
330
6F
100
AcDbEntity
  8
001
370
     9
100
AcDbVertex
100
AcDb2dVertex
 10
54.543525
 20
21.988524
 30
0.0
  0
VERTEX
  5
72
330
6F
100
AcDbEntity
  8
001
370
     9
100
AcDbVertex
100
AcDb2dVertex
 10
53.043525
 20
22.390448
 30
0.0
  0
VERTEX
  5
73
330
6F
100
AcDbEntity
  8
001
370
     9
100
AcDbVertex
100
AcDb2dVertex
 10
54.543525
 20
22.792371
 30
0.0
  0
SEQEND
  5
70
330
6F
100
AcDbEntity
  8
001
370
     9
  0
TEXT
  5
74
330
64
100
AcDbEntity
  8
001
370
    30
100
AcDbText
 10
64.043525
 20
23.390448
 30
0.0
 40
4.0
  1
３０
 41
0.833333
100
AcDbText
  0
POINT
  5
75
330
64
100
AcDbEntity
  8
001
370
     9
100
AcDbPoint
 10
83.043525
 20
51.713484
 30
0.0
  0
POINT
  5
76
330
64
100
AcDbEntity
  8
001
370
     9
100
AcDbPoint
 10
53.043525
 20
63.963484
 30
0.0
  0
POINT
  5
77
330
64
100
AcDbEntity
  8
001
370
     9
100
AcDbPoint
 10
53.043525
 20
22.390448
 30
0.0
  0
ENDBLK
  5
66
330
64
100
AcDbEntity
  8
0
100
AcDbBlockEnd
  0
BLOCK
  5
79
330
78
100
AcDbEntity
  8
0
100
AcDbBlockBegin
  2
*D2
 70
     1
 10
0.0
 20
0.0
 30
0.0
  3
*D2
  1

  0
LINE
  5
7B
330
78
100
AcDbEntity
  8
001
370
     9
100
AcDbLine
 10
183.043525
 20
55.963484
 30
0.0
 11
183.043525
 21
9.534927
 31
0.0
  0
LINE
  5
7C
330
78
100
AcDbEntity
  8
001
370
     9
100
AcDbLine
 10
53.043525
 20
22.390448
 30
0.0
 11
53.043525
 21
9.534927
 31
0.0
  0
LINE
  5
7D
330
78
100
AcDbEntity
  8
001
370
     9
100
AcDbLine
 10
183.043525
 20
12.284927
 30
0.0
 11
53.043525
 21
12.284927
 31
0.0
  0
POLYLINE
  5
7E
330
78
100
AcDbEntity
  8
001
370
     9
100
AcDb2dPolyline
 66
     1
 10
0.0
 20
0.0
 30
0.0
  0
VERTEX
  5
80
330
7E
100
AcDbEntity
  8
001
370
     9
100
AcDbVertex
100
AcDb2dVertex
 10
181.543525
 20
12.686851
 30
0.0
  0
VERTEX
  5
81
330
7E
100
AcDbEntity
  8
001
370
     9
100
AcDbVertex
100
AcDb2dVertex
 10
183.043525
 20
12.284927
 30
0.0
  0
VERTEX
  5
82
330
7E
100
AcDbEntity
  8
001
370
     9
100
AcDbVertex
100
AcDb2dVertex
 10
181.543525
 20
11.883003
 30
0.0
  0
SEQEND
  5
7F
330
7E
100
AcDbEntity
  8
001
370
     9
  0
POLYLINE
  5
83
330
78
100
AcDbEntity
  8
001
370
     9
100
AcDb2dPolyline
 66
     1
 10
0.0
 20
0.0
 30
0.0
  0
VERTEX
  5
85
330
83
100
AcDbEntity
  8
001
370
     9
100
AcDbVertex
100
AcDb2dVertex
 10
54.543525
 20
11.883003
 30
0.0
  0
VERTEX
  5
86
330
83
100
AcDbEntity
  8
001
370
     9
100
AcDbVertex
100
AcDb2dVertex
 10
53.043525
 20
12.284927
 30
0.0
  0
VERTEX
  5
87
330
83
100
AcDbEntity
  8
001
370
     9
100
AcDbVertex
100
AcDb2dVertex
 10
54.543525
 20
12.686851
 30
0.0
  0
SEQEND
  5
84
330
83
100
AcDbEntity
  8
001
370
     9
  0
TEXT
  5
88
330
78
100
AcDbEntity
  8
001
370
    30
100
AcDbText
 10
112.043525
 20
13.284927
 30
0.0
 40
4.0
  1
１３０
 41
0.833333
100
AcDbText
  0
POINT
  5
89
330
78
100
AcDbEntity
  8
001
370
     9
100
AcDbPoint
 10
183.043525
 20
55.963484
 30
0.0
  0
POINT
  5
8A
330
78
100
AcDbEntity
  8
001
370
     9
100
AcDbPoint
 10
53.043525
 20
22.390448
 30
0.0
  0
POINT
  5
8B
330
78
100
AcDbEntity
  8
001
370
     9
100
AcDbPoint
 10
53.043525
 20
12.284927
 30
0.0
  0
ENDBLK
  5
7A
330
78
100
AcDbEntity
  8
0
100
AcDbBlockEnd
  0
BLOCK
  5
8D
330
8C
100
AcDbEntity
  8
0
100
AcDbBlockBegin
  2
*D3
 70
     1
 10
0.0
 20
0.0
 30
0.0
  3
*D3
  1

  0
LINE
  5
8F
330
8C
100
AcDbEntity
  8
001
370
     9
100
AcDbLine
 10
61.911653
 20
51.298484
 30
0.0
 11
61.911653
 21
35.976027
 31
0.0
  0
LINE
  5
90
330
8C
100
AcDbEntity
  8
001
370
     9
100
AcDbLine
 10
53.043525
 20
38.726027
 30
0.0
 11
61.911653
 21
38.726027
 31
0.0
  0
POLYLINE
  5
91
330
8C
100
AcDbEntity
  8
001
370
     9
100
AcDb2dPolyline
 66
     1
 10
0.0
 20
0.0
 30
0.0
  0
VERTEX
  5
93
330
91
100
AcDbEntity
  8
001
370
     9
100
AcDbVertex
100
AcDb2dVertex
 10
51.543525
 20
39.12795
 30
0.0
  0
VERTEX
  5
94
330
91
100
AcDbEntity
  8
001
370
     9
100
AcDbVertex
100
AcDb2dVertex
 10
53.043525
 20
38.726027
 30
0.0
  0
VERTEX
  5
95
330
91
100
AcDbEntity
  8
001
370
     9
100
AcDbVertex
100
AcDb2dVertex
 10
51.543525
 20
38.324103
 30
0.0
  0
SEQEND
  5
92
330
91
100
AcDbEntity
  8
001
370
     9
  0
POLYLINE
  5
96
330
8C
100
AcDbEntity
  8
001
370
     9
100
AcDb2dPolyline
 66
     1
 10
0.0
 20
0.0
 30
0.0
  0
VERTEX
  5
98
330
96
100
AcDbEntity
  8
001
370
     9
100
AcDbVertex
100
AcDb2dVertex
 10
63.411653
 20
38.324103
 30
0.0
  0
VERTEX
  5
99
330
96
100
AcDbEntity
  8
001
370
     9
100
AcDbVertex
100
AcDb2dVertex
 10
61.911653
 20
38.726027
 30
0.0
  0
VERTEX
  5
9A
330
96
100
AcDbEntity
  8
001
370
     9
100
AcDbVertex
100
AcDb2dVertex
 10
63.411653
 20
39.12795
 30
0.0
  0
SEQEND
  5
97
330
96
100
AcDbEntity
  8
001
370
     9
  0
TEXT
  5
9B
330
8C
100
AcDbEntity
  8
001
370
    30
100
AcDbText
 10
29.543525
 20
39.726027
 30
0.0
 40
4.0
  1
（８．９）
 41
0.833333
100
AcDbText
  0
POINT
  5
9C
330
8C
100
AcDbEntity
  8
001
370
     9
100
AcDbPoint
 10
53.043525
 20
22.390448
 30
0.0
  0
POINT
  5
9D
330
8C
100
AcDbEntity
  8
001
370
     9
100
AcDbPoint
 10
61.911653
 20
35.976027
 30
0.0
  0
POINT
  5
9E
330
8C
100
AcDbEntity
  8
001
370
     9
100
AcDbPoint
 10
61.911653
 20
38.726027
 30
0.0
  0
LINE
  5
9F
330
8C
100
AcDbEntity
  8
001
370
     9
100
AcDbLine
 10
53.043525
 20
38.726027
 30
0.0
 11
26.543525
 21
38.726027
 31
0.0
  0
LINE
  5
A0
330
8C
100
AcDbEntity
  8
001
370
     9
100
AcDbLine
 10
61.911653
 20
38.726027
 30
0.0
 11
64.411653
 21
38.726027
 31
0.0
  0
ENDBLK
  5
8E
330
8C
100
AcDbEntity
  8
0
100
AcDbBlockEnd
  0
BLOCK
  5
A2
330
A1
100
AcDbEntity
  8
0
100
AcDbBlockBegin
  2
*D4
 70
     1
 10
0.0
 20
0.0
 30
0.0
  3
*D4
  1

  0
LINE
  5
A4
330
A1
100
AcDbEntity
  8
001
370
     9
100
AcDbLine
 10
61.795823
 20
51.463907
 30
0.0
 11
75.396686
 21
32.039863
 31
0.0
  0
ARC
  5
A5
330
A1
100
AcDbEntity
  8
001
370
     9
100
AcDbCircle
 10
53.043525
 20
63.963484
 30
0.0
 40
36.22154614404083
100
AcDbArc
 50
270.0
 51
305.0
  0
POLYLINE
  5
A6
330
A1
100
AcDbEntity
  8
001
370
     9
100
AcDb2dPolyline
 66
     1
 10
0.0
 20
0.0
 30
0.0
  0
VERTEX
  5
A8
330
A6
100
AcDbEntity
  8
001
370
     9
100
AcDbVertex
100
AcDb2dVertex
 10
72.349404
 20
33.79173
 30
0.0
  0
VERTEX
  5
A9
330
A6
100
AcDbEntity
  8
001
370
     9
100
AcDbVertex
100
AcDb2dVertex
 10
73.81935
 20
34.292531
 30
0.0
  0
VERTEX
  5
AA
330
A6
100
AcDbEntity
  8
001
370
     9
100
AcDbVertex
100
AcDb2dVertex
 10
72.79674
 20
33.123851
 30
0.0
  0
SEQEND
  5
A7
330
A6
100
AcDbEntity
  8
001
370
     9
  0
POLYLINE
  5
AB
330
A1
100
AcDbEntity
  8
001
370
     9
100
AcDb2dPolyline
 66
     1
 10
0.0
 20
0.0
 30
0.0
  0
VERTEX
  5
AD
330
AB
100
AcDbEntity
  8
001
370
     9
100
AcDbVertex
100
AcDb2dVertex
 10
54.551525
 20
27.371157
 30
0.0
  0
VERTEX
  5
AE
330
AB
100
AcDbEntity
  8
001
370
     9
100
AcDbVertex
100
AcDb2dVertex
 10
53.043525
 20
27.741938
 30
0.0
  0
VERTEX
  5
AF
330
AB
100
AcDbEntity
  8
001
370
     9
100
AcDbVertex
100
AcDb2dVertex
 10
54.534882
 20
28.174832
 30
0.0
  0
SEQEND
  5
AC
330
AB
100
AcDbEntity
  8
001
370
     9
  0
TEXT
  5
B0
330
A1
100
AcDbEntity
  8
001
370
    30
100
AcDbText
 10
57.912546
 20
28.567864
 30
0.0
 40
4.0
  1
３５%%d
 50
17.5
 41
0.978261
100
AcDbText
  0
POINT
  5
B1
330
A1
100
AcDbEntity
  8
001
370
     9
100
AcDbPoint
 10
61.795823
 20
51.463907
 30
0.0
  0
POINT
  5
B2
330
A1
100
AcDbEntity
  8
001
370
     9
100
AcDbPoint
 10
53.043525
 20
63.963484
 30
0.0
  0
POINT
  5
B3
330
A1
100
AcDbEntity
  8
001
370
     9
100
AcDbPoint
 10
53.043525
 20
63.963484
 30
0.0
  0
POINT
  5
B4
330
A1
100
AcDbEntity
  8
001
370
     9
100
AcDbPoint
 10
53.043525
 20
30.491938
 30
0.0
  0
ENDBLK
  5
A3
330
A1
100
AcDbEntity
  8
0
100
AcDbBlockEnd
  0
BLOCK
  5
B6
330
B5
100
AcDbEntity
  8
0
100
AcDbBlockBegin
  2
*D5
 70
     1
 10
0.0
 20
0.0
 30
0.0
  3
*D5
  1

  0
LINE
  5
B8
330
B5
100
AcDbEntity
  8
001
370
     9
100
AcDbLine
 10
179.043525
 20
77.963484
 30
0.0
 11
212.424763
 21
77.963484
 31
0.0
  0
LINE
  5
B9
330
B5
100
AcDbEntity
  8
001
370
     9
100
AcDbLine
 10
179.043525
 20
57.963484
 30
0.0
 11
212.424763
 21
57.963484
 31
0.0
  0
LINE
  5
BA
330
B5
100
AcDbEntity
  8
001
370
     9
100
AcDbLine
 10
209.674763
 20
77.963484
 30
0.0
 11
209.674763
 21
57.963484
 31
0.0
  0
POLYLINE
  5
BB
330
B5
100
AcDbEntity
  8
001
370
     9
100
AcDb2dPolyline
 66
     1
 10
0.0
 20
0.0
 30
0.0
  0
VERTEX
  5
BD
330
BB
100
AcDbEntity
  8
001
370
     9
100
AcDbVertex
100
AcDb2dVertex
 10
209.272839
 20
76.463484
 30
0.0
  0
VERTEX
  5
BE
330
BB
100
AcDbEntity
  8
001
370
     9
100
AcDbVertex
100
AcDb2dVertex
 10
209.674763
 20
77.963484
 30
0.0
  0
VERTEX
  5
BF
330
BB
100
AcDbEntity
  8
001
370
     9
100
AcDbVertex
100
AcDb2dVertex
 10
210.076687
 20
76.463484
 30
0.0
  0
SEQEND
  5
BC
330
BB
100
AcDbEntity
  8
001
370
     9
  0
POLYLINE
  5
C0
330
B5
100
AcDbEntity
  8
001
370
     9
100
AcDb2dPolyline
 66
     1
 10
0.0
 20
0.0
 30
0.0
  0
VERTEX
  5
C2
330
C0
100
AcDbEntity
  8
001
370
     9
100
AcDbVertex
100
AcDb2dVertex
 10
210.076687
 20
59.463484
 30
0.0
  0
VERTEX
  5
C3
330
C0
100
AcDbEntity
  8
001
370
     9
100
AcDbVertex
100
AcDb2dVertex
 10
209.674763
 20
57.963484
 30
0.0
  0
VERTEX
  5
C4
330
C0
100
AcDbEntity
  8
001
370
     9
100
AcDbVertex
100
AcDb2dVertex
 10
209.272839
 20
59.463484
 30
0.0
  0
SEQEND
  5
C1
330
C0
100
AcDbEntity
  8
001
370
     9
  0
TEXT
  5
C5
330
B5
100
AcDbEntity
  8
001
370
    30
100
AcDbText
 10
208.674763
 20
61.963484
 30
0.0
 40
4.0
  1
%%c２０
 50
90.000003
 41
0.882353
100
AcDbText
  0
POINT
  5
C6
330
B5
100
AcDbEntity
  8
001
370
     9
100
AcDbPoint
 10
179.043525
 20
77.963484
 30
0.0
  0
POINT
  5
C7
330
B5
100
AcDbEntity
  8
001
370
     9
100
AcDbPoint
 10
179.043525
 20
57.963484
 30
0.0
  0
POINT
  5
C8
330
B5
100
AcDbEntity
  8
001
370
     9
100
AcDbPoint
 10
209.674763
 20
57.963484
 30
0.0
  0
ENDBLK
  5
B7
330
B5
100
AcDbEntity
  8
0
100
AcDbBlockEnd
  0
BLOCK
  5
CA
330
C9
100
AcDbEntity
  8
0
100
AcDbBlockBegin
  2
*D6
 70
     1
 10
0.0
 20
0.0
 30
0.0
  3
*D6
  1

  0
LINE
  5
CC
330
C9
100
AcDbEntity
  8
001
370
     9
100
AcDbLine
 10
183.043525
 20
61.963484
 30
0.0
 11
183.043525
 21
19.640448
 31
0.0
  0
LINE
  5
CD
330
C9
100
AcDbEntity
  8
001
370
     9
100
AcDbLine
 10
83.043525
 20
53.713484
 30
0.0
 11
83.043525
 21
19.640448
 31
0.0
  0
LINE
  5
CE
330
C9
100
AcDbEntity
  8
001
370
     9
100
AcDbLine
 10
183.043525
 20
22.390448
 30
0.0
 11
83.043525
 21
22.390448
 31
0.0
  0
POLYLINE
  5
CF
330
C9
100
AcDbEntity
  8
001
370
     9
100
AcDb2dPolyline
 66
     1
 10
0.0
 20
0.0
 30
0.0
  0
VERTEX
  5
D1
330
CF
100
AcDbEntity
  8
001
370
     9
100
AcDbVertex
100
AcDb2dVertex
 10
181.543525
 20
22.792371
 30
0.0
  0
VERTEX
  5
D2
330
CF
100
AcDbEntity
  8
001
370
     9
100
AcDbVertex
100
AcDb2dVertex
 10
183.043525
 20
22.390448
 30
0.0
  0
VERTEX
  5
D3
330
CF
100
AcDbEntity
  8
001
370
     9
100
AcDbVertex
100
AcDb2dVertex
 10
181.543525
 20
21.988524
 30
0.0
  0
SEQEND
  5
D0
330
CF
100
AcDbEntity
  8
001
370
     9
  0
POLYLINE
  5
D4
330
C9
100
AcDbEntity
  8
001
370
     9
100
AcDb2dPolyline
 66
     1
 10
0.0
 20
0.0
 30
0.0
  0
VERTEX
  5
D6
330
D4
100
AcDbEntity
  8
001
370
     9
100
AcDbVertex
100
AcDb2dVertex
 10
84.543525
 20
21.988524
 30
0.0
  0
VERTEX
  5
D7
330
D4
100
AcDbEntity
  8
001
370
     9
100
AcDbVertex
100
AcDb2dVertex
 10
83.043525
 20
22.390448
 30
0.0
  0
VERTEX
  5
D8
330
D4
100
AcDbEntity
  8
001
370
     9
100
AcDbVertex
100
AcDb2dVertex
 10
84.543525
 20
22.792371
 30
0.0
  0
SEQEND
  5
D5
330
D4
100
AcDbEntity
  8
001
370
     9
  0
TEXT
  5
D9
330
C9
100
AcDbEntity
  8
001
370
    30
100
AcDbText
 10
127.043525
 20
23.390448
 30
0.0
 40
4.0
  1
１００
 41
0.833333
100
AcDbText
  0
POINT
  5
DA
330
C9
100
AcDbEntity
  8
001
370
     9
100
AcDbPoint
 10
183.043525
 20
61.963484
 30
0.0
  0
POINT
  5
DB
330
C9
100
AcDbEntity
  8
001
370
     9
100
AcDbPoint
 10
83.043525
 20
53.713484
 30
0.0
  0
POINT
  5
DC
330
C9
100
AcDbEntity
  8
001
370
     9
100
AcDbPoint
 10
83.043525
 20
22.390448
 30
0.0
  0
ENDBLK
  5
CB
330
C9
100
AcDbEntity
  8
0
100
AcDbBlockEnd
  0
ENDSEC
  0
SECTION
  2
ENTITIES
  0
TEXT
  5
DD
330
1F
100
AcDbEntity
  8
001
370
    30
100
AcDbText
 10
37.971566
 20
63.963484
 30
0.0
 40
4.0
  1
%%c８
 50
90.000003
 41
0.909091
100
AcDbText
  0
POLYLINE
  5
DE
330
1F
100
AcDbEntity
  8
001
370
     9
100
AcDb2dPolyline
 66
     1
 10
0.0
 20
0.0
 30
0.0
  0
VERTEX
  5
E0
330
DE
100
AcDbEntity
  8
001
370
     9
100
AcDbVertex
100
AcDb2dVertex
 10
39.37349
 20
65.463484
 30
0.0
  0
VERTEX
  5
E1
330
DE
100
AcDbEntity
  8
001
370
     9
100
AcDbVertex
100
AcDb2dVertex
 10
38.971566
 20
63.963484
 30
0.0
  0
VERTEX
  5
E2
330
DE
100
AcDbEntity
  8
001
370
     9
100
AcDbVertex
100
AcDb2dVertex
 10
38.569642
 20
65.463484
 30
0.0
  0
SEQEND
  5
DF
330
DE
100
AcDbEntity
  8
001
370
     9
  0
LINE
  5
E3
330
1F
100
AcDbEntity
  8
001
370
     9
100
AcDbLine
 10
38.971566
 20
63.963484
 30
0.0
 11
38.971566
 21
71.963484
 31
0.0
  0
POLYLINE
  5
E4
330
1F
100
AcDbEntity
  8
001
370
     9
100
AcDb2dPolyline
 66
     1
 10
0.0
 20
0.0
 30
0.0
  0
VERTEX
  5
E6
330
E4
100
AcDbEntity
  8
001
370
     9
100
AcDbVertex
100
AcDb2dVertex
 10
53.043525
 20
63.963484
 30
0.0
  0
VERTEX
  5
E7
330
E4
100
AcDbEntity
  8
001
370
     9
100
AcDbVertex
100
AcDb2dVertex
 10
38.971566
 20
63.963484
 30
0.0
  0
VERTEX
  5
E8
330
E4
100
AcDbEntity
  8
001
370
     9
100
AcDbVertex
100
AcDb2dVertex
 10
36.221566
 20
63.963484
 30
0.0
  0
SEQEND
  5
E5
330
E4
100
AcDbEntity
  8
001
370
     9
  0
DIMENSION
  5
E9
330
1F
100
AcDbEntity
  8
001
370
     9
100
AcDbDimension
  2
*D1
 10
53.043525
 20
22.390448
 30
0.0
 11
68.043525
 21
25.390448
 31
0.0
 70
   160
 71
     5
 42
-1.0
  3
Standard
100
AcDbAlignedDimension
 13
83.043525
 23
51.713484
 33
0.0
 14
53.043525
 24
63.963484
 34
0.0
 50
180.0
100
AcDbRotatedDimension
  0
DIMENSION
  5
EA
330
1F
100
AcDbEntity
  8
001
370
     9
100
AcDbDimension
  2
*D2
 10
53.043525
 20
12.284927
 30
0.0
 11
118.043525
 21
15.284927
 31
0.0
 70
   160
 71
     5
 42
-1.0
  3
Standard
100
AcDbAlignedDimension
 13
183.043525
 23
55.963484
 33
0.0
 14
53.043525
 24
22.390448
 34
0.0
 50
180.0
100
AcDbRotatedDimension
  0
TEXT
  5
EB
330
1F
100
AcDbEntity
  8
001
370
    30
100
AcDbText
 10
25.87992
 20
51.963484
 30
0.0
 40
4.0
  1
（%%c３３．３３）
 50
90.000003
 41
0.851064
100
AcDbText
  0
POLYLINE
  5
EC
330
1F
100
AcDbEntity
  8
001
370
     9
100
AcDb2dPolyline
 66
     1
 10
0.0
 20
0.0
 30
0.0
  0
VERTEX
  5
EE
330
EC
100
AcDbEntity
  8
001
370
     9
100
AcDbVertex
100
AcDb2dVertex
 10
27.281844
 20
52.798484
 30
0.0
  0
VERTEX
  5
EF
330
EC
100
AcDbEntity
  8
001
370
     9
100
AcDbVertex
100
AcDb2dVertex
 10
26.87992
 20
51.298484
 30
0.0
  0
VERTEX
  5
F0
330
EC
100
AcDbEntity
  8
001
370
     9
100
AcDbVertex
100
AcDb2dVertex
 10
26.477996
 20
52.798484
 30
0.0
  0
SEQEND
  5
ED
330
EC
100
AcDbEntity
  8
001
370
     9
  0
LINE
  5
F1
330
1F
100
AcDbEntity
  8
001
370
     9
100
AcDbLine
 10
26.87992
 20
51.298484
 30
0.0
 11
26.87992
 21
84.628484
 31
0.0
  0
POLYLINE
  5
F2
330
1F
100
AcDbEntity
  8
001
370
     9
100
AcDb2dPolyline
 66
     1
 10
0.0
 20
0.0
 30
0.0
  0
VERTEX
  5
F4
330
F2
100
AcDbEntity
  8
001
370
     9
100
AcDbVertex
100
AcDb2dVertex
 10
61.911653
 20
51.298484
 30
0.0
  0
VERTEX
  5
F5
330
F2
100
AcDbEntity
  8
001
370
     9
100
AcDbVertex
100
AcDb2dVertex
 10
26.87992
 20
51.298484
 30
0.0
  0
VERTEX
  5
F6
330
F2
100
AcDbEntity
  8
001
370
     9
100
AcDbVertex
100
AcDb2dVertex
 10
24.12992
 20
51.298484
 30
0.0
  0
SEQEND
  5
F3
330
F2
100
AcDbEntity
  8
001
370
     9
  0
DIMENSION
  5
F7
330
1F
100
AcDbEntity
  8
001
370
     9
100
AcDbDimension
  2
*D3
 10
61.911653
 20
38.726027
 30
0.0
 11
39.543525
 21
41.726027
 31
0.0
 70
   160
 71
     5
 42
-1.0
  3
Standard
100
AcDbAlignedDimension
 13
53.043525
 23
22.390448
 33
0.0
 14
61.911653
 24
35.976027
 34
0.0
100
AcDbRotatedDimension
  0
DIMENSION
  5
F8
330
1F
100
AcDbEntity
  8
001
370
     9
100
AcDbDimension
  2
*D4
 10
53.043525
 20
63.963484
 30
0.0
 11
63.033437
 21
32.279533
 31
0.0
 70
    34
 71
     5
 42
-1.0
  3
Standard
100
AcDb2LineAngularDimension
 13
61.795823
 23
51.463907
 33
0.0
 14
53.043525
 24
63.963484
 34
0.0
 15
53.043525
 25
30.491938
 35
0.0
 16
63.935554
 26
29.418382
 36
0.0
  0
DIMENSION
  5
F9
330
1F
100
AcDbEntity
  8
001
370
     9
100
AcDbDimension
  2
*D5
 10
209.674763
 20
57.963484
 30
0.0
 11
206.674762
 21
67.963484
 31
0.0
 70
   160
 71
     5
 42
-1.0
  3
Standard
100
AcDbAlignedDimension
 13
179.043525
 23
77.963484
 33
0.0
 14
179.043525
 24
57.963484
 34
0.0
 50
270.0
100
AcDbRotatedDimension
  0
DIMENSION
  5
FA
330
1F
100
AcDbEntity
  8
001
370
     9
100
AcDbDimension
  2
*D6
 10
83.043525
 20
22.390448
 30
0.0
 11
133.043525
 21
25.390448
 31
0.0
 70
   160
 71
     5
 42
-1.0
  3
Standard
100
AcDbAlignedDimension
 13
183.043525
 23
61.963484
 33
0.0
 14
83.043525
 24
53.713484
 34
0.0
 50
180.0
100
AcDbRotatedDimension
  0
LINE
  5
FB
330
1F
100
AcDbEntity
  8
001
370
    50
100
AcDbLine
 10
183.043525
 20
61.963484
 30
0.0
 11
183.043525
 21
73.963484
 31
0.0
  0
LINE
  5
FC
330
1F
100
AcDbEntity
  8
001
370
    50
100
AcDbLine
 10
83.043525
 20
82.213484
 30
0.0
 11
83.043525
 21
53.713484
 31
0.0
  0
POLYLINE
  5
FD
330
1F
100
AcDbEntity
  8
001
  6
DASHED
370
    50
100
AcDb2dPolyline
 66
     1
 10
0.0
 20
0.0
 30
0.0
  0
VERTEX
  5
FF
330
FD
100
AcDbEntity
  8
001
  6
DASHED
370
    50
100
AcDbVertex
100
AcDb2dVertex
 10
72.368582
 20
79.915126
 30
0.0
  0
VERTEX
  5
100
330
FD
100
AcDbEntity
  8
001
  6
DASHED
370
    50
100
AcDbVertex
100
AcDb2dVertex
 10
72.166821
 20
79.932376
 30
0.0
  0
VERTEX
  5
101
330
FD
100
AcDbEntity
  8
001
  6
DASHED
370
    50
100
AcDbVertex
100
AcDb2dVertex
 10
71.871931
 20
79.957494
 30
0.0
  0
VERTEX
  5
102
330
FD
100
AcDbEntity
  8
001
  6
DASHED
370
    50
100
AcDbVertex
100
AcDb2dVertex
 10
71.576006
 20
79.982567
 30
0.0
  0
VERTEX
  5
103
330
FD
100
AcDbEntity
  8
001
  6
DASHED
370
    50
100
AcDbVertex
100
AcDb2dVertex
 10
71.373526
 20
79.999657
 30
0.0
  0
SEQEND
  5
FE
330
FD
100
AcDbEntity
  8
001
  6
DASHED
370
    50
  0
POLYLINE
  5
104
330
1F
100
AcDbEntity
  8
001
  6
DASHED
370
    50
100
AcDb2dPolyline
 66
     1
 10
0.0
 20
0.0
 30
0.0
  0
VERTEX
  5
106
330
104
100
AcDbEntity
  8
001
  6
DASHED
370
    50
100
AcDbVertex
100
AcDb2dVertex
 10
72.368582
 20
56.011843
 30
0.0
  0
VERTEX
  5
107
330
104
100
AcDbEntity
  8
001
  6
DASHED
370
    50
100
AcDbVertex
100
AcDb2dVertex
 10
73.121023
 20
56.897691
 30
0.0
  0
VERTEX
  5
108
330
104
100
AcDbEntity
  8
001
  6
DASHED
370
    50
100
AcDbVertex
100
AcDb2dVertex
 10
74.076581
 20
58.182062
 30
0.0
  0
VERTEX
  5
109
330
104
100
AcDbEntity
  8
001
  6
DASHED
370
    50
100
AcDbVertex
100
AcDb2dVertex
 10
74.843779
 20
59.461736
 30
0.0
  0
VERTEX
  5
10A
330
104
100
AcDbEntity
  8
001
  6
DASHED
370
    50
100
AcDbVertex
100
AcDb2dVertex
 10
75.415375
 20
60.709705
 30
0.0
  0
VERTEX
  5
10B
330
104
100
AcDbEntity
  8
001
  6
DASHED
370
    50
100
AcDbVertex
100
AcDb2dVertex
 10
75.921081
 20
62.074638
 30
0.0
  0
VERTEX
  5
10C
330
104
100
AcDbEntity
  8
001
  6
DASHED
370
    50
100
AcDbVertex
100
AcDb2dVertex
 10
76.336044
 20
63.502408
 30
0.0
  0
VERTEX
  5
10D
330
104
100
AcDbEntity
  8
001
  6
DASHED
370
    50
100
AcDbVertex
100
AcDb2dVertex
 10
76.63267
 20
64.974149
 30
0.0
  0
VERTEX
  5
10E
330
104
100
AcDbEntity
  8
001
  6
DASHED
370
    50
100
AcDbVertex
100
AcDb2dVertex
 10
76.804946
 20
66.458123
 30
0.0
  0
VERTEX
  5
10F
330
104
100
AcDbEntity
  8
001
  6
DASHED
370
    50
100
AcDbVertex
100
AcDb2dVertex
 10
76.862206
 20
67.963484
 30
0.0
  0
VERTEX
  5
110
330
104
100
AcDbEntity
  8
001
  6
DASHED
370
    50
100
AcDbVertex
100
AcDb2dVertex
 10
76.804946
 20
69.468845
 30
0.0
  0
VERTEX
  5
111
330
104
100
AcDbEntity
  8
001
  6
DASHED
370
    50
100
AcDbVertex
100
AcDb2dVertex
 10
76.63267
 20
70.952819
 30
0.0
  0
VERTEX
  5
112
330
104
100
AcDbEntity
  8
001
  6
DASHED
370
    50
100
AcDbVertex
100
AcDb2dVertex
 10
76.336044
 20
72.42456
 30
0.0
  0
VERTEX
  5
113
330
104
100
AcDbEntity
  8
001
  6
DASHED
370
    50
100
AcDbVertex
100
AcDb2dVertex
 10
75.921081
 20
73.852331
 30
0.0
  0
VERTEX
  5
114
330
104
100
AcDbEntity
  8
001
  6
DASHED
370
    50
100
AcDbVertex
100
AcDb2dVertex
 10
75.415375
 20
75.217263
 30
0.0
  0
VERTEX
  5
115
330
104
100
AcDbEntity
  8
001
  6
DASHED
370
    50
100
AcDbVertex
100
AcDb2dVertex
 10
74.843779
 20
76.465232
 30
0.0
  0
VERTEX
  5
116
330
104
100
AcDbEntity
  8
001
  6
DASHED
370
    50
100
AcDbVertex
100
AcDb2dVertex
 10
74.076581
 20
77.744906
 30
0.0
  0
VERTEX
  5
117
330
104
100
AcDbEntity
  8
001
  6
DASHED
370
    50
100
AcDbVertex
100
AcDb2dVertex
 10
73.121023
 20
79.029278
 30
0.0
  0
VERTEX
  5
118
330
104
100
AcDbEntity
  8
001
  6
DASHED
370
    50
100
AcDbVertex
100
AcDb2dVertex
 10
72.368582
 20
79.915126
 30
0.0
  0
SEQEND
  5
105
330
104
100
AcDbEntity
  8
001
  6
DASHED
370
    50
  0
POLYLINE
  5
119
330
1F
100
AcDbEntity
  8
001
370
    50
100
AcDb2dPolyline
 66
     1
 10
0.0
 20
0.0
 30
0.0
  0
VERTEX
  5
11B
330
119
100
AcDbEntity
  8
001
370
    50
100
AcDbVertex
100
AcDb2dVertex
 10
71.373526
 20
55.927311
 30
0.0
  0
VERTEX
  5
11C
330
119
100
AcDbEntity
  8
001
370
    50
100
AcDbVertex
100
AcDb2dVertex
 10
71.469374
 20
55.153674
 30
0.0
  0
VERTEX
  5
11D
330
119
100
AcDbEntity
  8
001
370
    50
100
AcDbVertex
100
AcDb2dVertex
 10
71.654464
 20
54.03037
 30
0.0
  0
VERTEX
  5
11E
330
119
100
AcDbEntity
  8
001
370
    50
100
AcDbVertex
100
AcDb2dVertex
 10
71.823997
 20
53.283678
 30
0.0
  0
VERTEX
  5
11F
330
119
100
AcDbEntity
  8
001
370
    50
100
AcDbVertex
100
AcDb2dVertex
 10
71.969445
 20
52.780513
 30
0.0
  0
SEQEND
  5
11A
330
119
100
AcDbEntity
  8
001
370
    50
  0
POLYLINE
  5
120
330
1F
100
AcDbEntity
  8
001
370
    50
100
AcDb2dPolyline
 66
     1
 10
0.0
 20
0.0
 30
0.0
  0
VERTEX
  5
122
330
120
100
AcDbEntity
  8
001
370
    50
100
AcDbVertex
100
AcDb2dVertex
 10
71.373526
 20
55.927311
 30
0.0
  0
VERTEX
  5
123
330
120
100
AcDbEntity
  8
001
370
    50
100
AcDbVertex
100
AcDb2dVertex
 10
71.576006
 20
55.944401
 30
0.0
  0
VERTEX
  5
124
330
120
100
AcDbEntity
  8
001
370
    50
100
AcDbVertex
100
AcDb2dVertex
 10
71.871931
 20
55.969474
 30
0.0
  0
VERTEX
  5
125
330
120
100
AcDbEntity
  8
001
370
    50
100
AcDbVertex
100
AcDb2dVertex
 10
72.166821
 20
55.994592
 30
0.0
  0
VERTEX
  5
126
330
120
100
AcDbEntity
  8
001
370
    50
100
AcDbVertex
100
AcDb2dVertex
 10
72.368582
 20
56.011843
 30
0.0
  0
SEQEND
  5
121
330
120
100
AcDbEntity
  8
001
370
    50
  0
POLYLINE
  5
127
330
1F
100
AcDbEntity
  8
001
370
    50
100
AcDb2dPolyline
 66
     1
 10
0.0
 20
0.0
 30
0.0
  0
VERTEX
  5
129
330
127
100
AcDbEntity
  8
001
370
    50
100
AcDbVertex
100
AcDb2dVertex
 10
72.368582
 20
56.011843
 30
0.0
  0
VERTEX
  5
12A
330
127
100
AcDbEntity
  8
001
370
    50
100
AcDbVertex
100
AcDb2dVertex
 10
73.121023
 20
56.897691
 30
0.0
  0
VERTEX
  5
12B
330
127
100
AcDbEntity
  8
001
370
    50
100
AcDbVertex
100
AcDb2dVertex
 10
74.076581
 20
58.182062
 30
0.0
  0
VERTEX
  5
12C
330
127
100
AcDbEntity
  8
001
370
    50
100
AcDbVertex
100
AcDb2dVertex
 10
74.843779
 20
59.461736
 30
0.0
  0
VERTEX
  5
12D
330
127
100
AcDbEntity
  8
001
370
    50
100
AcDbVertex
100
AcDb2dVertex
 10
75.415375
 20
60.709705
 30
0.0
  0
VERTEX
  5
12E
330
127
100
AcDbEntity
  8
001
370
    50
100
AcDbVertex
100
AcDb2dVertex
 10
75.921081
 20
62.074638
 30
0.0
  0
VERTEX
  5
12F
330
127
100
AcDbEntity
  8
001
370
    50
100
AcDbVertex
100
AcDb2dVertex
 10
76.336044
 20
63.502408
 30
0.0
  0
VERTEX
  5
130
330
127
100
AcDbEntity
  8
001
370
    50
100
AcDbVertex
100
AcDb2dVertex
 10
76.63267
 20
64.974149
 30
0.0
  0
VERTEX
  5
131
330
127
100
AcDbEntity
  8
001
370
    50
100
AcDbVertex
100
AcDb2dVertex
 10
76.804946
 20
66.458123
 30
0.0
  0
VERTEX
  5
132
330
127
100
AcDbEntity
  8
001
370
    50
100
AcDbVertex
100
AcDb2dVertex
 10
76.862206
 20
67.963484
 30
0.0
  0
VERTEX
  5
133
330
127
100
AcDbEntity
  8
001
370
    50
100
AcDbVertex
100
AcDb2dVertex
 10
76.804946
 20
69.468845
 30
0.0
  0
VERTEX
  5
134
330
127
100
AcDbEntity
  8
001
370
    50
100
AcDbVertex
100
AcDb2dVertex
 10
76.63267
 20
70.952819
 30
0.0
  0
VERTEX
  5
135
330
127
100
AcDbEntity
  8
001
370
    50
100
AcDbVertex
100
AcDb2dVertex
 10
76.336044
 20
72.42456
 30
0.0
  0
VERTEX
  5
136
330
127
100
AcDbEntity
  8
001
370
    50
100
AcDbVertex
100
AcDb2dVertex
 10
75.921081
 20
73.852331
 30
0.0
  0
VERTEX
  5
137
330
127
100
AcDbEntity
  8
001
370
    50
100
AcDbVertex
100
AcDb2dVertex
 10
75.415375
 20
75.217263
 30
0.0
  0
VERTEX
  5
138
330
127
100
AcDbEntity
  8
001
370
    50
100
AcDbVertex
100
AcDb2dVertex
 10
74.843779
 20
76.465232
 30
0.0
  0
VERTEX
  5
139
330
127
100
AcDbEntity
  8
001
370
    50
100
AcDbVertex
100
AcDb2dVertex
 10
74.076581
 20
77.744906
 30
0.0
  0
VERTEX
  5
13A
330
127
100
AcDbEntity
  8
001
370
    50
100
AcDbVertex
100
AcDb2dVertex
 10
73.121023
 20
79.029278
 30
0.0
  0
VERTEX
  5
13B
330
127
100
AcDbEntity
  8
001
370
    50
100
AcDbVertex
100
AcDb2dVertex
 10
72.368582
 20
79.915126
 30
0.0
  0
SEQEND
  5
128
330
127
100
AcDbEntity
  8
001
370
    50
  0
LINE
  5
13C
330
1F
100
AcDbEntity
  8
001
370
    50
100
AcDbLine
 10
72.368582
 20
79.915126
 30
0.0
 11
72.368582
 21
56.011843
 31
0.0
  0
LINE
  5
13D
330
1F
100
AcDbEntity
  8
001
370
    50
100
AcDbLine
 10
62.413312
 20
84.213484
 30
0.0
 11
60.141757
 21
80.845765
 31
0.0
  0
POLYLINE
  5
13E
330
1F
100
AcDbEntity
  8
001
370
    50
100
AcDb2dPolyline
 66
     1
 10
0.0
 20
0.0
 30
0.0
  0
VERTEX
  5
140
330
13E
100
AcDbEntity
  8
001
370
    50
100
AcDbVertex
100
AcDb2dVertex
 10
59.885984
 20
80.466559
 30
0.0
  0
VERTEX
  5
141
330
13E
100
AcDbEntity
  8
001
370
    50
100
AcDbVertex
100
AcDb2dVertex
 10
58.84018
 20
78.915429
 30
0.0
  0
VERTEX
  5
142
330
13E
100
AcDbEntity
  8
001
370
    50
100
AcDbVertex
100
AcDb2dVertex
 10
57.79497
 20
77.3639
 30
0.0
  0
VERTEX
  5
143
330
13E
100
AcDbEntity
  8
001
370
    50
100
AcDbVertex
100
AcDb2dVertex
 10
56.726645
 20
75.775499
 30
0.0
  0
VERTEX
  5
144
330
13E
100
AcDbEntity
  8
001
370
    50
100
AcDbVertex
100
AcDb2dVertex
 10
55.659925
 20
74.186014
 30
0.0
  0
VERTEX
  5
145
330
13E
100
AcDbEntity
  8
001
370
    50
100
AcDbVertex
100
AcDb2dVertex
 10
55.127501
 20
73.39061
 30
0.0
  0
VERTEX
  5
146
330
13E
100
AcDbEntity
  8
001
370
    50
100
AcDbVertex
100
AcDb2dVertex
 10
54.597032
 20
72.593906
 30
0.0
  0
VERTEX
  5
147
330
13E
100
AcDbEntity
  8
001
370
    50
100
AcDbVertex
100
AcDb2dVertex
 10
54.069424
 20
71.795245
 30
0.0
  0
VERTEX
  5
148
330
13E
100
AcDbEntity
  8
001
370
    50
100
AcDbVertex
100
AcDb2dVertex
 10
53.543525
 20
70.995451
 30
0.0
  0
SEQEND
  5
13F
330
13E
100
AcDbEntity
  8
001
370
    50
  0
LINE
  5
149
330
1F
100
AcDbEntity
  8
001
370
    50
100
AcDbLine
 10
60.141365
 20
80.845178
 30
0.0
 11
59.885984
 21
80.466559
 31
0.0
  0
POLYLINE
  5
14A
330
1F
100
AcDbEntity
  8
001
370
    50
100
AcDb2dPolyline
 66
     1
 10
0.0
 20
0.0
 30
0.0
  0
VERTEX
  5
14C
330
14A
100
AcDbEntity
  8
001
370
    50
100
AcDbVertex
100
AcDb2dVertex
 10
53.543525
 20
67.526961
 30
0.0
  0
VERTEX
  5
14D
330
14A
100
AcDbEntity
  8
001
370
    50
100
AcDbVertex
100
AcDb2dVertex
 10
54.005137
 20
67.658828
 30
0.0
  0
VERTEX
  5
14E
330
14A
100
AcDbEntity
  8
001
370
    50
100
AcDbVertex
100
AcDb2dVertex
 10
54.466779
 20
67.790593
 30
0.0
  0
VERTEX
  5
14F
330
14A
100
AcDbEntity
  8
001
370
    50
100
AcDbVertex
100
AcDb2dVertex
 10
54.93412
 20
67.923796
 30
0.0
  0
VERTEX
  5
150
330
14A
100
AcDbEntity
  8
001
370
    50
100
AcDbVertex
100
AcDb2dVertex
 10
55.401497
 20
68.056873
 30
0.0
  0
VERTEX
  5
151
330
14A
100
AcDbEntity
  8
001
370
    50
100
AcDbVertex
100
AcDb2dVertex
 10
56.390145
 20
68.338206
 30
0.0
  0
VERTEX
  5
152
330
14A
100
AcDbEntity
  8
001
370
    50
100
AcDbVertex
100
AcDb2dVertex
 10
57.378822
 20
68.619442
 30
0.0
  0
SEQEND
  5
14B
330
14A
100
AcDbEntity
  8
001
370
    50
  0
LINE
  5
153
330
1F
100
AcDbEntity
  8
001
370
    50
100
AcDbLine
 10
71.373526
 20
62.52649
 30
0.0
 11
71.373526
 21
55.927311
 31
0.0
  0
POLYLINE
  5
154
330
1F
100
AcDbEntity
  8
001
370
    50
100
AcDb2dPolyline
 66
     1
 10
0.0
 20
0.0
 30
0.0
  0
VERTEX
  5
156
330
154
100
AcDbEntity
  8
001
370
    50
100
AcDbVertex
100
AcDb2dVertex
 10
63.910609
 20
70.02649
 30
0.0
  0
VERTEX
  5
157
330
154
100
AcDbEntity
  8
001
370
    50
100
AcDbVertex
100
AcDb2dVertex
 10
63.540107
 20
70.015961
 30
0.0
  0
VERTEX
  5
158
330
154
100
AcDbEntity
  8
001
370
    50
100
AcDbVertex
100
AcDb2dVertex
 10
63.001109
 20
69.970586
 30
0.0
  0
VERTEX
  5
159
330
154
100
AcDbEntity
  8
001
370
    50
100
AcDbVertex
100
AcDb2dVertex
 10
62.467169
 20
69.883566
 30
0.0
  0
VERTEX
  5
15A
330
154
100
AcDbEntity
  8
001
370
    50
100
AcDbVertex
100
AcDb2dVertex
 10
62.105166
 20
69.803708
 30
0.0
  0
SEQEND
  5
155
330
154
100
AcDbEntity
  8
001
370
    50
  0
LINE
  5
15B
330
1F
100
AcDbEntity
  8
001
370
    50
100
AcDbLine
 10
57.378822
 20
68.619442
 30
0.0
 11
62.105166
 21
69.803708
 31
0.0
  0
POLYLINE
  5
15C
330
1F
100
AcDbEntity
  8
001
370
    50
100
AcDb2dPolyline
 66
     1
 10
0.0
 20
0.0
 30
0.0
  0
VERTEX
  5
15E
330
15C
100
AcDbEntity
  8
001
370
    50
100
AcDbVertex
100
AcDb2dVertex
 10
65.195296
 20
74.789211
 30
0.0
  0
VERTEX
  5
15F
330
15C
100
AcDbEntity
  8
001
370
    50
100
AcDbVertex
100
AcDb2dVertex
 10
65.18505
 20
74.98349
 30
0.0
  0
VERTEX
  5
160
330
15C
100
AcDbEntity
  8
001
370
    50
100
AcDbVertex
100
AcDb2dVertex
 10
65.15443
 20
75.249379
 30
0.0
  0
VERTEX
  5
161
330
15C
100
AcDbEntity
  8
001
370
    50
100
AcDbVertex
100
AcDb2dVertex
 10
65.103614
 20
75.485004
 30
0.0
  0
VERTEX
  5
162
330
15C
100
AcDbEntity
  8
001
370
    50
100
AcDbVertex
100
AcDb2dVertex
 10
65.033071
 20
75.695565
 30
0.0
  0
VERTEX
  5
163
330
15C
100
AcDbEntity
  8
001
370
    50
100
AcDbVertex
100
AcDb2dVertex
 10
64.943198
 20
75.906606
 30
0.0
  0
VERTEX
  5
164
330
15C
100
AcDbEntity
  8
001
370
    50
100
AcDbVertex
100
AcDb2dVertex
 10
64.834909
 20
76.114211
 30
0.0
  0
VERTEX
  5
165
330
15C
100
AcDbEntity
  8
001
370
    50
100
AcDbVertex
100
AcDb2dVertex
 10
64.708784
 20
76.310013
 30
0.0
  0
VERTEX
  5
166
330
15C
100
AcDbEntity
  8
001
370
    50
100
AcDbVertex
100
AcDb2dVertex
 10
64.565964
 20
76.492599
 30
0.0
  0
VERTEX
  5
167
330
15C
100
AcDbEntity
  8
001
370
    50
100
AcDbVertex
100
AcDb2dVertex
 10
64.407121
 20
76.662955
 30
0.0
  0
VERTEX
  5
168
330
15C
100
AcDbEntity
  8
001
370
    50
100
AcDbVertex
100
AcDb2dVertex
 10
64.234407
 20
76.819229
 30
0.0
  0
VERTEX
  5
169
330
15C
100
AcDbEntity
  8
001
370
    50
100
AcDbVertex
100
AcDb2dVertex
 10
64.048822
 20
76.960091
 30
0.0
  0
VERTEX
  5
16A
330
15C
100
AcDbEntity
  8
001
370
    50
100
AcDbVertex
100
AcDb2dVertex
 10
63.850313
 20
77.084179
 30
0.0
  0
VERTEX
  5
16B
330
15C
100
AcDbEntity
  8
001
370
    50
100
AcDbVertex
100
AcDb2dVertex
 10
63.639388
 20
77.190956
 30
0.0
  0
VERTEX
  5
16C
330
15C
100
AcDbEntity
  8
001
370
    50
100
AcDbVertex
100
AcDb2dVertex
 10
63.425352
 20
77.279397
 30
0.0
  0
VERTEX
  5
16D
330
15C
100
AcDbEntity
  8
001
370
    50
100
AcDbVertex
100
AcDb2dVertex
 10
63.211434
 20
77.348932
 30
0.0
  0
VERTEX
  5
16E
330
15C
100
AcDbEntity
  8
001
370
    50
100
AcDbVertex
100
AcDb2dVertex
 10
62.972437
 20
77.398952
 30
0.0
  0
VERTEX
  5
16F
330
15C
100
AcDbEntity
  8
001
370
    50
100
AcDbVertex
100
AcDb2dVertex
 10
62.702507
 20
77.429123
 30
0.0
  0
VERTEX
  5
170
330
15C
100
AcDbEntity
  8
001
370
    50
100
AcDbVertex
100
AcDb2dVertex
 10
62.505329
 20
77.439211
 30
0.0
  0
SEQEND
  5
15D
330
15C
100
AcDbEntity
  8
001
370
    50
  0
POLYLINE
  5
171
330
1F
100
AcDbEntity
  8
001
370
    50
100
AcDb2dPolyline
 66
     1
 10
0.0
 20
0.0
 30
0.0
  0
VERTEX
  5
173
330
171
100
AcDbEntity
  8
001
370
    50
100
AcDbVertex
100
AcDb2dVertex
 10
71.373526
 20
62.52649
 30
0.0
  0
VERTEX
  5
174
330
171
100
AcDbEntity
  8
001
370
    50
100
AcDbVertex
100
AcDb2dVertex
 10
71.34511
 20
63.076278
 30
0.0
  0
VERTEX
  5
175
330
171
100
AcDbEntity
  8
001
370
    50
100
AcDbVertex
100
AcDb2dVertex
 10
71.260148
 20
63.828851
 30
0.0
  0
VERTEX
  5
176
330
171
100
AcDbEntity
  8
001
370
    50
100
AcDbVertex
100
AcDb2dVertex
 10
71.119245
 20
64.495375
 30
0.0
  0
VERTEX
  5
177
330
171
100
AcDbEntity
  8
001
370
    50
100
AcDbVertex
100
AcDb2dVertex
 10
70.923457
 20
65.091641
 30
0.0
  0
VERTEX
  5
178
330
171
100
AcDbEntity
  8
001
370
    50
100
AcDbVertex
100
AcDb2dVertex
 10
70.6743
 20
65.688575
 30
0.0
  0
VERTEX
  5
179
330
171
100
AcDbEntity
  8
001
370
    50
100
AcDbVertex
100
AcDb2dVertex
 10
70.373685
 20
66.27649
 30
0.0
  0
VERTEX
  5
17A
330
171
100
AcDbEntity
  8
001
370
    50
100
AcDbVertex
100
AcDb2dVertex
 10
70.024077
 20
66.830188
 30
0.0
  0
VERTEX
  5
17B
330
171
100
AcDbEntity
  8
001
370
    50
100
AcDbVertex
100
AcDb2dVertex
 10
69.627535
 20
67.347397
 30
0.0
  0
VERTEX
  5
17C
330
171
100
AcDbEntity
  8
001
370
    50
100
AcDbVertex
100
AcDb2dVertex
 10
69.18724
 20
67.829145
 30
0.0
  0
VERTEX
  5
17D
330
171
100
AcDbEntity
  8
001
370
    50
100
AcDbVertex
100
AcDb2dVertex
 10
68.70768
 20
68.271823
 30
0.0
  0
VERTEX
  5
17E
330
171
100
AcDbEntity
  8
001
370
    50
100
AcDbVertex
100
AcDb2dVertex
 10
68.193254
 20
68.670182
 30
0.0
  0
VERTEX
  5
17F
330
171
100
AcDbEntity
  8
001
370
    50
100
AcDbVertex
100
AcDb2dVertex
 10
67.642068
 20
69.021681
 30
0.0
  0
VERTEX
  5
180
330
171
100
AcDbEntity
  8
001
370
    50
100
AcDbVertex
100
AcDb2dVertex
 10
67.057233
 20
69.323698
 30
0.0
  0
VERTEX
  5
181
330
171
100
AcDbEntity
  8
001
370
    50
100
AcDbVertex
100
AcDb2dVertex
 10
66.463077
 20
69.574185
 30
0.0
  0
VERTEX
  5
182
330
171
100
AcDbEntity
  8
001
370
    50
100
AcDbVertex
100
AcDb2dVertex
 10
65.869926
 20
69.770907
 30
0.0
  0
VERTEX
  5
183
330
171
100
AcDbEntity
  8
001
370
    50
100
AcDbVertex
100
AcDb2dVertex
 10
65.206531
 20
69.912548
 30
0.0
  0
VERTEX
  5
184
330
171
100
AcDbEntity
  8
001
370
    50
100
AcDbVertex
100
AcDb2dVertex
 10
64.457707
 20
69.997927
 30
0.0
  0
VERTEX
  5
185
330
171
100
AcDbEntity
  8
001
370
    50
100
AcDbVertex
100
AcDb2dVertex
 10
63.910609
 20
70.02649
 30
0.0
  0
SEQEND
  5
172
330
171
100
AcDbEntity
  8
001
370
    50
  0
POLYLINE
  5
186
330
1F
100
AcDbEntity
  8
001
370
    50
100
AcDb2dPolyline
 66
     1
 10
0.0
 20
0.0
 30
0.0
  0
VERTEX
  5
188
330
186
100
AcDbEntity
  8
001
370
    50
100
AcDbVertex
100
AcDb2dVertex
 10
64.208569
 20
70.02051
 30
0.0
  0
VERTEX
  5
189
330
186
100
AcDbEntity
  8
001
370
    50
100
AcDbVertex
100
AcDb2dVertex
 10
63.899182
 20
70.000718
 30
0.0
  0
VERTEX
  5
18A
330
186
100
AcDbEntity
  8
001
370
    50
100
AcDbVertex
100
AcDb2dVertex
 10
63.44931
 20
69.950852
 30
0.0
  0
VERTEX
  5
18B
330
186
100
AcDbEntity
  8
001
370
    50
100
AcDbVertex
100
AcDb2dVertex
 10
63.003554
 20
69.871912
 30
0.0
  0
VERTEX
  5
18C
330
186
100
AcDbEntity
  8
001
370
    50
100
AcDbVertex
100
AcDb2dVertex
 10
62.701085
 20
69.803708
 30
0.0
  0
SEQEND
  5
187
330
186
100
AcDbEntity
  8
001
370
    50
  0
POLYLINE
  5
18D
330
1F
100
AcDbEntity
  8
001
370
    50
100
AcDb2dPolyline
 66
     1
 10
0.0
 20
0.0
 30
0.0
  0
VERTEX
  5
18F
330
18D
100
AcDbEntity
  8
001
370
    50
100
AcDbVertex
100
AcDb2dVertex
 10
62.505329
 20
72.139211
 30
0.0
  0
VERTEX
  5
190
330
18D
100
AcDbEntity
  8
001
370
    50
100
AcDbVertex
100
AcDb2dVertex
 10
62.702507
 20
72.1493
 30
0.0
  0
VERTEX
  5
191
330
18D
100
AcDbEntity
  8
001
370
    50
100
AcDbVertex
100
AcDb2dVertex
 10
62.972437
 20
72.179471
 30
0.0
  0
VERTEX
  5
192
330
18D
100
AcDbEntity
  8
001
370
    50
100
AcDbVertex
100
AcDb2dVertex
 10
63.211434
 20
72.229491
 30
0.0
  0
VERTEX
  5
193
330
18D
100
AcDbEntity
  8
001
370
    50
100
AcDbVertex
100
AcDb2dVertex
 10
63.425352
 20
72.299026
 30
0.0
  0
VERTEX
  5
194
330
18D
100
AcDbEntity
  8
001
370
    50
100
AcDbVertex
100
AcDb2dVertex
 10
63.639388
 20
72.387467
 30
0.0
  0
VERTEX
  5
195
330
18D
100
AcDbEntity
  8
001
370
    50
100
AcDbVertex
100
AcDb2dVertex
 10
63.850313
 20
72.494244
 30
0.0
  0
VERTEX
  5
196
330
18D
100
AcDbEntity
  8
001
370
    50
100
AcDbVertex
100
AcDb2dVertex
 10
64.048822
 20
72.618331
 30
0.0
  0
VERTEX
  5
197
330
18D
100
AcDbEntity
  8
001
370
    50
100
AcDbVertex
100
AcDb2dVertex
 10
64.234407
 20
72.759194
 30
0.0
  0
VERTEX
  5
198
330
18D
100
AcDbEntity
  8
001
370
    50
100
AcDbVertex
100
AcDb2dVertex
 10
64.407121
 20
72.915468
 30
0.0
  0
VERTEX
  5
199
330
18D
100
AcDbEntity
  8
001
370
    50
100
AcDbVertex
100
AcDb2dVertex
 10
64.565964
 20
73.085824
 30
0.0
  0
VERTEX
  5
19A
330
18D
100
AcDbEntity
  8
001
370
    50
100
AcDbVertex
100
AcDb2dVertex
 10
64.708784
 20
73.26841
 30
0.0
  0
VERTEX
  5
19B
330
18D
100
AcDbEntity
  8
001
370
    50
100
AcDbVertex
100
AcDb2dVertex
 10
64.834909
 20
73.464211
 30
0.0
  0
VERTEX
  5
19C
330
18D
100
AcDbEntity
  8
001
370
    50
100
AcDbVertex
100
AcDb2dVertex
 10
64.943198
 20
73.671817
 30
0.0
  0
VERTEX
  5
19D
330
18D
100
AcDbEntity
  8
001
370
    50
100
AcDbVertex
100
AcDb2dVertex
 10
65.033071
 20
73.882858
 30
0.0
  0
VERTEX
  5
19E
330
18D
100
AcDbEntity
  8
001
370
    50
100
AcDbVertex
100
AcDb2dVertex
 10
65.103614
 20
74.093419
 30
0.0
  0
VERTEX
  5
19F
330
18D
100
AcDbEntity
  8
001
370
    50
100
AcDbVertex
100
AcDb2dVertex
 10
65.15443
 20
74.329044
 30
0.0
  0
VERTEX
  5
1A0
330
18D
100
AcDbEntity
  8
001
370
    50
100
AcDbVertex
100
AcDb2dVertex
 10
65.18505
 20
74.594932
 30
0.0
  0
VERTEX
  5
1A1
330
18D
100
AcDbEntity
  8
001
370
    50
100
AcDbVertex
100
AcDb2dVertex
 10
65.195296
 20
74.789211
 30
0.0
  0
SEQEND
  5
18E
330
18D
100
AcDbEntity
  8
001
370
    50
  0
POLYLINE
  5
1A2
330
1F
100
AcDbEntity
  8
001
370
    50
100
AcDb2dPolyline
 66
     1
 10
0.0
 20
0.0
 30
0.0
  0
VERTEX
  5
1A4
330
1A2
100
AcDbEntity
  8
001
370
    50
100
AcDbVertex
100
AcDb2dVertex
 10
62.505329
 20
77.439211
 30
0.0
  0
VERTEX
  5
1A5
330
1A2
100
AcDbEntity
  8
001
370
    50
100
AcDbVertex
100
AcDb2dVertex
 10
62.308151
 20
77.429124
 30
0.0
  0
VERTEX
  5
1A6
330
1A2
100
AcDbEntity
  8
001
370
    50
100
AcDbVertex
100
AcDb2dVertex
 10
62.038221
 20
77.398952
 30
0.0
  0
VERTEX
  5
1A7
330
1A2
100
AcDbEntity
  8
001
370
    50
100
AcDbVertex
100
AcDb2dVertex
 10
61.799224
 20
77.348929
 30
0.0
  0
VERTEX
  5
1A8
330
1A2
100
AcDbEntity
  8
001
370
    50
100
AcDbVertex
100
AcDb2dVertex
 10
61.585306
 20
77.279397
 30
0.0
  0
VERTEX
  5
1A9
330
1A2
100
AcDbEntity
  8
001
370
    50
100
AcDbVertex
100
AcDb2dVertex
 10
61.371271
 20
77.19097
 30
0.0
  0
VERTEX
  5
1AA
330
1A2
100
AcDbEntity
  8
001
370
    50
100
AcDbVertex
100
AcDb2dVertex
 10
61.160346
 20
77.084179
 30
0.0
  0
VERTEX
  5
1AB
330
1A2
100
AcDbEntity
  8
001
370
    50
100
AcDbVertex
100
AcDb2dVertex
 10
60.961837
 20
76.96004
 30
0.0
  0
VERTEX
  5
1AC
330
1A2
100
AcDbEntity
  8
001
370
    50
100
AcDbVertex
100
AcDb2dVertex
 10
60.776252
 20
76.819229
 30
0.0
  0
VERTEX
  5
1AD
330
1A2
100
AcDbEntity
  8
001
370
    50
100
AcDbVertex
100
AcDb2dVertex
 10
60.603538
 20
76.663146
 30
0.0
  0
VERTEX
  5
1AE
330
1A2
100
AcDbEntity
  8
001
370
    50
100
AcDbVertex
100
AcDb2dVertex
 10
60.444695
 20
76.492599
 30
0.0
  0
VERTEX
  5
1AF
330
1A2
100
AcDbEntity
  8
001
370
    50
100
AcDbVertex
100
AcDb2dVertex
 10
60.301875
 20
76.309301
 30
0.0
  0
VERTEX
  5
1B0
330
1A2
100
AcDbEntity
  8
001
370
    50
100
AcDbVertex
100
AcDb2dVertex
 10
60.175749
 20
76.114211
 30
0.0
  0
VERTEX
  5
1B1
330
1A2
100
AcDbEntity
  8
001
370
    50
100
AcDbVertex
100
AcDb2dVertex
 10
60.067461
 20
75.909252
 30
0.0
  0
VERTEX
  5
1B2
330
1A2
100
AcDbEntity
  8
001
370
    50
100
AcDbVertex
100
AcDb2dVertex
 10
59.977587
 20
75.695565
 30
0.0
  0
VERTEX
  5
1B3
330
1A2
100
AcDbEntity
  8
001
370
    50
100
AcDbVertex
100
AcDb2dVertex
 10
59.907044
 20
75.475154
 30
0.0
  0
VERTEX
  5
1B4
330
1A2
100
AcDbEntity
  8
001
370
    50
100
AcDbVertex
100
AcDb2dVertex
 10
59.856229
 20
75.249379
 30
0.0
  0
VERTEX
  5
1B5
330
1A2
100
AcDbEntity
  8
001
370
    50
100
AcDbVertex
100
AcDb2dVertex
 10
59.825609
 20
75.0202
 30
0.0
  0
VERTEX
  5
1B6
330
1A2
100
AcDbEntity
  8
001
370
    50
100
AcDbVertex
100
AcDb2dVertex
 10
59.815362
 20
74.789211
 30
0.0
  0
VERTEX
  5
1B7
330
1A2
100
AcDbEntity
  8
001
370
    50
100
AcDbVertex
100
AcDb2dVertex
 10
59.825609
 20
74.558223
 30
0.0
  0
VERTEX
  5
1B8
330
1A2
100
AcDbEntity
  8
001
370
    50
100
AcDbVertex
100
AcDb2dVertex
 10
59.856229
 20
74.329044
 30
0.0
  0
VERTEX
  5
1B9
330
1A2
100
AcDbEntity
  8
001
370
    50
100
AcDbVertex
100
AcDb2dVertex
 10
59.907044
 20
74.103269
 30
0.0
  0
VERTEX
  5
1BA
330
1A2
100
AcDbEntity
  8
001
370
    50
100
AcDbVertex
100
AcDb2dVertex
 10
59.977587
 20
73.882858
 30
0.0
  0
VERTEX
  5
1BB
330
1A2
100
AcDbEntity
  8
001
370
    50
100
AcDbVertex
100
AcDb2dVertex
 10
60.067461
 20
73.669171
 30
0.0
  0
VERTEX
  5
1BC
330
1A2
100
AcDbEntity
  8
001
370
    50
100
AcDbVertex
100
AcDb2dVertex
 10
60.175749
 20
73.464211
 30
0.0
  0
VERTEX
  5
1BD
330
1A2
100
AcDbEntity
  8
001
370
    50
100
AcDbVertex
100
AcDb2dVertex
 10
60.301875
 20
73.269121
 30
0.0
  0
VERTEX
  5
1BE
330
1A2
100
AcDbEntity
  8
001
370
    50
100
AcDbVertex
100
AcDb2dVertex
 10
60.444695
 20
73.085824
 30
0.0
  0
VERTEX
  5
1BF
330
1A2
100
AcDbEntity
  8
001
370
    50
100
AcDbVertex
100
AcDb2dVertex
 10
60.603538
 20
72.915277
 30
0.0
  0
VERTEX
  5
1C0
330
1A2
100
AcDbEntity
  8
001
370
    50
100
AcDbVertex
100
AcDb2dVertex
 10
60.776252
 20
72.759194
 30
0.0
  0
VERTEX
  5
1C1
330
1A2
100
AcDbEntity
  8
001
370
    50
100
AcDbVertex
100
AcDb2dVertex
 10
60.961837
 20
72.618383
 30
0.0
  0
VERTEX
  5
1C2
330
1A2
100
AcDbEntity
  8
001
370
    50
100
AcDbVertex
100
AcDb2dVertex
 10
61.160346
 20
72.494244
 30
0.0
  0
VERTEX
  5
1C3
330
1A2
100
AcDbEntity
  8
001
370
    50
100
AcDbVertex
100
AcDb2dVertex
 10
61.371271
 20
72.387453
 30
0.0
  0
VERTEX
  5
1C4
330
1A2
100
AcDbEntity
  8
001
370
    50
100
AcDbVertex
100
AcDb2dVertex
 10
61.585306
 20
72.299026
 30
0.0
  0
VERTEX
  5
1C5
330
1A2
100
AcDbEntity
  8
001
370
    50
100
AcDbVertex
100
AcDb2dVertex
 10
61.799224
 20
72.229494
 30
0.0
  0
VERTEX
  5
1C6
330
1A2
100
AcDbEntity
  8
001
370
    50
100
AcDbVertex
100
AcDb2dVertex
 10
62.038221
 20
72.179471
 30
0.0
  0
VERTEX
  5
1C7
330
1A2
100
AcDbEntity
  8
001
370
    50
100
AcDbVertex
100
AcDb2dVertex
 10
62.308151
 20
72.149299
 30
0.0
  0
VERTEX
  5
1C8
330
1A2
100
AcDbEntity
  8
001
370
    50
100
AcDbVertex
100
AcDb2dVertex
 10
62.505329
 20
72.139211
 30
0.0
  0
SEQEND
  5
1A3
330
1A2
100
AcDbEntity
  8
001
370
    50
  0
LINE
  5
1C9
330
1F
100
AcDbEntity
  8
001
370
    50
100
AcDbLine
 10
62.701085
 20
69.803708
 30
0.0
 11
53.543525
 21
67.509126
 31
0.0
  0
LINE
  5
1CA
330
1F
100
AcDbEntity
  8
001
  6
CENTER
370
     9
100
AcDbLine
 10
50.441845
 20
67.963484
 30
0.0
 11
186.460222
 21
67.963484
 31
0.0
  0
LINE
  5
1CB
330
1F
100
AcDbEntity
  8
001
370
    50
100
AcDbLine
 10
86.043525
 20
77.963484
 30
0.0
 11
179.043525
 21
77.963484
 31
0.0
  0
LINE
  5
1CC
330
1F
100
AcDbEntity
  8
001
370
    50
100
AcDbLine
 10
86.043525
 20
57.963484
 30
0.0
 11
179.043525
 21
57.963484
 31
0.0
  0
LINE
  5
1CD
330
1F
100
AcDbEntity
  8
001
370
    50
100
AcDbLine
 10
183.043525
 20
67.963484
 30
0.0
 11
187.373652
 21
70.463484
 31
0.0
  0
LINE
  5
1CE
330
1F
100
AcDbEntity
  8
001
370
    50
100
AcDbLine
 10
183.043525
 20
67.963484
 30
0.0
 11
187.373652
 21
65.463484
 31
0.0
  0
LINE
  5
1CF
330
1F
100
AcDbEntity
  8
001
370
    50
100
AcDbLine
 10
53.543525
 20
67.963484
 30
0.0
 11
50.079423
 21
69.963484
 31
0.0
  0
LINE
  5
1D0
330
1F
100
AcDbEntity
  8
001
370
    50
100
AcDbLine
 10
53.543525
 20
67.963484
 30
0.0
 11
50.079423
 21
65.963484
 31
0.0
  0
LINE
  5
1D1
330
1F
100
AcDbEntity
  8
001
370
    50
100
AcDbLine
 10
68.4633
 20
65.805192
 30
0.0
 11
53.408663
 21
64.488082
 31
0.0
  0
LINE
  5
1D2
330
1F
100
AcDbEntity
  8
001
370
    50
100
AcDbLine
 10
62.465183
 20
51.522469
 30
0.0
 11
68.860685
 21
65.237667
 31
0.0
  0
ARC
  5
1D3
330
1F
100
AcDbEntity
  8
001
370
    50
100
AcDbCircle
 10
53.443525
 20
64.089604
 30
0.0
 40
0.4
100
AcDbArc
 50
95.0
 51
215.0
  0
ARC
  5
1D4
330
1F
100
AcDbEntity
  8
001
370
    50
100
AcDbCircle
 10
68.498162
 20
65.406714
 30
0.0
 40
0.4
100
AcDbArc
 50
335.0
 51
95.0
  0
CIRCLE
  5
1D5
330
1F
100
AcDbEntity
  8
001
370
    50
100
AcDbCircle
 10
61.35106
 20
60.402259
 30
0.0
 40
1.9
  0
LINE
  5
1D6
330
1F
100
AcDbEntity
  8
001
370
     9
100
AcDbLine
 10
61.911653
 20
51.298484
 30
0.0
 11
61.796272
 21
51.463267
 31
0.0
  0
LINE
  5
1D7
330
1F
100
AcDbEntity
  8
001
370
     9
100
AcDbLine
 10
53.043525
 20
63.963484
 30
0.0
 11
53.115864
 21
63.860173
 31
0.0
  0
LINE
  5
1D8
330
1F
100
AcDbEntity
  8
001
370
    50
100
AcDbLine
 10
61.795823
 20
51.463907
 30
0.0
 11
53.115864
 21
63.860173
 31
0.0
  0
LINE
  5
1D9
330
1F
100
AcDbEntity
  8
001
370
     9
100
AcDbLine
 10
53.043525
 20
63.963484
 30
0.0
 11
53.043525
 21
64.089604
 31
0.0
  0
ARC
  5
1DA
330
1F
100
AcDbEntity
  8
001
370
    50
100
AcDbCircle
 10
67.187519
 20
64.488992
 30
0.0
 40
2.999999999999999
100
AcDbArc
 50
268.578178
 51
161.421822
  0
ARC
  5
1DB
330
1F
100
AcDbEntity
  8
001
370
    50
100
AcDbCircle
 10
62.113598
 20
51.686416
 30
0.0
 40
0.3879317120279514
100
AcDbArc
 50
215.0
 51
335.0
  0
LINE
  5
1DC
330
1F
100
AcDbEntity
  8
001
370
     9
100
AcDbLine
 10
61.911653
 20
51.298484
 30
0.0
 11
62.114053
 21
51.298484
 31
0.0
  0
ARC
  5
1DD
330
1F
100
AcDbEntity
  8
001
370
    50
100
AcDbCircle
 10
53.443525
 20
71.837365
 30
0.0
 40
0.4
100
AcDbArc
 50
145.0
 51
265.0
  0
LINE
  5
1DE
330
1F
100
AcDbEntity
  8
001
370
     9
100
AcDbLine
 10
61.911653
 20
84.628484
 30
0.0
 11
61.796272
 21
84.463702
 31
0.0
  0
LINE
  5
1DF
330
1F
100
AcDbEntity
  8
001
370
    50
100
AcDbLine
 10
61.795823
 20
84.463061
 30
0.0
 11
53.115864
 21
72.066795
 31
0.0
  0
ARC
  5
1E0
330
1F
100
AcDbEntity
  8
001
370
    50
100
AcDbCircle
 10
62.113598
 20
84.240553
 30
0.0
 40
0.3879317120279514
100
AcDbArc
 50
25.0
 51
145.0
  0
LINE
  5
1E1
330
1F
100
AcDbEntity
  8
001
370
     9
100
AcDbLine
 10
61.911653
 20
84.628484
 30
0.0
 11
62.114053
 21
84.628484
 31
0.0
  0
LINE
  5
1E2
330
1F
100
AcDbEntity
  8
001
370
     9
100
AcDbLine
 10
53.043525
 20
71.963484
 30
0.0
 11
53.115864
 21
72.066795
 31
0.0
  0
LINE
  5
1E3
330
1F
100
AcDbEntity
  8
001
370
     9
100
AcDbLine
 10
53.043525
 20
71.963484
 30
0.0
 11
53.043525
 21
71.837365
 31
0.0
  0
LINE
  5
1E4
330
1F
100
AcDbEntity
  8
001
370
    50
100
AcDbLine
 10
53.81176
 20
71.40362
 30
0.0
 11
53.408663
 21
71.438887
 31
0.0
  0
LINE
  5
1E5
330
1F
100
AcDbEntity
  8
001
370
    50
100
AcDbLine
 10
86.043525
 20
77.463484
 30
0.0
 11
83.043525
 21
77.463484
 31
0.0
  0
LINE
  5
1E6
330
1F
100
AcDbEntity
  8
001
370
    50
100
AcDbLine
 10
86.043525
 20
58.463484
 30
0.0
 11
83.043525
 21
58.463484
 31
0.0
  0
LINE
  5
1E7
330
1F
100
AcDbEntity
  8
001
370
    50
100
AcDbLine
 10
86.043525
 20
77.963484
 30
0.0
 11
86.043525
 21
57.963484
 31
0.0
  0
LINE
  5
1E8
330
1F
100
AcDbEntity
  8
001
370
    50
100
AcDbLine
 10
81.043525
 20
84.213484
 30
0.0
 11
62.413312
 21
84.213484
 31
0.0
  0
LINE
  5
1E9
330
1F
100
AcDbEntity
  8
001
370
    50
100
AcDbLine
 10
81.043525
 20
51.713484
 30
0.0
 11
62.554255
 21
51.713484
 31
0.0
  0
POLYLINE
  5
1EA
330
1F
100
AcDbEntity
  8
001
370
    50
100
AcDb2dPolyline
 66
     1
 10
0.0
 20
0.0
 30
0.0
  0
VERTEX
  5
1EC
330
1EA
100
AcDbEntity
  8
001
370
    50
100
AcDbVertex
100
AcDb2dVertex
 10
62.949228
 20
52.560505
 30
0.0
  0
VERTEX
  5
1ED
330
1EA
100
AcDbEntity
  8
001
370
    50
100
AcDbVertex
100
AcDb2dVertex
 10
64.82863
 20
52.601854
 30
0.0
  0
VERTEX
  5
1EE
330
1EA
100
AcDbEntity
  8
001
370
    50
100
AcDbVertex
100
AcDb2dVertex
 10
67.190448
 20
52.656931
 30
0.0
  0
VERTEX
  5
1EF
330
1EA
100
AcDbEntity
  8
001
370
    50
100
AcDbVertex
100
AcDb2dVertex
 10
70.028021
 20
52.728576
 30
0.0
  0
VERTEX
  5
1F0
330
1EA
100
AcDbEntity
  8
001
370
    50
100
AcDbVertex
100
AcDb2dVertex
 10
71.969445
 20
52.780513
 30
0.0
  0
SEQEND
  5
1EB
330
1EA
100
AcDbEntity
  8
001
370
    50
  0
LINE
  5
1F1
330
1F
100
AcDbEntity
  8
001
370
    50
100
AcDbLine
 10
53.543525
 20
70.995451
 30
0.0
 11
53.543525
 21
64.499881
 31
0.0
  0
LINE
  5
1F2
330
1F
100
AcDbEntity
  8
001
370
    50
100
AcDbLine
 10
54.225078
 20
64.559509
 30
0.0
 11
53.543525
 21
65.940465
 31
0.0
  0
LINE
  5
1F3
330
1F
100
AcDbEntity
  8
001
370
    50
100
AcDbLine
 10
62.413312
 20
80.700791
 30
0.0
 11
62.413312
 21
84.213484
 31
0.0
  0
POLYLINE
  5
1F4
330
1F
100
AcDbEntity
  8
001
370
    50
100
AcDb2dPolyline
 66
     1
 10
0.0
 20
0.0
 30
0.0
  0
VERTEX
  5
1F6
330
1F4
100
AcDbEntity
  8
001
370
    50
100
AcDbVertex
100
AcDb2dVertex
 10
57.378822
 20
68.619442
 30
0.0
  0
VERTEX
  5
1F7
330
1F4
100
AcDbEntity
  8
001
370
    50
100
AcDbVertex
100
AcDb2dVertex
 10
57.763619
 20
70.723703
 30
0.0
  0
VERTEX
  5
1F8
330
1F4
100
AcDbEntity
  8
001
370
    50
100
AcDbVertex
100
AcDb2dVertex
 10
58.25577
 20
72.803611
 30
0.0
  0
VERTEX
  5
1F9
330
1F4
100
AcDbEntity
  8
001
370
    50
100
AcDbVertex
100
AcDb2dVertex
 10
58.951198
 20
74.855479
 30
0.0
  0
VERTEX
  5
1FA
330
1F4
100
AcDbEntity
  8
001
370
    50
100
AcDbVertex
100
AcDb2dVertex
 10
59.853957
 20
76.829281
 30
0.0
  0
VERTEX
  5
1FB
330
1F4
100
AcDbEntity
  8
001
370
    50
100
AcDbVertex
100
AcDb2dVertex
 10
60.952094
 20
78.696695
 30
0.0
  0
VERTEX
  5
1FC
330
1F4
100
AcDbEntity
  8
001
370
    50
100
AcDbVertex
100
AcDb2dVertex
 10
61.658816
 20
79.710521
 30
0.0
  0
VERTEX
  5
1FD
330
1F4
100
AcDbEntity
  8
001
370
    50
100
AcDbVertex
100
AcDb2dVertex
 10
62.395887
 20
80.702059
 30
0.0
  0
SEQEND
  5
1F5
330
1F4
100
AcDbEntity
  8
001
370
    50
  0
POLYLINE
  5
1FE
330
1F
100
AcDbEntity
  8
001
370
    50
100
AcDb2dPolyline
 66
     1
 10
0.0
 20
0.0
 30
0.0
  0
VERTEX
  5
200
330
1FE
100
AcDbEntity
  8
001
370
    50
100
AcDbVertex
100
AcDb2dVertex
 10
72.368582
 20
79.915126
 30
0.0
  0
VERTEX
  5
201
330
1FE
100
AcDbEntity
  8
001
370
    50
100
AcDbVertex
100
AcDb2dVertex
 10
70.312468
 20
80.087764
 30
0.0
  0
VERTEX
  5
202
330
1FE
100
AcDbEntity
  8
001
370
    50
100
AcDbVertex
100
AcDb2dVertex
 10
67.306632
 20
80.330856
 30
0.0
  0
VERTEX
  5
203
330
1FE
100
AcDbEntity
  8
001
370
    50
100
AcDbVertex
100
AcDb2dVertex
 10
64.515822
 20
80.545229
 30
0.0
  0
VERTEX
  5
204
330
1FE
100
AcDbEntity
  8
001
370
    50
100
AcDbVertex
100
AcDb2dVertex
 10
62.413312
 20
80.700791
 30
0.0
  0
SEQEND
  5
1FF
330
1FE
100
AcDbEntity
  8
001
370
    50
  0
LINE
  5
205
330
1F
100
AcDbEntity
  8
001
370
    50
100
AcDbLine
 10
62.465183
 20
84.4045
 30
0.0
 11
62.554255
 21
84.213484
 31
0.0
  0
ARC
  5
206
330
1F
100
AcDbEntity
  8
001
370
    50
100
AcDbCircle
 10
179.043525
 20
73.963484
 30
0.0
 40
4.0
100
AcDbArc
 50
0.0
 51
90.0
  0
ARC
  5
207
330
1F
100
AcDbEntity
  8
001
370
    50
100
AcDbCircle
 10
179.043525
 20
61.963484
 30
0.0
 40
4.0
100
AcDbArc
 50
270.0
 51
0.0
  0
TEXT
  5
208
330
1F
100
AcDbEntity
  8
001
370
    30
100
AcDbText
 10
33.395723
 20
101.691956
 30
0.0
 40
4.0
  1
ＮＫ３５３２Ｔ－２０（ＮＥＷ）
 41
0.833333
100
AcDbText
  0
ARC
  5
209
330
1F
100
AcDbEntity
  8
001
370
    50
100
AcDbCircle
 10
81.043525
 20
53.713484
 30
0.0
 40
2.0
100
AcDbArc
 50
270.0
 51
0.0
  0
ARC
  5
20A
330
1F
100
AcDbEntity
  8
001
370
    50
100
AcDbCircle
 10
81.043525
 20
82.213484
 30
0.0
 40
2.0
100
AcDbArc
 50
0.0
 51
90.0
  0
ENDSEC
  0
SECTION
  2
OBJECTS
  0
DICTIONARY
  5
C
330
0
100
AcDbDictionary
281
     1
  3
ACAD_GROUP
350
D
  3
ACAD_LAYOUT
350
1A
  3
ACAD_MLEADERSTYLE
350
20E
  3
ACAD_MLINESTYLE
350
17
  3
ACAD_PLOTSETTINGS
350
19
  3
ACAD_PLOTSTYLENAME
350
E
  3
ACAD_SCALELIST
350
3B
  3
ACAD_TABLESTYLE
350
20D
  3
ACAD_VISUALSTYLE
350
2A
  3
AcDbVariableDictionary
350
20B
  0
DICTIONARY
  5
D
102
{ACAD_REACTORS
330
C
102
}
330
C
100
AcDbDictionary
281
     1
  0
DICTIONARY
  5
1A
102
{ACAD_REACTORS
330
C
102
}
330
C
100
AcDbDictionary
281
     1
  3
Layout1
350
1E
  3
Layout2
350
26
  3
Model
350
22
  0
DICTIONARY
  5
20E
102
{ACAD_REACTORS
330
C
102
}
330
C
100
AcDbDictionary
281
     1
  0
DICTIONARY
  5
17
102
{ACAD_REACTORS
330
C
102
}
330
C
100
AcDbDictionary
281
     1
  3
Standard
350
18
  0
DICTIONARY
  5
19
102
{ACAD_REACTORS
330
C
102
}
330
C
100
AcDbDictionary
281
     1
  0
ACDBDICTIONARYWDFLT
  5
E
102
{ACAD_REACTORS
330
C
102
}
330
C
100
AcDbDictionary
281
     1
  3
Normal
350
F
100
AcDbDictionaryWithDefault
340
F
  0
DICTIONARY
  5
3B
102
{ACAD_REACTORS
330
C
102
}
330
C
100
AcDbDictionary
281
     1
  3
A0
350
3C
  3
A1
350
3D
  3
A2
350
3E
  3
A3
350
3F
  3
A4
350
40
  3
A5
350
41
  3
A6
350
42
  3
A7
350
43
  3
A8
350
44
  3
A9
350
45
  3
B0
350
46
  3
B1
350
47
  3
B2
350
48
  3
B3
350
49
  3
B4
350
4A
  3
B5
350
4B
  3
B6
350
4C
  3
B7
350
4D
  3
B8
350
4E
  3
B9
350
4F
  3
C0
350
50
  3
C1
350
51
  3
C2
350
52
  3
C3
350
53
  3
C4
350
54
  3
C5
350
55
  3
C6
350
56
  3
C7
350
57
  3
C8
350
58
  3
C9
350
59
  3
D0
350
5A
  3
D1
350
5B
  3
D2
350
5C
  0
DICTIONARY
  5
20D
102
{ACAD_REACTORS
330
C
102
}
330
C
100
AcDbDictionary
281
     1
  0
DICTIONARY
  5
2A
102
{ACAD_REACTORS
330
C
102
}
330
C
100
AcDbDictionary
281
     1
  3
2dWireframe
350
2F
  3
3D Hidden
350
31
  3
3dWireframe
350
30
  3
Basic
350
32
  3
Brighten
350
36
  3
ColorChange
350
3A
  3
Conceptual
350
34
  3
Dim
350
35
  3
Facepattern
350
39
  3
Flat
350
2B
  3
FlatWithEdges
350
2C
  3
Gouraud
350
2D
  3
GouraudWithEdges
350
2E
  3
Linepattern
350
38
  3
Realistic
350
33
  3
Thicken
350
37
  0
DICTIONARY
  5
20B
102
{ACAD_REACTORS
330
C
102
}
330
C
100
AcDbDictionary
281
     1
  3
CANNOSCALE
350
20C
  3
PSOLHEIGHT
350
210
  3
PSOLWIDTH
350
20F
  0
LAYOUT
  5
1E
102
{ACAD_REACTORS
330
1A
102
}
330
1A
100
AcDbPlotSettings
  1

  2
none_device
  4

  6

 40
0.0
 41
0.0
 42
0.0
 43
0.0
 44
0.0
 45
0.0
 46
0.0
 47
0.0
 48
0.0
 49
0.0
140
0.0
141
0.0
142
1.0
143
1.0
 70
   688
 72
     0
 73
     0
 74
     5
  7

 75
    16
147
1.0
148
0.0
149
0.0
100
AcDbLayout
  1
Layout1
 70
     1
 71
     1
 10
0.0
 20
0.0
 11
12.0
 21
9.0
 12
0.0
 22
0.0
 32
0.0
 14
1.000000E+20
 24
1.000000E+20
 34
0.0
 15
-1.000000E+20
 25
-1.000000E+20
 35
0.0
146
0.0
 13
0.0
 23
0.0
 33
0.0
 16
1.0
 26
0.0
 36
0.0
 17
0.0
 27
1.0
 37
0.0
 76
     0
330
1B
  0
LAYOUT
  5
26
102
{ACAD_REACTORS
330
1A
102
}
330
1A
100
AcDbPlotSettings
  1

  2
none_device
  4

  6

 40
0.0
 41
0.0
 42
0.0
 43
0.0
 44
0.0
 45
0.0
 46
0.0
 47
0.0
 48
0.0
 49
0.0
140
0.0
141
0.0
142
1.0
143
1.0
 70
   688
 72
     0
 73
     0
 74
     5
  7

 75
    16
147
1.0
148
0.0
149
0.0
100
AcDbLayout
  1
Layout2
 70
     1
 71
     2
 10
0.0
 20
0.0
 11
0.0
 21
0.0
 12
0.0
 22
0.0
 32
0.0
 14
0.0
 24
0.0
 34
0.0
 15
0.0
 25
0.0
 35
0.0
146
0.0
 13
0.0
 23
0.0
 33
0.0
 16
1.0
 26
0.0
 36
0.0
 17
0.0
 27
1.0
 37
0.0
 76
     0
330
23
  0
LAYOUT
  5
22
102
{ACAD_REACTORS
330
1A
102
}
330
1A
100
AcDbPlotSettings
  1

  2
none_device
  4

  6

 40
0.0
 41
0.0
 42
0.0
 43
0.0
 44
0.0
 45
0.0
 46
0.0
 47
0.0
 48
0.0
 49
0.0
140
0.0
141
0.0
142
1.0
143
1.0
 70
  1712
 72
     0
 73
     0
 74
     0
  7

 75
     0
147
1.0
148
0.0
149
0.0
100
AcDbLayout
  1
Model
 70
     1
 71
     0
 10
0.0
 20
0.0
 11
12.0
 21
9.0
 12
0.0
 22
0.0
 32
0.0
 14
21.879913
 24
9.534927
 34
0.0
 15
212.424759
 25
105.691956
 35
0.0
146
0.0
 13
0.0
 23
0.0
 33
0.0
 16
1.0
 26
0.0
 36
0.0
 17
0.0
 27
1.0
 37
0.0
 76
     0
330
1F
331
29
  0
MLINESTYLE
  5
18
102
{ACAD_REACTORS
330
17
102
}
330
17
100
AcDbMlineStyle
  2
Standard
 70
     0
  3

 62
   256
 51
90.0
 52
90.0
 71
     2
 49
0.5
 62
   256
  6
BYLAYER
 49
-0.5
 62
   256
  6
BYLAYER
  0
ACDBPLACEHOLDER
  5
F
102
{ACAD_REACTORS
330
E
102
}
330
E
  0
SCALE
  5
3C
102
{ACAD_REACTORS
330
3B
102
}
330
3B
100
AcDbScale
 70
     0
300
1:1
140
1.0
141
1.0
290
     1
  0
SCALE
  5
3D
102
{ACAD_REACTORS
330
3B
102
}
330
3B
100
AcDbScale
 70
     0
300
1:2
140
1.0
141
2.0
290
     0
  0
SCALE
  5
3E
102
{ACAD_REACTORS
330
3B
102
}
330
3B
100
AcDbScale
 70
     0
300
1:4
140
1.0
141
4.0
290
     0
  0
SCALE
  5
3F
102
{ACAD_REACTORS
330
3B
102
}
330
3B
100
AcDbScale
 70
     0
300
1:5
140
1.0
141
5.0
290
     0
  0
SCALE
  5
40
102
{ACAD_REACTORS
330
3B
102
}
330
3B
100
AcDbScale
 70
     0
300
1:8
140
1.0
141
8.0
290
     0
  0
SCALE
  5
41
102
{ACAD_REACTORS
330
3B
102
}
330
3B
100
AcDbScale
 70
     0
300
1:10
140
1.0
141
10.0
290
     0
  0
SCALE
  5
42
102
{ACAD_REACTORS
330
3B
102
}
330
3B
100
AcDbScale
 70
     0
300
1:16
140
1.0
141
16.0
290
     0
  0
SCALE
  5
43
102
{ACAD_REACTORS
330
3B
102
}
330
3B
100
AcDbScale
 70
     0
300
1:20
140
1.0
141
20.0
290
     0
  0
SCALE
  5
44
102
{ACAD_REACTORS
330
3B
102
}
330
3B
100
AcDbScale
 70
     0
300
1:30
140
1.0
141
30.0
290
     0
  0
SCALE
  5
45
102
{ACAD_REACTORS
330
3B
102
}
330
3B
100
AcDbScale
 70
     0
300
1:40
140
1.0
141
40.0
290
     0
  0
SCALE
  5
46
102
{ACAD_REACTORS
330
3B
102
}
330
3B
100
AcDbScale
 70
     0
300
1:50
140
1.0
141
50.0
290
     0
  0
SCALE
  5
47
102
{ACAD_REACTORS
330
3B
102
}
330
3B
100
AcDbScale
 70
     0
300
1:100
140
1.0
141
100.0
290
     0
  0
SCALE
  5
48
102
{ACAD_REACTORS
330
3B
102
}
330
3B
100
AcDbScale
 70
     0
300
2:1
140
2.0
141
1.0
290
     0
  0
SCALE
  5
49
102
{ACAD_REACTORS
330
3B
102
}
330
3B
100
AcDbScale
 70
     0
300
4:1
140
4.0
141
1.0
290
     0
  0
SCALE
  5
4A
102
{ACAD_REACTORS
330
3B
102
}
330
3B
100
AcDbScale
 70
     0
300
8:1
140
8.0
141
1.0
290
     0
  0
SCALE
  5
4B
102
{ACAD_REACTORS
330
3B
102
}
330
3B
100
AcDbScale
 70
     0
300
10:1
140
10.0
141
1.0
290
     0
  0
SCALE
  5
4C
102
{ACAD_REACTORS
330
3B
102
}
330
3B
100
AcDbScale
 70
     0
300
100:1
140
100.0
141
1.0
290
     0
  0
SCALE
  5
4D
102
{ACAD_REACTORS
330
3B
102
}
330
3B
100
AcDbScale
 70
     0
300
1/128" = 1'-0"
140
0.007812
141
12.0
290
     0
  0
SCALE
  5
4E
102
{ACAD_REACTORS
330
3B
102
}
330
3B
100
AcDbScale
 70
     0
300
1/64" = 1'-0"
140
0.015625
141
12.0
290
     0
  0
SCALE
  5
4F
102
{ACAD_REACTORS
330
3B
102
}
330
3B
100
AcDbScale
 70
     0
300
1/32" = 1'-0"
140
0.03125
141
12.0
290
     0
  0
SCALE
  5
50
102
{ACAD_REACTORS
330
3B
102
}
330
3B
100
AcDbScale
 70
     0
300
1/16" = 1'-0"
140
0.0625
141
12.0
290
     0
  0
SCALE
  5
51
102
{ACAD_REACTORS
330
3B
102
}
330
3B
100
AcDbScale
 70
     0
300
3/32" = 1'-0"
140
0.09375
141
12.0
290
     0
  0
SCALE
  5
52
102
{ACAD_REACTORS
330
3B
102
}
330
3B
100
AcDbScale
 70
     0
300
1/8" = 1'-0"
140
0.125
141
12.0
290
     0
  0
SCALE
  5
53
102
{ACAD_REACTORS
330
3B
102
}
330
3B
100
AcDbScale
 70
     0
300
3/16" = 1'-0"
140
0.1875
141
12.0
290
     0
  0
SCALE
  5
54
102
{ACAD_REACTORS
330
3B
102
}
330
3B
100
AcDbScale
 70
     0
300
1/4" = 1'-0"
140
0.25
141
12.0
290
     0
  0
SCALE
  5
55
102
{ACAD_REACTORS
330
3B
102
}
330
3B
100
AcDbScale
 70
     0
300
3/8" = 1'-0"
140
0.375
141
12.0
290
     0
  0
SCALE
  5
56
102
{ACAD_REACTORS
330
3B
102
}
330
3B
100
AcDbScale
 70
     0
300
1/2" = 1'-0"
140
0.5
141
12.0
290
     0
  0
SCALE
  5
57
102
{ACAD_REACTORS
330
3B
102
}
330
3B
100
AcDbScale
 70
     0
300
3/4" = 1'-0"
140
0.75
141
12.0
290
     0
  0
SCALE
  5
58
102
{ACAD_REACTORS
330
3B
102
}
330
3B
100
AcDbScale
 70
     0
300
1" = 1'-0"
140
1.0
141
12.0
290
     0
  0
SCALE
  5
59
102
{ACAD_REACTORS
330
3B
102
}
330
3B
100
AcDbScale
 70
     0
300
1-1/2" = 1'-0"
140
1.5
141
12.0
290
     0
  0
SCALE
  5
5A
102
{ACAD_REACTORS
330
3B
102
}
330
3B
100
AcDbScale
 70
     0
300
3" = 1'-0"
140
3.0
141
12.0
290
     0
  0
SCALE
  5
5B
102
{ACAD_REACTORS
330
3B
102
}
330
3B
100
AcDbScale
 70
     0
300
6" = 1'-0"
140
6.0
141
12.0
290
     0
  0
SCALE
  5
5C
102
{ACAD_REACTORS
330
3B
102
}
330
3B
100
AcDbScale
 70
     0
300
1'-0" = 1'-0"
140
12.0
141
12.0
290
     0
  0
VISUALSTYLE
  5
2F
102
{ACAD_REACTORS
330
2A
102
}
330
2A
100
AcDbVisualStyle
  2
2dWireframe
 70
     4
 71
     0
 72
     2
 73
     0
 90
        0
 40
-0.6
 41
-30.0
 62
     5
 63
     7
 74
     1
 91
        4
 64
     7
 65
   257
 75
     1
175
     1
 42
1.0
 92
        0
 66
   257
 43
1.0
 76
     1
 77
     6
 78
     2
 67
     7
 79
     5
170
     0
171
     0
290
     0
174
     0
 93
        1
 44
0.0
173
     0
291
     0
 45
0.0
1001
ACAD
1000
AcDbSavedByObjectVersion
1070
     0
  0
VISUALSTYLE
  5
31
102
{ACAD_REACTORS
330
2A
102
}
330
2A
100
AcDbVisualStyle
  2
3D Hidden
 70
     6
 71
     1
 72
     2
 73
     2
 90
        0
 40
-0.6
 41
-30.0
 62
     5
 63
     7
 74
     2
 91
        2
 64
     7
 65
   257
 75
     2
175
     1
 42
40.0
 92
        0
 66
   257
 43
1.0
 76
     1
 77
     6
 78
     2
 67
     7
 79
     3
170
     0
171
     0
290
     0
174
     0
 93
        1
 44
0.0
173
     0
291
     0
 45
0.0
1001
ACAD
1000
AcDbSavedByObjectVersion
1070
     0
  0
VISUALSTYLE
  5
30
102
{ACAD_REACTORS
330
2A
102
}
330
2A
100
AcDbVisualStyle
  2
3dWireframe
 70
     5
 71
     0
 72
     2
 73
     0
 90
        0
 40
-0.6
 41
-30.0
 62
     5
 63
     7
 74
     1
 91
        4
 64
     7
 65
   257
 75
     1
175
     1
 42
1.0
 92
        0
 66
   257
 43
1.0
 76
     1
 77
     6
 78
     2
 67
     7
 79
     5
170
     0
171
     0
290
     0
174
     0
 93
        1
 44
0.0
173
     0
291
     0
 45
0.0
1001
ACAD
1000
AcDbSavedByObjectVersion
1070
     0
  0
VISUALSTYLE
  5
32
102
{ACAD_REACTORS
330
2A
102
}
330
2A
100
AcDbVisualStyle
  2
Basic
 70
     7
 71
     1
 72
     0
 73
     1
 90
        0
 40
-0.6
 41
-30.0
 62
     5
 63
     7
 74
     0
 91
        4
 64
     7
 65
   257
 75
     1
175
     1
 42
1.0
 92
        8
 66
     7
 43
1.0
 76
     1
 77
     6
 78
     2
 67
     7
 79
     5
170
     0
171
     0
290
     0
174
     0
 93
        1
 44
0.0
173
     0
291
     1
 45
0.0
1001
ACAD
1000
AcDbSavedByObjectVersion
1070
     0
  0
VISUALSTYLE
  5
36
102
{ACAD_REACTORS
330
2A
102
}
330
2A
100
AcDbVisualStyle
  2
Brighten
 70
    12
 71
     2
 72
     2
 73
     0
 90
        0
 40
-0.6
 41
-30.0
 62
     5
 63
     7
 74
     1
 91
        4
 64
     7
 65
   257
 75
     1
175
     1
 42
1.0
 92
        8
 66
     7
 43
1.0
 76
     1
 77
     6
 78
     2
 67
     7
 79
     5
170
     0
171
     0
290
     0
174
     0
 93
        1
 44
50.0
173
     0
291
     1
 45
0.0
1001
ACAD
1000
AcDbSavedByObjectVersion
1070
     0
  0
VISUALSTYLE
  5
3A
102
{ACAD_REACTORS
330
2A
102
}
330
2A
100
AcDbVisualStyle
  2
ColorChange
 70
    16
 71
     2
 72
     2
 73
     3
 90
        0
 40
-0.6
 41
-30.0
 62
     5
 63
     8
 74
     1
 91
        4
 64
     7
 65
   257
 75
     1
175
     1
 42
1.0
 92
        8
 66
     8
 43
1.0
 76
     1
 77
     6
 78
     2
 67
     7
 79
     5
170
     0
171
     0
290
     0
174
     0
 93
        1
 44
0.0
173
     0
291
     1
 45
0.0
1001
ACAD
1000
AcDbSavedByObjectVersion
1070
     0
  0
VISUALSTYLE
  5
34
102
{ACAD_REACTORS
330
2A
102
}
330
2A
100
AcDbVisualStyle
  2
Conceptual
 70
     9
 71
     3
 72
     2
 73
     0
 90
        0
 40
-0.6
 41
-30.0
 62
     5
 63
     7
 74
     2
 91
        2
 64
     7
 65
   257
 75
     1
175
     1
 42
40.0
 92
        8
 66
     7
 43
1.0
 76
     1
 77
     6
 78
     2
 67
     7
 79
     3
170
     0
171
     0
290
     0
174
     0
 93
        1
 44
0.0
173
     0
291
     0
 45
0.0
1001
ACAD
1000
AcDbSavedByObjectVersion
1070
     0
  0
VISUALSTYLE
  5
35
102
{ACAD_REACTORS
330
2A
102
}
330
2A
100
AcDbVisualStyle
  2
Dim
 70
    11
 71
     2
 72
     2
 73
     0
 90
        0
 40
-0.6
 41
-30.0
 62
     5
 63
     7
 74
     1
 91
        4
 64
     7
 65
   257
 75
     1
175
     1
 42
1.0
 92
        8
 66
     7
 43
1.0
 76
     1
 77
     6
 78
     2
 67
     7
 79
     5
170
     0
171
     0
290
     0
174
     0
 93
        1
 44
-50.0
173
     0
291
     1
 45
0.0
1001
ACAD
1000
AcDbSavedByObjectVersion
1070
     0
  0
VISUALSTYLE
  5
39
102
{ACAD_REACTORS
330
2A
102
}
330
2A
100
AcDbVisualStyle
  2
Facepattern
 70
    15
 71
     2
 72
     2
 73
     0
 90
        0
 40
-0.6
 41
-30.0
 62
     5
 63
     7
 74
     1
 91
        4
 64
     7
 65
   257
 75
     1
175
     1
 42
1.0
 92
        8
 66
     7
 43
1.0
 76
     1
 77
     6
 78
     2
 67
     7
 79
     5
170
     0
171
     0
290
     0
174
     0
 93
        1
 44
0.0
173
     0
291
     1
 45
0.0
1001
ACAD
1000
AcDbSavedByObjectVersion
1070
     0
  0
VISUALSTYLE
  5
2B
102
{ACAD_REACTORS
330
2A
102
}
330
2A
100
AcDbVisualStyle
  2
Flat
 70
     0
 71
     2
 72
     1
 73
     1
 90
        2
 40
-0.6
 41
30.0
 62
     5
 63
     7
 74
     0
 91
        4
 64
     7
 65
   257
 75
     1
175
     1
 42
1.0
 92
        8
 66
     7
 43
1.0
 76
     1
 77
     6
 78
     2
 67
     7
 79
     5
170
     0
171
     0
290
     0
174
     0
 93
       13
 44
0.0
173
     0
291
     1
 45
0.0
1001
ACAD
1000
AcDbSavedByObjectVersion
1070
     0
  0
VISUALSTYLE
  5
2C
102
{ACAD_REACTORS
330
2A
102
}
330
2A
100
AcDbVisualStyle
  2
FlatWithEdges
 70
     1
 71
     2
 72
     1
 73
     1
 90
        2
 40
-0.6
 41
30.0
 62
     5
 63
     7
 74
     1
 91
        4
 64
     7
 65
   257
 75
     1
175
     1
 42
1.0
 92
        0
 66
   257
 43
1.0
 76
     1
 77
     6
 78
     2
 67
     7
 79
     5
170
     0
171
     0
290
     0
174
     0
 93
       13
 44
0.0
173
     0
291
     1
 45
0.0
1001
ACAD
1000
AcDbSavedByObjectVersion
1070
     0
  0
VISUALSTYLE
  5
2D
102
{ACAD_REACTORS
330
2A
102
}
330
2A
100
AcDbVisualStyle
  2
Gouraud
 70
     2
 71
     2
 72
     2
 73
     1
 90
        2
 40
-0.6
 41
30.0
 62
     5
 63
     7
 74
     0
 91
        4
 64
     7
 65
   257
 75
     1
175
     1
 42
1.0
 92
        0
 66
     7
 43
1.0
 76
     1
 77
     6
 78
     2
 67
     7
 79
     5
170
     0
171
     0
290
     0
174
     0
 93
       13
 44
0.0
173
     0
291
     1
 45
0.0
1001
ACAD
1000
AcDbSavedByObjectVersion
1070
     0
  0
VISUALSTYLE
  5
2E
102
{ACAD_REACTORS
330
2A
102
}
330
2A
100
AcDbVisualStyle
  2
GouraudWithEdges
 70
     3
 71
     2
 72
     2
 73
     1
 90
        2
 40
-0.6
 41
30.0
 62
     5
 63
     7
 74
     1
 91
        4
 64
     7
 65
   257
 75
     1
175
     1
 42
1.0
 92
        0
 66
   257
 43
1.0
 76
     1
 77
     6
 78
     2
 67
     7
 79
     5
170
     0
171
     0
290
     0
174
     0
 93
       13
 44
0.0
173
     0
291
     1
 45
0.0
1001
ACAD
1000
AcDbSavedByObjectVersion
1070
     0
  0
VISUALSTYLE
  5
38
102
{ACAD_REACTORS
330
2A
102
}
330
2A
100
AcDbVisualStyle
  2
Linepattern
 70
    14
 71
     2
 72
     2
 73
     0
 90
        0
 40
-0.6
 41
-30.0
 62
     5
 63
     7
 74
     1
 91
        4
 64
     7
 65
   257
 75
     7
175
     7
 42
1.0
 92
        8
 66
     7
 43
1.0
 76
     1
 77
     6
 78
     2
 67
     7
 79
     5
170
     0
171
     0
290
     0
174
     0
 93
        1
 44
0.0
173
     0
291
     1
 45
0.0
1001
ACAD
1000
AcDbSavedByObjectVersion
1070
     0
  0
VISUALSTYLE
  5
33
102
{ACAD_REACTORS
330
2A
102
}
330
2A
100
AcDbVisualStyle
  2
Realistic
 70
     8
 71
     2
 72
     2
 73
     0
 90
        0
 40
-0.6
 41
-30.0
 62
     5
 63
     7
 74
     1
 91
        0
 64
     7
 65
   257
 75
     1
175
     1
 42
1.0
 92
        8
 66
     8
 43
1.0
 76
     1
 77
     6
 78
     2
 67
     7
 79
     5
170
     0
171
     0
290
     0
174
     0
 93
       13
 44
0.0
173
     0
291
     0
 45
0.0
1001
ACAD
1000
AcDbSavedByObjectVersion
1070
     0
  0
VISUALSTYLE
  5
37
102
{ACAD_REACTORS
330
2A
102
}
330
2A
100
AcDbVisualStyle
  2
Thicken
 70
    13
 71
     2
 72
     2
 73
     0
 90
        0
 40
-0.6
 41
-30.0
 62
     5
 63
     7
 74
     1
 91
        4
 64
     7
 65
   257
 75
     1
175
     1
 42
1.0
 92
       12
 66
     7
 43
1.0
 76
     1
 77
     6
 78
     2
 67
     7
 79
     5
170
     0
171
     0
290
     0
174
     0
 93
        1
 44
0.0
173
     0
291
     1
 45
0.0
1001
ACAD
1000
AcDbSavedByObjectVersion
1070
     0
  0
DICTIONARYVAR
  5
20C
102
{ACAD_REACTORS
330
20B
102
}
330
20B
100
DictionaryVariables
280
     0
  1
1:1
  0
DICTIONARYVAR
  5
210
102
{ACAD_REACTORS
330
20B
102
}
330
20B
100
DictionaryVariables
280
     0
  1
80.000000
  0
DICTIONARYVAR
  5
20F
102
{ACAD_REACTORS
330
20B
102
}
330
20B
100
DictionaryVariables
280
     0
  1
5.000000
  0
ENDSEC
  0
EOF
