  0
SECTION
  2
HEADER
  9
$ACADVER
  1
AC1015
  9
$ACADMAINTVER
 70
     6
  9
$DWGCODEPAGE
  3
ANSI_932
  9
$INSBASE
 10
0.0
 20
0.0
 30
0.0
  9
$EXTMIN
 10
11.871521
 20
6.08815
 30
0.0
  9
$EXTMAX
 10
201.323135
 20
101.553703
 30
0.0
  9
$LIMMIN
 10
0.0
 20
0.0
  9
$LIMMAX
 10
12.0
 20
9.0
  9
$ORTHOMODE
 70
     0
  9
$REGENMODE
 70
     1
  9
$FILLMODE
 70
     1
  9
$QTEXTMODE
 70
     0
  9
$MIRRTEXT
 70
     1
  9
$LTSCALE
 40
3.157527
  9
$ATTMODE
 70
     1
  9
$TEXTSIZE
 40
3.2
  9
$TRACEWID
 40
1.0
  9
$TEXTSTYLE
  7
Standard
  9
$CLAYER
  8
0
  9
$CELTYPE
  6
ByLayer
  9
$CECOLOR
 62
   256
  9
$CELTSCALE
 40
1.0
  9
$DISPSILH
 70
     0
  9
$DIMSCALE
 40
1.0
  9
$DIMASZ
 40
2.5
  9
$DIMEXO
 40
0.625
  9
$DIMDLI
 40
3.75
  9
$DIMRND
 40
0.0
  9
$DIMDLE
 40
0.0
  9
$DIMEXE
 40
1.25
  9
$DIMTP
 40
0.0
  9
$DIMTM
 40
0.0
  9
$DIMTXT
 40
2.5
  9
$DIMCEN
 40
0.09
  9
$DIMTSZ
 40
0.0
  9
$DIMTOL
 70
     0
  9
$DIMLIM
 70
     0
  9
$DIMTIH
 70
     0
  9
$DIMTOH
 70
     0
  9
$DIMSE1
 70
     0
  9
$DIMSE2
 70
     0
  9
$DIMTAD
 70
     0
  9
$DIMZIN
 70
     8
  9
$DIMBLK
  1

  9
$DIMASO
 70
     1
  9
$DIMSHO
 70
     0
  9
$DIMPOST
  1

  9
$DIMAPOST
  1

  9
$DIMALT
 70
     0
  9
$DIMALTD
 70
     3
  9
$DIMALTF
 40
0.03937
  9
$DIMLFAC
 40
1.0
  9
$DIMTOFL
 70
     1
  9
$DIMTVP
 40
0.0
  9
$DIMTIX
 70
     0
  9
$DIMSOXD
 70
     0
  9
$DIMSAH
 70
     0
  9
$DIMBLK1
  1

  9
$DIMBLK2
  1

  9
$DIMSTYLE
  2
ISO-25
  9
$DIMCLRD
 70
     0
  9
$DIMCLRE
 70
     0
  9
$DIMCLRT
 70
     0
  9
$DIMTFAC
 40
1.0
  9
$DIMGAP
 40
0.625
  9
$DIMJUST
 70
     0
  9
$DIMSD1
 70
     0
  9
$DIMSD2
 70
     0
  9
$DIMTOLJ
 70
     0
  9
$DIMTZIN
 70
     8
  9
$DIMALTZ
 70
     0
  9
$DIMALTTZ
 70
     0
  9
$DIMUPT
 70
     0
  9
$DIMDEC
 70
     2
  9
$DIMTDEC
 70
     2
  9
$DIMALTU
 70
     2
  9
$DIMALTTD
 70
     3
  9
$DIMTXSTY
  7
Standard
  9
$DIMAUNIT
 70
     0
  9
$DIMADEC
 70
     0
  9
$DIMALTRND
 40
0.0
  9
$DIMAZIN
 70
     0
  9
$DIMDSEP
 70
    44
  9
$DIMATFIT
 70
     3
  9
$DIMFRAC
 70
     0
  9
$DIMLDRBLK
  1

  9
$DIMLUNIT
 70
     2
  9
$DIMLWD
 70
    -2
  9
$DIMLWE
 70
    -2
  9
$DIMTMOVE
 70
     0
  9
$LUNITS
 70
     2
  9
$LUPREC
 70
     4
  9
$SKETCHINC
 40
1.0
  9
$FILLETRAD
 40
0.0
  9
$AUNITS
 70
     0
  9
$AUPREC
 70
     0
  9
$MENU
  1
.
  9
$ELEVATION
 40
0.0
  9
$PELEVATION
 40
0.0
  9
$THICKNESS
 40
0.0
  9
$LIMCHECK
 70
     0
  9
$CHAMFERA
 40
10.0
  9
$CHAMFERB
 40
10.0
  9
$CHAMFERC
 40
20.0
  9
$CHAMFERD
 40
0.0
  9
$SKPOLY
 70
     0
  9
$TDCREATE
 40
2454621.683870081
  9
$TDUCREATE
 40
2454621.308870081
  9
$TDUPDATE
 40
2454621.683870093
  9
$TDUUPDATE
 40
2454621.308870093
  9
$TDINDWG
 40
0.0000000116
  9
$TDUSRTIMER
 40
0.0000000116
  9
$USRTIMER
 70
     1
  9
$ANGBASE
 50
0.0
  9
$ANGDIR
 70
     0
  9
$PDMODE
 70
     0
  9
$PDSIZE
 40
0.0
  9
$PLINEWID
 40
0.0
  9
$SPLFRAME
 70
     0
  9
$SPLINETYPE
 70
     6
  9
$SPLINESEGS
 70
     8
  9
$HANDSEED
  5
257
  9
$SURFTAB1
 70
     6
  9
$SURFTAB2
 70
     6
  9
$SURFTYPE
 70
     6
  9
$SURFU
 70
     6
  9
$SURFV
 70
     6
  9
$UCSBASE
  2

  9
$UCSNAME
  2

  9
$UCSORG
 10
0.0
 20
0.0
 30
0.0
  9
$UCSXDIR
 10
1.0
 20
0.0
 30
0.0
  9
$UCSYDIR
 10
0.0
 20
1.0
 30
0.0
  9
$UCSORTHOREF
  2

  9
$UCSORTHOVIEW
 70
     0
  9
$UCSORGTOP
 10
0.0
 20
0.0
 30
0.0
  9
$UCSORGBOTTOM
 10
0.0
 20
0.0
 30
0.0
  9
$UCSORGLEFT
 10
0.0
 20
0.0
 30
0.0
  9
$UCSORGRIGHT
 10
0.0
 20
0.0
 30
0.0
  9
$UCSORGFRONT
 10
0.0
 20
0.0
 30
0.0
  9
$UCSORGBACK
 10
0.0
 20
0.0
 30
0.0
  9
$PUCSBASE
  2

  9
$PUCSNAME
  2

  9
$PUCSORG
 10
0.0
 20
0.0
 30
0.0
  9
$PUCSXDIR
 10
1.0
 20
0.0
 30
0.0
  9
$PUCSYDIR
 10
0.0
 20
1.0
 30
0.0
  9
$PUCSORTHOREF
  2

  9
$PUCSORTHOVIEW
 70
     0
  9
$PUCSORGTOP
 10
0.0
 20
0.0
 30
0.0
  9
$PUCSORGBOTTOM
 10
0.0
 20
0.0
 30
0.0
  9
$PUCSORGLEFT
 10
0.0
 20
0.0
 30
0.0
  9
$PUCSORGRIGHT
 10
0.0
 20
0.0
 30
0.0
  9
$PUCSORGFRONT
 10
0.0
 20
0.0
 30
0.0
  9
$PUCSORGBACK
 10
0.0
 20
0.0
 30
0.0
  9
$USERI1
 70
     0
  9
$USERI2
 70
     0
  9
$USERI3
 70
     0
  9
$USERI4
 70
     0
  9
$USERI5
 70
     0
  9
$USERR1
 40
0.0
  9
$USERR2
 40
0.0
  9
$USERR3
 40
0.0
  9
$USERR4
 40
0.0
  9
$USERR5
 40
0.0
  9
$WORLDVIEW
 70
     1
  9
$SHADEDGE
 70
     3
  9
$SHADEDIF
 70
    70
  9
$TILEMODE
 70
     1
  9
$MAXACTVP
 70
    64
  9
$PINSBASE
 10
0.0
 20
0.0
 30
0.0
  9
$PLIMCHECK
 70
     0
  9
$PEXTMIN
 10
1.000000E+20
 20
1.000000E+20
 30
0.0
  9
$PEXTMAX
 10
-1.000000E+20
 20
-1.000000E+20
 30
0.0
  9
$PLIMMIN
 10
0.0
 20
0.0
  9
$PLIMMAX
 10
12.0
 20
9.0
  9
$UNITMODE
 70
     0
  9
$VISRETAIN
 70
     1
  9
$PLINEGEN
 70
     0
  9
$PSLTSCALE
 70
     1
  9
$TREEDEPTH
 70
  3020
  9
$CMLSTYLE
  2
Standard
  9
$CMLJUST
 70
     0
  9
$CMLSCALE
 40
20.0
  9
$PROXYGRAPHICS
 70
     1
  9
$MEASUREMENT
 70
     1
  9
$CELWEIGHT
370
    -1
  9
$ENDCAPS
280
     0
  9
$JOINSTYLE
280
     0
  9
$LWDISPLAY
290
     0
  9
$INSUNITS
 70
     4
  9
$HYPERLINKBASE
  1

  9
$STYLESHEET
  1

  9
$XEDIT
290
     1
  9
$CEPSNTYPE
380
     0
  9
$PSTYLEMODE
290
     1
  9
$FINGERPRINTGUID
  2
{2546F0A7-A719-482A-8876-0574E60F2827}
  9
$VERSIONGUID
  2
{FAEB1C32-E019-11D5-929B-00C0DF256EC4}
  9
$EXTNAMES
290
     1
  9
$PSVPSCALE
 40
0.0
  9
$OLESTARTUP
290
     0
  0
ENDSEC
  0
SECTION
  2
CLASSES
  0
CLASS
  1
ACDBDICTIONARYWDFLT
  2
AcDbDictionaryWithDefault
  3
ObjectDBX Classes
 90
        0
280
     0
281
     0
  0
CLASS
  1
VISUALSTYLE
  2
AcDbVisualStyle
  3
ObjectDBX Classes
 90
     4095
280
     0
281
     0
  0
CLASS
  1
SCALE
  2
AcDbScale
  3
ObjectDBX Classes
 90
     1153
280
     0
281
     0
  0
CLASS
  1
DICTIONARYVAR
  2
AcDbDictionaryVar
  3
ObjectDBX Classes
 90
        0
280
     0
281
     0
  0
CLASS
  1
ACDBPLACEHOLDER
  2
AcDbPlaceHolder
  3
ObjectDBX Classes
 90
        0
280
     0
281
     0
  0
CLASS
  1
LAYOUT
  2
AcDbLayout
  3
ObjectDBX Classes
 90
        0
280
     0
281
     0
  0
ENDSEC
  0
SECTION
  2
TABLES
  0
TABLE
  2
VPORT
  5
8
330
0
100
AcDbSymbolTable
 70
     1
  0
VPORT
  5
29
330
8
100
AcDbSymbolTableRecord
100
AcDbViewportTableRecord
  2
*Active
 70
     0
 10
0.0
 20
0.0
 11
1.0
 21
1.0
 12
106.597328
 22
53.820927
 13
0.0
 23
0.0
 14
1.0
 24
1.0
 15
0.0
 25
0.0
 16
0.0
 26
0.0
 36
1.0
 17
0.0
 27
0.0
 37
0.0
 40
113.136338
 41
1.691288
 42
50.0
 43
0.0
 44
0.0
 50
0.0
 51
0.0
 71
     0
 72
   100
 73
     1
 74
     3
 75
     0
 76
     0
 77
     0
 78
     0
281
     0
 65
     1
110
0.0
120
0.0
130
0.0
111
1.0
121
0.0
131
0.0
112
0.0
122
1.0
132
0.0
 79
     0
146
0.0
  0
ENDTAB
  0
TABLE
  2
LTYPE
  5
5
330
0
100
AcDbSymbolTable
 70
     5
  0
LTYPE
  5
14
330
5
100
AcDbSymbolTableRecord
100
AcDbLinetypeTableRecord
  2
ByBlock
 70
     0
  3

 72
    65
 73
     0
 40
0.0
  0
LTYPE
  5
15
330
5
100
AcDbSymbolTableRecord
100
AcDbLinetypeTableRecord
  2
ByLayer
 70
     0
  3

 72
    65
 73
     0
 40
0.0
  0
LTYPE
  5
16
330
5
100
AcDbSymbolTableRecord
100
AcDbLinetypeTableRecord
  2
Continuous
 70
     0
  3
Solid line
 72
    65
 73
     0
 40
0.0
  0
LTYPE
  5
5D
330
5
100
AcDbSymbolTableRecord
100
AcDbLinetypeTableRecord
  2
DASHED
 70
     0
  3
DASHED
 72
    83
 73
     2
 40
0.75
 49
0.5
 74
     0
 49
-0.25
 74
     0
  0
LTYPE
  5
5E
330
5
100
AcDbSymbolTableRecord
100
AcDbLinetypeTableRecord
  2
HIDDEN
 70
     0
  3
HIDDEN
 72
    83
 73
     2
 40
0.375
 49
0.25
 74
     0
 49
-0.125
 74
     0
  0
LTYPE
  5
5F
330
5
100
AcDbSymbolTableRecord
100
AcDbLinetypeTableRecord
  2
CENTER
 70
     0
  3
CENTER
 72
    83
 73
     4
 40
2.0
 49
1.25
 74
     0
 49
-0.25
 74
     0
 49
0.25
 74
     0
 49
-0.25
 74
     0
  0
LTYPE
  5
60
330
5
100
AcDbSymbolTableRecord
100
AcDbLinetypeTableRecord
  2
PHANTOM
 70
     0
  3
PHANTOM
 72
    83
 73
     6
 40
2.5
 49
1.25
 74
     0
 49
-0.25
 74
     0
 49
0.25
 74
     0
 49
-0.25
 74
     0
 49
0.25
 74
     0
 49
-0.25
 74
     0
  0
ENDTAB
  0
TABLE
  2
LAYER
  5
2
330
0
100
AcDbSymbolTable
 70
     2
  0
LAYER
  5
10
330
2
100
AcDbSymbolTableRecord
100
AcDbLayerTableRecord
  2
0
 70
     0
 62
     7
  6
Continuous
370
    -3
390
F
  0
LAYER
  5
61
330
2
100
AcDbSymbolTableRecord
100
AcDbLayerTableRecord
  2
001
 70
     0
 62
     7
  6
Continuous
370
    -3
390
F
  0
ENDTAB
  0
TABLE
  2
STYLE
  5
3
330
0
100
AcDbSymbolTable
 70
     2
  0
STYLE
  5
11
330
3
100
AcDbSymbolTableRecord
100
AcDbTextStyleTableRecord
  2
Standard
 70
     0
 40
0.0
 41
1.0
 50
0.0
 71
     0
 42
0.2
  3
TXT
  4
BIGFONT
  0
STYLE
  5
62
330
3
100
AcDbSymbolTableRecord
100
AcDbTextStyleTableRecord
  2
TATEGAKI
 70
     4
 40
1.0
 41
1.0
 50
0.0
 71
     0
 42
0.2
  3
TXT
  4
BIGFONT
  0
ENDTAB
  0
TABLE
  2
VIEW
  5
6
330
0
100
AcDbSymbolTable
 70
     0
  0
ENDTAB
  0
TABLE
  2
UCS
  5
7
330
0
100
AcDbSymbolTable
 70
     0
  0
ENDTAB
  0
TABLE
  2
APPID
  5
9
330
0
100
AcDbSymbolTable
 70
     1
  0
APPID
  5
12
330
9
100
AcDbSymbolTableRecord
100
AcDbRegAppTableRecord
  2
ACAD
 70
     0
  0
ENDTAB
  0
TABLE
  2
DIMSTYLE
  5
A
330
0
100
AcDbSymbolTable
 70
     2
100
AcDbDimStyleTable
  0
DIMSTYLE
105
27
330
A
100
AcDbSymbolTableRecord
100
AcDbDimStyleTableRecord
  2
ISO-25
 70
     0
 41
2.5
 42
0.625
 43
3.75
 44
1.25
 73
     0
 74
     0
 77
     1
 78
     8
140
2.5
141
2.5
143
0.03937
147
0.625
171
     3
172
     1
271
     2
272
     2
274
     3
278
    44
283
     0
284
     8
340
11
  0
DIMSTYLE
105
63
102
{ACAD_REACTORS
330
DE
330
DF
330
E0
330
E1
330
E2
330
EF
102
}
330
A
100
AcDbSymbolTableRecord
100
AcDbDimStyleTableRecord
  2
Standard
 70
     0
 41
1.5
 42
0.0
 44
2.75
 73
     0
 74
     0
 77
     1
 78
     8
 79
     2
140
4.0
146
0.8
147
1.0
172
     1
179
     1
271
     1
340
11
  0
ENDTAB
  0
TABLE
  2
BLOCK_RECORD
  5
1
330
0
100
AcDbSymbolTable
 70
     7
  0
BLOCK_RECORD
  5
1F
330
1
100
AcDbSymbolTableRecord
100
AcDbBlockTableRecord
  2
*Model_Space
340
22
  0
BLOCK_RECORD
  5
1B
330
1
100
AcDbSymbolTableRecord
100
AcDbBlockTableRecord
  2
*Paper_Space
340
1E
  0
BLOCK_RECORD
  5
23
330
1
100
AcDbSymbolTableRecord
100
AcDbBlockTableRecord
  2
*Paper_Space0
340
26
  0
BLOCK_RECORD
  5
64
330
1
100
AcDbSymbolTableRecord
100
AcDbBlockTableRecord
  2
*D1
340
0
  0
BLOCK_RECORD
  5
78
330
1
100
AcDbSymbolTableRecord
100
AcDbBlockTableRecord
  2
*D2
340
0
  0
BLOCK_RECORD
  5
8D
330
1
100
AcDbSymbolTableRecord
100
AcDbBlockTableRecord
  2
*D3
340
0
  0
BLOCK_RECORD
  5
A1
330
1
100
AcDbSymbolTableRecord
100
AcDbBlockTableRecord
  2
*D4
340
0
  0
BLOCK_RECORD
  5
B5
330
1
100
AcDbSymbolTableRecord
100
AcDbBlockTableRecord
  2
*D5
340
0
  0
BLOCK_RECORD
  5
C9
330
1
100
AcDbSymbolTableRecord
100
AcDbBlockTableRecord
  2
*D6
340
0
  0
ENDTAB
  0
ENDSEC
  0
SECTION
  2
BLOCKS
  0
BLOCK
  5
20
330
1F
100
AcDbEntity
  8
0
100
AcDbBlockBegin
  2
*Model_Space
 70
     0
 10
0.0
 20
0.0
 30
0.0
  3
*Model_Space
  1

  0
ENDBLK
  5
21
330
1F
100
AcDbEntity
  8
0
100
AcDbBlockEnd
  0
BLOCK
  5
1C
330
1B
100
AcDbEntity
 67
     1
  8
0
100
AcDbBlockBegin
  2
*Paper_Space
 70
     0
 10
0.0
 20
0.0
 30
0.0
  3
*Paper_Space
  1

  0
ENDBLK
  5
1D
330
1B
100
AcDbEntity
 67
     1
  8
0
100
AcDbBlockEnd
  0
BLOCK
  5
24
330
23
100
AcDbEntity
  8
0
100
AcDbBlockBegin
  2
*Paper_Space0
 70
     0
 10
0.0
 20
0.0
 30
0.0
  3
*Paper_Space0
  1

  0
ENDBLK
  5
25
330
23
100
AcDbEntity
  8
0
100
AcDbBlockEnd
  0
BLOCK
  5
65
330
64
100
AcDbEntity
  8
0
100
AcDbBlockBegin
  2
*D1
 70
     1
 10
0.0
 20
0.0
 30
0.0
  3
*D1
  1

  0
LINE
  5
67
330
64
100
AcDbEntity
  8
001
370
     9
100
AcDbLine
 10
169.428333
 20
46.524691
 30
0.0
 11
201.323137
 21
46.524691
 31
0.0
  0
LINE
  5
68
330
64
100
AcDbEntity
  8
001
370
     9
100
AcDbLine
 10
169.428333
 20
78.524691
 30
0.0
 11
201.323137
 21
78.524691
 31
0.0
  0
LINE
  5
69
330
64
100
AcDbEntity
  8
001
370
     9
100
AcDbLine
 10
198.573137
 20
46.524691
 30
0.0
 11
198.573137
 21
78.524691
 31
0.0
  0
POLYLINE
  5
6A
330
64
100
AcDbEntity
  8
001
370
     9
100
AcDb2dPolyline
 66
     1
 10
0.0
 20
0.0
 30
0.0
  0
VERTEX
  5
6C
330
6A
100
AcDbEntity
  8
001
370
     9
100
AcDbVertex
100
AcDb2dVertex
 10
198.975061
 20
48.024691
 30
0.0
  0
VERTEX
  5
6D
330
6A
100
AcDbEntity
  8
001
370
     9
100
AcDbVertex
100
AcDb2dVertex
 10
198.573137
 20
46.524691
 30
0.0
  0
VERTEX
  5
6E
330
6A
100
AcDbEntity
  8
001
370
     9
100
AcDbVertex
100
AcDb2dVertex
 10
198.171214
 20
48.024691
 30
0.0
  0
SEQEND
  5
6B
330
6A
100
AcDbEntity
  8
001
370
     9
  0
POLYLINE
  5
6F
330
64
100
AcDbEntity
  8
001
370
     9
100
AcDb2dPolyline
 66
     1
 10
0.0
 20
0.0
 30
0.0
  0
VERTEX
  5
71
330
6F
100
AcDbEntity
  8
001
370
     9
100
AcDbVertex
100
AcDb2dVertex
 10
198.171214
 20
77.024691
 30
0.0
  0
VERTEX
  5
72
330
6F
100
AcDbEntity
  8
001
370
     9
100
AcDbVertex
100
AcDb2dVertex
 10
198.573137
 20
78.524691
 30
0.0
  0
VERTEX
  5
73
330
6F
100
AcDbEntity
  8
001
370
     9
100
AcDbVertex
100
AcDb2dVertex
 10
198.975061
 20
77.024691
 30
0.0
  0
SEQEND
  5
70
330
6F
100
AcDbEntity
  8
001
370
     9
  0
TEXT
  5
74
330
64
100
AcDbEntity
  8
001
370
    30
100
AcDbText
 10
197.573137
 20
56.524691
 30
0.0
 40
4.0
  1
%%c３２
 50
90.000003
 41
0.882353
100
AcDbText
  0
POINT
  5
75
330
64
100
AcDbEntity
  8
001
370
     9
100
AcDbPoint
 10
169.428333
 20
46.524691
 30
0.0
  0
POINT
  5
76
330
64
100
AcDbEntity
  8
001
370
     9
100
AcDbPoint
 10
169.428333
 20
78.524691
 30
0.0
  0
POINT
  5
77
330
64
100
AcDbEntity
  8
001
370
     9
100
AcDbPoint
 10
198.573137
 20
78.524691
 30
0.0
  0
ENDBLK
  5
66
330
64
100
AcDbEntity
  8
0
100
AcDbBlockEnd
  0
BLOCK
  5
79
330
78
100
AcDbEntity
  8
0
100
AcDbBlockBegin
  2
*D2
 70
     1
 10
0.0
 20
0.0
 30
0.0
  3
*D2
  1

  0
LINE
  5
7B
330
78
100
AcDbEntity
  8
001
370
     9
100
AcDbLine
 10
56.725809
 20
47.34739
 30
0.0
 11
73.290143
 21
37.783967
 31
0.0
  0
LINE
  5
7C
330
78
100
AcDbEntity
  8
001
370
     9
100
AcDbLine
 10
43.428333
 20
55.024691
 30
0.0
 11
43.428333
 21
20.543244
 31
0.0
  0
ARC
  5
7D
330
78
100
AcDbEntity
  8
001
370
     9
100
AcDbCircle
 10
43.428333
 20
55.024691
 30
0.0
 40
31.73144786745938
100
AcDbArc
 50
270.0
 51
330.0
  0
POLYLINE
  5
7E
330
78
100
AcDbEntity
  8
001
370
     9
100
AcDb2dPolyline
 66
     1
 10
0.0
 20
0.0
 30
0.0
  0
VERTEX
  5
80
330
7E
100
AcDbEntity
  8
001
370
     9
100
AcDbVertex
100
AcDb2dVertex
 10
69.784852
 20
38.08715
 30
0.0
  0
VERTEX
  5
81
330
7E
100
AcDbEntity
  8
001
370
     9
100
AcDbVertex
100
AcDb2dVertex
 10
70.908573
 20
39.158967
 30
0.0
  0
VERTEX
  5
82
330
7E
100
AcDbEntity
  8
001
370
     9
100
AcDbVertex
100
AcDb2dVertex
 10
70.471311
 20
37.668885
 30
0.0
  0
SEQEND
  5
7F
330
7E
100
AcDbEntity
  8
001
370
     9
  0
POLYLINE
  5
83
330
78
100
AcDbEntity
  8
001
370
     9
100
AcDb2dPolyline
 66
     1
 10
0.0
 20
0.0
 30
0.0
  0
VERTEX
  5
85
330
83
100
AcDbEntity
  8
001
370
     9
100
AcDbVertex
100
AcDb2dVertex
 10
44.937413
 20
22.926882
 30
0.0
  0
VERTEX
  5
86
330
83
100
AcDbEntity
  8
001
370
     9
100
AcDbVertex
100
AcDb2dVertex
 10
43.428333
 20
23.293244
 30
0.0
  0
VERTEX
  5
87
330
83
100
AcDbEntity
  8
001
370
     9
100
AcDbVertex
100
AcDb2dVertex
 10
44.918415
 20
23.730506
 30
0.0
  0
SEQEND
  5
84
330
83
100
AcDbEntity
  8
001
370
     9
  0
TEXT
  5
88
330
78
100
AcDbEntity
  8
001
370
    30
100
AcDbText
 10
53.597905
 20
25.410477
 30
0.0
 40
4.0
  1
６０%%d
 50
30.000001
 41
0.978261
100
AcDbText
  0
POINT
  5
89
330
78
100
AcDbEntity
  8
001
370
     9
100
AcDbPoint
 10
56.725809
 20
47.34739
 30
0.0
  0
POINT
  5
8A
330
78
100
AcDbEntity
  8
001
370
     9
100
AcDbPoint
 10
43.428333
 20
55.024691
 30
0.0
  0
POINT
  5
8B
330
78
100
AcDbEntity
  8
001
370
     9
100
AcDbPoint
 10
43.428333
 20
55.024691
 30
0.0
  0
POINT
  5
8C
330
78
100
AcDbEntity
  8
001
370
     9
100
AcDbPoint
 10
43.428333
 20
20.543244
 30
0.0
  0
ENDBLK
  5
7A
330
78
100
AcDbEntity
  8
0
100
AcDbBlockEnd
  0
BLOCK
  5
8E
330
8D
100
AcDbEntity
  8
0
100
AcDbBlockBegin
  2
*D3
 70
     1
 10
0.0
 20
0.0
 30
0.0
  3
*D3
  1

  0
LINE
  5
90
330
8D
100
AcDbEntity
  8
001
370
     9
100
AcDbLine
 10
73.428333
 20
48.124691
 30
0.0
 11
73.428333
 21
15.519971
 31
0.0
  0
LINE
  5
91
330
8D
100
AcDbEntity
  8
001
370
     9
100
AcDbLine
 10
43.428333
 20
23.293244
 30
0.0
 11
43.428333
 21
15.519971
 31
0.0
  0
LINE
  5
92
330
8D
100
AcDbEntity
  8
001
370
     9
100
AcDbLine
 10
73.428333
 20
18.269971
 30
0.0
 11
43.428333
 21
18.269971
 31
0.0
  0
POLYLINE
  5
93
330
8D
100
AcDbEntity
  8
001
370
     9
100
AcDb2dPolyline
 66
     1
 10
0.0
 20
0.0
 30
0.0
  0
VERTEX
  5
95
330
93
100
AcDbEntity
  8
001
370
     9
100
AcDbVertex
100
AcDb2dVertex
 10
71.928333
 20
18.671895
 30
0.0
  0
VERTEX
  5
96
330
93
100
AcDbEntity
  8
001
370
     9
100
AcDbVertex
100
AcDb2dVertex
 10
73.428333
 20
18.269971
 30
0.0
  0
VERTEX
  5
97
330
93
100
AcDbEntity
  8
001
370
     9
100
AcDbVertex
100
AcDb2dVertex
 10
71.928333
 20
17.868047
 30
0.0
  0
SEQEND
  5
94
330
93
100
AcDbEntity
  8
001
370
     9
  0
POLYLINE
  5
98
330
8D
100
AcDbEntity
  8
001
370
     9
100
AcDb2dPolyline
 66
     1
 10
0.0
 20
0.0
 30
0.0
  0
VERTEX
  5
9A
330
98
100
AcDbEntity
  8
001
370
     9
100
AcDbVertex
100
AcDb2dVertex
 10
44.928333
 20
17.868047
 30
0.0
  0
VERTEX
  5
9B
330
98
100
AcDbEntity
  8
001
370
     9
100
AcDbVertex
100
AcDb2dVertex
 10
43.428333
 20
18.269971
 30
0.0
  0
VERTEX
  5
9C
330
98
100
AcDbEntity
  8
001
370
     9
100
AcDbVertex
100
AcDb2dVertex
 10
44.928333
 20
18.671895
 30
0.0
  0
SEQEND
  5
99
330
98
100
AcDbEntity
  8
001
370
     9
  0
TEXT
  5
9D
330
8D
100
AcDbEntity
  8
001
370
    30
100
AcDbText
 10
54.428333
 20
19.269971
 30
0.0
 40
4.0
  1
３０
 41
0.833333
100
AcDbText
  0
POINT
  5
9E
330
8D
100
AcDbEntity
  8
001
370
     9
100
AcDbPoint
 10
73.428333
 20
48.124691
 30
0.0
  0
POINT
  5
9F
330
8D
100
AcDbEntity
  8
001
370
     9
100
AcDbPoint
 10
43.428333
 20
23.293244
 30
0.0
  0
POINT
  5
A0
330
8D
100
AcDbEntity
  8
001
370
     9
100
AcDbPoint
 10
43.428333
 20
18.269971
 30
0.0
  0
ENDBLK
  5
8F
330
8D
100
AcDbEntity
  8
0
100
AcDbBlockEnd
  0
BLOCK
  5
A2
330
A1
100
AcDbEntity
  8
0
100
AcDbBlockBegin
  2
*D4
 70
     1
 10
0.0
 20
0.0
 30
0.0
  3
*D4
  1

  0
LINE
  5
A4
330
A1
100
AcDbEntity
  8
001
370
     9
100
AcDbLine
 10
173.428333
 20
50.524691
 30
0.0
 11
173.428333
 21
15.519971
 31
0.0
  0
LINE
  5
A5
330
A1
100
AcDbEntity
  8
001
370
     9
100
AcDbLine
 10
73.428333
 20
48.124691
 30
0.0
 11
73.428333
 21
15.519971
 31
0.0
  0
LINE
  5
A6
330
A1
100
AcDbEntity
  8
001
370
     9
100
AcDbLine
 10
173.428333
 20
18.269971
 30
0.0
 11
73.428333
 21
18.269971
 31
0.0
  0
POLYLINE
  5
A7
330
A1
100
AcDbEntity
  8
001
370
     9
100
AcDb2dPolyline
 66
     1
 10
0.0
 20
0.0
 30
0.0
  0
VERTEX
  5
A9
330
A7
100
AcDbEntity
  8
001
370
     9
100
AcDbVertex
100
AcDb2dVertex
 10
171.928333
 20
18.671895
 30
0.0
  0
VERTEX
  5
AA
330
A7
100
AcDbEntity
  8
001
370
     9
100
AcDbVertex
100
AcDb2dVertex
 10
173.428333
 20
18.269971
 30
0.0
  0
VERTEX
  5
AB
330
A7
100
AcDbEntity
  8
001
370
     9
100
AcDbVertex
100
AcDb2dVertex
 10
171.928333
 20
17.868047
 30
0.0
  0
SEQEND
  5
A8
330
A7
100
AcDbEntity
  8
001
370
     9
  0
POLYLINE
  5
AC
330
A1
100
AcDbEntity
  8
001
370
     9
100
AcDb2dPolyline
 66
     1
 10
0.0
 20
0.0
 30
0.0
  0
VERTEX
  5
AE
330
AC
100
AcDbEntity
  8
001
370
     9
100
AcDbVertex
100
AcDb2dVertex
 10
74.928333
 20
17.868047
 30
0.0
  0
VERTEX
  5
AF
330
AC
100
AcDbEntity
  8
001
370
     9
100
AcDbVertex
100
AcDb2dVertex
 10
73.428333
 20
18.269971
 30
0.0
  0
VERTEX
  5
B0
330
AC
100
AcDbEntity
  8
001
370
     9
100
AcDbVertex
100
AcDb2dVertex
 10
74.928333
 20
18.671895
 30
0.0
  0
SEQEND
  5
AD
330
AC
100
AcDbEntity
  8
001
370
     9
  0
TEXT
  5
B1
330
A1
100
AcDbEntity
  8
001
370
    30
100
AcDbText
 10
117.428333
 20
19.269971
 30
0.0
 40
4.0
  1
１００
 41
0.833333
100
AcDbText
  0
POINT
  5
B2
330
A1
100
AcDbEntity
  8
001
370
     9
100
AcDbPoint
 10
173.428333
 20
50.524691
 30
0.0
  0
POINT
  5
B3
330
A1
100
AcDbEntity
  8
001
370
     9
100
AcDbPoint
 10
73.428333
 20
48.124691
 30
0.0
  0
POINT
  5
B4
330
A1
100
AcDbEntity
  8
001
370
     9
100
AcDbPoint
 10
73.428333
 20
18.269971
 30
0.0
  0
ENDBLK
  5
A3
330
A1
100
AcDbEntity
  8
0
100
AcDbBlockEnd
  0
BLOCK
  5
B6
330
B5
100
AcDbEntity
  8
0
100
AcDbBlockBegin
  2
*D5
 70
     1
 10
0.0
 20
0.0
 30
0.0
  3
*D5
  1

  0
LINE
  5
B8
330
B5
100
AcDbEntity
  8
001
370
     9
100
AcDbLine
 10
43.428333
 20
23.293244
 30
0.0
 11
43.428333
 21
6.088153
 31
0.0
  0
LINE
  5
B9
330
B5
100
AcDbEntity
  8
001
370
     9
100
AcDbLine
 10
173.428333
 20
50.524691
 30
0.0
 11
173.428333
 21
6.088153
 31
0.0
  0
LINE
  5
BA
330
B5
100
AcDbEntity
  8
001
370
     9
100
AcDbLine
 10
43.428333
 20
8.838153
 30
0.0
 11
173.428333
 21
8.838153
 31
0.0
  0
POLYLINE
  5
BB
330
B5
100
AcDbEntity
  8
001
370
     9
100
AcDb2dPolyline
 66
     1
 10
0.0
 20
0.0
 30
0.0
  0
VERTEX
  5
BD
330
BB
100
AcDbEntity
  8
001
370
     9
100
AcDbVertex
100
AcDb2dVertex
 10
44.928333
 20
8.436229
 30
0.0
  0
VERTEX
  5
BE
330
BB
100
AcDbEntity
  8
001
370
     9
100
AcDbVertex
100
AcDb2dVertex
 10
43.428333
 20
8.838153
 30
0.0
  0
VERTEX
  5
BF
330
BB
100
AcDbEntity
  8
001
370
     9
100
AcDbVertex
100
AcDb2dVertex
 10
44.928333
 20
9.240076
 30
0.0
  0
SEQEND
  5
BC
330
BB
100
AcDbEntity
  8
001
370
     9
  0
POLYLINE
  5
C0
330
B5
100
AcDbEntity
  8
001
370
     9
100
AcDb2dPolyline
 66
     1
 10
0.0
 20
0.0
 30
0.0
  0
VERTEX
  5
C2
330
C0
100
AcDbEntity
  8
001
370
     9
100
AcDbVertex
100
AcDb2dVertex
 10
171.928333
 20
9.240076
 30
0.0
  0
VERTEX
  5
C3
330
C0
100
AcDbEntity
  8
001
370
     9
100
AcDbVertex
100
AcDb2dVertex
 10
173.428333
 20
8.838153
 30
0.0
  0
VERTEX
  5
C4
330
C0
100
AcDbEntity
  8
001
370
     9
100
AcDbVertex
100
AcDb2dVertex
 10
171.928333
 20
8.436229
 30
0.0
  0
SEQEND
  5
C1
330
C0
100
AcDbEntity
  8
001
370
     9
  0
TEXT
  5
C5
330
B5
100
AcDbEntity
  8
001
370
    30
100
AcDbText
 10
102.428333
 20
9.838153
 30
0.0
 40
4.0
  1
１３０
 41
0.833333
100
AcDbText
  0
POINT
  5
C6
330
B5
100
AcDbEntity
  8
001
370
     9
100
AcDbPoint
 10
43.428333
 20
23.293244
 30
0.0
  0
POINT
  5
C7
330
B5
100
AcDbEntity
  8
001
370
     9
100
AcDbPoint
 10
173.428333
 20
50.524691
 30
0.0
  0
POINT
  5
C8
330
B5
100
AcDbEntity
  8
001
370
     9
100
AcDbPoint
 10
173.428333
 20
8.838153
 30
0.0
  0
ENDBLK
  5
B7
330
B5
100
AcDbEntity
  8
0
100
AcDbBlockEnd
  0
BLOCK
  5
CA
330
C9
100
AcDbEntity
  8
0
100
AcDbBlockBegin
  2
*D6
 70
     1
 10
0.0
 20
0.0
 30
0.0
  3
*D6
  1

  0
LINE
  5
CC
330
C9
100
AcDbEntity
  8
001
370
     9
100
AcDbLine
 10
56.817086
 20
47.294691
 30
0.0
 11
56.817086
 21
33.328785
 31
0.0
  0
LINE
  5
CD
330
C9
100
AcDbEntity
  8
001
370
     9
100
AcDbLine
 10
56.817086
 20
36.078785
 30
0.0
 11
43.428333
 21
36.078785
 31
0.0
  0
POLYLINE
  5
CE
330
C9
100
AcDbEntity
  8
001
370
     9
100
AcDb2dPolyline
 66
     1
 10
0.0
 20
0.0
 30
0.0
  0
VERTEX
  5
D0
330
CE
100
AcDbEntity
  8
001
370
     9
100
AcDbVertex
100
AcDb2dVertex
 10
58.317086
 20
35.676861
 30
0.0
  0
VERTEX
  5
D1
330
CE
100
AcDbEntity
  8
001
370
     9
100
AcDbVertex
100
AcDb2dVertex
 10
56.817086
 20
36.078785
 30
0.0
  0
VERTEX
  5
D2
330
CE
100
AcDbEntity
  8
001
370
     9
100
AcDbVertex
100
AcDb2dVertex
 10
58.317086
 20
36.480708
 30
0.0
  0
SEQEND
  5
CF
330
CE
100
AcDbEntity
  8
001
370
     9
  0
POLYLINE
  5
D3
330
C9
100
AcDbEntity
  8
001
370
     9
100
AcDb2dPolyline
 66
     1
 10
0.0
 20
0.0
 30
0.0
  0
VERTEX
  5
D5
330
D3
100
AcDbEntity
  8
001
370
     9
100
AcDbVertex
100
AcDb2dVertex
 10
41.928333
 20
36.480708
 30
0.0
  0
VERTEX
  5
D6
330
D3
100
AcDbEntity
  8
001
370
     9
100
AcDbVertex
100
AcDb2dVertex
 10
43.428333
 20
36.078785
 30
0.0
  0
VERTEX
  5
D7
330
D3
100
AcDbEntity
  8
001
370
     9
100
AcDbVertex
100
AcDb2dVertex
 10
41.928333
 20
35.676861
 30
0.0
  0
SEQEND
  5
D4
330
D3
100
AcDbEntity
  8
001
370
     9
  0
TEXT
  5
D8
330
C9
100
AcDbEntity
  8
001
370
    30
100
AcDbText
 10
15.928333
 20
37.078785
 30
0.0
 40
4.0
  1
（１３．４）
 41
0.833333
100
AcDbText
  0
POINT
  5
D9
330
C9
100
AcDbEntity
  8
001
370
     9
100
AcDbPoint
 10
56.817086
 20
47.294691
 30
0.0
  0
POINT
  5
DA
330
C9
100
AcDbEntity
  8
001
370
     9
100
AcDbPoint
 10
43.428333
 20
38.828785
 30
0.0
  0
POINT
  5
DB
330
C9
100
AcDbEntity
  8
001
370
     9
100
AcDbPoint
 10
43.428333
 20
36.078785
 30
0.0
  0
LINE
  5
DC
330
C9
100
AcDbEntity
  8
001
370
     9
100
AcDbLine
 10
56.817086
 20
36.078785
 30
0.0
 11
59.317086
 21
36.078785
 31
0.0
  0
LINE
  5
DD
330
C9
100
AcDbEntity
  8
001
370
     9
100
AcDbLine
 10
43.428333
 20
36.078785
 30
0.0
 11
12.928333
 21
36.078785
 31
0.0
  0
ENDBLK
  5
CB
330
C9
100
AcDbEntity
  8
0
100
AcDbBlockEnd
  0
ENDSEC
  0
SECTION
  2
ENTITIES
  0
DIMENSION
  5
DE
330
1F
100
AcDbEntity
  8
001
370
     9
100
AcDbDimension
  2
*D1
 10
198.573137
 20
78.524691
 30
0.0
 11
195.573137
 21
62.524691
 31
0.0
 70
   160
 71
     5
 42
-1.0
  3
Standard
100
AcDbAlignedDimension
 13
169.428333
 23
46.524691
 33
0.0
 14
169.428333
 24
78.524691
 34
0.0
 50
90.0
100
AcDbRotatedDimension
  0
DIMENSION
  5
DF
330
1F
100
AcDbEntity
  8
001
370
     9
100
AcDbDimension
  2
*D2
 10
43.428333
 20
55.024691
 30
0.0
 11
57.794057
 21
30.142528
 31
0.0
 70
    34
 71
     5
 42
-1.0
  3
Standard
100
AcDb2LineAngularDimension
 13
56.725809
 23
47.34739
 33
0.0
 14
43.428333
 24
55.024691
 34
0.0
 15
43.428333
 25
20.543244
 35
0.0
 16
59.294057
 26
27.544451
 36
0.0
  0
DIMENSION
  5
E0
330
1F
100
AcDbEntity
  8
001
370
     9
100
AcDbDimension
  2
*D3
 10
43.428333
 20
18.269971
 30
0.0
 11
58.428333
 21
21.269971
 31
0.0
 70
   160
 71
     5
 42
-1.0
  3
Standard
100
AcDbAlignedDimension
 13
73.428333
 23
48.124691
 33
0.0
 14
43.428333
 24
23.293244
 34
0.0
 50
180.0
100
AcDbRotatedDimension
  0
DIMENSION
  5
E1
330
1F
100
AcDbEntity
  8
001
370
     9
100
AcDbDimension
  2
*D4
 10
73.428333
 20
18.269971
 30
0.0
 11
123.428333
 21
21.269971
 31
0.0
 70
   160
 71
     5
 42
-1.0
  3
Standard
100
AcDbAlignedDimension
 13
173.428333
 23
50.524691
 33
0.0
 14
73.428333
 24
48.124691
 34
0.0
 50
180.0
100
AcDbRotatedDimension
  0
DIMENSION
  5
E2
330
1F
100
AcDbEntity
  8
001
370
     9
100
AcDbDimension
  2
*D5
 10
173.428333
 20
8.838153
 30
0.0
 11
108.428333
 21
11.838153
 31
0.0
 70
   160
 71
     5
 42
-1.0
  3
Standard
100
AcDbAlignedDimension
 13
43.428333
 23
23.293244
 33
0.0
 14
173.428333
 24
50.524691
 34
0.0
100
AcDbRotatedDimension
  0
TEXT
  5
E3
330
1F
100
AcDbEntity
  8
001
370
    30
100
AcDbText
 10
27.503625
 20
56.524691
 30
0.0
 40
4.0
  1
%%c１５
 50
90.000003
 41
0.882353
100
AcDbText
  0
POLYLINE
  5
E4
330
1F
100
AcDbEntity
  8
001
370
     9
100
AcDb2dPolyline
 66
     1
 10
0.0
 20
0.0
 30
0.0
  0
VERTEX
  5
E6
330
E4
100
AcDbEntity
  8
001
370
     9
100
AcDbVertex
100
AcDb2dVertex
 10
28.905549
 20
56.524691
 30
0.0
  0
VERTEX
  5
E7
330
E4
100
AcDbEntity
  8
001
370
     9
100
AcDbVertex
100
AcDb2dVertex
 10
28.503625
 20
55.024691
 30
0.0
  0
VERTEX
  5
E8
330
E4
100
AcDbEntity
  8
001
370
     9
100
AcDbVertex
100
AcDb2dVertex
 10
28.101701
 20
56.524691
 30
0.0
  0
SEQEND
  5
E5
330
E4
100
AcDbEntity
  8
001
370
     9
  0
LINE
  5
E9
330
1F
100
AcDbEntity
  8
001
370
     9
100
AcDbLine
 10
28.503625
 20
55.024691
 30
0.0
 11
28.503625
 21
70.024691
 31
0.0
  0
POLYLINE
  5
EA
330
1F
100
AcDbEntity
  8
001
370
     9
100
AcDb2dPolyline
 66
     1
 10
0.0
 20
0.0
 30
0.0
  0
VERTEX
  5
EC
330
EA
100
AcDbEntity
  8
001
370
     9
100
AcDbVertex
100
AcDb2dVertex
 10
43.428333
 20
55.024691
 30
0.0
  0
VERTEX
  5
ED
330
EA
100
AcDbEntity
  8
001
370
     9
100
AcDbVertex
100
AcDb2dVertex
 10
28.503625
 20
55.024691
 30
0.0
  0
VERTEX
  5
EE
330
EA
100
AcDbEntity
  8
001
370
     9
100
AcDbVertex
100
AcDb2dVertex
 10
25.753625
 20
55.024691
 30
0.0
  0
SEQEND
  5
EB
330
EA
100
AcDbEntity
  8
001
370
     9
  0
DIMENSION
  5
EF
330
1F
100
AcDbEntity
  8
001
370
     9
100
AcDbDimension
  2
*D6
 10
43.428333
 20
36.078785
 30
0.0
 11
27.928333
 21
39.078785
 31
0.0
 70
   160
 71
     5
 42
-1.0
  3
Standard
100
AcDbAlignedDimension
 13
56.817086
 23
47.294691
 33
0.0
 14
43.428333
 24
38.828785
 34
0.0
 50
180.0
100
AcDbRotatedDimension
  0
TEXT
  5
F0
330
1F
100
AcDbEntity
  8
001
370
    30
100
AcDbText
 10
15.871522
 20
46.524691
 30
0.0
 40
4.0
  1
（%%c３０．４６）
 50
90.000003
 41
0.851064
100
AcDbText
  0
POLYLINE
  5
F1
330
1F
100
AcDbEntity
  8
001
370
     9
100
AcDb2dPolyline
 66
     1
 10
0.0
 20
0.0
 30
0.0
  0
VERTEX
  5
F3
330
F1
100
AcDbEntity
  8
001
370
     9
100
AcDbVertex
100
AcDb2dVertex
 10
17.273446
 20
48.794691
 30
0.0
  0
VERTEX
  5
F4
330
F1
100
AcDbEntity
  8
001
370
     9
100
AcDbVertex
100
AcDb2dVertex
 10
16.871522
 20
47.294691
 30
0.0
  0
VERTEX
  5
F5
330
F1
100
AcDbEntity
  8
001
370
     9
100
AcDbVertex
100
AcDb2dVertex
 10
16.469599
 20
48.794691
 30
0.0
  0
SEQEND
  5
F2
330
F1
100
AcDbEntity
  8
001
370
     9
  0
LINE
  5
F6
330
1F
100
AcDbEntity
  8
001
370
     9
100
AcDbLine
 10
16.871522
 20
77.754691
 30
0.0
 11
16.871522
 21
47.294691
 31
0.0
  0
POLYLINE
  5
F7
330
1F
100
AcDbEntity
  8
001
370
     9
100
AcDb2dPolyline
 66
     1
 10
0.0
 20
0.0
 30
0.0
  0
VERTEX
  5
F9
330
F7
100
AcDbEntity
  8
001
370
     9
100
AcDbVertex
100
AcDb2dVertex
 10
56.817086
 20
47.294691
 30
0.0
  0
VERTEX
  5
FA
330
F7
100
AcDbEntity
  8
001
370
     9
100
AcDbVertex
100
AcDb2dVertex
 10
16.871522
 20
47.294691
 30
0.0
  0
VERTEX
  5
FB
330
F7
100
AcDbEntity
  8
001
370
     9
100
AcDbVertex
100
AcDb2dVertex
 10
14.121522
 20
47.294691
 30
0.0
  0
SEQEND
  5
F8
330
F7
100
AcDbEntity
  8
001
370
     9
  0
TEXT
  5
FC
330
1F
100
AcDbEntity
  8
001
370
    30
100
AcDbText
 10
26.857961
 20
97.553704
 30
0.0
 40
4.0
  1
ＮＫ６０３０Ｔ（ＮＥＷ）
 41
0.833333
100
AcDbText
  0
LINE
  5
FD
330
1F
100
AcDbEntity
  8
001
370
    50
100
AcDbLine
 10
173.428333
 20
50.524691
 30
0.0
 11
173.428333
 21
74.524691
 31
0.0
  0
LINE
  5
FE
330
1F
100
AcDbEntity
  8
001
370
    50
100
AcDbLine
 10
73.428333
 20
48.124691
 30
0.0
 11
73.428333
 21
76.924691
 31
0.0
  0
LINE
  5
FF
330
1F
100
AcDbEntity
  8
001
370
    50
100
AcDbLine
 10
57.125276
 20
76.924691
 30
0.0
 11
57.125276
 21
73.173475
 31
0.0
  0
LINE
  5
100
330
1F
100
AcDbEntity
  8
001
370
    50
100
AcDbLine
 10
73.428333
 20
76.924691
 30
0.0
 11
57.125276
 21
76.924691
 31
0.0
  0
POLYLINE
  5
101
330
1F
100
AcDbEntity
  8
001
370
    50
100
AcDb2dPolyline
 66
     1
 10
0.0
 20
0.0
 30
0.0
  0
VERTEX
  5
103
330
101
100
AcDbEntity
  8
001
370
    50
100
AcDbVertex
100
AcDb2dVertex
 10
57.287405
 20
48.745426
 30
0.0
  0
VERTEX
  5
104
330
101
100
AcDbEntity
  8
001
370
    50
100
AcDbVertex
100
AcDb2dVertex
 10
58.319702
 20
48.777177
 30
0.0
  0
VERTEX
  5
105
330
101
100
AcDbEntity
  8
001
370
    50
100
AcDbVertex
100
AcDb2dVertex
 10
59.8284
 20
48.824971
 30
0.0
  0
VERTEX
  5
106
330
101
100
AcDbEntity
  8
001
370
    50
100
AcDbVertex
100
AcDb2dVertex
 10
61.328144
 20
48.874409
 30
0.0
  0
VERTEX
  5
107
330
101
100
AcDbEntity
  8
001
370
    50
100
AcDbVertex
100
AcDb2dVertex
 10
62.354253
 20
48.909184
 30
0.0
  0
SEQEND
  5
102
330
101
100
AcDbEntity
  8
001
370
    50
  0
POLYLINE
  5
108
330
1F
100
AcDbEntity
  8
001
370
    50
100
AcDb2dPolyline
 66
     1
 10
0.0
 20
0.0
 30
0.0
  0
VERTEX
  5
10A
330
108
100
AcDbEntity
  8
001
370
    50
100
AcDbVertex
100
AcDb2dVertex
 10
61.807994
 20
52.320931
 30
0.0
  0
VERTEX
  5
10B
330
108
100
AcDbEntity
  8
001
370
    50
100
AcDbVertex
100
AcDb2dVertex
 10
61.895026
 20
51.499593
 30
0.0
  0
VERTEX
  5
10C
330
108
100
AcDbEntity
  8
001
370
    50
100
AcDbVertex
100
AcDb2dVertex
 10
62.061814
 20
50.304737
 30
0.0
  0
VERTEX
  5
10D
330
108
100
AcDbEntity
  8
001
370
    50
100
AcDbVertex
100
AcDb2dVertex
 10
62.22009
 20
49.472838
 30
0.0
  0
VERTEX
  5
10E
330
108
100
AcDbEntity
  8
001
370
    50
100
AcDbVertex
100
AcDb2dVertex
 10
62.354253
 20
48.909184
 30
0.0
  0
SEQEND
  5
109
330
108
100
AcDbEntity
  8
001
370
    50
  0
POLYLINE
  5
10F
330
1F
100
AcDbEntity
  8
001
370
    50
100
AcDb2dPolyline
 66
     1
 10
0.0
 20
0.0
 30
0.0
  0
VERTEX
  5
111
330
10F
100
AcDbEntity
  8
001
370
    50
100
AcDbVertex
100
AcDb2dVertex
 10
61.807994
 20
52.320931
 30
0.0
  0
VERTEX
  5
112
330
10F
100
AcDbEntity
  8
001
370
    50
100
AcDbVertex
100
AcDb2dVertex
 10
62.393157
 20
53.1119
 30
0.0
  0
VERTEX
  5
113
330
10F
100
AcDbEntity
  8
001
370
    50
100
AcDbVertex
100
AcDb2dVertex
 10
63.135073
 20
54.245879
 30
0.0
  0
VERTEX
  5
114
330
10F
100
AcDbEntity
  8
001
370
    50
100
AcDbVertex
100
AcDb2dVertex
 10
63.72702
 20
55.354918
 30
0.0
  0
VERTEX
  5
115
330
10F
100
AcDbEntity
  8
001
370
    50
100
AcDbVertex
100
AcDb2dVertex
 10
64.167566
 20
56.423722
 30
0.0
  0
VERTEX
  5
116
330
10F
100
AcDbEntity
  8
001
370
    50
100
AcDbVertex
100
AcDb2dVertex
 10
64.555587
 20
57.581529
 30
0.0
  0
VERTEX
  5
117
330
10F
100
AcDbEntity
  8
001
370
    50
100
AcDbVertex
100
AcDb2dVertex
 10
64.873931
 20
58.787933
 30
0.0
  0
VERTEX
  5
118
330
10F
100
AcDbEntity
  8
001
370
    50
100
AcDbVertex
100
AcDb2dVertex
 10
65.100814
 20
60.023454
 30
0.0
  0
VERTEX
  5
119
330
10F
100
AcDbEntity
  8
001
370
    50
100
AcDbVertex
100
AcDb2dVertex
 10
65.232591
 20
61.266292
 30
0.0
  0
VERTEX
  5
11A
330
10F
100
AcDbEntity
  8
001
370
    50
100
AcDbVertex
100
AcDb2dVertex
 10
65.276337
 20
62.524691
 30
0.0
  0
VERTEX
  5
11B
330
10F
100
AcDbEntity
  8
001
370
    50
100
AcDbVertex
100
AcDb2dVertex
 10
65.232591
 20
63.783091
 30
0.0
  0
VERTEX
  5
11C
330
10F
100
AcDbEntity
  8
001
370
    50
100
AcDbVertex
100
AcDb2dVertex
 10
65.100814
 20
65.025929
 30
0.0
  0
VERTEX
  5
11D
330
10F
100
AcDbEntity
  8
001
370
    50
100
AcDbVertex
100
AcDb2dVertex
 10
64.873931
 20
66.26145
 30
0.0
  0
VERTEX
  5
11E
330
10F
100
AcDbEntity
  8
001
370
    50
100
AcDbVertex
100
AcDb2dVertex
 10
64.555587
 20
67.467854
 30
0.0
  0
VERTEX
  5
11F
330
10F
100
AcDbEntity
  8
001
370
    50
100
AcDbVertex
100
AcDb2dVertex
 10
64.167566
 20
68.625661
 30
0.0
  0
VERTEX
  5
120
330
10F
100
AcDbEntity
  8
001
370
    50
100
AcDbVertex
100
AcDb2dVertex
 10
63.72702
 20
69.694464
 30
0.0
  0
VERTEX
  5
121
330
10F
100
AcDbEntity
  8
001
370
    50
100
AcDbVertex
100
AcDb2dVertex
 10
63.135073
 20
70.803504
 30
0.0
  0
VERTEX
  5
122
330
10F
100
AcDbEntity
  8
001
370
    50
100
AcDbVertex
100
AcDb2dVertex
 10
62.393157
 20
71.937483
 30
0.0
  0
VERTEX
  5
123
330
10F
100
AcDbEntity
  8
001
370
    50
100
AcDbVertex
100
AcDb2dVertex
 10
61.807994
 20
72.728452
 30
0.0
  0
SEQEND
  5
110
330
10F
100
AcDbEntity
  8
001
370
    50
  0
POLYLINE
  5
124
330
1F
100
AcDbEntity
  8
001
370
    50
100
AcDb2dPolyline
 66
     1
 10
0.0
 20
0.0
 30
0.0
  0
VERTEX
  5
126
330
124
100
AcDbEntity
  8
001
370
    50
100
AcDbVertex
100
AcDb2dVertex
 10
61.807994
 20
72.728452
 30
0.0
  0
VERTEX
  5
127
330
124
100
AcDbEntity
  8
001
370
    50
100
AcDbVertex
100
AcDb2dVertex
 10
60.86707
 20
72.82099
 30
0.0
  0
VERTEX
  5
128
330
124
100
AcDbEntity
  8
001
370
    50
100
AcDbVertex
100
AcDb2dVertex
 10
59.491616
 20
72.953582
 30
0.0
  0
VERTEX
  5
129
330
124
100
AcDbEntity
  8
001
370
    50
100
AcDbVertex
100
AcDb2dVertex
 10
58.086703
 20
73.08523
 30
0.0
  0
VERTEX
  5
12A
330
124
100
AcDbEntity
  8
001
370
    50
100
AcDbVertex
100
AcDb2dVertex
 10
57.125276
 20
73.173475
 30
0.0
  0
SEQEND
  5
125
330
124
100
AcDbEntity
  8
001
370
    50
  0
POLYLINE
  5
12B
330
1F
100
AcDbEntity
  8
001
  6
DASHED
370
    50
100
AcDb2dPolyline
 66
     1
 10
0.0
 20
0.0
 30
0.0
  0
VERTEX
  5
12D
330
12B
100
AcDbEntity
  8
001
  6
DASHED
370
    50
100
AcDbVertex
100
AcDb2dVertex
 10
61.807994
 20
52.320931
 30
0.0
  0
VERTEX
  5
12E
330
12B
100
AcDbEntity
  8
001
  6
DASHED
370
    50
100
AcDbVertex
100
AcDb2dVertex
 10
62.393157
 20
53.1119
 30
0.0
  0
VERTEX
  5
12F
330
12B
100
AcDbEntity
  8
001
  6
DASHED
370
    50
100
AcDbVertex
100
AcDb2dVertex
 10
63.135073
 20
54.245879
 30
0.0
  0
VERTEX
  5
130
330
12B
100
AcDbEntity
  8
001
  6
DASHED
370
    50
100
AcDbVertex
100
AcDb2dVertex
 10
63.72702
 20
55.354918
 30
0.0
  0
VERTEX
  5
131
330
12B
100
AcDbEntity
  8
001
  6
DASHED
370
    50
100
AcDbVertex
100
AcDb2dVertex
 10
64.167566
 20
56.423722
 30
0.0
  0
VERTEX
  5
132
330
12B
100
AcDbEntity
  8
001
  6
DASHED
370
    50
100
AcDbVertex
100
AcDb2dVertex
 10
64.555587
 20
57.581529
 30
0.0
  0
VERTEX
  5
133
330
12B
100
AcDbEntity
  8
001
  6
DASHED
370
    50
100
AcDbVertex
100
AcDb2dVertex
 10
64.873931
 20
58.787933
 30
0.0
  0
VERTEX
  5
134
330
12B
100
AcDbEntity
  8
001
  6
DASHED
370
    50
100
AcDbVertex
100
AcDb2dVertex
 10
65.100814
 20
60.023454
 30
0.0
  0
VERTEX
  5
135
330
12B
100
AcDbEntity
  8
001
  6
DASHED
370
    50
100
AcDbVertex
100
AcDb2dVertex
 10
65.232591
 20
61.266292
 30
0.0
  0
VERTEX
  5
136
330
12B
100
AcDbEntity
  8
001
  6
DASHED
370
    50
100
AcDbVertex
100
AcDb2dVertex
 10
65.276337
 20
62.524691
 30
0.0
  0
VERTEX
  5
137
330
12B
100
AcDbEntity
  8
001
  6
DASHED
370
    50
100
AcDbVertex
100
AcDb2dVertex
 10
65.232591
 20
63.783091
 30
0.0
  0
VERTEX
  5
138
330
12B
100
AcDbEntity
  8
001
  6
DASHED
370
    50
100
AcDbVertex
100
AcDb2dVertex
 10
65.100814
 20
65.025929
 30
0.0
  0
VERTEX
  5
139
330
12B
100
AcDbEntity
  8
001
  6
DASHED
370
    50
100
AcDbVertex
100
AcDb2dVertex
 10
64.873931
 20
66.26145
 30
0.0
  0
VERTEX
  5
13A
330
12B
100
AcDbEntity
  8
001
  6
DASHED
370
    50
100
AcDbVertex
100
AcDb2dVertex
 10
64.555587
 20
67.467854
 30
0.0
  0
VERTEX
  5
13B
330
12B
100
AcDbEntity
  8
001
  6
DASHED
370
    50
100
AcDbVertex
100
AcDb2dVertex
 10
64.167566
 20
68.625661
 30
0.0
  0
VERTEX
  5
13C
330
12B
100
AcDbEntity
  8
001
  6
DASHED
370
    50
100
AcDbVertex
100
AcDb2dVertex
 10
63.72702
 20
69.694464
 30
0.0
  0
VERTEX
  5
13D
330
12B
100
AcDbEntity
  8
001
  6
DASHED
370
    50
100
AcDbVertex
100
AcDb2dVertex
 10
63.135073
 20
70.803504
 30
0.0
  0
VERTEX
  5
13E
330
12B
100
AcDbEntity
  8
001
  6
DASHED
370
    50
100
AcDbVertex
100
AcDb2dVertex
 10
62.393157
 20
71.937483
 30
0.0
  0
VERTEX
  5
13F
330
12B
100
AcDbEntity
  8
001
  6
DASHED
370
    50
100
AcDbVertex
100
AcDb2dVertex
 10
61.807994
 20
72.728452
 30
0.0
  0
SEQEND
  5
12C
330
12B
100
AcDbEntity
  8
001
  6
DASHED
370
    50
  0
POLYLINE
  5
140
330
1F
100
AcDbEntity
  8
001
370
    50
100
AcDb2dPolyline
 66
     1
 10
0.0
 20
0.0
 30
0.0
  0
VERTEX
  5
142
330
140
100
AcDbEntity
  8
001
370
    50
100
AcDbVertex
100
AcDb2dVertex
 10
55.319456
 20
65.489442
 30
0.0
  0
VERTEX
  5
143
330
140
100
AcDbEntity
  8
001
370
    50
100
AcDbVertex
100
AcDb2dVertex
 10
55.037521
 20
65.474314
 30
0.0
  0
VERTEX
  5
144
330
140
100
AcDbEntity
  8
001
370
    50
100
AcDbVertex
100
AcDb2dVertex
 10
54.651711
 20
65.42891
 30
0.0
  0
VERTEX
  5
145
330
140
100
AcDbEntity
  8
001
370
    50
100
AcDbVertex
100
AcDb2dVertex
 10
54.310151
 20
65.353446
 30
0.0
  0
VERTEX
  5
146
330
140
100
AcDbEntity
  8
001
370
    50
100
AcDbVertex
100
AcDb2dVertex
 10
54.005524
 20
65.249269
 30
0.0
  0
VERTEX
  5
147
330
140
100
AcDbEntity
  8
001
370
    50
100
AcDbVertex
100
AcDb2dVertex
 10
53.701342
 20
65.117316
 30
0.0
  0
VERTEX
  5
148
330
140
100
AcDbEntity
  8
001
370
    50
100
AcDbVertex
100
AcDb2dVertex
 10
53.401755
 20
64.956317
 30
0.0
  0
VERTEX
  5
149
330
140
100
AcDbEntity
  8
001
370
    50
100
AcDbVertex
100
AcDb2dVertex
 10
53.119064
 20
64.766741
 30
0.0
  0
VERTEX
  5
14A
330
140
100
AcDbEntity
  8
001
370
    50
100
AcDbVertex
100
AcDb2dVertex
 10
52.859897
 20
64.559513
 30
0.0
  0
VERTEX
  5
14B
330
140
100
AcDbEntity
  8
001
370
    50
100
AcDbVertex
100
AcDb2dVertex
 10
52.624693
 20
64.338614
 30
0.0
  0
VERTEX
  5
14C
330
140
100
AcDbEntity
  8
001
370
    50
100
AcDbVertex
100
AcDb2dVertex
 10
52.397442
 20
64.071666
 30
0.0
  0
VERTEX
  5
14D
330
140
100
AcDbEntity
  8
001
370
    50
100
AcDbVertex
100
AcDb2dVertex
 10
52.175567
 20
63.751176
 30
0.0
  0
VERTEX
  5
14E
330
140
100
AcDbEntity
  8
001
370
    50
100
AcDbVertex
100
AcDb2dVertex
 10
52.02932
 20
63.508527
 30
0.0
  0
SEQEND
  5
141
330
140
100
AcDbEntity
  8
001
370
    50
  0
POLYLINE
  5
14F
330
1F
100
AcDbEntity
  8
001
370
    50
100
AcDb2dPolyline
 66
     1
 10
0.0
 20
0.0
 30
0.0
  0
VERTEX
  5
151
330
14F
100
AcDbEntity
  8
001
370
    50
100
AcDbVertex
100
AcDb2dVertex
 10
52.02932
 20
63.508527
 30
0.0
  0
VERTEX
  5
152
330
14F
100
AcDbEntity
  8
001
370
    50
100
AcDbVertex
100
AcDb2dVertex
 10
51.855981
 20
63.448963
 30
0.0
  0
VERTEX
  5
153
330
14F
100
AcDbEntity
  8
001
370
    50
100
AcDbVertex
100
AcDb2dVertex
 10
51.605219
 20
63.355014
 30
0.0
  0
VERTEX
  5
154
330
14F
100
AcDbEntity
  8
001
370
    50
100
AcDbVertex
100
AcDb2dVertex
 10
51.358187
 20
63.251512
 30
0.0
  0
VERTEX
  5
155
330
14F
100
AcDbEntity
  8
001
370
    50
100
AcDbVertex
100
AcDb2dVertex
 10
51.191113
 20
63.17605
 30
0.0
  0
SEQEND
  5
150
330
14F
100
AcDbEntity
  8
001
370
    50
  0
LINE
  5
156
330
1F
100
AcDbEntity
  8
001
370
    50
100
AcDbLine
 10
51.191113
 20
63.17605
 30
0.0
 11
47.46036
 21
61.427727
 31
0.0
  0
POLYLINE
  5
157
330
1F
100
AcDbEntity
  8
001
370
    50
100
AcDb2dPolyline
 66
     1
 10
0.0
 20
0.0
 30
0.0
  0
VERTEX
  5
159
330
157
100
AcDbEntity
  8
001
370
    50
100
AcDbVertex
100
AcDb2dVertex
 10
47.46036
 20
61.427727
 30
0.0
  0
VERTEX
  5
15A
330
157
100
AcDbEntity
  8
001
370
    50
100
AcDbVertex
100
AcDb2dVertex
 10
47.412663
 20
61.640007
 30
0.0
  0
VERTEX
  5
15B
330
157
100
AcDbEntity
  8
001
370
    50
100
AcDbVertex
100
AcDb2dVertex
 10
47.371534
 20
61.85347
 30
0.0
  0
VERTEX
  5
15C
330
157
100
AcDbEntity
  8
001
370
    50
100
AcDbVertex
100
AcDb2dVertex
 10
47.342152
 20
62.069475
 30
0.0
  0
VERTEX
  5
15D
330
157
100
AcDbEntity
  8
001
370
    50
100
AcDbVertex
100
AcDb2dVertex
 10
47.324543
 20
62.28691
 30
0.0
  0
VERTEX
  5
15E
330
157
100
AcDbEntity
  8
001
370
    50
100
AcDbVertex
100
AcDb2dVertex
 10
47.317664
 20
62.504302
 30
0.0
  0
VERTEX
  5
15F
330
157
100
AcDbEntity
  8
001
370
    50
100
AcDbVertex
100
AcDb2dVertex
 10
47.32192
 20
62.721684
 30
0.0
  0
VERTEX
  5
160
330
157
100
AcDbEntity
  8
001
370
    50
100
AcDbVertex
100
AcDb2dVertex
 10
47.340603
 20
62.96472
 30
0.0
  0
VERTEX
  5
161
330
157
100
AcDbEntity
  8
001
370
    50
100
AcDbVertex
100
AcDb2dVertex
 10
47.373299
 20
63.206334
 30
0.0
  0
VERTEX
  5
162
330
157
100
AcDbEntity
  8
001
370
    50
100
AcDbVertex
100
AcDb2dVertex
 10
47.419207
 20
63.446554
 30
0.0
  0
VERTEX
  5
163
330
157
100
AcDbEntity
  8
001
370
    50
100
AcDbVertex
100
AcDb2dVertex
 10
47.477557
 20
63.684035
 30
0.0
  0
VERTEX
  5
164
330
157
100
AcDbEntity
  8
001
370
    50
100
AcDbVertex
100
AcDb2dVertex
 10
47.547521
 20
63.917716
 30
0.0
  0
VERTEX
  5
165
330
157
100
AcDbEntity
  8
001
370
    50
100
AcDbVertex
100
AcDb2dVertex
 10
47.628506
 20
64.14782
 30
0.0
  0
VERTEX
  5
166
330
157
100
AcDbEntity
  8
001
370
    50
100
AcDbVertex
100
AcDb2dVertex
 10
47.738343
 20
64.417032
 30
0.0
  0
VERTEX
  5
167
330
157
100
AcDbEntity
  8
001
370
    50
100
AcDbVertex
100
AcDb2dVertex
 10
47.861183
 20
64.680592
 30
0.0
  0
VERTEX
  5
168
330
157
100
AcDbEntity
  8
001
370
    50
100
AcDbVertex
100
AcDb2dVertex
 10
47.995926
 20
64.9392
 30
0.0
  0
VERTEX
  5
169
330
157
100
AcDbEntity
  8
001
370
    50
100
AcDbVertex
100
AcDb2dVertex
 10
48.14101
 20
65.192142
 30
0.0
  0
VERTEX
  5
16A
330
157
100
AcDbEntity
  8
001
370
    50
100
AcDbVertex
100
AcDb2dVertex
 10
48.295582
 20
65.439943
 30
0.0
  0
VERTEX
  5
16B
330
157
100
AcDbEntity
  8
001
370
    50
100
AcDbVertex
100
AcDb2dVertex
 10
48.458391
 20
65.68241
 30
0.0
  0
VERTEX
  5
16C
330
157
100
AcDbEntity
  8
001
370
    50
100
AcDbVertex
100
AcDb2dVertex
 10
48.627946
 20
65.919159
 30
0.0
  0
VERTEX
  5
16D
330
157
100
AcDbEntity
  8
001
370
    50
100
AcDbVertex
100
AcDb2dVertex
 10
48.803732
 20
66.151333
 30
0.0
  0
VERTEX
  5
16E
330
157
100
AcDbEntity
  8
001
370
    50
100
AcDbVertex
100
AcDb2dVertex
 10
49.126421
 20
66.550701
 30
0.0
  0
VERTEX
  5
16F
330
157
100
AcDbEntity
  8
001
370
    50
100
AcDbVertex
100
AcDb2dVertex
 10
49.463403
 20
66.938135
 30
0.0
  0
VERTEX
  5
170
330
157
100
AcDbEntity
  8
001
370
    50
100
AcDbVertex
100
AcDb2dVertex
 10
49.813127
 20
67.314964
 30
0.0
  0
VERTEX
  5
171
330
157
100
AcDbEntity
  8
001
370
    50
100
AcDbVertex
100
AcDb2dVertex
 10
50.173367
 20
67.681758
 30
0.0
  0
VERTEX
  5
172
330
157
100
AcDbEntity
  8
001
370
    50
100
AcDbVertex
100
AcDb2dVertex
 10
50.542942
 20
68.039913
 30
0.0
  0
VERTEX
  5
173
330
157
100
AcDbEntity
  8
001
370
    50
100
AcDbVertex
100
AcDb2dVertex
 10
50.920538
 20
68.389563
 30
0.0
  0
VERTEX
  5
174
330
157
100
AcDbEntity
  8
001
370
    50
100
AcDbVertex
100
AcDb2dVertex
 10
51.30438
 20
68.731258
 30
0.0
  0
VERTEX
  5
175
330
157
100
AcDbEntity
  8
001
370
    50
100
AcDbVertex
100
AcDb2dVertex
 10
51.691832
 20
69.068911
 30
0.0
  0
SEQEND
  5
158
330
157
100
AcDbEntity
  8
001
370
    50
  0
POLYLINE
  5
176
330
1F
100
AcDbEntity
  8
001
370
    50
100
AcDb2dPolyline
 66
     1
 10
0.0
 20
0.0
 30
0.0
  0
VERTEX
  5
178
330
176
100
AcDbEntity
  8
001
370
    50
100
AcDbVertex
100
AcDb2dVertex
 10
54.359065
 20
66.762709
 30
0.0
  0
VERTEX
  5
179
330
176
100
AcDbEntity
  8
001
370
    50
100
AcDbVertex
100
AcDb2dVertex
 10
54.568328
 20
66.774076
 30
0.0
  0
VERTEX
  5
17A
330
176
100
AcDbEntity
  8
001
370
    50
100
AcDbVertex
100
AcDb2dVertex
 10
54.854597
 20
66.808061
 30
0.0
  0
VERTEX
  5
17B
330
176
100
AcDbEntity
  8
001
370
    50
100
AcDbVertex
100
AcDb2dVertex
 10
55.107536
 20
66.86437
 30
0.0
  0
VERTEX
  5
17C
330
176
100
AcDbEntity
  8
001
370
    50
100
AcDbVertex
100
AcDb2dVertex
 10
55.333168
 20
66.942565
 30
0.0
  0
VERTEX
  5
17D
330
176
100
AcDbEntity
  8
001
370
    50
100
AcDbVertex
100
AcDb2dVertex
 10
55.557984
 20
67.041873
 30
0.0
  0
VERTEX
  5
17E
330
176
100
AcDbEntity
  8
001
370
    50
100
AcDbVertex
100
AcDb2dVertex
 10
55.778397
 20
67.161617
 30
0.0
  0
VERTEX
  5
17F
330
176
100
AcDbEntity
  8
001
370
    50
100
AcDbVertex
100
AcDb2dVertex
 10
55.984305
 20
67.300521
 30
0.0
  0
VERTEX
  5
180
330
176
100
AcDbEntity
  8
001
370
    50
100
AcDbVertex
100
AcDb2dVertex
 10
56.175045
 20
67.45772
 30
0.0
  0
VERTEX
  5
181
330
176
100
AcDbEntity
  8
001
370
    50
100
AcDbVertex
100
AcDb2dVertex
 10
56.350508
 20
67.631472
 30
0.0
  0
VERTEX
  5
182
330
176
100
AcDbEntity
  8
001
370
    50
100
AcDbVertex
100
AcDb2dVertex
 10
56.509536
 20
67.820737
 30
0.0
  0
VERTEX
  5
183
330
176
100
AcDbEntity
  8
001
370
    50
100
AcDbVertex
100
AcDb2dVertex
 10
56.649766
 20
68.02341
 30
0.0
  0
VERTEX
  5
184
330
176
100
AcDbEntity
  8
001
370
    50
100
AcDbVertex
100
AcDb2dVertex
 10
56.770421
 20
68.238245
 30
0.0
  0
VERTEX
  5
185
330
176
100
AcDbEntity
  8
001
370
    50
100
AcDbVertex
100
AcDb2dVertex
 10
56.870298
 20
68.462923
 30
0.0
  0
VERTEX
  5
186
330
176
100
AcDbEntity
  8
001
370
    50
100
AcDbVertex
100
AcDb2dVertex
 10
56.94877
 20
68.695952
 30
0.0
  0
VERTEX
  5
187
330
176
100
AcDbEntity
  8
001
370
    50
100
AcDbVertex
100
AcDb2dVertex
 10
57.004956
 20
68.934965
 30
0.0
  0
VERTEX
  5
188
330
176
100
AcDbEntity
  8
001
370
    50
100
AcDbVertex
100
AcDb2dVertex
 10
57.038478
 20
69.178193
 30
0.0
  0
VERTEX
  5
189
330
176
100
AcDbEntity
  8
001
370
    50
100
AcDbVertex
100
AcDb2dVertex
 10
57.048987
 20
69.423379
 30
0.0
  0
VERTEX
  5
18A
330
176
100
AcDbEntity
  8
001
370
    50
100
AcDbVertex
100
AcDb2dVertex
 10
57.036476
 20
69.66846
 30
0.0
  0
VERTEX
  5
18B
330
176
100
AcDbEntity
  8
001
370
    50
100
AcDbVertex
100
AcDb2dVertex
 10
57.00101
 20
69.911397
 30
0.0
  0
VERTEX
  5
18C
330
176
100
AcDbEntity
  8
001
370
    50
100
AcDbVertex
100
AcDb2dVertex
 10
56.942831
 20
70.149974
 30
0.0
  0
VERTEX
  5
18D
330
176
100
AcDbEntity
  8
001
370
    50
100
AcDbVertex
100
AcDb2dVertex
 10
56.862285
 20
70.382446
 30
0.0
  0
VERTEX
  5
18E
330
176
100
AcDbEntity
  8
001
370
    50
100
AcDbVertex
100
AcDb2dVertex
 10
56.760749
 20
70.606252
 30
0.0
  0
VERTEX
  5
18F
330
176
100
AcDbEntity
  8
001
370
    50
100
AcDbVertex
100
AcDb2dVertex
 10
56.638991
 20
70.819862
 30
0.0
  0
VERTEX
  5
190
330
176
100
AcDbEntity
  8
001
370
    50
100
AcDbVertex
100
AcDb2dVertex
 10
56.496462
 20
71.021678
 30
0.0
  0
VERTEX
  5
191
330
176
100
AcDbEntity
  8
001
370
    50
100
AcDbVertex
100
AcDb2dVertex
 10
56.333463
 20
71.210661
 30
0.0
  0
VERTEX
  5
192
330
176
100
AcDbEntity
  8
001
370
    50
100
AcDbVertex
100
AcDb2dVertex
 10
56.159017
 20
71.382032
 30
0.0
  0
VERTEX
  5
193
330
176
100
AcDbEntity
  8
001
370
    50
100
AcDbVertex
100
AcDb2dVertex
 10
55.976104
 20
71.534024
 30
0.0
  0
VERTEX
  5
194
330
176
100
AcDbEntity
  8
001
370
    50
100
AcDbVertex
100
AcDb2dVertex
 10
55.759963
 20
71.674981
 30
0.0
  0
VERTEX
  5
195
330
176
100
AcDbEntity
  8
001
370
    50
100
AcDbVertex
100
AcDb2dVertex
 10
55.504474
 20
71.806794
 30
0.0
  0
VERTEX
  5
196
330
176
100
AcDbEntity
  8
001
370
    50
100
AcDbVertex
100
AcDb2dVertex
 10
55.312958
 20
71.890496
 30
0.0
  0
SEQEND
  5
177
330
176
100
AcDbEntity
  8
001
370
    50
  0
POLYLINE
  5
197
330
1F
100
AcDbEntity
  8
001
370
    50
100
AcDb2dPolyline
 66
     1
 10
0.0
 20
0.0
 30
0.0
  0
VERTEX
  5
199
330
197
100
AcDbEntity
  8
001
370
    50
100
AcDbVertex
100
AcDb2dVertex
 10
55.312958
 20
71.890496
 30
0.0
  0
VERTEX
  5
19A
330
197
100
AcDbEntity
  8
001
370
    50
100
AcDbVertex
100
AcDb2dVertex
 10
55.654273
 20
72.136331
 30
0.0
  0
VERTEX
  5
19B
330
197
100
AcDbEntity
  8
001
370
    50
100
AcDbVertex
100
AcDb2dVertex
 10
55.996328
 20
72.381123
 30
0.0
  0
VERTEX
  5
19C
330
197
100
AcDbEntity
  8
001
370
    50
100
AcDbVertex
100
AcDb2dVertex
 10
56.559806
 20
72.778701
 30
0.0
  0
VERTEX
  5
19D
330
197
100
AcDbEntity
  8
001
370
    50
100
AcDbVertex
100
AcDb2dVertex
 10
57.125276
 20
73.173475
 30
0.0
  0
SEQEND
  5
198
330
197
100
AcDbEntity
  8
001
370
    50
  0
POLYLINE
  5
19E
330
1F
100
AcDbEntity
  8
001
370
    50
100
AcDb2dPolyline
 66
     1
 10
0.0
 20
0.0
 30
0.0
  0
VERTEX
  5
1A0
330
19E
100
AcDbEntity
  8
001
370
    50
100
AcDbVertex
100
AcDb2dVertex
 10
61.807994
 20
56.378741
 30
0.0
  0
VERTEX
  5
1A1
330
19E
100
AcDbEntity
  8
001
370
    50
100
AcDbVertex
100
AcDb2dVertex
 10
61.777866
 20
56.942134
 30
0.0
  0
VERTEX
  5
1A2
330
19E
100
AcDbEntity
  8
001
370
    50
100
AcDbVertex
100
AcDb2dVertex
 10
61.689036
 20
57.712514
 30
0.0
  0
VERTEX
  5
1A3
330
19E
100
AcDbEntity
  8
001
370
    50
100
AcDbVertex
100
AcDb2dVertex
 10
61.542793
 20
58.393226
 30
0.0
  0
VERTEX
  5
1A4
330
19E
100
AcDbEntity
  8
001
370
    50
100
AcDbVertex
100
AcDb2dVertex
 10
61.335953
 20
59.003766
 30
0.0
  0
VERTEX
  5
1A5
330
19E
100
AcDbEntity
  8
001
370
    50
100
AcDbVertex
100
AcDb2dVertex
 10
61.068946
 20
59.617557
 30
0.0
  0
VERTEX
  5
1A6
330
19E
100
AcDbEntity
  8
001
370
    50
100
AcDbVertex
100
AcDb2dVertex
 10
60.760002
 20
60.211333
 30
0.0
  0
VERTEX
  5
1A7
330
19E
100
AcDbEntity
  8
001
370
    50
100
AcDbVertex
100
AcDb2dVertex
 10
60.416146
 20
60.755554
 30
0.0
  0
VERTEX
  5
1A8
330
19E
100
AcDbEntity
  8
001
370
    50
100
AcDbVertex
100
AcDb2dVertex
 10
59.979545
 20
61.296718
 30
0.0
  0
VERTEX
  5
1A9
330
19E
100
AcDbEntity
  8
001
370
    50
100
AcDbVertex
100
AcDb2dVertex
 10
59.43768
 20
61.848758
 30
0.0
  0
VERTEX
  5
1AA
330
19E
100
AcDbEntity
  8
001
370
    50
100
AcDbVertex
100
AcDb2dVertex
 10
59.019461
 20
62.225318
 30
0.0
  0
SEQEND
  5
19F
330
19E
100
AcDbEntity
  8
001
370
    50
  0
POLYLINE
  5
1AB
330
1F
100
AcDbEntity
  8
001
370
    50
100
AcDb2dPolyline
 66
     1
 10
0.0
 20
0.0
 30
0.0
  0
VERTEX
  5
1AD
330
1AB
100
AcDbEntity
  8
001
370
    50
100
AcDbVertex
100
AcDb2dVertex
 10
59.019461
 20
62.225318
 30
0.0
  0
VERTEX
  5
1AE
330
1AB
100
AcDbEntity
  8
001
370
    50
100
AcDbVertex
100
AcDb2dVertex
 10
58.967898
 20
62.504588
 30
0.0
  0
VERTEX
  5
1AF
330
1AB
100
AcDbEntity
  8
001
370
    50
100
AcDbVertex
100
AcDb2dVertex
 10
58.873004
 20
62.883555
 30
0.0
  0
VERTEX
  5
1B0
330
1AB
100
AcDbEntity
  8
001
370
    50
100
AcDbVertex
100
AcDb2dVertex
 10
58.754363
 20
63.214258
 30
0.0
  0
VERTEX
  5
1B1
330
1AB
100
AcDbEntity
  8
001
370
    50
100
AcDbVertex
100
AcDb2dVertex
 10
58.611584
 20
63.504779
 30
0.0
  0
VERTEX
  5
1B2
330
1AB
100
AcDbEntity
  8
001
370
    50
100
AcDbVertex
100
AcDb2dVertex
 10
58.440866
 20
63.791296
 30
0.0
  0
VERTEX
  5
1B3
330
1AB
100
AcDbEntity
  8
001
370
    50
100
AcDbVertex
100
AcDb2dVertex
 10
58.243661
 20
64.068892
 30
0.0
  0
VERTEX
  5
1B4
330
1AB
100
AcDbEntity
  8
001
370
    50
100
AcDbVertex
100
AcDb2dVertex
 10
58.02299
 20
64.324698
 30
0.0
  0
VERTEX
  5
1B5
330
1AB
100
AcDbEntity
  8
001
370
    50
100
AcDbVertex
100
AcDb2dVertex
 10
57.781135
 20
64.557645
 30
0.0
  0
VERTEX
  5
1B6
330
1AB
100
AcDbEntity
  8
001
370
    50
100
AcDbVertex
100
AcDb2dVertex
 10
57.520081
 20
64.768386
 30
0.0
  0
VERTEX
  5
1B7
330
1AB
100
AcDbEntity
  8
001
370
    50
100
AcDbVertex
100
AcDb2dVertex
 10
57.23897
 20
64.955225
 30
0.0
  0
VERTEX
  5
1B8
330
1AB
100
AcDbEntity
  8
001
370
    50
100
AcDbVertex
100
AcDb2dVertex
 10
56.939623
 20
65.115716
 30
0.0
  0
VERTEX
  5
1B9
330
1AB
100
AcDbEntity
  8
001
370
    50
100
AcDbVertex
100
AcDb2dVertex
 10
56.634707
 20
65.24877
 30
0.0
  0
VERTEX
  5
1BA
330
1AB
100
AcDbEntity
  8
001
370
    50
100
AcDbVertex
100
AcDb2dVertex
 10
56.329672
 20
65.353381
 30
0.0
  0
VERTEX
  5
1BB
330
1AB
100
AcDbEntity
  8
001
370
    50
100
AcDbVertex
100
AcDb2dVertex
 10
55.987894
 20
65.428783
 30
0.0
  0
VERTEX
  5
1BC
330
1AB
100
AcDbEntity
  8
001
370
    50
100
AcDbVertex
100
AcDb2dVertex
 10
55.601711
 20
65.474239
 30
0.0
  0
VERTEX
  5
1BD
330
1AB
100
AcDbEntity
  8
001
370
    50
100
AcDbVertex
100
AcDb2dVertex
 10
55.319456
 20
65.489442
 30
0.0
  0
SEQEND
  5
1AC
330
1AB
100
AcDbEntity
  8
001
370
    50
  0
LINE
  5
1BE
330
1F
100
AcDbEntity
  8
001
370
    50
100
AcDbLine
 10
52.02932
 20
63.508527
 30
0.0
 11
52.575579
 21
63.508527
 31
0.0
  0
LINE
  5
1BF
330
1F
100
AcDbEntity
  8
001
370
    50
100
AcDbLine
 10
57.125276
 20
76.924691
 30
0.0
 11
45.511771
 21
70.192578
 31
0.0
  0
LINE
  5
1C0
330
1F
100
AcDbEntity
  8
001
370
    50
100
AcDbLine
 10
45.26475
 20
70.049375
 30
0.0
 11
43.928333
 21
69.273115
 31
0.0
  0
LINE
  5
1C1
330
1F
100
AcDbEntity
  8
001
370
    50
100
AcDbLine
 10
45.510869
 20
70.192046
 30
0.0
 11
45.26475
 21
70.049375
 31
0.0
  0
POLYLINE
  5
1C2
330
1F
100
AcDbEntity
  8
001
370
    50
100
AcDb2dPolyline
 66
     1
 10
0.0
 20
0.0
 30
0.0
  0
VERTEX
  5
1C4
330
1C2
100
AcDbEntity
  8
001
370
    50
100
AcDbVertex
100
AcDb2dVertex
 10
55.312958
 20
71.890496
 30
0.0
  0
VERTEX
  5
1C5
330
1C2
100
AcDbEntity
  8
001
370
    50
100
AcDbVertex
100
AcDb2dVertex
 10
55.094703
 20
71.952476
 30
0.0
  0
VERTEX
  5
1C6
330
1C2
100
AcDbEntity
  8
001
370
    50
100
AcDbVertex
100
AcDb2dVertex
 10
54.874295
 20
72.005071
 30
0.0
  0
VERTEX
  5
1C7
330
1C2
100
AcDbEntity
  8
001
370
    50
100
AcDbVertex
100
AcDb2dVertex
 10
54.640672
 20
72.041793
 30
0.0
  0
VERTEX
  5
1C8
330
1C2
100
AcDbEntity
  8
001
370
    50
100
AcDbVertex
100
AcDb2dVertex
 10
54.404735
 20
72.059558
 30
0.0
  0
VERTEX
  5
1C9
330
1C2
100
AcDbEntity
  8
001
370
    50
100
AcDbVertex
100
AcDb2dVertex
 10
54.334406
 20
72.061521
 30
0.0
  0
VERTEX
  5
1CA
330
1C2
100
AcDbEntity
  8
001
370
    50
100
AcDbVertex
100
AcDb2dVertex
 10
54.264079
 20
72.062709
 30
0.0
  0
SEQEND
  5
1C3
330
1C2
100
AcDbEntity
  8
001
370
    50
  0
POLYLINE
  5
1CB
330
1F
100
AcDbEntity
  8
001
370
    50
100
AcDb2dPolyline
 66
     1
 10
0.0
 20
0.0
 30
0.0
  0
VERTEX
  5
1CD
330
1CB
100
AcDbEntity
  8
001
370
    50
100
AcDbVertex
100
AcDb2dVertex
 10
43.928333
 20
59.667834
 30
0.0
  0
VERTEX
  5
1CE
330
1CB
100
AcDbEntity
  8
001
370
    50
100
AcDbVertex
100
AcDb2dVertex
 10
44.351212
 20
59.880583
 30
0.0
  0
VERTEX
  5
1CF
330
1CB
100
AcDbEntity
  8
001
370
    50
100
AcDbVertex
100
AcDb2dVertex
 10
44.774274
 20
60.092966
 30
0.0
  0
VERTEX
  5
1D0
330
1CB
100
AcDbEntity
  8
001
370
    50
100
AcDbVertex
100
AcDb2dVertex
 10
45.21109
 20
60.311415
 30
0.0
  0
VERTEX
  5
1D1
330
1CB
100
AcDbEntity
  8
001
370
    50
100
AcDbVertex
100
AcDb2dVertex
 10
45.648189
 20
60.529298
 30
0.0
  0
VERTEX
  5
1D2
330
1CB
100
AcDbEntity
  8
001
370
    50
100
AcDbVertex
100
AcDb2dVertex
 10
46.096936
 20
60.752478
 30
0.0
  0
VERTEX
  5
1D3
330
1CB
100
AcDbEntity
  8
001
370
    50
100
AcDbVertex
100
AcDb2dVertex
 10
46.545885
 20
60.975253
 30
0.0
  0
VERTEX
  5
1D4
330
1CB
100
AcDbEntity
  8
001
370
    50
100
AcDbVertex
100
AcDb2dVertex
 10
47.003066
 20
61.201604
 30
0.0
  0
VERTEX
  5
1D5
330
1CB
100
AcDbEntity
  8
001
370
    50
100
AcDbVertex
100
AcDb2dVertex
 10
47.46036
 20
61.427727
 30
0.0
  0
SEQEND
  5
1CC
330
1CB
100
AcDbEntity
  8
001
370
    50
  0
POLYLINE
  5
1D6
330
1F
100
AcDbEntity
  8
001
370
    50
100
AcDb2dPolyline
 66
     1
 10
0.0
 20
0.0
 30
0.0
  0
VERTEX
  5
1D8
330
1D6
100
AcDbEntity
  8
001
370
    50
100
AcDbVertex
100
AcDb2dVertex
 10
54.264079
 20
72.062709
 30
0.0
  0
VERTEX
  5
1D9
330
1D6
100
AcDbEntity
  8
001
370
    50
100
AcDbVertex
100
AcDb2dVertex
 10
54.187971
 20
72.061521
 30
0.0
  0
VERTEX
  5
1DA
330
1D6
100
AcDbEntity
  8
001
370
    50
100
AcDbVertex
100
AcDb2dVertex
 10
54.1119
 20
72.05924
 30
0.0
  0
VERTEX
  5
1DB
330
1D6
100
AcDbEntity
  8
001
370
    50
100
AcDbVertex
100
AcDb2dVertex
 10
53.958505
 20
72.048462
 30
0.0
  0
VERTEX
  5
1DC
330
1D6
100
AcDbEntity
  8
001
370
    50
100
AcDbVertex
100
AcDb2dVertex
 10
53.805827
 20
72.029571
 30
0.0
  0
VERTEX
  5
1DD
330
1D6
100
AcDbEntity
  8
001
370
    50
100
AcDbVertex
100
AcDb2dVertex
 10
53.643221
 20
72.000951
 30
0.0
  0
VERTEX
  5
1DE
330
1D6
100
AcDbEntity
  8
001
370
    50
100
AcDbVertex
100
AcDb2dVertex
 10
53.482446
 20
71.963484
 30
0.0
  0
VERTEX
  5
1DF
330
1D6
100
AcDbEntity
  8
001
370
    50
100
AcDbVertex
100
AcDb2dVertex
 10
53.313265
 20
71.913245
 30
0.0
  0
VERTEX
  5
1E0
330
1D6
100
AcDbEntity
  8
001
370
    50
100
AcDbVertex
100
AcDb2dVertex
 10
53.147636
 20
71.852355
 30
0.0
  0
VERTEX
  5
1E1
330
1D6
100
AcDbEntity
  8
001
370
    50
100
AcDbVertex
100
AcDb2dVertex
 10
53.03687
 20
71.804579
 30
0.0
  0
VERTEX
  5
1E2
330
1D6
100
AcDbEntity
  8
001
370
    50
100
AcDbVertex
100
AcDb2dVertex
 10
52.928377
 20
71.751861
 30
0.0
  0
VERTEX
  5
1E3
330
1D6
100
AcDbEntity
  8
001
370
    50
100
AcDbVertex
100
AcDb2dVertex
 10
52.819013
 20
71.692285
 30
0.0
  0
VERTEX
  5
1E4
330
1D6
100
AcDbEntity
  8
001
370
    50
100
AcDbVertex
100
AcDb2dVertex
 10
52.712713
 20
71.627408
 30
0.0
  0
VERTEX
  5
1E5
330
1D6
100
AcDbEntity
  8
001
370
    50
100
AcDbVertex
100
AcDb2dVertex
 10
52.607568
 20
71.555539
 30
0.0
  0
VERTEX
  5
1E6
330
1D6
100
AcDbEntity
  8
001
370
    50
100
AcDbVertex
100
AcDb2dVertex
 10
52.506276
 20
71.478312
 30
0.0
  0
VERTEX
  5
1E7
330
1D6
100
AcDbEntity
  8
001
370
    50
100
AcDbVertex
100
AcDb2dVertex
 10
52.40964
 20
71.396452
 30
0.0
  0
VERTEX
  5
1E8
330
1D6
100
AcDbEntity
  8
001
370
    50
100
AcDbVertex
100
AcDb2dVertex
 10
52.317498
 20
71.309586
 30
0.0
  0
VERTEX
  5
1E9
330
1D6
100
AcDbEntity
  8
001
370
    50
100
AcDbVertex
100
AcDb2dVertex
 10
52.238477
 20
71.226858
 30
0.0
  0
VERTEX
  5
1EA
330
1D6
100
AcDbEntity
  8
001
370
    50
100
AcDbVertex
100
AcDb2dVertex
 10
52.163632
 20
71.140332
 30
0.0
  0
VERTEX
  5
1EB
330
1D6
100
AcDbEntity
  8
001
370
    50
100
AcDbVertex
100
AcDb2dVertex
 10
52.09529
 20
71.0532
 30
0.0
  0
VERTEX
  5
1EC
330
1D6
100
AcDbEntity
  8
001
370
    50
100
AcDbVertex
100
AcDb2dVertex
 10
52.031188
 20
70.962893
 30
0.0
  0
VERTEX
  5
1ED
330
1D6
100
AcDbEntity
  8
001
370
    50
100
AcDbVertex
100
AcDb2dVertex
 10
51.94094
 20
70.817516
 30
0.0
  0
VERTEX
  5
1EE
330
1D6
100
AcDbEntity
  8
001
370
    50
100
AcDbVertex
100
AcDb2dVertex
 10
51.861729
 20
70.665805
 30
0.0
  0
VERTEX
  5
1EF
330
1D6
100
AcDbEntity
  8
001
370
    50
100
AcDbVertex
100
AcDb2dVertex
 10
51.797105
 20
70.516856
 30
0.0
  0
VERTEX
  5
1F0
330
1D6
100
AcDbEntity
  8
001
370
    50
100
AcDbVertex
100
AcDb2dVertex
 10
51.742924
 20
70.363805
 30
0.0
  0
VERTEX
  5
1F1
330
1D6
100
AcDbEntity
  8
001
370
    50
100
AcDbVertex
100
AcDb2dVertex
 10
51.699599
 20
70.208487
 30
0.0
  0
VERTEX
  5
1F2
330
1D6
100
AcDbEntity
  8
001
370
    50
100
AcDbVertex
100
AcDb2dVertex
 10
51.666884
 20
70.050624
 30
0.0
  0
VERTEX
  5
1F3
330
1D6
100
AcDbEntity
  8
001
370
    50
100
AcDbVertex
100
AcDb2dVertex
 10
51.645277
 20
69.89523
 30
0.0
  0
VERTEX
  5
1F4
330
1D6
100
AcDbEntity
  8
001
370
    50
100
AcDbVertex
100
AcDb2dVertex
 10
51.633346
 20
69.73872
 30
0.0
  0
VERTEX
  5
1F5
330
1D6
100
AcDbEntity
  8
001
370
    50
100
AcDbVertex
100
AcDb2dVertex
 10
51.630834
 20
69.585064
 30
0.0
  0
VERTEX
  5
1F6
330
1D6
100
AcDbEntity
  8
001
370
    50
100
AcDbVertex
100
AcDb2dVertex
 10
51.638461
 20
69.431754
 30
0.0
  0
VERTEX
  5
1F7
330
1D6
100
AcDbEntity
  8
001
370
    50
100
AcDbVertex
100
AcDb2dVertex
 10
51.661034
 20
69.249896
 30
0.0
  0
VERTEX
  5
1F8
330
1D6
100
AcDbEntity
  8
001
370
    50
100
AcDbVertex
100
AcDb2dVertex
 10
51.691832
 20
69.068911
 30
0.0
  0
SEQEND
  5
1D7
330
1D6
100
AcDbEntity
  8
001
370
    50
  0
POLYLINE
  5
1F9
330
1F
100
AcDbEntity
  8
001
370
    50
100
AcDb2dPolyline
 66
     1
 10
0.0
 20
0.0
 30
0.0
  0
VERTEX
  5
1FB
330
1F9
100
AcDbEntity
  8
001
370
    50
100
AcDbVertex
100
AcDb2dVertex
 10
51.691832
 20
69.068911
 30
0.0
  0
VERTEX
  5
1FC
330
1F9
100
AcDbEntity
  8
001
370
    50
100
AcDbVertex
100
AcDb2dVertex
 10
51.729049
 20
68.871535
 30
0.0
  0
VERTEX
  5
1FD
330
1F9
100
AcDbEntity
  8
001
370
    50
100
AcDbVertex
100
AcDb2dVertex
 10
51.797474
 20
68.603827
 30
0.0
  0
VERTEX
  5
1FE
330
1F9
100
AcDbEntity
  8
001
370
    50
100
AcDbVertex
100
AcDb2dVertex
 10
51.883092
 20
68.369987
 30
0.0
  0
VERTEX
  5
1FF
330
1F9
100
AcDbEntity
  8
001
370
    50
100
AcDbVertex
100
AcDb2dVertex
 10
51.985968
 20
68.164906
 30
0.0
  0
VERTEX
  5
200
330
1F9
100
AcDbEntity
  8
001
370
    50
100
AcDbVertex
100
AcDb2dVertex
 10
52.109155
 20
67.962333
 30
0.0
  0
VERTEX
  5
201
330
1F9
100
AcDbEntity
  8
001
370
    50
100
AcDbVertex
100
AcDb2dVertex
 10
52.251216
 20
67.766344
 30
0.0
  0
VERTEX
  5
202
330
1F9
100
AcDbEntity
  8
001
370
    50
100
AcDbVertex
100
AcDb2dVertex
 10
52.410443
 20
67.585447
 30
0.0
  0
VERTEX
  5
203
330
1F9
100
AcDbEntity
  8
001
370
    50
100
AcDbVertex
100
AcDb2dVertex
 10
52.58464
 20
67.421031
 30
0.0
  0
VERTEX
  5
204
330
1F9
100
AcDbEntity
  8
001
370
    50
100
AcDbVertex
100
AcDb2dVertex
 10
52.772994
 20
67.272023
 30
0.0
  0
VERTEX
  5
205
330
1F9
100
AcDbEntity
  8
001
370
    50
100
AcDbVertex
100
AcDb2dVertex
 10
52.975456
 20
67.140136
 30
0.0
  0
VERTEX
  5
206
330
1F9
100
AcDbEntity
  8
001
370
    50
100
AcDbVertex
100
AcDb2dVertex
 10
53.191368
 20
67.026674
 30
0.0
  0
VERTEX
  5
207
330
1F9
100
AcDbEntity
  8
001
370
    50
100
AcDbVertex
100
AcDb2dVertex
 10
53.411022
 20
66.932745
 30
0.0
  0
VERTEX
  5
208
330
1F9
100
AcDbEntity
  8
001
370
    50
100
AcDbVertex
100
AcDb2dVertex
 10
53.631027
 20
66.858807
 30
0.0
  0
VERTEX
  5
209
330
1F9
100
AcDbEntity
  8
001
370
    50
100
AcDbVertex
100
AcDb2dVertex
 10
53.877252
 20
66.805565
 30
0.0
  0
VERTEX
  5
20A
330
1F9
100
AcDbEntity
  8
001
370
    50
100
AcDbVertex
100
AcDb2dVertex
 10
54.155637
 20
66.773446
 30
0.0
  0
VERTEX
  5
20B
330
1F9
100
AcDbEntity
  8
001
370
    50
100
AcDbVertex
100
AcDb2dVertex
 10
54.359065
 20
66.762709
 30
0.0
  0
SEQEND
  5
1FA
330
1F9
100
AcDbEntity
  8
001
370
    50
  0
POLYLINE
  5
20C
330
1F
100
AcDbEntity
  8
001
370
    50
100
AcDb2dPolyline
 66
     1
 10
0.0
 20
0.0
 30
0.0
  0
VERTEX
  5
20E
330
20C
100
AcDbEntity
  8
001
370
    50
100
AcDbVertex
100
AcDb2dVertex
 10
52.575579
 20
63.508527
 30
0.0
  0
VERTEX
  5
20F
330
20C
100
AcDbEntity
  8
001
370
    50
100
AcDbVertex
100
AcDb2dVertex
 10
52.402239
 20
63.448963
 30
0.0
  0
VERTEX
  5
210
330
20C
100
AcDbEntity
  8
001
370
    50
100
AcDbVertex
100
AcDb2dVertex
 10
52.151477
 20
63.355014
 30
0.0
  0
VERTEX
  5
211
330
20C
100
AcDbEntity
  8
001
370
    50
100
AcDbVertex
100
AcDb2dVertex
 10
51.904445
 20
63.251512
 30
0.0
  0
VERTEX
  5
212
330
20C
100
AcDbEntity
  8
001
370
    50
100
AcDbVertex
100
AcDb2dVertex
 10
51.737371
 20
63.17605
 30
0.0
  0
SEQEND
  5
20D
330
20C
100
AcDbEntity
  8
001
370
    50
  0
LINE
  5
213
330
1F
100
AcDbEntity
  8
001
370
    50
100
AcDbLine
 10
51.737371
 20
63.17605
 30
0.0
 11
43.928333
 21
59.516541
 31
0.0
  0
LINE
  5
214
330
1F
100
AcDbEntity
  8
001
370
    50
100
AcDbLine
 10
61.807994
 20
72.728452
 30
0.0
 11
61.807994
 21
52.320931
 31
0.0
  0
LINE
  5
215
330
1F
100
AcDbEntity
  8
001
370
    50
100
AcDbLine
 10
75.028333
 20
78.524691
 30
0.0
 11
73.428333
 21
76.924691
 31
0.0
  0
LINE
  5
216
330
1F
100
AcDbEntity
  8
001
370
    50
100
AcDbLine
 10
75.028333
 20
46.524691
 30
0.0
 11
73.428333
 21
48.124691
 31
0.0
  0
LINE
  5
217
330
1F
100
AcDbEntity
  8
001
370
    50
100
AcDbLine
 10
75.028333
 20
78.524691
 30
0.0
 11
75.028333
 21
46.524691
 31
0.0
  0
LINE
  5
218
330
1F
100
AcDbEntity
  8
001
370
    50
100
AcDbLine
 10
169.428333
 20
78.524691
 30
0.0
 11
75.028333
 21
78.524691
 31
0.0
  0
LINE
  5
219
330
1F
100
AcDbEntity
  8
001
370
    50
100
AcDbLine
 10
169.428333
 20
46.524691
 30
0.0
 11
75.028333
 21
46.524691
 31
0.0
  0
LINE
  5
21A
330
1F
100
AcDbEntity
  8
001
370
    50
100
AcDbLine
 10
173.428333
 20
62.524691
 30
0.0
 11
178.624486
 21
65.524691
 31
0.0
  0
LINE
  5
21B
330
1F
100
AcDbEntity
  8
001
370
    50
100
AcDbLine
 10
173.428333
 20
62.524691
 30
0.0
 11
178.624486
 21
59.524691
 31
0.0
  0
LINE
  5
21C
330
1F
100
AcDbEntity
  8
001
370
    50
100
AcDbLine
 10
43.928333
 20
62.524691
 30
0.0
 11
38.732181
 21
65.524691
 31
0.0
  0
LINE
  5
21D
330
1F
100
AcDbEntity
  8
001
370
    50
100
AcDbLine
 10
43.928333
 20
62.524691
 30
0.0
 11
38.732181
 21
59.524691
 31
0.0
  0
LINE
  5
21E
330
1F
100
AcDbEntity
  8
001
  6
CENTER
370
     9
100
AcDbLine
 10
38.197819
 20
62.524691
 30
0.0
 11
177.958556
 21
62.524691
 31
0.0
  0
ARC
  5
21F
330
1F
100
AcDbEntity
  8
001
370
    50
100
AcDbCircle
 10
169.428333
 20
74.524691
 30
0.0
 40
4.0
100
AcDbArc
 50
0.0
 51
90.0
  0
ARC
  5
220
330
1F
100
AcDbEntity
  8
001
370
    50
100
AcDbCircle
 10
169.428333
 20
50.524691
 30
0.0
 40
4.0
100
AcDbArc
 50
270.0
 51
0.0
  0
LINE
  5
221
330
1F
100
AcDbEntity
  8
001
370
    50
100
AcDbLine
 10
56.715833
 20
63.158113
 30
0.0
 11
43.628333
 21
55.602042
 31
0.0
  0
LINE
  5
222
330
1F
100
AcDbEntity
  8
001
370
    50
100
AcDbLine
 10
57.315833
 20
47.688041
 30
0.0
 11
57.315833
 21
62.811703
 31
0.0
  0
ARC
  5
223
330
1F
100
AcDbEntity
  8
001
370
    50
100
AcDbCircle
 10
43.828333
 20
55.255631
 30
0.0
 40
0.4
100
AcDbArc
 50
120.0
 51
240.0
  0
ARC
  5
224
330
1F
100
AcDbEntity
  8
001
370
    50
100
AcDbCircle
 10
56.915833
 20
62.811703
 30
0.0
 40
0.4
100
AcDbArc
 50
0.0
 51
120.0
  0
CIRCLE
  5
225
330
1F
100
AcDbEntity
  8
001
370
    50
100
AcDbCircle
 10
52.553333
 20
55.255631
 30
0.0
 40
1.9
  0
LINE
  5
226
330
1F
100
AcDbEntity
  8
001
370
     9
100
AcDbLine
 10
56.817086
 20
47.294691
 30
0.0
 11
56.734613
 21
47.342307
 31
0.0
  0
LINE
  5
227
330
1F
100
AcDbEntity
  8
001
370
     9
100
AcDbLine
 10
43.428333
 20
55.024691
 30
0.0
 11
43.628333
 21
54.909221
 31
0.0
  0
LINE
  5
228
330
1F
100
AcDbEntity
  8
001
370
    50
100
AcDbLine
 10
56.725809
 20
47.34739
 30
0.0
 11
43.628333
 21
54.909221
 31
0.0
  0
LINE
  5
229
330
1F
100
AcDbEntity
  8
001
370
     9
100
AcDbLine
 10
43.428333
 20
55.024691
 30
0.0
 11
43.428333
 21
55.255631
 31
0.0
  0
POLYLINE
  5
22A
330
1F
100
AcDbEntity
  8
001
370
    50
100
AcDb2dPolyline
 66
     1
 10
0.0
 20
0.0
 30
0.0
  0
VERTEX
  5
22C
330
22A
100
AcDbEntity
  8
001
370
    50
100
AcDbVertex
100
AcDb2dVertex
 10
52.575579
 20
63.508527
 30
0.0
  0
VERTEX
  5
22D
330
22A
100
AcDbEntity
  8
001
370
    50
100
AcDbVertex
100
AcDb2dVertex
 10
52.437954
 20
63.201237
 30
0.0
  0
VERTEX
  5
22E
330
22A
100
AcDbEntity
  8
001
370
    50
100
AcDbVertex
100
AcDb2dVertex
 10
52.278978
 20
62.773682
 30
0.0
  0
VERTEX
  5
22F
330
22A
100
AcDbEntity
  8
001
370
    50
100
AcDbVertex
100
AcDb2dVertex
 10
52.180118
 20
62.388494
 30
0.0
  0
VERTEX
  5
230
330
22A
100
AcDbEntity
  8
001
370
    50
100
AcDbVertex
100
AcDb2dVertex
 10
52.142768
 20
61.992589
 30
0.0
  0
VERTEX
  5
231
330
22A
100
AcDbEntity
  8
001
370
    50
100
AcDbVertex
100
AcDb2dVertex
 10
52.147114
 20
61.547571
 30
0.0
  0
VERTEX
  5
232
330
22A
100
AcDbEntity
  8
001
370
    50
100
AcDbVertex
100
AcDb2dVertex
 10
52.171558
 20
61.210901
 30
0.0
  0
VERTEX
  5
233
330
22A
100
AcDbEntity
  8
001
370
    50
100
AcDbVertex
100
AcDb2dVertex
 10
52.213163
 20
60.896708
 30
0.0
  0
VERTEX
  5
234
330
22A
100
AcDbEntity
  8
001
370
    50
100
AcDbVertex
100
AcDb2dVertex
 10
52.254767
 20
60.582516
 30
0.0
  0
SEQEND
  5
22B
330
22A
100
AcDbEntity
  8
001
370
    50
  0
POLYLINE
  5
235
330
1F
100
AcDbEntity
  8
001
370
    50
100
AcDb2dPolyline
 66
     1
 10
0.0
 20
0.0
 30
0.0
  0
VERTEX
  5
237
330
235
100
AcDbEntity
  8
001
370
    50
100
AcDbVertex
100
AcDb2dVertex
 10
57.315833
 20
58.284999
 30
0.0
  0
VERTEX
  5
238
330
235
100
AcDbEntity
  8
001
370
    50
100
AcDbVertex
100
AcDb2dVertex
 10
57.588507
 20
58.419211
 30
0.0
  0
VERTEX
  5
239
330
235
100
AcDbEntity
  8
001
370
    50
100
AcDbVertex
100
AcDb2dVertex
 10
57.912253
 20
58.603767
 30
0.0
  0
VERTEX
  5
23A
330
235
100
AcDbEntity
  8
001
370
    50
100
AcDbVertex
100
AcDb2dVertex
 10
58.222739
 20
58.826682
 30
0.0
  0
VERTEX
  5
23B
330
235
100
AcDbEntity
  8
001
370
    50
100
AcDbVertex
100
AcDb2dVertex
 10
58.481605
 20
59.065224
 30
0.0
  0
VERTEX
  5
23C
330
235
100
AcDbEntity
  8
001
370
    50
100
AcDbVertex
100
AcDb2dVertex
 10
58.725967
 20
59.333136
 30
0.0
  0
VERTEX
  5
23D
330
235
100
AcDbEntity
  8
001
370
    50
100
AcDbVertex
100
AcDb2dVertex
 10
58.950445
 20
59.629433
 30
0.0
  0
VERTEX
  5
23E
330
235
100
AcDbEntity
  8
001
370
    50
100
AcDbVertex
100
AcDb2dVertex
 10
59.142472
 20
59.948111
 30
0.0
  0
VERTEX
  5
23F
330
235
100
AcDbEntity
  8
001
370
    50
100
AcDbVertex
100
AcDb2dVertex
 10
59.300759
 20
60.274717
 30
0.0
  0
VERTEX
  5
240
330
235
100
AcDbEntity
  8
001
370
    50
100
AcDbVertex
100
AcDb2dVertex
 10
59.426662
 20
60.604405
 30
0.0
  0
VERTEX
  5
241
330
235
100
AcDbEntity
  8
001
370
    50
100
AcDbVertex
100
AcDb2dVertex
 10
59.519085
 20
60.976281
 30
0.0
  0
VERTEX
  5
242
330
235
100
AcDbEntity
  8
001
370
    50
100
AcDbVertex
100
AcDb2dVertex
 10
59.576466
 20
61.398272
 30
0.0
  0
VERTEX
  5
243
330
235
100
AcDbEntity
  8
001
370
    50
100
AcDbVertex
100
AcDb2dVertex
 10
59.597035
 20
61.707169
 30
0.0
  0
SEQEND
  5
236
330
235
100
AcDbEntity
  8
001
370
    50
  0
LINE
  5
244
330
1F
100
AcDbEntity
  8
001
370
    50
100
AcDbLine
 10
43.928333
 20
69.273115
 30
0.0
 11
43.928333
 21
55.775247
 31
0.0
  0
LINE
  5
245
330
1F
100
AcDbEntity
  8
001
370
    50
100
AcDbLine
 10
73.428333
 20
48.124691
 30
0.0
 11
57.315833
 21
48.124691
 31
0.0
  0
ARC
  5
246
330
1F
100
AcDbEntity
  8
001
370
    50
100
AcDbCircle
 10
56.922484
 20
47.688041
 30
0.0
 40
0.3933495604317587
100
AcDbArc
 50
240.0
 51
0.0
  0
LINE
  5
247
330
1F
100
AcDbEntity
  8
001
370
     9
100
AcDbLine
 10
56.817086
 20
47.294691
 30
0.0
 11
56.928456
 21
47.294691
 31
0.0
  0
ARC
  5
248
330
1F
100
AcDbEntity
  8
001
370
    50
100
AcDbCircle
 10
43.828333
 20
69.793751
 30
0.0
 40
0.4
100
AcDbArc
 50
120.0
 51
240.0
  0
LINE
  5
249
330
1F
100
AcDbEntity
  8
001
370
     9
100
AcDbLine
 10
56.817086
 20
77.754691
 30
0.0
 11
56.734613
 21
77.707076
 31
0.0
  0
LINE
  5
24A
330
1F
100
AcDbEntity
  8
001
370
     9
100
AcDbLine
 10
43.428333
 20
70.024691
 30
0.0
 11
43.628333
 21
70.140161
 31
0.0
  0
LINE
  5
24B
330
1F
100
AcDbEntity
  8
001
370
    50
100
AcDbLine
 10
56.725809
 20
77.701993
 30
0.0
 11
43.628333
 21
70.140161
 31
0.0
  0
LINE
  5
24C
330
1F
100
AcDbEntity
  8
001
370
     9
100
AcDbLine
 10
43.428333
 20
70.024691
 30
0.0
 11
43.428333
 21
69.793751
 31
0.0
  0
ARC
  5
24D
330
1F
100
AcDbEntity
  8
001
370
    50
100
AcDbCircle
 10
56.922484
 20
77.361342
 30
0.0
 40
0.3933495604317587
100
AcDbArc
 50
0.0
 51
120.0
  0
LINE
  5
24E
330
1F
100
AcDbEntity
  8
001
370
     9
100
AcDbLine
 10
56.817086
 20
77.754691
 30
0.0
 11
56.928456
 21
77.754691
 31
0.0
  0
LINE
  5
24F
330
1F
100
AcDbEntity
  8
001
370
    50
100
AcDbLine
 10
57.315833
 20
77.361342
 30
0.0
 11
57.315833
 21
76.924691
 31
0.0
  0
LINE
  5
250
330
1F
100
AcDbEntity
  8
001
370
    50
100
AcDbLine
 10
43.929215
 20
69.273627
 30
0.0
 11
43.628333
 21
69.447341
 31
0.0
  0
ENDSEC
  0
SECTION
  2
OBJECTS
  0
DICTIONARY
  5
C
330
0
100
AcDbDictionary
281
     1
  3
ACAD_GROUP
350
D
  3
ACAD_LAYOUT
350
1A
  3
ACAD_MLEADERSTYLE
350
254
  3
ACAD_MLINESTYLE
350
17
  3
ACAD_PLOTSETTINGS
350
19
  3
ACAD_PLOTSTYLENAME
350
E
  3
ACAD_SCALELIST
350
3B
  3
ACAD_TABLESTYLE
350
253
  3
ACAD_VISUALSTYLE
350
2A
  3
AcDbVariableDictionary
350
251
  0
DICTIONARY
  5
D
102
{ACAD_REACTORS
330
C
102
}
330
C
100
AcDbDictionary
281
     1
  0
DICTIONARY
  5
1A
102
{ACAD_REACTORS
330
C
102
}
330
C
100
AcDbDictionary
281
     1
  3
Layout1
350
1E
  3
Layout2
350
26
  3
Model
350
22
  0
DICTIONARY
  5
254
102
{ACAD_REACTORS
330
C
102
}
330
C
100
AcDbDictionary
281
     1
  0
DICTIONARY
  5
17
102
{ACAD_REACTORS
330
C
102
}
330
C
100
AcDbDictionary
281
     1
  3
Standard
350
18
  0
DICTIONARY
  5
19
102
{ACAD_REACTORS
330
C
102
}
330
C
100
AcDbDictionary
281
     1
  0
ACDBDICTIONARYWDFLT
  5
E
102
{ACAD_REACTORS
330
C
102
}
330
C
100
AcDbDictionary
281
     1
  3
Normal
350
F
100
AcDbDictionaryWithDefault
340
F
  0
DICTIONARY
  5
3B
102
{ACAD_REACTORS
330
C
102
}
330
C
100
AcDbDictionary
281
     1
  3
A0
350
3C
  3
A1
350
3D
  3
A2
350
3E
  3
A3
350
3F
  3
A4
350
40
  3
A5
350
41
  3
A6
350
42
  3
A7
350
43
  3
A8
350
44
  3
A9
350
45
  3
B0
350
46
  3
B1
350
47
  3
B2
350
48
  3
B3
350
49
  3
B4
350
4A
  3
B5
350
4B
  3
B6
350
4C
  3
B7
350
4D
  3
B8
350
4E
  3
B9
350
4F
  3
C0
350
50
  3
C1
350
51
  3
C2
350
52
  3
C3
350
53
  3
C4
350
54
  3
C5
350
55
  3
C6
350
56
  3
C7
350
57
  3
C8
350
58
  3
C9
350
59
  3
D0
350
5A
  3
D1
350
5B
  3
D2
350
5C
  0
DICTIONARY
  5
253
102
{ACAD_REACTORS
330
C
102
}
330
C
100
AcDbDictionary
281
     1
  0
DICTIONARY
  5
2A
102
{ACAD_REACTORS
330
C
102
}
330
C
100
AcDbDictionary
281
     1
  3
2dWireframe
350
2F
  3
3D Hidden
350
31
  3
3dWireframe
350
30
  3
Basic
350
32
  3
Brighten
350
36
  3
ColorChange
350
3A
  3
Conceptual
350
34
  3
Dim
350
35
  3
Facepattern
350
39
  3
Flat
350
2B
  3
FlatWithEdges
350
2C
  3
Gouraud
350
2D
  3
GouraudWithEdges
350
2E
  3
Linepattern
350
38
  3
Realistic
350
33
  3
Thicken
350
37
  0
DICTIONARY
  5
251
102
{ACAD_REACTORS
330
C
102
}
330
C
100
AcDbDictionary
281
     1
  3
CANNOSCALE
350
252
  3
PSOLHEIGHT
350
256
  3
PSOLWIDTH
350
255
  0
LAYOUT
  5
1E
102
{ACAD_REACTORS
330
1A
102
}
330
1A
100
AcDbPlotSettings
  1

  2
none_device
  4

  6

 40
0.0
 41
0.0
 42
0.0
 43
0.0
 44
0.0
 45
0.0
 46
0.0
 47
0.0
 48
0.0
 49
0.0
140
0.0
141
0.0
142
1.0
143
1.0
 70
   688
 72
     0
 73
     0
 74
     5
  7

 75
    16
147
1.0
148
0.0
149
0.0
100
AcDbLayout
  1
Layout1
 70
     1
 71
     1
 10
0.0
 20
0.0
 11
12.0
 21
9.0
 12
0.0
 22
0.0
 32
0.0
 14
1.000000E+20
 24
1.000000E+20
 34
0.0
 15
-1.000000E+20
 25
-1.000000E+20
 35
0.0
146
0.0
 13
0.0
 23
0.0
 33
0.0
 16
1.0
 26
0.0
 36
0.0
 17
0.0
 27
1.0
 37
0.0
 76
     0
330
1B
  0
LAYOUT
  5
26
102
{ACAD_REACTORS
330
1A
102
}
330
1A
100
AcDbPlotSettings
  1

  2
none_device
  4

  6

 40
0.0
 41
0.0
 42
0.0
 43
0.0
 44
0.0
 45
0.0
 46
0.0
 47
0.0
 48
0.0
 49
0.0
140
0.0
141
0.0
142
1.0
143
1.0
 70
   688
 72
     0
 73
     0
 74
     5
  7

 75
    16
147
1.0
148
0.0
149
0.0
100
AcDbLayout
  1
Layout2
 70
     1
 71
     2
 10
0.0
 20
0.0
 11
0.0
 21
0.0
 12
0.0
 22
0.0
 32
0.0
 14
0.0
 24
0.0
 34
0.0
 15
0.0
 25
0.0
 35
0.0
146
0.0
 13
0.0
 23
0.0
 33
0.0
 16
1.0
 26
0.0
 36
0.0
 17
0.0
 27
1.0
 37
0.0
 76
     0
330
23
  0
LAYOUT
  5
22
102
{ACAD_REACTORS
330
1A
102
}
330
1A
100
AcDbPlotSettings
  1

  2
none_device
  4

  6

 40
0.0
 41
0.0
 42
0.0
 43
0.0
 44
0.0
 45
0.0
 46
0.0
 47
0.0
 48
0.0
 49
0.0
140
0.0
141
0.0
142
1.0
143
1.0
 70
  1712
 72
     0
 73
     0
 74
     0
  7

 75
     0
147
1.0
148
0.0
149
0.0
100
AcDbLayout
  1
Model
 70
     1
 71
     0
 10
0.0
 20
0.0
 11
12.0
 21
9.0
 12
0.0
 22
0.0
 32
0.0
 14
11.871521
 24
6.08815
 34
0.0
 15
201.323135
 25
101.553703
 35
0.0
146
0.0
 13
0.0
 23
0.0
 33
0.0
 16
1.0
 26
0.0
 36
0.0
 17
0.0
 27
1.0
 37
0.0
 76
     0
330
1F
331
29
  0
MLINESTYLE
  5
18
102
{ACAD_REACTORS
330
17
102
}
330
17
100
AcDbMlineStyle
  2
Standard
 70
     0
  3

 62
   256
 51
90.0
 52
90.0
 71
     2
 49
0.5
 62
   256
  6
BYLAYER
 49
-0.5
 62
   256
  6
BYLAYER
  0
ACDBPLACEHOLDER
  5
F
102
{ACAD_REACTORS
330
E
102
}
330
E
  0
SCALE
  5
3C
102
{ACAD_REACTORS
330
3B
102
}
330
3B
100
AcDbScale
 70
     0
300
1:1
140
1.0
141
1.0
290
     1
  0
SCALE
  5
3D
102
{ACAD_REACTORS
330
3B
102
}
330
3B
100
AcDbScale
 70
     0
300
1:2
140
1.0
141
2.0
290
     0
  0
SCALE
  5
3E
102
{ACAD_REACTORS
330
3B
102
}
330
3B
100
AcDbScale
 70
     0
300
1:4
140
1.0
141
4.0
290
     0
  0
SCALE
  5
3F
102
{ACAD_REACTORS
330
3B
102
}
330
3B
100
AcDbScale
 70
     0
300
1:5
140
1.0
141
5.0
290
     0
  0
SCALE
  5
40
102
{ACAD_REACTORS
330
3B
102
}
330
3B
100
AcDbScale
 70
     0
300
1:8
140
1.0
141
8.0
290
     0
  0
SCALE
  5
41
102
{ACAD_REACTORS
330
3B
102
}
330
3B
100
AcDbScale
 70
     0
300
1:10
140
1.0
141
10.0
290
     0
  0
SCALE
  5
42
102
{ACAD_REACTORS
330
3B
102
}
330
3B
100
AcDbScale
 70
     0
300
1:16
140
1.0
141
16.0
290
     0
  0
SCALE
  5
43
102
{ACAD_REACTORS
330
3B
102
}
330
3B
100
AcDbScale
 70
     0
300
1:20
140
1.0
141
20.0
290
     0
  0
SCALE
  5
44
102
{ACAD_REACTORS
330
3B
102
}
330
3B
100
AcDbScale
 70
     0
300
1:30
140
1.0
141
30.0
290
     0
  0
SCALE
  5
45
102
{ACAD_REACTORS
330
3B
102
}
330
3B
100
AcDbScale
 70
     0
300
1:40
140
1.0
141
40.0
290
     0
  0
SCALE
  5
46
102
{ACAD_REACTORS
330
3B
102
}
330
3B
100
AcDbScale
 70
     0
300
1:50
140
1.0
141
50.0
290
     0
  0
SCALE
  5
47
102
{ACAD_REACTORS
330
3B
102
}
330
3B
100
AcDbScale
 70
     0
300
1:100
140
1.0
141
100.0
290
     0
  0
SCALE
  5
48
102
{ACAD_REACTORS
330
3B
102
}
330
3B
100
AcDbScale
 70
     0
300
2:1
140
2.0
141
1.0
290
     0
  0
SCALE
  5
49
102
{ACAD_REACTORS
330
3B
102
}
330
3B
100
AcDbScale
 70
     0
300
4:1
140
4.0
141
1.0
290
     0
  0
SCALE
  5
4A
102
{ACAD_REACTORS
330
3B
102
}
330
3B
100
AcDbScale
 70
     0
300
8:1
140
8.0
141
1.0
290
     0
  0
SCALE
  5
4B
102
{ACAD_REACTORS
330
3B
102
}
330
3B
100
AcDbScale
 70
     0
300
10:1
140
10.0
141
1.0
290
     0
  0
SCALE
  5
4C
102
{ACAD_REACTORS
330
3B
102
}
330
3B
100
AcDbScale
 70
     0
300
100:1
140
100.0
141
1.0
290
     0
  0
SCALE
  5
4D
102
{ACAD_REACTORS
330
3B
102
}
330
3B
100
AcDbScale
 70
     0
300
1/128" = 1'-0"
140
0.007812
141
12.0
290
     0
  0
SCALE
  5
4E
102
{ACAD_REACTORS
330
3B
102
}
330
3B
100
AcDbScale
 70
     0
300
1/64" = 1'-0"
140
0.015625
141
12.0
290
     0
  0
SCALE
  5
4F
102
{ACAD_REACTORS
330
3B
102
}
330
3B
100
AcDbScale
 70
     0
300
1/32" = 1'-0"
140
0.03125
141
12.0
290
     0
  0
SCALE
  5
50
102
{ACAD_REACTORS
330
3B
102
}
330
3B
100
AcDbScale
 70
     0
300
1/16" = 1'-0"
140
0.0625
141
12.0
290
     0
  0
SCALE
  5
51
102
{ACAD_REACTORS
330
3B
102
}
330
3B
100
AcDbScale
 70
     0
300
3/32" = 1'-0"
140
0.09375
141
12.0
290
     0
  0
SCALE
  5
52
102
{ACAD_REACTORS
330
3B
102
}
330
3B
100
AcDbScale
 70
     0
300
1/8" = 1'-0"
140
0.125
141
12.0
290
     0
  0
SCALE
  5
53
102
{ACAD_REACTORS
330
3B
102
}
330
3B
100
AcDbScale
 70
     0
300
3/16" = 1'-0"
140
0.1875
141
12.0
290
     0
  0
SCALE
  5
54
102
{ACAD_REACTORS
330
3B
102
}
330
3B
100
AcDbScale
 70
     0
300
1/4" = 1'-0"
140
0.25
141
12.0
290
     0
  0
SCALE
  5
55
102
{ACAD_REACTORS
330
3B
102
}
330
3B
100
AcDbScale
 70
     0
300
3/8" = 1'-0"
140
0.375
141
12.0
290
     0
  0
SCALE
  5
56
102
{ACAD_REACTORS
330
3B
102
}
330
3B
100
AcDbScale
 70
     0
300
1/2" = 1'-0"
140
0.5
141
12.0
290
     0
  0
SCALE
  5
57
102
{ACAD_REACTORS
330
3B
102
}
330
3B
100
AcDbScale
 70
     0
300
3/4" = 1'-0"
140
0.75
141
12.0
290
     0
  0
SCALE
  5
58
102
{ACAD_REACTORS
330
3B
102
}
330
3B
100
AcDbScale
 70
     0
300
1" = 1'-0"
140
1.0
141
12.0
290
     0
  0
SCALE
  5
59
102
{ACAD_REACTORS
330
3B
102
}
330
3B
100
AcDbScale
 70
     0
300
1-1/2" = 1'-0"
140
1.5
141
12.0
290
     0
  0
SCALE
  5
5A
102
{ACAD_REACTORS
330
3B
102
}
330
3B
100
AcDbScale
 70
     0
300
3" = 1'-0"
140
3.0
141
12.0
290
     0
  0
SCALE
  5
5B
102
{ACAD_REACTORS
330
3B
102
}
330
3B
100
AcDbScale
 70
     0
300
6" = 1'-0"
140
6.0
141
12.0
290
     0
  0
SCALE
  5
5C
102
{ACAD_REACTORS
330
3B
102
}
330
3B
100
AcDbScale
 70
     0
300
1'-0" = 1'-0"
140
12.0
141
12.0
290
     0
  0
VISUALSTYLE
  5
2F
102
{ACAD_REACTORS
330
2A
102
}
330
2A
100
AcDbVisualStyle
  2
2dWireframe
 70
     4
 71
     0
 72
     2
 73
     0
 90
        0
 40
-0.6
 41
-30.0
 62
     5
 63
     7
 74
     1
 91
        4
 64
     7
 65
   257
 75
     1
175
     1
 42
1.0
 92
        0
 66
   257
 43
1.0
 76
     1
 77
     6
 78
     2
 67
     7
 79
     5
170
     0
171
     0
290
     0
174
     0
 93
        1
 44
0.0
173
     0
291
     0
 45
0.0
1001
ACAD
1000
AcDbSavedByObjectVersion
1070
     0
  0
VISUALSTYLE
  5
31
102
{ACAD_REACTORS
330
2A
102
}
330
2A
100
AcDbVisualStyle
  2
3D Hidden
 70
     6
 71
     1
 72
     2
 73
     2
 90
        0
 40
-0.6
 41
-30.0
 62
     5
 63
     7
 74
     2
 91
        2
 64
     7
 65
   257
 75
     2
175
     1
 42
40.0
 92
        0
 66
   257
 43
1.0
 76
     1
 77
     6
 78
     2
 67
     7
 79
     3
170
     0
171
     0
290
     0
174
     0
 93
        1
 44
0.0
173
     0
291
     0
 45
0.0
1001
ACAD
1000
AcDbSavedByObjectVersion
1070
     0
  0
VISUALSTYLE
  5
30
102
{ACAD_REACTORS
330
2A
102
}
330
2A
100
AcDbVisualStyle
  2
3dWireframe
 70
     5
 71
     0
 72
     2
 73
     0
 90
        0
 40
-0.6
 41
-30.0
 62
     5
 63
     7
 74
     1
 91
        4
 64
     7
 65
   257
 75
     1
175
     1
 42
1.0
 92
        0
 66
   257
 43
1.0
 76
     1
 77
     6
 78
     2
 67
     7
 79
     5
170
     0
171
     0
290
     0
174
     0
 93
        1
 44
0.0
173
     0
291
     0
 45
0.0
1001
ACAD
1000
AcDbSavedByObjectVersion
1070
     0
  0
VISUALSTYLE
  5
32
102
{ACAD_REACTORS
330
2A
102
}
330
2A
100
AcDbVisualStyle
  2
Basic
 70
     7
 71
     1
 72
     0
 73
     1
 90
        0
 40
-0.6
 41
-30.0
 62
     5
 63
     7
 74
     0
 91
        4
 64
     7
 65
   257
 75
     1
175
     1
 42
1.0
 92
        8
 66
     7
 43
1.0
 76
     1
 77
     6
 78
     2
 67
     7
 79
     5
170
     0
171
     0
290
     0
174
     0
 93
        1
 44
0.0
173
     0
291
     1
 45
0.0
1001
ACAD
1000
AcDbSavedByObjectVersion
1070
     0
  0
VISUALSTYLE
  5
36
102
{ACAD_REACTORS
330
2A
102
}
330
2A
100
AcDbVisualStyle
  2
Brighten
 70
    12
 71
     2
 72
     2
 73
     0
 90
        0
 40
-0.6
 41
-30.0
 62
     5
 63
     7
 74
     1
 91
        4
 64
     7
 65
   257
 75
     1
175
     1
 42
1.0
 92
        8
 66
     7
 43
1.0
 76
     1
 77
     6
 78
     2
 67
     7
 79
     5
170
     0
171
     0
290
     0
174
     0
 93
        1
 44
50.0
173
     0
291
     1
 45
0.0
1001
ACAD
1000
AcDbSavedByObjectVersion
1070
     0
  0
VISUALSTYLE
  5
3A
102
{ACAD_REACTORS
330
2A
102
}
330
2A
100
AcDbVisualStyle
  2
ColorChange
 70
    16
 71
     2
 72
     2
 73
     3
 90
        0
 40
-0.6
 41
-30.0
 62
     5
 63
     8
 74
     1
 91
        4
 64
     7
 65
   257
 75
     1
175
     1
 42
1.0
 92
        8
 66
     8
 43
1.0
 76
     1
 77
     6
 78
     2
 67
     7
 79
     5
170
     0
171
     0
290
     0
174
     0
 93
        1
 44
0.0
173
     0
291
     1
 45
0.0
1001
ACAD
1000
AcDbSavedByObjectVersion
1070
     0
  0
VISUALSTYLE
  5
34
102
{ACAD_REACTORS
330
2A
102
}
330
2A
100
AcDbVisualStyle
  2
Conceptual
 70
     9
 71
     3
 72
     2
 73
     0
 90
        0
 40
-0.6
 41
-30.0
 62
     5
 63
     7
 74
     2
 91
        2
 64
     7
 65
   257
 75
     1
175
     1
 42
40.0
 92
        8
 66
     7
 43
1.0
 76
     1
 77
     6
 78
     2
 67
     7
 79
     3
170
     0
171
     0
290
     0
174
     0
 93
        1
 44
0.0
173
     0
291
     0
 45
0.0
1001
ACAD
1000
AcDbSavedByObjectVersion
1070
     0
  0
VISUALSTYLE
  5
35
102
{ACAD_REACTORS
330
2A
102
}
330
2A
100
AcDbVisualStyle
  2
Dim
 70
    11
 71
     2
 72
     2
 73
     0
 90
        0
 40
-0.6
 41
-30.0
 62
     5
 63
     7
 74
     1
 91
        4
 64
     7
 65
   257
 75
     1
175
     1
 42
1.0
 92
        8
 66
     7
 43
1.0
 76
     1
 77
     6
 78
     2
 67
     7
 79
     5
170
     0
171
     0
290
     0
174
     0
 93
        1
 44
-50.0
173
     0
291
     1
 45
0.0
1001
ACAD
1000
AcDbSavedByObjectVersion
1070
     0
  0
VISUALSTYLE
  5
39
102
{ACAD_REACTORS
330
2A
102
}
330
2A
100
AcDbVisualStyle
  2
Facepattern
 70
    15
 71
     2
 72
     2
 73
     0
 90
        0
 40
-0.6
 41
-30.0
 62
     5
 63
     7
 74
     1
 91
        4
 64
     7
 65
   257
 75
     1
175
     1
 42
1.0
 92
        8
 66
     7
 43
1.0
 76
     1
 77
     6
 78
     2
 67
     7
 79
     5
170
     0
171
     0
290
     0
174
     0
 93
        1
 44
0.0
173
     0
291
     1
 45
0.0
1001
ACAD
1000
AcDbSavedByObjectVersion
1070
     0
  0
VISUALSTYLE
  5
2B
102
{ACAD_REACTORS
330
2A
102
}
330
2A
100
AcDbVisualStyle
  2
Flat
 70
     0
 71
     2
 72
     1
 73
     1
 90
        2
 40
-0.6
 41
30.0
 62
     5
 63
     7
 74
     0
 91
        4
 64
     7
 65
   257
 75
     1
175
     1
 42
1.0
 92
        8
 66
     7
 43
1.0
 76
     1
 77
     6
 78
     2
 67
     7
 79
     5
170
     0
171
     0
290
     0
174
     0
 93
       13
 44
0.0
173
     0
291
     1
 45
0.0
1001
ACAD
1000
AcDbSavedByObjectVersion
1070
     0
  0
VISUALSTYLE
  5
2C
102
{ACAD_REACTORS
330
2A
102
}
330
2A
100
AcDbVisualStyle
  2
FlatWithEdges
 70
     1
 71
     2
 72
     1
 73
     1
 90
        2
 40
-0.6
 41
30.0
 62
     5
 63
     7
 74
     1
 91
        4
 64
     7
 65
   257
 75
     1
175
     1
 42
1.0
 92
        0
 66
   257
 43
1.0
 76
     1
 77
     6
 78
     2
 67
     7
 79
     5
170
     0
171
     0
290
     0
174
     0
 93
       13
 44
0.0
173
     0
291
     1
 45
0.0
1001
ACAD
1000
AcDbSavedByObjectVersion
1070
     0
  0
VISUALSTYLE
  5
2D
102
{ACAD_REACTORS
330
2A
102
}
330
2A
100
AcDbVisualStyle
  2
Gouraud
 70
     2
 71
     2
 72
     2
 73
     1
 90
        2
 40
-0.6
 41
30.0
 62
     5
 63
     7
 74
     0
 91
        4
 64
     7
 65
   257
 75
     1
175
     1
 42
1.0
 92
        0
 66
     7
 43
1.0
 76
     1
 77
     6
 78
     2
 67
     7
 79
     5
170
     0
171
     0
290
     0
174
     0
 93
       13
 44
0.0
173
     0
291
     1
 45
0.0
1001
ACAD
1000
AcDbSavedByObjectVersion
1070
     0
  0
VISUALSTYLE
  5
2E
102
{ACAD_REACTORS
330
2A
102
}
330
2A
100
AcDbVisualStyle
  2
GouraudWithEdges
 70
     3
 71
     2
 72
     2
 73
     1
 90
        2
 40
-0.6
 41
30.0
 62
     5
 63
     7
 74
     1
 91
        4
 64
     7
 65
   257
 75
     1
175
     1
 42
1.0
 92
        0
 66
   257
 43
1.0
 76
     1
 77
     6
 78
     2
 67
     7
 79
     5
170
     0
171
     0
290
     0
174
     0
 93
       13
 44
0.0
173
     0
291
     1
 45
0.0
1001
ACAD
1000
AcDbSavedByObjectVersion
1070
     0
  0
VISUALSTYLE
  5
38
102
{ACAD_REACTORS
330
2A
102
}
330
2A
100
AcDbVisualStyle
  2
Linepattern
 70
    14
 71
     2
 72
     2
 73
     0
 90
        0
 40
-0.6
 41
-30.0
 62
     5
 63
     7
 74
     1
 91
        4
 64
     7
 65
   257
 75
     7
175
     7
 42
1.0
 92
        8
 66
     7
 43
1.0
 76
     1
 77
     6
 78
     2
 67
     7
 79
     5
170
     0
171
     0
290
     0
174
     0
 93
        1
 44
0.0
173
     0
291
     1
 45
0.0
1001
ACAD
1000
AcDbSavedByObjectVersion
1070
     0
  0
VISUALSTYLE
  5
33
102
{ACAD_REACTORS
330
2A
102
}
330
2A
100
AcDbVisualStyle
  2
Realistic
 70
     8
 71
     2
 72
     2
 73
     0
 90
        0
 40
-0.6
 41
-30.0
 62
     5
 63
     7
 74
     1
 91
        0
 64
     7
 65
   257
 75
     1
175
     1
 42
1.0
 92
        8
 66
     8
 43
1.0
 76
     1
 77
     6
 78
     2
 67
     7
 79
     5
170
     0
171
     0
290
     0
174
     0
 93
       13
 44
0.0
173
     0
291
     0
 45
0.0
1001
ACAD
1000
AcDbSavedByObjectVersion
1070
     0
  0
VISUALSTYLE
  5
37
102
{ACAD_REACTORS
330
2A
102
}
330
2A
100
AcDbVisualStyle
  2
Thicken
 70
    13
 71
     2
 72
     2
 73
     0
 90
        0
 40
-0.6
 41
-30.0
 62
     5
 63
     7
 74
     1
 91
        4
 64
     7
 65
   257
 75
     1
175
     1
 42
1.0
 92
       12
 66
     7
 43
1.0
 76
     1
 77
     6
 78
     2
 67
     7
 79
     5
170
     0
171
     0
290
     0
174
     0
 93
        1
 44
0.0
173
     0
291
     1
 45
0.0
1001
ACAD
1000
AcDbSavedByObjectVersion
1070
     0
  0
DICTIONARYVAR
  5
252
102
{ACAD_REACTORS
330
251
102
}
330
251
100
DictionaryVariables
280
     0
  1
1:1
  0
DICTIONARYVAR
  5
256
102
{ACAD_REACTORS
330
251
102
}
330
251
100
DictionaryVariables
280
     0
  1
80.000000
  0
DICTIONARYVAR
  5
255
102
{ACAD_REACTORS
330
251
102
}
330
251
100
DictionaryVariables
280
     0
  1
5.000000
  0
ENDSEC
  0
EOF
