  0
SECTION
  2
HEADER
  9
$ACADVER
  1
AC1015
  9
$ACADMAINTVER
 70
     6
  9
$DWGCODEPAGE
  3
ANSI_932
  9
$INSBASE
 10
0.0
 20
0.0
 30
0.0
  9
$EXTMIN
 10
16.84726
 20
7.422722
 30
0.0
  9
$EXTMAX
 10
194.088684
 20
95.5317
 30
0.0
  9
$LIMMIN
 10
0.0
 20
0.0
  9
$LIMMAX
 10
12.0
 20
9.0
  9
$ORTHOMODE
 70
     0
  9
$REGENMODE
 70
     1
  9
$FILLMODE
 70
     1
  9
$QTEXTMODE
 70
     0
  9
$MIRRTEXT
 70
     1
  9
$LTSCALE
 40
1.979336
  9
$ATTMODE
 70
     1
  9
$TEXTSIZE
 40
3.2
  9
$TRACEWID
 40
1.0
  9
$TEXTSTYLE
  7
Standard
  9
$CLAYER
  8
0
  9
$CELTYPE
  6
ByLayer
  9
$CECOLOR
 62
   256
  9
$CELTSCALE
 40
1.0
  9
$DISPSILH
 70
     0
  9
$DIMSCALE
 40
1.0
  9
$DIMASZ
 40
2.5
  9
$DIMEXO
 40
0.625
  9
$DIMDLI
 40
3.75
  9
$DIMRND
 40
0.0
  9
$DIMDLE
 40
0.0
  9
$DIMEXE
 40
1.25
  9
$DIMTP
 40
0.0
  9
$DIMTM
 40
0.0
  9
$DIMTXT
 40
2.5
  9
$DIMCEN
 40
0.09
  9
$DIMTSZ
 40
0.0
  9
$DIMTOL
 70
     0
  9
$DIMLIM
 70
     0
  9
$DIMTIH
 70
     0
  9
$DIMTOH
 70
     0
  9
$DIMSE1
 70
     0
  9
$DIMSE2
 70
     0
  9
$DIMTAD
 70
     0
  9
$DIMZIN
 70
     8
  9
$DIMBLK
  1

  9
$DIMASO
 70
     1
  9
$DIMSHO
 70
     0
  9
$DIMPOST
  1

  9
$DIMAPOST
  1

  9
$DIMALT
 70
     0
  9
$DIMALTD
 70
     3
  9
$DIMALTF
 40
0.03937
  9
$DIMLFAC
 40
1.0
  9
$DIMTOFL
 70
     1
  9
$DIMTVP
 40
0.0
  9
$DIMTIX
 70
     0
  9
$DIMSOXD
 70
     0
  9
$DIMSAH
 70
     0
  9
$DIMBLK1
  1

  9
$DIMBLK2
  1

  9
$DIMSTYLE
  2
ISO-25
  9
$DIMCLRD
 70
     0
  9
$DIMCLRE
 70
     0
  9
$DIMCLRT
 70
     0
  9
$DIMTFAC
 40
1.0
  9
$DIMGAP
 40
0.625
  9
$DIMJUST
 70
     0
  9
$DIMSD1
 70
     0
  9
$DIMSD2
 70
     0
  9
$DIMTOLJ
 70
     0
  9
$DIMTZIN
 70
     8
  9
$DIMALTZ
 70
     0
  9
$DIMALTTZ
 70
     0
  9
$DIMUPT
 70
     0
  9
$DIMDEC
 70
     2
  9
$DIMTDEC
 70
     2
  9
$DIMALTU
 70
     2
  9
$DIMALTTD
 70
     3
  9
$DIMTXSTY
  7
Standard
  9
$DIMAUNIT
 70
     0
  9
$DIMADEC
 70
     0
  9
$DIMALTRND
 40
0.0
  9
$DIMAZIN
 70
     0
  9
$DIMDSEP
 70
    44
  9
$DIMATFIT
 70
     3
  9
$DIMFRAC
 70
     0
  9
$DIMLDRBLK
  1

  9
$DIMLUNIT
 70
     2
  9
$DIMLWD
 70
    -2
  9
$DIMLWE
 70
    -2
  9
$DIMTMOVE
 70
     0
  9
$LUNITS
 70
     2
  9
$LUPREC
 70
     4
  9
$SKETCHINC
 40
1.0
  9
$FILLETRAD
 40
0.0
  9
$AUNITS
 70
     0
  9
$AUPREC
 70
     0
  9
$MENU
  1
.
  9
$ELEVATION
 40
0.0
  9
$PELEVATION
 40
0.0
  9
$THICKNESS
 40
0.0
  9
$LIMCHECK
 70
     0
  9
$CHAMFERA
 40
10.0
  9
$CHAMFERB
 40
10.0
  9
$CHAMFERC
 40
20.0
  9
$CHAMFERD
 40
0.0
  9
$SKPOLY
 70
     0
  9
$TDCREATE
 40
2456244.610093495
  9
$TDUCREATE
 40
2456244.235093495
  9
$TDUPDATE
 40
2456244.610093507
  9
$TDUUPDATE
 40
2456244.235093507
  9
$TDINDWG
 40
0.0000000116
  9
$TDUSRTIMER
 40
0.0000000116
  9
$USRTIMER
 70
     1
  9
$ANGBASE
 50
0.0
  9
$ANGDIR
 70
     0
  9
$PDMODE
 70
     0
  9
$PDSIZE
 40
0.0
  9
$PLINEWID
 40
0.0
  9
$SPLFRAME
 70
     0
  9
$SPLINETYPE
 70
     6
  9
$SPLINESEGS
 70
     8
  9
$HANDSEED
  5
4E7
  9
$SURFTAB1
 70
     6
  9
$SURFTAB2
 70
     6
  9
$SURFTYPE
 70
     6
  9
$SURFU
 70
     6
  9
$SURFV
 70
     6
  9
$UCSBASE
  2

  9
$UCSNAME
  2

  9
$UCSORG
 10
0.0
 20
0.0
 30
0.0
  9
$UCSXDIR
 10
1.0
 20
0.0
 30
0.0
  9
$UCSYDIR
 10
0.0
 20
1.0
 30
0.0
  9
$UCSORTHOREF
  2

  9
$UCSORTHOVIEW
 70
     0
  9
$UCSORGTOP
 10
0.0
 20
0.0
 30
0.0
  9
$UCSORGBOTTOM
 10
0.0
 20
0.0
 30
0.0
  9
$UCSORGLEFT
 10
0.0
 20
0.0
 30
0.0
  9
$UCSORGRIGHT
 10
0.0
 20
0.0
 30
0.0
  9
$UCSORGFRONT
 10
0.0
 20
0.0
 30
0.0
  9
$UCSORGBACK
 10
0.0
 20
0.0
 30
0.0
  9
$PUCSBASE
  2

  9
$PUCSNAME
  2

  9
$PUCSORG
 10
0.0
 20
0.0
 30
0.0
  9
$PUCSXDIR
 10
1.0
 20
0.0
 30
0.0
  9
$PUCSYDIR
 10
0.0
 20
1.0
 30
0.0
  9
$PUCSORTHOREF
  2

  9
$PUCSORTHOVIEW
 70
     0
  9
$PUCSORGTOP
 10
0.0
 20
0.0
 30
0.0
  9
$PUCSORGBOTTOM
 10
0.0
 20
0.0
 30
0.0
  9
$PUCSORGLEFT
 10
0.0
 20
0.0
 30
0.0
  9
$PUCSORGRIGHT
 10
0.0
 20
0.0
 30
0.0
  9
$PUCSORGFRONT
 10
0.0
 20
0.0
 30
0.0
  9
$PUCSORGBACK
 10
0.0
 20
0.0
 30
0.0
  9
$USERI1
 70
     0
  9
$USERI2
 70
     0
  9
$USERI3
 70
     0
  9
$USERI4
 70
     0
  9
$USERI5
 70
     0
  9
$USERR1
 40
0.0
  9
$USERR2
 40
0.0
  9
$USERR3
 40
0.0
  9
$USERR4
 40
0.0
  9
$USERR5
 40
0.0
  9
$WORLDVIEW
 70
     1
  9
$SHADEDGE
 70
     3
  9
$SHADEDIF
 70
    70
  9
$TILEMODE
 70
     1
  9
$MAXACTVP
 70
    64
  9
$PINSBASE
 10
0.0
 20
0.0
 30
0.0
  9
$PLIMCHECK
 70
     0
  9
$PEXTMIN
 10
1.000000E+20
 20
1.000000E+20
 30
0.0
  9
$PEXTMAX
 10
-1.000000E+20
 20
-1.000000E+20
 30
0.0
  9
$PLIMMIN
 10
0.0
 20
0.0
  9
$PLIMMAX
 10
12.0
 20
9.0
  9
$UNITMODE
 70
     0
  9
$VISRETAIN
 70
     1
  9
$PLINEGEN
 70
     0
  9
$PSLTSCALE
 70
     1
  9
$TREEDEPTH
 70
  3020
  9
$CMLSTYLE
  2
Standard
  9
$CMLJUST
 70
     0
  9
$CMLSCALE
 40
20.0
  9
$PROXYGRAPHICS
 70
     1
  9
$MEASUREMENT
 70
     1
  9
$CELWEIGHT
370
    -1
  9
$ENDCAPS
280
     0
  9
$JOINSTYLE
280
     0
  9
$LWDISPLAY
290
     0
  9
$INSUNITS
 70
     4
  9
$HYPERLINKBASE
  1

  9
$STYLESHEET
  1

  9
$XEDIT
290
     1
  9
$CEPSNTYPE
380
     0
  9
$PSTYLEMODE
290
     1
  9
$FINGERPRINTGUID
  2
{9C511A9D-02B6-4164-B011-649B581B96EC}
  9
$VERSIONGUID
  2
{FAEB1C32-E019-11D5-929B-00C0DF256EC4}
  9
$EXTNAMES
290
     1
  9
$PSVPSCALE
 40
0.0
  9
$OLESTARTUP
290
     0
  0
ENDSEC
  0
SECTION
  2
CLASSES
  0
CLASS
  1
ACDBDICTIONARYWDFLT
  2
AcDbDictionaryWithDefault
  3
ObjectDBX Classes
 90
        0
280
     0
281
     0
  0
CLASS
  1
VISUALSTYLE
  2
AcDbVisualStyle
  3
ObjectDBX Classes
 90
     4095
280
     0
281
     0
  0
CLASS
  1
SCALE
  2
AcDbScale
  3
ObjectDBX Classes
 90
     1153
280
     0
281
     0
  0
CLASS
  1
DICTIONARYVAR
  2
AcDbDictionaryVar
  3
ObjectDBX Classes
 90
        0
280
     0
281
     0
  0
CLASS
  1
ACDBPLACEHOLDER
  2
AcDbPlaceHolder
  3
ObjectDBX Classes
 90
        0
280
     0
281
     0
  0
CLASS
  1
LAYOUT
  2
AcDbLayout
  3
ObjectDBX Classes
 90
        0
280
     0
281
     0
  0
ENDSEC
  0
SECTION
  2
TABLES
  0
TABLE
  2
VPORT
  5
8
330
0
100
AcDbSymbolTable
 70
     1
  0
VPORT
  5
29
330
8
100
AcDbSymbolTableRecord
100
AcDbViewportTableRecord
  2
*Active
 70
     0
 10
0.0
 20
0.0
 11
1.0
 21
1.0
 12
105.467972
 22
51.477211
 13
0.0
 23
0.0
 14
1.0
 24
1.0
 15
0.0
 25
0.0
 16
0.0
 26
0.0
 36
1.0
 17
0.0
 27
0.0
 37
0.0
 40
105.844681
 41
1.691288
 42
50.0
 43
0.0
 44
0.0
 50
0.0
 51
0.0
 71
     0
 72
   100
 73
     1
 74
     3
 75
     0
 76
     0
 77
     0
 78
     0
281
     0
 65
     1
110
0.0
120
0.0
130
0.0
111
1.0
121
0.0
131
0.0
112
0.0
122
1.0
132
0.0
 79
     0
146
0.0
  0
ENDTAB
  0
TABLE
  2
LTYPE
  5
5
330
0
100
AcDbSymbolTable
 70
     5
  0
LTYPE
  5
14
330
5
100
AcDbSymbolTableRecord
100
AcDbLinetypeTableRecord
  2
ByBlock
 70
     0
  3

 72
    65
 73
     0
 40
0.0
  0
LTYPE
  5
15
330
5
100
AcDbSymbolTableRecord
100
AcDbLinetypeTableRecord
  2
ByLayer
 70
     0
  3

 72
    65
 73
     0
 40
0.0
  0
LTYPE
  5
16
330
5
100
AcDbSymbolTableRecord
100
AcDbLinetypeTableRecord
  2
Continuous
 70
     0
  3
Solid line
 72
    65
 73
     0
 40
0.0
  0
LTYPE
  5
5D
330
5
100
AcDbSymbolTableRecord
100
AcDbLinetypeTableRecord
  2
DASHED
 70
     0
  3
DASHED
 72
    83
 73
     2
 40
0.75
 49
0.5
 74
     0
 49
-0.25
 74
     0
  0
LTYPE
  5
5E
330
5
100
AcDbSymbolTableRecord
100
AcDbLinetypeTableRecord
  2
HIDDEN
 70
     0
  3
HIDDEN
 72
    83
 73
     2
 40
0.375
 49
0.25
 74
     0
 49
-0.125
 74
     0
  0
LTYPE
  5
5F
330
5
100
AcDbSymbolTableRecord
100
AcDbLinetypeTableRecord
  2
CENTER
 70
     0
  3
CENTER
 72
    83
 73
     4
 40
2.0
 49
1.25
 74
     0
 49
-0.25
 74
     0
 49
0.25
 74
     0
 49
-0.25
 74
     0
  0
LTYPE
  5
60
330
5
100
AcDbSymbolTableRecord
100
AcDbLinetypeTableRecord
  2
PHANTOM
 70
     0
  3
PHANTOM
 72
    83
 73
     6
 40
2.5
 49
1.25
 74
     0
 49
-0.25
 74
     0
 49
0.25
 74
     0
 49
-0.25
 74
     0
 49
0.25
 74
     0
 49
-0.25
 74
     0
  0
ENDTAB
  0
TABLE
  2
LAYER
  5
2
330
0
100
AcDbSymbolTable
 70
     2
  0
LAYER
  5
10
330
2
100
AcDbSymbolTableRecord
100
AcDbLayerTableRecord
  2
0
 70
     0
 62
     7
  6
Continuous
370
    -3
390
F
  0
LAYER
  5
61
330
2
100
AcDbSymbolTableRecord
100
AcDbLayerTableRecord
  2
001
 70
     0
 62
     7
  6
Continuous
370
    -3
390
F
  0
ENDTAB
  0
TABLE
  2
STYLE
  5
3
330
0
100
AcDbSymbolTable
 70
     2
  0
STYLE
  5
11
330
3
100
AcDbSymbolTableRecord
100
AcDbTextStyleTableRecord
  2
Standard
 70
     0
 40
0.0
 41
1.0
 50
0.0
 71
     0
 42
0.2
  3
TXT
  4
BIGFONT
  0
STYLE
  5
62
330
3
100
AcDbSymbolTableRecord
100
AcDbTextStyleTableRecord
  2
TATEGAKI
 70
     4
 40
1.0
 41
1.0
 50
0.0
 71
     0
 42
0.2
  3
TXT
  4
BIGFONT
  0
ENDTAB
  0
TABLE
  2
VIEW
  5
6
330
0
100
AcDbSymbolTable
 70
     0
  0
ENDTAB
  0
TABLE
  2
UCS
  5
7
330
0
100
AcDbSymbolTable
 70
     0
  0
ENDTAB
  0
TABLE
  2
APPID
  5
9
330
0
100
AcDbSymbolTable
 70
     1
  0
APPID
  5
12
330
9
100
AcDbSymbolTableRecord
100
AcDbRegAppTableRecord
  2
ACAD
 70
     0
  0
ENDTAB
  0
TABLE
  2
DIMSTYLE
  5
A
330
0
100
AcDbSymbolTable
 70
     2
100
AcDbDimStyleTable
  0
DIMSTYLE
105
27
330
A
100
AcDbSymbolTableRecord
100
AcDbDimStyleTableRecord
  2
ISO-25
 70
     0
 41
2.5
 42
0.625
 43
3.75
 44
1.25
 73
     0
 74
     0
 77
     1
 78
     8
140
2.5
141
2.5
143
0.03937
147
0.625
171
     3
172
     1
271
     2
272
     2
274
     3
278
    44
283
     0
284
     8
340
11
  0
DIMSTYLE
105
63
102
{ACAD_REACTORS
330
442
330
443
330
444
330
445
330
446
330
447
102
}
330
A
100
AcDbSymbolTableRecord
100
AcDbDimStyleTableRecord
  2
Standard
 70
     0
 41
1.5
 42
0.0
 44
2.75
 73
     0
 74
     0
 77
     1
 78
     8
 79
     2
140
4.0
146
0.8
147
1.0
172
     1
179
     1
271
     1
340
11
  0
ENDTAB
  0
TABLE
  2
BLOCK_RECORD
  5
1
330
0
100
AcDbSymbolTable
 70
     9
  0
BLOCK_RECORD
  5
1F
330
1
100
AcDbSymbolTableRecord
100
AcDbBlockTableRecord
  2
*Model_Space
340
22
  0
BLOCK_RECORD
  5
1B
330
1
100
AcDbSymbolTableRecord
100
AcDbBlockTableRecord
  2
*Paper_Space
340
1E
  0
BLOCK_RECORD
  5
23
330
1
100
AcDbSymbolTableRecord
100
AcDbBlockTableRecord
  2
*Paper_Space0
340
26
  0
BLOCK_RECORD
  5
64
330
1
100
AcDbSymbolTableRecord
100
AcDbBlockTableRecord
  2
M-1-1
340
0
102
{BLKREFS
331
440
102
}
  0
BLOCK_RECORD
  5
24E
330
1
100
AcDbSymbolTableRecord
100
AcDbBlockTableRecord
  2
C32GUX-2
340
0
102
{BLKREFS
331
441
102
}
  0
BLOCK_RECORD
  5
3C2
330
1
100
AcDbSymbolTableRecord
100
AcDbBlockTableRecord
  2
*D3
340
0
  0
BLOCK_RECORD
  5
3D6
330
1
100
AcDbSymbolTableRecord
100
AcDbBlockTableRecord
  2
*D4
340
0
  0
BLOCK_RECORD
  5
3EC
330
1
100
AcDbSymbolTableRecord
100
AcDbBlockTableRecord
  2
*D5
340
0
  0
BLOCK_RECORD
  5
403
330
1
100
AcDbSymbolTableRecord
100
AcDbBlockTableRecord
  2
*D6
340
0
  0
BLOCK_RECORD
  5
417
330
1
100
AcDbSymbolTableRecord
100
AcDbBlockTableRecord
  2
*D7
340
0
  0
BLOCK_RECORD
  5
42B
330
1
100
AcDbSymbolTableRecord
100
AcDbBlockTableRecord
  2
*D8
340
0
  0
ENDTAB
  0
ENDSEC
  0
SECTION
  2
BLOCKS
  0
BLOCK
  5
20
330
1F
100
AcDbEntity
  8
0
100
AcDbBlockBegin
  2
*Model_Space
 70
     0
 10
0.0
 20
0.0
 30
0.0
  3
*Model_Space
  1

  0
ENDBLK
  5
21
330
1F
100
AcDbEntity
  8
0
100
AcDbBlockEnd
  0
BLOCK
  5
1C
330
1B
100
AcDbEntity
 67
     1
  8
0
100
AcDbBlockBegin
  2
*Paper_Space
 70
     0
 10
0.0
 20
0.0
 30
0.0
  3
*Paper_Space
  1

  0
ENDBLK
  5
1D
330
1B
100
AcDbEntity
 67
     1
  8
0
100
AcDbBlockEnd
  0
BLOCK
  5
24
330
23
100
AcDbEntity
  8
0
100
AcDbBlockBegin
  2
*Paper_Space0
 70
     0
 10
0.0
 20
0.0
 30
0.0
  3
*Paper_Space0
  1

  0
ENDBLK
  5
25
330
23
100
AcDbEntity
  8
0
100
AcDbBlockEnd
  0
BLOCK
  5
65
330
64
100
AcDbEntity
  8
0
100
AcDbBlockBegin
  2
M-1-1
 70
     0
 10
0.0
 20
0.0
 30
0.0
  3
M-1-1
  1

  0
POLYLINE
  5
67
330
64
100
AcDbEntity
  8
001
 62
     5
370
    50
100
AcDb2dPolyline
 66
     1
 10
0.0
 20
0.0
 30
0.0
  0
VERTEX
  5
69
330
67
100
AcDbEntity
  8
001
 62
     5
370
    50
100
AcDbVertex
100
AcDb2dVertex
 10
49.888934
 20
55.127119
 30
0.0
  0
VERTEX
  5
6A
330
67
100
AcDbEntity
  8
001
 62
     5
370
    50
100
AcDbVertex
100
AcDb2dVertex
 10
49.880779
 20
55.125281
 30
0.0
  0
VERTEX
  5
6B
330
67
100
AcDbEntity
  8
001
 62
     5
370
    50
100
AcDbVertex
100
AcDb2dVertex
 10
49.872628
 20
55.123423
 30
0.0
  0
VERTEX
  5
6C
330
67
100
AcDbEntity
  8
001
 62
     5
370
    50
100
AcDbVertex
100
AcDb2dVertex
 10
49.794226
 20
55.103461
 30
0.0
  0
VERTEX
  5
6D
330
67
100
AcDbEntity
  8
001
 62
     5
370
    50
100
AcDbVertex
100
AcDb2dVertex
 10
49.716789
 20
55.079968
 30
0.0
  0
VERTEX
  5
6E
330
67
100
AcDbEntity
  8
001
 62
     5
370
    50
100
AcDbVertex
100
AcDb2dVertex
 10
49.640225
 20
55.053011
 30
0.0
  0
VERTEX
  5
6F
330
67
100
AcDbEntity
  8
001
 62
     5
370
    50
100
AcDbVertex
100
AcDb2dVertex
 10
49.564923
 20
55.022723
 30
0.0
  0
VERTEX
  5
70
330
67
100
AcDbEntity
  8
001
 62
     5
370
    50
100
AcDbVertex
100
AcDb2dVertex
 10
49.490731
 20
54.989015
 30
0.0
  0
VERTEX
  5
71
330
67
100
AcDbEntity
  8
001
 62
     5
370
    50
100
AcDbVertex
100
AcDb2dVertex
 10
49.418085
 20
54.952087
 30
0.0
  0
VERTEX
  5
72
330
67
100
AcDbEntity
  8
001
 62
     5
370
    50
100
AcDbVertex
100
AcDb2dVertex
 10
49.346786
 20
54.911844
 30
0.0
  0
VERTEX
  5
73
330
67
100
AcDbEntity
  8
001
 62
     5
370
    50
100
AcDbVertex
100
AcDb2dVertex
 10
49.277299
 20
54.868549
 30
0.0
  0
VERTEX
  5
74
330
67
100
AcDbEntity
  8
001
 62
     5
370
    50
100
AcDbVertex
100
AcDb2dVertex
 10
49.209395
 20
54.822054
 30
0.0
  0
VERTEX
  5
75
330
67
100
AcDbEntity
  8
001
 62
     5
370
    50
100
AcDbVertex
100
AcDb2dVertex
 10
49.143551
 20
54.772685
 30
0.0
  0
VERTEX
  5
76
330
67
100
AcDbEntity
  8
001
 62
     5
370
    50
100
AcDbVertex
100
AcDb2dVertex
 10
49.079522
 20
54.720259
 30
0.0
  0
VERTEX
  5
77
330
67
100
AcDbEntity
  8
001
 62
     5
370
    50
100
AcDbVertex
100
AcDb2dVertex
 10
49.01778
 20
54.66516
 30
0.0
  0
VERTEX
  5
78
330
67
100
AcDbEntity
  8
001
 62
     5
370
    50
100
AcDbVertex
100
AcDb2dVertex
 10
48.958081
 20
54.607169
 30
0.0
  0
VERTEX
  5
79
330
67
100
AcDbEntity
  8
001
 62
     5
370
    50
100
AcDbVertex
100
AcDb2dVertex
 10
48.900873
 20
54.54672
 30
0.0
  0
VERTEX
  5
7A
330
67
100
AcDbEntity
  8
001
 62
     5
370
    50
100
AcDbVertex
100
AcDb2dVertex
 10
48.84593
 20
54.48357
 30
0.0
  0
VERTEX
  5
7B
330
67
100
AcDbEntity
  8
001
 62
     5
370
    50
100
AcDbVertex
100
AcDb2dVertex
 10
48.793661
 20
54.418189
 30
0.0
  0
VERTEX
  5
7C
330
67
100
AcDbEntity
  8
001
 62
     5
370
    50
100
AcDbVertex
100
AcDb2dVertex
 10
48.743864
 20
54.350324
 30
0.0
  0
VERTEX
  5
7D
330
67
100
AcDbEntity
  8
001
 62
     5
370
    50
100
AcDbVertex
100
AcDb2dVertex
 10
48.696903
 20
54.280467
 30
0.0
  0
VERTEX
  5
7E
330
67
100
AcDbEntity
  8
001
 62
     5
370
    50
100
AcDbVertex
100
AcDb2dVertex
 10
48.65261
 20
54.208366
 30
0.0
  0
VERTEX
  5
7F
330
67
100
AcDbEntity
  8
001
 62
     5
370
    50
100
AcDbVertex
100
AcDb2dVertex
 10
48.611292
 20
54.134519
 30
0.0
  0
VERTEX
  5
80
330
67
100
AcDbEntity
  8
001
 62
     5
370
    50
100
AcDbVertex
100
AcDb2dVertex
 10
48.572818
 20
54.058692
 30
0.0
  0
VERTEX
  5
81
330
67
100
AcDbEntity
  8
001
 62
     5
370
    50
100
AcDbVertex
100
AcDb2dVertex
 10
48.537439
 20
53.981372
 30
0.0
  0
VERTEX
  5
82
330
67
100
AcDbEntity
  8
001
 62
     5
370
    50
100
AcDbVertex
100
AcDb2dVertex
 10
48.50506
 20
53.902355
 30
0.0
  0
VERTEX
  5
83
330
67
100
AcDbEntity
  8
001
 62
     5
370
    50
100
AcDbVertex
100
AcDb2dVertex
 10
48.475873
 20
53.822105
 30
0.0
  0
VERTEX
  5
84
330
67
100
AcDbEntity
  8
001
 62
     5
370
    50
100
AcDbVertex
100
AcDb2dVertex
 10
48.449821
 20
53.740459
 30
0.0
  0
VERTEX
  5
85
330
67
100
AcDbEntity
  8
001
 62
     5
370
    50
100
AcDbVertex
100
AcDb2dVertex
 10
48.427039
 20
53.65784
 30
0.0
  0
VERTEX
  5
86
330
67
100
AcDbEntity
  8
001
 62
     5
370
    50
100
AcDbVertex
100
AcDb2dVertex
 10
48.407498
 20
53.574144
 30
0.0
  0
VERTEX
  5
87
330
67
100
AcDbEntity
  8
001
 62
     5
370
    50
100
AcDbVertex
100
AcDb2dVertex
 10
48.391287
 20
53.489739
 30
0.0
  0
VERTEX
  5
88
330
67
100
AcDbEntity
  8
001
 62
     5
370
    50
100
AcDbVertex
100
AcDb2dVertex
 10
48.378398
 20
53.404586
 30
0.0
  0
VERTEX
  5
89
330
67
100
AcDbEntity
  8
001
 62
     5
370
    50
100
AcDbVertex
100
AcDb2dVertex
 10
48.368879
 20
53.31899
 30
0.0
  0
VERTEX
  5
8A
330
67
100
AcDbEntity
  8
001
 62
     5
370
    50
100
AcDbVertex
100
AcDb2dVertex
 10
48.362733
 20
53.232983
 30
0.0
  0
VERTEX
  5
8B
330
67
100
AcDbEntity
  8
001
 62
     5
370
    50
100
AcDbVertex
100
AcDb2dVertex
 10
48.359979
 20
53.1468
 30
0.0
  0
VERTEX
  5
8C
330
67
100
AcDbEntity
  8
001
 62
     5
370
    50
100
AcDbVertex
100
AcDb2dVertex
 10
48.360622
 20
53.060548
 30
0.0
  0
VERTEX
  5
8D
330
67
100
AcDbEntity
  8
001
 62
     5
370
    50
100
AcDbVertex
100
AcDb2dVertex
 10
48.36466
 20
52.974388
 30
0.0
  0
VERTEX
  5
8E
330
67
100
AcDbEntity
  8
001
 62
     5
370
    50
100
AcDbVertex
100
AcDb2dVertex
 10
48.372086
 20
52.888503
 30
0.0
  0
VERTEX
  5
8F
330
67
100
AcDbEntity
  8
001
 62
     5
370
    50
100
AcDbVertex
100
AcDb2dVertex
 10
48.382894
 20
52.802977
 30
0.0
  0
VERTEX
  5
90
330
67
100
AcDbEntity
  8
001
 62
     5
370
    50
100
AcDbVertex
100
AcDb2dVertex
 10
48.397052
 20
52.718068
 30
0.0
  0
VERTEX
  5
91
330
67
100
AcDbEntity
  8
001
 62
     5
370
    50
100
AcDbVertex
100
AcDb2dVertex
 10
48.414559
 20
52.633786
 30
0.0
  0
VERTEX
  5
92
330
67
100
AcDbEntity
  8
001
 62
     5
370
    50
100
AcDbVertex
100
AcDb2dVertex
 10
48.43535
 20
52.550455
 30
0.0
  0
VERTEX
  5
93
330
67
100
AcDbEntity
  8
001
 62
     5
370
    50
100
AcDbVertex
100
AcDb2dVertex
 10
48.459438
 20
52.468016
 30
0.0
  0
VERTEX
  5
94
330
67
100
AcDbEntity
  8
001
 62
     5
370
    50
100
AcDbVertex
100
AcDb2dVertex
 10
48.486714
 20
52.386852
 30
0.0
  0
VERTEX
  5
95
330
67
100
AcDbEntity
  8
001
 62
     5
370
    50
100
AcDbVertex
100
AcDb2dVertex
 10
48.517218
 20
52.306846
 30
0.0
  0
VERTEX
  5
96
330
67
100
AcDbEntity
  8
001
 62
     5
370
    50
100
AcDbVertex
100
AcDb2dVertex
 10
48.550787
 20
52.228425
 30
0.0
  0
VERTEX
  5
97
330
67
100
AcDbEntity
  8
001
 62
     5
370
    50
100
AcDbVertex
100
AcDb2dVertex
 10
48.587493
 20
52.151423
 30
0.0
  0
VERTEX
  5
98
330
67
100
AcDbEntity
  8
001
 62
     5
370
    50
100
AcDbVertex
100
AcDb2dVertex
 10
48.627118
 20
52.076302
 30
0.0
  0
VERTEX
  5
99
330
67
100
AcDbEntity
  8
001
 62
     5
370
    50
100
AcDbVertex
100
AcDb2dVertex
 10
48.669769
 20
52.002858
 30
0.0
  0
VERTEX
  5
9A
330
67
100
AcDbEntity
  8
001
 62
     5
370
    50
100
AcDbVertex
100
AcDb2dVertex
 10
48.715167
 20
51.931569
 30
0.0
  0
VERTEX
  5
9B
330
67
100
AcDbEntity
  8
001
 62
     5
370
    50
100
AcDbVertex
100
AcDb2dVertex
 10
48.76346
 20
51.862209
 30
0.0
  0
VERTEX
  5
9C
330
67
100
AcDbEntity
  8
001
 62
     5
370
    50
100
AcDbVertex
100
AcDb2dVertex
 10
48.81431
 20
51.79526
 30
0.0
  0
VERTEX
  5
9D
330
67
100
AcDbEntity
  8
001
 62
     5
370
    50
100
AcDbVertex
100
AcDb2dVertex
 10
48.8679
 20
51.730482
 30
0.0
  0
VERTEX
  5
9E
330
67
100
AcDbEntity
  8
001
 62
     5
370
    50
100
AcDbVertex
100
AcDb2dVertex
 10
48.923839
 20
51.668347
 30
0.0
  0
VERTEX
  5
9F
330
67
100
AcDbEntity
  8
001
 62
     5
370
    50
100
AcDbVertex
100
AcDb2dVertex
 10
48.98234
 20
51.608617
 30
0.0
  0
VERTEX
  5
A0
330
67
100
AcDbEntity
  8
001
 62
     5
370
    50
100
AcDbVertex
100
AcDb2dVertex
 10
49.04297
 20
51.551736
 30
0.0
  0
VERTEX
  5
A1
330
67
100
AcDbEntity
  8
001
 62
     5
370
    50
100
AcDbVertex
100
AcDb2dVertex
 10
49.105961
 20
51.497483
 30
0.0
  0
VERTEX
  5
A2
330
67
100
AcDbEntity
  8
001
 62
     5
370
    50
100
AcDbVertex
100
AcDb2dVertex
 10
49.170848
 20
51.446257
 30
0.0
  0
VERTEX
  5
A3
330
67
100
AcDbEntity
  8
001
 62
     5
370
    50
100
AcDbVertex
100
AcDb2dVertex
 10
49.237874
 20
51.397866
 30
0.0
  0
VERTEX
  5
A4
330
67
100
AcDbEntity
  8
001
 62
     5
370
    50
100
AcDbVertex
100
AcDb2dVertex
 10
49.306554
 20
51.352661
 30
0.0
  0
VERTEX
  5
A5
330
67
100
AcDbEntity
  8
001
 62
     5
370
    50
100
AcDbVertex
100
AcDb2dVertex
 10
49.37713
 20
51.310472
 30
0.0
  0
VERTEX
  5
A6
330
67
100
AcDbEntity
  8
001
 62
     5
370
    50
100
AcDbVertex
100
AcDb2dVertex
 10
49.449112
 20
51.271589
 30
0.0
  0
VERTEX
  5
A7
330
67
100
AcDbEntity
  8
001
 62
     5
370
    50
100
AcDbVertex
100
AcDb2dVertex
 10
49.522729
 20
51.235911
 30
0.0
  0
VERTEX
  5
A8
330
67
100
AcDbEntity
  8
001
 62
     5
370
    50
100
AcDbVertex
100
AcDb2dVertex
 10
49.59751
 20
51.203673
 30
0.0
  0
VERTEX
  5
A9
330
67
100
AcDbEntity
  8
001
 62
     5
370
    50
100
AcDbVertex
100
AcDb2dVertex
 10
49.67363
 20
51.174699
 30
0.0
  0
VERTEX
  5
AA
330
67
100
AcDbEntity
  8
001
 62
     5
370
    50
100
AcDbVertex
100
AcDb2dVertex
 10
49.750644
 20
51.14913
 30
0.0
  0
VERTEX
  5
AB
330
67
100
AcDbEntity
  8
001
 62
     5
370
    50
100
AcDbVertex
100
AcDb2dVertex
 10
49.828755
 20
51.127254
 30
0.0
  0
VERTEX
  5
AC
330
67
100
AcDbEntity
  8
001
 62
     5
370
    50
100
AcDbVertex
100
AcDb2dVertex
 10
49.870308
 20
51.11727
 30
0.0
  0
VERTEX
  5
AD
330
67
100
AcDbEntity
  8
001
 62
     5
370
    50
100
AcDbVertex
100
AcDb2dVertex
 10
49.912002
 20
51.107867
 30
0.0
  0
SEQEND
  5
68
330
67
100
AcDbEntity
  8
001
370
    50
  0
POLYLINE
  5
AE
330
64
100
AcDbEntity
  8
001
 62
     5
370
    50
100
AcDb2dPolyline
 66
     1
 10
0.0
 20
0.0
 30
0.0
  0
VERTEX
  5
B0
330
AE
100
AcDbEntity
  8
001
 62
     5
370
    50
100
AcDbVertex
100
AcDb2dVertex
 10
50.279489
 20
51.069973
 30
0.0
  0
VERTEX
  5
B1
330
AE
100
AcDbEntity
  8
001
 62
     5
370
    50
100
AcDbVertex
100
AcDb2dVertex
 10
50.4147
 20
51.07587
 30
0.0
  0
VERTEX
  5
B2
330
AE
100
AcDbEntity
  8
001
 62
     5
370
    50
100
AcDbVertex
100
AcDb2dVertex
 10
50.61039
 20
51.101117
 30
0.0
  0
VERTEX
  5
B3
330
AE
100
AcDbEntity
  8
001
 62
     5
370
    50
100
AcDbVertex
100
AcDb2dVertex
 10
50.63203
 20
51.105369
 30
0.0
  0
VERTEX
  5
B4
330
AE
100
AcDbEntity
  8
001
 62
     5
370
    50
100
AcDbVertex
100
AcDb2dVertex
 10
50.646811
 20
51.108419
 30
0.0
  0
SEQEND
  5
AF
330
AE
100
AcDbEntity
  8
001
370
    50
  0
POLYLINE
  5
B5
330
64
100
AcDbEntity
  8
001
 62
     5
370
    50
100
AcDb2dPolyline
 66
     1
 10
0.0
 20
0.0
 30
0.0
  0
VERTEX
  5
B7
330
B5
100
AcDbEntity
  8
001
 62
     5
370
    50
100
AcDbVertex
100
AcDb2dVertex
 10
50.279489
 20
55.169973
 30
0.0
  0
VERTEX
  5
B8
330
B5
100
AcDbEntity
  8
001
 62
     5
370
    50
100
AcDbVertex
100
AcDb2dVertex
 10
50.144273
 20
55.164073
 30
0.0
  0
VERTEX
  5
B9
330
B5
100
AcDbEntity
  8
001
 62
     5
370
    50
100
AcDbVertex
100
AcDb2dVertex
 10
49.948587
 20
55.138828
 30
0.0
  0
VERTEX
  5
BA
330
B5
100
AcDbEntity
  8
001
 62
     5
370
    50
100
AcDbVertex
100
AcDb2dVertex
 10
49.91649
 20
55.132415
 30
0.0
  0
VERTEX
  5
BB
330
B5
100
AcDbEntity
  8
001
 62
     5
370
    50
100
AcDbVertex
100
AcDb2dVertex
 10
49.894587
 20
55.127719
 30
0.0
  0
SEQEND
  5
B6
330
B5
100
AcDbEntity
  8
001
370
    50
  0
POLYLINE
  5
BC
330
64
100
AcDbEntity
  8
001
 62
     5
370
    50
100
AcDb2dPolyline
 66
     1
 10
0.0
 20
0.0
 30
0.0
  0
VERTEX
  5
BE
330
BC
100
AcDbEntity
  8
001
 62
     5
370
    50
100
AcDbVertex
100
AcDb2dVertex
 10
49.600135
 20
51.928967
 30
0.0
  0
VERTEX
  5
BF
330
BC
100
AcDbEntity
  8
001
 62
     5
370
    50
100
AcDbVertex
100
AcDb2dVertex
 10
49.619182
 20
51.93
 30
0.0
  0
VERTEX
  5
C0
330
BC
100
AcDbEntity
  8
001
 62
     5
370
    50
100
AcDbVertex
100
AcDb2dVertex
 10
49.645332
 20
51.933221
 30
0.0
  0
VERTEX
  5
C1
330
BC
100
AcDbEntity
  8
001
 62
     5
370
    50
100
AcDbVertex
100
AcDb2dVertex
 10
49.668718
 20
51.938697
 30
0.0
  0
VERTEX
  5
C2
330
BC
100
AcDbEntity
  8
001
 62
     5
370
    50
100
AcDbVertex
100
AcDb2dVertex
 10
49.689155
 20
51.945853
 30
0.0
  0
VERTEX
  5
C3
330
BC
100
AcDbEntity
  8
001
 62
     5
370
    50
100
AcDbVertex
100
AcDb2dVertex
 10
49.709124
 20
51.954544
 30
0.0
  0
VERTEX
  5
C4
330
BC
100
AcDbEntity
  8
001
 62
     5
370
    50
100
AcDbVertex
100
AcDb2dVertex
 10
49.730273
 20
51.96648
 30
0.0
  0
VERTEX
  5
C5
330
BC
100
AcDbEntity
  8
001
 62
     5
370
    50
100
AcDbVertex
100
AcDb2dVertex
 10
49.748484
 20
51.979128
 30
0.0
  0
VERTEX
  5
C6
330
BC
100
AcDbEntity
  8
001
 62
     5
370
    50
100
AcDbVertex
100
AcDb2dVertex
 10
49.761089
 20
51.988925
 30
0.0
  0
SEQEND
  5
BD
330
BC
100
AcDbEntity
  8
001
370
    50
  0
POLYLINE
  5
C7
330
64
100
AcDbEntity
  8
001
 62
     5
370
    50
100
AcDb2dPolyline
 66
     1
 10
0.0
 20
0.0
 30
0.0
  0
VERTEX
  5
C9
330
C7
100
AcDbEntity
  8
001
 62
     5
370
    50
100
AcDbVertex
100
AcDb2dVertex
 10
50.438874
 20
51.917807
 30
0.0
  0
VERTEX
  5
CA
330
C7
100
AcDbEntity
  8
001
 62
     5
370
    50
100
AcDbVertex
100
AcDb2dVertex
 10
50.388236
 20
51.970078
 30
0.0
  0
VERTEX
  5
CB
330
C7
100
AcDbEntity
  8
001
 62
     5
370
    50
100
AcDbVertex
100
AcDb2dVertex
 10
50.311587
 20
52.031372
 30
0.0
  0
VERTEX
  5
CC
330
C7
100
AcDbEntity
  8
001
 62
     5
370
    50
100
AcDbVertex
100
AcDb2dVertex
 10
50.272249
 20
52.053669
 30
0.0
  0
VERTEX
  5
CD
330
C7
100
AcDbEntity
  8
001
 62
     5
370
    50
100
AcDbVertex
100
AcDb2dVertex
 10
50.233826
 20
52.07038
 30
0.0
  0
VERTEX
  5
CE
330
C7
100
AcDbEntity
  8
001
 62
     5
370
    50
100
AcDbVertex
100
AcDb2dVertex
 10
50.195005
 20
52.083984
 30
0.0
  0
VERTEX
  5
CF
330
C7
100
AcDbEntity
  8
001
 62
     5
370
    50
100
AcDbVertex
100
AcDb2dVertex
 10
50.15095
 20
52.09427
 30
0.0
  0
VERTEX
  5
D0
330
C7
100
AcDbEntity
  8
001
 62
     5
370
    50
100
AcDbVertex
100
AcDb2dVertex
 10
50.101531
 20
52.100347
 30
0.0
  0
VERTEX
  5
D1
330
C7
100
AcDbEntity
  8
001
 62
     5
370
    50
100
AcDbVertex
100
AcDb2dVertex
 10
50.065477
 20
52.102314
 30
0.0
  0
SEQEND
  5
C8
330
C7
100
AcDbEntity
  8
001
370
    50
  0
POLYLINE
  5
D2
330
64
100
AcDbEntity
  8
001
 62
     5
370
    50
100
AcDb2dPolyline
 66
     1
 10
0.0
 20
0.0
 30
0.0
  0
VERTEX
  5
D4
330
D2
100
AcDbEntity
  8
001
 62
     5
370
    50
100
AcDbVertex
100
AcDb2dVertex
 10
50.636318
 20
51.820243
 30
0.0
  0
VERTEX
  5
D5
330
D2
100
AcDbEntity
  8
001
 62
     5
370
    50
100
AcDbVertex
100
AcDb2dVertex
 10
50.655404
 20
51.821311
 30
0.0
  0
VERTEX
  5
D6
330
D2
100
AcDbEntity
  8
001
 62
     5
370
    50
100
AcDbVertex
100
AcDb2dVertex
 10
50.681514
 20
51.824497
 30
0.0
  0
VERTEX
  5
D7
330
D2
100
AcDbEntity
  8
001
 62
     5
370
    50
100
AcDbVertex
100
AcDb2dVertex
 10
50.704705
 20
51.829797
 30
0.0
  0
VERTEX
  5
D8
330
D2
100
AcDbEntity
  8
001
 62
     5
370
    50
100
AcDbVertex
100
AcDb2dVertex
 10
50.725337
 20
51.837129
 30
0.0
  0
VERTEX
  5
D9
330
D2
100
AcDbEntity
  8
001
 62
     5
370
    50
100
AcDbVertex
100
AcDb2dVertex
 10
50.746059
 20
51.846501
 30
0.0
  0
VERTEX
  5
DA
330
D2
100
AcDbEntity
  8
001
 62
     5
370
    50
100
AcDbVertex
100
AcDb2dVertex
 10
50.766455
 20
51.857756
 30
0.0
  0
VERTEX
  5
DB
330
D2
100
AcDbEntity
  8
001
 62
     5
370
    50
100
AcDbVertex
100
AcDb2dVertex
 10
50.820943
 20
51.902433
 30
0.0
  0
VERTEX
  5
DC
330
D2
100
AcDbEntity
  8
001
 62
     5
370
    50
100
AcDbVertex
100
AcDb2dVertex
 10
50.861723
 20
51.960243
 30
0.0
  0
VERTEX
  5
DD
330
D2
100
AcDbEntity
  8
001
 62
     5
370
    50
100
AcDbVertex
100
AcDb2dVertex
 10
50.880863
 20
52.005539
 30
0.0
  0
VERTEX
  5
DE
330
D2
100
AcDbEntity
  8
001
 62
     5
370
    50
100
AcDbVertex
100
AcDb2dVertex
 10
50.892639
 20
52.051622
 30
0.0
  0
VERTEX
  5
DF
330
D2
100
AcDbEntity
  8
001
 62
     5
370
    50
100
AcDbVertex
100
AcDb2dVertex
 10
50.895768
 20
52.07464
 30
0.0
  0
VERTEX
  5
E0
330
D2
100
AcDbEntity
  8
001
 62
     5
370
    50
100
AcDbVertex
100
AcDb2dVertex
 10
50.896593
 20
52.100243
 30
0.0
  0
VERTEX
  5
E1
330
D2
100
AcDbEntity
  8
001
 62
     5
370
    50
100
AcDbVertex
100
AcDb2dVertex
 10
50.895495
 20
52.123477
 30
0.0
  0
VERTEX
  5
E2
330
D2
100
AcDbEntity
  8
001
 62
     5
370
    50
100
AcDbVertex
100
AcDb2dVertex
 10
50.893932
 20
52.140176
 30
0.0
  0
SEQEND
  5
D3
330
D2
100
AcDbEntity
  8
001
370
    50
  0
POLYLINE
  5
E3
330
64
100
AcDbEntity
  8
001
 62
     5
370
    50
100
AcDb2dPolyline
 66
     1
 10
0.0
 20
0.0
 30
0.0
  0
VERTEX
  5
E5
330
E3
100
AcDbEntity
  8
001
 62
     5
370
    50
100
AcDbVertex
100
AcDb2dVertex
 10
51.290076
 20
52.73608
 30
0.0
  0
VERTEX
  5
E6
330
E3
100
AcDbEntity
  8
001
 62
     5
370
    50
100
AcDbVertex
100
AcDb2dVertex
 10
51.257293
 20
52.727646
 30
0.0
  0
VERTEX
  5
E7
330
E3
100
AcDbEntity
  8
001
 62
     5
370
    50
100
AcDbVertex
100
AcDb2dVertex
 10
51.212772
 20
52.713283
 30
0.0
  0
VERTEX
  5
E8
330
E3
100
AcDbEntity
  8
001
 62
     5
370
    50
100
AcDbVertex
100
AcDb2dVertex
 10
51.170899
 20
52.695132
 30
0.0
  0
VERTEX
  5
E9
330
E3
100
AcDbEntity
  8
001
 62
     5
370
    50
100
AcDbVertex
100
AcDb2dVertex
 10
51.135011
 20
52.674275
 30
0.0
  0
VERTEX
  5
EA
330
E3
100
AcDbEntity
  8
001
 62
     5
370
    50
100
AcDbVertex
100
AcDb2dVertex
 10
51.034733
 20
52.590226
 30
0.0
  0
VERTEX
  5
EB
330
E3
100
AcDbEntity
  8
001
 62
     5
370
    50
100
AcDbVertex
100
AcDb2dVertex
 10
50.954846
 20
52.480456
 30
0.0
  0
VERTEX
  5
EC
330
E3
100
AcDbEntity
  8
001
 62
     5
370
    50
100
AcDbVertex
100
AcDb2dVertex
 10
50.918249
 20
52.394731
 30
0.0
  0
VERTEX
  5
ED
330
E3
100
AcDbEntity
  8
001
 62
     5
370
    50
100
AcDbVertex
100
AcDb2dVertex
 10
50.896379
 20
52.307645
 30
0.0
  0
VERTEX
  5
EE
330
E3
100
AcDbEntity
  8
001
 62
     5
370
    50
100
AcDbVertex
100
AcDb2dVertex
 10
50.890499
 20
52.264119
 30
0.0
  0
VERTEX
  5
EF
330
E3
100
AcDbEntity
  8
001
 62
     5
370
    50
100
AcDbVertex
100
AcDb2dVertex
 10
50.888901
 20
52.215695
 30
0.0
  0
VERTEX
  5
F0
330
E3
100
AcDbEntity
  8
001
 62
     5
370
    50
100
AcDbVertex
100
AcDb2dVertex
 10
50.890971
 20
52.171755
 30
0.0
  0
VERTEX
  5
F1
330
E3
100
AcDbEntity
  8
001
 62
     5
370
    50
100
AcDbVertex
100
AcDb2dVertex
 10
50.893932
 20
52.140176
 30
0.0
  0
SEQEND
  5
E4
330
E3
100
AcDbEntity
  8
001
370
    50
  0
POLYLINE
  5
F2
330
64
100
AcDbEntity
  8
001
 62
     5
370
    50
100
AcDb2dPolyline
 66
     1
 10
0.0
 20
0.0
 30
0.0
  0
VERTEX
  5
F4
330
F2
100
AcDbEntity
  8
001
 62
     5
370
    50
100
AcDbVertex
100
AcDb2dVertex
 10
51.290076
 20
52.73608
 30
0.0
  0
VERTEX
  5
F5
330
F2
100
AcDbEntity
  8
001
 62
     5
370
    50
100
AcDbVertex
100
AcDb2dVertex
 10
51.30741
 20
52.740543
 30
0.0
  0
VERTEX
  5
F6
330
F2
100
AcDbEntity
  8
001
 62
     5
370
    50
100
AcDbVertex
100
AcDb2dVertex
 10
51.330953
 20
52.748135
 30
0.0
  0
VERTEX
  5
F7
330
F2
100
AcDbEntity
  8
001
 62
     5
370
    50
100
AcDbVertex
100
AcDb2dVertex
 10
51.353096
 20
52.757718
 30
0.0
  0
VERTEX
  5
F8
330
F2
100
AcDbEntity
  8
001
 62
     5
370
    50
100
AcDbVertex
100
AcDb2dVertex
 10
51.372071
 20
52.768762
 30
0.0
  0
VERTEX
  5
F9
330
F2
100
AcDbEntity
  8
001
 62
     5
370
    50
100
AcDbVertex
100
AcDb2dVertex
 10
51.42505
 20
52.81352
 30
0.0
  0
VERTEX
  5
FA
330
F2
100
AcDbEntity
  8
001
 62
     5
370
    50
100
AcDbVertex
100
AcDb2dVertex
 10
51.467338
 20
52.871249
 30
0.0
  0
VERTEX
  5
FB
330
F2
100
AcDbEntity
  8
001
 62
     5
370
    50
100
AcDbVertex
100
AcDb2dVertex
 10
51.48681
 20
52.915759
 30
0.0
  0
VERTEX
  5
FC
330
F2
100
AcDbEntity
  8
001
 62
     5
370
    50
100
AcDbVertex
100
AcDb2dVertex
 10
51.498254
 20
52.962627
 30
0.0
  0
VERTEX
  5
FD
330
F2
100
AcDbEntity
  8
001
 62
     5
370
    50
100
AcDbVertex
100
AcDb2dVertex
 10
51.501184
 20
52.986868
 30
0.0
  0
VERTEX
  5
FE
330
F2
100
AcDbEntity
  8
001
 62
     5
370
    50
100
AcDbVertex
100
AcDb2dVertex
 10
51.502209
 20
53.011249
 30
0.0
  0
VERTEX
  5
FF
330
F2
100
AcDbEntity
  8
001
 62
     5
370
    50
100
AcDbVertex
100
AcDb2dVertex
 10
51.501279
 20
53.03561
 30
0.0
  0
VERTEX
  5
100
330
F2
100
AcDbEntity
  8
001
 62
     5
370
    50
100
AcDbVertex
100
AcDb2dVertex
 10
51.498254
 20
53.05987
 30
0.0
  0
VERTEX
  5
101
330
F2
100
AcDbEntity
  8
001
 62
     5
370
    50
100
AcDbVertex
100
AcDb2dVertex
 10
51.486058
 20
53.107011
 30
0.0
  0
VERTEX
  5
102
330
F2
100
AcDbEntity
  8
001
 62
     5
370
    50
100
AcDbVertex
100
AcDb2dVertex
 10
51.467338
 20
53.151249
 30
0.0
  0
VERTEX
  5
103
330
F2
100
AcDbEntity
  8
001
 62
     5
370
    50
100
AcDbVertex
100
AcDb2dVertex
 10
51.430141
 20
53.207065
 30
0.0
  0
VERTEX
  5
104
330
F2
100
AcDbEntity
  8
001
 62
     5
370
    50
100
AcDbVertex
100
AcDb2dVertex
 10
51.372071
 20
53.253736
 30
0.0
  0
VERTEX
  5
105
330
F2
100
AcDbEntity
  8
001
 62
     5
370
    50
100
AcDbVertex
100
AcDb2dVertex
 10
51.352608
 20
53.264427
 30
0.0
  0
VERTEX
  5
106
330
F2
100
AcDbEntity
  8
001
 62
     5
370
    50
100
AcDbVertex
100
AcDb2dVertex
 10
51.338594
 20
53.271224
 30
0.0
  0
SEQEND
  5
F3
330
F2
100
AcDbEntity
  8
001
370
    50
  0
POLYLINE
  5
107
330
64
100
AcDbEntity
  8
001
 62
     5
370
    50
100
AcDb2dPolyline
 66
     1
 10
0.0
 20
0.0
 30
0.0
  0
VERTEX
  5
109
330
107
100
AcDbEntity
  8
001
 62
     5
370
    50
100
AcDbVertex
100
AcDb2dVertex
 10
51.056953
 20
53.938246
 30
0.0
  0
VERTEX
  5
10A
330
107
100
AcDbEntity
  8
001
 62
     5
370
    50
100
AcDbVertex
100
AcDb2dVertex
 10
51.047334
 20
53.903456
 30
0.0
  0
VERTEX
  5
10B
330
107
100
AcDbEntity
  8
001
 62
     5
370
    50
100
AcDbVertex
100
AcDb2dVertex
 10
51.036653
 20
53.854826
 30
0.0
  0
VERTEX
  5
10C
330
107
100
AcDbEntity
  8
001
 62
     5
370
    50
100
AcDbVertex
100
AcDb2dVertex
 10
51.030441
 20
53.807049
 30
0.0
  0
VERTEX
  5
10D
330
107
100
AcDbEntity
  8
001
 62
     5
370
    50
100
AcDbVertex
100
AcDb2dVertex
 10
51.029175
 20
53.762876
 30
0.0
  0
VERTEX
  5
10E
330
107
100
AcDbEntity
  8
001
 62
     5
370
    50
100
AcDbVertex
100
AcDb2dVertex
 10
51.031128
 20
53.717366
 30
0.0
  0
VERTEX
  5
10F
330
107
100
AcDbEntity
  8
001
 62
     5
370
    50
100
AcDbVertex
100
AcDb2dVertex
 10
51.036653
 20
53.670925
 30
0.0
  0
VERTEX
  5
110
330
107
100
AcDbEntity
  8
001
 62
     5
370
    50
100
AcDbVertex
100
AcDb2dVertex
 10
51.059587
 20
53.5814
 30
0.0
  0
VERTEX
  5
111
330
107
100
AcDbEntity
  8
001
 62
     5
370
    50
100
AcDbVertex
100
AcDb2dVertex
 10
51.09512
 20
53.498114
 30
0.0
  0
VERTEX
  5
112
330
107
100
AcDbEntity
  8
001
 62
     5
370
    50
100
AcDbVertex
100
AcDb2dVertex
 10
51.165514
 20
53.392698
 30
0.0
  0
VERTEX
  5
113
330
107
100
AcDbEntity
  8
001
 62
     5
370
    50
100
AcDbVertex
100
AcDb2dVertex
 10
51.275285
 20
53.304295
 30
0.0
  0
VERTEX
  5
114
330
107
100
AcDbEntity
  8
001
 62
     5
370
    50
100
AcDbVertex
100
AcDb2dVertex
 10
51.312091
 20
53.284074
 30
0.0
  0
VERTEX
  5
115
330
107
100
AcDbEntity
  8
001
 62
     5
370
    50
100
AcDbVertex
100
AcDb2dVertex
 10
51.338594
 20
53.271224
 30
0.0
  0
SEQEND
  5
108
330
107
100
AcDbEntity
  8
001
370
    50
  0
POLYLINE
  5
116
330
64
100
AcDbEntity
  8
001
 62
     5
370
    50
100
AcDb2dPolyline
 66
     1
 10
0.0
 20
0.0
 30
0.0
  0
VERTEX
  5
118
330
116
100
AcDbEntity
  8
001
 62
     5
370
    50
100
AcDbVertex
100
AcDb2dVertex
 10
50.811367
 20
54.310978
 30
0.0
  0
VERTEX
  5
119
330
116
100
AcDbEntity
  8
001
 62
     5
370
    50
100
AcDbVertex
100
AcDb2dVertex
 10
50.79232
 20
54.309946
 30
0.0
  0
VERTEX
  5
11A
330
116
100
AcDbEntity
  8
001
 62
     5
370
    50
100
AcDbVertex
100
AcDb2dVertex
 10
50.766171
 20
54.306724
 30
0.0
  0
VERTEX
  5
11B
330
116
100
AcDbEntity
  8
001
 62
     5
370
    50
100
AcDbVertex
100
AcDb2dVertex
 10
50.742784
 20
54.301248
 30
0.0
  0
VERTEX
  5
11C
330
116
100
AcDbEntity
  8
001
 62
     5
370
    50
100
AcDbVertex
100
AcDb2dVertex
 10
50.722348
 20
54.294092
 30
0.0
  0
VERTEX
  5
11D
330
116
100
AcDbEntity
  8
001
 62
     5
370
    50
100
AcDbVertex
100
AcDb2dVertex
 10
50.702378
 20
54.285401
 30
0.0
  0
VERTEX
  5
11E
330
116
100
AcDbEntity
  8
001
 62
     5
370
    50
100
AcDbVertex
100
AcDb2dVertex
 10
50.681229
 20
54.273465
 30
0.0
  0
VERTEX
  5
11F
330
116
100
AcDbEntity
  8
001
 62
     5
370
    50
100
AcDbVertex
100
AcDb2dVertex
 10
50.663018
 20
54.260817
 30
0.0
  0
VERTEX
  5
120
330
116
100
AcDbEntity
  8
001
 62
     5
370
    50
100
AcDbVertex
100
AcDb2dVertex
 10
50.650413
 20
54.25102
 30
0.0
  0
SEQEND
  5
117
330
116
100
AcDbEntity
  8
001
370
    50
  0
POLYLINE
  5
121
330
64
100
AcDbEntity
  8
001
 62
     5
370
    50
100
AcDb2dPolyline
 66
     1
 10
0.0
 20
0.0
 30
0.0
  0
VERTEX
  5
123
330
121
100
AcDbEntity
  8
001
 62
     5
370
    50
100
AcDbVertex
100
AcDb2dVertex
 10
49.972628
 20
54.322138
 30
0.0
  0
VERTEX
  5
124
330
121
100
AcDbEntity
  8
001
 62
     5
370
    50
100
AcDbVertex
100
AcDb2dVertex
 10
50.023266
 20
54.269867
 30
0.0
  0
VERTEX
  5
125
330
121
100
AcDbEntity
  8
001
 62
     5
370
    50
100
AcDbVertex
100
AcDb2dVertex
 10
50.099915
 20
54.208573
 30
0.0
  0
VERTEX
  5
126
330
121
100
AcDbEntity
  8
001
 62
     5
370
    50
100
AcDbVertex
100
AcDb2dVertex
 10
50.139253
 20
54.186276
 30
0.0
  0
VERTEX
  5
127
330
121
100
AcDbEntity
  8
001
 62
     5
370
    50
100
AcDbVertex
100
AcDb2dVertex
 10
50.177676
 20
54.169565
 30
0.0
  0
VERTEX
  5
128
330
121
100
AcDbEntity
  8
001
 62
     5
370
    50
100
AcDbVertex
100
AcDb2dVertex
 10
50.216497
 20
54.155961
 30
0.0
  0
VERTEX
  5
129
330
121
100
AcDbEntity
  8
001
 62
     5
370
    50
100
AcDbVertex
100
AcDb2dVertex
 10
50.260552
 20
54.145675
 30
0.0
  0
VERTEX
  5
12A
330
121
100
AcDbEntity
  8
001
 62
     5
370
    50
100
AcDbVertex
100
AcDb2dVertex
 10
50.309971
 20
54.139598
 30
0.0
  0
VERTEX
  5
12B
330
121
100
AcDbEntity
  8
001
 62
     5
370
    50
100
AcDbVertex
100
AcDb2dVertex
 10
50.346025
 20
54.137631
 30
0.0
  0
SEQEND
  5
122
330
121
100
AcDbEntity
  8
001
370
    50
  0
POLYLINE
  5
12C
330
64
100
AcDbEntity
  8
001
 62
     5
370
    50
100
AcDb2dPolyline
 66
     1
 10
0.0
 20
0.0
 30
0.0
  0
VERTEX
  5
12E
330
12C
100
AcDbEntity
  8
001
 62
     5
370
    50
100
AcDbVertex
100
AcDb2dVertex
 10
49.775184
 20
54.419702
 30
0.0
  0
VERTEX
  5
12F
330
12C
100
AcDbEntity
  8
001
 62
     5
370
    50
100
AcDbVertex
100
AcDb2dVertex
 10
49.756098
 20
54.418634
 30
0.0
  0
VERTEX
  5
130
330
12C
100
AcDbEntity
  8
001
 62
     5
370
    50
100
AcDbVertex
100
AcDb2dVertex
 10
49.729988
 20
54.415448
 30
0.0
  0
VERTEX
  5
131
330
12C
100
AcDbEntity
  8
001
 62
     5
370
    50
100
AcDbVertex
100
AcDb2dVertex
 10
49.706797
 20
54.410148
 30
0.0
  0
VERTEX
  5
132
330
12C
100
AcDbEntity
  8
001
 62
     5
370
    50
100
AcDbVertex
100
AcDb2dVertex
 10
49.686165
 20
54.402816
 30
0.0
  0
VERTEX
  5
133
330
12C
100
AcDbEntity
  8
001
 62
     5
370
    50
100
AcDbVertex
100
AcDb2dVertex
 10
49.665443
 20
54.393444
 30
0.0
  0
VERTEX
  5
134
330
12C
100
AcDbEntity
  8
001
 62
     5
370
    50
100
AcDbVertex
100
AcDb2dVertex
 10
49.645047
 20
54.382189
 30
0.0
  0
VERTEX
  5
135
330
12C
100
AcDbEntity
  8
001
 62
     5
370
    50
100
AcDbVertex
100
AcDb2dVertex
 10
49.590559
 20
54.337512
 30
0.0
  0
VERTEX
  5
136
330
12C
100
AcDbEntity
  8
001
 62
     5
370
    50
100
AcDbVertex
100
AcDb2dVertex
 10
49.549779
 20
54.279702
 30
0.0
  0
VERTEX
  5
137
330
12C
100
AcDbEntity
  8
001
 62
     5
370
    50
100
AcDbVertex
100
AcDb2dVertex
 10
49.530639
 20
54.234406
 30
0.0
  0
VERTEX
  5
138
330
12C
100
AcDbEntity
  8
001
 62
     5
370
    50
100
AcDbVertex
100
AcDb2dVertex
 10
49.518863
 20
54.188323
 30
0.0
  0
VERTEX
  5
139
330
12C
100
AcDbEntity
  8
001
 62
     5
370
    50
100
AcDbVertex
100
AcDb2dVertex
 10
49.515734
 20
54.165305
 30
0.0
  0
VERTEX
  5
13A
330
12C
100
AcDbEntity
  8
001
 62
     5
370
    50
100
AcDbVertex
100
AcDb2dVertex
 10
49.514909
 20
54.139702
 30
0.0
  0
VERTEX
  5
13B
330
12C
100
AcDbEntity
  8
001
 62
     5
370
    50
100
AcDbVertex
100
AcDb2dVertex
 10
49.516007
 20
54.116468
 30
0.0
  0
VERTEX
  5
13C
330
12C
100
AcDbEntity
  8
001
 62
     5
370
    50
100
AcDbVertex
100
AcDb2dVertex
 10
49.51757
 20
54.099769
 30
0.0
  0
SEQEND
  5
12D
330
12C
100
AcDbEntity
  8
001
370
    50
  0
POLYLINE
  5
13D
330
64
100
AcDbEntity
  8
001
 62
     5
370
    50
100
AcDb2dPolyline
 66
     1
 10
0.0
 20
0.0
 30
0.0
  0
VERTEX
  5
13F
330
13D
100
AcDbEntity
  8
001
 62
     5
370
    50
100
AcDbVertex
100
AcDb2dVertex
 10
49.121426
 20
53.503865
 30
0.0
  0
VERTEX
  5
140
330
13D
100
AcDbEntity
  8
001
 62
     5
370
    50
100
AcDbVertex
100
AcDb2dVertex
 10
49.154209
 20
53.512299
 30
0.0
  0
VERTEX
  5
141
330
13D
100
AcDbEntity
  8
001
 62
     5
370
    50
100
AcDbVertex
100
AcDb2dVertex
 10
49.198731
 20
53.526662
 30
0.0
  0
VERTEX
  5
142
330
13D
100
AcDbEntity
  8
001
 62
     5
370
    50
100
AcDbVertex
100
AcDb2dVertex
 10
49.240603
 20
53.544814
 30
0.0
  0
VERTEX
  5
143
330
13D
100
AcDbEntity
  8
001
 62
     5
370
    50
100
AcDbVertex
100
AcDb2dVertex
 10
49.276491
 20
53.56567
 30
0.0
  0
VERTEX
  5
144
330
13D
100
AcDbEntity
  8
001
 62
     5
370
    50
100
AcDbVertex
100
AcDb2dVertex
 10
49.376769
 20
53.649719
 30
0.0
  0
VERTEX
  5
145
330
13D
100
AcDbEntity
  8
001
 62
     5
370
    50
100
AcDbVertex
100
AcDb2dVertex
 10
49.456656
 20
53.759489
 30
0.0
  0
VERTEX
  5
146
330
13D
100
AcDbEntity
  8
001
 62
     5
370
    50
100
AcDbVertex
100
AcDb2dVertex
 10
49.493253
 20
53.845214
 30
0.0
  0
VERTEX
  5
147
330
13D
100
AcDbEntity
  8
001
 62
     5
370
    50
100
AcDbVertex
100
AcDb2dVertex
 10
49.515123
 20
53.9323
 30
0.0
  0
VERTEX
  5
148
330
13D
100
AcDbEntity
  8
001
 62
     5
370
    50
100
AcDbVertex
100
AcDb2dVertex
 10
49.521003
 20
53.975826
 30
0.0
  0
VERTEX
  5
149
330
13D
100
AcDbEntity
  8
001
 62
     5
370
    50
100
AcDbVertex
100
AcDb2dVertex
 10
49.522601
 20
54.024251
 30
0.0
  0
VERTEX
  5
14A
330
13D
100
AcDbEntity
  8
001
 62
     5
370
    50
100
AcDbVertex
100
AcDb2dVertex
 10
49.520531
 20
54.06819
 30
0.0
  0
VERTEX
  5
14B
330
13D
100
AcDbEntity
  8
001
 62
     5
370
    50
100
AcDbVertex
100
AcDb2dVertex
 10
49.51757
 20
54.099769
 30
0.0
  0
SEQEND
  5
13E
330
13D
100
AcDbEntity
  8
001
370
    50
  0
POLYLINE
  5
14C
330
64
100
AcDbEntity
  8
001
 62
     5
370
    50
100
AcDb2dPolyline
 66
     1
 10
0.0
 20
0.0
 30
0.0
  0
VERTEX
  5
14E
330
14C
100
AcDbEntity
  8
001
 62
     5
370
    50
100
AcDbVertex
100
AcDb2dVertex
 10
49.121426
 20
53.503865
 30
0.0
  0
VERTEX
  5
14F
330
14C
100
AcDbEntity
  8
001
 62
     5
370
    50
100
AcDbVertex
100
AcDb2dVertex
 10
49.104092
 20
53.499402
 30
0.0
  0
VERTEX
  5
150
330
14C
100
AcDbEntity
  8
001
 62
     5
370
    50
100
AcDbVertex
100
AcDb2dVertex
 10
49.080549
 20
53.49181
 30
0.0
  0
VERTEX
  5
151
330
14C
100
AcDbEntity
  8
001
 62
     5
370
    50
100
AcDbVertex
100
AcDb2dVertex
 10
49.058406
 20
53.482227
 30
0.0
  0
VERTEX
  5
152
330
14C
100
AcDbEntity
  8
001
 62
     5
370
    50
100
AcDbVertex
100
AcDb2dVertex
 10
49.039431
 20
53.471183
 30
0.0
  0
VERTEX
  5
153
330
14C
100
AcDbEntity
  8
001
 62
     5
370
    50
100
AcDbVertex
100
AcDb2dVertex
 10
48.986453
 20
53.426425
 30
0.0
  0
VERTEX
  5
154
330
14C
100
AcDbEntity
  8
001
 62
     5
370
    50
100
AcDbVertex
100
AcDb2dVertex
 10
48.944164
 20
53.368696
 30
0.0
  0
VERTEX
  5
155
330
14C
100
AcDbEntity
  8
001
 62
     5
370
    50
100
AcDbVertex
100
AcDb2dVertex
 10
48.924692
 20
53.324186
 30
0.0
  0
VERTEX
  5
156
330
14C
100
AcDbEntity
  8
001
 62
     5
370
    50
100
AcDbVertex
100
AcDb2dVertex
 10
48.913248
 20
53.277318
 30
0.0
  0
VERTEX
  5
157
330
14C
100
AcDbEntity
  8
001
 62
     5
370
    50
100
AcDbVertex
100
AcDb2dVertex
 10
48.910318
 20
53.253077
 30
0.0
  0
VERTEX
  5
158
330
14C
100
AcDbEntity
  8
001
 62
     5
370
    50
100
AcDbVertex
100
AcDb2dVertex
 10
48.909293
 20
53.228696
 30
0.0
  0
VERTEX
  5
159
330
14C
100
AcDbEntity
  8
001
 62
     5
370
    50
100
AcDbVertex
100
AcDb2dVertex
 10
48.910223
 20
53.204335
 30
0.0
  0
VERTEX
  5
15A
330
14C
100
AcDbEntity
  8
001
 62
     5
370
    50
100
AcDbVertex
100
AcDb2dVertex
 10
48.913248
 20
53.180075
 30
0.0
  0
VERTEX
  5
15B
330
14C
100
AcDbEntity
  8
001
 62
     5
370
    50
100
AcDbVertex
100
AcDb2dVertex
 10
48.925444
 20
53.132934
 30
0.0
  0
VERTEX
  5
15C
330
14C
100
AcDbEntity
  8
001
 62
     5
370
    50
100
AcDbVertex
100
AcDb2dVertex
 10
48.944164
 20
53.088696
 30
0.0
  0
VERTEX
  5
15D
330
14C
100
AcDbEntity
  8
001
 62
     5
370
    50
100
AcDbVertex
100
AcDb2dVertex
 10
48.981361
 20
53.03288
 30
0.0
  0
VERTEX
  5
15E
330
14C
100
AcDbEntity
  8
001
 62
     5
370
    50
100
AcDbVertex
100
AcDb2dVertex
 10
49.039431
 20
52.986209
 30
0.0
  0
VERTEX
  5
15F
330
14C
100
AcDbEntity
  8
001
 62
     5
370
    50
100
AcDbVertex
100
AcDb2dVertex
 10
49.058894
 20
52.975519
 30
0.0
  0
VERTEX
  5
160
330
14C
100
AcDbEntity
  8
001
 62
     5
370
    50
100
AcDbVertex
100
AcDb2dVertex
 10
49.072908
 20
52.968722
 30
0.0
  0
SEQEND
  5
14D
330
14C
100
AcDbEntity
  8
001
370
    50
  0
POLYLINE
  5
161
330
64
100
AcDbEntity
  8
001
 62
     5
370
    50
100
AcDb2dPolyline
 66
     1
 10
0.0
 20
0.0
 30
0.0
  0
VERTEX
  5
163
330
161
100
AcDbEntity
  8
001
 62
     5
370
    50
100
AcDbVertex
100
AcDb2dVertex
 10
49.354549
 20
52.301699
 30
0.0
  0
VERTEX
  5
164
330
161
100
AcDbEntity
  8
001
 62
     5
370
    50
100
AcDbVertex
100
AcDb2dVertex
 10
49.364168
 20
52.336489
 30
0.0
  0
VERTEX
  5
165
330
161
100
AcDbEntity
  8
001
 62
     5
370
    50
100
AcDbVertex
100
AcDb2dVertex
 10
49.374849
 20
52.385119
 30
0.0
  0
VERTEX
  5
166
330
161
100
AcDbEntity
  8
001
 62
     5
370
    50
100
AcDbVertex
100
AcDb2dVertex
 10
49.381061
 20
52.432896
 30
0.0
  0
VERTEX
  5
167
330
161
100
AcDbEntity
  8
001
 62
     5
370
    50
100
AcDbVertex
100
AcDb2dVertex
 10
49.382327
 20
52.47707
 30
0.0
  0
VERTEX
  5
168
330
161
100
AcDbEntity
  8
001
 62
     5
370
    50
100
AcDbVertex
100
AcDb2dVertex
 10
49.380375
 20
52.522579
 30
0.0
  0
VERTEX
  5
169
330
161
100
AcDbEntity
  8
001
 62
     5
370
    50
100
AcDbVertex
100
AcDb2dVertex
 10
49.374849
 20
52.56902
 30
0.0
  0
VERTEX
  5
16A
330
161
100
AcDbEntity
  8
001
 62
     5
370
    50
100
AcDbVertex
100
AcDb2dVertex
 10
49.351915
 20
52.658545
 30
0.0
  0
VERTEX
  5
16B
330
161
100
AcDbEntity
  8
001
 62
     5
370
    50
100
AcDbVertex
100
AcDb2dVertex
 10
49.316382
 20
52.741831
 30
0.0
  0
VERTEX
  5
16C
330
161
100
AcDbEntity
  8
001
 62
     5
370
    50
100
AcDbVertex
100
AcDb2dVertex
 10
49.245988
 20
52.847247
 30
0.0
  0
VERTEX
  5
16D
330
161
100
AcDbEntity
  8
001
 62
     5
370
    50
100
AcDbVertex
100
AcDb2dVertex
 10
49.136217
 20
52.93565
 30
0.0
  0
VERTEX
  5
16E
330
161
100
AcDbEntity
  8
001
 62
     5
370
    50
100
AcDbVertex
100
AcDb2dVertex
 10
49.099411
 20
52.955871
 30
0.0
  0
VERTEX
  5
16F
330
161
100
AcDbEntity
  8
001
 62
     5
370
    50
100
AcDbVertex
100
AcDb2dVertex
 10
49.072908
 20
52.968722
 30
0.0
  0
SEQEND
  5
162
330
161
100
AcDbEntity
  8
001
370
    50
  0
POLYLINE
  5
170
330
64
100
AcDbEntity
  8
001
 62
     5
370
    50
100
AcDb2dPolyline
 66
     1
 10
0.0
 20
0.0
 30
0.0
  0
VERTEX
  5
172
330
170
100
AcDbEntity
  8
001
 62
     5
370
    50
100
AcDbVertex
100
AcDb2dVertex
 10
50.390095
 20
51.069973
 30
0.0
  0
VERTEX
  5
173
330
170
100
AcDbEntity
  8
001
 62
     5
370
    50
100
AcDbVertex
100
AcDb2dVertex
 10
50.52983
 20
51.077784
 30
0.0
  0
VERTEX
  5
174
330
170
100
AcDbEntity
  8
001
 62
     5
370
    50
100
AcDbVertex
100
AcDb2dVertex
 10
50.720996
 20
51.101117
 30
0.0
  0
VERTEX
  5
175
330
170
100
AcDbEntity
  8
001
 62
     5
370
    50
100
AcDbVertex
100
AcDb2dVertex
 10
50.890779
 20
51.139947
 30
0.0
  0
VERTEX
  5
176
330
170
100
AcDbEntity
  8
001
 62
     5
370
    50
100
AcDbVertex
100
AcDb2dVertex
 10
51.041843
 20
51.193603
 30
0.0
  0
VERTEX
  5
177
330
170
100
AcDbEntity
  8
001
 62
     5
370
    50
100
AcDbVertex
100
AcDb2dVertex
 10
51.193571
 20
51.262099
 30
0.0
  0
VERTEX
  5
178
330
170
100
AcDbEntity
  8
001
 62
     5
370
    50
100
AcDbVertex
100
AcDb2dVertex
 10
51.342887
 20
51.34462
 30
0.0
  0
VERTEX
  5
179
330
170
100
AcDbEntity
  8
001
 62
     5
370
    50
100
AcDbVertex
100
AcDb2dVertex
 10
51.741509
 20
51.674019
 30
0.0
  0
VERTEX
  5
17A
330
170
100
AcDbEntity
  8
001
 62
     5
370
    50
100
AcDbVertex
100
AcDb2dVertex
 10
52.040379
 20
52.094973
 30
0.0
  0
VERTEX
  5
17B
330
170
100
AcDbEntity
  8
001
 62
     5
370
    50
100
AcDbVertex
100
AcDb2dVertex
 10
52.181313
 20
52.420639
 30
0.0
  0
VERTEX
  5
17C
330
170
100
AcDbEntity
  8
001
 62
     5
370
    50
100
AcDbVertex
100
AcDb2dVertex
 10
52.266729
 20
52.763994
 30
0.0
  0
VERTEX
  5
17D
330
170
100
AcDbEntity
  8
001
 62
     5
370
    50
100
AcDbVertex
100
AcDb2dVertex
 10
52.288444
 20
52.941442
 30
0.0
  0
VERTEX
  5
17E
330
170
100
AcDbEntity
  8
001
 62
     5
370
    50
100
AcDbVertex
100
AcDb2dVertex
 10
52.295679
 20
53.119973
 30
0.0
  0
VERTEX
  5
17F
330
170
100
AcDbEntity
  8
001
 62
     5
370
    50
100
AcDbVertex
100
AcDb2dVertex
 10
52.288444
 20
53.298503
 30
0.0
  0
VERTEX
  5
180
330
170
100
AcDbEntity
  8
001
 62
     5
370
    50
100
AcDbVertex
100
AcDb2dVertex
 10
52.266729
 20
53.475951
 30
0.0
  0
VERTEX
  5
181
330
170
100
AcDbEntity
  8
001
 62
     5
370
    50
100
AcDbVertex
100
AcDb2dVertex
 10
52.181313
 20
53.819307
 30
0.0
  0
VERTEX
  5
182
330
170
100
AcDbEntity
  8
001
 62
     5
370
    50
100
AcDbVertex
100
AcDb2dVertex
 10
52.040379
 20
54.144973
 30
0.0
  0
VERTEX
  5
183
330
170
100
AcDbEntity
  8
001
 62
     5
370
    50
100
AcDbVertex
100
AcDb2dVertex
 10
51.741509
 20
54.565926
 30
0.0
  0
VERTEX
  5
184
330
170
100
AcDbEntity
  8
001
 62
     5
370
    50
100
AcDbVertex
100
AcDb2dVertex
 10
51.342887
 20
54.895325
 30
0.0
  0
VERTEX
  5
185
330
170
100
AcDbEntity
  8
001
 62
     5
370
    50
100
AcDbVertex
100
AcDb2dVertex
 10
51.193571
 20
54.977846
 30
0.0
  0
VERTEX
  5
186
330
170
100
AcDbEntity
  8
001
 62
     5
370
    50
100
AcDbVertex
100
AcDb2dVertex
 10
51.041843
 20
55.046342
 30
0.0
  0
VERTEX
  5
187
330
170
100
AcDbEntity
  8
001
 62
     5
370
    50
100
AcDbVertex
100
AcDb2dVertex
 10
50.890779
 20
55.099998
 30
0.0
  0
VERTEX
  5
188
330
170
100
AcDbEntity
  8
001
 62
     5
370
    50
100
AcDbVertex
100
AcDb2dVertex
 10
50.720996
 20
55.138828
 30
0.0
  0
VERTEX
  5
189
330
170
100
AcDbEntity
  8
001
 62
     5
370
    50
100
AcDbVertex
100
AcDb2dVertex
 10
50.52983
 20
55.162161
 30
0.0
  0
VERTEX
  5
18A
330
170
100
AcDbEntity
  8
001
 62
     5
370
    50
100
AcDbVertex
100
AcDb2dVertex
 10
50.390095
 20
55.169973
 30
0.0
  0
SEQEND
  5
171
330
170
100
AcDbEntity
  8
001
370
    50
  0
POLYLINE
  5
18B
330
64
100
AcDbEntity
  8
001
 62
     5
370
    50
100
AcDb2dPolyline
 66
     1
 10
0.0
 20
0.0
 30
0.0
  0
VERTEX
  5
18D
330
18B
100
AcDbEntity
  8
001
 62
     5
370
    50
100
AcDbVertex
100
AcDb2dVertex
 10
50.648501
 20
55.131168
 30
0.0
  0
VERTEX
  5
18E
330
18B
100
AcDbEntity
  8
001
 62
     5
370
    50
100
AcDbVertex
100
AcDb2dVertex
 10
50.633035
 20
55.134371
 30
0.0
  0
VERTEX
  5
18F
330
18B
100
AcDbEntity
  8
001
 62
     5
370
    50
100
AcDbVertex
100
AcDb2dVertex
 10
50.61039
 20
55.138828
 30
0.0
  0
VERTEX
  5
190
330
18B
100
AcDbEntity
  8
001
 62
     5
370
    50
100
AcDbVertex
100
AcDb2dVertex
 10
50.4147
 20
55.164075
 30
0.0
  0
VERTEX
  5
191
330
18B
100
AcDbEntity
  8
001
 62
     5
370
    50
100
AcDbVertex
100
AcDb2dVertex
 10
50.279489
 20
55.169973
 30
0.0
  0
SEQEND
  5
18C
330
18B
100
AcDbEntity
  8
001
370
    50
  0
POLYLINE
  5
192
330
64
100
AcDbEntity
  8
001
 62
     5
370
    50
100
AcDb2dPolyline
 66
     1
 10
0.0
 20
0.0
 30
0.0
  0
VERTEX
  5
194
330
192
100
AcDbEntity
  8
001
 62
     5
370
    50
100
AcDbVertex
100
AcDb2dVertex
 10
49.917457
 20
51.107309
 30
0.0
  0
VERTEX
  5
195
330
192
100
AcDbEntity
  8
001
 62
     5
370
    50
100
AcDbVertex
100
AcDb2dVertex
 10
49.930093
 20
51.104732
 30
0.0
  0
VERTEX
  5
196
330
192
100
AcDbEntity
  8
001
 62
     5
370
    50
100
AcDbVertex
100
AcDb2dVertex
 10
49.948587
 20
51.101117
 30
0.0
  0
VERTEX
  5
197
330
192
100
AcDbEntity
  8
001
 62
     5
370
    50
100
AcDbVertex
100
AcDb2dVertex
 10
50.144279
 20
51.07587
 30
0.0
  0
VERTEX
  5
198
330
192
100
AcDbEntity
  8
001
 62
     5
370
    50
100
AcDbVertex
100
AcDb2dVertex
 10
50.279489
 20
51.069973
 30
0.0
  0
SEQEND
  5
193
330
192
100
AcDbEntity
  8
001
370
    50
  0
LINE
  5
199
330
64
100
AcDbEntity
  8
001
 62
     5
370
    50
100
AcDbLine
 10
50.279489
 20
51.069973
 30
0.0
 11
50.390095
 21
51.069973
 31
0.0
  0
LINE
  5
19A
330
64
100
AcDbEntity
  8
001
 62
     5
370
    50
100
AcDbLine
 10
50.390095
 20
55.169973
 30
0.0
 11
50.279489
 21
55.169973
 31
0.0
  0
POLYLINE
  5
19B
330
64
100
AcDbEntity
  8
001
 62
     5
370
    50
100
AcDb2dPolyline
 66
     1
 10
0.0
 20
0.0
 30
0.0
  0
VERTEX
  5
19D
330
19B
100
AcDbEntity
  8
001
 62
     5
370
    50
100
AcDbVertex
100
AcDb2dVertex
 10
51.056953
 20
53.938246
 30
0.0
  0
VERTEX
  5
19E
330
19B
100
AcDbEntity
  8
001
 62
     5
370
    50
100
AcDbVertex
100
AcDb2dVertex
 10
51.062037
 20
53.956643
 30
0.0
  0
VERTEX
  5
19F
330
19B
100
AcDbEntity
  8
001
 62
     5
370
    50
100
AcDbVertex
100
AcDb2dVertex
 10
51.067688
 20
53.982357
 30
0.0
  0
VERTEX
  5
1A0
330
19B
100
AcDbEntity
  8
001
 62
     5
370
    50
100
AcDbVertex
100
AcDb2dVertex
 10
51.070986
 20
54.007614
 30
0.0
  0
VERTEX
  5
1A1
330
19B
100
AcDbEntity
  8
001
 62
     5
370
    50
100
AcDbVertex
100
AcDb2dVertex
 10
51.071642
 20
54.030978
 30
0.0
  0
VERTEX
  5
1A2
330
19B
100
AcDbEntity
  8
001
 62
     5
370
    50
100
AcDbVertex
100
AcDb2dVertex
 10
51.070557
 20
54.055067
 30
0.0
  0
VERTEX
  5
1A3
330
19B
100
AcDbEntity
  8
001
 62
     5
370
    50
100
AcDbVertex
100
AcDb2dVertex
 10
51.067688
 20
54.0796
 30
0.0
  0
VERTEX
  5
1A4
330
19B
100
AcDbEntity
  8
001
 62
     5
370
    50
100
AcDbVertex
100
AcDb2dVertex
 10
51.056086
 20
54.126695
 30
0.0
  0
VERTEX
  5
1A5
330
19B
100
AcDbEntity
  8
001
 62
     5
370
    50
100
AcDbVertex
100
AcDb2dVertex
 10
51.036771
 20
54.170978
 30
0.0
  0
VERTEX
  5
1A6
330
19B
100
AcDbEntity
  8
001
 62
     5
370
    50
100
AcDbVertex
100
AcDb2dVertex
 10
50.995925
 20
54.228398
 30
0.0
  0
VERTEX
  5
1A7
330
19B
100
AcDbEntity
  8
001
 62
     5
370
    50
100
AcDbVertex
100
AcDb2dVertex
 10
50.941504
 20
54.273465
 30
0.0
  0
VERTEX
  5
1A8
330
19B
100
AcDbEntity
  8
001
 62
     5
370
    50
100
AcDbVertex
100
AcDb2dVertex
 10
50.921111
 20
54.28474
 30
0.0
  0
VERTEX
  5
1A9
330
19B
100
AcDbEntity
  8
001
 62
     5
370
    50
100
AcDbVertex
100
AcDb2dVertex
 10
50.900386
 20
54.294092
 30
0.0
  0
VERTEX
  5
1AA
330
19B
100
AcDbEntity
  8
001
 62
     5
370
    50
100
AcDbVertex
100
AcDb2dVertex
 10
50.879753
 20
54.30142
 30
0.0
  0
VERTEX
  5
1AB
330
19B
100
AcDbEntity
  8
001
 62
     5
370
    50
100
AcDbVertex
100
AcDb2dVertex
 10
50.856563
 20
54.306724
 30
0.0
  0
VERTEX
  5
1AC
330
19B
100
AcDbEntity
  8
001
 62
     5
370
    50
100
AcDbVertex
100
AcDb2dVertex
 10
50.830453
 20
54.309911
 30
0.0
  0
VERTEX
  5
1AD
330
19B
100
AcDbEntity
  8
001
 62
     5
370
    50
100
AcDbVertex
100
AcDb2dVertex
 10
50.811367
 20
54.310978
 30
0.0
  0
SEQEND
  5
19C
330
19B
100
AcDbEntity
  8
001
370
    50
  0
POLYLINE
  5
1AE
330
64
100
AcDbEntity
  8
001
 62
     5
370
    50
100
AcDb2dPolyline
 66
     1
 10
0.0
 20
0.0
 30
0.0
  0
VERTEX
  5
1B0
330
1AE
100
AcDbEntity
  8
001
 62
     5
370
    50
100
AcDbVertex
100
AcDb2dVertex
 10
50.438874
 20
51.917807
 30
0.0
  0
VERTEX
  5
1B1
330
1AE
100
AcDbEntity
  8
001
 62
     5
370
    50
100
AcDbVertex
100
AcDb2dVertex
 10
50.46565
 20
51.890167
 30
0.0
  0
VERTEX
  5
1B2
330
1AE
100
AcDbEntity
  8
001
 62
     5
370
    50
100
AcDbVertex
100
AcDb2dVertex
 10
50.50618
 20
51.857756
 30
0.0
  0
VERTEX
  5
1B3
330
1AE
100
AcDbEntity
  8
001
 62
     5
370
    50
100
AcDbVertex
100
AcDb2dVertex
 10
50.526981
 20
51.845966
 30
0.0
  0
VERTEX
  5
1B4
330
1AE
100
AcDbEntity
  8
001
 62
     5
370
    50
100
AcDbVertex
100
AcDb2dVertex
 10
50.547299
 20
51.837129
 30
0.0
  0
VERTEX
  5
1B5
330
1AE
100
AcDbEntity
  8
001
 62
     5
370
    50
100
AcDbVertex
100
AcDb2dVertex
 10
50.567826
 20
51.829936
 30
0.0
  0
VERTEX
  5
1B6
330
1AE
100
AcDbEntity
  8
001
 62
     5
370
    50
100
AcDbVertex
100
AcDb2dVertex
 10
50.591122
 20
51.824497
 30
0.0
  0
VERTEX
  5
1B7
330
1AE
100
AcDbEntity
  8
001
 62
     5
370
    50
100
AcDbVertex
100
AcDb2dVertex
 10
50.617253
 20
51.821283
 30
0.0
  0
VERTEX
  5
1B8
330
1AE
100
AcDbEntity
  8
001
 62
     5
370
    50
100
AcDbVertex
100
AcDb2dVertex
 10
50.636318
 20
51.820243
 30
0.0
  0
SEQEND
  5
1AF
330
1AE
100
AcDbEntity
  8
001
370
    50
  0
POLYLINE
  5
1B9
330
64
100
AcDbEntity
  8
001
 62
     5
370
    50
100
AcDb2dPolyline
 66
     1
 10
0.0
 20
0.0
 30
0.0
  0
VERTEX
  5
1BB
330
1B9
100
AcDbEntity
  8
001
 62
     5
370
    50
100
AcDbVertex
100
AcDb2dVertex
 10
50.346025
 20
54.137631
 30
0.0
  0
VERTEX
  5
1BC
330
1B9
100
AcDbEntity
  8
001
 62
     5
370
    50
100
AcDbVertex
100
AcDb2dVertex
 10
50.382046
 20
54.139583
 30
0.0
  0
VERTEX
  5
1BD
330
1B9
100
AcDbEntity
  8
001
 62
     5
370
    50
100
AcDbVertex
100
AcDb2dVertex
 10
50.431498
 20
54.145675
 30
0.0
  0
VERTEX
  5
1BE
330
1B9
100
AcDbEntity
  8
001
 62
     5
370
    50
100
AcDbVertex
100
AcDb2dVertex
 10
50.475725
 20
54.156032
 30
0.0
  0
VERTEX
  5
1BF
330
1B9
100
AcDbEntity
  8
001
 62
     5
370
    50
100
AcDbVertex
100
AcDb2dVertex
 10
50.514374
 20
54.169565
 30
0.0
  0
VERTEX
  5
1C0
330
1B9
100
AcDbEntity
  8
001
 62
     5
370
    50
100
AcDbVertex
100
AcDb2dVertex
 10
50.552139
 20
54.186001
 30
0.0
  0
VERTEX
  5
1C1
330
1B9
100
AcDbEntity
  8
001
 62
     5
370
    50
100
AcDbVertex
100
AcDb2dVertex
 10
50.592135
 20
54.208573
 30
0.0
  0
VERTEX
  5
1C2
330
1B9
100
AcDbEntity
  8
001
 62
     5
370
    50
100
AcDbVertex
100
AcDb2dVertex
 10
50.626575
 20
54.232494
 30
0.0
  0
VERTEX
  5
1C3
330
1B9
100
AcDbEntity
  8
001
 62
     5
370
    50
100
AcDbVertex
100
AcDb2dVertex
 10
50.650413
 20
54.25102
 30
0.0
  0
SEQEND
  5
1BA
330
1B9
100
AcDbEntity
  8
001
370
    50
  0
LINE
  5
1C4
330
64
100
AcDbEntity
  8
001
 62
     5
370
    50
100
AcDbLine
 10
50.346025
 20
54.137631
 30
0.0
 11
50.785804
 21
54.137631
 31
0.0
  0
POLYLINE
  5
1C5
330
64
100
AcDbEntity
  8
001
 62
     5
370
    50
100
AcDb2dPolyline
 66
     1
 10
0.0
 20
0.0
 30
0.0
  0
VERTEX
  5
1C7
330
1C5
100
AcDbEntity
  8
001
 62
     5
370
    50
100
AcDbVertex
100
AcDb2dVertex
 10
50.785804
 20
54.137631
 30
0.0
  0
VERTEX
  5
1C8
330
1C5
100
AcDbEntity
  8
001
 62
     5
370
    50
100
AcDbVertex
100
AcDb2dVertex
 10
50.822254
 20
54.139844
 30
0.0
  0
VERTEX
  5
1C9
330
1C5
100
AcDbEntity
  8
001
 62
     5
370
    50
100
AcDbVertex
100
AcDb2dVertex
 10
50.871277
 20
54.145675
 30
0.0
  0
VERTEX
  5
1CA
330
1C5
100
AcDbEntity
  8
001
 62
     5
370
    50
100
AcDbVertex
100
AcDb2dVertex
 10
50.913339
 20
54.15472
 30
0.0
  0
VERTEX
  5
1CB
330
1C5
100
AcDbEntity
  8
001
 62
     5
370
    50
100
AcDbVertex
100
AcDb2dVertex
 10
50.954153
 20
54.169565
 30
0.0
  0
VERTEX
  5
1CC
330
1C5
100
AcDbEntity
  8
001
 62
     5
370
    50
100
AcDbVertex
100
AcDb2dVertex
 10
50.991632
 20
54.186725
 30
0.0
  0
VERTEX
  5
1CD
330
1C5
100
AcDbEntity
  8
001
 62
     5
370
    50
100
AcDbVertex
100
AcDb2dVertex
 10
51.018493
 20
54.200536
 30
0.0
  0
SEQEND
  5
1C6
330
1C5
100
AcDbEntity
  8
001
370
    50
  0
POLYLINE
  5
1CE
330
64
100
AcDbEntity
  8
001
 62
     5
370
    50
100
AcDb2dPolyline
 66
     1
 10
0.0
 20
0.0
 30
0.0
  0
VERTEX
  5
1D0
330
1CE
100
AcDbEntity
  8
001
 62
     5
370
    50
100
AcDbVertex
100
AcDb2dVertex
 10
50.065477
 20
52.102314
 30
0.0
  0
VERTEX
  5
1D1
330
1CE
100
AcDbEntity
  8
001
 62
     5
370
    50
100
AcDbVertex
100
AcDb2dVertex
 10
50.029456
 20
52.100362
 30
0.0
  0
VERTEX
  5
1D2
330
1CE
100
AcDbEntity
  8
001
 62
     5
370
    50
100
AcDbVertex
100
AcDb2dVertex
 10
49.980004
 20
52.09427
 30
0.0
  0
VERTEX
  5
1D3
330
1CE
100
AcDbEntity
  8
001
 62
     5
370
    50
100
AcDbVertex
100
AcDb2dVertex
 10
49.935777
 20
52.083913
 30
0.0
  0
VERTEX
  5
1D4
330
1CE
100
AcDbEntity
  8
001
 62
     5
370
    50
100
AcDbVertex
100
AcDb2dVertex
 10
49.897128
 20
52.07038
 30
0.0
  0
VERTEX
  5
1D5
330
1CE
100
AcDbEntity
  8
001
 62
     5
370
    50
100
AcDbVertex
100
AcDb2dVertex
 10
49.859363
 20
52.053944
 30
0.0
  0
VERTEX
  5
1D6
330
1CE
100
AcDbEntity
  8
001
 62
     5
370
    50
100
AcDbVertex
100
AcDb2dVertex
 10
49.819367
 20
52.031372
 30
0.0
  0
VERTEX
  5
1D7
330
1CE
100
AcDbEntity
  8
001
 62
     5
370
    50
100
AcDbVertex
100
AcDb2dVertex
 10
49.784927
 20
52.007451
 30
0.0
  0
VERTEX
  5
1D8
330
1CE
100
AcDbEntity
  8
001
 62
     5
370
    50
100
AcDbVertex
100
AcDb2dVertex
 10
49.761089
 20
51.988925
 30
0.0
  0
SEQEND
  5
1CF
330
1CE
100
AcDbEntity
  8
001
370
    50
  0
POLYLINE
  5
1D9
330
64
100
AcDbEntity
  8
001
 62
     5
370
    50
100
AcDb2dPolyline
 66
     1
 10
0.0
 20
0.0
 30
0.0
  0
VERTEX
  5
1DB
330
1D9
100
AcDbEntity
  8
001
 62
     5
370
    50
100
AcDbVertex
100
AcDb2dVertex
 10
50.853898
 20
51.946584
 30
0.0
  0
VERTEX
  5
1DC
330
1D9
100
AcDbEntity
  8
001
 62
     5
370
    50
100
AcDbVertex
100
AcDb2dVertex
 10
50.812541
 20
51.984964
 30
0.0
  0
VERTEX
  5
1DD
330
1D9
100
AcDbEntity
  8
001
 62
     5
370
    50
100
AcDbVertex
100
AcDb2dVertex
 10
50.751365
 20
52.031372
 30
0.0
  0
VERTEX
  5
1DE
330
1D9
100
AcDbEntity
  8
001
 62
     5
370
    50
100
AcDbVertex
100
AcDb2dVertex
 10
50.711839
 20
52.053749
 30
0.0
  0
VERTEX
  5
1DF
330
1D9
100
AcDbEntity
  8
001
 62
     5
370
    50
100
AcDbVertex
100
AcDb2dVertex
 10
50.673604
 20
52.07038
 30
0.0
  0
VERTEX
  5
1E0
330
1D9
100
AcDbEntity
  8
001
 62
     5
370
    50
100
AcDbVertex
100
AcDb2dVertex
 10
50.634833
 20
52.083964
 30
0.0
  0
VERTEX
  5
1E1
330
1D9
100
AcDbEntity
  8
001
 62
     5
370
    50
100
AcDbVertex
100
AcDb2dVertex
 10
50.590728
 20
52.09427
 30
0.0
  0
VERTEX
  5
1E2
330
1D9
100
AcDbEntity
  8
001
 62
     5
370
    50
100
AcDbVertex
100
AcDb2dVertex
 10
50.5413
 20
52.100352
 30
0.0
  0
VERTEX
  5
1E3
330
1D9
100
AcDbEntity
  8
001
 62
     5
370
    50
100
AcDbVertex
100
AcDb2dVertex
 10
50.505255
 20
52.102314
 30
0.0
  0
SEQEND
  5
1DA
330
1D9
100
AcDbEntity
  8
001
370
    50
  0
LINE
  5
1E4
330
64
100
AcDbEntity
  8
001
 62
     5
370
    50
100
AcDbLine
 10
50.505255
 20
52.102314
 30
0.0
 11
50.065477
 21
52.102314
 31
0.0
  0
POLYLINE
  5
1E5
330
64
100
AcDbEntity
  8
001
 62
     5
370
    50
100
AcDb2dPolyline
 66
     1
 10
0.0
 20
0.0
 30
0.0
  0
VERTEX
  5
1E7
330
1E5
100
AcDbEntity
  8
001
 62
     5
370
    50
100
AcDbVertex
100
AcDb2dVertex
 10
49.972628
 20
54.322138
 30
0.0
  0
VERTEX
  5
1E8
330
1E5
100
AcDbEntity
  8
001
 62
     5
370
    50
100
AcDbVertex
100
AcDb2dVertex
 10
49.945852
 20
54.349778
 30
0.0
  0
VERTEX
  5
1E9
330
1E5
100
AcDbEntity
  8
001
 62
     5
370
    50
100
AcDbVertex
100
AcDb2dVertex
 10
49.905322
 20
54.382189
 30
0.0
  0
VERTEX
  5
1EA
330
1E5
100
AcDbEntity
  8
001
 62
     5
370
    50
100
AcDbVertex
100
AcDb2dVertex
 10
49.884521
 20
54.39398
 30
0.0
  0
VERTEX
  5
1EB
330
1E5
100
AcDbEntity
  8
001
 62
     5
370
    50
100
AcDbVertex
100
AcDb2dVertex
 10
49.864203
 20
54.402816
 30
0.0
  0
VERTEX
  5
1EC
330
1E5
100
AcDbEntity
  8
001
 62
     5
370
    50
100
AcDbVertex
100
AcDb2dVertex
 10
49.843676
 20
54.410009
 30
0.0
  0
VERTEX
  5
1ED
330
1E5
100
AcDbEntity
  8
001
 62
     5
370
    50
100
AcDbVertex
100
AcDb2dVertex
 10
49.82038
 20
54.415448
 30
0.0
  0
VERTEX
  5
1EE
330
1E5
100
AcDbEntity
  8
001
 62
     5
370
    50
100
AcDbVertex
100
AcDb2dVertex
 10
49.794249
 20
54.418662
 30
0.0
  0
VERTEX
  5
1EF
330
1E5
100
AcDbEntity
  8
001
 62
     5
370
    50
100
AcDbVertex
100
AcDb2dVertex
 10
49.775184
 20
54.419702
 30
0.0
  0
SEQEND
  5
1E6
330
1E5
100
AcDbEntity
  8
001
370
    50
  0
POLYLINE
  5
1F0
330
64
100
AcDbEntity
  8
001
 62
     5
370
    50
100
AcDb2dPolyline
 66
     1
 10
0.0
 20
0.0
 30
0.0
  0
VERTEX
  5
1F2
330
1F0
100
AcDbEntity
  8
001
 62
     5
370
    50
100
AcDbVertex
100
AcDb2dVertex
 10
49.997382
 20
54.293362
 30
0.0
  0
VERTEX
  5
1F3
330
1F0
100
AcDbEntity
  8
001
 62
     5
370
    50
100
AcDbVertex
100
AcDb2dVertex
 10
49.994111
 20
54.2878
 30
0.0
  0
VERTEX
  5
1F4
330
1F0
100
AcDbEntity
  8
001
 62
     5
370
    50
100
AcDbVertex
100
AcDb2dVertex
 10
49.989558
 20
54.279702
 30
0.0
  0
VERTEX
  5
1F5
330
1F0
100
AcDbEntity
  8
001
 62
     5
370
    50
100
AcDbVertex
100
AcDb2dVertex
 10
49.968829
 20
54.232026
 30
0.0
  0
VERTEX
  5
1F6
330
1F0
100
AcDbEntity
  8
001
 62
     5
370
    50
100
AcDbVertex
100
AcDb2dVertex
 10
49.958642
 20
54.188323
 30
0.0
  0
VERTEX
  5
1F7
330
1F0
100
AcDbEntity
  8
001
 62
     5
370
    50
100
AcDbVertex
100
AcDb2dVertex
 10
49.955664
 20
54.165531
 30
0.0
  0
VERTEX
  5
1F8
330
1F0
100
AcDbEntity
  8
001
 62
     5
370
    50
100
AcDbVertex
100
AcDb2dVertex
 10
49.954688
 20
54.139702
 30
0.0
  0
VERTEX
  5
1F9
330
1F0
100
AcDbEntity
  8
001
 62
     5
370
    50
100
AcDbVertex
100
AcDb2dVertex
 10
49.955762
 20
54.116434
 30
0.0
  0
VERTEX
  5
1FA
330
1F0
100
AcDbEntity
  8
001
 62
     5
370
    50
100
AcDbVertex
100
AcDb2dVertex
 10
49.957348
 20
54.099769
 30
0.0
  0
SEQEND
  5
1F1
330
1F0
100
AcDbEntity
  8
001
370
    50
  0
POLYLINE
  5
1FB
330
64
100
AcDbEntity
  8
001
 62
     5
370
    50
100
AcDb2dPolyline
 66
     1
 10
0.0
 20
0.0
 30
0.0
  0
VERTEX
  5
1FD
330
1FB
100
AcDbEntity
  8
001
 62
     5
370
    50
100
AcDbVertex
100
AcDb2dVertex
 10
49.354549
 20
52.301699
 30
0.0
  0
VERTEX
  5
1FE
330
1FB
100
AcDbEntity
  8
001
 62
     5
370
    50
100
AcDbVertex
100
AcDb2dVertex
 10
49.349465
 20
52.283302
 30
0.0
  0
VERTEX
  5
1FF
330
1FB
100
AcDbEntity
  8
001
 62
     5
370
    50
100
AcDbVertex
100
AcDb2dVertex
 10
49.343815
 20
52.257588
 30
0.0
  0
VERTEX
  5
200
330
1FB
100
AcDbEntity
  8
001
 62
     5
370
    50
100
AcDbVertex
100
AcDb2dVertex
 10
49.340516
 20
52.232331
 30
0.0
  0
VERTEX
  5
201
330
1FB
100
AcDbEntity
  8
001
 62
     5
370
    50
100
AcDbVertex
100
AcDb2dVertex
 10
49.33986
 20
52.208967
 30
0.0
  0
VERTEX
  5
202
330
1FB
100
AcDbEntity
  8
001
 62
     5
370
    50
100
AcDbVertex
100
AcDb2dVertex
 10
49.340945
 20
52.184879
 30
0.0
  0
VERTEX
  5
203
330
1FB
100
AcDbEntity
  8
001
 62
     5
370
    50
100
AcDbVertex
100
AcDb2dVertex
 10
49.343815
 20
52.160345
 30
0.0
  0
VERTEX
  5
204
330
1FB
100
AcDbEntity
  8
001
 62
     5
370
    50
100
AcDbVertex
100
AcDb2dVertex
 10
49.355417
 20
52.11325
 30
0.0
  0
VERTEX
  5
205
330
1FB
100
AcDbEntity
  8
001
 62
     5
370
    50
100
AcDbVertex
100
AcDb2dVertex
 10
49.374731
 20
52.068967
 30
0.0
  0
VERTEX
  5
206
330
1FB
100
AcDbEntity
  8
001
 62
     5
370
    50
100
AcDbVertex
100
AcDb2dVertex
 10
49.415577
 20
52.011547
 30
0.0
  0
VERTEX
  5
207
330
1FB
100
AcDbEntity
  8
001
 62
     5
370
    50
100
AcDbVertex
100
AcDb2dVertex
 10
49.469998
 20
51.96648
 30
0.0
  0
VERTEX
  5
208
330
1FB
100
AcDbEntity
  8
001
 62
     5
370
    50
100
AcDbVertex
100
AcDb2dVertex
 10
49.490391
 20
51.955205
 30
0.0
  0
VERTEX
  5
209
330
1FB
100
AcDbEntity
  8
001
 62
     5
370
    50
100
AcDbVertex
100
AcDb2dVertex
 10
49.511116
 20
51.945853
 30
0.0
  0
VERTEX
  5
20A
330
1FB
100
AcDbEntity
  8
001
 62
     5
370
    50
100
AcDbVertex
100
AcDb2dVertex
 10
49.531749
 20
51.938525
 30
0.0
  0
VERTEX
  5
20B
330
1FB
100
AcDbEntity
  8
001
 62
     5
370
    50
100
AcDbVertex
100
AcDb2dVertex
 10
49.554939
 20
51.933221
 30
0.0
  0
VERTEX
  5
20C
330
1FB
100
AcDbEntity
  8
001
 62
     5
370
    50
100
AcDbVertex
100
AcDb2dVertex
 10
49.581049
 20
51.930034
 30
0.0
  0
VERTEX
  5
20D
330
1FB
100
AcDbEntity
  8
001
 62
     5
370
    50
100
AcDbVertex
100
AcDb2dVertex
 10
49.600135
 20
51.928967
 30
0.0
  0
SEQEND
  5
1FC
330
1FB
100
AcDbEntity
  8
001
370
    50
  0
POLYLINE
  5
20E
330
64
100
AcDbEntity
  8
001
 62
     5
370
    50
100
AcDb2dPolyline
 66
     1
 10
0.0
 20
0.0
 30
0.0
  0
VERTEX
  5
210
330
20E
100
AcDbEntity
  8
001
 62
     5
370
    50
100
AcDbVertex
100
AcDb2dVertex
 10
49.794327
 20
52.301699
 30
0.0
  0
VERTEX
  5
211
330
20E
100
AcDbEntity
  8
001
 62
     5
370
    50
100
AcDbVertex
100
AcDb2dVertex
 10
49.78925
 20
52.283292
 30
0.0
  0
VERTEX
  5
212
330
20E
100
AcDbEntity
  8
001
 62
     5
370
    50
100
AcDbVertex
100
AcDb2dVertex
 10
49.783593
 20
52.257588
 30
0.0
  0
VERTEX
  5
213
330
20E
100
AcDbEntity
  8
001
 62
     5
370
    50
100
AcDbVertex
100
AcDb2dVertex
 10
49.780255
 20
52.232387
 30
0.0
  0
VERTEX
  5
214
330
20E
100
AcDbEntity
  8
001
 62
     5
370
    50
100
AcDbVertex
100
AcDb2dVertex
 10
49.779639
 20
52.208967
 30
0.0
  0
VERTEX
  5
215
330
20E
100
AcDbEntity
  8
001
 62
     5
370
    50
100
AcDbVertex
100
AcDb2dVertex
 10
49.780873
 20
52.184664
 30
0.0
  0
VERTEX
  5
216
330
20E
100
AcDbEntity
  8
001
 62
     5
370
    50
100
AcDbVertex
100
AcDb2dVertex
 10
49.783593
 20
52.160345
 30
0.0
  0
VERTEX
  5
217
330
20E
100
AcDbEntity
  8
001
 62
     5
370
    50
100
AcDbVertex
100
AcDb2dVertex
 10
49.793696
 20
52.115401
 30
0.0
  0
VERTEX
  5
218
330
20E
100
AcDbEntity
  8
001
 62
     5
370
    50
100
AcDbVertex
100
AcDb2dVertex
 10
49.814509
 20
52.068967
 30
0.0
  0
VERTEX
  5
219
330
20E
100
AcDbEntity
  8
001
 62
     5
370
    50
100
AcDbVertex
100
AcDb2dVertex
 10
49.824926
 20
52.051464
 30
0.0
  0
VERTEX
  5
21A
330
20E
100
AcDbEntity
  8
001
 62
     5
370
    50
100
AcDbVertex
100
AcDb2dVertex
 10
49.832787
 20
52.03941
 30
0.0
  0
SEQEND
  5
20F
330
20E
100
AcDbEntity
  8
001
370
    50
  0
POLYLINE
  5
21B
330
64
100
AcDbEntity
  8
001
 62
     5
370
    50
100
AcDb2dPolyline
 66
     1
 10
0.0
 20
0.0
 30
0.0
  0
VERTEX
  5
21D
330
21B
100
AcDbEntity
  8
001
 62
     5
370
    50
100
AcDbVertex
100
AcDb2dVertex
 10
49.561204
 20
53.503865
 30
0.0
  0
VERTEX
  5
21E
330
21B
100
AcDbEntity
  8
001
 62
     5
370
    50
100
AcDbVertex
100
AcDb2dVertex
 10
49.593987
 20
53.512299
 30
0.0
  0
VERTEX
  5
21F
330
21B
100
AcDbEntity
  8
001
 62
     5
370
    50
100
AcDbVertex
100
AcDb2dVertex
 10
49.638509
 20
53.526662
 30
0.0
  0
VERTEX
  5
220
330
21B
100
AcDbEntity
  8
001
 62
     5
370
    50
100
AcDbVertex
100
AcDb2dVertex
 10
49.680381
 20
53.544814
 30
0.0
  0
VERTEX
  5
221
330
21B
100
AcDbEntity
  8
001
 62
     5
370
    50
100
AcDbVertex
100
AcDb2dVertex
 10
49.71627
 20
53.56567
 30
0.0
  0
VERTEX
  5
222
330
21B
100
AcDbEntity
  8
001
 62
     5
370
    50
100
AcDbVertex
100
AcDb2dVertex
 10
49.816548
 20
53.649719
 30
0.0
  0
VERTEX
  5
223
330
21B
100
AcDbEntity
  8
001
 62
     5
370
    50
100
AcDbVertex
100
AcDb2dVertex
 10
49.896435
 20
53.759489
 30
0.0
  0
VERTEX
  5
224
330
21B
100
AcDbEntity
  8
001
 62
     5
370
    50
100
AcDbVertex
100
AcDb2dVertex
 10
49.933031
 20
53.845214
 30
0.0
  0
VERTEX
  5
225
330
21B
100
AcDbEntity
  8
001
 62
     5
370
    50
100
AcDbVertex
100
AcDb2dVertex
 10
49.954902
 20
53.9323
 30
0.0
  0
VERTEX
  5
226
330
21B
100
AcDbEntity
  8
001
 62
     5
370
    50
100
AcDbVertex
100
AcDb2dVertex
 10
49.960782
 20
53.975826
 30
0.0
  0
VERTEX
  5
227
330
21B
100
AcDbEntity
  8
001
 62
     5
370
    50
100
AcDbVertex
100
AcDb2dVertex
 10
49.96238
 20
54.024251
 30
0.0
  0
VERTEX
  5
228
330
21B
100
AcDbEntity
  8
001
 62
     5
370
    50
100
AcDbVertex
100
AcDb2dVertex
 10
49.96031
 20
54.06819
 30
0.0
  0
VERTEX
  5
229
330
21B
100
AcDbEntity
  8
001
 62
     5
370
    50
100
AcDbVertex
100
AcDb2dVertex
 10
49.957348
 20
54.099769
 30
0.0
  0
SEQEND
  5
21C
330
21B
100
AcDbEntity
  8
001
370
    50
  0
POLYLINE
  5
22A
330
64
100
AcDbEntity
  8
001
 62
     5
370
    50
100
AcDb2dPolyline
 66
     1
 10
0.0
 20
0.0
 30
0.0
  0
VERTEX
  5
22C
330
22A
100
AcDbEntity
  8
001
 62
     5
370
    50
100
AcDbVertex
100
AcDb2dVertex
 10
49.794327
 20
52.301699
 30
0.0
  0
VERTEX
  5
22D
330
22A
100
AcDbEntity
  8
001
 62
     5
370
    50
100
AcDbVertex
100
AcDb2dVertex
 10
49.803947
 20
52.336489
 30
0.0
  0
VERTEX
  5
22E
330
22A
100
AcDbEntity
  8
001
 62
     5
370
    50
100
AcDbVertex
100
AcDb2dVertex
 10
49.814627
 20
52.385119
 30
0.0
  0
VERTEX
  5
22F
330
22A
100
AcDbEntity
  8
001
 62
     5
370
    50
100
AcDbVertex
100
AcDb2dVertex
 10
49.82084
 20
52.432896
 30
0.0
  0
VERTEX
  5
230
330
22A
100
AcDbEntity
  8
001
 62
     5
370
    50
100
AcDbVertex
100
AcDb2dVertex
 10
49.822105
 20
52.47707
 30
0.0
  0
VERTEX
  5
231
330
22A
100
AcDbEntity
  8
001
 62
     5
370
    50
100
AcDbVertex
100
AcDb2dVertex
 10
49.820153
 20
52.522579
 30
0.0
  0
VERTEX
  5
232
330
22A
100
AcDbEntity
  8
001
 62
     5
370
    50
100
AcDbVertex
100
AcDb2dVertex
 10
49.814627
 20
52.56902
 30
0.0
  0
VERTEX
  5
233
330
22A
100
AcDbEntity
  8
001
 62
     5
370
    50
100
AcDbVertex
100
AcDb2dVertex
 10
49.791693
 20
52.658545
 30
0.0
  0
VERTEX
  5
234
330
22A
100
AcDbEntity
  8
001
 62
     5
370
    50
100
AcDbVertex
100
AcDb2dVertex
 10
49.75616
 20
52.741831
 30
0.0
  0
VERTEX
  5
235
330
22A
100
AcDbEntity
  8
001
 62
     5
370
    50
100
AcDbVertex
100
AcDb2dVertex
 10
49.685767
 20
52.847247
 30
0.0
  0
VERTEX
  5
236
330
22A
100
AcDbEntity
  8
001
 62
     5
370
    50
100
AcDbVertex
100
AcDb2dVertex
 10
49.575996
 20
52.93565
 30
0.0
  0
VERTEX
  5
237
330
22A
100
AcDbEntity
  8
001
 62
     5
370
    50
100
AcDbVertex
100
AcDb2dVertex
 10
49.539189
 20
52.955871
 30
0.0
  0
VERTEX
  5
238
330
22A
100
AcDbEntity
  8
001
 62
     5
370
    50
100
AcDbVertex
100
AcDb2dVertex
 10
49.512686
 20
52.968722
 30
0.0
  0
SEQEND
  5
22B
330
22A
100
AcDbEntity
  8
001
370
    50
  0
POLYLINE
  5
239
330
64
100
AcDbEntity
  8
001
 62
     5
370
    50
100
AcDb2dPolyline
 66
     1
 10
0.0
 20
0.0
 30
0.0
  0
VERTEX
  5
23B
330
239
100
AcDbEntity
  8
001
 62
     5
370
    50
100
AcDbVertex
100
AcDb2dVertex
 10
49.561204
 20
53.503865
 30
0.0
  0
VERTEX
  5
23C
330
239
100
AcDbEntity
  8
001
 62
     5
370
    50
100
AcDbVertex
100
AcDb2dVertex
 10
49.54387
 20
53.499402
 30
0.0
  0
VERTEX
  5
23D
330
239
100
AcDbEntity
  8
001
 62
     5
370
    50
100
AcDbVertex
100
AcDb2dVertex
 10
49.520327
 20
53.49181
 30
0.0
  0
VERTEX
  5
23E
330
239
100
AcDbEntity
  8
001
 62
     5
370
    50
100
AcDbVertex
100
AcDb2dVertex
 10
49.498184
 20
53.482227
 30
0.0
  0
VERTEX
  5
23F
330
239
100
AcDbEntity
  8
001
 62
     5
370
    50
100
AcDbVertex
100
AcDb2dVertex
 10
49.479209
 20
53.471183
 30
0.0
  0
VERTEX
  5
240
330
239
100
AcDbEntity
  8
001
 62
     5
370
    50
100
AcDbVertex
100
AcDb2dVertex
 10
49.426231
 20
53.426425
 30
0.0
  0
VERTEX
  5
241
330
239
100
AcDbEntity
  8
001
 62
     5
370
    50
100
AcDbVertex
100
AcDb2dVertex
 10
49.383942
 20
53.368696
 30
0.0
  0
VERTEX
  5
242
330
239
100
AcDbEntity
  8
001
 62
     5
370
    50
100
AcDbVertex
100
AcDb2dVertex
 10
49.36447
 20
53.324186
 30
0.0
  0
VERTEX
  5
243
330
239
100
AcDbEntity
  8
001
 62
     5
370
    50
100
AcDbVertex
100
AcDb2dVertex
 10
49.353026
 20
53.277318
 30
0.0
  0
VERTEX
  5
244
330
239
100
AcDbEntity
  8
001
 62
     5
370
    50
100
AcDbVertex
100
AcDb2dVertex
 10
49.350097
 20
53.253077
 30
0.0
  0
VERTEX
  5
245
330
239
100
AcDbEntity
  8
001
 62
     5
370
    50
100
AcDbVertex
100
AcDb2dVertex
 10
49.349072
 20
53.228696
 30
0.0
  0
VERTEX
  5
246
330
239
100
AcDbEntity
  8
001
 62
     5
370
    50
100
AcDbVertex
100
AcDb2dVertex
 10
49.350001
 20
53.204335
 30
0.0
  0
VERTEX
  5
247
330
239
100
AcDbEntity
  8
001
 62
     5
370
    50
100
AcDbVertex
100
AcDb2dVertex
 10
49.353026
 20
53.180075
 30
0.0
  0
VERTEX
  5
248
330
239
100
AcDbEntity
  8
001
 62
     5
370
    50
100
AcDbVertex
100
AcDb2dVertex
 10
49.365222
 20
53.132934
 30
0.0
  0
VERTEX
  5
249
330
239
100
AcDbEntity
  8
001
 62
     5
370
    50
100
AcDbVertex
100
AcDb2dVertex
 10
49.383942
 20
53.088696
 30
0.0
  0
VERTEX
  5
24A
330
239
100
AcDbEntity
  8
001
 62
     5
370
    50
100
AcDbVertex
100
AcDb2dVertex
 10
49.421139
 20
53.03288
 30
0.0
  0
VERTEX
  5
24B
330
239
100
AcDbEntity
  8
001
 62
     5
370
    50
100
AcDbVertex
100
AcDb2dVertex
 10
49.479209
 20
52.986209
 30
0.0
  0
VERTEX
  5
24C
330
239
100
AcDbEntity
  8
001
 62
     5
370
    50
100
AcDbVertex
100
AcDb2dVertex
 10
49.498672
 20
52.975519
 30
0.0
  0
VERTEX
  5
24D
330
239
100
AcDbEntity
  8
001
 62
     5
370
    50
100
AcDbVertex
100
AcDb2dVertex
 10
49.512686
 20
52.968722
 30
0.0
  0
SEQEND
  5
23A
330
239
100
AcDbEntity
  8
001
370
    50
  0
ENDBLK
  5
66
330
64
100
AcDbEntity
  8
0
100
AcDbBlockEnd
  0
BLOCK
  5
24F
330
24E
100
AcDbEntity
  8
0
100
AcDbBlockBegin
  2
C32GUX-2
 70
     0
 10
0.0
 20
0.0
 30
0.0
  3
C32GUX-2
  1

  0
LINE
  5
251
330
24E
100
AcDbEntity
  8
001
 62
    40
370
    50
100
AcDbLine
 10
56.41069
 20
54.310819
 30
0.0
 11
50.302696
 21
58.827322
 31
0.0
  0
LINE
  5
252
330
24E
100
AcDbEntity
  8
001
 62
    40
370
    50
100
AcDbLine
 10
49.896058
 20
59.21332
 30
0.0
 11
50.302696
 21
58.827322
 31
0.0
  0
LINE
  5
253
330
24E
100
AcDbEntity
  8
001
 62
    40
370
    50
100
AcDbLine
 10
56.41069
 20
54.310819
 30
0.0
 11
56.820063
 21
54.062905
 31
0.0
  0
POLYLINE
  5
254
330
24E
100
AcDbEntity
  8
001
 62
    40
370
    50
100
AcDb2dPolyline
 66
     1
 10
0.0
 20
0.0
 30
0.0
  0
VERTEX
  5
256
330
254
100
AcDbEntity
  8
001
 62
    40
370
    50
100
AcDbVertex
100
AcDb2dVertex
 10
56.889973
 20
53.502036
 30
0.0
  0
VERTEX
  5
257
330
254
100
AcDbEntity
  8
001
 62
    40
370
    50
100
AcDbVertex
100
AcDb2dVertex
 10
56.92036
 20
53.570215
 30
0.0
  0
VERTEX
  5
258
330
254
100
AcDbEntity
  8
001
 62
    40
370
    50
100
AcDbVertex
100
AcDb2dVertex
 10
56.944365
 20
53.640394
 30
0.0
  0
VERTEX
  5
259
330
254
100
AcDbEntity
  8
001
 62
    40
370
    50
100
AcDbVertex
100
AcDb2dVertex
 10
56.953578
 20
53.68573
 30
0.0
  0
VERTEX
  5
25A
330
254
100
AcDbEntity
  8
001
 62
    40
370
    50
100
AcDbVertex
100
AcDb2dVertex
 10
56.958208
 20
53.731829
 30
0.0
  0
VERTEX
  5
25B
330
254
100
AcDbEntity
  8
001
 62
    40
370
    50
100
AcDbVertex
100
AcDb2dVertex
 10
56.958847
 20
53.747815
 30
0.0
  0
VERTEX
  5
25C
330
254
100
AcDbEntity
  8
001
 62
    40
370
    50
100
AcDbVertex
100
AcDb2dVertex
 10
56.959234
 20
53.7638
 30
0.0
  0
SEQEND
  5
255
330
254
100
AcDbEntity
  8
001
370
    50
  0
POLYLINE
  5
25D
330
24E
100
AcDbEntity
  8
001
 62
    40
370
    50
100
AcDb2dPolyline
 66
     1
 10
0.0
 20
0.0
 30
0.0
  0
VERTEX
  5
25F
330
25D
100
AcDbEntity
  8
001
 62
    40
370
    50
100
AcDbVertex
100
AcDb2dVertex
 10
56.889973
 20
53.502036
 30
0.0
  0
VERTEX
  5
260
330
25D
100
AcDbEntity
  8
001
 62
    40
370
    50
100
AcDbVertex
100
AcDb2dVertex
 10
56.85999
 20
53.571532
 30
0.0
  0
VERTEX
  5
261
330
25D
100
AcDbEntity
  8
001
 62
    40
370
    50
100
AcDbVertex
100
AcDb2dVertex
 10
56.81334
 20
53.671755
 30
0.0
  0
VERTEX
  5
262
330
25D
100
AcDbEntity
  8
001
 62
    40
370
    50
100
AcDbVertex
100
AcDb2dVertex
 10
56.588854
 20
54.059678
 30
0.0
  0
VERTEX
  5
263
330
25D
100
AcDbEntity
  8
001
 62
    40
370
    50
100
AcDbVertex
100
AcDb2dVertex
 10
56.41069
 20
54.310819
 30
0.0
  0
SEQEND
  5
25E
330
25D
100
AcDbEntity
  8
001
370
    50
  0
POLYLINE
  5
264
330
24E
100
AcDbEntity
  8
001
 62
    40
370
    50
100
AcDb2dPolyline
 66
     1
 10
0.0
 20
0.0
 30
0.0
  0
VERTEX
  5
266
330
264
100
AcDbEntity
  8
001
 62
    40
370
    50
100
AcDbVertex
100
AcDb2dVertex
 10
54.256471
 20
51.952758
 30
0.0
  0
VERTEX
  5
267
330
264
100
AcDbEntity
  8
001
 62
    40
370
    50
100
AcDbVertex
100
AcDb2dVertex
 10
54.489793
 20
51.905976
 30
0.0
  0
VERTEX
  5
268
330
264
100
AcDbEntity
  8
001
 62
    40
370
    50
100
AcDbVertex
100
AcDb2dVertex
 10
54.833041
 20
51.852061
 30
0.0
  0
VERTEX
  5
269
330
264
100
AcDbEntity
  8
001
 62
    40
370
    50
100
AcDbVertex
100
AcDb2dVertex
 10
55.146041
 20
51.822099
 30
0.0
  0
VERTEX
  5
26A
330
264
100
AcDbEntity
  8
001
 62
    40
370
    50
100
AcDbVertex
100
AcDb2dVertex
 10
55.361076
 20
51.811303
 30
0.0
  0
SEQEND
  5
265
330
264
100
AcDbEntity
  8
001
370
    50
  0
LINE
  5
26B
330
24E
100
AcDbEntity
  8
001
 62
    40
370
    50
100
AcDbLine
 10
52.479049
 20
53.267058
 30
0.0
 11
54.256471
 21
51.952758
 31
0.0
  0
POLYLINE
  5
26C
330
24E
100
AcDbEntity
  8
001
 62
    40
370
    50
100
AcDb2dPolyline
 66
     1
 10
0.0
 20
0.0
 30
0.0
  0
VERTEX
  5
26E
330
26C
100
AcDbEntity
  8
001
 62
    40
370
    50
100
AcDbVertex
100
AcDb2dVertex
 10
52.479049
 20
53.267058
 30
0.0
  0
VERTEX
  5
26F
330
26C
100
AcDbEntity
  8
001
 62
    40
370
    50
100
AcDbVertex
100
AcDb2dVertex
 10
52.451087
 20
53.41016
 30
0.0
  0
VERTEX
  5
270
330
26C
100
AcDbEntity
  8
001
 62
    40
370
    50
100
AcDbVertex
100
AcDb2dVertex
 10
52.418847
 20
53.552254
 30
0.0
  0
VERTEX
  5
271
330
26C
100
AcDbEntity
  8
001
 62
    40
370
    50
100
AcDbVertex
100
AcDb2dVertex
 10
52.376624
 20
53.699393
 30
0.0
  0
VERTEX
  5
272
330
26C
100
AcDbEntity
  8
001
 62
    40
370
    50
100
AcDbVertex
100
AcDb2dVertex
 10
52.325525
 20
53.84378
 30
0.0
  0
VERTEX
  5
273
330
26C
100
AcDbEntity
  8
001
 62
    40
370
    50
100
AcDbVertex
100
AcDb2dVertex
 10
52.266108
 20
53.984662
 30
0.0
  0
VERTEX
  5
274
330
26C
100
AcDbEntity
  8
001
 62
    40
370
    50
100
AcDbVertex
100
AcDb2dVertex
 10
52.19836
 20
54.121695
 30
0.0
  0
VERTEX
  5
275
330
26C
100
AcDbEntity
  8
001
 62
    40
370
    50
100
AcDbVertex
100
AcDb2dVertex
 10
52.120171
 20
54.257726
 30
0.0
  0
VERTEX
  5
276
330
26C
100
AcDbEntity
  8
001
 62
    40
370
    50
100
AcDbVertex
100
AcDb2dVertex
 10
52.033396
 20
54.388479
 30
0.0
  0
VERTEX
  5
277
330
26C
100
AcDbEntity
  8
001
 62
    40
370
    50
100
AcDbVertex
100
AcDb2dVertex
 10
51.937169
 20
54.514593
 30
0.0
  0
VERTEX
  5
278
330
26C
100
AcDbEntity
  8
001
 62
    40
370
    50
100
AcDbVertex
100
AcDb2dVertex
 10
51.832472
 20
54.633721
 30
0.0
  0
VERTEX
  5
279
330
26C
100
AcDbEntity
  8
001
 62
    40
370
    50
100
AcDbVertex
100
AcDb2dVertex
 10
51.731419
 20
54.734017
 30
0.0
  0
VERTEX
  5
27A
330
26C
100
AcDbEntity
  8
001
 62
    40
370
    50
100
AcDbVertex
100
AcDb2dVertex
 10
51.624258
 20
54.827776
 30
0.0
  0
VERTEX
  5
27B
330
26C
100
AcDbEntity
  8
001
 62
    40
370
    50
100
AcDbVertex
100
AcDb2dVertex
 10
51.510117
 20
54.915953
 30
0.0
  0
VERTEX
  5
27C
330
26C
100
AcDbEntity
  8
001
 62
    40
370
    50
100
AcDbVertex
100
AcDb2dVertex
 10
51.390869
 20
54.997089
 30
0.0
  0
VERTEX
  5
27D
330
26C
100
AcDbEntity
  8
001
 62
    40
370
    50
100
AcDbVertex
100
AcDb2dVertex
 10
51.266215
 20
55.071398
 30
0.0
  0
VERTEX
  5
27E
330
26C
100
AcDbEntity
  8
001
 62
    40
370
    50
100
AcDbVertex
100
AcDb2dVertex
 10
51.13734
 20
55.138093
 30
0.0
  0
VERTEX
  5
27F
330
26C
100
AcDbEntity
  8
001
 62
    40
370
    50
100
AcDbVertex
100
AcDb2dVertex
 10
51.012523
 20
55.193811
 30
0.0
  0
VERTEX
  5
280
330
26C
100
AcDbEntity
  8
001
 62
    40
370
    50
100
AcDbVertex
100
AcDb2dVertex
 10
50.884953
 20
55.242921
 30
0.0
  0
VERTEX
  5
281
330
26C
100
AcDbEntity
  8
001
 62
    40
370
    50
100
AcDbVertex
100
AcDb2dVertex
 10
50.753396
 20
55.286352
 30
0.0
  0
VERTEX
  5
282
330
26C
100
AcDbEntity
  8
001
 62
    40
370
    50
100
AcDbVertex
100
AcDb2dVertex
 10
50.619995
 20
55.323737
 30
0.0
  0
VERTEX
  5
283
330
26C
100
AcDbEntity
  8
001
 62
    40
370
    50
100
AcDbVertex
100
AcDb2dVertex
 10
50.484201
 20
55.355597
 30
0.0
  0
VERTEX
  5
284
330
26C
100
AcDbEntity
  8
001
 62
    40
370
    50
100
AcDbVertex
100
AcDb2dVertex
 10
50.347238
 20
55.381958
 30
0.0
  0
VERTEX
  5
285
330
26C
100
AcDbEntity
  8
001
 62
    40
370
    50
100
AcDbVertex
100
AcDb2dVertex
 10
50.210132
 20
55.403101
 30
0.0
  0
VERTEX
  5
286
330
26C
100
AcDbEntity
  8
001
 62
    40
370
    50
100
AcDbVertex
100
AcDb2dVertex
 10
50.072416
 20
55.41988
 30
0.0
  0
VERTEX
  5
287
330
26C
100
AcDbEntity
  8
001
 62
    40
370
    50
100
AcDbVertex
100
AcDb2dVertex
 10
49.933802
 20
55.433051
 30
0.0
  0
VERTEX
  5
288
330
26C
100
AcDbEntity
  8
001
 62
    40
370
    50
100
AcDbVertex
100
AcDb2dVertex
 10
49.794928
 20
55.442975
 30
0.0
  0
VERTEX
  5
289
330
26C
100
AcDbEntity
  8
001
 62
    40
370
    50
100
AcDbVertex
100
AcDb2dVertex
 10
49.656962
 20
55.450148
 30
0.0
  0
VERTEX
  5
28A
330
26C
100
AcDbEntity
  8
001
 62
    40
370
    50
100
AcDbVertex
100
AcDb2dVertex
 10
49.518921
 20
55.455899
 30
0.0
  0
SEQEND
  5
26D
330
26C
100
AcDbEntity
  8
001
370
    50
  0
LINE
  5
28B
330
24E
100
AcDbEntity
  8
001
 62
    40
370
    50
100
AcDbLine
 10
48.148478
 20
56.469262
 30
0.0
 11
49.518921
 21
55.455899
 31
0.0
  0
POLYLINE
  5
28C
330
24E
100
AcDbEntity
  8
001
 62
    40
370
    50
100
AcDb2dPolyline
 66
     1
 10
0.0
 20
0.0
 30
0.0
  0
VERTEX
  5
28E
330
28C
100
AcDbEntity
  8
001
 62
    40
370
    50
100
AcDbVertex
100
AcDb2dVertex
 10
47.951942
 20
57.289924
 30
0.0
  0
VERTEX
  5
28F
330
28C
100
AcDbEntity
  8
001
 62
    40
370
    50
100
AcDbVertex
100
AcDb2dVertex
 10
47.973849
 20
57.126322
 30
0.0
  0
VERTEX
  5
290
330
28C
100
AcDbEntity
  8
001
 62
    40
370
    50
100
AcDbVertex
100
AcDb2dVertex
 10
48.020014
 20
56.889896
 30
0.0
  0
VERTEX
  5
291
330
28C
100
AcDbEntity
  8
001
 62
    40
370
    50
100
AcDbVertex
100
AcDb2dVertex
 10
48.090521
 20
56.638542
 30
0.0
  0
VERTEX
  5
292
330
28C
100
AcDbEntity
  8
001
 62
    40
370
    50
100
AcDbVertex
100
AcDb2dVertex
 10
48.148478
 20
56.469262
 30
0.0
  0
SEQEND
  5
28D
330
28C
100
AcDbEntity
  8
001
370
    50
  0
POLYLINE
  5
293
330
24E
100
AcDbEntity
  8
001
 62
    40
370
    50
100
AcDb2dPolyline
 66
     1
 10
0.0
 20
0.0
 30
0.0
  0
VERTEX
  5
295
330
293
100
AcDbEntity
  8
001
 62
    40
370
    50
100
AcDbVertex
100
AcDb2dVertex
 10
47.951942
 20
57.289924
 30
0.0
  0
VERTEX
  5
296
330
293
100
AcDbEntity
  8
001
 62
    40
370
    50
100
AcDbVertex
100
AcDb2dVertex
 10
48.031302
 20
57.355783
 30
0.0
  0
VERTEX
  5
297
330
293
100
AcDbEntity
  8
001
 62
    40
370
    50
100
AcDbVertex
100
AcDb2dVertex
 10
48.141062
 20
57.448805
 30
0.0
  0
VERTEX
  5
298
330
293
100
AcDbEntity
  8
001
 62
    40
370
    50
100
AcDbVertex
100
AcDb2dVertex
 10
48.293584
 20
57.583356
 30
0.0
  0
VERTEX
  5
299
330
293
100
AcDbEntity
  8
001
 62
    40
370
    50
100
AcDbVertex
100
AcDb2dVertex
 10
48.42813
 20
57.709382
 30
0.0
  0
VERTEX
  5
29A
330
293
100
AcDbEntity
  8
001
 62
    40
370
    50
100
AcDbVertex
100
AcDb2dVertex
 10
48.565832
 20
57.844185
 30
0.0
  0
VERTEX
  5
29B
330
293
100
AcDbEntity
  8
001
 62
    40
370
    50
100
AcDbVertex
100
AcDb2dVertex
 10
48.703075
 20
57.98272
 30
0.0
  0
VERTEX
  5
29C
330
293
100
AcDbEntity
  8
001
 62
    40
370
    50
100
AcDbVertex
100
AcDb2dVertex
 10
48.943338
 20
58.239241
 30
0.0
  0
VERTEX
  5
29D
330
293
100
AcDbEntity
  8
001
 62
    40
370
    50
100
AcDbVertex
100
AcDb2dVertex
 10
49.183803
 20
58.534321
 30
0.0
  0
VERTEX
  5
29E
330
293
100
AcDbEntity
  8
001
 62
    40
370
    50
100
AcDbVertex
100
AcDb2dVertex
 10
49.363462
 20
58.7838
 30
0.0
  0
VERTEX
  5
29F
330
293
100
AcDbEntity
  8
001
 62
    40
370
    50
100
AcDbVertex
100
AcDb2dVertex
 10
49.485667
 20
58.968777
 30
0.0
  0
SEQEND
  5
294
330
293
100
AcDbEntity
  8
001
370
    50
  0
POLYLINE
  5
2A0
330
24E
100
AcDbEntity
  8
001
 62
    40
370
    50
100
AcDb2dPolyline
 66
     1
 10
0.0
 20
0.0
 30
0.0
  0
VERTEX
  5
2A2
330
2A0
100
AcDbEntity
  8
001
 62
    40
370
    50
100
AcDbVertex
100
AcDb2dVertex
 10
50.302696
 20
58.827322
 30
0.0
  0
VERTEX
  5
2A3
330
2A0
100
AcDbEntity
  8
001
 62
    40
370
    50
100
AcDbVertex
100
AcDb2dVertex
 10
50.133031
 20
58.874193
 30
0.0
  0
VERTEX
  5
2A4
330
2A0
100
AcDbEntity
  8
001
 62
    40
370
    50
100
AcDbVertex
100
AcDb2dVertex
 10
49.881952
 20
58.928019
 30
0.0
  0
VERTEX
  5
2A5
330
2A0
100
AcDbEntity
  8
001
 62
    40
370
    50
100
AcDbVertex
100
AcDb2dVertex
 10
49.647382
 20
58.958126
 30
0.0
  0
VERTEX
  5
2A6
330
2A0
100
AcDbEntity
  8
001
 62
    40
370
    50
100
AcDbVertex
100
AcDb2dVertex
 10
49.485667
 20
58.968777
 30
0.0
  0
SEQEND
  5
2A1
330
2A0
100
AcDbEntity
  8
001
370
    50
  0
POLYLINE
  5
2A7
330
24E
100
AcDbEntity
  8
001
 62
    40
370
    50
100
AcDb2dPolyline
 66
     1
 10
0.0
 20
0.0
 30
0.0
  0
VERTEX
  5
2A9
330
2A7
100
AcDbEntity
  8
001
 62
    40
370
    50
100
AcDbVertex
100
AcDb2dVertex
 10
56.811069
 20
53.357404
 30
0.0
  0
VERTEX
  5
2AA
330
2A7
100
AcDbEntity
  8
001
 62
    40
370
    50
100
AcDbVertex
100
AcDb2dVertex
 10
56.833129
 20
53.392819
 30
0.0
  0
VERTEX
  5
2AB
330
2A7
100
AcDbEntity
  8
001
 62
    40
370
    50
100
AcDbVertex
100
AcDb2dVertex
 10
56.854019
 20
53.428872
 30
0.0
  0
VERTEX
  5
2AC
330
2A7
100
AcDbEntity
  8
001
 62
    40
370
    50
100
AcDbVertex
100
AcDb2dVertex
 10
56.872556
 20
53.465149
 30
0.0
  0
VERTEX
  5
2AD
330
2A7
100
AcDbEntity
  8
001
 62
    40
370
    50
100
AcDbVertex
100
AcDb2dVertex
 10
56.889973
 20
53.502036
 30
0.0
  0
SEQEND
  5
2A8
330
2A7
100
AcDbEntity
  8
001
370
    50
  0
POLYLINE
  5
2AE
330
24E
100
AcDbEntity
  8
001
 62
    40
370
    50
100
AcDb2dPolyline
 66
     1
 10
0.0
 20
0.0
 30
0.0
  0
VERTEX
  5
2B0
330
2AE
100
AcDbEntity
  8
001
 62
    40
370
    50
100
AcDbVertex
100
AcDb2dVertex
 10
55.361076
 20
51.811303
 30
0.0
  0
VERTEX
  5
2B1
330
2AE
100
AcDbEntity
  8
001
 62
    40
370
    50
100
AcDbVertex
100
AcDb2dVertex
 10
55.440441
 20
51.877166
 30
0.0
  0
VERTEX
  5
2B2
330
2AE
100
AcDbEntity
  8
001
 62
    40
370
    50
100
AcDbVertex
100
AcDb2dVertex
 10
55.550197
 20
51.970184
 30
0.0
  0
VERTEX
  5
2B3
330
2AE
100
AcDbEntity
  8
001
 62
    40
370
    50
100
AcDbVertex
100
AcDb2dVertex
 10
55.702671
 20
52.104696
 30
0.0
  0
VERTEX
  5
2B4
330
2AE
100
AcDbEntity
  8
001
 62
    40
370
    50
100
AcDbVertex
100
AcDb2dVertex
 10
55.837265
 20
52.230761
 30
0.0
  0
VERTEX
  5
2B5
330
2AE
100
AcDbEntity
  8
001
 62
    40
370
    50
100
AcDbVertex
100
AcDb2dVertex
 10
55.975159
 20
52.365719
 30
0.0
  0
VERTEX
  5
2B6
330
2AE
100
AcDbEntity
  8
001
 62
    40
370
    50
100
AcDbVertex
100
AcDb2dVertex
 10
56.11221
 20
52.504099
 30
0.0
  0
VERTEX
  5
2B7
330
2AE
100
AcDbEntity
  8
001
 62
    40
370
    50
100
AcDbVertex
100
AcDb2dVertex
 10
56.350674
 20
52.759163
 30
0.0
  0
VERTEX
  5
2B8
330
2AE
100
AcDbEntity
  8
001
 62
    40
370
    50
100
AcDbVertex
100
AcDb2dVertex
 10
56.592938
 20
53.0557
 30
0.0
  0
VERTEX
  5
2B9
330
2AE
100
AcDbEntity
  8
001
 62
    40
370
    50
100
AcDbVertex
100
AcDb2dVertex
 10
56.722092
 20
53.230435
 30
0.0
  0
VERTEX
  5
2BA
330
2AE
100
AcDbEntity
  8
001
 62
    40
370
    50
100
AcDbVertex
100
AcDb2dVertex
 10
56.811069
 20
53.357404
 30
0.0
  0
SEQEND
  5
2AF
330
2AE
100
AcDbEntity
  8
001
370
    50
  0
POLYLINE
  5
2BB
330
24E
100
AcDbEntity
  8
001
 62
    40
370
    50
100
AcDb2dPolyline
 66
     1
 10
0.0
 20
0.0
 30
0.0
  0
VERTEX
  5
2BD
330
2BB
100
AcDbEntity
  8
001
 62
    40
370
    50
100
AcDbVertex
100
AcDb2dVertex
 10
56.942687
 20
53.888171
 30
0.0
  0
VERTEX
  5
2BE
330
2BB
100
AcDbEntity
  8
001
 62
    40
370
    50
100
AcDbVertex
100
AcDb2dVertex
 10
56.932848
 20
53.916796
 30
0.0
  0
VERTEX
  5
2BF
330
2BB
100
AcDbEntity
  8
001
 62
    40
370
    50
100
AcDbVertex
100
AcDb2dVertex
 10
56.9216
 20
53.944956
 30
0.0
  0
VERTEX
  5
2C0
330
2BB
100
AcDbEntity
  8
001
 62
    40
370
    50
100
AcDbVertex
100
AcDb2dVertex
 10
56.899067
 20
53.986214
 30
0.0
  0
VERTEX
  5
2C1
330
2BB
100
AcDbEntity
  8
001
 62
    40
370
    50
100
AcDbVertex
100
AcDb2dVertex
 10
56.869627
 20
54.022547
 30
0.0
  0
VERTEX
  5
2C2
330
2BB
100
AcDbEntity
  8
001
 62
    40
370
    50
100
AcDbVertex
100
AcDb2dVertex
 10
56.845678
 20
54.04362
 30
0.0
  0
VERTEX
  5
2C3
330
2BB
100
AcDbEntity
  8
001
 62
    40
370
    50
100
AcDbVertex
100
AcDb2dVertex
 10
56.820063
 20
54.062905
 30
0.0
  0
SEQEND
  5
2BC
330
2BB
100
AcDbEntity
  8
001
370
    50
  0
POLYLINE
  5
2C4
330
24E
100
AcDbEntity
  8
001
 62
    40
370
    50
100
AcDb2dPolyline
 66
     1
 10
0.0
 20
0.0
 30
0.0
  0
VERTEX
  5
2C6
330
2C4
100
AcDbEntity
  8
001
 62
    40
370
    50
100
AcDbVertex
100
AcDb2dVertex
 10
56.959234
 20
53.7638
 30
0.0
  0
VERTEX
  5
2C7
330
2C4
100
AcDbEntity
  8
001
 62
    40
370
    50
100
AcDbVertex
100
AcDb2dVertex
 10
56.958134
 20
53.794179
 30
0.0
  0
VERTEX
  5
2C8
330
2C4
100
AcDbEntity
  8
001
 62
    40
370
    50
100
AcDbVertex
100
AcDb2dVertex
 10
56.955536
 20
53.824362
 30
0.0
  0
VERTEX
  5
2C9
330
2C4
100
AcDbEntity
  8
001
 62
    40
370
    50
100
AcDbVertex
100
AcDb2dVertex
 10
56.949973
 20
53.856379
 30
0.0
  0
VERTEX
  5
2CA
330
2C4
100
AcDbEntity
  8
001
 62
    40
370
    50
100
AcDbVertex
100
AcDb2dVertex
 10
56.942687
 20
53.888171
 30
0.0
  0
SEQEND
  5
2C5
330
2C4
100
AcDbEntity
  8
001
370
    50
  0
POLYLINE
  5
2CB
330
24E
100
AcDbEntity
  8
001
 62
    40
370
    50
100
AcDb2dPolyline
 66
     1
 10
0.0
 20
0.0
 30
0.0
  0
VERTEX
  5
2CD
330
2CB
100
AcDbEntity
  8
001
 62
    40
370
    50
100
AcDbVertex
100
AcDb2dVertex
 10
56.305277
 20
51.718987
 30
0.0
  0
VERTEX
  5
2CE
330
2CB
100
AcDbEntity
  8
001
 62
    40
370
    50
100
AcDbVertex
100
AcDb2dVertex
 10
56.458323
 20
51.91898
 30
0.0
  0
VERTEX
  5
2CF
330
2CB
100
AcDbEntity
  8
001
 62
    40
370
    50
100
AcDbVertex
100
AcDb2dVertex
 10
56.647537
 20
52.207168
 30
0.0
  0
VERTEX
  5
2D0
330
2CB
100
AcDbEntity
  8
001
 62
    40
370
    50
100
AcDbVertex
100
AcDb2dVertex
 10
56.832017
 20
52.595835
 30
0.0
  0
VERTEX
  5
2D1
330
2CB
100
AcDbEntity
  8
001
 62
    40
370
    50
100
AcDbVertex
100
AcDb2dVertex
 10
56.923573
 20
53.023047
 30
0.0
  0
VERTEX
  5
2D2
330
2CB
100
AcDbEntity
  8
001
 62
    40
370
    50
100
AcDbVertex
100
AcDb2dVertex
 10
56.949106
 20
53.274308
 30
0.0
  0
VERTEX
  5
2D3
330
2CB
100
AcDbEntity
  8
001
 62
    40
370
    50
100
AcDbVertex
100
AcDb2dVertex
 10
56.958878
 20
53.455822
 30
0.0
  0
SEQEND
  5
2CC
330
2CB
100
AcDbEntity
  8
001
370
    50
  0
POLYLINE
  5
2D4
330
24E
100
AcDbEntity
  8
001
 62
    40
370
    50
100
AcDb2dPolyline
 66
     1
 10
0.0
 20
0.0
 30
0.0
  0
VERTEX
  5
2D6
330
2D4
100
AcDbEntity
  8
001
 62
    40
370
    50
100
AcDbVertex
100
AcDb2dVertex
 10
56.942639
 20
53.88834
 30
0.0
  0
VERTEX
  5
2D7
330
2D4
100
AcDbEntity
  8
001
 62
    40
370
    50
100
AcDbVertex
100
AcDb2dVertex
 10
56.922215
 20
53.960111
 30
0.0
  0
VERTEX
  5
2D8
330
2D4
100
AcDbEntity
  8
001
 62
    40
370
    50
100
AcDbVertex
100
AcDb2dVertex
 10
56.90179
 20
54.031881
 30
0.0
  0
VERTEX
  5
2D9
330
2D4
100
AcDbEntity
  8
001
 62
    40
370
    50
100
AcDbVertex
100
AcDb2dVertex
 10
56.879801
 20
54.109149
 30
0.0
  0
VERTEX
  5
2DA
330
2D4
100
AcDbEntity
  8
001
 62
    40
370
    50
100
AcDbVertex
100
AcDb2dVertex
 10
56.857813
 20
54.186416
 30
0.0
  0
SEQEND
  5
2D5
330
2D4
100
AcDbEntity
  8
001
370
    50
  0
POLYLINE
  5
2DB
330
24E
100
AcDbEntity
  8
001
 62
    40
370
    50
100
AcDb2dPolyline
 66
     1
 10
0.0
 20
0.0
 30
0.0
  0
VERTEX
  5
2DD
330
2DB
100
AcDbEntity
  8
001
 62
    40
370
    50
100
AcDbVertex
100
AcDb2dVertex
 10
56.958877
 20
53.455321
 30
0.0
  0
VERTEX
  5
2DE
330
2DB
100
AcDbEntity
  8
001
 62
    40
370
    50
100
AcDbVertex
100
AcDb2dVertex
 10
56.958971
 20
53.536474
 30
0.0
  0
VERTEX
  5
2DF
330
2DB
100
AcDbEntity
  8
001
 62
    40
370
    50
100
AcDbVertex
100
AcDb2dVertex
 10
56.959065
 20
53.617628
 30
0.0
  0
VERTEX
  5
2E0
330
2DB
100
AcDbEntity
  8
001
 62
    40
370
    50
100
AcDbVertex
100
AcDb2dVertex
 10
56.95915
 20
53.690759
 30
0.0
  0
VERTEX
  5
2E1
330
2DB
100
AcDbEntity
  8
001
 62
    40
370
    50
100
AcDbVertex
100
AcDb2dVertex
 10
56.959234
 20
53.76389
 30
0.0
  0
SEQEND
  5
2DC
330
2DB
100
AcDbEntity
  8
001
370
    50
  0
POLYLINE
  5
2E2
330
24E
100
AcDbEntity
  8
001
 62
    40
370
    50
100
AcDb2dPolyline
 66
     1
 10
0.0
 20
0.0
 30
0.0
  0
VERTEX
  5
2E4
330
2E2
100
AcDbEntity
  8
001
 62
    40
370
    50
100
AcDbVertex
100
AcDb2dVertex
 10
56.857909
 20
54.186078
 30
0.0
  0
VERTEX
  5
2E5
330
2E2
100
AcDbEntity
  8
001
 62
    40
370
    50
100
AcDbVertex
100
AcDb2dVertex
 10
56.784661
 20
54.403504
 30
0.0
  0
VERTEX
  5
2E6
330
2E2
100
AcDbEntity
  8
001
 62
    40
370
    50
100
AcDbVertex
100
AcDb2dVertex
 10
56.647537
 20
54.707168
 30
0.0
  0
VERTEX
  5
2E7
330
2E2
100
AcDbEntity
  8
001
 62
    40
370
    50
100
AcDbVertex
100
AcDb2dVertex
 10
56.280949
 20
55.211874
 30
0.0
  0
VERTEX
  5
2E8
330
2E2
100
AcDbEntity
  8
001
 62
    40
370
    50
100
AcDbVertex
100
AcDb2dVertex
 10
55.964618
 20
55.50753
 30
0.0
  0
SEQEND
  5
2E3
330
2E2
100
AcDbEntity
  8
001
370
    50
  0
LINE
  5
2E9
330
24E
100
AcDbEntity
  8
001
 62
    40
370
    50
100
AcDbLine
 10
51.213411
 20
47.271168
 30
0.0
 11
51.01251
 21
47.051256
 31
0.0
  0
POLYLINE
  5
2EA
330
24E
100
AcDbEntity
  8
001
 62
    40
370
    50
100
AcDb2dPolyline
 66
     1
 10
0.0
 20
0.0
 30
0.0
  0
VERTEX
  5
2EC
330
2EA
100
AcDbEntity
  8
001
 62
    40
370
    50
100
AcDbVertex
100
AcDb2dVertex
 10
51.213411
 20
47.271168
 30
0.0
  0
VERTEX
  5
2ED
330
2EA
100
AcDbEntity
  8
001
 62
    40
370
    50
100
AcDbVertex
100
AcDb2dVertex
 10
51.292601
 20
47.336819
 30
0.0
  0
VERTEX
  5
2EE
330
2EA
100
AcDbEntity
  8
001
 62
    40
370
    50
100
AcDbVertex
100
AcDb2dVertex
 10
51.402532
 20
47.430049
 30
0.0
  0
VERTEX
  5
2EF
330
2EA
100
AcDbEntity
  8
001
 62
    40
370
    50
100
AcDbVertex
100
AcDb2dVertex
 10
51.556699
 20
47.566601
 30
0.0
  0
VERTEX
  5
2F0
330
2EA
100
AcDbEntity
  8
001
 62
    40
370
    50
100
AcDbVertex
100
AcDb2dVertex
 10
51.6896
 20
47.690626
 30
0.0
  0
VERTEX
  5
2F1
330
2EA
100
AcDbEntity
  8
001
 62
    40
370
    50
100
AcDbVertex
100
AcDb2dVertex
 10
51.820683
 20
47.817377
 30
0.0
  0
VERTEX
  5
2F2
330
2EA
100
AcDbEntity
  8
001
 62
    40
370
    50
100
AcDbVertex
100
AcDb2dVertex
 10
51.964545
 20
47.963964
 30
0.0
  0
VERTEX
  5
2F3
330
2EA
100
AcDbEntity
  8
001
 62
    40
370
    50
100
AcDbVertex
100
AcDb2dVertex
 10
52.08776
 20
48.095721
 30
0.0
  0
VERTEX
  5
2F4
330
2EA
100
AcDbEntity
  8
001
 62
    40
370
    50
100
AcDbVertex
100
AcDb2dVertex
 10
52.174859
 20
48.191559
 30
0.0
  0
SEQEND
  5
2EB
330
2EA
100
AcDbEntity
  8
001
370
    50
  0
LINE
  5
2F5
330
24E
100
AcDbEntity
  8
001
 62
    40
370
    50
100
AcDbLine
 10
55.361076
 20
51.811303
 30
0.0
 11
54.809759
 21
51.207818
 31
0.0
  0
LINE
  5
2F6
330
24E
100
AcDbEntity
  8
001
 62
    40
370
    50
100
AcDbLine
 10
52.041149
 20
47.051256
 30
0.0
 11
52.220692
 21
47.247788
 31
0.0
  0
POLYLINE
  5
2F7
330
24E
100
AcDbEntity
  8
001
 62
    40
370
    50
100
AcDb2dPolyline
 66
     1
 10
0.0
 20
0.0
 30
0.0
  0
VERTEX
  5
2F9
330
2F7
100
AcDbEntity
  8
001
 62
    40
370
    50
100
AcDbVertex
100
AcDb2dVertex
 10
52.72519
 20
49.002676
 30
0.0
  0
VERTEX
  5
2FA
330
2F7
100
AcDbEntity
  8
001
 62
    40
370
    50
100
AcDbVertex
100
AcDb2dVertex
 10
52.701665
 20
49.055377
 30
0.0
  0
VERTEX
  5
2FB
330
2F7
100
AcDbEntity
  8
001
 62
    40
370
    50
100
AcDbVertex
100
AcDb2dVertex
 10
52.665675
 20
49.131619
 30
0.0
  0
VERTEX
  5
2FC
330
2F7
100
AcDbEntity
  8
001
 62
    40
370
    50
100
AcDbVertex
100
AcDb2dVertex
 10
52.441079
 20
49.519512
 30
0.0
  0
VERTEX
  5
2FD
330
2F7
100
AcDbEntity
  8
001
 62
    40
370
    50
100
AcDbVertex
100
AcDb2dVertex
 10
52.263024
 20
49.770684
 30
0.0
  0
SEQEND
  5
2F8
330
2F7
100
AcDbEntity
  8
001
370
    50
  0
LINE
  5
2FE
330
24E
100
AcDbEntity
  8
001
 62
    40
370
    50
100
AcDbLine
 10
54.256471
 20
51.952758
 30
0.0
 11
52.263024
 21
49.770684
 31
0.0
  0
LINE
  5
2FF
330
24E
100
AcDbEntity
  8
001
 62
    40
370
    50
100
AcDbLine
 10
52.263024
 20
49.770684
 30
0.0
 11
50.892581
 21
50.784046
 31
0.0
  0
POLYLINE
  5
300
330
24E
100
AcDbEntity
  8
001
 62
    40
370
    50
100
AcDb2dPolyline
 66
     1
 10
0.0
 20
0.0
 30
0.0
  0
VERTEX
  5
302
330
300
100
AcDbEntity
  8
001
 62
    40
370
    50
100
AcDbVertex
100
AcDb2dVertex
 10
50.892581
 20
50.784046
 30
0.0
  0
VERTEX
  5
303
330
300
100
AcDbEntity
  8
001
 62
    40
370
    50
100
AcDbVertex
100
AcDb2dVertex
 10
50.930587
 20
50.797564
 30
0.0
  0
VERTEX
  5
304
330
300
100
AcDbEntity
  8
001
 62
    40
370
    50
100
AcDbVertex
100
AcDb2dVertex
 10
50.984669
 20
50.817726
 30
0.0
  0
VERTEX
  5
305
330
300
100
AcDbEntity
  8
001
 62
    40
370
    50
100
AcDbVertex
100
AcDb2dVertex
 10
51.182351
 20
50.904438
 30
0.0
  0
VERTEX
  5
306
330
300
100
AcDbEntity
  8
001
 62
    40
370
    50
100
AcDbVertex
100
AcDb2dVertex
 10
51.344454
 20
50.99821
 30
0.0
  0
VERTEX
  5
307
330
300
100
AcDbEntity
  8
001
 62
    40
370
    50
100
AcDbVertex
100
AcDb2dVertex
 10
51.804199
 20
51.383471
 30
0.0
  0
VERTEX
  5
308
330
300
100
AcDbEntity
  8
001
 62
    40
370
    50
100
AcDbVertex
100
AcDb2dVertex
 10
52.178042
 20
51.894972
 30
0.0
  0
VERTEX
  5
309
330
300
100
AcDbEntity
  8
001
 62
    40
370
    50
100
AcDbVertex
100
AcDb2dVertex
 10
52.348371
 20
52.294214
 30
0.0
  0
VERTEX
  5
30A
330
300
100
AcDbEntity
  8
001
 62
    40
370
    50
100
AcDbVertex
100
AcDb2dVertex
 10
52.448558
 20
52.694534
 30
0.0
  0
VERTEX
  5
30B
330
300
100
AcDbEntity
  8
001
 62
    40
370
    50
100
AcDbVertex
100
AcDb2dVertex
 10
52.475087
 20
52.892581
 30
0.0
  0
VERTEX
  5
30C
330
300
100
AcDbEntity
  8
001
 62
    40
370
    50
100
AcDbVertex
100
AcDb2dVertex
 10
52.483157
 20
53.119972
 30
0.0
  0
VERTEX
  5
30D
330
300
100
AcDbEntity
  8
001
 62
    40
370
    50
100
AcDbVertex
100
AcDb2dVertex
 10
52.481424
 20
53.206308
 30
0.0
  0
VERTEX
  5
30E
330
300
100
AcDbEntity
  8
001
 62
    40
370
    50
100
AcDbVertex
100
AcDb2dVertex
 10
52.479049
 20
53.267058
 30
0.0
  0
SEQEND
  5
301
330
300
100
AcDbEntity
  8
001
370
    50
  0
POLYLINE
  5
30F
330
24E
100
AcDbEntity
  8
001
 62
    40
370
    50
100
AcDb2dPolyline
 66
     1
 10
0.0
 20
0.0
 30
0.0
  0
VERTEX
  5
311
330
30F
100
AcDbEntity
  8
001
 62
    40
370
    50
100
AcDbVertex
100
AcDb2dVertex
 10
47.932453
 20
52.972887
 30
0.0
  0
VERTEX
  5
312
330
30F
100
AcDbEntity
  8
001
 62
    40
370
    50
100
AcDbVertex
100
AcDb2dVertex
 10
48.021733
 20
52.830256
 30
0.0
  0
VERTEX
  5
313
330
30F
100
AcDbEntity
  8
001
 62
    40
370
    50
100
AcDbVertex
100
AcDb2dVertex
 10
48.111125
 20
52.687691
 30
0.0
  0
VERTEX
  5
314
330
30F
100
AcDbEntity
  8
001
 62
    40
370
    50
100
AcDbVertex
100
AcDb2dVertex
 10
48.203511
 20
52.541373
 30
0.0
  0
VERTEX
  5
315
330
30F
100
AcDbEntity
  8
001
 62
    40
370
    50
100
AcDbVertex
100
AcDb2dVertex
 10
48.297622
 20
52.396165
 30
0.0
  0
VERTEX
  5
316
330
30F
100
AcDbEntity
  8
001
 62
    40
370
    50
100
AcDbVertex
100
AcDb2dVertex
 10
48.392708
 20
52.255954
 30
0.0
  0
VERTEX
  5
317
330
30F
100
AcDbEntity
  8
001
 62
    40
370
    50
100
AcDbVertex
100
AcDb2dVertex
 10
48.491395
 20
52.11825
 30
0.0
  0
VERTEX
  5
318
330
30F
100
AcDbEntity
  8
001
 62
    40
370
    50
100
AcDbVertex
100
AcDb2dVertex
 10
48.594676
 20
51.982999
 30
0.0
  0
VERTEX
  5
319
330
30F
100
AcDbEntity
  8
001
 62
    40
370
    50
100
AcDbVertex
100
AcDb2dVertex
 10
48.702661
 20
51.851466
 30
0.0
  0
VERTEX
  5
31A
330
30F
100
AcDbEntity
  8
001
 62
    40
370
    50
100
AcDbVertex
100
AcDb2dVertex
 10
48.814252
 20
51.726173
 30
0.0
  0
VERTEX
  5
31B
330
30F
100
AcDbEntity
  8
001
 62
    40
370
    50
100
AcDbVertex
100
AcDb2dVertex
 10
48.931534
 20
51.606224
 30
0.0
  0
VERTEX
  5
31C
330
30F
100
AcDbEntity
  8
001
 62
    40
370
    50
100
AcDbVertex
100
AcDb2dVertex
 10
49.038968
 20
51.50662
 30
0.0
  0
VERTEX
  5
31D
330
30F
100
AcDbEntity
  8
001
 62
    40
370
    50
100
AcDbVertex
100
AcDb2dVertex
 10
49.150969
 20
51.412169
 30
0.0
  0
VERTEX
  5
31E
330
30F
100
AcDbEntity
  8
001
 62
    40
370
    50
100
AcDbVertex
100
AcDb2dVertex
 10
49.265185
 20
51.324713
 30
0.0
  0
VERTEX
  5
31F
330
30F
100
AcDbEntity
  8
001
 62
    40
370
    50
100
AcDbVertex
100
AcDb2dVertex
 10
49.383477
 20
51.242856
 30
0.0
  0
VERTEX
  5
320
330
30F
100
AcDbEntity
  8
001
 62
    40
370
    50
100
AcDbVertex
100
AcDb2dVertex
 10
49.501915
 20
51.169258
 30
0.0
  0
VERTEX
  5
321
330
30F
100
AcDbEntity
  8
001
 62
    40
370
    50
100
AcDbVertex
100
AcDb2dVertex
 10
49.623965
 20
51.101852
 30
0.0
  0
VERTEX
  5
322
330
30F
100
AcDbEntity
  8
001
 62
    40
370
    50
100
AcDbVertex
100
AcDb2dVertex
 10
49.737049
 20
51.046733
 30
0.0
  0
VERTEX
  5
323
330
30F
100
AcDbEntity
  8
001
 62
    40
370
    50
100
AcDbVertex
100
AcDb2dVertex
 10
49.85262
 20
50.997024
 30
0.0
  0
VERTEX
  5
324
330
30F
100
AcDbEntity
  8
001
 62
    40
370
    50
100
AcDbVertex
100
AcDb2dVertex
 10
49.96611
 20
50.954137
 30
0.0
  0
VERTEX
  5
325
330
30F
100
AcDbEntity
  8
001
 62
    40
370
    50
100
AcDbVertex
100
AcDb2dVertex
 10
50.08135
 20
50.916208
 30
0.0
  0
VERTEX
  5
326
330
30F
100
AcDbEntity
  8
001
 62
    40
370
    50
100
AcDbVertex
100
AcDb2dVertex
 10
50.192201
 20
50.884806
 30
0.0
  0
VERTEX
  5
327
330
30F
100
AcDbEntity
  8
001
 62
    40
370
    50
100
AcDbVertex
100
AcDb2dVertex
 10
50.30424
 20
50.857987
 30
0.0
  0
VERTEX
  5
328
330
30F
100
AcDbEntity
  8
001
 62
    40
370
    50
100
AcDbVertex
100
AcDb2dVertex
 10
50.409162
 20
50.837199
 30
0.0
  0
VERTEX
  5
329
330
30F
100
AcDbEntity
  8
001
 62
    40
370
    50
100
AcDbVertex
100
AcDb2dVertex
 10
50.514751
 20
50.820065
 30
0.0
  0
VERTEX
  5
32A
330
30F
100
AcDbEntity
  8
001
 62
    40
370
    50
100
AcDbVertex
100
AcDb2dVertex
 10
50.613337
 20
50.807124
 30
0.0
  0
VERTEX
  5
32B
330
30F
100
AcDbEntity
  8
001
 62
    40
370
    50
100
AcDbVertex
100
AcDb2dVertex
 10
50.712237
 20
50.79697
 30
0.0
  0
VERTEX
  5
32C
330
30F
100
AcDbEntity
  8
001
 62
    40
370
    50
100
AcDbVertex
100
AcDb2dVertex
 10
50.802363
 20
50.78994
 30
0.0
  0
VERTEX
  5
32D
330
30F
100
AcDbEntity
  8
001
 62
    40
370
    50
100
AcDbVertex
100
AcDb2dVertex
 10
50.892581
 20
50.784046
 30
0.0
  0
SEQEND
  5
310
330
30F
100
AcDbEntity
  8
001
370
    50
  0
POLYLINE
  5
32E
330
24E
100
AcDbEntity
  8
001
 62
    40
370
    50
100
AcDb2dPolyline
 66
     1
 10
0.0
 20
0.0
 30
0.0
  0
VERTEX
  5
330
330
32E
100
AcDbEntity
  8
001
 62
    40
370
    50
100
AcDbVertex
100
AcDb2dVertex
 10
49.518921
 20
55.455899
 30
0.0
  0
VERTEX
  5
331
330
32E
100
AcDbEntity
  8
001
 62
    40
370
    50
100
AcDbVertex
100
AcDb2dVertex
 10
49.480915
 20
55.442381
 30
0.0
  0
VERTEX
  5
332
330
32E
100
AcDbEntity
  8
001
 62
    40
370
    50
100
AcDbVertex
100
AcDb2dVertex
 10
49.426833
 20
55.42222
 30
0.0
  0
VERTEX
  5
333
330
32E
100
AcDbEntity
  8
001
 62
    40
370
    50
100
AcDbVertex
100
AcDb2dVertex
 10
49.229151
 20
55.335507
 30
0.0
  0
VERTEX
  5
334
330
32E
100
AcDbEntity
  8
001
 62
    40
370
    50
100
AcDbVertex
100
AcDb2dVertex
 10
49.067048
 20
55.241735
 30
0.0
  0
VERTEX
  5
335
330
32E
100
AcDbEntity
  8
001
 62
    40
370
    50
100
AcDbVertex
100
AcDb2dVertex
 10
48.607303
 20
54.856474
 30
0.0
  0
VERTEX
  5
336
330
32E
100
AcDbEntity
  8
001
 62
    40
370
    50
100
AcDbVertex
100
AcDb2dVertex
 10
48.23346
 20
54.344973
 30
0.0
  0
VERTEX
  5
337
330
32E
100
AcDbEntity
  8
001
 62
    40
370
    50
100
AcDbVertex
100
AcDb2dVertex
 10
48.063132
 20
53.945731
 30
0.0
  0
VERTEX
  5
338
330
32E
100
AcDbEntity
  8
001
 62
    40
370
    50
100
AcDbVertex
100
AcDb2dVertex
 10
47.962944
 20
53.545411
 30
0.0
  0
VERTEX
  5
339
330
32E
100
AcDbEntity
  8
001
 62
    40
370
    50
100
AcDbVertex
100
AcDb2dVertex
 10
47.936415
 20
53.347364
 30
0.0
  0
VERTEX
  5
33A
330
32E
100
AcDbEntity
  8
001
 62
    40
370
    50
100
AcDbVertex
100
AcDb2dVertex
 10
47.928346
 20
53.119973
 30
0.0
  0
VERTEX
  5
33B
330
32E
100
AcDbEntity
  8
001
 62
    40
370
    50
100
AcDbVertex
100
AcDb2dVertex
 10
47.930078
 20
53.033637
 30
0.0
  0
VERTEX
  5
33C
330
32E
100
AcDbEntity
  8
001
 62
    40
370
    50
100
AcDbVertex
100
AcDb2dVertex
 10
47.932453
 20
52.972887
 30
0.0
  0
SEQEND
  5
32F
330
32E
100
AcDbEntity
  8
001
370
    50
  0
POLYLINE
  5
33D
330
24E
100
AcDbEntity
  8
001
 62
    40
370
    50
100
AcDb2dPolyline
 66
     1
 10
0.0
 20
0.0
 30
0.0
  0
VERTEX
  5
33F
330
33D
100
AcDbEntity
  8
001
 62
    40
370
    50
100
AcDbVertex
100
AcDb2dVertex
 10
46.155031
 20
54.287187
 30
0.0
  0
VERTEX
  5
340
330
33D
100
AcDbEntity
  8
001
 62
    40
370
    50
100
AcDbVertex
100
AcDb2dVertex
 10
45.985366
 20
54.334058
 30
0.0
  0
VERTEX
  5
341
330
33D
100
AcDbEntity
  8
001
 62
    40
370
    50
100
AcDbVertex
100
AcDb2dVertex
 10
45.734287
 20
54.387884
 30
0.0
  0
VERTEX
  5
342
330
33D
100
AcDbEntity
  8
001
 62
    40
370
    50
100
AcDbVertex
100
AcDb2dVertex
 10
45.499717
 20
54.417991
 30
0.0
  0
VERTEX
  5
343
330
33D
100
AcDbEntity
  8
001
 62
    40
370
    50
100
AcDbVertex
100
AcDb2dVertex
 10
45.338002
 20
54.428642
 30
0.0
  0
SEQEND
  5
33E
330
33D
100
AcDbEntity
  8
001
370
    50
  0
LINE
  5
344
330
24E
100
AcDbEntity
  8
001
 62
    40
370
    50
100
AcDbLine
 10
47.932453
 20
52.972887
 30
0.0
 11
46.155031
 21
54.287187
 31
0.0
  0
POLYLINE
  5
345
330
24E
100
AcDbEntity
  8
001
 62
    40
370
    50
100
AcDb2dPolyline
 66
     1
 10
0.0
 20
0.0
 30
0.0
  0
VERTEX
  5
347
330
345
100
AcDbEntity
  8
001
 62
    40
370
    50
100
AcDbVertex
100
AcDb2dVertex
 10
50.108806
 20
47.412623
 30
0.0
  0
VERTEX
  5
348
330
345
100
AcDbEntity
  8
001
 62
    40
370
    50
100
AcDbVertex
100
AcDb2dVertex
 10
50.342128
 20
47.36584
 30
0.0
  0
VERTEX
  5
349
330
345
100
AcDbEntity
  8
001
 62
    40
370
    50
100
AcDbVertex
100
AcDb2dVertex
 10
50.685376
 20
47.311926
 30
0.0
  0
VERTEX
  5
34A
330
345
100
AcDbEntity
  8
001
 62
    40
370
    50
100
AcDbVertex
100
AcDb2dVertex
 10
50.998376
 20
47.281964
 30
0.0
  0
VERTEX
  5
34B
330
345
100
AcDbEntity
  8
001
 62
    40
370
    50
100
AcDbVertex
100
AcDb2dVertex
 10
51.213411
 20
47.271168
 30
0.0
  0
SEQEND
  5
346
330
345
100
AcDbEntity
  8
001
370
    50
  0
POLYLINE
  5
34C
330
24E
100
AcDbEntity
  8
001
 62
    40
370
    50
100
AcDb2dPolyline
 66
     1
 10
0.0
 20
0.0
 30
0.0
  0
VERTEX
  5
34E
330
34C
100
AcDbEntity
  8
001
 62
    40
370
    50
100
AcDbVertex
100
AcDb2dVertex
 10
43.80545
 20
52.737909
 30
0.0
  0
VERTEX
  5
34F
330
34C
100
AcDbEntity
  8
001
 62
    40
370
    50
100
AcDbVertex
100
AcDb2dVertex
 10
43.827681
 20
52.576588
 30
0.0
  0
VERTEX
  5
350
330
34C
100
AcDbEntity
  8
001
 62
    40
370
    50
100
AcDbVertex
100
AcDb2dVertex
 10
43.873867
 20
52.343449
 30
0.0
  0
VERTEX
  5
351
330
34C
100
AcDbEntity
  8
001
 62
    40
370
    50
100
AcDbVertex
100
AcDb2dVertex
 10
43.943658
 20
52.095886
 30
0.0
  0
VERTEX
  5
352
330
34C
100
AcDbEntity
  8
001
 62
    40
370
    50
100
AcDbVertex
100
AcDb2dVertex
 10
44.000813
 20
51.929126
 30
0.0
  0
SEQEND
  5
34D
330
34C
100
AcDbEntity
  8
001
370
    50
  0
POLYLINE
  5
353
330
24E
100
AcDbEntity
  8
001
 62
    40
370
    50
100
AcDb2dPolyline
 66
     1
 10
0.0
 20
0.0
 30
0.0
  0
VERTEX
  5
355
330
353
100
AcDbEntity
  8
001
 62
    40
370
    50
100
AcDbVertex
100
AcDb2dVertex
 10
43.963097
 20
52.882542
 30
0.0
  0
VERTEX
  5
356
330
353
100
AcDbEntity
  8
001
 62
    40
370
    50
100
AcDbVertex
100
AcDb2dVertex
 10
43.922703
 20
52.847039
 30
0.0
  0
VERTEX
  5
357
330
353
100
AcDbEntity
  8
001
 62
    40
370
    50
100
AcDbVertex
100
AcDb2dVertex
 10
43.882735
 20
52.811073
 30
0.0
  0
VERTEX
  5
358
330
353
100
AcDbEntity
  8
001
 62
    40
370
    50
100
AcDbVertex
100
AcDb2dVertex
 10
43.843884
 20
52.774719
 30
0.0
  0
VERTEX
  5
359
330
353
100
AcDbEntity
  8
001
 62
    40
370
    50
100
AcDbVertex
100
AcDb2dVertex
 10
43.80545
 20
52.737909
 30
0.0
  0
SEQEND
  5
354
330
353
100
AcDbEntity
  8
001
370
    50
  0
POLYLINE
  5
35A
330
24E
100
AcDbEntity
  8
001
 62
    40
370
    50
100
AcDb2dPolyline
 66
     1
 10
0.0
 20
0.0
 30
0.0
  0
VERTEX
  5
35C
330
35A
100
AcDbEntity
  8
001
 62
    40
370
    50
100
AcDbVertex
100
AcDb2dVertex
 10
43.963097
 20
52.882542
 30
0.0
  0
VERTEX
  5
35D
330
35A
100
AcDbEntity
  8
001
 62
    40
370
    50
100
AcDbVertex
100
AcDb2dVertex
 10
43.975495
 20
52.893213
 30
0.0
  0
VERTEX
  5
35E
330
35A
100
AcDbEntity
  8
001
 62
    40
370
    50
100
AcDbVertex
100
AcDb2dVertex
 10
43.993397
 20
52.90867
 30
0.0
  0
VERTEX
  5
35F
330
35A
100
AcDbEntity
  8
001
 62
    40
370
    50
100
AcDbVertex
100
AcDb2dVertex
 10
44.14898
 20
53.046221
 30
0.0
  0
VERTEX
  5
360
330
35A
100
AcDbEntity
  8
001
 62
    40
370
    50
100
AcDbVertex
100
AcDb2dVertex
 10
44.280465
 20
53.169247
 30
0.0
  0
VERTEX
  5
361
330
35A
100
AcDbEntity
  8
001
 62
    40
370
    50
100
AcDbVertex
100
AcDb2dVertex
 10
44.417288
 20
53.303188
 30
0.0
  0
VERTEX
  5
362
330
35A
100
AcDbEntity
  8
001
 62
    40
370
    50
100
AcDbVertex
100
AcDb2dVertex
 10
44.55541
 20
53.442585
 30
0.0
  0
VERTEX
  5
363
330
35A
100
AcDbEntity
  8
001
 62
    40
370
    50
100
AcDbVertex
100
AcDb2dVertex
 10
44.796182
 20
53.699604
 30
0.0
  0
VERTEX
  5
364
330
35A
100
AcDbEntity
  8
001
 62
    40
370
    50
100
AcDbVertex
100
AcDb2dVertex
 10
45.036138
 20
53.994186
 30
0.0
  0
VERTEX
  5
365
330
35A
100
AcDbEntity
  8
001
 62
    40
370
    50
100
AcDbVertex
100
AcDb2dVertex
 10
45.215733
 20
54.243602
 30
0.0
  0
VERTEX
  5
366
330
35A
100
AcDbEntity
  8
001
 62
    40
370
    50
100
AcDbVertex
100
AcDb2dVertex
 10
45.338002
 20
54.428642
 30
0.0
  0
SEQEND
  5
35B
330
35A
100
AcDbEntity
  8
001
370
    50
  0
LINE
  5
367
330
24E
100
AcDbEntity
  8
001
 62
    40
370
    50
100
AcDbLine
 10
49.485667
 20
58.968777
 30
0.0
 11
49.686569
 21
59.188689
 31
0.0
  0
POLYLINE
  5
368
330
24E
100
AcDbEntity
  8
001
 62
    40
370
    50
100
AcDb2dPolyline
 66
     1
 10
0.0
 20
0.0
 30
0.0
  0
VERTEX
  5
36A
330
368
100
AcDbEntity
  8
001
 62
    40
370
    50
100
AcDbVertex
100
AcDb2dVertex
 10
49.80888
 20
59.2485
 30
0.0
  0
VERTEX
  5
36B
330
368
100
AcDbEntity
  8
001
 62
    40
370
    50
100
AcDbVertex
100
AcDb2dVertex
 10
49.801868
 20
59.248212
 30
0.0
  0
VERTEX
  5
36C
330
368
100
AcDbEntity
  8
001
 62
    40
370
    50
100
AcDbVertex
100
AcDb2dVertex
 10
49.792101
 20
59.247433
 30
0.0
  0
VERTEX
  5
36D
330
368
100
AcDbEntity
  8
001
 62
    40
370
    50
100
AcDbVertex
100
AcDb2dVertex
 10
49.777066
 20
59.245055
 30
0.0
  0
VERTEX
  5
36E
330
368
100
AcDbEntity
  8
001
 62
    40
370
    50
100
AcDbVertex
100
AcDb2dVertex
 10
49.763683
 20
59.240828
 30
0.0
  0
VERTEX
  5
36F
330
368
100
AcDbEntity
  8
001
 62
    40
370
    50
100
AcDbVertex
100
AcDb2dVertex
 10
49.718242
 20
59.214742
 30
0.0
  0
VERTEX
  5
370
330
368
100
AcDbEntity
  8
001
 62
    40
370
    50
100
AcDbVertex
100
AcDb2dVertex
 10
49.686569
 20
59.188689
 30
0.0
  0
SEQEND
  5
369
330
368
100
AcDbEntity
  8
001
370
    50
  0
LINE
  5
371
330
24E
100
AcDbEntity
  8
001
 62
    40
370
    50
100
AcDbLine
 10
50.746194
 20
47.026625
 30
0.0
 11
50.108806
 21
47.412623
 31
0.0
  0
POLYLINE
  5
372
330
24E
100
AcDbEntity
  8
001
 62
    40
370
    50
100
AcDb2dPolyline
 66
     1
 10
0.0
 20
0.0
 30
0.0
  0
VERTEX
  5
374
330
372
100
AcDbEntity
  8
001
 62
    40
370
    50
100
AcDbVertex
100
AcDb2dVertex
 10
50.869632
 20
46.991445
 30
0.0
  0
VERTEX
  5
375
330
372
100
AcDbEntity
  8
001
 62
    40
370
    50
100
AcDbVertex
100
AcDb2dVertex
 10
50.907434
 20
46.995922
 30
0.0
  0
VERTEX
  5
376
330
372
100
AcDbEntity
  8
001
 62
    40
370
    50
100
AcDbVertex
100
AcDb2dVertex
 10
50.956384
 20
47.010219
 30
0.0
  0
VERTEX
  5
377
330
372
100
AcDbEntity
  8
001
 62
    40
370
    50
100
AcDbVertex
100
AcDb2dVertex
 10
50.972312
 20
47.018527
 30
0.0
  0
VERTEX
  5
378
330
372
100
AcDbEntity
  8
001
 62
    40
370
    50
100
AcDbVertex
100
AcDb2dVertex
 10
50.986041
 20
47.027663
 30
0.0
  0
VERTEX
  5
379
330
372
100
AcDbEntity
  8
001
 62
    40
370
    50
100
AcDbVertex
100
AcDb2dVertex
 10
50.998323
 20
47.037304
 30
0.0
  0
VERTEX
  5
37A
330
372
100
AcDbEntity
  8
001
 62
    40
370
    50
100
AcDbVertex
100
AcDb2dVertex
 10
51.011428
 20
47.050083
 30
0.0
  0
VERTEX
  5
37B
330
372
100
AcDbEntity
  8
001
 62
    40
370
    50
100
AcDbVertex
100
AcDb2dVertex
 10
51.01207
 20
47.050778
 30
0.0
  0
VERTEX
  5
37C
330
372
100
AcDbEntity
  8
001
 62
    40
370
    50
100
AcDbVertex
100
AcDb2dVertex
 10
51.01251
 20
47.051256
 30
0.0
  0
SEQEND
  5
373
330
372
100
AcDbEntity
  8
001
370
    50
  0
POLYLINE
  5
37D
330
24E
100
AcDbEntity
  8
001
 62
    40
370
    50
100
AcDb2dPolyline
 66
     1
 10
0.0
 20
0.0
 30
0.0
  0
VERTEX
  5
37F
330
37D
100
AcDbEntity
  8
001
 62
    40
370
    50
100
AcDbVertex
100
AcDb2dVertex
 10
51.908554
 20
46.991445
 30
0.0
  0
VERTEX
  5
380
330
37D
100
AcDbEntity
  8
001
 62
    40
370
    50
100
AcDbVertex
100
AcDb2dVertex
 10
51.922169
 20
46.992186
 30
0.0
  0
VERTEX
  5
381
330
37D
100
AcDbEntity
  8
001
 62
    40
370
    50
100
AcDbVertex
100
AcDb2dVertex
 10
51.940837
 20
46.994483
 30
0.0
  0
VERTEX
  5
382
330
37D
100
AcDbEntity
  8
001
 62
    40
370
    50
100
AcDbVertex
100
AcDb2dVertex
 10
51.957494
 20
46.998375
 30
0.0
  0
VERTEX
  5
383
330
37D
100
AcDbEntity
  8
001
 62
    40
370
    50
100
AcDbVertex
100
AcDb2dVertex
 10
51.97214
 20
47.003506
 30
0.0
  0
VERTEX
  5
384
330
37D
100
AcDbEntity
  8
001
 62
    40
370
    50
100
AcDbVertex
100
AcDb2dVertex
 10
51.986588
 20
47.009791
 30
0.0
  0
VERTEX
  5
385
330
37D
100
AcDbEntity
  8
001
 62
    40
370
    50
100
AcDbVertex
100
AcDb2dVertex
 10
52.00151
 20
47.01824
 30
0.0
  0
VERTEX
  5
386
330
37D
100
AcDbEntity
  8
001
 62
    40
370
    50
100
AcDbVertex
100
AcDb2dVertex
 10
52.025179
 20
47.036285
 30
0.0
  0
VERTEX
  5
387
330
37D
100
AcDbEntity
  8
001
 62
    40
370
    50
100
AcDbVertex
100
AcDb2dVertex
 10
52.041149
 20
47.051256
 30
0.0
  0
SEQEND
  5
37E
330
37D
100
AcDbEntity
  8
001
370
    50
  0
POLYLINE
  5
388
330
24E
100
AcDbEntity
  8
001
 62
    40
370
    50
100
AcDb2dPolyline
 66
     1
 10
0.0
 20
0.0
 30
0.0
  0
VERTEX
  5
38A
330
388
100
AcDbEntity
  8
001
 62
    40
370
    50
100
AcDbVertex
100
AcDb2dVertex
 10
50.746194
 20
47.026625
 30
0.0
  0
VERTEX
  5
38B
330
388
100
AcDbEntity
  8
001
 62
    40
370
    50
100
AcDbVertex
100
AcDb2dVertex
 10
50.759592
 20
47.019375
 30
0.0
  0
VERTEX
  5
38C
330
388
100
AcDbEntity
  8
001
 62
    40
370
    50
100
AcDbVertex
100
AcDb2dVertex
 10
50.778526
 20
47.010148
 30
0.0
  0
VERTEX
  5
38D
330
388
100
AcDbEntity
  8
001
 62
    40
370
    50
100
AcDbVertex
100
AcDb2dVertex
 10
50.813505
 20
46.997392
 30
0.0
  0
VERTEX
  5
38E
330
388
100
AcDbEntity
  8
001
 62
    40
370
    50
100
AcDbVertex
100
AcDb2dVertex
 10
50.85129
 20
46.992199
 30
0.0
  0
VERTEX
  5
38F
330
388
100
AcDbEntity
  8
001
 62
    40
370
    50
100
AcDbVertex
100
AcDb2dVertex
 10
50.862039
 20
46.991654
 30
0.0
  0
VERTEX
  5
390
330
388
100
AcDbEntity
  8
001
 62
    40
370
    50
100
AcDbVertex
100
AcDb2dVertex
 10
50.869632
 20
46.991445
 30
0.0
  0
SEQEND
  5
389
330
388
100
AcDbEntity
  8
001
370
    50
  0
POLYLINE
  5
391
330
24E
100
AcDbEntity
  8
001
 62
    40
370
    50
100
AcDb2dPolyline
 66
     1
 10
0.0
 20
0.0
 30
0.0
  0
VERTEX
  5
393
330
391
100
AcDbEntity
  8
001
 62
    40
370
    50
100
AcDbVertex
100
AcDb2dVertex
 10
51.985579
 20
51.999046
 30
0.0
  0
VERTEX
  5
394
330
391
100
AcDbEntity
  8
001
 62
    40
370
    50
100
AcDbVertex
100
AcDb2dVertex
 10
52.029003
 20
52.067722
 30
0.0
  0
VERTEX
  5
395
330
391
100
AcDbEntity
  8
001
 62
    40
370
    50
100
AcDbVertex
100
AcDb2dVertex
 10
52.087337
 20
52.167472
 30
0.0
  0
VERTEX
  5
396
330
391
100
AcDbEntity
  8
001
 62
    40
370
    50
100
AcDbVertex
100
AcDb2dVertex
 10
52.228521
 20
52.485612
 30
0.0
  0
VERTEX
  5
397
330
391
100
AcDbEntity
  8
001
 62
    40
370
    50
100
AcDbVertex
100
AcDb2dVertex
 10
52.297677
 20
52.789173
 30
0.0
  0
VERTEX
  5
398
330
391
100
AcDbEntity
  8
001
 62
    40
370
    50
100
AcDbVertex
100
AcDb2dVertex
 10
52.317113
 20
52.952098
 30
0.0
  0
VERTEX
  5
399
330
391
100
AcDbEntity
  8
001
 62
    40
370
    50
100
AcDbVertex
100
AcDb2dVertex
 10
52.324579
 20
53.119972
 30
0.0
  0
VERTEX
  5
39A
330
391
100
AcDbEntity
  8
001
 62
    40
370
    50
100
AcDbVertex
100
AcDb2dVertex
 10
52.317113
 20
53.287847
 30
0.0
  0
VERTEX
  5
39B
330
391
100
AcDbEntity
  8
001
 62
    40
370
    50
100
AcDbVertex
100
AcDb2dVertex
 10
52.297677
 20
53.450772
 30
0.0
  0
VERTEX
  5
39C
330
391
100
AcDbEntity
  8
001
 62
    40
370
    50
100
AcDbVertex
100
AcDb2dVertex
 10
52.228521
 20
53.754333
 30
0.0
  0
VERTEX
  5
39D
330
391
100
AcDbEntity
  8
001
 62
    40
370
    50
100
AcDbVertex
100
AcDb2dVertex
 10
52.087337
 20
54.072472
 30
0.0
  0
VERTEX
  5
39E
330
391
100
AcDbEntity
  8
001
 62
    40
370
    50
100
AcDbVertex
100
AcDb2dVertex
 10
52.029003
 20
54.172223
 30
0.0
  0
VERTEX
  5
39F
330
391
100
AcDbEntity
  8
001
 62
    40
370
    50
100
AcDbVertex
100
AcDb2dVertex
 10
51.985579
 20
54.240899
 30
0.0
  0
SEQEND
  5
392
330
391
100
AcDbEntity
  8
001
370
    50
  0
LINE
  5
3A0
330
24E
100
AcDbEntity
  8
001
 62
    40
370
    50
100
AcDbLine
 10
46.155031
 20
54.287187
 30
0.0
 11
48.148478
 21
56.469262
 31
0.0
  0
POLYLINE
  5
3A1
330
24E
100
AcDbEntity
  8
001
 62
    40
370
    50
100
AcDb2dPolyline
 66
     1
 10
0.0
 20
0.0
 30
0.0
  0
VERTEX
  5
3A3
330
3A1
100
AcDbEntity
  8
001
 62
    40
370
    50
100
AcDbVertex
100
AcDb2dVertex
 10
49.896058
 20
59.21332
 30
0.0
  0
VERTEX
  5
3A4
330
3A1
100
AcDbEntity
  8
001
 62
    40
370
    50
100
AcDbVertex
100
AcDb2dVertex
 10
49.895697
 20
59.213661
 30
0.0
  0
VERTEX
  5
3A5
330
3A1
100
AcDbEntity
  8
001
 62
    40
370
    50
100
AcDbVertex
100
AcDb2dVertex
 10
49.89517
 20
59.214155
 30
0.0
  0
VERTEX
  5
3A6
330
3A1
100
AcDbEntity
  8
001
 62
    40
370
    50
100
AcDbVertex
100
AcDb2dVertex
 10
49.883624
 20
59.223968
 30
0.0
  0
VERTEX
  5
3A7
330
3A1
100
AcDbEntity
  8
001
 62
    40
370
    50
100
AcDbVertex
100
AcDb2dVertex
 10
49.872626
 20
59.231098
 30
0.0
  0
VERTEX
  5
3A8
330
3A1
100
AcDbEntity
  8
001
 62
    40
370
    50
100
AcDbVertex
100
AcDb2dVertex
 10
49.860326
 20
59.237309
 30
0.0
  0
VERTEX
  5
3A9
330
3A1
100
AcDbEntity
  8
001
 62
    40
370
    50
100
AcDbVertex
100
AcDb2dVertex
 10
49.847413
 20
59.242493
 30
0.0
  0
VERTEX
  5
3AA
330
3A1
100
AcDbEntity
  8
001
 62
    40
370
    50
100
AcDbVertex
100
AcDb2dVertex
 10
49.834763
 20
59.246045
 30
0.0
  0
VERTEX
  5
3AB
330
3A1
100
AcDbEntity
  8
001
 62
    40
370
    50
100
AcDbVertex
100
AcDb2dVertex
 10
49.820297
 20
59.247994
 30
0.0
  0
VERTEX
  5
3AC
330
3A1
100
AcDbEntity
  8
001
 62
    40
370
    50
100
AcDbVertex
100
AcDb2dVertex
 10
49.813618
 20
59.248372
 30
0.0
  0
VERTEX
  5
3AD
330
3A1
100
AcDbEntity
  8
001
 62
    40
370
    50
100
AcDbVertex
100
AcDb2dVertex
 10
49.80888
 20
59.2485
 30
0.0
  0
SEQEND
  5
3A2
330
3A1
100
AcDbEntity
  8
001
370
    50
  0
LINE
  5
3AE
330
24E
100
AcDbEntity
  8
001
 62
    40
370
    50
100
AcDbLine
 10
50.317042
 20
59.2485
 30
0.0
 11
49.80888
 21
59.2485
 31
0.0
  0
LINE
  5
3AF
330
24E
100
AcDbEntity
  8
001
 62
    40
370
    50
100
AcDbLine
 10
45.338002
 20
54.428642
 30
0.0
 11
47.951942
 21
57.289924
 31
0.0
  0
POLYLINE
  5
3B0
330
24E
100
AcDbEntity
  8
001
 62
    40
370
    50
100
AcDb2dPolyline
 66
     1
 10
0.0
 20
0.0
 30
0.0
  0
VERTEX
  5
3B2
330
3B0
100
AcDbEntity
  8
001
 62
    40
370
    50
100
AcDbVertex
100
AcDb2dVertex
 10
43.80545
 20
52.737909
 30
0.0
  0
VERTEX
  5
3B3
330
3B0
100
AcDbEntity
  8
001
 62
    40
370
    50
100
AcDbVertex
100
AcDb2dVertex
 10
43.767591
 20
52.669738
 30
0.0
  0
VERTEX
  5
3B4
330
3B0
100
AcDbEntity
  8
001
 62
    40
370
    50
100
AcDbVertex
100
AcDb2dVertex
 10
43.734276
 20
52.599551
 30
0.0
  0
VERTEX
  5
3B5
330
3B0
100
AcDbEntity
  8
001
 62
    40
370
    50
100
AcDbVertex
100
AcDb2dVertex
 10
43.717685
 20
52.554391
 30
0.0
  0
VERTEX
  5
3B6
330
3B0
100
AcDbEntity
  8
001
 62
    40
370
    50
100
AcDbVertex
100
AcDb2dVertex
 10
43.70419
 20
52.508116
 30
0.0
  0
VERTEX
  5
3B7
330
3B0
100
AcDbEntity
  8
001
 62
    40
370
    50
100
AcDbVertex
100
AcDb2dVertex
 10
43.693772
 20
52.462115
 30
0.0
  0
VERTEX
  5
3B8
330
3B0
100
AcDbEntity
  8
001
 62
    40
370
    50
100
AcDbVertex
100
AcDb2dVertex
 10
43.686537
 20
52.415583
 30
0.0
  0
VERTEX
  5
3B9
330
3B0
100
AcDbEntity
  8
001
 62
    40
370
    50
100
AcDbVertex
100
AcDb2dVertex
 10
43.682891
 20
52.355454
 30
0.0
  0
VERTEX
  5
3BA
330
3B0
100
AcDbEntity
  8
001
 62
    40
370
    50
100
AcDbVertex
100
AcDb2dVertex
 10
43.686885
 20
52.29499
 30
0.0
  0
VERTEX
  5
3BB
330
3B0
100
AcDbEntity
  8
001
 62
    40
370
    50
100
AcDbVertex
100
AcDb2dVertex
 10
43.695015
 20
52.25479
 30
0.0
  0
VERTEX
  5
3BC
330
3B0
100
AcDbEntity
  8
001
 62
    40
370
    50
100
AcDbVertex
100
AcDb2dVertex
 10
43.710223
 20
52.217398
 30
0.0
  0
VERTEX
  5
3BD
330
3B0
100
AcDbEntity
  8
001
 62
    40
370
    50
100
AcDbVertex
100
AcDb2dVertex
 10
43.723979
 20
52.196685
 30
0.0
  0
VERTEX
  5
3BE
330
3B0
100
AcDbEntity
  8
001
 62
    40
370
    50
100
AcDbVertex
100
AcDb2dVertex
 10
43.739642
 20
52.17704
 30
0.0
  0
SEQEND
  5
3B1
330
3B0
100
AcDbEntity
  8
001
370
    50
  0
LINE
  5
3BF
330
24E
100
AcDbEntity
  8
001
 62
    40
370
    50
100
AcDbLine
 10
44.000813
 20
51.929126
 30
0.0
 11
43.739642
 21
52.17704
 31
0.0
  0
LINE
  5
3C0
330
24E
100
AcDbEntity
  8
001
 62
    40
370
    50
100
AcDbLine
 10
50.678395
 20
46.991445
 30
0.0
 11
51.908554
 21
46.991445
 31
0.0
  0
LINE
  5
3C1
330
24E
100
AcDbEntity
  8
001
 62
    40
370
    50
100
AcDbLine
 10
43.682796
 20
52.164281
 30
0.0
 11
50.108806
 21
47.412623
 31
0.0
  0
ENDBLK
  5
250
330
24E
100
AcDbEntity
  8
0
100
AcDbBlockEnd
  0
BLOCK
  5
3C3
330
3C2
100
AcDbEntity
  8
0
100
AcDbBlockBegin
  2
*D3
 70
     1
 10
0.0
 20
0.0
 30
0.0
  3
*D3
  1

  0
LINE
  5
3C5
330
3C2
100
AcDbEntity
  8
001
370
     9
100
AcDbLine
 10
73.682796
 20
46.926094
 30
0.0
 11
73.682796
 21
18.093742
 31
0.0
  0
LINE
  5
3C6
330
3C2
100
AcDbEntity
  8
001
370
     9
100
AcDbLine
 10
43.682796
 20
41.432332
 30
0.0
 11
43.682796
 21
18.093742
 31
0.0
  0
LINE
  5
3C7
330
3C2
100
AcDbEntity
  8
001
370
     9
100
AcDbLine
 10
73.682796
 20
20.843742
 30
0.0
 11
43.682796
 21
20.843742
 31
0.0
  0
POLYLINE
  5
3C8
330
3C2
100
AcDbEntity
  8
001
370
     9
100
AcDb2dPolyline
 66
     1
 10
0.0
 20
0.0
 30
0.0
  0
VERTEX
  5
3CA
330
3C8
100
AcDbEntity
  8
001
370
     9
100
AcDbVertex
100
AcDb2dVertex
 10
72.182796
 20
21.245666
 30
0.0
  0
VERTEX
  5
3CB
330
3C8
100
AcDbEntity
  8
001
370
     9
100
AcDbVertex
100
AcDb2dVertex
 10
73.682796
 20
20.843742
 30
0.0
  0
VERTEX
  5
3CC
330
3C8
100
AcDbEntity
  8
001
370
     9
100
AcDbVertex
100
AcDb2dVertex
 10
72.182796
 20
20.441818
 30
0.0
  0
SEQEND
  5
3C9
330
3C8
100
AcDbEntity
  8
001
370
     9
  0
POLYLINE
  5
3CD
330
3C2
100
AcDbEntity
  8
001
370
     9
100
AcDb2dPolyline
 66
     1
 10
0.0
 20
0.0
 30
0.0
  0
VERTEX
  5
3CF
330
3CD
100
AcDbEntity
  8
001
370
     9
100
AcDbVertex
100
AcDb2dVertex
 10
45.182796
 20
20.441818
 30
0.0
  0
VERTEX
  5
3D0
330
3CD
100
AcDbEntity
  8
001
370
     9
100
AcDbVertex
100
AcDb2dVertex
 10
43.682796
 20
20.843742
 30
0.0
  0
VERTEX
  5
3D1
330
3CD
100
AcDbEntity
  8
001
370
     9
100
AcDbVertex
100
AcDb2dVertex
 10
45.182796
 20
21.245666
 30
0.0
  0
SEQEND
  5
3CE
330
3CD
100
AcDbEntity
  8
001
370
     9
  0
TEXT
  5
3D2
330
3C2
100
AcDbEntity
  8
001
370
    30
100
AcDbText
 10
58.431899
 20
21.843742
 30
0.0
 40
4.0
  1
３０
 41
0.833333
100
AcDbText
  0
POINT
  5
3D3
330
3C2
100
AcDbEntity
  8
001
370
     9
100
AcDbPoint
 10
73.682796
 20
46.926094
 30
0.0
  0
POINT
  5
3D4
330
3C2
100
AcDbEntity
  8
001
370
     9
100
AcDbPoint
 10
43.682796
 20
41.432332
 30
0.0
  0
POINT
  5
3D5
330
3C2
100
AcDbEntity
  8
001
370
     9
100
AcDbPoint
 10
43.682796
 20
20.843742
 30
0.0
  0
ENDBLK
  5
3C4
330
3C2
100
AcDbEntity
  8
0
100
AcDbBlockEnd
  0
BLOCK
  5
3D7
330
3D6
100
AcDbEntity
  8
0
100
AcDbBlockBegin
  2
*D4
 70
     1
 10
0.0
 20
0.0
 30
0.0
  3
*D4
  1

  0
LINE
  5
3D9
330
3D6
100
AcDbEntity
  8
001
370
     9
100
AcDbLine
 10
43.682796
 20
41.432332
 30
0.0
 11
43.682796
 21
28.050063
 31
0.0
  0
LINE
  5
3DA
330
3D6
100
AcDbEntity
  8
001
370
     9
100
AcDbLine
 10
50.678395
 20
46.991445
 30
0.0
 11
50.678395
 21
28.050063
 31
0.0
  0
LINE
  5
3DB
330
3D6
100
AcDbEntity
  8
001
370
     9
100
AcDbLine
 10
43.682796
 20
30.800063
 30
0.0
 11
50.678395
 21
30.800063
 31
0.0
  0
POLYLINE
  5
3DC
330
3D6
100
AcDbEntity
  8
001
370
     9
100
AcDb2dPolyline
 66
     1
 10
0.0
 20
0.0
 30
0.0
  0
VERTEX
  5
3DE
330
3DC
100
AcDbEntity
  8
001
370
     9
100
AcDbVertex
100
AcDb2dVertex
 10
42.182796
 20
31.201987
 30
0.0
  0
VERTEX
  5
3DF
330
3DC
100
AcDbEntity
  8
001
370
     9
100
AcDbVertex
100
AcDb2dVertex
 10
43.682796
 20
30.800063
 30
0.0
  0
VERTEX
  5
3E0
330
3DC
100
AcDbEntity
  8
001
370
     9
100
AcDbVertex
100
AcDb2dVertex
 10
42.182796
 20
30.398139
 30
0.0
  0
SEQEND
  5
3DD
330
3DC
100
AcDbEntity
  8
001
370
     9
  0
POLYLINE
  5
3E1
330
3D6
100
AcDbEntity
  8
001
370
     9
100
AcDb2dPolyline
 66
     1
 10
0.0
 20
0.0
 30
0.0
  0
VERTEX
  5
3E3
330
3E1
100
AcDbEntity
  8
001
370
     9
100
AcDbVertex
100
AcDb2dVertex
 10
52.178395
 20
30.398139
 30
0.0
  0
VERTEX
  5
3E4
330
3E1
100
AcDbEntity
  8
001
370
     9
100
AcDbVertex
100
AcDb2dVertex
 10
50.678395
 20
30.800063
 30
0.0
  0
VERTEX
  5
3E5
330
3E1
100
AcDbEntity
  8
001
370
     9
100
AcDbVertex
100
AcDb2dVertex
 10
52.178395
 20
31.201987
 30
0.0
  0
SEQEND
  5
3E2
330
3E1
100
AcDbEntity
  8
001
370
     9
  0
TEXT
  5
3E6
330
3D6
100
AcDbEntity
  8
001
370
    30
100
AcDbText
 10
28.182796
 20
31.800063
 30
0.0
 40
4.0
  1
（７）
 41
0.833333
100
AcDbText
  0
POINT
  5
3E7
330
3D6
100
AcDbEntity
  8
001
370
     9
100
AcDbPoint
 10
43.682796
 20
41.432332
 30
0.0
  0
POINT
  5
3E8
330
3D6
100
AcDbEntity
  8
001
370
     9
100
AcDbPoint
 10
50.678395
 20
46.991445
 30
0.0
  0
POINT
  5
3E9
330
3D6
100
AcDbEntity
  8
001
370
     9
100
AcDbPoint
 10
50.678395
 20
30.800063
 30
0.0
  0
LINE
  5
3EA
330
3D6
100
AcDbEntity
  8
001
370
     9
100
AcDbLine
 10
43.682796
 20
30.800063
 30
0.0
 11
25.182796
 21
30.800063
 31
0.0
  0
LINE
  5
3EB
330
3D6
100
AcDbEntity
  8
001
370
     9
100
AcDbLine
 10
50.678395
 20
30.800063
 30
0.0
 11
53.178395
 21
30.800063
 31
0.0
  0
ENDBLK
  5
3D8
330
3D6
100
AcDbEntity
  8
0
100
AcDbBlockEnd
  0
BLOCK
  5
3ED
330
3EC
100
AcDbEntity
  8
0
100
AcDbBlockBegin
  2
*D5
 70
     1
 10
0.0
 20
0.0
 30
0.0
  3
*D5
  1

  0
LINE
  5
3EF
330
3EC
100
AcDbEntity
  8
001
370
     9
100
AcDbLine
 10
50.108806
 20
47.412623
 30
0.0
 11
68.122256
 21
34.092731
 31
0.0
  0
LINE
  5
3F0
330
3EC
100
AcDbEntity
  8
001
370
     9
100
AcDbLine
 10
43.682796
 20
41.432332
 30
0.0
 11
43.682796
 21
21.769082
 31
0.0
  0
ARC
  5
3F1
330
3EC
100
AcDbEntity
  8
001
370
     9
100
AcDbCircle
 10
43.682796
 20
52.164281
 30
0.0
 40
27.64519902449302
100
AcDbArc
 50
270.0
 51
323.519244
  0
POLYLINE
  5
3F2
330
3EC
100
AcDbEntity
  8
001
370
     9
100
AcDb2dPolyline
 66
     1
 10
0.0
 20
0.0
 30
0.0
  0
VERTEX
  5
3F4
330
3F2
100
AcDbEntity
  8
001
370
     9
100
AcDbVertex
100
AcDb2dVertex
 10
67.099418
 20
36.727474
 30
0.0
  0
VERTEX
  5
3F5
330
3F2
100
AcDbEntity
  8
001
370
     9
100
AcDbVertex
100
AcDb2dVertex
 10
65.911101
 20
35.727751
 30
0.0
  0
VERTEX
  5
3F6
330
3F2
100
AcDbEntity
  8
001
370
     9
100
AcDbVertex
100
AcDb2dVertex
 10
66.440353
 20
37.187695
 30
0.0
  0
SEQEND
  5
3F3
330
3F2
100
AcDbEntity
  8
001
370
     9
  0
POLYLINE
  5
3F7
330
3EC
100
AcDbEntity
  8
001
370
     9
100
AcDb2dPolyline
 66
     1
 10
0.0
 20
0.0
 30
0.0
  0
VERTEX
  5
3F9
330
3F7
100
AcDbEntity
  8
001
370
     9
100
AcDbVertex
100
AcDb2dVertex
 10
42.194251
 20
24.961547
 30
0.0
  0
VERTEX
  5
3FA
330
3F7
100
AcDbEntity
  8
001
370
     9
100
AcDbVertex
100
AcDb2dVertex
 10
43.682796
 20
24.519082
 30
0.0
  0
VERTEX
  5
3FB
330
3F7
100
AcDbEntity
  8
001
370
     9
100
AcDbVertex
100
AcDb2dVertex
 10
42.172445
 20
24.157995
 30
0.0
  0
SEQEND
  5
3F8
330
3F7
100
AcDbEntity
  8
001
370
     9
  0
TEXT
  5
3FC
330
3EC
100
AcDbEntity
  8
001
370
    30
100
AcDbText
 10
66.004403
 20
38.23371
 30
0.0
 40
4.0
  1
５０%%d
 50
71.097734
 41
0.978261
100
AcDbText
  0
POINT
  5
3FD
330
3EC
100
AcDbEntity
  8
001
370
     9
100
AcDbPoint
 10
50.108806
 20
47.412623
 30
0.0
  0
POINT
  5
3FE
330
3EC
100
AcDbEntity
  8
001
370
     9
100
AcDbPoint
 10
43.682796
 20
52.164281
 30
0.0
  0
POINT
  5
3FF
330
3EC
100
AcDbEntity
  8
001
370
     9
100
AcDbPoint
 10
43.682796
 20
52.164281
 30
0.0
  0
POINT
  5
400
330
3EC
100
AcDbEntity
  8
001
370
     9
100
AcDbPoint
 10
43.682796
 20
41.432332
 30
0.0
  0
ARC
  5
401
330
3EC
100
AcDbEntity
  8
001
370
     9
100
AcDbCircle
 10
43.682796
 20
52.164281
 30
0.0
 40
27.64519902449302
100
AcDbArc
 50
264.81865
 51
270.0
  0
ARC
  5
402
330
3EC
100
AcDbEntity
  8
001
370
     9
100
AcDbCircle
 10
43.682796
 20
52.164281
 30
0.0
 40
27.64519902449302
100
AcDbArc
 50
323.519244
 51
352.716694
  0
ENDBLK
  5
3EE
330
3EC
100
AcDbEntity
  8
0
100
AcDbBlockEnd
  0
BLOCK
  5
404
330
403
100
AcDbEntity
  8
0
100
AcDbBlockBegin
  2
*D6
 70
     1
 10
0.0
 20
0.0
 30
0.0
  3
*D6
  1

  0
LINE
  5
406
330
403
100
AcDbEntity
  8
001
370
     9
100
AcDbLine
 10
43.682796
 20
41.432332
 30
0.0
 11
43.682796
 21
7.422724
 31
0.0
  0
LINE
  5
407
330
403
100
AcDbEntity
  8
001
370
     9
100
AcDbLine
 10
168.682796
 20
49.926094
 30
0.0
 11
168.682796
 21
7.422724
 31
0.0
  0
LINE
  5
408
330
403
100
AcDbEntity
  8
001
370
     9
100
AcDbLine
 10
43.682796
 20
10.172724
 30
0.0
 11
168.682796
 21
10.172724
 31
0.0
  0
POLYLINE
  5
409
330
403
100
AcDbEntity
  8
001
370
     9
100
AcDb2dPolyline
 66
     1
 10
0.0
 20
0.0
 30
0.0
  0
VERTEX
  5
40B
330
409
100
AcDbEntity
  8
001
370
     9
100
AcDbVertex
100
AcDb2dVertex
 10
45.182796
 20
9.7708
 30
0.0
  0
VERTEX
  5
40C
330
409
100
AcDbEntity
  8
001
370
     9
100
AcDbVertex
100
AcDb2dVertex
 10
43.682796
 20
10.172724
 30
0.0
  0
VERTEX
  5
40D
330
409
100
AcDbEntity
  8
001
370
     9
100
AcDbVertex
100
AcDb2dVertex
 10
45.182796
 20
10.574648
 30
0.0
  0
SEQEND
  5
40A
330
409
100
AcDbEntity
  8
001
370
     9
  0
POLYLINE
  5
40E
330
403
100
AcDbEntity
  8
001
370
     9
100
AcDb2dPolyline
 66
     1
 10
0.0
 20
0.0
 30
0.0
  0
VERTEX
  5
410
330
40E
100
AcDbEntity
  8
001
370
     9
100
AcDbVertex
100
AcDb2dVertex
 10
167.182796
 20
10.574648
 30
0.0
  0
VERTEX
  5
411
330
40E
100
AcDbEntity
  8
001
370
     9
100
AcDbVertex
100
AcDb2dVertex
 10
168.682796
 20
10.172724
 30
0.0
  0
VERTEX
  5
412
330
40E
100
AcDbEntity
  8
001
370
     9
100
AcDbVertex
100
AcDb2dVertex
 10
167.182796
 20
9.7708
 30
0.0
  0
SEQEND
  5
40F
330
40E
100
AcDbEntity
  8
001
370
     9
  0
TEXT
  5
413
330
403
100
AcDbEntity
  8
001
370
    30
100
AcDbText
 10
100.182796
 20
11.172724
 30
0.0
 40
4.0
  1
１２５
 41
0.833333
100
AcDbText
  0
POINT
  5
414
330
403
100
AcDbEntity
  8
001
370
     9
100
AcDbPoint
 10
43.682796
 20
41.432332
 30
0.0
  0
POINT
  5
415
330
403
100
AcDbEntity
  8
001
370
     9
100
AcDbPoint
 10
168.682796
 20
49.926094
 30
0.0
  0
POINT
  5
416
330
403
100
AcDbEntity
  8
001
370
     9
100
AcDbPoint
 10
168.682796
 20
10.172724
 30
0.0
  0
ENDBLK
  5
405
330
403
100
AcDbEntity
  8
0
100
AcDbBlockEnd
  0
BLOCK
  5
418
330
417
100
AcDbEntity
  8
0
100
AcDbBlockBegin
  2
*D7
 70
     1
 10
0.0
 20
0.0
 30
0.0
  3
*D7
  1

  0
LINE
  5
41A
330
417
100
AcDbEntity
  8
001
370
     9
100
AcDbLine
 10
168.682796
 20
49.926094
 30
0.0
 11
168.682796
 21
18.093742
 31
0.0
  0
LINE
  5
41B
330
417
100
AcDbEntity
  8
001
370
     9
100
AcDbLine
 10
73.682796
 20
46.226094
 30
0.0
 11
73.682796
 21
18.093742
 31
0.0
  0
LINE
  5
41C
330
417
100
AcDbEntity
  8
001
370
     9
100
AcDbLine
 10
168.682796
 20
20.843742
 30
0.0
 11
73.682796
 21
20.843742
 31
0.0
  0
POLYLINE
  5
41D
330
417
100
AcDbEntity
  8
001
370
     9
100
AcDb2dPolyline
 66
     1
 10
0.0
 20
0.0
 30
0.0
  0
VERTEX
  5
41F
330
41D
100
AcDbEntity
  8
001
370
     9
100
AcDbVertex
100
AcDb2dVertex
 10
167.182796
 20
21.245666
 30
0.0
  0
VERTEX
  5
420
330
41D
100
AcDbEntity
  8
001
370
     9
100
AcDbVertex
100
AcDb2dVertex
 10
168.682796
 20
20.843742
 30
0.0
  0
VERTEX
  5
421
330
41D
100
AcDbEntity
  8
001
370
     9
100
AcDbVertex
100
AcDb2dVertex
 10
167.182796
 20
20.441818
 30
0.0
  0
SEQEND
  5
41E
330
41D
100
AcDbEntity
  8
001
370
     9
  0
POLYLINE
  5
422
330
417
100
AcDbEntity
  8
001
370
     9
100
AcDb2dPolyline
 66
     1
 10
0.0
 20
0.0
 30
0.0
  0
VERTEX
  5
424
330
422
100
AcDbEntity
  8
001
370
     9
100
AcDbVertex
100
AcDb2dVertex
 10
75.182796
 20
20.441818
 30
0.0
  0
VERTEX
  5
425
330
422
100
AcDbEntity
  8
001
370
     9
100
AcDbVertex
100
AcDb2dVertex
 10
73.682796
 20
20.843742
 30
0.0
  0
VERTEX
  5
426
330
422
100
AcDbEntity
  8
001
370
     9
100
AcDbVertex
100
AcDb2dVertex
 10
75.182796
 20
21.245666
 30
0.0
  0
SEQEND
  5
423
330
422
100
AcDbEntity
  8
001
370
     9
  0
TEXT
  5
427
330
417
100
AcDbEntity
  8
001
370
    30
100
AcDbText
 10
117.182796
 20
21.843742
 30
0.0
 40
4.0
  1
９５
 41
0.833333
100
AcDbText
  0
POINT
  5
428
330
417
100
AcDbEntity
  8
001
370
     9
100
AcDbPoint
 10
168.682796
 20
49.926094
 30
0.0
  0
POINT
  5
429
330
417
100
AcDbEntity
  8
001
370
     9
100
AcDbPoint
 10
73.682796
 20
46.226094
 30
0.0
  0
POINT
  5
42A
330
417
100
AcDbEntity
  8
001
370
     9
100
AcDbPoint
 10
73.682796
 20
20.843742
 30
0.0
  0
ENDBLK
  5
419
330
417
100
AcDbEntity
  8
0
100
AcDbBlockEnd
  0
BLOCK
  5
42C
330
42B
100
AcDbEntity
  8
0
100
AcDbBlockBegin
  2
*D8
 70
     1
 10
0.0
 20
0.0
 30
0.0
  3
*D8
  1

  0
LINE
  5
42E
330
42B
100
AcDbEntity
  8
001
370
     9
100
AcDbLine
 10
162.682796
 20
63.926094
 30
0.0
 11
194.088687
 21
63.926094
 31
0.0
  0
LINE
  5
42F
330
42B
100
AcDbEntity
  8
001
370
     9
100
AcDbLine
 10
162.682796
 20
43.926094
 30
0.0
 11
194.088687
 21
43.926094
 31
0.0
  0
LINE
  5
430
330
42B
100
AcDbEntity
  8
001
370
     9
100
AcDbLine
 10
191.338687
 20
63.926094
 30
0.0
 11
191.338687
 21
43.926094
 31
0.0
  0
POLYLINE
  5
431
330
42B
100
AcDbEntity
  8
001
370
     9
100
AcDb2dPolyline
 66
     1
 10
0.0
 20
0.0
 30
0.0
  0
VERTEX
  5
433
330
431
100
AcDbEntity
  8
001
370
     9
100
AcDbVertex
100
AcDb2dVertex
 10
190.936763
 20
62.426094
 30
0.0
  0
VERTEX
  5
434
330
431
100
AcDbEntity
  8
001
370
     9
100
AcDbVertex
100
AcDb2dVertex
 10
191.338687
 20
63.926094
 30
0.0
  0
VERTEX
  5
435
330
431
100
AcDbEntity
  8
001
370
     9
100
AcDbVertex
100
AcDb2dVertex
 10
191.74061
 20
62.426094
 30
0.0
  0
SEQEND
  5
432
330
431
100
AcDbEntity
  8
001
370
     9
  0
POLYLINE
  5
436
330
42B
100
AcDbEntity
  8
001
370
     9
100
AcDb2dPolyline
 66
     1
 10
0.0
 20
0.0
 30
0.0
  0
VERTEX
  5
438
330
436
100
AcDbEntity
  8
001
370
     9
100
AcDbVertex
100
AcDb2dVertex
 10
191.74061
 20
45.426094
 30
0.0
  0
VERTEX
  5
439
330
436
100
AcDbEntity
  8
001
370
     9
100
AcDbVertex
100
AcDb2dVertex
 10
191.338687
 20
43.926094
 30
0.0
  0
VERTEX
  5
43A
330
436
100
AcDbEntity
  8
001
370
     9
100
AcDbVertex
100
AcDb2dVertex
 10
190.936763
 20
45.426094
 30
0.0
  0
SEQEND
  5
437
330
436
100
AcDbEntity
  8
001
370
     9
  0
TEXT
  5
43B
330
42B
100
AcDbEntity
  8
001
370
    30
100
AcDbText
 10
190.338687
 20
28.426094
 30
0.0
 40
4.0
  1
%%c２０
 50
90.000003
 41
0.882353
100
AcDbText
  0
POINT
  5
43C
330
42B
100
AcDbEntity
  8
001
370
     9
100
AcDbPoint
 10
162.682796
 20
63.926094
 30
0.0
  0
POINT
  5
43D
330
42B
100
AcDbEntity
  8
001
370
     9
100
AcDbPoint
 10
162.682796
 20
43.926094
 30
0.0
  0
POINT
  5
43E
330
42B
100
AcDbEntity
  8
001
370
     9
100
AcDbPoint
 10
191.338687
 20
43.926094
 30
0.0
  0
LINE
  5
43F
330
42B
100
AcDbEntity
  8
001
370
     9
100
AcDbLine
 10
191.338687
 20
43.926094
 30
0.0
 11
191.338687
 21
25.426094
 31
0.0
  0
ENDBLK
  5
42D
330
42B
100
AcDbEntity
  8
0
100
AcDbBlockEnd
  0
ENDSEC
  0
SECTION
  2
ENTITIES
  0
INSERT
  5
440
330
1F
100
AcDbEntity
  8
001
  6
ByBlock
 62
     0
370
    -2
100
AcDbBlockReference
  2
M-1-1
 10
0.0
 20
0.0
 30
0.0
  0
INSERT
  5
441
330
1F
100
AcDbEntity
  8
001
  6
ByBlock
 62
     0
370
    -2
100
AcDbBlockReference
  2
C32GUX-2
 10
0.0
 20
0.0
 30
0.0
  0
DIMENSION
  5
442
330
1F
100
AcDbEntity
  8
001
370
     9
100
AcDbDimension
  2
*D3
 10
43.682796
 20
20.843742
 30
0.0
 11
62.431899
 21
23.843742
 31
0.0
 70
   160
 71
     5
 42
-1.0
  3
Standard
100
AcDbAlignedDimension
 13
73.682796
 23
46.926094
 33
0.0
 14
43.682796
 24
41.432332
 34
0.0
 50
180.0
100
AcDbRotatedDimension
  0
DIMENSION
  5
443
330
1F
100
AcDbEntity
  8
001
370
     9
100
AcDbDimension
  2
*D4
 10
50.678395
 20
30.800063
 30
0.0
 11
34.182796
 21
33.800063
 31
0.0
 70
   160
 71
     5
 42
-1.0
  3
Standard
100
AcDbAlignedDimension
 13
43.682796
 23
41.432332
 33
0.0
 14
50.678395
 24
46.991445
 34
0.0
 50
360.0
100
AcDbRotatedDimension
  0
DIMENSION
  5
444
330
1F
100
AcDbEntity
  8
001
370
     9
100
AcDbDimension
  2
*D5
 10
43.682796
 20
52.164281
 30
0.0
 11
66.055987
 21
44.558055
 31
0.0
 70
    34
 71
     5
 42
-1.0
  3
Standard
100
AcDb2LineAngularDimension
 13
50.108806
 23
47.412623
 33
0.0
 14
43.682796
 24
52.164281
 34
0.0
 15
43.682796
 25
41.432332
 35
0.0
 16
56.130003
 26
27.47979
 36
0.0
  0
DIMENSION
  5
445
330
1F
100
AcDbEntity
  8
001
370
     9
100
AcDbDimension
  2
*D6
 10
168.682796
 20
10.172724
 30
0.0
 11
106.182796
 21
13.172724
 31
0.0
 70
   160
 71
     5
 42
-1.0
  3
Standard
100
AcDbAlignedDimension
 13
43.682796
 23
41.432332
 33
0.0
 14
168.682796
 24
49.926094
 34
0.0
100
AcDbRotatedDimension
  0
DIMENSION
  5
446
330
1F
100
AcDbEntity
  8
001
370
     9
100
AcDbDimension
  2
*D7
 10
73.682796
 20
20.843742
 30
0.0
 11
121.182796
 21
23.843742
 31
0.0
 70
   160
 71
     5
 42
-1.0
  3
Standard
100
AcDbAlignedDimension
 13
168.682796
 23
49.926094
 33
0.0
 14
73.682796
 24
46.226094
 34
0.0
 50
180.0
100
AcDbRotatedDimension
  0
DIMENSION
  5
447
330
1F
100
AcDbEntity
  8
001
370
     9
100
AcDbDimension
  2
*D8
 10
191.338687
 20
43.926094
 30
0.0
 11
188.338686
 21
34.426094
 31
0.0
 70
   160
 71
     5
 42
-1.0
  3
Standard
100
AcDbAlignedDimension
 13
162.682796
 23
63.926094
 33
0.0
 14
162.682796
 24
43.926094
 34
0.0
 50
270.0
100
AcDbRotatedDimension
  0
TEXT
  5
448
330
1F
100
AcDbEntity
  8
001
370
    30
100
AcDbText
 10
20.847258
 20
47.766447
 30
0.0
 40
4.0
  1
%%c１５．４５
 50
90.000003
 41
0.857143
100
AcDbText
  0
POLYLINE
  5
449
330
1F
100
AcDbEntity
  8
001
370
     9
100
AcDb2dPolyline
 66
     1
 10
0.0
 20
0.0
 30
0.0
  0
VERTEX
  5
44B
330
449
100
AcDbEntity
  8
001
370
     9
100
AcDbVertex
100
AcDb2dVertex
 10
22.249181
 20
48.491445
 30
0.0
  0
VERTEX
  5
44C
330
449
100
AcDbEntity
  8
001
370
     9
100
AcDbVertex
100
AcDb2dVertex
 10
21.847258
 20
46.991445
 30
0.0
  0
VERTEX
  5
44D
330
449
100
AcDbEntity
  8
001
370
     9
100
AcDbVertex
100
AcDb2dVertex
 10
21.445334
 20
48.491445
 30
0.0
  0
SEQEND
  5
44A
330
449
100
AcDbEntity
  8
001
370
     9
  0
LINE
  5
44E
330
1F
100
AcDbEntity
  8
001
370
     9
100
AcDbLine
 10
21.847258
 20
62.443309
 30
0.0
 11
21.847258
 21
46.991445
 31
0.0
  0
POLYLINE
  5
44F
330
1F
100
AcDbEntity
  8
001
370
     9
100
AcDb2dPolyline
 66
     1
 10
0.0
 20
0.0
 30
0.0
  0
VERTEX
  5
451
330
44F
100
AcDbEntity
  8
001
370
     9
100
AcDbVertex
100
AcDb2dVertex
 10
50.678395
 20
46.991445
 30
0.0
  0
VERTEX
  5
452
330
44F
100
AcDbEntity
  8
001
370
     9
100
AcDbVertex
100
AcDb2dVertex
 10
21.847258
 20
46.991445
 30
0.0
  0
VERTEX
  5
453
330
44F
100
AcDbEntity
  8
001
370
     9
100
AcDbVertex
100
AcDb2dVertex
 10
19.097258
 20
46.991445
 30
0.0
  0
SEQEND
  5
450
330
44F
100
AcDbEntity
  8
001
370
     9
  0
TEXT
  5
454
330
1F
100
AcDbEntity
  8
001
370
    30
100
AcDbText
 10
30.90252
 20
56.217898
 30
0.0
 40
4.0
  1
%%c４
 50
90.000003
 41
0.909091
100
AcDbText
  0
POLYLINE
  5
455
330
1F
100
AcDbEntity
  8
001
370
     9
100
AcDb2dPolyline
 66
     1
 10
0.0
 20
0.0
 30
0.0
  0
VERTEX
  5
457
330
455
100
AcDbEntity
  8
001
370
     9
100
AcDbVertex
100
AcDb2dVertex
 10
32.304444
 20
53.664281
 30
0.0
  0
VERTEX
  5
458
330
455
100
AcDbEntity
  8
001
370
     9
100
AcDbVertex
100
AcDb2dVertex
 10
31.90252
 20
52.164281
 30
0.0
  0
VERTEX
  5
459
330
455
100
AcDbEntity
  8
001
370
     9
100
AcDbVertex
100
AcDb2dVertex
 10
31.500596
 20
53.664281
 30
0.0
  0
SEQEND
  5
456
330
455
100
AcDbEntity
  8
001
370
     9
  0
LINE
  5
45A
330
1F
100
AcDbEntity
  8
001
370
     9
100
AcDbLine
 10
31.90252
 20
67.217898
 30
0.0
 11
31.90252
 21
52.164281
 31
0.0
  0
POLYLINE
  5
45B
330
1F
100
AcDbEntity
  8
001
370
     9
100
AcDb2dPolyline
 66
     1
 10
0.0
 20
0.0
 30
0.0
  0
VERTEX
  5
45D
330
45B
100
AcDbEntity
  8
001
370
     9
100
AcDbVertex
100
AcDb2dVertex
 10
43.682796
 20
52.164281
 30
0.0
  0
VERTEX
  5
45E
330
45B
100
AcDbEntity
  8
001
370
     9
100
AcDbVertex
100
AcDb2dVertex
 10
31.90252
 20
52.164281
 30
0.0
  0
VERTEX
  5
45F
330
45B
100
AcDbEntity
  8
001
370
     9
100
AcDbVertex
100
AcDb2dVertex
 10
29.15252
 20
52.164281
 30
0.0
  0
SEQEND
  5
45C
330
45B
100
AcDbEntity
  8
001
370
     9
  0
TEXT
  5
460
330
1F
100
AcDbEntity
  8
001
370
    30
100
AcDbText
 10
22.480115
 20
87.5317
 30
0.0
 40
8.0
  1
面取りカッター面面　ＳＮＫ５０１４Ｃ
 41
0.833333
100
AcDbText
  0
ARC
  5
461
330
1F
100
AcDbEntity
  8
001
 62
   253
370
    50
100
AcDbCircle
 10
162.682796
 20
57.926094
 30
0.0
 40
6.0
100
AcDbArc
 50
0.0
 51
90.0
  0
ARC
  5
462
330
1F
100
AcDbEntity
  8
001
 62
   253
370
    50
100
AcDbCircle
 10
162.682796
 20
49.926094
 30
0.0
 40
6.0
100
AcDbArc
 50
270.0
 51
0.0
  0
LINE
  5
463
330
1F
100
AcDbEntity
  8
001
 62
   253
370
    50
100
AcDbLine
 10
168.682796
 20
57.926094
 30
0.0
 11
168.682796
 21
49.926094
 31
0.0
  0
LINE
  5
464
330
1F
100
AcDbEntity
  8
001
 62
   253
370
    50
100
AcDbLine
 10
162.682796
 20
63.926094
 30
0.0
 11
76.942722
 21
63.926094
 31
0.0
  0
LINE
  5
465
330
1F
100
AcDbEntity
  8
001
 62
   253
370
    50
100
AcDbLine
 10
162.682796
 20
43.926094
 30
0.0
 11
76.942722
 21
43.926094
 31
0.0
  0
LINE
  5
466
330
1F
100
AcDbEntity
  8
001
 62
   253
370
    50
100
AcDbLine
 10
76.942722
 20
63.926094
 30
0.0
 11
76.942722
 21
43.926094
 31
0.0
  0
LINE
  5
467
330
1F
100
AcDbEntity
  8
001
 62
   253
370
    50
100
AcDbLine
 10
76.942722
 20
63.926094
 30
0.0
 11
73.682796
 21
60.666168
 31
0.0
  0
LINE
  5
468
330
1F
100
AcDbEntity
  8
001
 62
   253
370
    50
100
AcDbLine
 10
73.682796
 20
47.18602
 30
0.0
 11
76.942722
 21
43.926094
 31
0.0
  0
LINE
  5
469
330
1F
100
AcDbEntity
  8
001
 62
   253
370
    50
100
AcDbLine
 10
73.682796
 20
60.666168
 30
0.0
 11
73.682796
 21
47.18602
 31
0.0
  0
POLYLINE
  5
46A
330
1F
100
AcDbEntity
  8
001
 62
   253
370
    50
100
AcDb2dPolyline
 66
     1
 10
0.0
 20
0.0
 30
0.0
  0
VERTEX
  5
46C
330
46A
100
AcDbEntity
  8
001
 62
   253
370
    50
100
AcDbVertex
100
AcDb2dVertex
 10
52.401658
 20
60.666168
 30
0.0
  0
VERTEX
  5
46D
330
46A
100
AcDbEntity
  8
001
 62
   253
370
    50
100
AcDbVertex
100
AcDb2dVertex
 10
52.209493
 20
60.648848
 30
0.0
  0
VERTEX
  5
46E
330
46A
100
AcDbEntity
  8
001
 62
   253
370
    50
100
AcDbVertex
100
AcDb2dVertex
 10
51.93345
 20
60.593539
 30
0.0
  0
VERTEX
  5
46F
330
46A
100
AcDbEntity
  8
001
 62
   253
370
    50
100
AcDbVertex
100
AcDb2dVertex
 10
51.898594
 20
60.584006
 30
0.0
  0
VERTEX
  5
470
330
46A
100
AcDbEntity
  8
001
 62
   253
370
    50
100
AcDbVertex
100
AcDb2dVertex
 10
51.874809
 20
60.577248
 30
0.0
  0
SEQEND
  5
46B
330
46A
100
AcDbEntity
  8
001
370
    50
  0
LINE
  5
471
330
1F
100
AcDbEntity
  8
001
 62
   253
370
    50
100
AcDbLine
 10
73.682796
 20
60.666168
 30
0.0
 11
52.401658
 21
60.666168
 31
0.0
  0
LINE
  5
472
330
1F
100
AcDbEntity
  8
001
 62
   253
370
    50
100
AcDbLine
 10
52.164263
 20
47.18602
 30
0.0
 11
73.682796
 21
47.18602
 31
0.0
  0
LINE
  5
473
330
1F
100
AcDbEntity
  8
001
 62
   253
370
    50
100
AcDbLine
 10
51.874809
 20
60.577248
 30
0.0
 11
51.874809
 21
59.36629
 31
0.0
  0
POLYLINE
  5
474
330
1F
100
AcDbEntity
  8
001
 62
   253
370
    50
100
AcDb2dPolyline
 66
     1
 10
0.0
 20
0.0
 30
0.0
  0
VERTEX
  5
476
330
474
100
AcDbEntity
  8
001
 62
   253
370
    50
100
AcDbVertex
100
AcDb2dVertex
 10
52.397234
 20
48.643688
 30
0.0
  0
VERTEX
  5
477
330
474
100
AcDbEntity
  8
001
 62
   253
370
    50
100
AcDbVertex
100
AcDb2dVertex
 10
52.297528
 20
48.452865
 30
0.0
  0
VERTEX
  5
478
330
474
100
AcDbEntity
  8
001
 62
   253
370
    50
100
AcDbVertex
100
AcDb2dVertex
 10
52.171809
 20
48.184185
 30
0.0
  0
VERTEX
  5
479
330
474
100
AcDbEntity
  8
001
 62
   253
370
    50
100
AcDbVertex
100
AcDb2dVertex
 10
52.076732
 20
47.917285
 30
0.0
  0
VERTEX
  5
47A
330
474
100
AcDbEntity
  8
001
 62
   253
370
    50
100
AcDbVertex
100
AcDb2dVertex
 10
52.032738
 20
47.658484
 30
0.0
  0
VERTEX
  5
47B
330
474
100
AcDbEntity
  8
001
 62
   253
370
    50
100
AcDbVertex
100
AcDb2dVertex
 10
52.040008
 20
47.484806
 30
0.0
  0
VERTEX
  5
47C
330
474
100
AcDbEntity
  8
001
 62
   253
370
    50
100
AcDbVertex
100
AcDb2dVertex
 10
52.124887
 20
47.323221
 30
0.0
  0
VERTEX
  5
47D
330
474
100
AcDbEntity
  8
001
 62
   253
370
    50
100
AcDbVertex
100
AcDb2dVertex
 10
52.178614
 20
47.27622
 30
0.0
  0
VERTEX
  5
47E
330
474
100
AcDbEntity
  8
001
 62
   253
370
    50
100
AcDbVertex
100
AcDb2dVertex
 10
52.220692
 20
47.247788
 30
0.0
  0
SEQEND
  5
475
330
474
100
AcDbEntity
  8
001
370
    50
  0
POLYLINE
  5
47F
330
1F
100
AcDbEntity
  8
001
 62
   253
370
    50
100
AcDb2dPolyline
 66
     1
 10
0.0
 20
0.0
 30
0.0
  0
VERTEX
  5
481
330
47F
100
AcDbEntity
  8
001
 62
   253
370
    50
100
AcDbVertex
100
AcDb2dVertex
 10
52.397234
 20
48.643688
 30
0.0
  0
VERTEX
  5
482
330
47F
100
AcDbEntity
  8
001
 62
   253
370
    50
100
AcDbVertex
100
AcDb2dVertex
 10
54.239503
 20
49.347481
 30
0.0
  0
VERTEX
  5
483
330
47F
100
AcDbEntity
  8
001
 62
   253
370
    50
100
AcDbVertex
100
AcDb2dVertex
 10
56.559344
 20
50.556057
 30
0.0
  0
VERTEX
  5
484
330
47F
100
AcDbEntity
  8
001
 62
   253
370
    50
100
AcDbVertex
100
AcDb2dVertex
 10
57.232847
 20
51.059046
 30
0.0
  0
VERTEX
  5
485
330
47F
100
AcDbEntity
  8
001
 62
   253
370
    50
100
AcDbVertex
100
AcDb2dVertex
 10
57.8112
 20
51.620853
 30
0.0
  0
VERTEX
  5
486
330
47F
100
AcDbEntity
  8
001
 62
   253
370
    50
100
AcDbVertex
100
AcDb2dVertex
 10
58.237811
 20
52.156007
 30
0.0
  0
VERTEX
  5
487
330
47F
100
AcDbEntity
  8
001
 62
   253
370
    50
100
AcDbVertex
100
AcDb2dVertex
 10
58.577859
 20
52.755692
 30
0.0
  0
VERTEX
  5
488
330
47F
100
AcDbEntity
  8
001
 62
   253
370
    50
100
AcDbVertex
100
AcDb2dVertex
 10
58.768327
 20
53.328719
 30
0.0
  0
VERTEX
  5
489
330
47F
100
AcDbEntity
  8
001
 62
   253
370
    50
100
AcDbVertex
100
AcDb2dVertex
 10
58.836027
 20
53.926094
 30
0.0
  0
VERTEX
  5
48A
330
47F
100
AcDbEntity
  8
001
 62
   253
370
    50
100
AcDbVertex
100
AcDb2dVertex
 10
58.768248
 20
54.523491
 30
0.0
  0
VERTEX
  5
48B
330
47F
100
AcDbEntity
  8
001
 62
   253
370
    50
100
AcDbVertex
100
AcDb2dVertex
 10
58.577859
 20
55.096495
 30
0.0
  0
VERTEX
  5
48C
330
47F
100
AcDbEntity
  8
001
 62
   253
370
    50
100
AcDbVertex
100
AcDb2dVertex
 10
58.238094
 20
55.696043
 30
0.0
  0
VERTEX
  5
48D
330
47F
100
AcDbEntity
  8
001
 62
   253
370
    50
100
AcDbVertex
100
AcDb2dVertex
 10
57.8112
 20
56.231335
 30
0.0
  0
VERTEX
  5
48E
330
47F
100
AcDbEntity
  8
001
 62
   253
370
    50
100
AcDbVertex
100
AcDb2dVertex
 10
57.231488
 20
56.793824
 30
0.0
  0
VERTEX
  5
48F
330
47F
100
AcDbEntity
  8
001
 62
   253
370
    50
100
AcDbVertex
100
AcDb2dVertex
 10
56.559344
 20
57.296131
 30
0.0
  0
VERTEX
  5
490
330
47F
100
AcDbEntity
  8
001
 62
   253
370
    50
100
AcDbVertex
100
AcDb2dVertex
 10
53.955536
 20
58.61851
 30
0.0
  0
VERTEX
  5
491
330
47F
100
AcDbEntity
  8
001
 62
   253
370
    50
100
AcDbVertex
100
AcDb2dVertex
 10
51.874809
 20
59.36629
 30
0.0
  0
SEQEND
  5
480
330
47F
100
AcDbEntity
  8
001
370
    50
  0
LINE
  5
492
330
1F
100
AcDbEntity
  8
001
 62
   253
370
    50
100
AcDbLine
 10
50.62421
 20
58.644106
 30
0.0
 11
54.318852
 21
55.912135
 31
0.0
  0
LINE
  5
493
330
1F
100
AcDbEntity
  8
001
 62
   253
370
    50
100
AcDbLine
 10
50.62421
 20
58.644106
 30
0.0
 11
51.874809
 21
59.36629
 31
0.0
  0
LINE
  5
494
330
1F
100
AcDbEntity
  8
001
 62
   253
370
    50
100
AcDbLine
 10
54.739707
 20
51.207817
 30
0.0
 11
52.397234
 21
48.643688
 31
0.0
  0
POLYLINE
  5
495
330
1F
100
AcDbEntity
  8
001
 62
   253
370
    50
100
AcDb2dPolyline
 66
     1
 10
0.0
 20
0.0
 30
0.0
  0
VERTEX
  5
497
330
495
100
AcDbEntity
  8
001
 62
   253
370
    50
100
AcDbVertex
100
AcDb2dVertex
 10
54.739707
 20
51.207817
 30
0.0
  0
VERTEX
  5
498
330
495
100
AcDbEntity
  8
001
 62
   253
370
    50
100
AcDbVertex
100
AcDb2dVertex
 10
54.796861
 20
51.193917
 30
0.0
  0
VERTEX
  5
499
330
495
100
AcDbEntity
  8
001
 62
   253
370
    50
100
AcDbVertex
100
AcDb2dVertex
 10
54.880908
 20
51.176143
 30
0.0
  0
VERTEX
  5
49A
330
495
100
AcDbEntity
  8
001
 62
   253
370
    50
100
AcDbVertex
100
AcDb2dVertex
 10
55.119529
 20
51.145364
 30
0.0
  0
VERTEX
  5
49B
330
495
100
AcDbEntity
  8
001
 62
   253
370
    50
100
AcDbVertex
100
AcDb2dVertex
 10
55.284446
 20
51.138162
 30
0.0
  0
SEQEND
  5
496
330
495
100
AcDbEntity
  8
001
370
    50
  0
POLYLINE
  5
49C
330
1F
100
AcDbEntity
  8
001
 62
   253
370
    50
100
AcDb2dPolyline
 66
     1
 10
0.0
 20
0.0
 30
0.0
  0
VERTEX
  5
49E
330
49C
100
AcDbEntity
  8
001
 62
   253
370
    50
100
AcDbVertex
100
AcDb2dVertex
 10
55.833773
 20
56.067312
 30
0.0
  0
VERTEX
  5
49F
330
49C
100
AcDbEntity
  8
001
 62
   253
370
    50
100
AcDbVertex
100
AcDb2dVertex
 10
55.732966
 20
56.037962
 30
0.0
  0
VERTEX
  5
4A0
330
49C
100
AcDbEntity
  8
001
 62
   253
370
    50
100
AcDbVertex
100
AcDb2dVertex
 10
55.588287
 20
55.987394
 30
0.0
  0
VERTEX
  5
4A1
330
49C
100
AcDbEntity
  8
001
 62
   253
370
    50
100
AcDbVertex
100
AcDb2dVertex
 10
55.486203
 20
55.944276
 30
0.0
  0
VERTEX
  5
4A2
330
49C
100
AcDbEntity
  8
001
 62
   253
370
    50
100
AcDbVertex
100
AcDb2dVertex
 10
55.417472
 20
55.912116
 30
0.0
  0
SEQEND
  5
49D
330
49C
100
AcDbEntity
  8
001
370
    50
  0
POLYLINE
  5
4A3
330
1F
100
AcDbEntity
  8
001
 62
   253
370
    50
100
AcDb2dPolyline
 66
     1
 10
0.0
 20
0.0
 30
0.0
  0
VERTEX
  5
4A5
330
4A3
100
AcDbEntity
  8
001
 62
   253
370
    50
100
AcDbVertex
100
AcDb2dVertex
 10
55.284446
 20
56.138162
 30
0.0
  0
VERTEX
  5
4A6
330
4A3
100
AcDbEntity
  8
001
 62
   253
370
    50
100
AcDbVertex
100
AcDb2dVertex
 10
55.111804
 20
56.127637
 30
0.0
  0
VERTEX
  5
4A7
330
4A3
100
AcDbEntity
  8
001
 62
   253
370
    50
100
AcDbVertex
100
AcDb2dVertex
 10
54.880908
 20
56.100181
 30
0.0
  0
VERTEX
  5
4A8
330
4A3
100
AcDbEntity
  8
001
 62
   253
370
    50
100
AcDbVertex
100
AcDb2dVertex
 10
54.685095
 20
56.057857
 30
0.0
  0
VERTEX
  5
4A9
330
4A3
100
AcDbEntity
  8
001
 62
   253
370
    50
100
AcDbVertex
100
AcDb2dVertex
 10
54.489631
 20
55.987394
 30
0.0
  0
VERTEX
  5
4AA
330
4A3
100
AcDbEntity
  8
001
 62
   253
370
    50
100
AcDbVertex
100
AcDb2dVertex
 10
54.389715
 20
55.944563
 30
0.0
  0
VERTEX
  5
4AB
330
4A3
100
AcDbEntity
  8
001
 62
   253
370
    50
100
AcDbVertex
100
AcDb2dVertex
 10
54.318852
 20
55.912135
 30
0.0
  0
SEQEND
  5
4A4
330
4A3
100
AcDbEntity
  8
001
370
    50
  0
POLYLINE
  5
4AC
330
1F
100
AcDbEntity
  8
001
 62
   253
370
    50
100
AcDb2dPolyline
 66
     1
 10
0.0
 20
0.0
 30
0.0
  0
VERTEX
  5
4AE
330
4AC
100
AcDbEntity
  8
001
 62
   253
370
    50
100
AcDbVertex
100
AcDb2dVertex
 10
55.284446
 20
51.138162
 30
0.0
  0
VERTEX
  5
4AF
330
4AC
100
AcDbEntity
  8
001
 62
   253
370
    50
100
AcDbVertex
100
AcDb2dVertex
 10
55.454855
 20
51.147688
 30
0.0
  0
VERTEX
  5
4B0
330
4AC
100
AcDbEntity
  8
001
 62
   253
370
    50
100
AcDbVertex
100
AcDb2dVertex
 10
55.687984
 20
51.176143
 30
0.0
  0
VERTEX
  5
4B1
330
4AC
100
AcDbEntity
  8
001
 62
   253
370
    50
100
AcDbVertex
100
AcDb2dVertex
 10
55.895037
 20
51.223497
 30
0.0
  0
VERTEX
  5
4B2
330
4AC
100
AcDbEntity
  8
001
 62
   253
370
    50
100
AcDbVertex
100
AcDb2dVertex
 10
56.079261
 20
51.288931
 30
0.0
  0
VERTEX
  5
4B3
330
4AC
100
AcDbEntity
  8
001
 62
   253
370
    50
100
AcDbVertex
100
AcDb2dVertex
 10
56.264295
 20
51.372462
 30
0.0
  0
VERTEX
  5
4B4
330
4AC
100
AcDbEntity
  8
001
 62
   253
370
    50
100
AcDbVertex
100
AcDb2dVertex
 10
56.446388
 20
51.473099
 30
0.0
  0
VERTEX
  5
4B5
330
4AC
100
AcDbEntity
  8
001
 62
   253
370
    50
100
AcDbVertex
100
AcDb2dVertex
 10
56.932511
 20
51.874804
 30
0.0
  0
VERTEX
  5
4B6
330
4AC
100
AcDbEntity
  8
001
 62
   253
370
    50
100
AcDbVertex
100
AcDb2dVertex
 10
57.296988
 20
52.388162
 30
0.0
  0
VERTEX
  5
4B7
330
4AC
100
AcDbEntity
  8
001
 62
   253
370
    50
100
AcDbVertex
100
AcDb2dVertex
 10
57.468858
 20
52.785316
 30
0.0
  0
VERTEX
  5
4B8
330
4AC
100
AcDbEntity
  8
001
 62
   253
370
    50
100
AcDbVertex
100
AcDb2dVertex
 10
57.573024
 20
53.204042
 30
0.0
  0
VERTEX
  5
4B9
330
4AC
100
AcDbEntity
  8
001
 62
   253
370
    50
100
AcDbVertex
100
AcDb2dVertex
 10
57.599506
 20
53.420442
 30
0.0
  0
VERTEX
  5
4BA
330
4AC
100
AcDbEntity
  8
001
 62
   253
370
    50
100
AcDbVertex
100
AcDb2dVertex
 10
57.608329
 20
53.638162
 30
0.0
  0
VERTEX
  5
4BB
330
4AC
100
AcDbEntity
  8
001
 62
   253
370
    50
100
AcDbVertex
100
AcDb2dVertex
 10
57.599506
 20
53.855882
 30
0.0
  0
VERTEX
  5
4BC
330
4AC
100
AcDbEntity
  8
001
 62
   253
370
    50
100
AcDbVertex
100
AcDb2dVertex
 10
57.573024
 20
54.072283
 30
0.0
  0
VERTEX
  5
4BD
330
4AC
100
AcDbEntity
  8
001
 62
   253
370
    50
100
AcDbVertex
100
AcDb2dVertex
 10
57.468858
 20
54.491008
 30
0.0
  0
VERTEX
  5
4BE
330
4AC
100
AcDbEntity
  8
001
 62
   253
370
    50
100
AcDbVertex
100
AcDb2dVertex
 10
57.296988
 20
54.888162
 30
0.0
  0
VERTEX
  5
4BF
330
4AC
100
AcDbEntity
  8
001
 62
   253
370
    50
100
AcDbVertex
100
AcDb2dVertex
 10
56.932511
 20
55.40152
 30
0.0
  0
VERTEX
  5
4C0
330
4AC
100
AcDbEntity
  8
001
 62
   253
370
    50
100
AcDbVertex
100
AcDb2dVertex
 10
56.446388
 20
55.803226
 30
0.0
  0
VERTEX
  5
4C1
330
4AC
100
AcDbEntity
  8
001
 62
   253
370
    50
100
AcDbVertex
100
AcDb2dVertex
 10
56.264295
 20
55.903862
 30
0.0
  0
VERTEX
  5
4C2
330
4AC
100
AcDbEntity
  8
001
 62
   253
370
    50
100
AcDbVertex
100
AcDb2dVertex
 10
56.079261
 20
55.987394
 30
0.0
  0
VERTEX
  5
4C3
330
4AC
100
AcDbEntity
  8
001
 62
   253
370
    50
100
AcDbVertex
100
AcDb2dVertex
 10
55.895037
 20
56.052827
 30
0.0
  0
VERTEX
  5
4C4
330
4AC
100
AcDbEntity
  8
001
 62
   253
370
    50
100
AcDbVertex
100
AcDb2dVertex
 10
55.687984
 20
56.100181
 30
0.0
  0
VERTEX
  5
4C5
330
4AC
100
AcDbEntity
  8
001
 62
   253
370
    50
100
AcDbVertex
100
AcDb2dVertex
 10
55.454855
 20
56.128636
 30
0.0
  0
VERTEX
  5
4C6
330
4AC
100
AcDbEntity
  8
001
 62
   253
370
    50
100
AcDbVertex
100
AcDb2dVertex
 10
55.284446
 20
56.138162
 30
0.0
  0
SEQEND
  5
4AD
330
4AC
100
AcDbEntity
  8
001
370
    50
  0
LINE
  5
4C7
330
1F
100
AcDbEntity
  8
001
 62
   253
370
    50
100
AcDbLine
 10
54.739707
 20
51.207817
 30
0.0
 11
55.821713
 21
51.20783
 31
0.0
  0
LINE
  5
4C8
330
1F
100
AcDbEntity
  8
001
 62
   253
370
    50
100
AcDbLine
 10
55.417472
 20
55.912116
 30
0.0
 11
54.318852
 21
55.912135
 31
0.0
  0
POLYLINE
  5
4C9
330
1F
100
AcDbEntity
  8
001
 62
   253
370
    50
100
AcDb2dPolyline
 66
     1
 10
0.0
 20
0.0
 30
0.0
  0
VERTEX
  5
4CB
330
4C9
100
AcDbEntity
  8
001
 62
   253
370
    50
100
AcDbVertex
100
AcDb2dVertex
 10
51.874809
 20
60.577248
 30
0.0
  0
VERTEX
  5
4CC
330
4C9
100
AcDbEntity
  8
001
 62
   253
370
    50
100
AcDbVertex
100
AcDb2dVertex
 10
51.450516
 20
60.242346
 30
0.0
  0
VERTEX
  5
4CD
330
4C9
100
AcDbEntity
  8
001
 62
   253
370
    50
100
AcDbVertex
100
AcDb2dVertex
 10
50.834762
 20
59.747426
 30
0.0
  0
VERTEX
  5
4CE
330
4C9
100
AcDbEntity
  8
001
 62
   253
370
    50
100
AcDbVertex
100
AcDb2dVertex
 10
50.517096
 20
59.487301
 30
0.0
  0
VERTEX
  5
4CF
330
4C9
100
AcDbEntity
  8
001
 62
   253
370
    50
100
AcDbVertex
100
AcDb2dVertex
 10
50.300527
 20
59.308365
 30
0.0
  0
SEQEND
  5
4CA
330
4C9
100
AcDbEntity
  8
001
370
    50
  0
POLYLINE
  5
4D0
330
1F
100
AcDbEntity
  8
001
 62
   253
370
    50
100
AcDb2dPolyline
 66
     1
 10
0.0
 20
0.0
 30
0.0
  0
VERTEX
  5
4D2
330
4D0
100
AcDbEntity
  8
001
 62
   253
370
    50
100
AcDbVertex
100
AcDb2dVertex
 10
50.300527
 20
59.308365
 30
0.0
  0
VERTEX
  5
4D3
330
4D0
100
AcDbEntity
  8
001
 62
   253
370
    50
100
AcDbVertex
100
AcDb2dVertex
 10
50.322548
 20
59.219327
 30
0.0
  0
VERTEX
  5
4D4
330
4D0
100
AcDbEntity
  8
001
 62
   253
370
    50
100
AcDbVertex
100
AcDb2dVertex
 10
50.349208
 20
59.1319
 30
0.0
  0
VERTEX
  5
4D5
330
4D0
100
AcDbEntity
  8
001
 62
   253
370
    50
100
AcDbVertex
100
AcDb2dVertex
 10
50.39305
 20
59.027873
 30
0.0
  0
VERTEX
  5
4D6
330
4D0
100
AcDbEntity
  8
001
 62
   253
370
    50
100
AcDbVertex
100
AcDb2dVertex
 10
50.44555
 20
58.927485
 30
0.0
  0
VERTEX
  5
4D7
330
4D0
100
AcDbEntity
  8
001
 62
   253
370
    50
100
AcDbVertex
100
AcDb2dVertex
 10
50.485263
 20
58.858134
 30
0.0
  0
VERTEX
  5
4D8
330
4D0
100
AcDbEntity
  8
001
 62
   253
370
    50
100
AcDbVertex
100
AcDb2dVertex
 10
50.526879
 20
58.790051
 30
0.0
  0
VERTEX
  5
4D9
330
4D0
100
AcDbEntity
  8
001
 62
   253
370
    50
100
AcDbVertex
100
AcDb2dVertex
 10
50.574874
 20
58.71667
 30
0.0
  0
VERTEX
  5
4DA
330
4D0
100
AcDbEntity
  8
001
 62
   253
370
    50
100
AcDbVertex
100
AcDb2dVertex
 10
50.62421
 20
58.644106
 30
0.0
  0
SEQEND
  5
4D1
330
4D0
100
AcDbEntity
  8
001
370
    50
  0
LINE
  5
4DB
330
1F
100
AcDbEntity
  8
001
 62
   253
370
    50
100
AcDbLine
 10
57.507474
 20
54.366669
 30
0.0
 11
55.417472
 21
55.912116
 31
0.0
  0
LINE
  5
4DC
330
1F
100
AcDbEntity
  8
001
 62
   253
370
    50
100
AcDbLine
 10
55.841174
 20
51.210963
 30
0.0
 11
57.549985
 21
53.081487
 31
0.0
  0
LINE
  5
4DD
330
1F
100
AcDbEntity
  8
001
370
    50
100
AcDbLine
 10
168.682796
 20
53.926094
 30
0.0
 11
172.461703
 21
56.107847
 31
0.0
  0
LINE
  5
4DE
330
1F
100
AcDbEntity
  8
001
370
    50
100
AcDbLine
 10
168.682796
 20
53.926094
 30
0.0
 11
172.461703
 21
51.744341
 31
0.0
  0
LINE
  5
4DF
330
1F
100
AcDbEntity
  8
001
  6
CENTER
 62
   253
370
     9
100
AcDbLine
 10
40.534526
 20
53.926094
 30
0.0
 11
180.340598
 21
53.926094
 31
0.0
  0
LINE
  5
4E0
330
1F
100
AcDbEntity
  8
001
 62
   253
370
     9
100
AcDbLine
 10
43.682796
 20
41.432332
 30
0.0
 11
43.682796
 21
52.407611
 31
0.0
  0
ENDSEC
  0
SECTION
  2
OBJECTS
  0
DICTIONARY
  5
C
330
0
100
AcDbDictionary
281
     1
  3
ACAD_GROUP
350
D
  3
ACAD_LAYOUT
350
1A
  3
ACAD_MLEADERSTYLE
350
4E4
  3
ACAD_MLINESTYLE
350
17
  3
ACAD_PLOTSETTINGS
350
19
  3
ACAD_PLOTSTYLENAME
350
E
  3
ACAD_SCALELIST
350
3B
  3
ACAD_TABLESTYLE
350
4E3
  3
ACAD_VISUALSTYLE
350
2A
  3
AcDbVariableDictionary
350
4E1
  0
DICTIONARY
  5
D
102
{ACAD_REACTORS
330
C
102
}
330
C
100
AcDbDictionary
281
     1
  0
DICTIONARY
  5
1A
102
{ACAD_REACTORS
330
C
102
}
330
C
100
AcDbDictionary
281
     1
  3
Layout1
350
1E
  3
Layout2
350
26
  3
Model
350
22
  0
DICTIONARY
  5
4E4
102
{ACAD_REACTORS
330
C
102
}
330
C
100
AcDbDictionary
281
     1
  0
DICTIONARY
  5
17
102
{ACAD_REACTORS
330
C
102
}
330
C
100
AcDbDictionary
281
     1
  3
Standard
350
18
  0
DICTIONARY
  5
19
102
{ACAD_REACTORS
330
C
102
}
330
C
100
AcDbDictionary
281
     1
  0
ACDBDICTIONARYWDFLT
  5
E
102
{ACAD_REACTORS
330
C
102
}
330
C
100
AcDbDictionary
281
     1
  3
Normal
350
F
100
AcDbDictionaryWithDefault
340
F
  0
DICTIONARY
  5
3B
102
{ACAD_REACTORS
330
C
102
}
330
C
100
AcDbDictionary
281
     1
  3
A0
350
3C
  3
A1
350
3D
  3
A2
350
3E
  3
A3
350
3F
  3
A4
350
40
  3
A5
350
41
  3
A6
350
42
  3
A7
350
43
  3
A8
350
44
  3
A9
350
45
  3
B0
350
46
  3
B1
350
47
  3
B2
350
48
  3
B3
350
49
  3
B4
350
4A
  3
B5
350
4B
  3
B6
350
4C
  3
B7
350
4D
  3
B8
350
4E
  3
B9
350
4F
  3
C0
350
50
  3
C1
350
51
  3
C2
350
52
  3
C3
350
53
  3
C4
350
54
  3
C5
350
55
  3
C6
350
56
  3
C7
350
57
  3
C8
350
58
  3
C9
350
59
  3
D0
350
5A
  3
D1
350
5B
  3
D2
350
5C
  0
DICTIONARY
  5
4E3
102
{ACAD_REACTORS
330
C
102
}
330
C
100
AcDbDictionary
281
     1
  0
DICTIONARY
  5
2A
102
{ACAD_REACTORS
330
C
102
}
330
C
100
AcDbDictionary
281
     1
  3
2dWireframe
350
2F
  3
3D Hidden
350
31
  3
3dWireframe
350
30
  3
Basic
350
32
  3
Brighten
350
36
  3
ColorChange
350
3A
  3
Conceptual
350
34
  3
Dim
350
35
  3
Facepattern
350
39
  3
Flat
350
2B
  3
FlatWithEdges
350
2C
  3
Gouraud
350
2D
  3
GouraudWithEdges
350
2E
  3
Linepattern
350
38
  3
Realistic
350
33
  3
Thicken
350
37
  0
DICTIONARY
  5
4E1
102
{ACAD_REACTORS
330
C
102
}
330
C
100
AcDbDictionary
281
     1
  3
CANNOSCALE
350
4E2
  3
PSOLHEIGHT
350
4E6
  3
PSOLWIDTH
350
4E5
  0
LAYOUT
  5
1E
102
{ACAD_REACTORS
330
1A
102
}
330
1A
100
AcDbPlotSettings
  1

  2
none_device
  4

  6

 40
0.0
 41
0.0
 42
0.0
 43
0.0
 44
0.0
 45
0.0
 46
0.0
 47
0.0
 48
0.0
 49
0.0
140
0.0
141
0.0
142
1.0
143
1.0
 70
   688
 72
     0
 73
     0
 74
     5
  7

 75
    16
147
1.0
148
0.0
149
0.0
100
AcDbLayout
  1
Layout1
 70
     1
 71
     1
 10
0.0
 20
0.0
 11
12.0
 21
9.0
 12
0.0
 22
0.0
 32
0.0
 14
1.000000E+20
 24
1.000000E+20
 34
0.0
 15
-1.000000E+20
 25
-1.000000E+20
 35
0.0
146
0.0
 13
0.0
 23
0.0
 33
0.0
 16
1.0
 26
0.0
 36
0.0
 17
0.0
 27
1.0
 37
0.0
 76
     0
330
1B
  0
LAYOUT
  5
26
102
{ACAD_REACTORS
330
1A
102
}
330
1A
100
AcDbPlotSettings
  1

  2
none_device
  4

  6

 40
0.0
 41
0.0
 42
0.0
 43
0.0
 44
0.0
 45
0.0
 46
0.0
 47
0.0
 48
0.0
 49
0.0
140
0.0
141
0.0
142
1.0
143
1.0
 70
   688
 72
     0
 73
     0
 74
     5
  7

 75
    16
147
1.0
148
0.0
149
0.0
100
AcDbLayout
  1
Layout2
 70
     1
 71
     2
 10
0.0
 20
0.0
 11
0.0
 21
0.0
 12
0.0
 22
0.0
 32
0.0
 14
0.0
 24
0.0
 34
0.0
 15
0.0
 25
0.0
 35
0.0
146
0.0
 13
0.0
 23
0.0
 33
0.0
 16
1.0
 26
0.0
 36
0.0
 17
0.0
 27
1.0
 37
0.0
 76
     0
330
23
  0
LAYOUT
  5
22
102
{ACAD_REACTORS
330
1A
102
}
330
1A
100
AcDbPlotSettings
  1

  2
none_device
  4

  6

 40
0.0
 41
0.0
 42
0.0
 43
0.0
 44
0.0
 45
0.0
 46
0.0
 47
0.0
 48
0.0
 49
0.0
140
0.0
141
0.0
142
1.0
143
1.0
 70
  1712
 72
     0
 73
     0
 74
     0
  7

 75
     0
147
1.0
148
0.0
149
0.0
100
AcDbLayout
  1
Model
 70
     1
 71
     0
 10
0.0
 20
0.0
 11
12.0
 21
9.0
 12
0.0
 22
0.0
 32
0.0
 14
16.84726
 24
7.422722
 34
0.0
 15
194.088684
 25
95.5317
 35
0.0
146
0.0
 13
0.0
 23
0.0
 33
0.0
 16
1.0
 26
0.0
 36
0.0
 17
0.0
 27
1.0
 37
0.0
 76
     0
330
1F
331
29
  0
MLINESTYLE
  5
18
102
{ACAD_REACTORS
330
17
102
}
330
17
100
AcDbMlineStyle
  2
Standard
 70
     0
  3

 62
   256
 51
90.0
 52
90.0
 71
     2
 49
0.5
 62
   256
  6
BYLAYER
 49
-0.5
 62
   256
  6
BYLAYER
  0
ACDBPLACEHOLDER
  5
F
102
{ACAD_REACTORS
330
E
102
}
330
E
  0
SCALE
  5
3C
102
{ACAD_REACTORS
330
3B
102
}
330
3B
100
AcDbScale
 70
     0
300
1:1
140
1.0
141
1.0
290
     1
  0
SCALE
  5
3D
102
{ACAD_REACTORS
330
3B
102
}
330
3B
100
AcDbScale
 70
     0
300
1:2
140
1.0
141
2.0
290
     0
  0
SCALE
  5
3E
102
{ACAD_REACTORS
330
3B
102
}
330
3B
100
AcDbScale
 70
     0
300
1:4
140
1.0
141
4.0
290
     0
  0
SCALE
  5
3F
102
{ACAD_REACTORS
330
3B
102
}
330
3B
100
AcDbScale
 70
     0
300
1:5
140
1.0
141
5.0
290
     0
  0
SCALE
  5
40
102
{ACAD_REACTORS
330
3B
102
}
330
3B
100
AcDbScale
 70
     0
300
1:8
140
1.0
141
8.0
290
     0
  0
SCALE
  5
41
102
{ACAD_REACTORS
330
3B
102
}
330
3B
100
AcDbScale
 70
     0
300
1:10
140
1.0
141
10.0
290
     0
  0
SCALE
  5
42
102
{ACAD_REACTORS
330
3B
102
}
330
3B
100
AcDbScale
 70
     0
300
1:16
140
1.0
141
16.0
290
     0
  0
SCALE
  5
43
102
{ACAD_REACTORS
330
3B
102
}
330
3B
100
AcDbScale
 70
     0
300
1:20
140
1.0
141
20.0
290
     0
  0
SCALE
  5
44
102
{ACAD_REACTORS
330
3B
102
}
330
3B
100
AcDbScale
 70
     0
300
1:30
140
1.0
141
30.0
290
     0
  0
SCALE
  5
45
102
{ACAD_REACTORS
330
3B
102
}
330
3B
100
AcDbScale
 70
     0
300
1:40
140
1.0
141
40.0
290
     0
  0
SCALE
  5
46
102
{ACAD_REACTORS
330
3B
102
}
330
3B
100
AcDbScale
 70
     0
300
1:50
140
1.0
141
50.0
290
     0
  0
SCALE
  5
47
102
{ACAD_REACTORS
330
3B
102
}
330
3B
100
AcDbScale
 70
     0
300
1:100
140
1.0
141
100.0
290
     0
  0
SCALE
  5
48
102
{ACAD_REACTORS
330
3B
102
}
330
3B
100
AcDbScale
 70
     0
300
2:1
140
2.0
141
1.0
290
     0
  0
SCALE
  5
49
102
{ACAD_REACTORS
330
3B
102
}
330
3B
100
AcDbScale
 70
     0
300
4:1
140
4.0
141
1.0
290
     0
  0
SCALE
  5
4A
102
{ACAD_REACTORS
330
3B
102
}
330
3B
100
AcDbScale
 70
     0
300
8:1
140
8.0
141
1.0
290
     0
  0
SCALE
  5
4B
102
{ACAD_REACTORS
330
3B
102
}
330
3B
100
AcDbScale
 70
     0
300
10:1
140
10.0
141
1.0
290
     0
  0
SCALE
  5
4C
102
{ACAD_REACTORS
330
3B
102
}
330
3B
100
AcDbScale
 70
     0
300
100:1
140
100.0
141
1.0
290
     0
  0
SCALE
  5
4D
102
{ACAD_REACTORS
330
3B
102
}
330
3B
100
AcDbScale
 70
     0
300
1/128" = 1'-0"
140
0.007812
141
12.0
290
     0
  0
SCALE
  5
4E
102
{ACAD_REACTORS
330
3B
102
}
330
3B
100
AcDbScale
 70
     0
300
1/64" = 1'-0"
140
0.015625
141
12.0
290
     0
  0
SCALE
  5
4F
102
{ACAD_REACTORS
330
3B
102
}
330
3B
100
AcDbScale
 70
     0
300
1/32" = 1'-0"
140
0.03125
141
12.0
290
     0
  0
SCALE
  5
50
102
{ACAD_REACTORS
330
3B
102
}
330
3B
100
AcDbScale
 70
     0
300
1/16" = 1'-0"
140
0.0625
141
12.0
290
     0
  0
SCALE
  5
51
102
{ACAD_REACTORS
330
3B
102
}
330
3B
100
AcDbScale
 70
     0
300
3/32" = 1'-0"
140
0.09375
141
12.0
290
     0
  0
SCALE
  5
52
102
{ACAD_REACTORS
330
3B
102
}
330
3B
100
AcDbScale
 70
     0
300
1/8" = 1'-0"
140
0.125
141
12.0
290
     0
  0
SCALE
  5
53
102
{ACAD_REACTORS
330
3B
102
}
330
3B
100
AcDbScale
 70
     0
300
3/16" = 1'-0"
140
0.1875
141
12.0
290
     0
  0
SCALE
  5
54
102
{ACAD_REACTORS
330
3B
102
}
330
3B
100
AcDbScale
 70
     0
300
1/4" = 1'-0"
140
0.25
141
12.0
290
     0
  0
SCALE
  5
55
102
{ACAD_REACTORS
330
3B
102
}
330
3B
100
AcDbScale
 70
     0
300
3/8" = 1'-0"
140
0.375
141
12.0
290
     0
  0
SCALE
  5
56
102
{ACAD_REACTORS
330
3B
102
}
330
3B
100
AcDbScale
 70
     0
300
1/2" = 1'-0"
140
0.5
141
12.0
290
     0
  0
SCALE
  5
57
102
{ACAD_REACTORS
330
3B
102
}
330
3B
100
AcDbScale
 70
     0
300
3/4" = 1'-0"
140
0.75
141
12.0
290
     0
  0
SCALE
  5
58
102
{ACAD_REACTORS
330
3B
102
}
330
3B
100
AcDbScale
 70
     0
300
1" = 1'-0"
140
1.0
141
12.0
290
     0
  0
SCALE
  5
59
102
{ACAD_REACTORS
330
3B
102
}
330
3B
100
AcDbScale
 70
     0
300
1-1/2" = 1'-0"
140
1.5
141
12.0
290
     0
  0
SCALE
  5
5A
102
{ACAD_REACTORS
330
3B
102
}
330
3B
100
AcDbScale
 70
     0
300
3" = 1'-0"
140
3.0
141
12.0
290
     0
  0
SCALE
  5
5B
102
{ACAD_REACTORS
330
3B
102
}
330
3B
100
AcDbScale
 70
     0
300
6" = 1'-0"
140
6.0
141
12.0
290
     0
  0
SCALE
  5
5C
102
{ACAD_REACTORS
330
3B
102
}
330
3B
100
AcDbScale
 70
     0
300
1'-0" = 1'-0"
140
12.0
141
12.0
290
     0
  0
VISUALSTYLE
  5
2F
102
{ACAD_REACTORS
330
2A
102
}
330
2A
100
AcDbVisualStyle
  2
2dWireframe
 70
     4
 71
     0
 72
     2
 73
     0
 90
        0
 40
-0.6
 41
-30.0
 62
     5
 63
     7
 74
     1
 91
        4
 64
     7
 65
   257
 75
     1
175
     1
 42
1.0
 92
        0
 66
   257
 43
1.0
 76
     1
 77
     6
 78
     2
 67
     7
 79
     5
170
     0
171
     0
290
     0
174
     0
 93
        1
 44
0.0
173
     0
291
     0
 45
0.0
1001
ACAD
1000
AcDbSavedByObjectVersion
1070
     0
  0
VISUALSTYLE
  5
31
102
{ACAD_REACTORS
330
2A
102
}
330
2A
100
AcDbVisualStyle
  2
3D Hidden
 70
     6
 71
     1
 72
     2
 73
     2
 90
        0
 40
-0.6
 41
-30.0
 62
     5
 63
     7
 74
     2
 91
        2
 64
     7
 65
   257
 75
     2
175
     1
 42
40.0
 92
        0
 66
   257
 43
1.0
 76
     1
 77
     6
 78
     2
 67
     7
 79
     3
170
     0
171
     0
290
     0
174
     0
 93
        1
 44
0.0
173
     0
291
     0
 45
0.0
1001
ACAD
1000
AcDbSavedByObjectVersion
1070
     0
  0
VISUALSTYLE
  5
30
102
{ACAD_REACTORS
330
2A
102
}
330
2A
100
AcDbVisualStyle
  2
3dWireframe
 70
     5
 71
     0
 72
     2
 73
     0
 90
        0
 40
-0.6
 41
-30.0
 62
     5
 63
     7
 74
     1
 91
        4
 64
     7
 65
   257
 75
     1
175
     1
 42
1.0
 92
        0
 66
   257
 43
1.0
 76
     1
 77
     6
 78
     2
 67
     7
 79
     5
170
     0
171
     0
290
     0
174
     0
 93
        1
 44
0.0
173
     0
291
     0
 45
0.0
1001
ACAD
1000
AcDbSavedByObjectVersion
1070
     0
  0
VISUALSTYLE
  5
32
102
{ACAD_REACTORS
330
2A
102
}
330
2A
100
AcDbVisualStyle
  2
Basic
 70
     7
 71
     1
 72
     0
 73
     1
 90
        0
 40
-0.6
 41
-30.0
 62
     5
 63
     7
 74
     0
 91
        4
 64
     7
 65
   257
 75
     1
175
     1
 42
1.0
 92
        8
 66
     7
 43
1.0
 76
     1
 77
     6
 78
     2
 67
     7
 79
     5
170
     0
171
     0
290
     0
174
     0
 93
        1
 44
0.0
173
     0
291
     1
 45
0.0
1001
ACAD
1000
AcDbSavedByObjectVersion
1070
     0
  0
VISUALSTYLE
  5
36
102
{ACAD_REACTORS
330
2A
102
}
330
2A
100
AcDbVisualStyle
  2
Brighten
 70
    12
 71
     2
 72
     2
 73
     0
 90
        0
 40
-0.6
 41
-30.0
 62
     5
 63
     7
 74
     1
 91
        4
 64
     7
 65
   257
 75
     1
175
     1
 42
1.0
 92
        8
 66
     7
 43
1.0
 76
     1
 77
     6
 78
     2
 67
     7
 79
     5
170
     0
171
     0
290
     0
174
     0
 93
        1
 44
50.0
173
     0
291
     1
 45
0.0
1001
ACAD
1000
AcDbSavedByObjectVersion
1070
     0
  0
VISUALSTYLE
  5
3A
102
{ACAD_REACTORS
330
2A
102
}
330
2A
100
AcDbVisualStyle
  2
ColorChange
 70
    16
 71
     2
 72
     2
 73
     3
 90
        0
 40
-0.6
 41
-30.0
 62
     5
 63
     8
 74
     1
 91
        4
 64
     7
 65
   257
 75
     1
175
     1
 42
1.0
 92
        8
 66
     8
 43
1.0
 76
     1
 77
     6
 78
     2
 67
     7
 79
     5
170
     0
171
     0
290
     0
174
     0
 93
        1
 44
0.0
173
     0
291
     1
 45
0.0
1001
ACAD
1000
AcDbSavedByObjectVersion
1070
     0
  0
VISUALSTYLE
  5
34
102
{ACAD_REACTORS
330
2A
102
}
330
2A
100
AcDbVisualStyle
  2
Conceptual
 70
     9
 71
     3
 72
     2
 73
     0
 90
        0
 40
-0.6
 41
-30.0
 62
     5
 63
     7
 74
     2
 91
        2
 64
     7
 65
   257
 75
     1
175
     1
 42
40.0
 92
        8
 66
     7
 43
1.0
 76
     1
 77
     6
 78
     2
 67
     7
 79
     3
170
     0
171
     0
290
     0
174
     0
 93
        1
 44
0.0
173
     0
291
     0
 45
0.0
1001
ACAD
1000
AcDbSavedByObjectVersion
1070
     0
  0
VISUALSTYLE
  5
35
102
{ACAD_REACTORS
330
2A
102
}
330
2A
100
AcDbVisualStyle
  2
Dim
 70
    11
 71
     2
 72
     2
 73
     0
 90
        0
 40
-0.6
 41
-30.0
 62
     5
 63
     7
 74
     1
 91
        4
 64
     7
 65
   257
 75
     1
175
     1
 42
1.0
 92
        8
 66
     7
 43
1.0
 76
     1
 77
     6
 78
     2
 67
     7
 79
     5
170
     0
171
     0
290
     0
174
     0
 93
        1
 44
-50.0
173
     0
291
     1
 45
0.0
1001
ACAD
1000
AcDbSavedByObjectVersion
1070
     0
  0
VISUALSTYLE
  5
39
102
{ACAD_REACTORS
330
2A
102
}
330
2A
100
AcDbVisualStyle
  2
Facepattern
 70
    15
 71
     2
 72
     2
 73
     0
 90
        0
 40
-0.6
 41
-30.0
 62
     5
 63
     7
 74
     1
 91
        4
 64
     7
 65
   257
 75
     1
175
     1
 42
1.0
 92
        8
 66
     7
 43
1.0
 76
     1
 77
     6
 78
     2
 67
     7
 79
     5
170
     0
171
     0
290
     0
174
     0
 93
        1
 44
0.0
173
     0
291
     1
 45
0.0
1001
ACAD
1000
AcDbSavedByObjectVersion
1070
     0
  0
VISUALSTYLE
  5
2B
102
{ACAD_REACTORS
330
2A
102
}
330
2A
100
AcDbVisualStyle
  2
Flat
 70
     0
 71
     2
 72
     1
 73
     1
 90
        2
 40
-0.6
 41
30.0
 62
     5
 63
     7
 74
     0
 91
        4
 64
     7
 65
   257
 75
     1
175
     1
 42
1.0
 92
        8
 66
     7
 43
1.0
 76
     1
 77
     6
 78
     2
 67
     7
 79
     5
170
     0
171
     0
290
     0
174
     0
 93
       13
 44
0.0
173
     0
291
     1
 45
0.0
1001
ACAD
1000
AcDbSavedByObjectVersion
1070
     0
  0
VISUALSTYLE
  5
2C
102
{ACAD_REACTORS
330
2A
102
}
330
2A
100
AcDbVisualStyle
  2
FlatWithEdges
 70
     1
 71
     2
 72
     1
 73
     1
 90
        2
 40
-0.6
 41
30.0
 62
     5
 63
     7
 74
     1
 91
        4
 64
     7
 65
   257
 75
     1
175
     1
 42
1.0
 92
        0
 66
   257
 43
1.0
 76
     1
 77
     6
 78
     2
 67
     7
 79
     5
170
     0
171
     0
290
     0
174
     0
 93
       13
 44
0.0
173
     0
291
     1
 45
0.0
1001
ACAD
1000
AcDbSavedByObjectVersion
1070
     0
  0
VISUALSTYLE
  5
2D
102
{ACAD_REACTORS
330
2A
102
}
330
2A
100
AcDbVisualStyle
  2
Gouraud
 70
     2
 71
     2
 72
     2
 73
     1
 90
        2
 40
-0.6
 41
30.0
 62
     5
 63
     7
 74
     0
 91
        4
 64
     7
 65
   257
 75
     1
175
     1
 42
1.0
 92
        0
 66
     7
 43
1.0
 76
     1
 77
     6
 78
     2
 67
     7
 79
     5
170
     0
171
     0
290
     0
174
     0
 93
       13
 44
0.0
173
     0
291
     1
 45
0.0
1001
ACAD
1000
AcDbSavedByObjectVersion
1070
     0
  0
VISUALSTYLE
  5
2E
102
{ACAD_REACTORS
330
2A
102
}
330
2A
100
AcDbVisualStyle
  2
GouraudWithEdges
 70
     3
 71
     2
 72
     2
 73
     1
 90
        2
 40
-0.6
 41
30.0
 62
     5
 63
     7
 74
     1
 91
        4
 64
     7
 65
   257
 75
     1
175
     1
 42
1.0
 92
        0
 66
   257
 43
1.0
 76
     1
 77
     6
 78
     2
 67
     7
 79
     5
170
     0
171
     0
290
     0
174
     0
 93
       13
 44
0.0
173
     0
291
     1
 45
0.0
1001
ACAD
1000
AcDbSavedByObjectVersion
1070
     0
  0
VISUALSTYLE
  5
38
102
{ACAD_REACTORS
330
2A
102
}
330
2A
100
AcDbVisualStyle
  2
Linepattern
 70
    14
 71
     2
 72
     2
 73
     0
 90
        0
 40
-0.6
 41
-30.0
 62
     5
 63
     7
 74
     1
 91
        4
 64
     7
 65
   257
 75
     7
175
     7
 42
1.0
 92
        8
 66
     7
 43
1.0
 76
     1
 77
     6
 78
     2
 67
     7
 79
     5
170
     0
171
     0
290
     0
174
     0
 93
        1
 44
0.0
173
     0
291
     1
 45
0.0
1001
ACAD
1000
AcDbSavedByObjectVersion
1070
     0
  0
VISUALSTYLE
  5
33
102
{ACAD_REACTORS
330
2A
102
}
330
2A
100
AcDbVisualStyle
  2
Realistic
 70
     8
 71
     2
 72
     2
 73
     0
 90
        0
 40
-0.6
 41
-30.0
 62
     5
 63
     7
 74
     1
 91
        0
 64
     7
 65
   257
 75
     1
175
     1
 42
1.0
 92
        8
 66
     8
 43
1.0
 76
     1
 77
     6
 78
     2
 67
     7
 79
     5
170
     0
171
     0
290
     0
174
     0
 93
       13
 44
0.0
173
     0
291
     0
 45
0.0
1001
ACAD
1000
AcDbSavedByObjectVersion
1070
     0
  0
VISUALSTYLE
  5
37
102
{ACAD_REACTORS
330
2A
102
}
330
2A
100
AcDbVisualStyle
  2
Thicken
 70
    13
 71
     2
 72
     2
 73
     0
 90
        0
 40
-0.6
 41
-30.0
 62
     5
 63
     7
 74
     1
 91
        4
 64
     7
 65
   257
 75
     1
175
     1
 42
1.0
 92
       12
 66
     7
 43
1.0
 76
     1
 77
     6
 78
     2
 67
     7
 79
     5
170
     0
171
     0
290
     0
174
     0
 93
        1
 44
0.0
173
     0
291
     1
 45
0.0
1001
ACAD
1000
AcDbSavedByObjectVersion
1070
     0
  0
DICTIONARYVAR
  5
4E2
102
{ACAD_REACTORS
330
4E1
102
}
330
4E1
100
DictionaryVariables
280
     0
  1
1:1
  0
DICTIONARYVAR
  5
4E6
102
{ACAD_REACTORS
330
4E1
102
}
330
4E1
100
DictionaryVariables
280
     0
  1
80.000000
  0
DICTIONARYVAR
  5
4E5
102
{ACAD_REACTORS
330
4E1
102
}
330
4E1
100
DictionaryVariables
280
     0
  1
5.000000
  0
ENDSEC
  0
EOF
