  0
SECTION
  2
HEADER
  9
$ACADVER
  1
AC1015
  9
$ACADMAINTVER
 70
     6
  9
$DWGCODEPAGE
  3
ANSI_932
  9
$INSBASE
 10
0.0
 20
0.0
 30
0.0
  9
$EXTMIN
 10
8.900116
 20
7.78669
 30
0.0
  9
$EXTMAX
 10
192.620209
 20
91.346611
 30
0.0
  9
$LIMMIN
 10
0.0
 20
0.0
  9
$LIMMAX
 10
12.0
 20
9.0
  9
$ORTHOMODE
 70
     0
  9
$REGENMODE
 70
     1
  9
$FILLMODE
 70
     1
  9
$QTEXTMODE
 70
     0
  9
$MIRRTEXT
 70
     1
  9
$LTSCALE
 40
2.0183
  9
$ATTMODE
 70
     1
  9
$TEXTSIZE
 40
3.2
  9
$TRACEWID
 40
1.0
  9
$TEXTSTYLE
  7
Standard
  9
$CLAYER
  8
0
  9
$CELTYPE
  6
ByLayer
  9
$CECOLOR
 62
   256
  9
$CELTSCALE
 40
1.0
  9
$DISPSILH
 70
     0
  9
$DIMSCALE
 40
1.0
  9
$DIMASZ
 40
2.5
  9
$DIMEXO
 40
0.625
  9
$DIMDLI
 40
3.75
  9
$DIMRND
 40
0.0
  9
$DIMDLE
 40
0.0
  9
$DIMEXE
 40
1.25
  9
$DIMTP
 40
0.0
  9
$DIMTM
 40
0.0
  9
$DIMTXT
 40
2.5
  9
$DIMCEN
 40
0.09
  9
$DIMTSZ
 40
0.0
  9
$DIMTOL
 70
     0
  9
$DIMLIM
 70
     0
  9
$DIMTIH
 70
     0
  9
$DIMTOH
 70
     0
  9
$DIMSE1
 70
     0
  9
$DIMSE2
 70
     0
  9
$DIMTAD
 70
     0
  9
$DIMZIN
 70
     8
  9
$DIMBLK
  1

  9
$DIMASO
 70
     1
  9
$DIMSHO
 70
     0
  9
$DIMPOST
  1

  9
$DIMAPOST
  1

  9
$DIMALT
 70
     0
  9
$DIMALTD
 70
     3
  9
$DIMALTF
 40
0.03937
  9
$DIMLFAC
 40
1.0
  9
$DIMTOFL
 70
     1
  9
$DIMTVP
 40
0.0
  9
$DIMTIX
 70
     0
  9
$DIMSOXD
 70
     0
  9
$DIMSAH
 70
     0
  9
$DIMBLK1
  1

  9
$DIMBLK2
  1

  9
$DIMSTYLE
  2
ISO-25
  9
$DIMCLRD
 70
     0
  9
$DIMCLRE
 70
     0
  9
$DIMCLRT
 70
     0
  9
$DIMTFAC
 40
1.0
  9
$DIMGAP
 40
0.625
  9
$DIMJUST
 70
     0
  9
$DIMSD1
 70
     0
  9
$DIMSD2
 70
     0
  9
$DIMTOLJ
 70
     0
  9
$DIMTZIN
 70
     8
  9
$DIMALTZ
 70
     0
  9
$DIMALTTZ
 70
     0
  9
$DIMUPT
 70
     0
  9
$DIMDEC
 70
     2
  9
$DIMTDEC
 70
     2
  9
$DIMALTU
 70
     2
  9
$DIMALTTD
 70
     3
  9
$DIMTXSTY
  7
Standard
  9
$DIMAUNIT
 70
     0
  9
$DIMADEC
 70
     0
  9
$DIMALTRND
 40
0.0
  9
$DIMAZIN
 70
     0
  9
$DIMDSEP
 70
    44
  9
$DIMATFIT
 70
     3
  9
$DIMFRAC
 70
     0
  9
$DIMLDRBLK
  1

  9
$DIMLUNIT
 70
     2
  9
$DIMLWD
 70
    -2
  9
$DIMLWE
 70
    -2
  9
$DIMTMOVE
 70
     0
  9
$LUNITS
 70
     2
  9
$LUPREC
 70
     4
  9
$SKETCHINC
 40
1.0
  9
$FILLETRAD
 40
0.0
  9
$AUNITS
 70
     0
  9
$AUPREC
 70
     0
  9
$MENU
  1
.
  9
$ELEVATION
 40
0.0
  9
$PELEVATION
 40
0.0
  9
$THICKNESS
 40
0.0
  9
$LIMCHECK
 70
     0
  9
$CHAMFERA
 40
10.0
  9
$CHAMFERB
 40
10.0
  9
$CHAMFERC
 40
20.0
  9
$CHAMFERD
 40
0.0
  9
$SKPOLY
 70
     0
  9
$TDCREATE
 40
2456244.614962743
  9
$TDUCREATE
 40
2456244.239962743
  9
$TDUPDATE
 40
2456244.614962755
  9
$TDUUPDATE
 40
2456244.239962755
  9
$TDINDWG
 40
0.0000000116
  9
$TDUSRTIMER
 40
0.0000000116
  9
$USRTIMER
 70
     1
  9
$ANGBASE
 50
0.0
  9
$ANGDIR
 70
     0
  9
$PDMODE
 70
     0
  9
$PDSIZE
 40
0.0
  9
$PLINEWID
 40
0.0
  9
$SPLFRAME
 70
     0
  9
$SPLINETYPE
 70
     6
  9
$SPLINESEGS
 70
     8
  9
$HANDSEED
  5
509
  9
$SURFTAB1
 70
     6
  9
$SURFTAB2
 70
     6
  9
$SURFTYPE
 70
     6
  9
$SURFU
 70
     6
  9
$SURFV
 70
     6
  9
$UCSBASE
  2

  9
$UCSNAME
  2

  9
$UCSORG
 10
0.0
 20
0.0
 30
0.0
  9
$UCSXDIR
 10
1.0
 20
0.0
 30
0.0
  9
$UCSYDIR
 10
0.0
 20
1.0
 30
0.0
  9
$UCSORTHOREF
  2

  9
$UCSORTHOVIEW
 70
     0
  9
$UCSORGTOP
 10
0.0
 20
0.0
 30
0.0
  9
$UCSORGBOTTOM
 10
0.0
 20
0.0
 30
0.0
  9
$UCSORGLEFT
 10
0.0
 20
0.0
 30
0.0
  9
$UCSORGRIGHT
 10
0.0
 20
0.0
 30
0.0
  9
$UCSORGFRONT
 10
0.0
 20
0.0
 30
0.0
  9
$UCSORGBACK
 10
0.0
 20
0.0
 30
0.0
  9
$PUCSBASE
  2

  9
$PUCSNAME
  2

  9
$PUCSORG
 10
0.0
 20
0.0
 30
0.0
  9
$PUCSXDIR
 10
1.0
 20
0.0
 30
0.0
  9
$PUCSYDIR
 10
0.0
 20
1.0
 30
0.0
  9
$PUCSORTHOREF
  2

  9
$PUCSORTHOVIEW
 70
     0
  9
$PUCSORGTOP
 10
0.0
 20
0.0
 30
0.0
  9
$PUCSORGBOTTOM
 10
0.0
 20
0.0
 30
0.0
  9
$PUCSORGLEFT
 10
0.0
 20
0.0
 30
0.0
  9
$PUCSORGRIGHT
 10
0.0
 20
0.0
 30
0.0
  9
$PUCSORGFRONT
 10
0.0
 20
0.0
 30
0.0
  9
$PUCSORGBACK
 10
0.0
 20
0.0
 30
0.0
  9
$USERI1
 70
     0
  9
$USERI2
 70
     0
  9
$USERI3
 70
     0
  9
$USERI4
 70
     0
  9
$USERI5
 70
     0
  9
$USERR1
 40
0.0
  9
$USERR2
 40
0.0
  9
$USERR3
 40
0.0
  9
$USERR4
 40
0.0
  9
$USERR5
 40
0.0
  9
$WORLDVIEW
 70
     1
  9
$SHADEDGE
 70
     3
  9
$SHADEDIF
 70
    70
  9
$TILEMODE
 70
     1
  9
$MAXACTVP
 70
    64
  9
$PINSBASE
 10
0.0
 20
0.0
 30
0.0
  9
$PLIMCHECK
 70
     0
  9
$PEXTMIN
 10
1.000000E+20
 20
1.000000E+20
 30
0.0
  9
$PEXTMAX
 10
-1.000000E+20
 20
-1.000000E+20
 30
0.0
  9
$PLIMMIN
 10
0.0
 20
0.0
  9
$PLIMMAX
 10
12.0
 20
9.0
  9
$UNITMODE
 70
     0
  9
$VISRETAIN
 70
     1
  9
$PLINEGEN
 70
     0
  9
$PSLTSCALE
 70
     1
  9
$TREEDEPTH
 70
  3020
  9
$CMLSTYLE
  2
Standard
  9
$CMLJUST
 70
     0
  9
$CMLSCALE
 40
20.0
  9
$PROXYGRAPHICS
 70
     1
  9
$MEASUREMENT
 70
     1
  9
$CELWEIGHT
370
    -1
  9
$ENDCAPS
280
     0
  9
$JOINSTYLE
280
     0
  9
$LWDISPLAY
290
     0
  9
$INSUNITS
 70
     4
  9
$HYPERLINKBASE
  1

  9
$STYLESHEET
  1

  9
$XEDIT
290
     1
  9
$CEPSNTYPE
380
     0
  9
$PSTYLEMODE
290
     1
  9
$FINGERPRINTGUID
  2
{00769F89-0904-4B7D-B0A2-4E2BFE6E8521}
  9
$VERSIONGUID
  2
{FAEB1C32-E019-11D5-929B-00C0DF256EC4}
  9
$EXTNAMES
290
     1
  9
$PSVPSCALE
 40
0.0
  9
$OLESTARTUP
290
     0
  0
ENDSEC
  0
SECTION
  2
CLASSES
  0
CLASS
  1
ACDBDICTIONARYWDFLT
  2
AcDbDictionaryWithDefault
  3
ObjectDBX Classes
 90
        0
280
     0
281
     0
  0
CLASS
  1
VISUALSTYLE
  2
AcDbVisualStyle
  3
ObjectDBX Classes
 90
     4095
280
     0
281
     0
  0
CLASS
  1
SCALE
  2
AcDbScale
  3
ObjectDBX Classes
 90
     1153
280
     0
281
     0
  0
CLASS
  1
DICTIONARYVAR
  2
AcDbDictionaryVar
  3
ObjectDBX Classes
 90
        0
280
     0
281
     0
  0
CLASS
  1
ACDBPLACEHOLDER
  2
AcDbPlaceHolder
  3
ObjectDBX Classes
 90
        0
280
     0
281
     0
  0
CLASS
  1
LAYOUT
  2
AcDbLayout
  3
ObjectDBX Classes
 90
        0
280
     0
281
     0
  0
ENDSEC
  0
SECTION
  2
TABLES
  0
TABLE
  2
VPORT
  5
8
330
0
100
AcDbSymbolTable
 70
     1
  0
VPORT
  5
29
330
8
100
AcDbSymbolTableRecord
100
AcDbViewportTableRecord
  2
*Active
 70
     0
 10
0.0
 20
0.0
 11
1.0
 21
1.0
 12
100.760162
 22
49.56665
 13
0.0
 23
0.0
 14
1.0
 24
1.0
 15
0.0
 25
0.0
 16
0.0
 26
0.0
 36
1.0
 17
0.0
 27
0.0
 37
0.0
 40
109.713599
 41
1.691288
 42
50.0
 43
0.0
 44
0.0
 50
0.0
 51
0.0
 71
     0
 72
   100
 73
     1
 74
     3
 75
     0
 76
     0
 77
     0
 78
     0
281
     0
 65
     1
110
0.0
120
0.0
130
0.0
111
1.0
121
0.0
131
0.0
112
0.0
122
1.0
132
0.0
 79
     0
146
0.0
  0
ENDTAB
  0
TABLE
  2
LTYPE
  5
5
330
0
100
AcDbSymbolTable
 70
     5
  0
LTYPE
  5
14
330
5
100
AcDbSymbolTableRecord
100
AcDbLinetypeTableRecord
  2
ByBlock
 70
     0
  3

 72
    65
 73
     0
 40
0.0
  0
LTYPE
  5
15
330
5
100
AcDbSymbolTableRecord
100
AcDbLinetypeTableRecord
  2
ByLayer
 70
     0
  3

 72
    65
 73
     0
 40
0.0
  0
LTYPE
  5
16
330
5
100
AcDbSymbolTableRecord
100
AcDbLinetypeTableRecord
  2
Continuous
 70
     0
  3
Solid line
 72
    65
 73
     0
 40
0.0
  0
LTYPE
  5
5D
330
5
100
AcDbSymbolTableRecord
100
AcDbLinetypeTableRecord
  2
DASHED
 70
     0
  3
DASHED
 72
    83
 73
     2
 40
0.75
 49
0.5
 74
     0
 49
-0.25
 74
     0
  0
LTYPE
  5
5E
330
5
100
AcDbSymbolTableRecord
100
AcDbLinetypeTableRecord
  2
HIDDEN
 70
     0
  3
HIDDEN
 72
    83
 73
     2
 40
0.375
 49
0.25
 74
     0
 49
-0.125
 74
     0
  0
LTYPE
  5
5F
330
5
100
AcDbSymbolTableRecord
100
AcDbLinetypeTableRecord
  2
CENTER
 70
     0
  3
CENTER
 72
    83
 73
     4
 40
2.0
 49
1.25
 74
     0
 49
-0.25
 74
     0
 49
0.25
 74
     0
 49
-0.25
 74
     0
  0
LTYPE
  5
60
330
5
100
AcDbSymbolTableRecord
100
AcDbLinetypeTableRecord
  2
PHANTOM
 70
     0
  3
PHANTOM
 72
    83
 73
     6
 40
2.5
 49
1.25
 74
     0
 49
-0.25
 74
     0
 49
0.25
 74
     0
 49
-0.25
 74
     0
 49
0.25
 74
     0
 49
-0.25
 74
     0
  0
ENDTAB
  0
TABLE
  2
LAYER
  5
2
330
0
100
AcDbSymbolTable
 70
     2
  0
LAYER
  5
10
330
2
100
AcDbSymbolTableRecord
100
AcDbLayerTableRecord
  2
0
 70
     0
 62
     7
  6
Continuous
370
    -3
390
F
  0
LAYER
  5
61
330
2
100
AcDbSymbolTableRecord
100
AcDbLayerTableRecord
  2
001
 70
     0
 62
     7
  6
Continuous
370
    -3
390
F
  0
ENDTAB
  0
TABLE
  2
STYLE
  5
3
330
0
100
AcDbSymbolTable
 70
     2
  0
STYLE
  5
11
330
3
100
AcDbSymbolTableRecord
100
AcDbTextStyleTableRecord
  2
Standard
 70
     0
 40
0.0
 41
1.0
 50
0.0
 71
     0
 42
0.2
  3
TXT
  4
BIGFONT
  0
STYLE
  5
62
330
3
100
AcDbSymbolTableRecord
100
AcDbTextStyleTableRecord
  2
TATEGAKI
 70
     4
 40
1.0
 41
1.0
 50
0.0
 71
     0
 42
0.2
  3
TXT
  4
BIGFONT
  0
ENDTAB
  0
TABLE
  2
VIEW
  5
6
330
0
100
AcDbSymbolTable
 70
     0
  0
ENDTAB
  0
TABLE
  2
UCS
  5
7
330
0
100
AcDbSymbolTable
 70
     0
  0
ENDTAB
  0
TABLE
  2
APPID
  5
9
330
0
100
AcDbSymbolTable
 70
     1
  0
APPID
  5
12
330
9
100
AcDbSymbolTableRecord
100
AcDbRegAppTableRecord
  2
ACAD
 70
     0
  0
ENDTAB
  0
TABLE
  2
DIMSTYLE
  5
A
330
0
100
AcDbSymbolTable
 70
     2
100
AcDbDimStyleTable
  0
DIMSTYLE
105
27
330
A
100
AcDbSymbolTableRecord
100
AcDbDimStyleTableRecord
  2
ISO-25
 70
     0
 41
2.5
 42
0.625
 43
3.75
 44
1.25
 73
     0
 74
     0
 77
     1
 78
     8
140
2.5
141
2.5
143
0.03937
147
0.625
171
     3
172
     1
271
     2
272
     2
274
     3
278
    44
283
     0
284
     8
340
11
  0
DIMSTYLE
105
63
102
{ACAD_REACTORS
330
441
330
442
330
443
330
450
330
451
330
45E
102
}
330
A
100
AcDbSymbolTableRecord
100
AcDbDimStyleTableRecord
  2
Standard
 70
     0
 41
1.5
 42
0.0
 44
2.75
 73
     0
 74
     0
 77
     1
 78
     8
 79
     2
140
4.0
146
0.8
147
1.0
172
     1
179
     1
271
     1
340
11
  0
ENDTAB
  0
TABLE
  2
BLOCK_RECORD
  5
1
330
0
100
AcDbSymbolTable
 70
     9
  0
BLOCK_RECORD
  5
1F
330
1
100
AcDbSymbolTableRecord
100
AcDbBlockTableRecord
  2
*Model_Space
340
22
  0
BLOCK_RECORD
  5
1B
330
1
100
AcDbSymbolTableRecord
100
AcDbBlockTableRecord
  2
*Paper_Space
340
1E
  0
BLOCK_RECORD
  5
23
330
1
100
AcDbSymbolTableRecord
100
AcDbBlockTableRecord
  2
*Paper_Space0
340
26
  0
BLOCK_RECORD
  5
64
330
1
100
AcDbSymbolTableRecord
100
AcDbBlockTableRecord
  2
M-1-1
340
0
102
{BLKREFS
331
43F
102
}
  0
BLOCK_RECORD
  5
25E
330
1
100
AcDbSymbolTableRecord
100
AcDbBlockTableRecord
  2
C32GUX-2
340
0
102
{BLKREFS
331
440
102
}
  0
BLOCK_RECORD
  5
3C1
330
1
100
AcDbSymbolTableRecord
100
AcDbBlockTableRecord
  2
*D3
340
0
  0
BLOCK_RECORD
  5
3D5
330
1
100
AcDbSymbolTableRecord
100
AcDbBlockTableRecord
  2
*D4
340
0
  0
BLOCK_RECORD
  5
3EC
330
1
100
AcDbSymbolTableRecord
100
AcDbBlockTableRecord
  2
*D5
340
0
  0
BLOCK_RECORD
  5
402
330
1
100
AcDbSymbolTableRecord
100
AcDbBlockTableRecord
  2
*D6
340
0
  0
BLOCK_RECORD
  5
416
330
1
100
AcDbSymbolTableRecord
100
AcDbBlockTableRecord
  2
*D7
340
0
  0
BLOCK_RECORD
  5
42A
330
1
100
AcDbSymbolTableRecord
100
AcDbBlockTableRecord
  2
*D8
340
0
  0
ENDTAB
  0
ENDSEC
  0
SECTION
  2
BLOCKS
  0
BLOCK
  5
20
330
1F
100
AcDbEntity
  8
0
100
AcDbBlockBegin
  2
*Model_Space
 70
     0
 10
0.0
 20
0.0
 30
0.0
  3
*Model_Space
  1

  0
ENDBLK
  5
21
330
1F
100
AcDbEntity
  8
0
100
AcDbBlockEnd
  0
BLOCK
  5
1C
330
1B
100
AcDbEntity
 67
     1
  8
0
100
AcDbBlockBegin
  2
*Paper_Space
 70
     0
 10
0.0
 20
0.0
 30
0.0
  3
*Paper_Space
  1

  0
ENDBLK
  5
1D
330
1B
100
AcDbEntity
 67
     1
  8
0
100
AcDbBlockEnd
  0
BLOCK
  5
24
330
23
100
AcDbEntity
  8
0
100
AcDbBlockBegin
  2
*Paper_Space0
 70
     0
 10
0.0
 20
0.0
 30
0.0
  3
*Paper_Space0
  1

  0
ENDBLK
  5
25
330
23
100
AcDbEntity
  8
0
100
AcDbBlockEnd
  0
BLOCK
  5
65
330
64
100
AcDbEntity
  8
0
100
AcDbBlockBegin
  2
M-1-1
 70
     0
 10
0.0
 20
0.0
 30
0.0
  3
M-1-1
  1

  0
POLYLINE
  5
67
330
64
100
AcDbEntity
  8
001
 62
     5
370
    50
100
AcDb2dPolyline
 66
     1
 10
0.0
 20
0.0
 30
0.0
  0
VERTEX
  5
69
330
67
100
AcDbEntity
  8
001
 62
     5
370
    50
100
AcDbVertex
100
AcDb2dVertex
 10
48.111896
 20
55.064536
 30
0.0
  0
VERTEX
  5
6A
330
67
100
AcDbEntity
  8
001
 62
     5
370
    50
100
AcDbVertex
100
AcDb2dVertex
 10
48.038857
 20
55.032327
 30
0.0
  0
VERTEX
  5
6B
330
67
100
AcDbEntity
  8
001
 62
     5
370
    50
100
AcDbVertex
100
AcDb2dVertex
 10
47.966698
 20
54.998302
 30
0.0
  0
VERTEX
  5
6C
330
67
100
AcDbEntity
  8
001
 62
     5
370
    50
100
AcDbVertex
100
AcDb2dVertex
 10
47.891883
 20
54.958655
 30
0.0
  0
VERTEX
  5
6D
330
67
100
AcDbEntity
  8
001
 62
     5
370
    50
100
AcDbVertex
100
AcDb2dVertex
 10
47.818953
 20
54.915553
 30
0.0
  0
VERTEX
  5
6E
330
67
100
AcDbEntity
  8
001
 62
     5
370
    50
100
AcDbVertex
100
AcDb2dVertex
 10
47.747749
 20
54.869442
 30
0.0
  0
VERTEX
  5
6F
330
67
100
AcDbEntity
  8
001
 62
     5
370
    50
100
AcDbVertex
100
AcDb2dVertex
 10
47.678521
 20
54.820447
 30
0.0
  0
VERTEX
  5
70
330
67
100
AcDbEntity
  8
001
 62
     5
370
    50
100
AcDbVertex
100
AcDb2dVertex
 10
47.611325
 20
54.768453
 30
0.0
  0
VERTEX
  5
71
330
67
100
AcDbEntity
  8
001
 62
     5
370
    50
100
AcDbVertex
100
AcDb2dVertex
 10
47.546389
 20
54.71365
 30
0.0
  0
VERTEX
  5
72
330
67
100
AcDbEntity
  8
001
 62
     5
370
    50
100
AcDbVertex
100
AcDb2dVertex
 10
47.483703
 20
54.656069
 30
0.0
  0
VERTEX
  5
73
330
67
100
AcDbEntity
  8
001
 62
     5
370
    50
100
AcDbVertex
100
AcDb2dVertex
 10
47.423487
 20
54.595911
 30
0.0
  0
VERTEX
  5
74
330
67
100
AcDbEntity
  8
001
 62
     5
370
    50
100
AcDbVertex
100
AcDb2dVertex
 10
47.365746
 20
54.533166
 30
0.0
  0
VERTEX
  5
75
330
67
100
AcDbEntity
  8
001
 62
     5
370
    50
100
AcDbVertex
100
AcDb2dVertex
 10
47.310682
 20
54.468056
 30
0.0
  0
VERTEX
  5
76
330
67
100
AcDbEntity
  8
001
 62
     5
370
    50
100
AcDbVertex
100
AcDb2dVertex
 10
47.258295
 20
54.400582
 30
0.0
  0
VERTEX
  5
77
330
67
100
AcDbEntity
  8
001
 62
     5
370
    50
100
AcDbVertex
100
AcDb2dVertex
 10
47.20877
 20
54.330982
 30
0.0
  0
VERTEX
  5
78
330
67
100
AcDbEntity
  8
001
 62
     5
370
    50
100
AcDbVertex
100
AcDb2dVertex
 10
47.162108
 20
54.259256
 30
0.0
  0
VERTEX
  5
79
330
67
100
AcDbEntity
  8
001
 62
     5
370
    50
100
AcDbVertex
100
AcDb2dVertex
 10
47.118471
 20
54.185651
 30
0.0
  0
VERTEX
  5
7A
330
67
100
AcDbEntity
  8
001
 62
     5
370
    50
100
AcDbVertex
100
AcDb2dVertex
 10
47.077865
 20
54.110178
 30
0.0
  0
VERTEX
  5
7B
330
67
100
AcDbEntity
  8
001
 62
     5
370
    50
100
AcDbVertex
100
AcDb2dVertex
 10
47.040424
 20
54.033086
 30
0.0
  0
VERTEX
  5
7C
330
67
100
AcDbEntity
  8
001
 62
     5
370
    50
100
AcDbVertex
100
AcDb2dVertex
 10
47.006162
 20
53.954397
 30
0.0
  0
VERTEX
  5
7D
330
67
100
AcDbEntity
  8
001
 62
     5
370
    50
100
AcDbVertex
100
AcDb2dVertex
 10
46.975184
 20
53.874358
 30
0.0
  0
VERTEX
  5
7E
330
67
100
AcDbEntity
  8
001
 62
     5
370
    50
100
AcDbVertex
100
AcDb2dVertex
 10
46.947508
 20
53.793009
 30
0.0
  0
VERTEX
  5
7F
330
67
100
AcDbEntity
  8
001
 62
     5
370
    50
100
AcDbVertex
100
AcDb2dVertex
 10
46.923214
 20
53.710587
 30
0.0
  0
VERTEX
  5
80
330
67
100
AcDbEntity
  8
001
 62
     5
370
    50
100
AcDbVertex
100
AcDb2dVertex
 10
46.902321
 20
53.627151
 30
0.0
  0
VERTEX
  5
81
330
67
100
AcDbEntity
  8
001
 62
     5
370
    50
100
AcDbVertex
100
AcDb2dVertex
 10
46.884885
 20
53.542926
 30
0.0
  0
VERTEX
  5
82
330
67
100
AcDbEntity
  8
001
 62
     5
370
    50
100
AcDbVertex
100
AcDb2dVertex
 10
46.870923
 20
53.457993
 30
0.0
  0
VERTEX
  5
83
330
67
100
AcDbEntity
  8
001
 62
     5
370
    50
100
AcDbVertex
100
AcDb2dVertex
 10
46.86047
 20
53.372557
 30
0.0
  0
VERTEX
  5
84
330
67
100
AcDbEntity
  8
001
 62
     5
370
    50
100
AcDbVertex
100
AcDb2dVertex
 10
46.853539
 20
53.286726
 30
0.0
  0
VERTEX
  5
85
330
67
100
AcDbEntity
  8
001
 62
     5
370
    50
100
AcDbVertex
100
AcDb2dVertex
 10
46.850146
 20
53.200683
 30
0.0
  0
VERTEX
  5
86
330
67
100
AcDbEntity
  8
001
 62
     5
370
    50
100
AcDbVertex
100
AcDb2dVertex
 10
46.850296
 20
53.114561
 30
0.0
  0
VERTEX
  5
87
330
67
100
AcDbEntity
  8
001
 62
     5
370
    50
100
AcDbVertex
100
AcDb2dVertex
 10
46.853989
 20
53.028518
 30
0.0
  0
VERTEX
  5
88
330
67
100
AcDbEntity
  8
001
 62
     5
370
    50
100
AcDbVertex
100
AcDb2dVertex
 10
46.861219
 20
52.942713
 30
0.0
  0
VERTEX
  5
89
330
67
100
AcDbEntity
  8
001
 62
     5
370
    50
100
AcDbVertex
100
AcDb2dVertex
 10
46.871975
 20
52.857278
 30
0.0
  0
VERTEX
  5
8A
330
67
100
AcDbEntity
  8
001
 62
     5
370
    50
100
AcDbVertex
100
AcDb2dVertex
 10
46.886235
 20
52.772398
 30
0.0
  0
VERTEX
  5
8B
330
67
100
AcDbEntity
  8
001
 62
     5
370
    50
100
AcDbVertex
100
AcDb2dVertex
 10
46.903979
 20
52.688177
 30
0.0
  0
VERTEX
  5
8C
330
67
100
AcDbEntity
  8
001
 62
     5
370
    50
100
AcDbVertex
100
AcDb2dVertex
 10
46.925167
 20
52.60482
 30
0.0
  0
VERTEX
  5
8D
330
67
100
AcDbEntity
  8
001
 62
     5
370
    50
100
AcDbVertex
100
AcDb2dVertex
 10
46.949777
 20
52.522409
 30
0.0
  0
VERTEX
  5
8E
330
67
100
AcDbEntity
  8
001
 62
     5
370
    50
100
AcDbVertex
100
AcDb2dVertex
 10
46.977743
 20
52.441165
 30
0.0
  0
VERTEX
  5
8F
330
67
100
AcDbEntity
  8
001
 62
     5
370
    50
100
AcDbVertex
100
AcDb2dVertex
 10
47.009045
 20
52.361148
 30
0.0
  0
VERTEX
  5
90
330
67
100
AcDbEntity
  8
001
 62
     5
370
    50
100
AcDbVertex
100
AcDb2dVertex
 10
47.043592
 20
52.282591
 30
0.0
  0
VERTEX
  5
91
330
67
100
AcDbEntity
  8
001
 62
     5
370
    50
100
AcDbVertex
100
AcDb2dVertex
 10
47.081365
 20
52.205534
 30
0.0
  0
VERTEX
  5
92
330
67
100
AcDbEntity
  8
001
 62
     5
370
    50
100
AcDbVertex
100
AcDb2dVertex
 10
47.122248
 20
52.130218
 30
0.0
  0
VERTEX
  5
93
330
67
100
AcDbEntity
  8
001
 62
     5
370
    50
100
AcDbVertex
100
AcDb2dVertex
 10
47.166226
 20
52.056667
 30
0.0
  0
VERTEX
  5
94
330
67
100
AcDbEntity
  8
001
 62
     5
370
    50
100
AcDbVertex
100
AcDb2dVertex
 10
47.213155
 20
51.985125
 30
0.0
  0
VERTEX
  5
95
330
67
100
AcDbEntity
  8
001
 62
     5
370
    50
100
AcDbVertex
100
AcDb2dVertex
 10
47.263027
 20
51.915602
 30
0.0
  0
VERTEX
  5
96
330
67
100
AcDbEntity
  8
001
 62
     5
370
    50
100
AcDbVertex
100
AcDb2dVertex
 10
47.31567
 20
51.848338
 30
0.0
  0
VERTEX
  5
97
330
67
100
AcDbEntity
  8
001
 62
     5
370
    50
100
AcDbVertex
100
AcDb2dVertex
 10
47.371081
 20
51.783335
 30
0.0
  0
VERTEX
  5
98
330
67
100
AcDbEntity
  8
001
 62
     5
370
    50
100
AcDbVertex
100
AcDb2dVertex
 10
47.429066
 20
51.720823
 30
0.0
  0
VERTEX
  5
99
330
67
100
AcDbEntity
  8
001
 62
     5
370
    50
100
AcDbVertex
100
AcDb2dVertex
 10
47.489624
 20
51.660801
 30
0.0
  0
VERTEX
  5
9A
330
67
100
AcDbEntity
  8
001
 62
     5
370
    50
100
AcDbVertex
100
AcDb2dVertex
 10
47.552541
 20
51.603484
 30
0.0
  0
VERTEX
  5
9B
330
67
100
AcDbEntity
  8
001
 62
     5
370
    50
100
AcDbVertex
100
AcDb2dVertex
 10
47.617815
 20
51.548863
 30
0.0
  0
VERTEX
  5
9C
330
67
100
AcDbEntity
  8
001
 62
     5
370
    50
100
AcDbVertex
100
AcDb2dVertex
 10
47.685213
 20
51.497129
 30
0.0
  0
VERTEX
  5
9D
330
67
100
AcDbEntity
  8
001
 62
     5
370
    50
100
AcDbVertex
100
AcDb2dVertex
 10
47.754745
 20
51.44831
 30
0.0
  0
VERTEX
  5
9E
330
67
100
AcDbEntity
  8
001
 62
     5
370
    50
100
AcDbVertex
100
AcDb2dVertex
 10
47.82617
 20
51.402583
 30
0.0
  0
VERTEX
  5
9F
330
67
100
AcDbEntity
  8
001
 62
     5
370
    50
100
AcDbVertex
100
AcDb2dVertex
 10
47.899444
 20
51.359851
 30
0.0
  0
VERTEX
  5
A0
330
67
100
AcDbEntity
  8
001
 62
     5
370
    50
100
AcDbVertex
100
AcDb2dVertex
 10
47.974313
 20
51.320233
 30
0.0
  0
VERTEX
  5
A1
330
67
100
AcDbEntity
  8
001
 62
     5
370
    50
100
AcDbVertex
100
AcDb2dVertex
 10
48.05089
 20
51.284106
 30
0.0
  0
VERTEX
  5
A2
330
67
100
AcDbEntity
  8
001
 62
     5
370
    50
100
AcDbVertex
100
AcDb2dVertex
 10
48.102765
 20
51.262084
 30
0.0
  0
VERTEX
  5
A3
330
67
100
AcDbEntity
  8
001
 62
     5
370
    50
100
AcDbVertex
100
AcDb2dVertex
 10
48.155027
 20
51.240955
 30
0.0
  0
SEQEND
  5
68
330
67
100
AcDbEntity
  8
001
370
    50
  0
POLYLINE
  5
A4
330
64
100
AcDbEntity
  8
001
 62
     5
370
    50
100
AcDb2dPolyline
 66
     1
 10
0.0
 20
0.0
 30
0.0
  0
VERTEX
  5
A6
330
A4
100
AcDbEntity
  8
001
 62
     5
370
    50
100
AcDbVertex
100
AcDb2dVertex
 10
48.858
 20
51.111262
 30
0.0
  0
VERTEX
  5
A7
330
A4
100
AcDbEntity
  8
001
 62
     5
370
    50
100
AcDbVertex
100
AcDb2dVertex
 10
49.000168
 20
51.117162
 30
0.0
  0
VERTEX
  5
A8
330
A4
100
AcDbEntity
  8
001
 62
     5
370
    50
100
AcDbVertex
100
AcDb2dVertex
 10
49.205941
 20
51.142406
 30
0.0
  0
VERTEX
  5
A9
330
A4
100
AcDbEntity
  8
001
 62
     5
370
    50
100
AcDbVertex
100
AcDb2dVertex
 10
49.395519
 20
51.187056
 30
0.0
  0
VERTEX
  5
AA
330
A4
100
AcDbEntity
  8
001
 62
     5
370
    50
100
AcDbVertex
100
AcDb2dVertex
 10
49.522918
 20
51.227426
 30
0.0
  0
SEQEND
  5
A5
330
A4
100
AcDbEntity
  8
001
370
    50
  0
POLYLINE
  5
AB
330
64
100
AcDbEntity
  8
001
 62
     5
370
    50
100
AcDb2dPolyline
 66
     1
 10
0.0
 20
0.0
 30
0.0
  0
VERTEX
  5
AD
330
AB
100
AcDbEntity
  8
001
 62
     5
370
    50
100
AcDbVertex
100
AcDb2dVertex
 10
48.858
 20
55.211262
 30
0.0
  0
VERTEX
  5
AE
330
AB
100
AcDbEntity
  8
001
 62
     5
370
    50
100
AcDbVertex
100
AcDb2dVertex
 10
48.708633
 20
55.202564
 30
0.0
  0
VERTEX
  5
AF
330
AB
100
AcDbEntity
  8
001
 62
     5
370
    50
100
AcDbVertex
100
AcDb2dVertex
 10
48.51006
 20
55.180118
 30
0.0
  0
VERTEX
  5
B0
330
AB
100
AcDbEntity
  8
001
 62
     5
370
    50
100
AcDbVertex
100
AcDb2dVertex
 10
48.344205
 20
55.145832
 30
0.0
  0
VERTEX
  5
B1
330
AB
100
AcDbEntity
  8
001
 62
     5
370
    50
100
AcDbVertex
100
AcDb2dVertex
 10
48.172691
 20
55.087632
 30
0.0
  0
VERTEX
  5
B2
330
AB
100
AcDbEntity
  8
001
 62
     5
370
    50
100
AcDbVertex
100
AcDb2dVertex
 10
48.138677
 20
55.074493
 30
0.0
  0
VERTEX
  5
B3
330
AB
100
AcDbEntity
  8
001
 62
     5
370
    50
100
AcDbVertex
100
AcDb2dVertex
 10
48.114968
 20
55.0651
 30
0.0
  0
SEQEND
  5
AC
330
AB
100
AcDbEntity
  8
001
370
    50
  0
POLYLINE
  5
B4
330
64
100
AcDbEntity
  8
001
 62
     5
370
    50
100
AcDb2dPolyline
 66
     1
 10
0.0
 20
0.0
 30
0.0
  0
VERTEX
  5
B6
330
B4
100
AcDbEntity
  8
001
 62
     5
370
    50
100
AcDbVertex
100
AcDb2dVertex
 10
48.178937
 20
51.970256
 30
0.0
  0
VERTEX
  5
B7
330
B4
100
AcDbEntity
  8
001
 62
     5
370
    50
100
AcDbVertex
100
AcDb2dVertex
 10
48.198958
 20
51.971287
 30
0.0
  0
VERTEX
  5
B8
330
B4
100
AcDbEntity
  8
001
 62
     5
370
    50
100
AcDbVertex
100
AcDb2dVertex
 10
48.226461
 20
51.97451
 30
0.0
  0
VERTEX
  5
B9
330
B4
100
AcDbEntity
  8
001
 62
     5
370
    50
100
AcDbVertex
100
AcDb2dVertex
 10
48.251023
 20
51.979983
 30
0.0
  0
VERTEX
  5
BA
330
B4
100
AcDbEntity
  8
001
 62
     5
370
    50
100
AcDbVertex
100
AcDb2dVertex
 10
48.272541
 20
51.987142
 30
0.0
  0
VERTEX
  5
BB
330
B4
100
AcDbEntity
  8
001
 62
     5
370
    50
100
AcDbVertex
100
AcDb2dVertex
 10
48.293492
 20
51.995805
 30
0.0
  0
VERTEX
  5
BC
330
B4
100
AcDbEntity
  8
001
 62
     5
370
    50
100
AcDbVertex
100
AcDb2dVertex
 10
48.315776
 20
52.007769
 30
0.0
  0
VERTEX
  5
BD
330
B4
100
AcDbEntity
  8
001
 62
     5
370
    50
100
AcDbVertex
100
AcDb2dVertex
 10
48.334906
 20
52.020407
 30
0.0
  0
VERTEX
  5
BE
330
B4
100
AcDbEntity
  8
001
 62
     5
370
    50
100
AcDbVertex
100
AcDb2dVertex
 10
48.348179
 20
52.030214
 30
0.0
  0
SEQEND
  5
B5
330
B4
100
AcDbEntity
  8
001
370
    50
  0
POLYLINE
  5
BF
330
64
100
AcDbEntity
  8
001
 62
     5
370
    50
100
AcDb2dPolyline
 66
     1
 10
0.0
 20
0.0
 30
0.0
  0
VERTEX
  5
C1
330
BF
100
AcDbEntity
  8
001
 62
     5
370
    50
100
AcDbVertex
100
AcDb2dVertex
 10
49.060866
 20
51.959096
 30
0.0
  0
VERTEX
  5
C2
330
BF
100
AcDbEntity
  8
001
 62
     5
370
    50
100
AcDbVertex
100
AcDb2dVertex
 10
49.00742
 20
52.011503
 30
0.0
  0
VERTEX
  5
C3
330
BF
100
AcDbEntity
  8
001
 62
     5
370
    50
100
AcDbVertex
100
AcDb2dVertex
 10
48.927024
 20
52.072661
 30
0.0
  0
VERTEX
  5
C4
330
BF
100
AcDbEntity
  8
001
 62
     5
370
    50
100
AcDbVertex
100
AcDb2dVertex
 10
48.885572
 20
52.095024
 30
0.0
  0
VERTEX
  5
C5
330
BF
100
AcDbEntity
  8
001
 62
     5
370
    50
100
AcDbVertex
100
AcDb2dVertex
 10
48.845259
 20
52.11167
 30
0.0
  0
VERTEX
  5
C6
330
BF
100
AcDbEntity
  8
001
 62
     5
370
    50
100
AcDbVertex
100
AcDb2dVertex
 10
48.804384
 20
52.125278
 30
0.0
  0
VERTEX
  5
C7
330
BF
100
AcDbEntity
  8
001
 62
     5
370
    50
100
AcDbVertex
100
AcDb2dVertex
 10
48.758116
 20
52.135559
 30
0.0
  0
VERTEX
  5
C8
330
BF
100
AcDbEntity
  8
001
 62
     5
370
    50
100
AcDbVertex
100
AcDb2dVertex
 10
48.706139
 20
52.141641
 30
0.0
  0
VERTEX
  5
C9
330
BF
100
AcDbEntity
  8
001
 62
     5
370
    50
100
AcDbVertex
100
AcDb2dVertex
 10
48.668241
 20
52.143604
 30
0.0
  0
SEQEND
  5
C0
330
BF
100
AcDbEntity
  8
001
370
    50
  0
POLYLINE
  5
CA
330
64
100
AcDbEntity
  8
001
 62
     5
370
    50
100
AcDb2dPolyline
 66
     1
 10
0.0
 20
0.0
 30
0.0
  0
VERTEX
  5
CC
330
CA
100
AcDbEntity
  8
001
 62
     5
370
    50
100
AcDbVertex
100
AcDb2dVertex
 10
49.268477
 20
51.861533
 30
0.0
  0
VERTEX
  5
CD
330
CA
100
AcDbEntity
  8
001
 62
     5
370
    50
100
AcDbVertex
100
AcDb2dVertex
 10
49.288539
 20
51.862599
 30
0.0
  0
VERTEX
  5
CE
330
CA
100
AcDbEntity
  8
001
 62
     5
370
    50
100
AcDbVertex
100
AcDb2dVertex
 10
49.316
 20
51.865786
 30
0.0
  0
VERTEX
  5
CF
330
CA
100
AcDbEntity
  8
001
 62
     5
370
    50
100
AcDbVertex
100
AcDb2dVertex
 10
49.340352
 20
51.871079
 30
0.0
  0
VERTEX
  5
D0
330
CA
100
AcDbEntity
  8
001
 62
     5
370
    50
100
AcDbVertex
100
AcDb2dVertex
 10
49.36208
 20
51.878419
 30
0.0
  0
VERTEX
  5
D1
330
CA
100
AcDbEntity
  8
001
 62
     5
370
    50
100
AcDbVertex
100
AcDb2dVertex
 10
49.383833
 20
51.88777
 30
0.0
  0
VERTEX
  5
D2
330
CA
100
AcDbEntity
  8
001
 62
     5
370
    50
100
AcDbVertex
100
AcDb2dVertex
 10
49.405316
 20
51.899046
 30
0.0
  0
VERTEX
  5
D3
330
CA
100
AcDbEntity
  8
001
 62
     5
370
    50
100
AcDbVertex
100
AcDb2dVertex
 10
49.462304
 20
51.943412
 30
0.0
  0
VERTEX
  5
D4
330
CA
100
AcDbEntity
  8
001
 62
     5
370
    50
100
AcDbVertex
100
AcDb2dVertex
 10
49.505488
 20
52.001533
 30
0.0
  0
VERTEX
  5
D5
330
CA
100
AcDbEntity
  8
001
 62
     5
370
    50
100
AcDbVertex
100
AcDb2dVertex
 10
49.525562
 20
52.046716
 30
0.0
  0
VERTEX
  5
D6
330
CA
100
AcDbEntity
  8
001
 62
     5
370
    50
100
AcDbVertex
100
AcDb2dVertex
 10
49.537997
 20
52.092911
 30
0.0
  0
VERTEX
  5
D7
330
CA
100
AcDbEntity
  8
001
 62
     5
370
    50
100
AcDbVertex
100
AcDb2dVertex
 10
49.541287
 20
52.115922
 30
0.0
  0
VERTEX
  5
D8
330
CA
100
AcDbEntity
  8
001
 62
     5
370
    50
100
AcDbVertex
100
AcDb2dVertex
 10
49.542154
 20
52.141533
 30
0.0
  0
VERTEX
  5
D9
330
CA
100
AcDbEntity
  8
001
 62
     5
370
    50
100
AcDbVertex
100
AcDb2dVertex
 10
49.541
 20
52.164769
 30
0.0
  0
VERTEX
  5
DA
330
CA
100
AcDbEntity
  8
001
 62
     5
370
    50
100
AcDbVertex
100
AcDb2dVertex
 10
49.539357
 20
52.181465
 30
0.0
  0
SEQEND
  5
CB
330
CA
100
AcDbEntity
  8
001
370
    50
  0
POLYLINE
  5
DB
330
64
100
AcDbEntity
  8
001
 62
     5
370
    50
100
AcDb2dPolyline
 66
     1
 10
0.0
 20
0.0
 30
0.0
  0
VERTEX
  5
DD
330
DB
100
AcDbEntity
  8
001
 62
     5
370
    50
100
AcDbVertex
100
AcDb2dVertex
 10
49.955899
 20
52.77737
 30
0.0
  0
VERTEX
  5
DE
330
DB
100
AcDbEntity
  8
001
 62
     5
370
    50
100
AcDbVertex
100
AcDb2dVertex
 10
49.921454
 20
52.768944
 30
0.0
  0
VERTEX
  5
DF
330
DB
100
AcDbEntity
  8
001
 62
     5
370
    50
100
AcDbVertex
100
AcDb2dVertex
 10
49.874614
 20
52.754573
 30
0.0
  0
VERTEX
  5
E0
330
DB
100
AcDbEntity
  8
001
 62
     5
370
    50
100
AcDbVertex
100
AcDb2dVertex
 10
49.83069
 20
52.736465
 30
0.0
  0
VERTEX
  5
E1
330
DB
100
AcDbEntity
  8
001
 62
     5
370
    50
100
AcDbVertex
100
AcDb2dVertex
 10
49.792849
 20
52.715564
 30
0.0
  0
VERTEX
  5
E2
330
DB
100
AcDbEntity
  8
001
 62
     5
370
    50
100
AcDbVertex
100
AcDb2dVertex
 10
49.687886
 20
52.632089
 30
0.0
  0
VERTEX
  5
E3
330
DB
100
AcDbEntity
  8
001
 62
     5
370
    50
100
AcDbVertex
100
AcDb2dVertex
 10
49.603407
 20
52.521745
 30
0.0
  0
VERTEX
  5
E4
330
DB
100
AcDbEntity
  8
001
 62
     5
370
    50
100
AcDbVertex
100
AcDb2dVertex
 10
49.56505
 20
52.436237
 30
0.0
  0
VERTEX
  5
E5
330
DB
100
AcDbEntity
  8
001
 62
     5
370
    50
100
AcDbVertex
100
AcDb2dVertex
 10
49.541929
 20
52.348935
 30
0.0
  0
VERTEX
  5
E6
330
DB
100
AcDbEntity
  8
001
 62
     5
370
    50
100
AcDbVertex
100
AcDb2dVertex
 10
49.535743
 20
52.305423
 30
0.0
  0
VERTEX
  5
E7
330
DB
100
AcDbEntity
  8
001
 62
     5
370
    50
100
AcDbVertex
100
AcDb2dVertex
 10
49.534066
 20
52.256984
 30
0.0
  0
VERTEX
  5
E8
330
DB
100
AcDbEntity
  8
001
 62
     5
370
    50
100
AcDbVertex
100
AcDb2dVertex
 10
49.536244
 20
52.213039
 30
0.0
  0
VERTEX
  5
E9
330
DB
100
AcDbEntity
  8
001
 62
     5
370
    50
100
AcDbVertex
100
AcDb2dVertex
 10
49.539357
 20
52.181465
 30
0.0
  0
SEQEND
  5
DC
330
DB
100
AcDbEntity
  8
001
370
    50
  0
POLYLINE
  5
EA
330
64
100
AcDbEntity
  8
001
 62
     5
370
    50
100
AcDb2dPolyline
 66
     1
 10
0.0
 20
0.0
 30
0.0
  0
VERTEX
  5
EC
330
EA
100
AcDbEntity
  8
001
 62
     5
370
    50
100
AcDbVertex
100
AcDb2dVertex
 10
49.955899
 20
52.77737
 30
0.0
  0
VERTEX
  5
ED
330
EA
100
AcDbEntity
  8
001
 62
     5
370
    50
100
AcDbVertex
100
AcDb2dVertex
 10
49.974113
 20
52.781828
 30
0.0
  0
VERTEX
  5
EE
330
EA
100
AcDbEntity
  8
001
 62
     5
370
    50
100
AcDbVertex
100
AcDb2dVertex
 10
49.998881
 20
52.789424
 30
0.0
  0
VERTEX
  5
EF
330
EA
100
AcDbEntity
  8
001
 62
     5
370
    50
100
AcDbVertex
100
AcDb2dVertex
 10
50.02211
 20
52.798983
 30
0.0
  0
VERTEX
  5
F0
330
EA
100
AcDbEntity
  8
001
 62
     5
370
    50
100
AcDbVertex
100
AcDb2dVertex
 10
50.042117
 20
52.810051
 30
0.0
  0
VERTEX
  5
F1
330
EA
100
AcDbEntity
  8
001
 62
     5
370
    50
100
AcDbVertex
100
AcDb2dVertex
 10
50.097568
 20
52.854517
 30
0.0
  0
VERTEX
  5
F2
330
EA
100
AcDbEntity
  8
001
 62
     5
370
    50
100
AcDbVertex
100
AcDb2dVertex
 10
50.14229
 20
52.912538
 30
0.0
  0
VERTEX
  5
F3
330
EA
100
AcDbEntity
  8
001
 62
     5
370
    50
100
AcDbVertex
100
AcDb2dVertex
 10
50.162699
 20
52.956927
 30
0.0
  0
VERTEX
  5
F4
330
EA
100
AcDbEntity
  8
001
 62
     5
370
    50
100
AcDbVertex
100
AcDb2dVertex
 10
50.174798
 20
53.003917
 30
0.0
  0
VERTEX
  5
F5
330
EA
100
AcDbEntity
  8
001
 62
     5
370
    50
100
AcDbVertex
100
AcDb2dVertex
 10
50.17788
 20
53.02815
 30
0.0
  0
VERTEX
  5
F6
330
EA
100
AcDbEntity
  8
001
 62
     5
370
    50
100
AcDbVertex
100
AcDb2dVertex
 10
50.178955
 20
53.052538
 30
0.0
  0
VERTEX
  5
F7
330
EA
100
AcDbEntity
  8
001
 62
     5
370
    50
100
AcDbVertex
100
AcDb2dVertex
 10
50.177975
 20
53.076908
 30
0.0
  0
VERTEX
  5
F8
330
EA
100
AcDbEntity
  8
001
 62
     5
370
    50
100
AcDbVertex
100
AcDb2dVertex
 10
50.174798
 20
53.10116
 30
0.0
  0
VERTEX
  5
F9
330
EA
100
AcDbEntity
  8
001
 62
     5
370
    50
100
AcDbVertex
100
AcDb2dVertex
 10
50.16195
 20
53.148407
 30
0.0
  0
VERTEX
  5
FA
330
EA
100
AcDbEntity
  8
001
 62
     5
370
    50
100
AcDbVertex
100
AcDb2dVertex
 10
50.14229
 20
53.192538
 30
0.0
  0
VERTEX
  5
FB
330
EA
100
AcDbEntity
  8
001
 62
     5
370
    50
100
AcDbVertex
100
AcDb2dVertex
 10
50.102782
 20
53.248696
 30
0.0
  0
VERTEX
  5
FC
330
EA
100
AcDbEntity
  8
001
 62
     5
370
    50
100
AcDbVertex
100
AcDb2dVertex
 10
50.042117
 20
53.295025
 30
0.0
  0
VERTEX
  5
FD
330
EA
100
AcDbEntity
  8
001
 62
     5
370
    50
100
AcDbVertex
100
AcDb2dVertex
 10
50.021636
 20
53.305726
 30
0.0
  0
VERTEX
  5
FE
330
EA
100
AcDbEntity
  8
001
 62
     5
370
    50
100
AcDbVertex
100
AcDb2dVertex
 10
50.006916
 20
53.312513
 30
0.0
  0
SEQEND
  5
EB
330
EA
100
AcDbEntity
  8
001
370
    50
  0
POLYLINE
  5
FF
330
64
100
AcDbEntity
  8
001
 62
     5
370
    50
100
AcDb2dPolyline
 66
     1
 10
0.0
 20
0.0
 30
0.0
  0
VERTEX
  5
101
330
FF
100
AcDbEntity
  8
001
 62
     5
370
    50
100
AcDbVertex
100
AcDb2dVertex
 10
49.710772
 20
53.979536
 30
0.0
  0
VERTEX
  5
102
330
FF
100
AcDbEntity
  8
001
 62
     5
370
    50
100
AcDbVertex
100
AcDb2dVertex
 10
49.700663
 20
53.94477
 30
0.0
  0
VERTEX
  5
103
330
FF
100
AcDbEntity
  8
001
 62
     5
370
    50
100
AcDbVertex
100
AcDb2dVertex
 10
49.689427
 20
53.896116
 30
0.0
  0
VERTEX
  5
104
330
FF
100
AcDbEntity
  8
001
 62
     5
370
    50
100
AcDbVertex
100
AcDb2dVertex
 10
49.682899
 20
53.848366
 30
0.0
  0
VERTEX
  5
105
330
FF
100
AcDbEntity
  8
001
 62
     5
370
    50
100
AcDbVertex
100
AcDb2dVertex
 10
49.681564
 20
53.804165
 30
0.0
  0
VERTEX
  5
106
330
FF
100
AcDbEntity
  8
001
 62
     5
370
    50
100
AcDbVertex
100
AcDb2dVertex
 10
49.683621
 20
53.758636
 30
0.0
  0
VERTEX
  5
107
330
FF
100
AcDbEntity
  8
001
 62
     5
370
    50
100
AcDbVertex
100
AcDb2dVertex
 10
49.689427
 20
53.712214
 30
0.0
  0
VERTEX
  5
108
330
FF
100
AcDbEntity
  8
001
 62
     5
370
    50
100
AcDbVertex
100
AcDb2dVertex
 10
49.713587
 20
53.622486
 30
0.0
  0
VERTEX
  5
109
330
FF
100
AcDbEntity
  8
001
 62
     5
370
    50
100
AcDbVertex
100
AcDb2dVertex
 10
49.750904
 20
53.539404
 30
0.0
  0
VERTEX
  5
10A
330
FF
100
AcDbEntity
  8
001
 62
     5
370
    50
100
AcDbVertex
100
AcDb2dVertex
 10
49.82567
 20
53.433344
 30
0.0
  0
VERTEX
  5
10B
330
FF
100
AcDbEntity
  8
001
 62
     5
370
    50
100
AcDbVertex
100
AcDb2dVertex
 10
49.940346
 20
53.345585
 30
0.0
  0
VERTEX
  5
10C
330
FF
100
AcDbEntity
  8
001
 62
     5
370
    50
100
AcDbVertex
100
AcDb2dVertex
 10
49.979077
 20
53.325345
 30
0.0
  0
VERTEX
  5
10D
330
FF
100
AcDbEntity
  8
001
 62
     5
370
    50
100
AcDbVertex
100
AcDb2dVertex
 10
50.006916
 20
53.312513
 30
0.0
  0
SEQEND
  5
100
330
FF
100
AcDbEntity
  8
001
370
    50
  0
POLYLINE
  5
10E
330
64
100
AcDbEntity
  8
001
 62
     5
370
    50
100
AcDb2dPolyline
 66
     1
 10
0.0
 20
0.0
 30
0.0
  0
VERTEX
  5
110
330
10E
100
AcDbEntity
  8
001
 62
     5
370
    50
100
AcDbVertex
100
AcDb2dVertex
 10
49.45254
 20
54.352268
 30
0.0
  0
VERTEX
  5
111
330
10E
100
AcDbEntity
  8
001
 62
     5
370
    50
100
AcDbVertex
100
AcDb2dVertex
 10
49.432519
 20
54.351237
 30
0.0
  0
VERTEX
  5
112
330
10E
100
AcDbEntity
  8
001
 62
     5
370
    50
100
AcDbVertex
100
AcDb2dVertex
 10
49.405016
 20
54.348014
 30
0.0
  0
VERTEX
  5
113
330
10E
100
AcDbEntity
  8
001
 62
     5
370
    50
100
AcDbVertex
100
AcDb2dVertex
 10
49.380454
 20
54.342541
 30
0.0
  0
VERTEX
  5
114
330
10E
100
AcDbEntity
  8
001
 62
     5
370
    50
100
AcDbVertex
100
AcDb2dVertex
 10
49.358936
 20
54.335382
 30
0.0
  0
VERTEX
  5
115
330
10E
100
AcDbEntity
  8
001
 62
     5
370
    50
100
AcDbVertex
100
AcDb2dVertex
 10
49.337986
 20
54.326719
 30
0.0
  0
VERTEX
  5
116
330
10E
100
AcDbEntity
  8
001
 62
     5
370
    50
100
AcDbVertex
100
AcDb2dVertex
 10
49.315701
 20
54.314755
 30
0.0
  0
VERTEX
  5
117
330
10E
100
AcDbEntity
  8
001
 62
     5
370
    50
100
AcDbVertex
100
AcDb2dVertex
 10
49.296571
 20
54.302117
 30
0.0
  0
VERTEX
  5
118
330
10E
100
AcDbEntity
  8
001
 62
     5
370
    50
100
AcDbVertex
100
AcDb2dVertex
 10
49.283298
 20
54.29231
 30
0.0
  0
SEQEND
  5
10F
330
10E
100
AcDbEntity
  8
001
370
    50
  0
POLYLINE
  5
119
330
64
100
AcDbEntity
  8
001
 62
     5
370
    50
100
AcDb2dPolyline
 66
     1
 10
0.0
 20
0.0
 30
0.0
  0
VERTEX
  5
11B
330
119
100
AcDbEntity
  8
001
 62
     5
370
    50
100
AcDbVertex
100
AcDb2dVertex
 10
48.570611
 20
54.363428
 30
0.0
  0
VERTEX
  5
11C
330
119
100
AcDbEntity
  8
001
 62
     5
370
    50
100
AcDbVertex
100
AcDb2dVertex
 10
48.624057
 20
54.311021
 30
0.0
  0
VERTEX
  5
11D
330
119
100
AcDbEntity
  8
001
 62
     5
370
    50
100
AcDbVertex
100
AcDb2dVertex
 10
48.704453
 20
54.249863
 30
0.0
  0
VERTEX
  5
11E
330
119
100
AcDbEntity
  8
001
 62
     5
370
    50
100
AcDbVertex
100
AcDb2dVertex
 10
48.745906
 20
54.2275
 30
0.0
  0
VERTEX
  5
11F
330
119
100
AcDbEntity
  8
001
 62
     5
370
    50
100
AcDbVertex
100
AcDb2dVertex
 10
48.786218
 20
54.210854
 30
0.0
  0
VERTEX
  5
120
330
119
100
AcDbEntity
  8
001
 62
     5
370
    50
100
AcDbVertex
100
AcDb2dVertex
 10
48.827093
 20
54.197246
 30
0.0
  0
VERTEX
  5
121
330
119
100
AcDbEntity
  8
001
 62
     5
370
    50
100
AcDbVertex
100
AcDb2dVertex
 10
48.873362
 20
54.186965
 30
0.0
  0
VERTEX
  5
122
330
119
100
AcDbEntity
  8
001
 62
     5
370
    50
100
AcDbVertex
100
AcDb2dVertex
 10
48.925338
 20
54.180882
 30
0.0
  0
VERTEX
  5
123
330
119
100
AcDbEntity
  8
001
 62
     5
370
    50
100
AcDbVertex
100
AcDb2dVertex
 10
48.963236
 20
54.17892
 30
0.0
  0
SEQEND
  5
11A
330
119
100
AcDbEntity
  8
001
370
    50
  0
POLYLINE
  5
124
330
64
100
AcDbEntity
  8
001
 62
     5
370
    50
100
AcDb2dPolyline
 66
     1
 10
0.0
 20
0.0
 30
0.0
  0
VERTEX
  5
126
330
124
100
AcDbEntity
  8
001
 62
     5
370
    50
100
AcDbVertex
100
AcDb2dVertex
 10
48.363
 20
54.460991
 30
0.0
  0
VERTEX
  5
127
330
124
100
AcDbEntity
  8
001
 62
     5
370
    50
100
AcDbVertex
100
AcDb2dVertex
 10
48.342938
 20
54.459925
 30
0.0
  0
VERTEX
  5
128
330
124
100
AcDbEntity
  8
001
 62
     5
370
    50
100
AcDbVertex
100
AcDb2dVertex
 10
48.315477
 20
54.456737
 30
0.0
  0
VERTEX
  5
129
330
124
100
AcDbEntity
  8
001
 62
     5
370
    50
100
AcDbVertex
100
AcDb2dVertex
 10
48.291125
 20
54.451445
 30
0.0
  0
VERTEX
  5
12A
330
124
100
AcDbEntity
  8
001
 62
     5
370
    50
100
AcDbVertex
100
AcDb2dVertex
 10
48.269397
 20
54.444105
 30
0.0
  0
VERTEX
  5
12B
330
124
100
AcDbEntity
  8
001
 62
     5
370
    50
100
AcDbVertex
100
AcDb2dVertex
 10
48.247644
 20
54.434754
 30
0.0
  0
VERTEX
  5
12C
330
124
100
AcDbEntity
  8
001
 62
     5
370
    50
100
AcDbVertex
100
AcDb2dVertex
 10
48.226162
 20
54.423478
 30
0.0
  0
VERTEX
  5
12D
330
124
100
AcDbEntity
  8
001
 62
     5
370
    50
100
AcDbVertex
100
AcDb2dVertex
 10
48.169173
 20
54.379112
 30
0.0
  0
VERTEX
  5
12E
330
124
100
AcDbEntity
  8
001
 62
     5
370
    50
100
AcDbVertex
100
AcDb2dVertex
 10
48.125989
 20
54.320991
 30
0.0
  0
VERTEX
  5
12F
330
124
100
AcDbEntity
  8
001
 62
     5
370
    50
100
AcDbVertex
100
AcDb2dVertex
 10
48.105916
 20
54.275808
 30
0.0
  0
VERTEX
  5
130
330
124
100
AcDbEntity
  8
001
 62
     5
370
    50
100
AcDbVertex
100
AcDb2dVertex
 10
48.093481
 20
54.229613
 30
0.0
  0
VERTEX
  5
131
330
124
100
AcDbEntity
  8
001
 62
     5
370
    50
100
AcDbVertex
100
AcDb2dVertex
 10
48.09019
 20
54.206602
 30
0.0
  0
VERTEX
  5
132
330
124
100
AcDbEntity
  8
001
 62
     5
370
    50
100
AcDbVertex
100
AcDb2dVertex
 10
48.089323
 20
54.180991
 30
0.0
  0
VERTEX
  5
133
330
124
100
AcDbEntity
  8
001
 62
     5
370
    50
100
AcDbVertex
100
AcDb2dVertex
 10
48.090477
 20
54.157755
 30
0.0
  0
VERTEX
  5
134
330
124
100
AcDbEntity
  8
001
 62
     5
370
    50
100
AcDbVertex
100
AcDb2dVertex
 10
48.09212
 20
54.141059
 30
0.0
  0
SEQEND
  5
125
330
124
100
AcDbEntity
  8
001
370
    50
  0
POLYLINE
  5
135
330
64
100
AcDbEntity
  8
001
 62
     5
370
    50
100
AcDb2dPolyline
 66
     1
 10
0.0
 20
0.0
 30
0.0
  0
VERTEX
  5
137
330
135
100
AcDbEntity
  8
001
 62
     5
370
    50
100
AcDbVertex
100
AcDb2dVertex
 10
47.675578
 20
53.545154
 30
0.0
  0
VERTEX
  5
138
330
135
100
AcDbEntity
  8
001
 62
     5
370
    50
100
AcDbVertex
100
AcDb2dVertex
 10
47.710023
 20
53.55358
 30
0.0
  0
VERTEX
  5
139
330
135
100
AcDbEntity
  8
001
 62
     5
370
    50
100
AcDbVertex
100
AcDb2dVertex
 10
47.756863
 20
53.567951
 30
0.0
  0
VERTEX
  5
13A
330
135
100
AcDbEntity
  8
001
 62
     5
370
    50
100
AcDbVertex
100
AcDb2dVertex
 10
47.800787
 20
53.586059
 30
0.0
  0
VERTEX
  5
13B
330
135
100
AcDbEntity
  8
001
 62
     5
370
    50
100
AcDbVertex
100
AcDb2dVertex
 10
47.838628
 20
53.60696
 30
0.0
  0
VERTEX
  5
13C
330
135
100
AcDbEntity
  8
001
 62
     5
370
    50
100
AcDbVertex
100
AcDb2dVertex
 10
47.943591
 20
53.690435
 30
0.0
  0
VERTEX
  5
13D
330
135
100
AcDbEntity
  8
001
 62
     5
370
    50
100
AcDbVertex
100
AcDb2dVertex
 10
48.02807
 20
53.800779
 30
0.0
  0
VERTEX
  5
13E
330
135
100
AcDbEntity
  8
001
 62
     5
370
    50
100
AcDbVertex
100
AcDb2dVertex
 10
48.066427
 20
53.886287
 30
0.0
  0
VERTEX
  5
13F
330
135
100
AcDbEntity
  8
001
 62
     5
370
    50
100
AcDbVertex
100
AcDb2dVertex
 10
48.089548
 20
53.973589
 30
0.0
  0
VERTEX
  5
140
330
135
100
AcDbEntity
  8
001
 62
     5
370
    50
100
AcDbVertex
100
AcDb2dVertex
 10
48.095734
 20
54.017101
 30
0.0
  0
VERTEX
  5
141
330
135
100
AcDbEntity
  8
001
 62
     5
370
    50
100
AcDbVertex
100
AcDb2dVertex
 10
48.097411
 20
54.06554
 30
0.0
  0
VERTEX
  5
142
330
135
100
AcDbEntity
  8
001
 62
     5
370
    50
100
AcDbVertex
100
AcDb2dVertex
 10
48.095233
 20
54.109485
 30
0.0
  0
VERTEX
  5
143
330
135
100
AcDbEntity
  8
001
 62
     5
370
    50
100
AcDbVertex
100
AcDb2dVertex
 10
48.09212
 20
54.141059
 30
0.0
  0
SEQEND
  5
136
330
135
100
AcDbEntity
  8
001
370
    50
  0
POLYLINE
  5
144
330
64
100
AcDbEntity
  8
001
 62
     5
370
    50
100
AcDb2dPolyline
 66
     1
 10
0.0
 20
0.0
 30
0.0
  0
VERTEX
  5
146
330
144
100
AcDbEntity
  8
001
 62
     5
370
    50
100
AcDbVertex
100
AcDb2dVertex
 10
47.675578
 20
53.545154
 30
0.0
  0
VERTEX
  5
147
330
144
100
AcDbEntity
  8
001
 62
     5
370
    50
100
AcDbVertex
100
AcDb2dVertex
 10
47.657365
 20
53.540696
 30
0.0
  0
VERTEX
  5
148
330
144
100
AcDbEntity
  8
001
 62
     5
370
    50
100
AcDbVertex
100
AcDb2dVertex
 10
47.632596
 20
53.5331
 30
0.0
  0
VERTEX
  5
149
330
144
100
AcDbEntity
  8
001
 62
     5
370
    50
100
AcDbVertex
100
AcDb2dVertex
 10
47.609367
 20
53.523541
 30
0.0
  0
VERTEX
  5
14A
330
144
100
AcDbEntity
  8
001
 62
     5
370
    50
100
AcDbVertex
100
AcDb2dVertex
 10
47.58936
 20
53.512473
 30
0.0
  0
VERTEX
  5
14B
330
144
100
AcDbEntity
  8
001
 62
     5
370
    50
100
AcDbVertex
100
AcDb2dVertex
 10
47.533909
 20
53.468007
 30
0.0
  0
VERTEX
  5
14C
330
144
100
AcDbEntity
  8
001
 62
     5
370
    50
100
AcDbVertex
100
AcDb2dVertex
 10
47.489188
 20
53.409986
 30
0.0
  0
VERTEX
  5
14D
330
144
100
AcDbEntity
  8
001
 62
     5
370
    50
100
AcDbVertex
100
AcDb2dVertex
 10
47.468778
 20
53.365597
 30
0.0
  0
VERTEX
  5
14E
330
144
100
AcDbEntity
  8
001
 62
     5
370
    50
100
AcDbVertex
100
AcDb2dVertex
 10
47.45668
 20
53.318607
 30
0.0
  0
VERTEX
  5
14F
330
144
100
AcDbEntity
  8
001
 62
     5
370
    50
100
AcDbVertex
100
AcDb2dVertex
 10
47.453597
 20
53.294374
 30
0.0
  0
VERTEX
  5
150
330
144
100
AcDbEntity
  8
001
 62
     5
370
    50
100
AcDbVertex
100
AcDb2dVertex
 10
47.452522
 20
53.269986
 30
0.0
  0
VERTEX
  5
151
330
144
100
AcDbEntity
  8
001
 62
     5
370
    50
100
AcDbVertex
100
AcDb2dVertex
 10
47.453502
 20
53.245616
 30
0.0
  0
VERTEX
  5
152
330
144
100
AcDbEntity
  8
001
 62
     5
370
    50
100
AcDbVertex
100
AcDb2dVertex
 10
47.45668
 20
53.221364
 30
0.0
  0
VERTEX
  5
153
330
144
100
AcDbEntity
  8
001
 62
     5
370
    50
100
AcDbVertex
100
AcDb2dVertex
 10
47.469527
 20
53.174117
 30
0.0
  0
VERTEX
  5
154
330
144
100
AcDbEntity
  8
001
 62
     5
370
    50
100
AcDbVertex
100
AcDb2dVertex
 10
47.489188
 20
53.129986
 30
0.0
  0
VERTEX
  5
155
330
144
100
AcDbEntity
  8
001
 62
     5
370
    50
100
AcDbVertex
100
AcDb2dVertex
 10
47.528695
 20
53.073828
 30
0.0
  0
VERTEX
  5
156
330
144
100
AcDbEntity
  8
001
 62
     5
370
    50
100
AcDbVertex
100
AcDb2dVertex
 10
47.58936
 20
53.027499
 30
0.0
  0
VERTEX
  5
157
330
144
100
AcDbEntity
  8
001
 62
     5
370
    50
100
AcDbVertex
100
AcDb2dVertex
 10
47.609841
 20
53.016798
 30
0.0
  0
VERTEX
  5
158
330
144
100
AcDbEntity
  8
001
 62
     5
370
    50
100
AcDbVertex
100
AcDb2dVertex
 10
47.624561
 20
53.010011
 30
0.0
  0
SEQEND
  5
145
330
144
100
AcDbEntity
  8
001
370
    50
  0
POLYLINE
  5
159
330
64
100
AcDbEntity
  8
001
 62
     5
370
    50
100
AcDb2dPolyline
 66
     1
 10
0.0
 20
0.0
 30
0.0
  0
VERTEX
  5
15B
330
159
100
AcDbEntity
  8
001
 62
     5
370
    50
100
AcDbVertex
100
AcDb2dVertex
 10
47.920705
 20
52.342988
 30
0.0
  0
VERTEX
  5
15C
330
159
100
AcDbEntity
  8
001
 62
     5
370
    50
100
AcDbVertex
100
AcDb2dVertex
 10
47.930814
 20
52.377754
 30
0.0
  0
VERTEX
  5
15D
330
159
100
AcDbEntity
  8
001
 62
     5
370
    50
100
AcDbVertex
100
AcDb2dVertex
 10
47.942051
 20
52.426408
 30
0.0
  0
VERTEX
  5
15E
330
159
100
AcDbEntity
  8
001
 62
     5
370
    50
100
AcDbVertex
100
AcDb2dVertex
 10
47.948578
 20
52.474158
 30
0.0
  0
VERTEX
  5
15F
330
159
100
AcDbEntity
  8
001
 62
     5
370
    50
100
AcDbVertex
100
AcDb2dVertex
 10
47.949914
 20
52.518359
 30
0.0
  0
VERTEX
  5
160
330
159
100
AcDbEntity
  8
001
 62
     5
370
    50
100
AcDbVertex
100
AcDb2dVertex
 10
47.947856
 20
52.563888
 30
0.0
  0
VERTEX
  5
161
330
159
100
AcDbEntity
  8
001
 62
     5
370
    50
100
AcDbVertex
100
AcDb2dVertex
 10
47.942051
 20
52.61031
 30
0.0
  0
VERTEX
  5
162
330
159
100
AcDbEntity
  8
001
 62
     5
370
    50
100
AcDbVertex
100
AcDb2dVertex
 10
47.91789
 20
52.700037
 30
0.0
  0
VERTEX
  5
163
330
159
100
AcDbEntity
  8
001
 62
     5
370
    50
100
AcDbVertex
100
AcDb2dVertex
 10
47.880573
 20
52.78312
 30
0.0
  0
VERTEX
  5
164
330
159
100
AcDbEntity
  8
001
 62
     5
370
    50
100
AcDbVertex
100
AcDb2dVertex
 10
47.805807
 20
52.88918
 30
0.0
  0
VERTEX
  5
165
330
159
100
AcDbEntity
  8
001
 62
     5
370
    50
100
AcDbVertex
100
AcDb2dVertex
 10
47.691131
 20
52.976939
 30
0.0
  0
VERTEX
  5
166
330
159
100
AcDbEntity
  8
001
 62
     5
370
    50
100
AcDbVertex
100
AcDb2dVertex
 10
47.6524
 20
52.997179
 30
0.0
  0
VERTEX
  5
167
330
159
100
AcDbEntity
  8
001
 62
     5
370
    50
100
AcDbVertex
100
AcDb2dVertex
 10
47.624561
 20
53.010011
 30
0.0
  0
SEQEND
  5
15A
330
159
100
AcDbEntity
  8
001
370
    50
  0
POLYLINE
  5
168
330
64
100
AcDbEntity
  8
001
 62
     5
370
    50
100
AcDb2dPolyline
 66
     1
 10
0.0
 20
0.0
 30
0.0
  0
VERTEX
  5
16A
330
168
100
AcDbEntity
  8
001
 62
     5
370
    50
100
AcDbVertex
100
AcDb2dVertex
 10
48.921393
 20
51.111262
 30
0.0
  0
VERTEX
  5
16B
330
168
100
AcDbEntity
  8
001
 62
     5
370
    50
100
AcDbVertex
100
AcDb2dVertex
 10
49.06828
 20
51.119063
 30
0.0
  0
VERTEX
  5
16C
330
168
100
AcDbEntity
  8
001
 62
     5
370
    50
100
AcDbVertex
100
AcDb2dVertex
 10
49.269334
 20
51.142406
 30
0.0
  0
VERTEX
  5
16D
330
168
100
AcDbEntity
  8
001
 62
     5
370
    50
100
AcDbVertex
100
AcDb2dVertex
 10
49.447618
 20
51.181186
 30
0.0
  0
VERTEX
  5
16E
330
168
100
AcDbEntity
  8
001
 62
     5
370
    50
100
AcDbVertex
100
AcDb2dVertex
 10
49.606702
 20
51.234892
 30
0.0
  0
VERTEX
  5
16F
330
168
100
AcDbEntity
  8
001
 62
     5
370
    50
100
AcDbVertex
100
AcDb2dVertex
 10
49.765979
 20
51.303231
 30
0.0
  0
VERTEX
  5
170
330
168
100
AcDbEntity
  8
001
 62
     5
370
    50
100
AcDbVertex
100
AcDb2dVertex
 10
49.923248
 20
51.38591
 30
0.0
  0
VERTEX
  5
171
330
168
100
AcDbEntity
  8
001
 62
     5
370
    50
100
AcDbVertex
100
AcDb2dVertex
 10
50.340151
 20
51.713112
 30
0.0
  0
VERTEX
  5
172
330
168
100
AcDbEntity
  8
001
 62
     5
370
    50
100
AcDbVertex
100
AcDb2dVertex
 10
50.656656
 20
52.136262
 30
0.0
  0
VERTEX
  5
173
330
168
100
AcDbEntity
  8
001
 62
     5
370
    50
100
AcDbVertex
100
AcDb2dVertex
 10
50.80447
 20
52.461052
 30
0.0
  0
VERTEX
  5
174
330
168
100
AcDbEntity
  8
001
 62
     5
370
    50
100
AcDbVertex
100
AcDb2dVertex
 10
50.894662
 20
52.805283
 30
0.0
  0
VERTEX
  5
175
330
168
100
AcDbEntity
  8
001
 62
     5
370
    50
100
AcDbVertex
100
AcDb2dVertex
 10
50.917495
 20
52.982678
 30
0.0
  0
VERTEX
  5
176
330
168
100
AcDbEntity
  8
001
 62
     5
370
    50
100
AcDbVertex
100
AcDb2dVertex
 10
50.925103
 20
53.161262
 30
0.0
  0
VERTEX
  5
177
330
168
100
AcDbEntity
  8
001
 62
     5
370
    50
100
AcDbVertex
100
AcDb2dVertex
 10
50.917495
 20
53.339846
 30
0.0
  0
VERTEX
  5
178
330
168
100
AcDbEntity
  8
001
 62
     5
370
    50
100
AcDbVertex
100
AcDb2dVertex
 10
50.894662
 20
53.517241
 30
0.0
  0
VERTEX
  5
179
330
168
100
AcDbEntity
  8
001
 62
     5
370
    50
100
AcDbVertex
100
AcDb2dVertex
 10
50.80447
 20
53.861472
 30
0.0
  0
VERTEX
  5
17A
330
168
100
AcDbEntity
  8
001
 62
     5
370
    50
100
AcDbVertex
100
AcDb2dVertex
 10
50.656656
 20
54.186262
 30
0.0
  0
VERTEX
  5
17B
330
168
100
AcDbEntity
  8
001
 62
     5
370
    50
100
AcDbVertex
100
AcDb2dVertex
 10
50.340151
 20
54.609412
 30
0.0
  0
VERTEX
  5
17C
330
168
100
AcDbEntity
  8
001
 62
     5
370
    50
100
AcDbVertex
100
AcDb2dVertex
 10
49.923248
 20
54.936614
 30
0.0
  0
VERTEX
  5
17D
330
168
100
AcDbEntity
  8
001
 62
     5
370
    50
100
AcDbVertex
100
AcDb2dVertex
 10
49.765979
 20
55.019293
 30
0.0
  0
VERTEX
  5
17E
330
168
100
AcDbEntity
  8
001
 62
     5
370
    50
100
AcDbVertex
100
AcDb2dVertex
 10
49.606702
 20
55.087632
 30
0.0
  0
VERTEX
  5
17F
330
168
100
AcDbEntity
  8
001
 62
     5
370
    50
100
AcDbVertex
100
AcDb2dVertex
 10
49.447618
 20
55.141338
 30
0.0
  0
VERTEX
  5
180
330
168
100
AcDbEntity
  8
001
 62
     5
370
    50
100
AcDbVertex
100
AcDb2dVertex
 10
49.269334
 20
55.180118
 30
0.0
  0
VERTEX
  5
181
330
168
100
AcDbEntity
  8
001
 62
     5
370
    50
100
AcDbVertex
100
AcDb2dVertex
 10
49.06828
 20
55.203461
 30
0.0
  0
VERTEX
  5
182
330
168
100
AcDbEntity
  8
001
 62
     5
370
    50
100
AcDbVertex
100
AcDb2dVertex
 10
48.921393
 20
55.211262
 30
0.0
  0
SEQEND
  5
169
330
168
100
AcDbEntity
  8
001
370
    50
  0
POLYLINE
  5
183
330
64
100
AcDbEntity
  8
001
 62
     5
370
    50
100
AcDb2dPolyline
 66
     1
 10
0.0
 20
0.0
 30
0.0
  0
VERTEX
  5
185
330
183
100
AcDbEntity
  8
001
 62
     5
370
    50
100
AcDbVertex
100
AcDb2dVertex
 10
49.577247
 20
55.074638
 30
0.0
  0
VERTEX
  5
186
330
183
100
AcDbEntity
  8
001
 62
     5
370
    50
100
AcDbVertex
100
AcDb2dVertex
 10
49.563364
 20
55.08
 30
0.0
  0
VERTEX
  5
187
330
183
100
AcDbEntity
  8
001
 62
     5
370
    50
100
AcDbVertex
100
AcDb2dVertex
 10
49.543309
 20
55.087632
 30
0.0
  0
VERTEX
  5
188
330
183
100
AcDbEntity
  8
001
 62
     5
370
    50
100
AcDbVertex
100
AcDb2dVertex
 10
49.370898
 20
55.145943
 30
0.0
  0
VERTEX
  5
189
330
183
100
AcDbEntity
  8
001
 62
     5
370
    50
100
AcDbVertex
100
AcDb2dVertex
 10
49.205941
 20
55.180118
 30
0.0
  0
VERTEX
  5
18A
330
183
100
AcDbEntity
  8
001
 62
     5
370
    50
100
AcDbVertex
100
AcDb2dVertex
 10
49.007547
 20
55.202542
 30
0.0
  0
VERTEX
  5
18B
330
183
100
AcDbEntity
  8
001
 62
     5
370
    50
100
AcDbVertex
100
AcDb2dVertex
 10
48.858
 20
55.211262
 30
0.0
  0
SEQEND
  5
184
330
183
100
AcDbEntity
  8
001
370
    50
  0
POLYLINE
  5
18C
330
64
100
AcDbEntity
  8
001
 62
     5
370
    50
100
AcDb2dPolyline
 66
     1
 10
0.0
 20
0.0
 30
0.0
  0
VERTEX
  5
18E
330
18C
100
AcDbEntity
  8
001
 62
     5
370
    50
100
AcDbVertex
100
AcDb2dVertex
 10
48.158041
 20
51.240414
 30
0.0
  0
VERTEX
  5
18F
330
18C
100
AcDbEntity
  8
001
 62
     5
370
    50
100
AcDbVertex
100
AcDb2dVertex
 10
48.164012
 20
51.238155
 30
0.0
  0
VERTEX
  5
190
330
18C
100
AcDbEntity
  8
001
 62
     5
370
    50
100
AcDbVertex
100
AcDb2dVertex
 10
48.172691
 20
51.234892
 30
0.0
  0
VERTEX
  5
191
330
18C
100
AcDbEntity
  8
001
 62
     5
370
    50
100
AcDbVertex
100
AcDb2dVertex
 10
48.345907
 20
51.176482
 30
0.0
  0
VERTEX
  5
192
330
18C
100
AcDbEntity
  8
001
 62
     5
370
    50
100
AcDbVertex
100
AcDb2dVertex
 10
48.51006
 20
51.142406
 30
0.0
  0
VERTEX
  5
193
330
18C
100
AcDbEntity
  8
001
 62
     5
370
    50
100
AcDbVertex
100
AcDb2dVertex
 10
48.708293
 20
51.120002
 30
0.0
  0
VERTEX
  5
194
330
18C
100
AcDbEntity
  8
001
 62
     5
370
    50
100
AcDbVertex
100
AcDb2dVertex
 10
48.858
 20
51.111262
 30
0.0
  0
SEQEND
  5
18D
330
18C
100
AcDbEntity
  8
001
370
    50
  0
LINE
  5
195
330
64
100
AcDbEntity
  8
001
 62
     5
370
    50
100
AcDbLine
 10
48.858
 20
51.111262
 30
0.0
 11
48.921393
 21
51.111262
 31
0.0
  0
LINE
  5
196
330
64
100
AcDbEntity
  8
001
 62
     5
370
    50
100
AcDbLine
 10
48.921393
 20
55.211262
 30
0.0
 11
48.858
 21
55.211262
 31
0.0
  0
POLYLINE
  5
197
330
64
100
AcDbEntity
  8
001
 62
     5
370
    50
100
AcDb2dPolyline
 66
     1
 10
0.0
 20
0.0
 30
0.0
  0
VERTEX
  5
199
330
197
100
AcDbEntity
  8
001
 62
     5
370
    50
100
AcDbVertex
100
AcDb2dVertex
 10
49.710772
 20
53.979536
 30
0.0
  0
VERTEX
  5
19A
330
197
100
AcDbEntity
  8
001
 62
     5
370
    50
100
AcDbVertex
100
AcDb2dVertex
 10
49.716115
 20
53.99792
 30
0.0
  0
VERTEX
  5
19B
330
197
100
AcDbEntity
  8
001
 62
     5
370
    50
100
AcDbVertex
100
AcDb2dVertex
 10
49.722059
 20
54.023646
 30
0.0
  0
VERTEX
  5
19C
330
197
100
AcDbEntity
  8
001
 62
     5
370
    50
100
AcDbVertex
100
AcDb2dVertex
 10
49.725524
 20
54.048889
 30
0.0
  0
VERTEX
  5
19D
330
197
100
AcDbEntity
  8
001
 62
     5
370
    50
100
AcDbVertex
100
AcDb2dVertex
 10
49.726217
 20
54.072268
 30
0.0
  0
VERTEX
  5
19E
330
197
100
AcDbEntity
  8
001
 62
     5
370
    50
100
AcDbVertex
100
AcDb2dVertex
 10
49.725077
 20
54.096365
 30
0.0
  0
VERTEX
  5
19F
330
197
100
AcDbEntity
  8
001
 62
     5
370
    50
100
AcDbVertex
100
AcDb2dVertex
 10
49.722059
 20
54.120889
 30
0.0
  0
VERTEX
  5
1A0
330
197
100
AcDbEntity
  8
001
 62
     5
370
    50
100
AcDbVertex
100
AcDb2dVertex
 10
49.709808
 20
54.168105
 30
0.0
  0
VERTEX
  5
1A1
330
197
100
AcDbEntity
  8
001
 62
     5
370
    50
100
AcDbVertex
100
AcDb2dVertex
 10
49.689551
 20
54.212268
 30
0.0
  0
VERTEX
  5
1A2
330
197
100
AcDbEntity
  8
001
 62
     5
370
    50
100
AcDbVertex
100
AcDb2dVertex
 10
49.646294
 20
54.269985
 30
0.0
  0
VERTEX
  5
1A3
330
197
100
AcDbEntity
  8
001
 62
     5
370
    50
100
AcDbVertex
100
AcDb2dVertex
 10
49.589378
 20
54.314755
 30
0.0
  0
VERTEX
  5
1A4
330
197
100
AcDbEntity
  8
001
 62
     5
370
    50
100
AcDbVertex
100
AcDb2dVertex
 10
49.567899
 20
54.326051
 30
0.0
  0
VERTEX
  5
1A5
330
197
100
AcDbEntity
  8
001
 62
     5
370
    50
100
AcDbVertex
100
AcDb2dVertex
 10
49.546143
 20
54.335382
 30
0.0
  0
VERTEX
  5
1A6
330
197
100
AcDbEntity
  8
001
 62
     5
370
    50
100
AcDbVertex
100
AcDb2dVertex
 10
49.524414
 20
54.342716
 30
0.0
  0
VERTEX
  5
1A7
330
197
100
AcDbEntity
  8
001
 62
     5
370
    50
100
AcDbVertex
100
AcDb2dVertex
 10
49.500063
 20
54.348014
 30
0.0
  0
VERTEX
  5
1A8
330
197
100
AcDbEntity
  8
001
 62
     5
370
    50
100
AcDbVertex
100
AcDb2dVertex
 10
49.472602
 20
54.351202
 30
0.0
  0
VERTEX
  5
1A9
330
197
100
AcDbEntity
  8
001
 62
     5
370
    50
100
AcDbVertex
100
AcDb2dVertex
 10
49.45254
 20
54.352268
 30
0.0
  0
SEQEND
  5
198
330
197
100
AcDbEntity
  8
001
370
    50
  0
POLYLINE
  5
1AA
330
64
100
AcDbEntity
  8
001
 62
     5
370
    50
100
AcDb2dPolyline
 66
     1
 10
0.0
 20
0.0
 30
0.0
  0
VERTEX
  5
1AC
330
1AA
100
AcDbEntity
  8
001
 62
     5
370
    50
100
AcDbVertex
100
AcDb2dVertex
 10
49.578567
 20
54.320813
 30
0.0
  0
VERTEX
  5
1AD
330
1AA
100
AcDbEntity
  8
001
 62
     5
370
    50
100
AcDbVertex
100
AcDb2dVertex
 10
49.574143
 20
54.318405
 30
0.0
  0
VERTEX
  5
1AE
330
1AA
100
AcDbEntity
  8
001
 62
     5
370
    50
100
AcDbVertex
100
AcDb2dVertex
 10
49.567755
 20
54.314755
 30
0.0
  0
VERTEX
  5
1AF
330
1AA
100
AcDbEntity
  8
001
 62
     5
370
    50
100
AcDbVertex
100
AcDb2dVertex
 10
49.548171
 20
54.301946
 30
0.0
  0
VERTEX
  5
1B0
330
1AA
100
AcDbEntity
  8
001
 62
     5
370
    50
100
AcDbVertex
100
AcDb2dVertex
 10
49.535352
 20
54.29231
 30
0.0
  0
SEQEND
  5
1AB
330
1AA
100
AcDbEntity
  8
001
370
    50
  0
POLYLINE
  5
1B1
330
64
100
AcDbEntity
  8
001
 62
     5
370
    50
100
AcDb2dPolyline
 66
     1
 10
0.0
 20
0.0
 30
0.0
  0
VERTEX
  5
1B3
330
1B1
100
AcDbEntity
  8
001
 62
     5
370
    50
100
AcDbVertex
100
AcDb2dVertex
 10
49.060866
 20
51.959096
 30
0.0
  0
VERTEX
  5
1B4
330
1B1
100
AcDbEntity
  8
001
 62
     5
370
    50
100
AcDbVertex
100
AcDb2dVertex
 10
49.089127
 20
51.931385
 30
0.0
  0
VERTEX
  5
1B5
330
1B1
100
AcDbEntity
  8
001
 62
     5
370
    50
100
AcDbVertex
100
AcDb2dVertex
 10
49.131638
 20
51.899046
 30
0.0
  0
VERTEX
  5
1B6
330
1B1
100
AcDbEntity
  8
001
 62
     5
370
    50
100
AcDbVertex
100
AcDb2dVertex
 10
49.153557
 20
51.88722
 30
0.0
  0
VERTEX
  5
1B7
330
1B1
100
AcDbEntity
  8
001
 62
     5
370
    50
100
AcDbVertex
100
AcDb2dVertex
 10
49.174874
 20
51.878419
 30
0.0
  0
VERTEX
  5
1B8
330
1B1
100
AcDbEntity
  8
001
 62
     5
370
    50
100
AcDbVertex
100
AcDb2dVertex
 10
49.196487
 20
51.871223
 30
0.0
  0
VERTEX
  5
1B9
330
1B1
100
AcDbEntity
  8
001
 62
     5
370
    50
100
AcDbVertex
100
AcDb2dVertex
 10
49.220953
 20
51.865786
 30
0.0
  0
VERTEX
  5
1BA
330
1B1
100
AcDbEntity
  8
001
 62
     5
370
    50
100
AcDbVertex
100
AcDb2dVertex
 10
49.248437
 20
51.86257
 30
0.0
  0
VERTEX
  5
1BB
330
1B1
100
AcDbEntity
  8
001
 62
     5
370
    50
100
AcDbVertex
100
AcDb2dVertex
 10
49.268477
 20
51.861533
 30
0.0
  0
SEQEND
  5
1B2
330
1B1
100
AcDbEntity
  8
001
370
    50
  0
POLYLINE
  5
1BC
330
64
100
AcDbEntity
  8
001
 62
     5
370
    50
100
AcDb2dPolyline
 66
     1
 10
0.0
 20
0.0
 30
0.0
  0
VERTEX
  5
1BE
330
1BC
100
AcDbEntity
  8
001
 62
     5
370
    50
100
AcDbVertex
100
AcDb2dVertex
 10
49.312919
 20
51.959096
 30
0.0
  0
VERTEX
  5
1BF
330
1BC
100
AcDbEntity
  8
001
 62
     5
370
    50
100
AcDbVertex
100
AcDb2dVertex
 10
49.339559
 20
51.931998
 30
0.0
  0
VERTEX
  5
1C0
330
1BC
100
AcDbEntity
  8
001
 62
     5
370
    50
100
AcDbVertex
100
AcDb2dVertex
 10
49.383692
 20
51.899046
 30
0.0
  0
VERTEX
  5
1C1
330
1BC
100
AcDbEntity
  8
001
 62
     5
370
    50
100
AcDbVertex
100
AcDb2dVertex
 10
49.39008
 20
51.895395
 30
0.0
  0
VERTEX
  5
1C2
330
1BC
100
AcDbEntity
  8
001
 62
     5
370
    50
100
AcDbVertex
100
AcDb2dVertex
 10
49.394504
 20
51.892987
 30
0.0
  0
SEQEND
  5
1BD
330
1BC
100
AcDbEntity
  8
001
370
    50
  0
POLYLINE
  5
1C3
330
64
100
AcDbEntity
  8
001
 62
     5
370
    50
100
AcDb2dPolyline
 66
     1
 10
0.0
 20
0.0
 30
0.0
  0
VERTEX
  5
1C5
330
1C3
100
AcDbEntity
  8
001
 62
     5
370
    50
100
AcDbVertex
100
AcDb2dVertex
 10
48.963236
 20
54.17892
 30
0.0
  0
VERTEX
  5
1C6
330
1C3
100
AcDbEntity
  8
001
 62
     5
370
    50
100
AcDbVertex
100
AcDb2dVertex
 10
49.001098
 20
54.180869
 30
0.0
  0
VERTEX
  5
1C7
330
1C3
100
AcDbEntity
  8
001
 62
     5
370
    50
100
AcDbVertex
100
AcDb2dVertex
 10
49.05311
 20
54.186965
 30
0.0
  0
VERTEX
  5
1C8
330
1C3
100
AcDbEntity
  8
001
 62
     5
370
    50
100
AcDbVertex
100
AcDb2dVertex
 10
49.09956
 20
54.197315
 30
0.0
  0
VERTEX
  5
1C9
330
1C3
100
AcDbEntity
  8
001
 62
     5
370
    50
100
AcDbVertex
100
AcDb2dVertex
 10
49.140254
 20
54.210854
 30
0.0
  0
VERTEX
  5
1CA
330
1C3
100
AcDbEntity
  8
001
 62
     5
370
    50
100
AcDbVertex
100
AcDb2dVertex
 10
49.179875
 20
54.227236
 30
0.0
  0
VERTEX
  5
1CB
330
1C3
100
AcDbEntity
  8
001
 62
     5
370
    50
100
AcDbVertex
100
AcDb2dVertex
 10
49.222019
 20
54.249863
 30
0.0
  0
VERTEX
  5
1CC
330
1C3
100
AcDbEntity
  8
001
 62
     5
370
    50
100
AcDbVertex
100
AcDb2dVertex
 10
49.258197
 20
54.273762
 30
0.0
  0
VERTEX
  5
1CD
330
1C3
100
AcDbEntity
  8
001
 62
     5
370
    50
100
AcDbVertex
100
AcDb2dVertex
 10
49.283298
 20
54.29231
 30
0.0
  0
SEQEND
  5
1C4
330
1C3
100
AcDbEntity
  8
001
370
    50
  0
LINE
  5
1CE
330
64
100
AcDbEntity
  8
001
 62
     5
370
    50
100
AcDbLine
 10
48.963236
 20
54.17892
 30
0.0
 11
49.21529
 21
54.17892
 31
0.0
  0
POLYLINE
  5
1CF
330
64
100
AcDbEntity
  8
001
 62
     5
370
    50
100
AcDb2dPolyline
 66
     1
 10
0.0
 20
0.0
 30
0.0
  0
VERTEX
  5
1D1
330
1CF
100
AcDbEntity
  8
001
 62
     5
370
    50
100
AcDbVertex
100
AcDb2dVertex
 10
49.21529
 20
54.17892
 30
0.0
  0
VERTEX
  5
1D2
330
1CF
100
AcDbEntity
  8
001
 62
     5
370
    50
100
AcDbVertex
100
AcDb2dVertex
 10
49.253152
 20
54.180869
 30
0.0
  0
VERTEX
  5
1D3
330
1CF
100
AcDbEntity
  8
001
 62
     5
370
    50
100
AcDbVertex
100
AcDb2dVertex
 10
49.305164
 20
54.186965
 30
0.0
  0
VERTEX
  5
1D4
330
1CF
100
AcDbEntity
  8
001
 62
     5
370
    50
100
AcDbVertex
100
AcDb2dVertex
 10
49.351614
 20
54.197315
 30
0.0
  0
VERTEX
  5
1D5
330
1CF
100
AcDbEntity
  8
001
 62
     5
370
    50
100
AcDbVertex
100
AcDb2dVertex
 10
49.392308
 20
54.210854
 30
0.0
  0
VERTEX
  5
1D6
330
1CF
100
AcDbEntity
  8
001
 62
     5
370
    50
100
AcDbVertex
100
AcDb2dVertex
 10
49.431929
 20
54.227236
 30
0.0
  0
VERTEX
  5
1D7
330
1CF
100
AcDbEntity
  8
001
 62
     5
370
    50
100
AcDbVertex
100
AcDb2dVertex
 10
49.474073
 20
54.249863
 30
0.0
  0
VERTEX
  5
1D8
330
1CF
100
AcDbEntity
  8
001
 62
     5
370
    50
100
AcDbVertex
100
AcDb2dVertex
 10
49.510251
 20
54.273762
 30
0.0
  0
VERTEX
  5
1D9
330
1CF
100
AcDbEntity
  8
001
 62
     5
370
    50
100
AcDbVertex
100
AcDb2dVertex
 10
49.535352
 20
54.29231
 30
0.0
  0
SEQEND
  5
1D0
330
1CF
100
AcDbEntity
  8
001
370
    50
  0
POLYLINE
  5
1DA
330
64
100
AcDbEntity
  8
001
 62
     5
370
    50
100
AcDb2dPolyline
 66
     1
 10
0.0
 20
0.0
 30
0.0
  0
VERTEX
  5
1DC
330
1DA
100
AcDbEntity
  8
001
 62
     5
370
    50
100
AcDbVertex
100
AcDb2dVertex
 10
48.668241
 20
52.143604
 30
0.0
  0
VERTEX
  5
1DD
330
1DA
100
AcDbEntity
  8
001
 62
     5
370
    50
100
AcDbVertex
100
AcDb2dVertex
 10
48.630379
 20
52.141655
 30
0.0
  0
VERTEX
  5
1DE
330
1DA
100
AcDbEntity
  8
001
 62
     5
370
    50
100
AcDbVertex
100
AcDb2dVertex
 10
48.578367
 20
52.135559
 30
0.0
  0
VERTEX
  5
1DF
330
1DA
100
AcDbEntity
  8
001
 62
     5
370
    50
100
AcDbVertex
100
AcDb2dVertex
 10
48.531917
 20
52.125209
 30
0.0
  0
VERTEX
  5
1E0
330
1DA
100
AcDbEntity
  8
001
 62
     5
370
    50
100
AcDbVertex
100
AcDb2dVertex
 10
48.491223
 20
52.11167
 30
0.0
  0
VERTEX
  5
1E1
330
1DA
100
AcDbEntity
  8
001
 62
     5
370
    50
100
AcDbVertex
100
AcDb2dVertex
 10
48.451602
 20
52.095288
 30
0.0
  0
VERTEX
  5
1E2
330
1DA
100
AcDbEntity
  8
001
 62
     5
370
    50
100
AcDbVertex
100
AcDb2dVertex
 10
48.409458
 20
52.072661
 30
0.0
  0
VERTEX
  5
1E3
330
1DA
100
AcDbEntity
  8
001
 62
     5
370
    50
100
AcDbVertex
100
AcDb2dVertex
 10
48.37328
 20
52.048762
 30
0.0
  0
VERTEX
  5
1E4
330
1DA
100
AcDbEntity
  8
001
 62
     5
370
    50
100
AcDbVertex
100
AcDb2dVertex
 10
48.348179
 20
52.030214
 30
0.0
  0
SEQEND
  5
1DB
330
1DA
100
AcDbEntity
  8
001
370
    50
  0
POLYLINE
  5
1E5
330
64
100
AcDbEntity
  8
001
 62
     5
370
    50
100
AcDb2dPolyline
 66
     1
 10
0.0
 20
0.0
 30
0.0
  0
VERTEX
  5
1E7
330
1E5
100
AcDbEntity
  8
001
 62
     5
370
    50
100
AcDbVertex
100
AcDb2dVertex
 10
49.312919
 20
51.959096
 30
0.0
  0
VERTEX
  5
1E8
330
1E5
100
AcDbEntity
  8
001
 62
     5
370
    50
100
AcDbVertex
100
AcDb2dVertex
 10
49.259474
 20
52.011503
 30
0.0
  0
VERTEX
  5
1E9
330
1E5
100
AcDbEntity
  8
001
 62
     5
370
    50
100
AcDbVertex
100
AcDb2dVertex
 10
49.179078
 20
52.072661
 30
0.0
  0
VERTEX
  5
1EA
330
1E5
100
AcDbEntity
  8
001
 62
     5
370
    50
100
AcDbVertex
100
AcDb2dVertex
 10
49.137625
 20
52.095024
 30
0.0
  0
VERTEX
  5
1EB
330
1E5
100
AcDbEntity
  8
001
 62
     5
370
    50
100
AcDbVertex
100
AcDb2dVertex
 10
49.097313
 20
52.11167
 30
0.0
  0
VERTEX
  5
1EC
330
1E5
100
AcDbEntity
  8
001
 62
     5
370
    50
100
AcDbVertex
100
AcDb2dVertex
 10
49.056438
 20
52.125278
 30
0.0
  0
VERTEX
  5
1ED
330
1E5
100
AcDbEntity
  8
001
 62
     5
370
    50
100
AcDbVertex
100
AcDb2dVertex
 10
49.010169
 20
52.135559
 30
0.0
  0
VERTEX
  5
1EE
330
1E5
100
AcDbEntity
  8
001
 62
     5
370
    50
100
AcDbVertex
100
AcDb2dVertex
 10
48.958193
 20
52.141641
 30
0.0
  0
VERTEX
  5
1EF
330
1E5
100
AcDbEntity
  8
001
 62
     5
370
    50
100
AcDbVertex
100
AcDb2dVertex
 10
48.920295
 20
52.143604
 30
0.0
  0
SEQEND
  5
1E6
330
1E5
100
AcDbEntity
  8
001
370
    50
  0
LINE
  5
1F0
330
64
100
AcDbEntity
  8
001
 62
     5
370
    50
100
AcDbLine
 10
48.920295
 20
52.143604
 30
0.0
 11
48.668241
 21
52.143604
 31
0.0
  0
POLYLINE
  5
1F1
330
64
100
AcDbEntity
  8
001
 62
     5
370
    50
100
AcDb2dPolyline
 66
     1
 10
0.0
 20
0.0
 30
0.0
  0
VERTEX
  5
1F3
330
1F1
100
AcDbEntity
  8
001
 62
     5
370
    50
100
AcDbVertex
100
AcDb2dVertex
 10
48.570611
 20
54.363428
 30
0.0
  0
VERTEX
  5
1F4
330
1F1
100
AcDbEntity
  8
001
 62
     5
370
    50
100
AcDbVertex
100
AcDb2dVertex
 10
48.54235
 20
54.391139
 30
0.0
  0
VERTEX
  5
1F5
330
1F1
100
AcDbEntity
  8
001
 62
     5
370
    50
100
AcDbVertex
100
AcDb2dVertex
 10
48.499839
 20
54.423478
 30
0.0
  0
VERTEX
  5
1F6
330
1F1
100
AcDbEntity
  8
001
 62
     5
370
    50
100
AcDbVertex
100
AcDb2dVertex
 10
48.47792
 20
54.435303
 30
0.0
  0
VERTEX
  5
1F7
330
1F1
100
AcDbEntity
  8
001
 62
     5
370
    50
100
AcDbVertex
100
AcDb2dVertex
 10
48.456603
 20
54.444105
 30
0.0
  0
VERTEX
  5
1F8
330
1F1
100
AcDbEntity
  8
001
 62
     5
370
    50
100
AcDbVertex
100
AcDb2dVertex
 10
48.43499
 20
54.451301
 30
0.0
  0
VERTEX
  5
1F9
330
1F1
100
AcDbEntity
  8
001
 62
     5
370
    50
100
AcDbVertex
100
AcDb2dVertex
 10
48.410524
 20
54.456737
 30
0.0
  0
VERTEX
  5
1FA
330
1F1
100
AcDbEntity
  8
001
 62
     5
370
    50
100
AcDbVertex
100
AcDb2dVertex
 10
48.38304
 20
54.459954
 30
0.0
  0
VERTEX
  5
1FB
330
1F1
100
AcDbEntity
  8
001
 62
     5
370
    50
100
AcDbVertex
100
AcDb2dVertex
 10
48.363
 20
54.460991
 30
0.0
  0
SEQEND
  5
1F2
330
1F1
100
AcDbEntity
  8
001
370
    50
  0
POLYLINE
  5
1FC
330
64
100
AcDbEntity
  8
001
 62
     5
370
    50
100
AcDb2dPolyline
 66
     1
 10
0.0
 20
0.0
 30
0.0
  0
VERTEX
  5
1FE
330
1FC
100
AcDbEntity
  8
001
 62
     5
370
    50
100
AcDbVertex
100
AcDb2dVertex
 10
48.489027
 20
54.429537
 30
0.0
  0
VERTEX
  5
1FF
330
1FC
100
AcDbEntity
  8
001
 62
     5
370
    50
100
AcDbVertex
100
AcDb2dVertex
 10
48.484589
 20
54.427102
 30
0.0
  0
VERTEX
  5
200
330
1FC
100
AcDbEntity
  8
001
 62
     5
370
    50
100
AcDbVertex
100
AcDb2dVertex
 10
48.478215
 20
54.423478
 30
0.0
  0
VERTEX
  5
201
330
1FC
100
AcDbEntity
  8
001
 62
     5
370
    50
100
AcDbVertex
100
AcDb2dVertex
 10
48.41713
 20
54.37677
 30
0.0
  0
VERTEX
  5
202
330
1FC
100
AcDbEntity
  8
001
 62
     5
370
    50
100
AcDbVertex
100
AcDb2dVertex
 10
48.378042
 20
54.320991
 30
0.0
  0
VERTEX
  5
203
330
1FC
100
AcDbEntity
  8
001
 62
     5
370
    50
100
AcDbVertex
100
AcDb2dVertex
 10
48.358545
 20
54.276137
 30
0.0
  0
VERTEX
  5
204
330
1FC
100
AcDbEntity
  8
001
 62
     5
370
    50
100
AcDbVertex
100
AcDb2dVertex
 10
48.345534
 20
54.229613
 30
0.0
  0
VERTEX
  5
205
330
1FC
100
AcDbEntity
  8
001
 62
     5
370
    50
100
AcDbVertex
100
AcDb2dVertex
 10
48.342189
 20
54.206571
 30
0.0
  0
VERTEX
  5
206
330
1FC
100
AcDbEntity
  8
001
 62
     5
370
    50
100
AcDbVertex
100
AcDb2dVertex
 10
48.341377
 20
54.180991
 30
0.0
  0
VERTEX
  5
207
330
1FC
100
AcDbEntity
  8
001
 62
     5
370
    50
100
AcDbVertex
100
AcDb2dVertex
 10
48.342539
 20
54.157759
 30
0.0
  0
VERTEX
  5
208
330
1FC
100
AcDbEntity
  8
001
 62
     5
370
    50
100
AcDbVertex
100
AcDb2dVertex
 10
48.344174
 20
54.141059
 30
0.0
  0
SEQEND
  5
1FD
330
1FC
100
AcDbEntity
  8
001
370
    50
  0
POLYLINE
  5
209
330
64
100
AcDbEntity
  8
001
 62
     5
370
    50
100
AcDb2dPolyline
 66
     1
 10
0.0
 20
0.0
 30
0.0
  0
VERTEX
  5
20B
330
209
100
AcDbEntity
  8
001
 62
     5
370
    50
100
AcDbVertex
100
AcDb2dVertex
 10
47.920705
 20
52.342988
 30
0.0
  0
VERTEX
  5
20C
330
209
100
AcDbEntity
  8
001
 62
     5
370
    50
100
AcDbVertex
100
AcDb2dVertex
 10
47.915362
 20
52.324604
 30
0.0
  0
VERTEX
  5
20D
330
209
100
AcDbEntity
  8
001
 62
     5
370
    50
100
AcDbVertex
100
AcDb2dVertex
 10
47.909418
 20
52.298878
 30
0.0
  0
VERTEX
  5
20E
330
209
100
AcDbEntity
  8
001
 62
     5
370
    50
100
AcDbVertex
100
AcDb2dVertex
 10
47.905953
 20
52.273635
 30
0.0
  0
VERTEX
  5
20F
330
209
100
AcDbEntity
  8
001
 62
     5
370
    50
100
AcDbVertex
100
AcDb2dVertex
 10
47.90526
 20
52.250256
 30
0.0
  0
VERTEX
  5
210
330
209
100
AcDbEntity
  8
001
 62
     5
370
    50
100
AcDbVertex
100
AcDb2dVertex
 10
47.9064
 20
52.226159
 30
0.0
  0
VERTEX
  5
211
330
209
100
AcDbEntity
  8
001
 62
     5
370
    50
100
AcDbVertex
100
AcDb2dVertex
 10
47.909418
 20
52.201635
 30
0.0
  0
VERTEX
  5
212
330
209
100
AcDbEntity
  8
001
 62
     5
370
    50
100
AcDbVertex
100
AcDb2dVertex
 10
47.921669
 20
52.154419
 30
0.0
  0
VERTEX
  5
213
330
209
100
AcDbEntity
  8
001
 62
     5
370
    50
100
AcDbVertex
100
AcDb2dVertex
 10
47.941926
 20
52.110256
 30
0.0
  0
VERTEX
  5
214
330
209
100
AcDbEntity
  8
001
 62
     5
370
    50
100
AcDbVertex
100
AcDb2dVertex
 10
47.985183
 20
52.052539
 30
0.0
  0
VERTEX
  5
215
330
209
100
AcDbEntity
  8
001
 62
     5
370
    50
100
AcDbVertex
100
AcDb2dVertex
 10
48.042099
 20
52.007769
 30
0.0
  0
VERTEX
  5
216
330
209
100
AcDbEntity
  8
001
 62
     5
370
    50
100
AcDbVertex
100
AcDb2dVertex
 10
48.063578
 20
51.996472
 30
0.0
  0
VERTEX
  5
217
330
209
100
AcDbEntity
  8
001
 62
     5
370
    50
100
AcDbVertex
100
AcDb2dVertex
 10
48.085334
 20
51.987142
 30
0.0
  0
VERTEX
  5
218
330
209
100
AcDbEntity
  8
001
 62
     5
370
    50
100
AcDbVertex
100
AcDb2dVertex
 10
48.107063
 20
51.979808
 30
0.0
  0
VERTEX
  5
219
330
209
100
AcDbEntity
  8
001
 62
     5
370
    50
100
AcDbVertex
100
AcDb2dVertex
 10
48.131414
 20
51.97451
 30
0.0
  0
VERTEX
  5
21A
330
209
100
AcDbEntity
  8
001
 62
     5
370
    50
100
AcDbVertex
100
AcDb2dVertex
 10
48.158875
 20
51.971322
 30
0.0
  0
VERTEX
  5
21B
330
209
100
AcDbEntity
  8
001
 62
     5
370
    50
100
AcDbVertex
100
AcDb2dVertex
 10
48.178937
 20
51.970256
 30
0.0
  0
SEQEND
  5
20A
330
209
100
AcDbEntity
  8
001
370
    50
  0
POLYLINE
  5
21C
330
64
100
AcDbEntity
  8
001
 62
     5
370
    50
100
AcDb2dPolyline
 66
     1
 10
0.0
 20
0.0
 30
0.0
  0
VERTEX
  5
21E
330
21C
100
AcDbEntity
  8
001
 62
     5
370
    50
100
AcDbVertex
100
AcDb2dVertex
 10
48.172759
 20
52.342988
 30
0.0
  0
VERTEX
  5
21F
330
21C
100
AcDbEntity
  8
001
 62
     5
370
    50
100
AcDbVertex
100
AcDb2dVertex
 10
48.167413
 20
52.324605
 30
0.0
  0
VERTEX
  5
220
330
21C
100
AcDbEntity
  8
001
 62
     5
370
    50
100
AcDbVertex
100
AcDb2dVertex
 10
48.161472
 20
52.298878
 30
0.0
  0
VERTEX
  5
221
330
21C
100
AcDbEntity
  8
001
 62
     5
370
    50
100
AcDbVertex
100
AcDb2dVertex
 10
48.158022
 20
52.273626
 30
0.0
  0
VERTEX
  5
222
330
21C
100
AcDbEntity
  8
001
 62
     5
370
    50
100
AcDbVertex
100
AcDb2dVertex
 10
48.157314
 20
52.250256
 30
0.0
  0
VERTEX
  5
223
330
21C
100
AcDbEntity
  8
001
 62
     5
370
    50
100
AcDbVertex
100
AcDb2dVertex
 10
48.158396
 20
52.226191
 30
0.0
  0
VERTEX
  5
224
330
21C
100
AcDbEntity
  8
001
 62
     5
370
    50
100
AcDbVertex
100
AcDb2dVertex
 10
48.161472
 20
52.201635
 30
0.0
  0
VERTEX
  5
225
330
21C
100
AcDbEntity
  8
001
 62
     5
370
    50
100
AcDbVertex
100
AcDb2dVertex
 10
48.174301
 20
52.154095
 30
0.0
  0
VERTEX
  5
226
330
21C
100
AcDbEntity
  8
001
 62
     5
370
    50
100
AcDbVertex
100
AcDb2dVertex
 10
48.19398
 20
52.110256
 30
0.0
  0
VERTEX
  5
227
330
21C
100
AcDbEntity
  8
001
 62
     5
370
    50
100
AcDbVertex
100
AcDb2dVertex
 10
48.233131
 20
52.054838
 30
0.0
  0
VERTEX
  5
228
330
21C
100
AcDbEntity
  8
001
 62
     5
370
    50
100
AcDbVertex
100
AcDb2dVertex
 10
48.294153
 20
52.007769
 30
0.0
  0
VERTEX
  5
229
330
21C
100
AcDbEntity
  8
001
 62
     5
370
    50
100
AcDbVertex
100
AcDb2dVertex
 10
48.300526
 20
52.004145
 30
0.0
  0
VERTEX
  5
22A
330
21C
100
AcDbEntity
  8
001
 62
     5
370
    50
100
AcDbVertex
100
AcDb2dVertex
 10
48.304964
 20
52.001711
 30
0.0
  0
SEQEND
  5
21D
330
21C
100
AcDbEntity
  8
001
370
    50
  0
POLYLINE
  5
22B
330
64
100
AcDbEntity
  8
001
 62
     5
370
    50
100
AcDb2dPolyline
 66
     1
 10
0.0
 20
0.0
 30
0.0
  0
VERTEX
  5
22D
330
22B
100
AcDbEntity
  8
001
 62
     5
370
    50
100
AcDbVertex
100
AcDb2dVertex
 10
47.927632
 20
53.545154
 30
0.0
  0
VERTEX
  5
22E
330
22B
100
AcDbEntity
  8
001
 62
     5
370
    50
100
AcDbVertex
100
AcDb2dVertex
 10
47.962077
 20
53.55358
 30
0.0
  0
VERTEX
  5
22F
330
22B
100
AcDbEntity
  8
001
 62
     5
370
    50
100
AcDbVertex
100
AcDb2dVertex
 10
48.008917
 20
53.567951
 30
0.0
  0
VERTEX
  5
230
330
22B
100
AcDbEntity
  8
001
 62
     5
370
    50
100
AcDbVertex
100
AcDb2dVertex
 10
48.052841
 20
53.586059
 30
0.0
  0
VERTEX
  5
231
330
22B
100
AcDbEntity
  8
001
 62
     5
370
    50
100
AcDbVertex
100
AcDb2dVertex
 10
48.090682
 20
53.60696
 30
0.0
  0
VERTEX
  5
232
330
22B
100
AcDbEntity
  8
001
 62
     5
370
    50
100
AcDbVertex
100
AcDb2dVertex
 10
48.195644
 20
53.690435
 30
0.0
  0
VERTEX
  5
233
330
22B
100
AcDbEntity
  8
001
 62
     5
370
    50
100
AcDbVertex
100
AcDb2dVertex
 10
48.280124
 20
53.800779
 30
0.0
  0
VERTEX
  5
234
330
22B
100
AcDbEntity
  8
001
 62
     5
370
    50
100
AcDbVertex
100
AcDb2dVertex
 10
48.31848
 20
53.886287
 30
0.0
  0
VERTEX
  5
235
330
22B
100
AcDbEntity
  8
001
 62
     5
370
    50
100
AcDbVertex
100
AcDb2dVertex
 10
48.341602
 20
53.973589
 30
0.0
  0
VERTEX
  5
236
330
22B
100
AcDbEntity
  8
001
 62
     5
370
    50
100
AcDbVertex
100
AcDb2dVertex
 10
48.347788
 20
54.017101
 30
0.0
  0
VERTEX
  5
237
330
22B
100
AcDbEntity
  8
001
 62
     5
370
    50
100
AcDbVertex
100
AcDb2dVertex
 10
48.349465
 20
54.06554
 30
0.0
  0
VERTEX
  5
238
330
22B
100
AcDbEntity
  8
001
 62
     5
370
    50
100
AcDbVertex
100
AcDb2dVertex
 10
48.347287
 20
54.109485
 30
0.0
  0
VERTEX
  5
239
330
22B
100
AcDbEntity
  8
001
 62
     5
370
    50
100
AcDbVertex
100
AcDb2dVertex
 10
48.344174
 20
54.141059
 30
0.0
  0
SEQEND
  5
22C
330
22B
100
AcDbEntity
  8
001
370
    50
  0
POLYLINE
  5
23A
330
64
100
AcDbEntity
  8
001
 62
     5
370
    50
100
AcDb2dPolyline
 66
     1
 10
0.0
 20
0.0
 30
0.0
  0
VERTEX
  5
23C
330
23A
100
AcDbEntity
  8
001
 62
     5
370
    50
100
AcDbVertex
100
AcDb2dVertex
 10
48.172759
 20
52.342988
 30
0.0
  0
VERTEX
  5
23D
330
23A
100
AcDbEntity
  8
001
 62
     5
370
    50
100
AcDbVertex
100
AcDb2dVertex
 10
48.182868
 20
52.377754
 30
0.0
  0
VERTEX
  5
23E
330
23A
100
AcDbEntity
  8
001
 62
     5
370
    50
100
AcDbVertex
100
AcDb2dVertex
 10
48.194104
 20
52.426408
 30
0.0
  0
VERTEX
  5
23F
330
23A
100
AcDbEntity
  8
001
 62
     5
370
    50
100
AcDbVertex
100
AcDb2dVertex
 10
48.200632
 20
52.474158
 30
0.0
  0
VERTEX
  5
240
330
23A
100
AcDbEntity
  8
001
 62
     5
370
    50
100
AcDbVertex
100
AcDb2dVertex
 10
48.201967
 20
52.518359
 30
0.0
  0
VERTEX
  5
241
330
23A
100
AcDbEntity
  8
001
 62
     5
370
    50
100
AcDbVertex
100
AcDb2dVertex
 10
48.19991
 20
52.563888
 30
0.0
  0
VERTEX
  5
242
330
23A
100
AcDbEntity
  8
001
 62
     5
370
    50
100
AcDbVertex
100
AcDb2dVertex
 10
48.194104
 20
52.61031
 30
0.0
  0
VERTEX
  5
243
330
23A
100
AcDbEntity
  8
001
 62
     5
370
    50
100
AcDbVertex
100
AcDb2dVertex
 10
48.169944
 20
52.700037
 30
0.0
  0
VERTEX
  5
244
330
23A
100
AcDbEntity
  8
001
 62
     5
370
    50
100
AcDbVertex
100
AcDb2dVertex
 10
48.132627
 20
52.78312
 30
0.0
  0
VERTEX
  5
245
330
23A
100
AcDbEntity
  8
001
 62
     5
370
    50
100
AcDbVertex
100
AcDb2dVertex
 10
48.057861
 20
52.88918
 30
0.0
  0
VERTEX
  5
246
330
23A
100
AcDbEntity
  8
001
 62
     5
370
    50
100
AcDbVertex
100
AcDb2dVertex
 10
47.943184
 20
52.976939
 30
0.0
  0
VERTEX
  5
247
330
23A
100
AcDbEntity
  8
001
 62
     5
370
    50
100
AcDbVertex
100
AcDb2dVertex
 10
47.904454
 20
52.997179
 30
0.0
  0
VERTEX
  5
248
330
23A
100
AcDbEntity
  8
001
 62
     5
370
    50
100
AcDbVertex
100
AcDb2dVertex
 10
47.876615
 20
53.010011
 30
0.0
  0
SEQEND
  5
23B
330
23A
100
AcDbEntity
  8
001
370
    50
  0
POLYLINE
  5
249
330
64
100
AcDbEntity
  8
001
 62
     5
370
    50
100
AcDb2dPolyline
 66
     1
 10
0.0
 20
0.0
 30
0.0
  0
VERTEX
  5
24B
330
249
100
AcDbEntity
  8
001
 62
     5
370
    50
100
AcDbVertex
100
AcDb2dVertex
 10
47.927632
 20
53.545154
 30
0.0
  0
VERTEX
  5
24C
330
249
100
AcDbEntity
  8
001
 62
     5
370
    50
100
AcDbVertex
100
AcDb2dVertex
 10
47.909418
 20
53.540696
 30
0.0
  0
VERTEX
  5
24D
330
249
100
AcDbEntity
  8
001
 62
     5
370
    50
100
AcDbVertex
100
AcDb2dVertex
 10
47.88465
 20
53.5331
 30
0.0
  0
VERTEX
  5
24E
330
249
100
AcDbEntity
  8
001
 62
     5
370
    50
100
AcDbVertex
100
AcDb2dVertex
 10
47.861421
 20
53.523541
 30
0.0
  0
VERTEX
  5
24F
330
249
100
AcDbEntity
  8
001
 62
     5
370
    50
100
AcDbVertex
100
AcDb2dVertex
 10
47.841414
 20
53.512473
 30
0.0
  0
VERTEX
  5
250
330
249
100
AcDbEntity
  8
001
 62
     5
370
    50
100
AcDbVertex
100
AcDb2dVertex
 10
47.785963
 20
53.468007
 30
0.0
  0
VERTEX
  5
251
330
249
100
AcDbEntity
  8
001
 62
     5
370
    50
100
AcDbVertex
100
AcDb2dVertex
 10
47.741241
 20
53.409986
 30
0.0
  0
VERTEX
  5
252
330
249
100
AcDbEntity
  8
001
 62
     5
370
    50
100
AcDbVertex
100
AcDb2dVertex
 10
47.720832
 20
53.365597
 30
0.0
  0
VERTEX
  5
253
330
249
100
AcDbEntity
  8
001
 62
     5
370
    50
100
AcDbVertex
100
AcDb2dVertex
 10
47.708733
 20
53.318607
 30
0.0
  0
VERTEX
  5
254
330
249
100
AcDbEntity
  8
001
 62
     5
370
    50
100
AcDbVertex
100
AcDb2dVertex
 10
47.705651
 20
53.294374
 30
0.0
  0
VERTEX
  5
255
330
249
100
AcDbEntity
  8
001
 62
     5
370
    50
100
AcDbVertex
100
AcDb2dVertex
 10
47.704576
 20
53.269986
 30
0.0
  0
VERTEX
  5
256
330
249
100
AcDbEntity
  8
001
 62
     5
370
    50
100
AcDbVertex
100
AcDb2dVertex
 10
47.705556
 20
53.245616
 30
0.0
  0
VERTEX
  5
257
330
249
100
AcDbEntity
  8
001
 62
     5
370
    50
100
AcDbVertex
100
AcDb2dVertex
 10
47.708733
 20
53.221364
 30
0.0
  0
VERTEX
  5
258
330
249
100
AcDbEntity
  8
001
 62
     5
370
    50
100
AcDbVertex
100
AcDb2dVertex
 10
47.721581
 20
53.174117
 30
0.0
  0
VERTEX
  5
259
330
249
100
AcDbEntity
  8
001
 62
     5
370
    50
100
AcDbVertex
100
AcDb2dVertex
 10
47.741241
 20
53.129986
 30
0.0
  0
VERTEX
  5
25A
330
249
100
AcDbEntity
  8
001
 62
     5
370
    50
100
AcDbVertex
100
AcDb2dVertex
 10
47.780748
 20
53.073828
 30
0.0
  0
VERTEX
  5
25B
330
249
100
AcDbEntity
  8
001
 62
     5
370
    50
100
AcDbVertex
100
AcDb2dVertex
 10
47.841414
 20
53.027499
 30
0.0
  0
VERTEX
  5
25C
330
249
100
AcDbEntity
  8
001
 62
     5
370
    50
100
AcDbVertex
100
AcDb2dVertex
 10
47.861895
 20
53.016798
 30
0.0
  0
VERTEX
  5
25D
330
249
100
AcDbEntity
  8
001
 62
     5
370
    50
100
AcDbVertex
100
AcDb2dVertex
 10
47.876615
 20
53.010011
 30
0.0
  0
SEQEND
  5
24A
330
249
100
AcDbEntity
  8
001
370
    50
  0
ENDBLK
  5
66
330
64
100
AcDbEntity
  8
0
100
AcDbBlockEnd
  0
BLOCK
  5
25F
330
25E
100
AcDbEntity
  8
0
100
AcDbBlockBegin
  2
C32GUX-2
 70
     0
 10
0.0
 20
0.0
 30
0.0
  3
C32GUX-2
  1

  0
LINE
  5
261
330
25E
100
AcDbEntity
  8
001
 62
    40
370
    50
100
AcDbLine
 10
54.933069
 20
55.769982
 30
0.0
 11
55.3722
 21
55.606096
 31
0.0
  0
LINE
  5
262
330
25E
100
AcDbEntity
  8
001
 62
    40
370
    50
100
AcDbLine
 10
55.531965
 20
55.059026
 30
0.0
 11
55.542752
 21
55.093497
 31
0.0
  0
POLYLINE
  5
263
330
25E
100
AcDbEntity
  8
001
 62
    40
370
    50
100
AcDb2dPolyline
 66
     1
 10
0.0
 20
0.0
 30
0.0
  0
VERTEX
  5
265
330
263
100
AcDbEntity
  8
001
 62
    40
370
    50
100
AcDbVertex
100
AcDb2dVertex
 10
55.531965
 20
55.059026
 30
0.0
  0
VERTEX
  5
266
330
263
100
AcDbEntity
  8
001
 62
    40
370
    50
100
AcDbVertex
100
AcDb2dVertex
 10
55.488311
 20
55.127074
 30
0.0
  0
VERTEX
  5
267
330
263
100
AcDbEntity
  8
001
 62
    40
370
    50
100
AcDbVertex
100
AcDb2dVertex
 10
55.4215
 20
55.224426
 30
0.0
  0
VERTEX
  5
268
330
263
100
AcDbEntity
  8
001
 62
    40
370
    50
100
AcDbVertex
100
AcDb2dVertex
 10
55.144133
 20
55.558873
 30
0.0
  0
VERTEX
  5
269
330
263
100
AcDbEntity
  8
001
 62
    40
370
    50
100
AcDbVertex
100
AcDb2dVertex
 10
54.933069
 20
55.769982
 30
0.0
  0
SEQEND
  5
264
330
263
100
AcDbEntity
  8
001
370
    50
  0
POLYLINE
  5
26A
330
25E
100
AcDbEntity
  8
001
 62
    40
370
    50
100
AcDb2dPolyline
 66
     1
 10
0.0
 20
0.0
 30
0.0
  0
VERTEX
  5
26C
330
26A
100
AcDbEntity
  8
001
 62
    40
370
    50
100
AcDbVertex
100
AcDb2dVertex
 10
53.221049
 20
52.965851
 30
0.0
  0
VERTEX
  5
26D
330
26A
100
AcDbEntity
  8
001
 62
    40
370
    50
100
AcDbVertex
100
AcDb2dVertex
 10
53.456112
 20
52.967085
 30
0.0
  0
VERTEX
  5
26E
330
26A
100
AcDbEntity
  8
001
 62
    40
370
    50
100
AcDbVertex
100
AcDb2dVertex
 10
53.798909
 20
52.983766
 30
0.0
  0
VERTEX
  5
26F
330
26A
100
AcDbEntity
  8
001
 62
    40
370
    50
100
AcDbVertex
100
AcDb2dVertex
 10
54.108818
 20
53.018239
 30
0.0
  0
VERTEX
  5
270
330
26A
100
AcDbEntity
  8
001
 62
    40
370
    50
100
AcDbVertex
100
AcDb2dVertex
 10
54.319712
 20
53.051689
 30
0.0
  0
SEQEND
  5
26B
330
26A
100
AcDbEntity
  8
001
370
    50
  0
LINE
  5
271
330
25E
100
AcDbEntity
  8
001
 62
    40
370
    50
100
AcDbLine
 10
51.11818
 20
53.834681
 30
0.0
 11
53.221049
 21
52.965851
 31
0.0
  0
POLYLINE
  5
272
330
25E
100
AcDbEntity
  8
001
 62
    40
370
    50
100
AcDb2dPolyline
 66
     1
 10
0.0
 20
0.0
 30
0.0
  0
VERTEX
  5
274
330
272
100
AcDbEntity
  8
001
 62
    40
370
    50
100
AcDbVertex
100
AcDb2dVertex
 10
51.11818
 20
53.834681
 30
0.0
  0
VERTEX
  5
275
330
272
100
AcDbEntity
  8
001
 62
    40
370
    50
100
AcDbVertex
100
AcDb2dVertex
 10
51.04509
 20
53.960858
 30
0.0
  0
VERTEX
  5
276
330
272
100
AcDbEntity
  8
001
 62
    40
370
    50
100
AcDbVertex
100
AcDb2dVertex
 10
50.969134
 20
54.085267
 30
0.0
  0
VERTEX
  5
277
330
272
100
AcDbEntity
  8
001
 62
    40
370
    50
100
AcDbVertex
100
AcDb2dVertex
 10
50.882942
 20
54.213459
 30
0.0
  0
VERTEX
  5
278
330
272
100
AcDbEntity
  8
001
 62
    40
370
    50
100
AcDbVertex
100
AcDb2dVertex
 10
50.790482
 20
54.337261
 30
0.0
  0
VERTEX
  5
279
330
272
100
AcDbEntity
  8
001
 62
    40
370
    50
100
AcDbVertex
100
AcDb2dVertex
 10
50.691309
 20
54.456913
 30
0.0
  0
VERTEX
  5
27A
330
272
100
AcDbEntity
  8
001
 62
    40
370
    50
100
AcDbVertex
100
AcDb2dVertex
 10
50.585996
 20
54.571176
 30
0.0
  0
VERTEX
  5
27B
330
272
100
AcDbEntity
  8
001
 62
    40
370
    50
100
AcDbVertex
100
AcDb2dVertex
 10
50.470965
 20
54.682883
 30
0.0
  0
VERTEX
  5
27C
330
272
100
AcDbEntity
  8
001
 62
    40
370
    50
100
AcDbVertex
100
AcDb2dVertex
 10
50.349668
 20
54.787781
 30
0.0
  0
VERTEX
  5
27D
330
272
100
AcDbEntity
  8
001
 62
    40
370
    50
100
AcDbVertex
100
AcDb2dVertex
 10
50.220413
 20
54.886671
 30
0.0
  0
VERTEX
  5
27E
330
272
100
AcDbEntity
  8
001
 62
    40
370
    50
100
AcDbVertex
100
AcDb2dVertex
 10
50.085148
 20
54.977113
 30
0.0
  0
VERTEX
  5
27F
330
272
100
AcDbEntity
  8
001
 62
    40
370
    50
100
AcDbVertex
100
AcDb2dVertex
 10
49.958504
 20
55.05067
 30
0.0
  0
VERTEX
  5
280
330
272
100
AcDbEntity
  8
001
 62
    40
370
    50
100
AcDbVertex
100
AcDb2dVertex
 10
49.827777
 20
55.116724
 30
0.0
  0
VERTEX
  5
281
330
272
100
AcDbEntity
  8
001
 62
    40
370
    50
100
AcDbVertex
100
AcDb2dVertex
 10
49.691713
 20
55.176073
 30
0.0
  0
VERTEX
  5
282
330
272
100
AcDbEntity
  8
001
 62
    40
370
    50
100
AcDbVertex
100
AcDb2dVertex
 10
49.552545
 20
55.227724
 30
0.0
  0
VERTEX
  5
283
330
272
100
AcDbEntity
  8
001
 62
    40
370
    50
100
AcDbVertex
100
AcDb2dVertex
 10
49.410078
 20
55.271771
 30
0.0
  0
VERTEX
  5
284
330
272
100
AcDbEntity
  8
001
 62
    40
370
    50
100
AcDbVertex
100
AcDb2dVertex
 10
49.265391
 20
55.30781
 30
0.0
  0
VERTEX
  5
285
330
272
100
AcDbEntity
  8
001
 62
    40
370
    50
100
AcDbVertex
100
AcDb2dVertex
 10
49.128007
 20
55.3343
 30
0.0
  0
VERTEX
  5
286
330
272
100
AcDbEntity
  8
001
 62
    40
370
    50
100
AcDbVertex
100
AcDb2dVertex
 10
48.989492
 20
55.354091
 30
0.0
  0
VERTEX
  5
287
330
272
100
AcDbEntity
  8
001
 62
    40
370
    50
100
AcDbVertex
100
AcDb2dVertex
 10
48.849274
 20
55.367735
 30
0.0
  0
VERTEX
  5
288
330
272
100
AcDbEntity
  8
001
 62
    40
370
    50
100
AcDbVertex
100
AcDb2dVertex
 10
48.708607
 20
55.375457
 30
0.0
  0
VERTEX
  5
289
330
272
100
AcDbEntity
  8
001
 62
    40
370
    50
100
AcDbVertex
100
AcDb2dVertex
 10
48.568088
 20
55.377612
 30
0.0
  0
VERTEX
  5
28A
330
272
100
AcDbEntity
  8
001
 62
    40
370
    50
100
AcDbVertex
100
AcDb2dVertex
 10
48.427591
 20
55.374537
 30
0.0
  0
VERTEX
  5
28B
330
272
100
AcDbEntity
  8
001
 62
    40
370
    50
100
AcDbVertex
100
AcDb2dVertex
 10
48.289671
 20
55.366783
 30
0.0
  0
VERTEX
  5
28C
330
272
100
AcDbEntity
  8
001
 62
    40
370
    50
100
AcDbVertex
100
AcDb2dVertex
 10
48.152029
 20
55.355001
 30
0.0
  0
VERTEX
  5
28D
330
272
100
AcDbEntity
  8
001
 62
    40
370
    50
100
AcDbVertex
100
AcDb2dVertex
 10
48.016053
 20
55.340026
 30
0.0
  0
VERTEX
  5
28E
330
272
100
AcDbEntity
  8
001
 62
    40
370
    50
100
AcDbVertex
100
AcDb2dVertex
 10
47.880427
 20
55.322197
 30
0.0
  0
VERTEX
  5
28F
330
272
100
AcDbEntity
  8
001
 62
    40
370
    50
100
AcDbVertex
100
AcDb2dVertex
 10
47.748151
 20
55.302507
 30
0.0
  0
VERTEX
  5
290
330
272
100
AcDbEntity
  8
001
 62
    40
370
    50
100
AcDbVertex
100
AcDb2dVertex
 10
47.61605
 20
55.281634
 30
0.0
  0
SEQEND
  5
273
330
272
100
AcDbEntity
  8
001
370
    50
  0
LINE
  5
291
330
25E
100
AcDbEntity
  8
001
 62
    40
370
    50
100
AcDbLine
 10
45.994678
 20
55.951527
 30
0.0
 11
47.61605
 21
55.281634
 31
0.0
  0
POLYLINE
  5
292
330
25E
100
AcDbEntity
  8
001
 62
    40
370
    50
100
AcDb2dPolyline
 66
     1
 10
0.0
 20
0.0
 30
0.0
  0
VERTEX
  5
294
330
292
100
AcDbEntity
  8
001
 62
    40
370
    50
100
AcDbVertex
100
AcDb2dVertex
 10
45.553959
 20
56.673381
 30
0.0
  0
VERTEX
  5
295
330
292
100
AcDbEntity
  8
001
 62
    40
370
    50
100
AcDbVertex
100
AcDb2dVertex
 10
45.576519
 20
56.621203
 30
0.0
  0
VERTEX
  5
296
330
292
100
AcDbEntity
  8
001
 62
    40
370
    50
100
AcDbVertex
100
AcDb2dVertex
 10
45.611352
 20
56.545835
 30
0.0
  0
VERTEX
  5
297
330
292
100
AcDbEntity
  8
001
 62
    40
370
    50
100
AcDbVertex
100
AcDb2dVertex
 10
45.823283
 20
56.183676
 30
0.0
  0
VERTEX
  5
298
330
292
100
AcDbEntity
  8
001
 62
    40
370
    50
100
AcDbVertex
100
AcDb2dVertex
 10
45.994678
 20
55.951527
 30
0.0
  0
SEQEND
  5
293
330
292
100
AcDbEntity
  8
001
370
    50
  0
POLYLINE
  5
299
330
25E
100
AcDbEntity
  8
001
 62
    40
370
    50
100
AcDb2dPolyline
 66
     1
 10
0.0
 20
0.0
 30
0.0
  0
VERTEX
  5
29B
330
299
100
AcDbEntity
  8
001
 62
    40
370
    50
100
AcDbVertex
100
AcDb2dVertex
 10
45.553959
 20
56.673381
 30
0.0
  0
VERTEX
  5
29C
330
299
100
AcDbEntity
  8
001
 62
    40
370
    50
100
AcDbVertex
100
AcDb2dVertex
 10
45.697191
 20
56.867932
 30
0.0
  0
VERTEX
  5
29D
330
299
100
AcDbEntity
  8
001
 62
    40
370
    50
100
AcDbVertex
100
AcDb2dVertex
 10
45.886907
 20
57.1356
 30
0.0
  0
VERTEX
  5
29E
330
299
100
AcDbEntity
  8
001
 62
    40
370
    50
100
AcDbVertex
100
AcDb2dVertex
 10
45.998917
 20
57.301531
 30
0.0
  0
VERTEX
  5
29F
330
299
100
AcDbEntity
  8
001
 62
    40
370
    50
100
AcDbVertex
100
AcDb2dVertex
 10
46.100657
 20
57.459396
 30
0.0
  0
VERTEX
  5
2A0
330
299
100
AcDbEntity
  8
001
 62
    40
370
    50
100
AcDbVertex
100
AcDb2dVertex
 10
46.203485
 20
57.62418
 30
0.0
  0
VERTEX
  5
2A1
330
299
100
AcDbEntity
  8
001
 62
    40
370
    50
100
AcDbVertex
100
AcDb2dVertex
 10
46.304304
 20
57.78964
 30
0.0
  0
VERTEX
  5
2A2
330
299
100
AcDbEntity
  8
001
 62
    40
370
    50
100
AcDbVertex
100
AcDb2dVertex
 10
46.478469
 20
58.088694
 30
0.0
  0
VERTEX
  5
2A3
330
299
100
AcDbEntity
  8
001
 62
    40
370
    50
100
AcDbVertex
100
AcDb2dVertex
 10
46.657032
 20
58.429443
 30
0.0
  0
VERTEX
  5
2A4
330
299
100
AcDbEntity
  8
001
 62
    40
370
    50
100
AcDbVertex
100
AcDb2dVertex
 10
46.725573
 20
58.56993
 30
0.0
  0
VERTEX
  5
2A5
330
299
100
AcDbEntity
  8
001
 62
    40
370
    50
100
AcDbVertex
100
AcDb2dVertex
 10
46.772855
 20
58.66982
 30
0.0
  0
SEQEND
  5
29A
330
299
100
AcDbEntity
  8
001
370
    50
  0
POLYLINE
  5
2A6
330
25E
100
AcDbEntity
  8
001
 62
    40
370
    50
100
AcDb2dPolyline
 66
     1
 10
0.0
 20
0.0
 30
0.0
  0
VERTEX
  5
2A8
330
2A6
100
AcDbEntity
  8
001
 62
    40
370
    50
100
AcDbVertex
100
AcDb2dVertex
 10
47.706698
 20
58.755657
 30
0.0
  0
VERTEX
  5
2A9
330
2A6
100
AcDbEntity
  8
001
 62
    40
370
    50
100
AcDbVertex
100
AcDb2dVertex
 10
47.507869
 20
58.75434
 30
0.0
  0
VERTEX
  5
2AA
330
2A6
100
AcDbEntity
  8
001
 62
    40
370
    50
100
AcDbVertex
100
AcDb2dVertex
 10
47.218147
 20
58.737743
 30
0.0
  0
VERTEX
  5
2AB
330
2A6
100
AcDbEntity
  8
001
 62
    40
370
    50
100
AcDbVertex
100
AcDb2dVertex
 10
46.952972
 20
58.703196
 30
0.0
  0
VERTEX
  5
2AC
330
2A6
100
AcDbEntity
  8
001
 62
    40
370
    50
100
AcDbVertex
100
AcDb2dVertex
 10
46.772855
 20
58.66982
 30
0.0
  0
SEQEND
  5
2A7
330
2A6
100
AcDbEntity
  8
001
370
    50
  0
LINE
  5
2AD
330
25E
100
AcDbEntity
  8
001
 62
    40
370
    50
100
AcDbLine
 10
54.933069
 20
55.769982
 30
0.0
 11
47.706698
 21
58.755657
 31
0.0
  0
POLYLINE
  5
2AE
330
25E
100
AcDbEntity
  8
001
 62
    40
370
    50
100
AcDb2dPolyline
 66
     1
 10
0.0
 20
0.0
 30
0.0
  0
VERTEX
  5
2B0
330
2AE
100
AcDbEntity
  8
001
 62
    40
370
    50
100
AcDbVertex
100
AcDb2dVertex
 10
55.463744
 20
54.890262
 30
0.0
  0
VERTEX
  5
2B1
330
2AE
100
AcDbEntity
  8
001
 62
    40
370
    50
100
AcDbVertex
100
AcDb2dVertex
 10
55.483026
 20
54.932105
 30
0.0
  0
VERTEX
  5
2B2
330
2AE
100
AcDbEntity
  8
001
 62
    40
370
    50
100
AcDbVertex
100
AcDb2dVertex
 10
55.50118
 20
54.974404
 30
0.0
  0
VERTEX
  5
2B3
330
2AE
100
AcDbEntity
  8
001
 62
    40
370
    50
100
AcDbVertex
100
AcDb2dVertex
 10
55.517112
 20
55.016497
 30
0.0
  0
VERTEX
  5
2B4
330
2AE
100
AcDbEntity
  8
001
 62
    40
370
    50
100
AcDbVertex
100
AcDb2dVertex
 10
55.531965
 20
55.059026
 30
0.0
  0
SEQEND
  5
2AF
330
2AE
100
AcDbEntity
  8
001
370
    50
  0
POLYLINE
  5
2B5
330
25E
100
AcDbEntity
  8
001
 62
    40
370
    50
100
AcDb2dPolyline
 66
     1
 10
0.0
 20
0.0
 30
0.0
  0
VERTEX
  5
2B7
330
2B5
100
AcDbEntity
  8
001
 62
    40
370
    50
100
AcDbVertex
100
AcDb2dVertex
 10
54.319712
 20
53.051689
 30
0.0
  0
VERTEX
  5
2B8
330
2B5
100
AcDbEntity
  8
001
 62
    40
370
    50
100
AcDbVertex
100
AcDb2dVertex
 10
54.462967
 20
53.246274
 30
0.0
  0
VERTEX
  5
2B9
330
2B5
100
AcDbEntity
  8
001
 62
    40
370
    50
100
AcDbVertex
100
AcDb2dVertex
 10
54.65266
 20
53.513908
 30
0.0
  0
VERTEX
  5
2BA
330
2B5
100
AcDbEntity
  8
001
 62
    40
370
    50
100
AcDbVertex
100
AcDb2dVertex
 10
54.764603
 20
53.679738
 30
0.0
  0
VERTEX
  5
2BB
330
2B5
100
AcDbEntity
  8
001
 62
    40
370
    50
100
AcDbVertex
100
AcDb2dVertex
 10
54.86641
 20
53.837704
 30
0.0
  0
VERTEX
  5
2BC
330
2B5
100
AcDbEntity
  8
001
 62
    40
370
    50
100
AcDbVertex
100
AcDb2dVertex
 10
54.969482
 20
54.002855
 30
0.0
  0
VERTEX
  5
2BD
330
2B5
100
AcDbEntity
  8
001
 62
    40
370
    50
100
AcDbVertex
100
AcDb2dVertex
 10
55.070057
 20
54.167948
 30
0.0
  0
VERTEX
  5
2BE
330
2B5
100
AcDbEntity
  8
001
 62
    40
370
    50
100
AcDbVertex
100
AcDb2dVertex
 10
55.241961
 20
54.463602
 30
0.0
  0
VERTEX
  5
2BF
330
2B5
100
AcDbEntity
  8
001
 62
    40
370
    50
100
AcDbVertex
100
AcDb2dVertex
 10
55.422785
 20
54.807751
 30
0.0
  0
VERTEX
  5
2C0
330
2B5
100
AcDbEntity
  8
001
 62
    40
370
    50
100
AcDbVertex
100
AcDb2dVertex
 10
55.447043
 20
54.856436
 30
0.0
  0
VERTEX
  5
2C1
330
2B5
100
AcDbEntity
  8
001
 62
    40
370
    50
100
AcDbVertex
100
AcDb2dVertex
 10
55.463744
 20
54.890262
 30
0.0
  0
SEQEND
  5
2B6
330
2B5
100
AcDbEntity
  8
001
370
    50
  0
LINE
  5
2C2
330
25E
100
AcDbEntity
  8
001
 62
    40
370
    50
100
AcDbLine
 10
47.155229
 20
59.010825
 30
0.0
 11
47.706698
 21
58.755657
 31
0.0
  0
LINE
  5
2C3
330
25E
100
AcDbEntity
  8
001
 62
    40
370
    50
100
AcDbLine
 10
53.674484
 20
56.567614
 30
0.0
 11
53.042936
 21
56.828547
 31
0.0
  0
LINE
  5
2C4
330
25E
100
AcDbEntity
  8
001
 62
    40
370
    50
100
AcDbLine
 10
55.403057
 20
55.591631
 30
0.0
 11
55.3722
 21
55.606096
 31
0.0
  0
POLYLINE
  5
2C5
330
25E
100
AcDbEntity
  8
001
 62
    40
370
    50
100
AcDb2dPolyline
 66
     1
 10
0.0
 20
0.0
 30
0.0
  0
VERTEX
  5
2C7
330
2C5
100
AcDbEntity
  8
001
 62
    40
370
    50
100
AcDbVertex
100
AcDb2dVertex
 10
55.542752
 20
55.093497
 30
0.0
  0
VERTEX
  5
2C8
330
2C5
100
AcDbEntity
  8
001
 62
    40
370
    50
100
AcDbVertex
100
AcDb2dVertex
 10
55.554424
 20
55.150904
 30
0.0
  0
VERTEX
  5
2C9
330
2C5
100
AcDbEntity
  8
001
 62
    40
370
    50
100
AcDbVertex
100
AcDb2dVertex
 10
55.562305
 20
55.20873
 30
0.0
  0
VERTEX
  5
2CA
330
2C5
100
AcDbEntity
  8
001
 62
    40
370
    50
100
AcDbVertex
100
AcDb2dVertex
 10
55.563746
 20
55.255903
 30
0.0
  0
VERTEX
  5
2CB
330
2C5
100
AcDbEntity
  8
001
 62
    40
370
    50
100
AcDbVertex
100
AcDb2dVertex
 10
55.560836
 20
55.303113
 30
0.0
  0
VERTEX
  5
2CC
330
2C5
100
AcDbEntity
  8
001
 62
    40
370
    50
100
AcDbVertex
100
AcDb2dVertex
 10
55.554053
 20
55.34957
 30
0.0
  0
VERTEX
  5
2CD
330
2C5
100
AcDbEntity
  8
001
 62
    40
370
    50
100
AcDbVertex
100
AcDb2dVertex
 10
55.543106
 20
55.395194
 30
0.0
  0
VERTEX
  5
2CE
330
2C5
100
AcDbEntity
  8
001
 62
    40
370
    50
100
AcDbVertex
100
AcDb2dVertex
 10
55.521227
 20
55.454084
 30
0.0
  0
VERTEX
  5
2CF
330
2C5
100
AcDbEntity
  8
001
 62
    40
370
    50
100
AcDbVertex
100
AcDb2dVertex
 10
55.490349
 20
55.508928
 30
0.0
  0
VERTEX
  5
2D0
330
2C5
100
AcDbEntity
  8
001
 62
    40
370
    50
100
AcDbVertex
100
AcDb2dVertex
 10
55.461486
 20
55.545265
 30
0.0
  0
VERTEX
  5
2D1
330
2C5
100
AcDbEntity
  8
001
 62
    40
370
    50
100
AcDbVertex
100
AcDb2dVertex
 10
55.427058
 20
55.575901
 30
0.0
  0
VERTEX
  5
2D2
330
2C5
100
AcDbEntity
  8
001
 62
    40
370
    50
100
AcDbVertex
100
AcDb2dVertex
 10
55.4152
 20
55.583965
 30
0.0
  0
VERTEX
  5
2D3
330
2C5
100
AcDbEntity
  8
001
 62
    40
370
    50
100
AcDbVertex
100
AcDb2dVertex
 10
55.403057
 20
55.591631
 30
0.0
  0
SEQEND
  5
2C6
330
2C5
100
AcDbEntity
  8
001
370
    50
  0
POLYLINE
  5
2D4
330
25E
100
AcDbEntity
  8
001
 62
    40
370
    50
100
AcDb2dPolyline
 66
     1
 10
0.0
 20
0.0
 30
0.0
  0
VERTEX
  5
2D6
330
2D4
100
AcDbEntity
  8
001
 62
    40
370
    50
100
AcDbVertex
100
AcDb2dVertex
 10
54.831949
 20
52.925052
 30
0.0
  0
VERTEX
  5
2D7
330
2D4
100
AcDbEntity
  8
001
 62
    40
370
    50
100
AcDbVertex
100
AcDb2dVertex
 10
54.849991
 20
52.955138
 30
0.0
  0
VERTEX
  5
2D8
330
2D4
100
AcDbEntity
  8
001
 62
    40
370
    50
100
AcDbVertex
100
AcDb2dVertex
 10
54.875663
 20
52.9995
 30
0.0
  0
VERTEX
  5
2D9
330
2D4
100
AcDbEntity
  8
001
 62
    40
370
    50
100
AcDbVertex
100
AcDb2dVertex
 10
55.027898
 20
53.324703
 30
0.0
  0
VERTEX
  5
2DA
330
2D4
100
AcDbEntity
  8
001
 62
    40
370
    50
100
AcDbVertex
100
AcDb2dVertex
 10
55.107739
 20
53.558132
 30
0.0
  0
SEQEND
  5
2D5
330
2D4
100
AcDbEntity
  8
001
370
    50
  0
POLYLINE
  5
2DB
330
25E
100
AcDbEntity
  8
001
 62
    40
370
    50
100
AcDb2dPolyline
 66
     1
 10
0.0
 20
0.0
 30
0.0
  0
VERTEX
  5
2DD
330
2DB
100
AcDbEntity
  8
001
 62
    40
370
    50
100
AcDbVertex
100
AcDb2dVertex
 10
55.402935
 20
55.591702
 30
0.0
  0
VERTEX
  5
2DE
330
2DB
100
AcDbEntity
  8
001
 62
    40
370
    50
100
AcDbVertex
100
AcDb2dVertex
 10
55.045075
 20
55.798853
 30
0.0
  0
VERTEX
  5
2DF
330
2DB
100
AcDbEntity
  8
001
 62
    40
370
    50
100
AcDbVertex
100
AcDb2dVertex
 10
54.687216
 20
56.006005
 30
0.0
  0
VERTEX
  5
2E0
330
2DB
100
AcDbEntity
  8
001
 62
    40
370
    50
100
AcDbVertex
100
AcDb2dVertex
 10
54.323339
 20
56.216646
 30
0.0
  0
VERTEX
  5
2E1
330
2DB
100
AcDbEntity
  8
001
 62
    40
370
    50
100
AcDbVertex
100
AcDb2dVertex
 10
53.959462
 20
56.427288
 30
0.0
  0
SEQEND
  5
2DC
330
2DB
100
AcDbEntity
  8
001
370
    50
  0
POLYLINE
  5
2E2
330
25E
100
AcDbEntity
  8
001
 62
    40
370
    50
100
AcDb2dPolyline
 66
     1
 10
0.0
 20
0.0
 30
0.0
  0
VERTEX
  5
2E4
330
2E2
100
AcDbEntity
  8
001
 62
    40
370
    50
100
AcDbVertex
100
AcDb2dVertex
 10
55.106426
 20
53.553483
 30
0.0
  0
VERTEX
  5
2E5
330
2E2
100
AcDbEntity
  8
001
 62
    40
370
    50
100
AcDbVertex
100
AcDb2dVertex
 10
55.154179
 20
53.7221
 30
0.0
  0
VERTEX
  5
2E6
330
2E2
100
AcDbEntity
  8
001
 62
    40
370
    50
100
AcDbVertex
100
AcDb2dVertex
 10
55.201929
 20
53.890719
 30
0.0
  0
VERTEX
  5
2E7
330
2E2
100
AcDbEntity
  8
001
 62
    40
370
    50
100
AcDbVertex
100
AcDb2dVertex
 10
55.245559
 20
54.044812
 30
0.0
  0
VERTEX
  5
2E8
330
2E2
100
AcDbEntity
  8
001
 62
    40
370
    50
100
AcDbVertex
100
AcDb2dVertex
 10
55.289195
 20
54.198903
 30
0.0
  0
VERTEX
  5
2E9
330
2E2
100
AcDbEntity
  8
001
 62
    40
370
    50
100
AcDbVertex
100
AcDb2dVertex
 10
55.329188
 20
54.340084
 30
0.0
  0
VERTEX
  5
2EA
330
2E2
100
AcDbEntity
  8
001
 62
    40
370
    50
100
AcDbVertex
100
AcDb2dVertex
 10
55.369194
 20
54.481262
 30
0.0
  0
VERTEX
  5
2EB
330
2E2
100
AcDbEntity
  8
001
 62
    40
370
    50
100
AcDbVertex
100
AcDb2dVertex
 10
55.405958
 20
54.61096
 30
0.0
  0
VERTEX
  5
2EC
330
2E2
100
AcDbEntity
  8
001
 62
    40
370
    50
100
AcDbVertex
100
AcDb2dVertex
 10
55.442727
 20
54.740656
 30
0.0
  0
VERTEX
  5
2ED
330
2E2
100
AcDbEntity
  8
001
 62
    40
370
    50
100
AcDbVertex
100
AcDb2dVertex
 10
55.476596
 20
54.860113
 30
0.0
  0
VERTEX
  5
2EE
330
2E2
100
AcDbEntity
  8
001
 62
    40
370
    50
100
AcDbVertex
100
AcDb2dVertex
 10
55.510462
 20
54.979571
 30
0.0
  0
VERTEX
  5
2EF
330
2E2
100
AcDbEntity
  8
001
 62
    40
370
    50
100
AcDbVertex
100
AcDb2dVertex
 10
55.526938
 20
55.037696
 30
0.0
  0
VERTEX
  5
2F0
330
2E2
100
AcDbEntity
  8
001
 62
    40
370
    50
100
AcDbVertex
100
AcDb2dVertex
 10
55.543413
 20
55.095821
 30
0.0
  0
SEQEND
  5
2E3
330
2E2
100
AcDbEntity
  8
001
370
    50
  0
POLYLINE
  5
2F1
330
25E
100
AcDbEntity
  8
001
 62
    40
370
    50
100
AcDb2dPolyline
 66
     1
 10
0.0
 20
0.0
 30
0.0
  0
VERTEX
  5
2F3
330
2F1
100
AcDbEntity
  8
001
 62
    40
370
    50
100
AcDbVertex
100
AcDb2dVertex
 10
53.96185
 20
56.42591
 30
0.0
  0
VERTEX
  5
2F4
330
2F1
100
AcDbEntity
  8
001
 62
    40
370
    50
100
AcDbVertex
100
AcDb2dVertex
 10
53.904934
 20
56.457675
 30
0.0
  0
VERTEX
  5
2F5
330
2F1
100
AcDbEntity
  8
001
 62
    40
370
    50
100
AcDbVertex
100
AcDb2dVertex
 10
53.82043
 20
56.501565
 30
0.0
  0
VERTEX
  5
2F6
330
2F1
100
AcDbEntity
  8
001
 62
    40
370
    50
100
AcDbVertex
100
AcDb2dVertex
 10
53.734266
 20
56.541834
 30
0.0
  0
VERTEX
  5
2F7
330
2F1
100
AcDbEntity
  8
001
 62
    40
370
    50
100
AcDbVertex
100
AcDb2dVertex
 10
53.674484
 20
56.567614
 30
0.0
  0
SEQEND
  5
2F2
330
2F1
100
AcDbEntity
  8
001
370
    50
  0
POLYLINE
  5
2F8
330
25E
100
AcDbEntity
  8
001
 62
    40
370
    50
100
AcDb2dPolyline
 66
     1
 10
0.0
 20
0.0
 30
0.0
  0
VERTEX
  5
2FA
330
2F8
100
AcDbEntity
  8
001
 62
    40
370
    50
100
AcDbVertex
100
AcDb2dVertex
 10
52.242339
 20
49.649143
 30
0.0
  0
VERTEX
  5
2FB
330
2F8
100
AcDbEntity
  8
001
 62
    40
370
    50
100
AcDbVertex
100
AcDb2dVertex
 10
52.196158
 20
49.721734
 30
0.0
  0
VERTEX
  5
2FC
330
2F8
100
AcDbEntity
  8
001
 62
    40
370
    50
100
AcDbVertex
100
AcDb2dVertex
 10
52.12523
 20
49.825441
 30
0.0
  0
VERTEX
  5
2FD
330
2F8
100
AcDbEntity
  8
001
 62
    40
370
    50
100
AcDbVertex
100
AcDb2dVertex
 10
51.847892
 20
50.159901
 30
0.0
  0
VERTEX
  5
2FE
330
2F8
100
AcDbEntity
  8
001
 62
    40
370
    50
100
AcDbVertex
100
AcDb2dVertex
 10
51.6368
 20
50.370997
 30
0.0
  0
SEQEND
  5
2F9
330
2F8
100
AcDbEntity
  8
001
370
    50
  0
LINE
  5
2FF
330
25E
100
AcDbEntity
  8
001
 62
    40
370
    50
100
AcDbLine
 10
53.221049
 20
52.965851
 30
0.0
 11
51.6368
 21
50.370997
 31
0.0
  0
LINE
  5
300
330
25E
100
AcDbEntity
  8
001
 62
    40
370
    50
100
AcDbLine
 10
54.319712
 20
53.051689
 30
0.0
 11
53.881563
 21
52.334041
 31
0.0
  0
LINE
  5
301
330
25E
100
AcDbEntity
  8
001
 62
    40
370
    50
100
AcDbLine
 10
52.346207
 20
49.81927
 30
0.0
 11
52.242339
 21
49.649143
 31
0.0
  0
LINE
  5
302
330
25E
100
AcDbEntity
  8
001
 62
    40
370
    50
100
AcDbLine
 10
51.6368
 20
50.370997
 30
0.0
 11
50.015427
 21
51.04089
 31
0.0
  0
POLYLINE
  5
303
330
25E
100
AcDbEntity
  8
001
 62
    40
370
    50
100
AcDb2dPolyline
 66
     1
 10
0.0
 20
0.0
 30
0.0
  0
VERTEX
  5
305
330
303
100
AcDbEntity
  8
001
 62
    40
370
    50
100
AcDbVertex
100
AcDb2dVertex
 10
50.015427
 20
51.04089
 30
0.0
  0
VERTEX
  5
306
330
303
100
AcDbEntity
  8
001
 62
    40
370
    50
100
AcDbVertex
100
AcDb2dVertex
 10
50.427232
 20
51.383169
 30
0.0
  0
VERTEX
  5
307
330
303
100
AcDbEntity
  8
001
 62
    40
370
    50
100
AcDbVertex
100
AcDb2dVertex
 10
50.88959
 20
51.936262
 30
0.0
  0
VERTEX
  5
308
330
303
100
AcDbEntity
  8
001
 62
    40
370
    50
100
AcDbVertex
100
AcDb2dVertex
 10
51.078814
 20
52.32927
 30
0.0
  0
VERTEX
  5
309
330
303
100
AcDbEntity
  8
001
 62
    40
370
    50
100
AcDbVertex
100
AcDb2dVertex
 10
51.174035
 20
52.735824
 30
0.0
  0
VERTEX
  5
30A
330
303
100
AcDbEntity
  8
001
 62
    40
370
    50
100
AcDbVertex
100
AcDb2dVertex
 10
51.199277
 20
52.950267
 30
0.0
  0
VERTEX
  5
30B
330
303
100
AcDbEntity
  8
001
 62
    40
370
    50
100
AcDbVertex
100
AcDb2dVertex
 10
51.210416
 20
53.161262
 30
0.0
  0
VERTEX
  5
30C
330
303
100
AcDbEntity
  8
001
 62
    40
370
    50
100
AcDbVertex
100
AcDb2dVertex
 10
51.2046
 20
53.364122
 30
0.0
  0
VERTEX
  5
30D
330
303
100
AcDbEntity
  8
001
 62
    40
370
    50
100
AcDbVertex
100
AcDb2dVertex
 10
51.174035
 20
53.5867
 30
0.0
  0
VERTEX
  5
30E
330
303
100
AcDbEntity
  8
001
 62
    40
370
    50
100
AcDbVertex
100
AcDb2dVertex
 10
51.143544
 20
53.731768
 30
0.0
  0
VERTEX
  5
30F
330
303
100
AcDbEntity
  8
001
 62
    40
370
    50
100
AcDbVertex
100
AcDb2dVertex
 10
51.11818
 20
53.834681
 30
0.0
  0
SEQEND
  5
304
330
303
100
AcDbEntity
  8
001
370
    50
  0
LINE
  5
310
330
25E
100
AcDbEntity
  8
001
 62
    40
370
    50
100
AcDbLine
 10
51.023443
 20
47.652704
 30
0.0
 11
50.863781
 21
47.391193
 31
0.0
  0
POLYLINE
  5
311
330
25E
100
AcDbEntity
  8
001
 62
    40
370
    50
100
AcDb2dPolyline
 66
     1
 10
0.0
 20
0.0
 30
0.0
  0
VERTEX
  5
313
330
311
100
AcDbEntity
  8
001
 62
    40
370
    50
100
AcDbVertex
100
AcDb2dVertex
 10
51.85404
 20
48.905854
 30
0.0
  0
VERTEX
  5
314
330
311
100
AcDbEntity
  8
001
 62
    40
370
    50
100
AcDbVertex
100
AcDb2dVertex
 10
51.968076
 20
49.108397
 30
0.0
  0
VERTEX
  5
315
330
311
100
AcDbEntity
  8
001
 62
    40
370
    50
100
AcDbVertex
100
AcDb2dVertex
 10
52.126516
 20
49.408767
 30
0.0
  0
VERTEX
  5
316
330
311
100
AcDbEntity
  8
001
 62
    40
370
    50
100
AcDbVertex
100
AcDb2dVertex
 10
52.196171
 20
49.551057
 30
0.0
  0
VERTEX
  5
317
330
311
100
AcDbEntity
  8
001
 62
    40
370
    50
100
AcDbVertex
100
AcDb2dVertex
 10
52.242339
 20
49.649143
 30
0.0
  0
SEQEND
  5
312
330
311
100
AcDbEntity
  8
001
370
    50
  0
POLYLINE
  5
318
330
25E
100
AcDbEntity
  8
001
 62
    40
370
    50
100
AcDb2dPolyline
 66
     1
 10
0.0
 20
0.0
 30
0.0
  0
VERTEX
  5
31A
330
318
100
AcDbEntity
  8
001
 62
    40
370
    50
100
AcDbVertex
100
AcDb2dVertex
 10
51.023443
 20
47.652704
 30
0.0
  0
VERTEX
  5
31B
330
318
100
AcDbEntity
  8
001
 62
    40
370
    50
100
AcDbVertex
100
AcDb2dVertex
 10
51.161283
 20
47.838646
 30
0.0
  0
VERTEX
  5
31C
330
318
100
AcDbEntity
  8
001
 62
    40
370
    50
100
AcDbVertex
100
AcDb2dVertex
 10
51.356391
 20
48.114924
 30
0.0
  0
VERTEX
  5
31D
330
318
100
AcDbEntity
  8
001
 62
    40
370
    50
100
AcDbVertex
100
AcDb2dVertex
 10
51.467894
 20
48.281237
 30
0.0
  0
VERTEX
  5
31E
330
318
100
AcDbEntity
  8
001
 62
    40
370
    50
100
AcDbVertex
100
AcDb2dVertex
 10
51.542753
 20
48.395994
 30
0.0
  0
SEQEND
  5
319
330
318
100
AcDbEntity
  8
001
370
    50
  0
LINE
  5
31F
330
25E
100
AcDbEntity
  8
001
 62
    40
370
    50
100
AcDbLine
 10
51.453333
 20
47.391193
 30
0.0
 11
51.484682
 21
47.442539
 31
0.0
  0
LINE
  5
320
330
25E
100
AcDbEntity
  8
001
 62
    40
370
    50
100
AcDbLine
 10
54.523775
 20
52.420292
 30
0.0
 11
54.831949
 21
52.925052
 31
0.0
  0
POLYLINE
  5
321
330
25E
100
AcDbEntity
  8
001
 62
    40
370
    50
100
AcDb2dPolyline
 66
     1
 10
0.0
 20
0.0
 30
0.0
  0
VERTEX
  5
323
330
321
100
AcDbEntity
  8
001
 62
    40
370
    50
100
AcDbVertex
100
AcDb2dVertex
 10
46.513297
 20
52.487843
 30
0.0
  0
VERTEX
  5
324
330
321
100
AcDbEntity
  8
001
 62
    40
370
    50
100
AcDbVertex
100
AcDb2dVertex
 10
46.621303
 20
52.362147
 30
0.0
  0
VERTEX
  5
325
330
321
100
AcDbEntity
  8
001
 62
    40
370
    50
100
AcDbVertex
100
AcDb2dVertex
 10
46.730243
 20
52.237256
 30
0.0
  0
VERTEX
  5
326
330
321
100
AcDbEntity
  8
001
 62
    40
370
    50
100
AcDbVertex
100
AcDb2dVertex
 10
46.844798
 20
52.1099
 30
0.0
  0
VERTEX
  5
327
330
321
100
AcDbEntity
  8
001
 62
    40
370
    50
100
AcDbVertex
100
AcDb2dVertex
 10
46.962296
 20
51.985263
 30
0.0
  0
VERTEX
  5
328
330
321
100
AcDbEntity
  8
001
 62
    40
370
    50
100
AcDbVertex
100
AcDb2dVertex
 10
47.081594
 20
51.866197
 30
0.0
  0
VERTEX
  5
329
330
321
100
AcDbEntity
  8
001
 62
    40
370
    50
100
AcDbVertex
100
AcDb2dVertex
 10
47.204959
 20
51.751348
 30
0.0
  0
VERTEX
  5
32A
330
321
100
AcDbEntity
  8
001
 62
    40
370
    50
100
AcDbVertex
100
AcDb2dVertex
 10
47.334051
 20
51.640212
 30
0.0
  0
VERTEX
  5
32B
330
321
100
AcDbEntity
  8
001
 62
    40
370
    50
100
AcDbVertex
100
AcDb2dVertex
 10
47.467824
 20
51.534743
 30
0.0
  0
VERTEX
  5
32C
330
321
100
AcDbEntity
  8
001
 62
    40
370
    50
100
AcDbVertex
100
AcDb2dVertex
 10
47.605593
 20
51.436348
 30
0.0
  0
VERTEX
  5
32D
330
321
100
AcDbEntity
  8
001
 62
    40
370
    50
100
AcDbVertex
100
AcDb2dVertex
 10
47.748362
 20
51.345411
 30
0.0
  0
VERTEX
  5
32E
330
321
100
AcDbEntity
  8
001
 62
    40
370
    50
100
AcDbVertex
100
AcDb2dVertex
 10
47.878458
 20
51.272203
 30
0.0
  0
VERTEX
  5
32F
330
321
100
AcDbEntity
  8
001
 62
    40
370
    50
100
AcDbVertex
100
AcDb2dVertex
 10
48.012165
 20
51.2058
 30
0.0
  0
VERTEX
  5
330
330
321
100
AcDbEntity
  8
001
 62
    40
370
    50
100
AcDbVertex
100
AcDb2dVertex
 10
48.148095
 20
51.146751
 30
0.0
  0
VERTEX
  5
331
330
321
100
AcDbEntity
  8
001
 62
    40
370
    50
100
AcDbVertex
100
AcDb2dVertex
 10
48.286892
 20
51.0948
 30
0.0
  0
VERTEX
  5
332
330
321
100
AcDbEntity
  8
001
 62
    40
370
    50
100
AcDbVertex
100
AcDb2dVertex
 10
48.425661
 20
51.05099
 30
0.0
  0
VERTEX
  5
333
330
321
100
AcDbEntity
  8
001
 62
    40
370
    50
100
AcDbVertex
100
AcDb2dVertex
 10
48.566572
 20
51.014714
 30
0.0
  0
VERTEX
  5
334
330
321
100
AcDbEntity
  8
001
 62
    40
370
    50
100
AcDbVertex
100
AcDb2dVertex
 10
48.697153
 20
50.988372
 30
0.0
  0
VERTEX
  5
335
330
321
100
AcDbEntity
  8
001
 62
    40
370
    50
100
AcDbVertex
100
AcDb2dVertex
 10
48.828869
 20
50.968433
 30
0.0
  0
VERTEX
  5
336
330
321
100
AcDbEntity
  8
001
 62
    40
370
    50
100
AcDbVertex
100
AcDb2dVertex
 10
48.958694
 20
50.954868
 30
0.0
  0
VERTEX
  5
337
330
321
100
AcDbEntity
  8
001
 62
    40
370
    50
100
AcDbVertex
100
AcDb2dVertex
 10
49.088991
 20
50.947067
 30
0.0
  0
VERTEX
  5
338
330
321
100
AcDbEntity
  8
001
 62
    40
370
    50
100
AcDbVertex
100
AcDb2dVertex
 10
49.215222
 20
50.944901
 30
0.0
  0
VERTEX
  5
339
330
321
100
AcDbEntity
  8
001
 62
    40
370
    50
100
AcDbVertex
100
AcDb2dVertex
 10
49.341425
 20
50.947987
 30
0.0
  0
VERTEX
  5
33A
330
321
100
AcDbEntity
  8
001
 62
    40
370
    50
100
AcDbVertex
100
AcDb2dVertex
 10
49.460942
 20
50.955666
 30
0.0
  0
VERTEX
  5
33B
330
321
100
AcDbEntity
  8
001
 62
    40
370
    50
100
AcDbVertex
100
AcDb2dVertex
 10
49.580128
 20
50.967523
 30
0.0
  0
VERTEX
  5
33C
330
321
100
AcDbEntity
  8
001
 62
    40
370
    50
100
AcDbVertex
100
AcDb2dVertex
 10
49.693248
 20
50.982289
 30
0.0
  0
VERTEX
  5
33D
330
321
100
AcDbEntity
  8
001
 62
    40
370
    50
100
AcDbVertex
100
AcDb2dVertex
 10
49.805878
 20
51.000327
 30
0.0
  0
VERTEX
  5
33E
330
321
100
AcDbEntity
  8
001
 62
    40
370
    50
100
AcDbVertex
100
AcDb2dVertex
 10
49.910782
 20
51.019901
 30
0.0
  0
VERTEX
  5
33F
330
321
100
AcDbEntity
  8
001
 62
    40
370
    50
100
AcDbVertex
100
AcDb2dVertex
 10
50.015427
 20
51.04089
 30
0.0
  0
SEQEND
  5
322
330
321
100
AcDbEntity
  8
001
370
    50
  0
POLYLINE
  5
340
330
25E
100
AcDbEntity
  8
001
 62
    40
370
    50
100
AcDb2dPolyline
 66
     1
 10
0.0
 20
0.0
 30
0.0
  0
VERTEX
  5
342
330
340
100
AcDbEntity
  8
001
 62
    40
370
    50
100
AcDbVertex
100
AcDb2dVertex
 10
47.61605
 20
55.281634
 30
0.0
  0
VERTEX
  5
343
330
340
100
AcDbEntity
  8
001
 62
    40
370
    50
100
AcDbVertex
100
AcDb2dVertex
 10
47.204245
 20
54.939355
 30
0.0
  0
VERTEX
  5
344
330
340
100
AcDbEntity
  8
001
 62
    40
370
    50
100
AcDbVertex
100
AcDb2dVertex
 10
46.741887
 20
54.386262
 30
0.0
  0
VERTEX
  5
345
330
340
100
AcDbEntity
  8
001
 62
    40
370
    50
100
AcDbVertex
100
AcDb2dVertex
 10
46.552663
 20
53.993253
 30
0.0
  0
VERTEX
  5
346
330
340
100
AcDbEntity
  8
001
 62
    40
370
    50
100
AcDbVertex
100
AcDb2dVertex
 10
46.457442
 20
53.5867
 30
0.0
  0
VERTEX
  5
347
330
340
100
AcDbEntity
  8
001
 62
    40
370
    50
100
AcDbVertex
100
AcDb2dVertex
 10
46.4322
 20
53.372257
 30
0.0
  0
VERTEX
  5
348
330
340
100
AcDbEntity
  8
001
 62
    40
370
    50
100
AcDbVertex
100
AcDb2dVertex
 10
46.421061
 20
53.161262
 30
0.0
  0
VERTEX
  5
349
330
340
100
AcDbEntity
  8
001
 62
    40
370
    50
100
AcDbVertex
100
AcDb2dVertex
 10
46.426877
 20
52.958402
 30
0.0
  0
VERTEX
  5
34A
330
340
100
AcDbEntity
  8
001
 62
    40
370
    50
100
AcDbVertex
100
AcDb2dVertex
 10
46.457442
 20
52.735824
 30
0.0
  0
VERTEX
  5
34B
330
340
100
AcDbEntity
  8
001
 62
    40
370
    50
100
AcDbVertex
100
AcDb2dVertex
 10
46.487933
 20
52.590756
 30
0.0
  0
VERTEX
  5
34C
330
340
100
AcDbEntity
  8
001
 62
    40
370
    50
100
AcDbVertex
100
AcDb2dVertex
 10
46.513297
 20
52.487843
 30
0.0
  0
SEQEND
  5
341
330
340
100
AcDbEntity
  8
001
370
    50
  0
POLYLINE
  5
34D
330
25E
100
AcDbEntity
  8
001
 62
    40
370
    50
100
AcDb2dPolyline
 66
     1
 10
0.0
 20
0.0
 30
0.0
  0
VERTEX
  5
34F
330
34D
100
AcDbEntity
  8
001
 62
    40
370
    50
100
AcDbVertex
100
AcDb2dVertex
 10
44.410428
 20
53.356673
 30
0.0
  0
VERTEX
  5
350
330
34D
100
AcDbEntity
  8
001
 62
    40
370
    50
100
AcDbVertex
100
AcDb2dVertex
 10
44.2116
 20
53.355356
 30
0.0
  0
VERTEX
  5
351
330
34D
100
AcDbEntity
  8
001
 62
    40
370
    50
100
AcDbVertex
100
AcDb2dVertex
 10
43.921878
 20
53.338758
 30
0.0
  0
VERTEX
  5
352
330
34D
100
AcDbEntity
  8
001
 62
    40
370
    50
100
AcDbVertex
100
AcDb2dVertex
 10
43.656703
 20
53.304211
 30
0.0
  0
VERTEX
  5
353
330
34D
100
AcDbEntity
  8
001
 62
    40
370
    50
100
AcDbVertex
100
AcDb2dVertex
 10
43.476586
 20
53.270835
 30
0.0
  0
SEQEND
  5
34E
330
34D
100
AcDbEntity
  8
001
370
    50
  0
LINE
  5
354
330
25E
100
AcDbEntity
  8
001
 62
    40
370
    50
100
AcDbLine
 10
46.513297
 20
52.487843
 30
0.0
 11
44.410428
 21
53.356673
 31
0.0
  0
POLYLINE
  5
355
330
25E
100
AcDbEntity
  8
001
 62
    40
370
    50
100
AcDb2dPolyline
 66
     1
 10
0.0
 20
0.0
 30
0.0
  0
VERTEX
  5
357
330
355
100
AcDbEntity
  8
001
 62
    40
370
    50
100
AcDbVertex
100
AcDb2dVertex
 10
49.92478
 20
47.566867
 30
0.0
  0
VERTEX
  5
358
330
355
100
AcDbEntity
  8
001
 62
    40
370
    50
100
AcDbVertex
100
AcDb2dVertex
 10
50.159842
 20
47.5681
 30
0.0
  0
VERTEX
  5
359
330
355
100
AcDbEntity
  8
001
 62
    40
370
    50
100
AcDbVertex
100
AcDb2dVertex
 10
50.50264
 20
47.584781
 30
0.0
  0
VERTEX
  5
35A
330
355
100
AcDbEntity
  8
001
 62
    40
370
    50
100
AcDbVertex
100
AcDb2dVertex
 10
50.812548
 20
47.619255
 30
0.0
  0
VERTEX
  5
35B
330
355
100
AcDbEntity
  8
001
 62
    40
370
    50
100
AcDbVertex
100
AcDb2dVertex
 10
51.023443
 20
47.652704
 30
0.0
  0
SEQEND
  5
356
330
355
100
AcDbEntity
  8
001
370
    50
  0
POLYLINE
  5
35C
330
25E
100
AcDbEntity
  8
001
 62
    40
370
    50
100
AcDb2dPolyline
 66
     1
 10
0.0
 20
0.0
 30
0.0
  0
VERTEX
  5
35E
330
35C
100
AcDbEntity
  8
001
 62
    40
370
    50
100
AcDbVertex
100
AcDb2dVertex
 10
42.262239
 20
51.263498
 30
0.0
  0
VERTEX
  5
35F
330
35C
100
AcDbEntity
  8
001
 62
    40
370
    50
100
AcDbVertex
100
AcDb2dVertex
 10
42.283076
 20
51.215807
 30
0.0
  0
VERTEX
  5
360
330
35C
100
AcDbEntity
  8
001
 62
    40
370
    50
100
AcDbVertex
100
AcDb2dVertex
 10
42.315082
 20
51.146851
 30
0.0
  0
VERTEX
  5
361
330
35C
100
AcDbEntity
  8
001
 62
    40
370
    50
100
AcDbVertex
100
AcDb2dVertex
 10
42.527039
 20
50.784696
 30
0.0
  0
VERTEX
  5
362
330
35C
100
AcDbEntity
  8
001
 62
    40
370
    50
100
AcDbVertex
100
AcDb2dVertex
 10
42.698408
 20
50.552542
 30
0.0
  0
SEQEND
  5
35D
330
35C
100
AcDbEntity
  8
001
370
    50
  0
POLYLINE
  5
363
330
25E
100
AcDbEntity
  8
001
 62
    40
370
    50
100
AcDb2dPolyline
 66
     1
 10
0.0
 20
0.0
 30
0.0
  0
VERTEX
  5
365
330
363
100
AcDbEntity
  8
001
 62
    40
370
    50
100
AcDbVertex
100
AcDb2dVertex
 10
42.37559
 20
51.432262
 30
0.0
  0
VERTEX
  5
366
330
363
100
AcDbEntity
  8
001
 62
    40
370
    50
100
AcDbVertex
100
AcDb2dVertex
 10
42.345839
 20
51.3904
 30
0.0
  0
VERTEX
  5
367
330
363
100
AcDbEntity
  8
001
 62
    40
370
    50
100
AcDbVertex
100
AcDb2dVertex
 10
42.316711
 20
51.34812
 30
0.0
  0
VERTEX
  5
368
330
363
100
AcDbEntity
  8
001
 62
    40
370
    50
100
AcDbVertex
100
AcDb2dVertex
 10
42.289176
 20
51.30601
 30
0.0
  0
VERTEX
  5
369
330
363
100
AcDbEntity
  8
001
 62
    40
370
    50
100
AcDbVertex
100
AcDb2dVertex
 10
42.262239
 20
51.263498
 30
0.0
  0
SEQEND
  5
364
330
363
100
AcDbEntity
  8
001
370
    50
  0
POLYLINE
  5
36A
330
25E
100
AcDbEntity
  8
001
 62
    40
370
    50
100
AcDb2dPolyline
 66
     1
 10
0.0
 20
0.0
 30
0.0
  0
VERTEX
  5
36C
330
36A
100
AcDbEntity
  8
001
 62
    40
370
    50
100
AcDbVertex
100
AcDb2dVertex
 10
42.37559
 20
51.432262
 30
0.0
  0
VERTEX
  5
36D
330
36A
100
AcDbEntity
  8
001
 62
    40
370
    50
100
AcDbVertex
100
AcDb2dVertex
 10
42.466884
 20
51.559724
 30
0.0
  0
VERTEX
  5
36E
330
36A
100
AcDbEntity
  8
001
 62
    40
370
    50
100
AcDbVertex
100
AcDb2dVertex
 10
42.590638
 20
51.736616
 30
0.0
  0
VERTEX
  5
36F
330
36A
100
AcDbEntity
  8
001
 62
    40
370
    50
100
AcDbVertex
100
AcDb2dVertex
 10
42.70352
 20
51.903968
 30
0.0
  0
VERTEX
  5
370
330
36A
100
AcDbEntity
  8
001
 62
    40
370
    50
100
AcDbVertex
100
AcDb2dVertex
 10
42.804388
 20
52.060412
 30
0.0
  0
VERTEX
  5
371
330
36A
100
AcDbEntity
  8
001
 62
    40
370
    50
100
AcDbVertex
100
AcDb2dVertex
 10
42.906966
 20
52.224789
 30
0.0
  0
VERTEX
  5
372
330
36A
100
AcDbEntity
  8
001
 62
    40
370
    50
100
AcDbVertex
100
AcDb2dVertex
 10
43.008035
 20
52.390656
 30
0.0
  0
VERTEX
  5
373
330
36A
100
AcDbEntity
  8
001
 62
    40
370
    50
100
AcDbVertex
100
AcDb2dVertex
 10
43.182333
 20
52.689927
 30
0.0
  0
VERTEX
  5
374
330
36A
100
AcDbEntity
  8
001
 62
    40
370
    50
100
AcDbVertex
100
AcDb2dVertex
 10
43.360763
 20
53.030459
 30
0.0
  0
VERTEX
  5
375
330
36A
100
AcDbEntity
  8
001
 62
    40
370
    50
100
AcDbVertex
100
AcDb2dVertex
 10
43.429297
 20
53.170936
 30
0.0
  0
VERTEX
  5
376
330
36A
100
AcDbEntity
  8
001
 62
    40
370
    50
100
AcDbVertex
100
AcDb2dVertex
 10
43.476586
 20
53.270835
 30
0.0
  0
SEQEND
  5
36B
330
36A
100
AcDbEntity
  8
001
370
    50
  0
LINE
  5
377
330
25E
100
AcDbEntity
  8
001
 62
    40
370
    50
100
AcDbLine
 10
50.6085
 20
47.311699
 30
0.0
 11
49.92478
 21
47.566867
 31
0.0
  0
POLYLINE
  5
378
330
25E
100
AcDbEntity
  8
001
 62
    40
370
    50
100
AcDb2dPolyline
 66
     1
 10
0.0
 20
0.0
 30
0.0
  0
VERTEX
  5
37A
330
378
100
AcDbEntity
  8
001
 62
    40
370
    50
100
AcDbVertex
100
AcDb2dVertex
 10
50.688717
 20
47.297149
 30
0.0
  0
VERTEX
  5
37B
330
378
100
AcDbEntity
  8
001
 62
    40
370
    50
100
AcDbVertex
100
AcDb2dVertex
 10
50.70238
 20
47.297729
 30
0.0
  0
VERTEX
  5
37C
330
378
100
AcDbEntity
  8
001
 62
    40
370
    50
100
AcDbVertex
100
AcDb2dVertex
 10
50.721764
 20
47.299608
 30
0.0
  0
VERTEX
  5
37D
330
378
100
AcDbEntity
  8
001
 62
    40
370
    50
100
AcDbVertex
100
AcDb2dVertex
 10
50.776961
 20
47.315063
 30
0.0
  0
VERTEX
  5
37E
330
378
100
AcDbEntity
  8
001
 62
    40
370
    50
100
AcDbVertex
100
AcDb2dVertex
 10
50.819916
 20
47.341707
 30
0.0
  0
VERTEX
  5
37F
330
378
100
AcDbEntity
  8
001
 62
    40
370
    50
100
AcDbVertex
100
AcDb2dVertex
 10
50.832561
 20
47.352485
 30
0.0
  0
VERTEX
  5
380
330
378
100
AcDbEntity
  8
001
 62
    40
370
    50
100
AcDbVertex
100
AcDb2dVertex
 10
50.845262
 20
47.365922
 30
0.0
  0
VERTEX
  5
381
330
378
100
AcDbEntity
  8
001
 62
    40
370
    50
100
AcDbVertex
100
AcDb2dVertex
 10
50.856393
 20
47.38033
 30
0.0
  0
VERTEX
  5
382
330
378
100
AcDbEntity
  8
001
 62
    40
370
    50
100
AcDbVertex
100
AcDb2dVertex
 10
50.863781
 20
47.391193
 30
0.0
  0
SEQEND
  5
379
330
378
100
AcDbEntity
  8
001
370
    50
  0
POLYLINE
  5
383
330
25E
100
AcDbEntity
  8
001
 62
    40
370
    50
100
AcDb2dPolyline
 66
     1
 10
0.0
 20
0.0
 30
0.0
  0
VERTEX
  5
385
330
383
100
AcDbEntity
  8
001
 62
    40
370
    50
100
AcDbVertex
100
AcDb2dVertex
 10
51.287537
 20
47.297148
 30
0.0
  0
VERTEX
  5
386
330
383
100
AcDbEntity
  8
001
 62
    40
370
    50
100
AcDbVertex
100
AcDb2dVertex
 10
51.301856
 20
47.297892
 30
0.0
  0
VERTEX
  5
387
330
383
100
AcDbEntity
  8
001
 62
    40
370
    50
100
AcDbVertex
100
AcDb2dVertex
 10
51.321482
 20
47.300187
 30
0.0
  0
VERTEX
  5
388
330
383
100
AcDbEntity
  8
001
 62
    40
370
    50
100
AcDbVertex
100
AcDb2dVertex
 10
51.33893
 20
47.30406
 30
0.0
  0
VERTEX
  5
389
330
383
100
AcDbEntity
  8
001
 62
    40
370
    50
100
AcDbVertex
100
AcDb2dVertex
 10
51.354396
 20
47.30921
 30
0.0
  0
VERTEX
  5
38A
330
383
100
AcDbEntity
  8
001
 62
    40
370
    50
100
AcDbVertex
100
AcDb2dVertex
 10
51.369728
 20
47.315537
 30
0.0
  0
VERTEX
  5
38B
330
383
100
AcDbEntity
  8
001
 62
    40
370
    50
100
AcDbVertex
100
AcDb2dVertex
 10
51.385278
 20
47.323943
 30
0.0
  0
VERTEX
  5
38C
330
383
100
AcDbEntity
  8
001
 62
    40
370
    50
100
AcDbVertex
100
AcDb2dVertex
 10
51.427144
 20
47.359341
 30
0.0
  0
VERTEX
  5
38D
330
383
100
AcDbEntity
  8
001
 62
    40
370
    50
100
AcDbVertex
100
AcDb2dVertex
 10
51.453333
 20
47.391193
 30
0.0
  0
SEQEND
  5
384
330
383
100
AcDbEntity
  8
001
370
    50
  0
POLYLINE
  5
38E
330
25E
100
AcDbEntity
  8
001
 62
    40
370
    50
100
AcDb2dPolyline
 66
     1
 10
0.0
 20
0.0
 30
0.0
  0
VERTEX
  5
390
330
38E
100
AcDbEntity
  8
001
 62
    40
370
    50
100
AcDbVertex
100
AcDb2dVertex
 10
50.6085
 20
47.311699
 30
0.0
  0
VERTEX
  5
391
330
38E
100
AcDbEntity
  8
001
 62
    40
370
    50
100
AcDbVertex
100
AcDb2dVertex
 10
50.609914
 20
47.31118
 30
0.0
  0
VERTEX
  5
392
330
38E
100
AcDbEntity
  8
001
 62
    40
370
    50
100
AcDbVertex
100
AcDb2dVertex
 10
50.611959
 20
47.310439
 30
0.0
  0
VERTEX
  5
393
330
38E
100
AcDbEntity
  8
001
 62
    40
370
    50
100
AcDbVertex
100
AcDb2dVertex
 10
50.630466
 20
47.304433
 30
0.0
  0
VERTEX
  5
394
330
38E
100
AcDbEntity
  8
001
 62
    40
370
    50
100
AcDbVertex
100
AcDb2dVertex
 10
50.648016
 20
47.300827
 30
0.0
  0
VERTEX
  5
395
330
38E
100
AcDbEntity
  8
001
 62
    40
370
    50
100
AcDbVertex
100
AcDb2dVertex
 10
50.671176
 20
47.298181
 30
0.0
  0
VERTEX
  5
396
330
38E
100
AcDbEntity
  8
001
 62
    40
370
    50
100
AcDbVertex
100
AcDb2dVertex
 10
50.688717
 20
47.297149
 30
0.0
  0
SEQEND
  5
38F
330
38E
100
AcDbEntity
  8
001
370
    50
  0
LINE
  5
397
330
25E
100
AcDbEntity
  8
001
 62
    40
370
    50
100
AcDbLine
 10
50.688717
 20
47.297149
 30
0.0
 11
51.287537
 21
47.297148
 31
0.0
  0
LINE
  5
398
330
25E
100
AcDbEntity
  8
001
 62
    40
370
    50
100
AcDbLine
 10
46.772855
 20
58.66982
 30
0.0
 11
46.932517
 21
58.931331
 31
0.0
  0
POLYLINE
  5
399
330
25E
100
AcDbEntity
  8
001
 62
    40
370
    50
100
AcDb2dPolyline
 66
     1
 10
0.0
 20
0.0
 30
0.0
  0
VERTEX
  5
39B
330
399
100
AcDbEntity
  8
001
 62
    40
370
    50
100
AcDbVertex
100
AcDb2dVertex
 10
47.089048
 20
59.025375
 30
0.0
  0
VERTEX
  5
39C
330
399
100
AcDbEntity
  8
001
 62
    40
370
    50
100
AcDbVertex
100
AcDb2dVertex
 10
47.078981
 20
59.024934
 30
0.0
  0
VERTEX
  5
39D
330
399
100
AcDbEntity
  8
001
 62
    40
370
    50
100
AcDbVertex
100
AcDb2dVertex
 10
47.065012
 20
59.023574
 30
0.0
  0
VERTEX
  5
39E
330
399
100
AcDbEntity
  8
001
 62
    40
370
    50
100
AcDbVertex
100
AcDb2dVertex
 10
47.048528
 20
59.020376
 30
0.0
  0
VERTEX
  5
39F
330
399
100
AcDbEntity
  8
001
 62
    40
370
    50
100
AcDbVertex
100
AcDb2dVertex
 10
47.034213
 20
59.015912
 30
0.0
  0
VERTEX
  5
3A0
330
399
100
AcDbEntity
  8
001
 62
    40
370
    50
100
AcDbVertex
100
AcDb2dVertex
 10
46.992473
 20
58.995398
 30
0.0
  0
VERTEX
  5
3A1
330
399
100
AcDbEntity
  8
001
 62
    40
370
    50
100
AcDbVertex
100
AcDb2dVertex
 10
46.953418
 20
58.959988
 30
0.0
  0
VERTEX
  5
3A2
330
399
100
AcDbEntity
  8
001
 62
    40
370
    50
100
AcDbVertex
100
AcDb2dVertex
 10
46.940732
 20
58.943478
 30
0.0
  0
VERTEX
  5
3A3
330
399
100
AcDbEntity
  8
001
 62
    40
370
    50
100
AcDbVertex
100
AcDb2dVertex
 10
46.932517
 20
58.931331
 30
0.0
  0
SEQEND
  5
39A
330
399
100
AcDbEntity
  8
001
370
    50
  0
LINE
  5
3A4
330
25E
100
AcDbEntity
  8
001
 62
    40
370
    50
100
AcDbLine
 10
44.410428
 20
53.356673
 30
0.0
 11
45.994678
 21
55.951527
 31
0.0
  0
LINE
  5
3A5
330
25E
100
AcDbEntity
  8
001
 62
    40
370
    50
100
AcDbLine
 10
43.476586
 20
53.270835
 30
0.0
 11
45.553959
 21
56.673381
 31
0.0
  0
POLYLINE
  5
3A6
330
25E
100
AcDbEntity
  8
001
 62
    40
370
    50
100
AcDb2dPolyline
 66
     1
 10
0.0
 20
0.0
 30
0.0
  0
VERTEX
  5
3A8
330
3A6
100
AcDbEntity
  8
001
 62
    40
370
    50
100
AcDbVertex
100
AcDb2dVertex
 10
47.155229
 20
59.010825
 30
0.0
  0
VERTEX
  5
3A9
330
3A6
100
AcDbEntity
  8
001
 62
    40
370
    50
100
AcDbVertex
100
AcDb2dVertex
 10
47.143265
 20
59.015484
 30
0.0
  0
VERTEX
  5
3AA
330
3A6
100
AcDbEntity
  8
001
 62
    40
370
    50
100
AcDbVertex
100
AcDb2dVertex
 10
47.126902
 20
59.020782
 30
0.0
  0
VERTEX
  5
3AB
330
3A6
100
AcDbEntity
  8
001
 62
    40
370
    50
100
AcDbVertex
100
AcDb2dVertex
 10
47.112169
 20
59.023986
 30
0.0
  0
VERTEX
  5
3AC
330
3A6
100
AcDbEntity
  8
001
 62
    40
370
    50
100
AcDbVertex
100
AcDb2dVertex
 10
47.096225
 20
59.025214
 30
0.0
  0
VERTEX
  5
3AD
330
3A6
100
AcDbEntity
  8
001
 62
    40
370
    50
100
AcDbVertex
100
AcDb2dVertex
 10
47.092012
 20
59.02533
 30
0.0
  0
VERTEX
  5
3AE
330
3A6
100
AcDbEntity
  8
001
 62
    40
370
    50
100
AcDbVertex
100
AcDb2dVertex
 10
47.089048
 20
59.025375
 30
0.0
  0
SEQEND
  5
3A7
330
3A6
100
AcDbEntity
  8
001
370
    50
  0
LINE
  5
3AF
330
25E
100
AcDbEntity
  8
001
 62
    40
370
    50
100
AcDbLine
 10
47.238421
 20
59.025375
 30
0.0
 11
47.089048
 21
59.025375
 31
0.0
  0
POLYLINE
  5
3B0
330
25E
100
AcDbEntity
  8
001
 62
    40
370
    50
100
AcDb2dPolyline
 66
     1
 10
0.0
 20
0.0
 30
0.0
  0
VERTEX
  5
3B2
330
3B0
100
AcDbEntity
  8
001
 62
    40
370
    50
100
AcDbVertex
100
AcDb2dVertex
 10
42.262239
 20
51.263498
 30
0.0
  0
VERTEX
  5
3B3
330
3B0
100
AcDbEntity
  8
001
 62
    40
370
    50
100
AcDbVertex
100
AcDb2dVertex
 10
42.23951
 20
51.189195
 30
0.0
  0
VERTEX
  5
3B4
330
3B0
100
AcDbEntity
  8
001
 62
    40
370
    50
100
AcDbVertex
100
AcDb2dVertex
 10
42.222279
 20
51.113794
 30
0.0
  0
VERTEX
  5
3B5
330
3B0
100
AcDbEntity
  8
001
 62
    40
370
    50
100
AcDbVertex
100
AcDb2dVertex
 10
42.216528
 20
51.066806
 30
0.0
  0
VERTEX
  5
3B6
330
3B0
100
AcDbEntity
  8
001
 62
    40
370
    50
100
AcDbVertex
100
AcDb2dVertex
 10
42.214439
 20
51.019411
 30
0.0
  0
VERTEX
  5
3B7
330
3B0
100
AcDbEntity
  8
001
 62
    40
370
    50
100
AcDbVertex
100
AcDb2dVertex
 10
42.215665
 20
50.973219
 30
0.0
  0
VERTEX
  5
3B8
330
3B0
100
AcDbEntity
  8
001
 62
    40
370
    50
100
AcDbVertex
100
AcDb2dVertex
 10
42.22052
 20
50.92733
 30
0.0
  0
VERTEX
  5
3B9
330
3B0
100
AcDbEntity
  8
001
 62
    40
370
    50
100
AcDbVertex
100
AcDb2dVertex
 10
42.233057
 20
50.869383
 30
0.0
  0
VERTEX
  5
3BA
330
3B0
100
AcDbEntity
  8
001
 62
    40
370
    50
100
AcDbVertex
100
AcDb2dVertex
 10
42.254027
 20
50.813596
 30
0.0
  0
VERTEX
  5
3BB
330
3B0
100
AcDbEntity
  8
001
 62
    40
370
    50
100
AcDbVertex
100
AcDb2dVertex
 10
42.274347
 20
50.777531
 30
0.0
  0
VERTEX
  5
3BC
330
3B0
100
AcDbEntity
  8
001
 62
    40
370
    50
100
AcDbVertex
100
AcDb2dVertex
 10
42.300906
 20
50.746623
 30
0.0
  0
VERTEX
  5
3BD
330
3B0
100
AcDbEntity
  8
001
 62
    40
370
    50
100
AcDbVertex
100
AcDb2dVertex
 10
42.321752
 20
50.730615
 30
0.0
  0
VERTEX
  5
3BE
330
3B0
100
AcDbEntity
  8
001
 62
    40
370
    50
100
AcDbVertex
100
AcDb2dVertex
 10
42.344218
 20
50.716428
 30
0.0
  0
SEQEND
  5
3B1
330
3B0
100
AcDbEntity
  8
001
370
    50
  0
LINE
  5
3BF
330
25E
100
AcDbEntity
  8
001
 62
    40
370
    50
100
AcDbLine
 10
42.698408
 20
50.552542
 30
0.0
 11
42.344218
 21
50.716428
 31
0.0
  0
LINE
  5
3C0
330
25E
100
AcDbEntity
  8
001
 62
    40
370
    50
100
AcDbLine
 10
42.214326
 20
50.752548
 30
0.0
 11
49.92478
 21
47.566867
 31
0.0
  0
ENDBLK
  5
260
330
25E
100
AcDbEntity
  8
0
100
AcDbBlockEnd
  0
BLOCK
  5
3C2
330
3C1
100
AcDbEntity
  8
0
100
AcDbBlockBegin
  2
*D3
 70
     1
 10
0.0
 20
0.0
 30
0.0
  3
*D3
  1

  0
LINE
  5
3C4
330
3C1
100
AcDbEntity
  8
001
370
     9
100
AcDbLine
 10
72.214326
 20
47.290059
 30
0.0
 11
72.214326
 21
18.457708
 31
0.0
  0
LINE
  5
3C5
330
3C1
100
AcDbEntity
  8
001
370
     9
100
AcDbLine
 10
42.214326
 20
41.796298
 30
0.0
 11
42.214326
 21
18.457708
 31
0.0
  0
LINE
  5
3C6
330
3C1
100
AcDbEntity
  8
001
370
     9
100
AcDbLine
 10
72.214326
 20
21.207708
 30
0.0
 11
42.214326
 21
21.207708
 31
0.0
  0
POLYLINE
  5
3C7
330
3C1
100
AcDbEntity
  8
001
370
     9
100
AcDb2dPolyline
 66
     1
 10
0.0
 20
0.0
 30
0.0
  0
VERTEX
  5
3C9
330
3C7
100
AcDbEntity
  8
001
370
     9
100
AcDbVertex
100
AcDb2dVertex
 10
70.714326
 20
21.609631
 30
0.0
  0
VERTEX
  5
3CA
330
3C7
100
AcDbEntity
  8
001
370
     9
100
AcDbVertex
100
AcDb2dVertex
 10
72.214326
 20
21.207708
 30
0.0
  0
VERTEX
  5
3CB
330
3C7
100
AcDbEntity
  8
001
370
     9
100
AcDbVertex
100
AcDb2dVertex
 10
70.714326
 20
20.805784
 30
0.0
  0
SEQEND
  5
3C8
330
3C7
100
AcDbEntity
  8
001
370
     9
  0
POLYLINE
  5
3CC
330
3C1
100
AcDbEntity
  8
001
370
     9
100
AcDb2dPolyline
 66
     1
 10
0.0
 20
0.0
 30
0.0
  0
VERTEX
  5
3CE
330
3CC
100
AcDbEntity
  8
001
370
     9
100
AcDbVertex
100
AcDb2dVertex
 10
43.714326
 20
20.805784
 30
0.0
  0
VERTEX
  5
3CF
330
3CC
100
AcDbEntity
  8
001
370
     9
100
AcDbVertex
100
AcDb2dVertex
 10
42.214326
 20
21.207708
 30
0.0
  0
VERTEX
  5
3D0
330
3CC
100
AcDbEntity
  8
001
370
     9
100
AcDbVertex
100
AcDb2dVertex
 10
43.714326
 20
21.609631
 30
0.0
  0
SEQEND
  5
3CD
330
3CC
100
AcDbEntity
  8
001
370
     9
  0
TEXT
  5
3D1
330
3C1
100
AcDbEntity
  8
001
370
    30
100
AcDbText
 10
56.963428
 20
22.207708
 30
0.0
 40
4.0
  1
３０
 41
0.833333
100
AcDbText
  0
POINT
  5
3D2
330
3C1
100
AcDbEntity
  8
001
370
     9
100
AcDbPoint
 10
72.214326
 20
47.290059
 30
0.0
  0
POINT
  5
3D3
330
3C1
100
AcDbEntity
  8
001
370
     9
100
AcDbPoint
 10
42.214326
 20
41.796298
 30
0.0
  0
POINT
  5
3D4
330
3C1
100
AcDbEntity
  8
001
370
     9
100
AcDbPoint
 10
42.214326
 20
21.207708
 30
0.0
  0
ENDBLK
  5
3C3
330
3C1
100
AcDbEntity
  8
0
100
AcDbBlockEnd
  0
BLOCK
  5
3D6
330
3D5
100
AcDbEntity
  8
0
100
AcDbBlockBegin
  2
*D4
 70
     1
 10
0.0
 20
0.0
 30
0.0
  3
*D4
  1

  0
LINE
  5
3D8
330
3D5
100
AcDbEntity
  8
001
370
     9
100
AcDbLine
 10
49.92478
 20
47.566867
 30
0.0
 11
68.665102
 21
39.824044
 31
0.0
  0
LINE
  5
3D9
330
3D5
100
AcDbEntity
  8
001
370
     9
100
AcDbLine
 10
42.214326
 20
41.796298
 30
0.0
 11
42.214326
 21
22.133047
 31
0.0
  0
ARC
  5
3DA
330
3D5
100
AcDbEntity
  8
001
370
     9
100
AcDbCircle
 10
42.214326
 20
50.752548
 30
0.0
 40
25.86950019219904
100
AcDbArc
 50
270.0
 51
337.551357
  0
POLYLINE
  5
3DB
330
3D5
100
AcDbEntity
  8
001
370
     9
100
AcDb2dPolyline
 66
     1
 10
0.0
 20
0.0
 30
0.0
  0
VERTEX
  5
3DD
330
3DB
100
AcDbEntity
  8
001
370
     9
100
AcDbVertex
100
AcDb2dVertex
 10
67.031607
 20
42.133856
 30
0.0
  0
VERTEX
  5
3DE
330
3DB
100
AcDbEntity
  8
001
370
     9
100
AcDbVertex
100
AcDb2dVertex
 10
66.123491
 20
40.874146
 30
0.0
  0
VERTEX
  5
3DF
330
3DB
100
AcDbEntity
  8
001
370
     9
100
AcDbVertex
100
AcDb2dVertex
 10
66.280087
 20
42.419144
 30
0.0
  0
SEQEND
  5
3DC
330
3DB
100
AcDbEntity
  8
001
370
     9
  0
POLYLINE
  5
3E0
330
3D5
100
AcDbEntity
  8
001
370
     9
100
AcDb2dPolyline
 66
     1
 10
0.0
 20
0.0
 30
0.0
  0
VERTEX
  5
3E2
330
3E0
100
AcDbEntity
  8
001
370
     9
100
AcDbVertex
100
AcDb2dVertex
 10
40.726607
 20
25.328284
 30
0.0
  0
VERTEX
  5
3E3
330
3E0
100
AcDbEntity
  8
001
370
     9
100
AcDbVertex
100
AcDb2dVertex
 10
42.214326
 20
24.883047
 30
0.0
  0
VERTEX
  5
3E4
330
3E0
100
AcDbEntity
  8
001
370
     9
100
AcDbVertex
100
AcDb2dVertex
 10
40.703305
 20
24.524774
 30
0.0
  0
SEQEND
  5
3E1
330
3E0
100
AcDbEntity
  8
001
370
     9
  0
TEXT
  5
3E5
330
3D5
100
AcDbEntity
  8
001
370
    30
100
AcDbText
 10
56.108703
 20
29.271432
 30
0.0
 40
4.0
  1
６５%%d
 50
46.459466
 41
0.978261
100
AcDbText
  0
POINT
  5
3E6
330
3D5
100
AcDbEntity
  8
001
370
     9
100
AcDbPoint
 10
49.92478
 20
47.566867
 30
0.0
  0
POINT
  5
3E7
330
3D5
100
AcDbEntity
  8
001
370
     9
100
AcDbPoint
 10
42.214326
 20
50.752548
 30
0.0
  0
POINT
  5
3E8
330
3D5
100
AcDbEntity
  8
001
370
     9
100
AcDbPoint
 10
42.214326
 20
50.752548
 30
0.0
  0
POINT
  5
3E9
330
3D5
100
AcDbEntity
  8
001
370
     9
100
AcDbPoint
 10
42.214326
 20
41.796298
 30
0.0
  0
ARC
  5
3EA
330
3D5
100
AcDbEntity
  8
001
370
     9
100
AcDbCircle
 10
42.214326
 20
50.752548
 30
0.0
 40
25.86950019219904
100
AcDbArc
 50
264.462999
 51
270.0
  0
ARC
  5
3EB
330
3D5
100
AcDbEntity
  8
001
370
     9
100
AcDbCircle
 10
42.214326
 20
50.752548
 30
0.0
 40
25.86950019219904
100
AcDbArc
 50
337.551357
 51
343.088358
  0
ENDBLK
  5
3D7
330
3D5
100
AcDbEntity
  8
0
100
AcDbBlockEnd
  0
BLOCK
  5
3ED
330
3EC
100
AcDbEntity
  8
0
100
AcDbBlockBegin
  2
*D5
 70
     1
 10
0.0
 20
0.0
 30
0.0
  3
*D5
  1

  0
LINE
  5
3EF
330
3EC
100
AcDbEntity
  8
001
370
     9
100
AcDbLine
 10
42.214326
 20
41.796298
 30
0.0
 11
42.214326
 21
28.414028
 31
0.0
  0
LINE
  5
3F0
330
3EC
100
AcDbEntity
  8
001
370
     9
100
AcDbLine
 10
50.577592
 20
47.297149
 30
0.0
 11
50.577592
 21
28.414028
 31
0.0
  0
LINE
  5
3F1
330
3EC
100
AcDbEntity
  8
001
370
     9
100
AcDbLine
 10
42.214326
 20
31.164028
 30
0.0
 11
50.577592
 21
31.164028
 31
0.0
  0
POLYLINE
  5
3F2
330
3EC
100
AcDbEntity
  8
001
370
     9
100
AcDb2dPolyline
 66
     1
 10
0.0
 20
0.0
 30
0.0
  0
VERTEX
  5
3F4
330
3F2
100
AcDbEntity
  8
001
370
     9
100
AcDbVertex
100
AcDb2dVertex
 10
40.714326
 20
31.565952
 30
0.0
  0
VERTEX
  5
3F5
330
3F2
100
AcDbEntity
  8
001
370
     9
100
AcDbVertex
100
AcDb2dVertex
 10
42.214326
 20
31.164028
 30
0.0
  0
VERTEX
  5
3F6
330
3F2
100
AcDbEntity
  8
001
370
     9
100
AcDbVertex
100
AcDb2dVertex
 10
40.714326
 20
30.762105
 30
0.0
  0
SEQEND
  5
3F3
330
3F2
100
AcDbEntity
  8
001
370
     9
  0
POLYLINE
  5
3F7
330
3EC
100
AcDbEntity
  8
001
370
     9
100
AcDb2dPolyline
 66
     1
 10
0.0
 20
0.0
 30
0.0
  0
VERTEX
  5
3F9
330
3F7
100
AcDbEntity
  8
001
370
     9
100
AcDbVertex
100
AcDb2dVertex
 10
52.077592
 20
30.762105
 30
0.0
  0
VERTEX
  5
3FA
330
3F7
100
AcDbEntity
  8
001
370
     9
100
AcDbVertex
100
AcDb2dVertex
 10
50.577592
 20
31.164028
 30
0.0
  0
VERTEX
  5
3FB
330
3F7
100
AcDbEntity
  8
001
370
     9
100
AcDbVertex
100
AcDb2dVertex
 10
52.077592
 20
31.565952
 30
0.0
  0
SEQEND
  5
3F8
330
3F7
100
AcDbEntity
  8
001
370
     9
  0
TEXT
  5
3FC
330
3EC
100
AcDbEntity
  8
001
370
    30
100
AcDbText
 10
18.714326
 20
32.164028
 30
0.0
 40
4.0
  1
（８．４）
 41
0.833333
100
AcDbText
  0
POINT
  5
3FD
330
3EC
100
AcDbEntity
  8
001
370
     9
100
AcDbPoint
 10
42.214326
 20
41.796298
 30
0.0
  0
POINT
  5
3FE
330
3EC
100
AcDbEntity
  8
001
370
     9
100
AcDbPoint
 10
50.577592
 20
47.297149
 30
0.0
  0
POINT
  5
3FF
330
3EC
100
AcDbEntity
  8
001
370
     9
100
AcDbPoint
 10
50.577592
 20
31.164028
 30
0.0
  0
LINE
  5
400
330
3EC
100
AcDbEntity
  8
001
370
     9
100
AcDbLine
 10
42.214326
 20
31.164028
 30
0.0
 11
15.714326
 21
31.164028
 31
0.0
  0
LINE
  5
401
330
3EC
100
AcDbEntity
  8
001
370
     9
100
AcDbLine
 10
50.577592
 20
31.164028
 30
0.0
 11
53.077592
 21
31.164028
 31
0.0
  0
ENDBLK
  5
3EE
330
3EC
100
AcDbEntity
  8
0
100
AcDbBlockEnd
  0
BLOCK
  5
403
330
402
100
AcDbEntity
  8
0
100
AcDbBlockBegin
  2
*D6
 70
     1
 10
0.0
 20
0.0
 30
0.0
  3
*D6
  1

  0
LINE
  5
405
330
402
100
AcDbEntity
  8
001
370
     9
100
AcDbLine
 10
42.214326
 20
41.796298
 30
0.0
 11
42.214326
 21
7.78669
 31
0.0
  0
LINE
  5
406
330
402
100
AcDbEntity
  8
001
370
     9
100
AcDbLine
 10
167.214326
 20
50.290059
 30
0.0
 11
167.214326
 21
7.78669
 31
0.0
  0
LINE
  5
407
330
402
100
AcDbEntity
  8
001
370
     9
100
AcDbLine
 10
42.214326
 20
10.53669
 30
0.0
 11
167.214326
 21
10.53669
 31
0.0
  0
POLYLINE
  5
408
330
402
100
AcDbEntity
  8
001
370
     9
100
AcDb2dPolyline
 66
     1
 10
0.0
 20
0.0
 30
0.0
  0
VERTEX
  5
40A
330
408
100
AcDbEntity
  8
001
370
     9
100
AcDbVertex
100
AcDb2dVertex
 10
43.714326
 20
10.134766
 30
0.0
  0
VERTEX
  5
40B
330
408
100
AcDbEntity
  8
001
370
     9
100
AcDbVertex
100
AcDb2dVertex
 10
42.214326
 20
10.53669
 30
0.0
  0
VERTEX
  5
40C
330
408
100
AcDbEntity
  8
001
370
     9
100
AcDbVertex
100
AcDb2dVertex
 10
43.714326
 20
10.938613
 30
0.0
  0
SEQEND
  5
409
330
408
100
AcDbEntity
  8
001
370
     9
  0
POLYLINE
  5
40D
330
402
100
AcDbEntity
  8
001
370
     9
100
AcDb2dPolyline
 66
     1
 10
0.0
 20
0.0
 30
0.0
  0
VERTEX
  5
40F
330
40D
100
AcDbEntity
  8
001
370
     9
100
AcDbVertex
100
AcDb2dVertex
 10
165.714326
 20
10.938613
 30
0.0
  0
VERTEX
  5
410
330
40D
100
AcDbEntity
  8
001
370
     9
100
AcDbVertex
100
AcDb2dVertex
 10
167.214326
 20
10.53669
 30
0.0
  0
VERTEX
  5
411
330
40D
100
AcDbEntity
  8
001
370
     9
100
AcDbVertex
100
AcDb2dVertex
 10
165.714326
 20
10.134766
 30
0.0
  0
SEQEND
  5
40E
330
40D
100
AcDbEntity
  8
001
370
     9
  0
TEXT
  5
412
330
402
100
AcDbEntity
  8
001
370
    30
100
AcDbText
 10
98.714326
 20
11.53669
 30
0.0
 40
4.0
  1
１２５
 41
0.833333
100
AcDbText
  0
POINT
  5
413
330
402
100
AcDbEntity
  8
001
370
     9
100
AcDbPoint
 10
42.214326
 20
41.796298
 30
0.0
  0
POINT
  5
414
330
402
100
AcDbEntity
  8
001
370
     9
100
AcDbPoint
 10
167.214326
 20
50.290059
 30
0.0
  0
POINT
  5
415
330
402
100
AcDbEntity
  8
001
370
     9
100
AcDbPoint
 10
167.214326
 20
10.53669
 30
0.0
  0
ENDBLK
  5
404
330
402
100
AcDbEntity
  8
0
100
AcDbBlockEnd
  0
BLOCK
  5
417
330
416
100
AcDbEntity
  8
0
100
AcDbBlockBegin
  2
*D7
 70
     1
 10
0.0
 20
0.0
 30
0.0
  3
*D7
  1

  0
LINE
  5
419
330
416
100
AcDbEntity
  8
001
370
     9
100
AcDbLine
 10
167.214326
 20
50.290059
 30
0.0
 11
167.214326
 21
18.457708
 31
0.0
  0
LINE
  5
41A
330
416
100
AcDbEntity
  8
001
370
     9
100
AcDbLine
 10
72.214326
 20
46.590059
 30
0.0
 11
72.214326
 21
18.457708
 31
0.0
  0
LINE
  5
41B
330
416
100
AcDbEntity
  8
001
370
     9
100
AcDbLine
 10
167.214326
 20
21.207708
 30
0.0
 11
72.214326
 21
21.207708
 31
0.0
  0
POLYLINE
  5
41C
330
416
100
AcDbEntity
  8
001
370
     9
100
AcDb2dPolyline
 66
     1
 10
0.0
 20
0.0
 30
0.0
  0
VERTEX
  5
41E
330
41C
100
AcDbEntity
  8
001
370
     9
100
AcDbVertex
100
AcDb2dVertex
 10
165.714326
 20
21.609631
 30
0.0
  0
VERTEX
  5
41F
330
41C
100
AcDbEntity
  8
001
370
     9
100
AcDbVertex
100
AcDb2dVertex
 10
167.214326
 20
21.207708
 30
0.0
  0
VERTEX
  5
420
330
41C
100
AcDbEntity
  8
001
370
     9
100
AcDbVertex
100
AcDb2dVertex
 10
165.714326
 20
20.805784
 30
0.0
  0
SEQEND
  5
41D
330
41C
100
AcDbEntity
  8
001
370
     9
  0
POLYLINE
  5
421
330
416
100
AcDbEntity
  8
001
370
     9
100
AcDb2dPolyline
 66
     1
 10
0.0
 20
0.0
 30
0.0
  0
VERTEX
  5
423
330
421
100
AcDbEntity
  8
001
370
     9
100
AcDbVertex
100
AcDb2dVertex
 10
73.714326
 20
20.805784
 30
0.0
  0
VERTEX
  5
424
330
421
100
AcDbEntity
  8
001
370
     9
100
AcDbVertex
100
AcDb2dVertex
 10
72.214326
 20
21.207708
 30
0.0
  0
VERTEX
  5
425
330
421
100
AcDbEntity
  8
001
370
     9
100
AcDbVertex
100
AcDb2dVertex
 10
73.714326
 20
21.609631
 30
0.0
  0
SEQEND
  5
422
330
421
100
AcDbEntity
  8
001
370
     9
  0
TEXT
  5
426
330
416
100
AcDbEntity
  8
001
370
    30
100
AcDbText
 10
115.714326
 20
22.207708
 30
0.0
 40
4.0
  1
９５
 41
0.833333
100
AcDbText
  0
POINT
  5
427
330
416
100
AcDbEntity
  8
001
370
     9
100
AcDbPoint
 10
167.214326
 20
50.290059
 30
0.0
  0
POINT
  5
428
330
416
100
AcDbEntity
  8
001
370
     9
100
AcDbPoint
 10
72.214326
 20
46.590059
 30
0.0
  0
POINT
  5
429
330
416
100
AcDbEntity
  8
001
370
     9
100
AcDbPoint
 10
72.214326
 20
21.207708
 30
0.0
  0
ENDBLK
  5
418
330
416
100
AcDbEntity
  8
0
100
AcDbBlockEnd
  0
BLOCK
  5
42B
330
42A
100
AcDbEntity
  8
0
100
AcDbBlockBegin
  2
*D8
 70
     1
 10
0.0
 20
0.0
 30
0.0
  3
*D8
  1

  0
LINE
  5
42D
330
42A
100
AcDbEntity
  8
001
370
     9
100
AcDbLine
 10
161.214326
 20
64.290059
 30
0.0
 11
192.620216
 21
64.290059
 31
0.0
  0
LINE
  5
42E
330
42A
100
AcDbEntity
  8
001
370
     9
100
AcDbLine
 10
161.214326
 20
44.290059
 30
0.0
 11
192.620216
 21
44.290059
 31
0.0
  0
LINE
  5
42F
330
42A
100
AcDbEntity
  8
001
370
     9
100
AcDbLine
 10
189.870216
 20
64.290059
 30
0.0
 11
189.870216
 21
44.290059
 31
0.0
  0
POLYLINE
  5
430
330
42A
100
AcDbEntity
  8
001
370
     9
100
AcDb2dPolyline
 66
     1
 10
0.0
 20
0.0
 30
0.0
  0
VERTEX
  5
432
330
430
100
AcDbEntity
  8
001
370
     9
100
AcDbVertex
100
AcDb2dVertex
 10
189.468292
 20
62.790059
 30
0.0
  0
VERTEX
  5
433
330
430
100
AcDbEntity
  8
001
370
     9
100
AcDbVertex
100
AcDb2dVertex
 10
189.870216
 20
64.290059
 30
0.0
  0
VERTEX
  5
434
330
430
100
AcDbEntity
  8
001
370
     9
100
AcDbVertex
100
AcDb2dVertex
 10
190.27214
 20
62.790059
 30
0.0
  0
SEQEND
  5
431
330
430
100
AcDbEntity
  8
001
370
     9
  0
POLYLINE
  5
435
330
42A
100
AcDbEntity
  8
001
370
     9
100
AcDb2dPolyline
 66
     1
 10
0.0
 20
0.0
 30
0.0
  0
VERTEX
  5
437
330
435
100
AcDbEntity
  8
001
370
     9
100
AcDbVertex
100
AcDb2dVertex
 10
190.27214
 20
45.790059
 30
0.0
  0
VERTEX
  5
438
330
435
100
AcDbEntity
  8
001
370
     9
100
AcDbVertex
100
AcDb2dVertex
 10
189.870216
 20
44.290059
 30
0.0
  0
VERTEX
  5
439
330
435
100
AcDbEntity
  8
001
370
     9
100
AcDbVertex
100
AcDb2dVertex
 10
189.468292
 20
45.790059
 30
0.0
  0
SEQEND
  5
436
330
435
100
AcDbEntity
  8
001
370
     9
  0
TEXT
  5
43A
330
42A
100
AcDbEntity
  8
001
370
    30
100
AcDbText
 10
188.870216
 20
28.790059
 30
0.0
 40
4.0
  1
%%c２０
 50
90.000003
 41
0.882353
100
AcDbText
  0
POINT
  5
43B
330
42A
100
AcDbEntity
  8
001
370
     9
100
AcDbPoint
 10
161.214326
 20
64.290059
 30
0.0
  0
POINT
  5
43C
330
42A
100
AcDbEntity
  8
001
370
     9
100
AcDbPoint
 10
161.214326
 20
44.290059
 30
0.0
  0
POINT
  5
43D
330
42A
100
AcDbEntity
  8
001
370
     9
100
AcDbPoint
 10
189.870216
 20
44.290059
 30
0.0
  0
LINE
  5
43E
330
42A
100
AcDbEntity
  8
001
370
     9
100
AcDbLine
 10
189.870216
 20
44.290059
 30
0.0
 11
189.870216
 21
25.790059
 31
0.0
  0
ENDBLK
  5
42C
330
42A
100
AcDbEntity
  8
0
100
AcDbBlockEnd
  0
ENDSEC
  0
SECTION
  2
ENTITIES
  0
INSERT
  5
43F
330
1F
100
AcDbEntity
  8
001
  6
ByBlock
 62
     0
370
    -2
100
AcDbBlockReference
  2
M-1-1
 10
0.0
 20
0.0
 30
0.0
  0
INSERT
  5
440
330
1F
100
AcDbEntity
  8
001
  6
ByBlock
 62
     0
370
    -2
100
AcDbBlockReference
  2
C32GUX-2
 10
0.0
 20
0.0
 30
0.0
  0
DIMENSION
  5
441
330
1F
100
AcDbEntity
  8
001
370
     9
100
AcDbDimension
  2
*D3
 10
42.214326
 20
21.207708
 30
0.0
 11
60.963428
 21
24.207708
 31
0.0
 70
   160
 71
     5
 42
-1.0
  3
Standard
100
AcDbAlignedDimension
 13
72.214326
 23
47.290059
 33
0.0
 14
42.214326
 24
41.796298
 34
0.0
 50
180.0
100
AcDbRotatedDimension
  0
DIMENSION
  5
442
330
1F
100
AcDbEntity
  8
001
370
     9
100
AcDbDimension
  2
*D4
 10
42.214326
 20
50.752548
 30
0.0
 11
58.792134
 21
34.99849
 31
0.0
 70
    34
 71
     5
 42
-1.0
  3
Standard
100
AcDb2LineAngularDimension
 13
49.92478
 23
47.566867
 33
0.0
 14
42.214326
 24
50.752548
 34
0.0
 15
42.214326
 25
41.796298
 35
0.0
 16
56.596289
 26
29.249288
 36
0.0
  0
DIMENSION
  5
443
330
1F
100
AcDbEntity
  8
001
370
     9
100
AcDbDimension
  2
*D5
 10
50.577592
 20
31.164028
 30
0.0
 11
28.714326
 21
34.164028
 31
0.0
 70
   160
 71
     5
 42
-1.0
  3
Standard
100
AcDbAlignedDimension
 13
42.214326
 23
41.796298
 33
0.0
 14
50.577592
 24
47.297149
 34
0.0
 50
360.0
100
AcDbRotatedDimension
  0
TEXT
  5
444
330
1F
100
AcDbEntity
  8
001
370
    30
100
AcDbText
 10
24.991776
 20
54.745077
 30
0.0
 40
4.0
  1
%%c７．９９
 50
90.000003
 41
0.862069
100
AcDbText
  0
POLYLINE
  5
445
330
1F
100
AcDbEntity
  8
001
370
     9
100
AcDb2dPolyline
 66
     1
 10
0.0
 20
0.0
 30
0.0
  0
VERTEX
  5
447
330
445
100
AcDbEntity
  8
001
370
     9
100
AcDbVertex
100
AcDb2dVertex
 10
26.3937
 20
52.252548
 30
0.0
  0
VERTEX
  5
448
330
445
100
AcDbEntity
  8
001
370
     9
100
AcDbVertex
100
AcDb2dVertex
 10
25.991776
 20
50.752548
 30
0.0
  0
VERTEX
  5
449
330
445
100
AcDbEntity
  8
001
370
     9
100
AcDbVertex
100
AcDb2dVertex
 10
25.589852
 20
52.252548
 30
0.0
  0
SEQEND
  5
446
330
445
100
AcDbEntity
  8
001
370
     9
  0
LINE
  5
44A
330
1F
100
AcDbEntity
  8
001
370
     9
100
AcDbLine
 10
25.991776
 20
50.752548
 30
0.0
 11
25.991776
 21
58.737607
 31
0.0
  0
POLYLINE
  5
44B
330
1F
100
AcDbEntity
  8
001
370
     9
100
AcDb2dPolyline
 66
     1
 10
0.0
 20
0.0
 30
0.0
  0
VERTEX
  5
44D
330
44B
100
AcDbEntity
  8
001
370
     9
100
AcDbVertex
100
AcDb2dVertex
 10
42.214326
 20
50.752548
 30
0.0
  0
VERTEX
  5
44E
330
44B
100
AcDbEntity
  8
001
370
     9
100
AcDbVertex
100
AcDb2dVertex
 10
25.991776
 20
50.752548
 30
0.0
  0
VERTEX
  5
44F
330
44B
100
AcDbEntity
  8
001
370
     9
100
AcDbVertex
100
AcDb2dVertex
 10
23.241776
 20
50.752548
 30
0.0
  0
SEQEND
  5
44C
330
44B
100
AcDbEntity
  8
001
370
     9
  0
DIMENSION
  5
450
330
1F
100
AcDbEntity
  8
001
370
     9
100
AcDbDimension
  2
*D6
 10
167.214326
 20
10.53669
 30
0.0
 11
104.714326
 21
13.53669
 31
0.0
 70
   160
 71
     5
 42
-1.0
  3
Standard
100
AcDbAlignedDimension
 13
42.214326
 23
41.796298
 33
0.0
 14
167.214326
 24
50.290059
 34
0.0
100
AcDbRotatedDimension
  0
DIMENSION
  5
451
330
1F
100
AcDbEntity
  8
001
370
     9
100
AcDbDimension
  2
*D7
 10
72.214326
 20
21.207708
 30
0.0
 11
119.714326
 21
24.207708
 31
0.0
 70
   160
 71
     5
 42
-1.0
  3
Standard
100
AcDbAlignedDimension
 13
167.214326
 23
50.290059
 33
0.0
 14
72.214326
 24
46.590059
 34
0.0
 50
180.0
100
AcDbRotatedDimension
  0
TEXT
  5
452
330
1F
100
AcDbEntity
  8
001
370
    30
100
AcDbText
 10
12.900118
 20
49.677411
 30
0.0
 40
4.0
  1
%%c１５．４９
 50
90.000003
 41
0.857143
100
AcDbText
  0
POLYLINE
  5
453
330
1F
100
AcDbEntity
  8
001
370
     9
100
AcDb2dPolyline
 66
     1
 10
0.0
 20
0.0
 30
0.0
  0
VERTEX
  5
455
330
453
100
AcDbEntity
  8
001
370
     9
100
AcDbVertex
100
AcDb2dVertex
 10
14.302042
 20
48.797149
 30
0.0
  0
VERTEX
  5
456
330
453
100
AcDbEntity
  8
001
370
     9
100
AcDbVertex
100
AcDb2dVertex
 10
13.900118
 20
47.297149
 30
0.0
  0
VERTEX
  5
457
330
453
100
AcDbEntity
  8
001
370
     9
100
AcDbVertex
100
AcDb2dVertex
 10
13.498194
 20
48.797149
 30
0.0
  0
SEQEND
  5
454
330
453
100
AcDbEntity
  8
001
370
     9
  0
LINE
  5
458
330
1F
100
AcDbEntity
  8
001
370
     9
100
AcDbLine
 10
13.900118
 20
47.297149
 30
0.0
 11
13.900118
 21
62.786868
 31
0.0
  0
POLYLINE
  5
459
330
1F
100
AcDbEntity
  8
001
370
     9
100
AcDb2dPolyline
 66
     1
 10
0.0
 20
0.0
 30
0.0
  0
VERTEX
  5
45B
330
459
100
AcDbEntity
  8
001
370
     9
100
AcDbVertex
100
AcDb2dVertex
 10
50.688717
 20
47.297149
 30
0.0
  0
VERTEX
  5
45C
330
459
100
AcDbEntity
  8
001
370
     9
100
AcDbVertex
100
AcDb2dVertex
 10
13.900118
 20
47.297149
 30
0.0
  0
VERTEX
  5
45D
330
459
100
AcDbEntity
  8
001
370
     9
100
AcDbVertex
100
AcDb2dVertex
 10
11.150118
 20
47.297149
 30
0.0
  0
SEQEND
  5
45A
330
459
100
AcDbEntity
  8
001
370
     9
  0
DIMENSION
  5
45E
330
1F
100
AcDbEntity
  8
001
370
     9
100
AcDbDimension
  2
*D8
 10
189.870216
 20
44.290059
 30
0.0
 11
186.870216
 21
34.790059
 31
0.0
 70
   160
 71
     5
 42
-1.0
  3
Standard
100
AcDbAlignedDimension
 13
161.214326
 23
64.290059
 33
0.0
 14
161.214326
 24
44.290059
 34
0.0
 50
270.0
100
AcDbRotatedDimension
  0
TEXT
  5
45F
330
1F
100
AcDbEntity
  8
001
370
    30
100
AcDbText
 10
42.388511
 20
83.346612
 30
0.0
 40
8.0
  1
面取りカッター面面　ＳＮＫ６５１５Ｃ
 41
0.833333
100
AcDbText
  0
LINE
  5
460
330
1F
100
AcDbEntity
  8
001
370
    50
100
AcDbLine
 10
167.214326
 20
54.290059
 30
0.0
 11
170.993233
 21
56.471813
 31
0.0
  0
LINE
  5
461
330
1F
100
AcDbEntity
  8
001
370
    50
100
AcDbLine
 10
167.214326
 20
54.290059
 30
0.0
 11
170.993233
 21
52.108306
 31
0.0
  0
LINE
  5
462
330
1F
100
AcDbEntity
  8
001
  6
CENTER
 62
   253
370
     9
100
AcDbLine
 10
39.066055
 20
54.290059
 30
0.0
 11
178.872127
 21
54.290059
 31
0.0
  0
LINE
  5
463
330
1F
100
AcDbEntity
  8
001
 62
   253
370
    50
100
AcDbLine
 10
161.214326
 20
64.290059
 30
0.0
 11
75.214326
 21
64.290059
 31
0.0
  0
LINE
  5
464
330
1F
100
AcDbEntity
  8
001
 62
   253
370
    50
100
AcDbLine
 10
161.214326
 20
44.290059
 30
0.0
 11
75.214326
 21
44.290059
 31
0.0
  0
LINE
  5
465
330
1F
100
AcDbEntity
  8
001
 62
   253
370
    50
100
AcDbLine
 10
75.214326
 20
64.290059
 30
0.0
 11
75.214326
 21
44.290059
 31
0.0
  0
ARC
  5
466
330
1F
100
AcDbEntity
  8
001
 62
   253
370
    50
100
AcDbCircle
 10
161.214326
 20
58.290059
 30
0.0
 40
6.0
100
AcDbArc
 50
0.0
 51
90.0
  0
ARC
  5
467
330
1F
100
AcDbEntity
  8
001
 62
   253
370
    50
100
AcDbCircle
 10
161.214326
 20
50.290059
 30
0.0
 40
6.0
100
AcDbArc
 50
270.0
 51
0.0
  0
LINE
  5
468
330
1F
100
AcDbEntity
  8
001
 62
   253
370
    50
100
AcDbLine
 10
167.214326
 20
58.290059
 30
0.0
 11
167.214326
 21
50.290059
 31
0.0
  0
LINE
  5
469
330
1F
100
AcDbEntity
  8
001
 62
   253
370
    50
100
AcDbLine
 10
75.214326
 20
64.290059
 30
0.0
 11
72.214326
 21
61.290059
 31
0.0
  0
LINE
  5
46A
330
1F
100
AcDbEntity
  8
001
 62
   253
370
    50
100
AcDbLine
 10
72.214326
 20
47.290059
 30
0.0
 11
75.214326
 21
44.290059
 31
0.0
  0
LINE
  5
46B
330
1F
100
AcDbEntity
  8
001
 62
   253
370
    50
100
AcDbLine
 10
72.214326
 20
61.290059
 30
0.0
 11
72.214326
 21
47.290059
 31
0.0
  0
LINE
  5
46C
330
1F
100
AcDbEntity
  8
001
 62
   253
370
    50
100
AcDbLine
 10
51.796771
 20
61.290059
 30
0.0
 11
51.796771
 21
60.221007
 31
0.0
  0
LINE
  5
46D
330
1F
100
AcDbEntity
  8
001
 62
   253
370
    50
100
AcDbLine
 10
72.214326
 20
61.290059
 30
0.0
 11
51.796771
 21
61.290059
 31
0.0
  0
LINE
  5
46E
330
1F
100
AcDbEntity
  8
001
 62
   253
370
    50
100
AcDbLine
 10
51.796771
 20
47.290059
 30
0.0
 11
72.214326
 21
47.290059
 31
0.0
  0
POLYLINE
  5
46F
330
1F
100
AcDbEntity
  8
001
 62
   253
370
    50
100
AcDb2dPolyline
 66
     1
 10
0.0
 20
0.0
 30
0.0
  0
VERTEX
  5
471
330
46F
100
AcDbEntity
  8
001
 62
   253
370
    50
100
AcDbVertex
100
AcDb2dVertex
 10
56.214326
 20
49.078311
 30
0.0
  0
VERTEX
  5
472
330
46F
100
AcDbEntity
  8
001
 62
   253
370
    50
100
AcDbVertex
100
AcDb2dVertex
 10
56.627695
 20
49.776786
 30
0.0
  0
VERTEX
  5
473
330
46F
100
AcDbEntity
  8
001
 62
   253
370
    50
100
AcDbVertex
100
AcDb2dVertex
 10
57.10957
 20
50.790059
 30
0.0
  0
VERTEX
  5
474
330
46F
100
AcDbEntity
  8
001
 62
   253
370
    50
100
AcDbVertex
100
AcDb2dVertex
 10
57.475802
 20
51.957758
 30
0.0
  0
VERTEX
  5
475
330
46F
100
AcDbEntity
  8
001
 62
   253
370
    50
100
AcDbVertex
100
AcDb2dVertex
 10
57.645439
 20
53.074522
 30
0.0
  0
VERTEX
  5
476
330
46F
100
AcDbEntity
  8
001
 62
   253
370
    50
100
AcDbVertex
100
AcDb2dVertex
 10
57.694704
 20
53.676039
 30
0.0
  0
VERTEX
  5
477
330
46F
100
AcDbEntity
  8
001
 62
   253
370
    50
100
AcDbVertex
100
AcDb2dVertex
 10
57.713976
 20
54.290059
 30
0.0
  0
VERTEX
  5
478
330
46F
100
AcDbEntity
  8
001
 62
   253
370
    50
100
AcDbVertex
100
AcDb2dVertex
 10
57.694704
 20
54.90408
 30
0.0
  0
VERTEX
  5
479
330
46F
100
AcDbEntity
  8
001
 62
   253
370
    50
100
AcDbVertex
100
AcDb2dVertex
 10
57.645439
 20
55.505597
 30
0.0
  0
VERTEX
  5
47A
330
46F
100
AcDbEntity
  8
001
 62
   253
370
    50
100
AcDbVertex
100
AcDb2dVertex
 10
57.475802
 20
56.62236
 30
0.0
  0
VERTEX
  5
47B
330
46F
100
AcDbEntity
  8
001
 62
   253
370
    50
100
AcDbVertex
100
AcDb2dVertex
 10
57.10957
 20
57.790059
 30
0.0
  0
VERTEX
  5
47C
330
46F
100
AcDbEntity
  8
001
 62
   253
370
    50
100
AcDbVertex
100
AcDb2dVertex
 10
56.627695
 20
58.803333
 30
0.0
  0
VERTEX
  5
47D
330
46F
100
AcDbEntity
  8
001
 62
   253
370
    50
100
AcDbVertex
100
AcDb2dVertex
 10
56.214326
 20
59.501808
 30
0.0
  0
SEQEND
  5
470
330
46F
100
AcDbEntity
  8
001
370
    50
  0
POLYLINE
  5
47E
330
1F
100
AcDbEntity
  8
001
 62
   253
370
    50
100
AcDb2dPolyline
 66
     1
 10
0.0
 20
0.0
 30
0.0
  0
VERTEX
  5
480
330
47E
100
AcDbEntity
  8
001
 62
   253
370
    50
100
AcDbVertex
100
AcDb2dVertex
 10
56.214326
 20
59.501808
 30
0.0
  0
VERTEX
  5
481
330
47E
100
AcDbEntity
  8
001
 62
   253
370
    50
100
AcDbVertex
100
AcDb2dVertex
 10
55.347088
 20
59.662966
 30
0.0
  0
VERTEX
  5
482
330
47E
100
AcDbEntity
  8
001
 62
   253
370
    50
100
AcDbVertex
100
AcDb2dVertex
 10
54.0767
 20
59.881834
 30
0.0
  0
VERTEX
  5
483
330
47E
100
AcDbEntity
  8
001
 62
   253
370
    50
100
AcDbVertex
100
AcDb2dVertex
 10
52.724058
 20
60.090124
 30
0.0
  0
VERTEX
  5
484
330
47E
100
AcDbEntity
  8
001
 62
   253
370
    50
100
AcDbVertex
100
AcDb2dVertex
 10
51.796771
 20
60.221007
 30
0.0
  0
SEQEND
  5
47F
330
47E
100
AcDbEntity
  8
001
370
    50
  0
LINE
  5
485
330
1F
100
AcDbEntity
  8
001
 62
   253
370
    50
100
AcDbLine
 10
51.796771
 20
48.067648
 30
0.0
 11
51.796771
 21
47.290059
 31
0.0
  0
POLYLINE
  5
486
330
1F
100
AcDbEntity
  8
001
 62
   253
370
    50
100
AcDb2dPolyline
 66
     1
 10
0.0
 20
0.0
 30
0.0
  0
VERTEX
  5
488
330
486
100
AcDbEntity
  8
001
 62
   253
370
    50
100
AcDbVertex
100
AcDb2dVertex
 10
51.796771
 20
48.067648
 30
0.0
  0
VERTEX
  5
489
330
486
100
AcDbEntity
  8
001
 62
   253
370
    50
100
AcDbVertex
100
AcDb2dVertex
 10
52.348551
 20
48.130728
 30
0.0
  0
VERTEX
  5
48A
330
486
100
AcDbEntity
  8
001
 62
   253
370
    50
100
AcDbVertex
100
AcDb2dVertex
 10
53.154398
 20
48.227882
 30
0.0
  0
VERTEX
  5
48B
330
486
100
AcDbEntity
  8
001
 62
   253
370
    50
100
AcDbVertex
100
AcDb2dVertex
 10
54.557915
 20
48.414375
 30
0.0
  0
VERTEX
  5
48C
330
486
100
AcDbEntity
  8
001
 62
   253
370
    50
100
AcDbVertex
100
AcDb2dVertex
 10
55.51674
 20
48.552974
 30
0.0
  0
SEQEND
  5
487
330
486
100
AcDbEntity
  8
001
370
    50
  0
POLYLINE
  5
48D
330
1F
100
AcDbEntity
  8
001
 62
   253
370
    50
100
AcDb2dPolyline
 66
     1
 10
0.0
 20
0.0
 30
0.0
  0
VERTEX
  5
48F
330
48D
100
AcDbEntity
  8
001
 62
   253
370
    50
100
AcDbVertex
100
AcDb2dVertex
 10
54.775938
 20
48.815394
 30
0.0
  0
VERTEX
  5
490
330
48D
100
AcDbEntity
  8
001
 62
   253
370
    50
100
AcDbVertex
100
AcDb2dVertex
 10
54.929035
 20
48.760885
 30
0.0
  0
VERTEX
  5
491
330
48D
100
AcDbEntity
  8
001
 62
   253
370
    50
100
AcDbVertex
100
AcDb2dVertex
 10
55.152868
 20
48.681431
 30
0.0
  0
VERTEX
  5
492
330
48D
100
AcDbEntity
  8
001
 62
   253
370
    50
100
AcDbVertex
100
AcDb2dVertex
 10
55.368887
 20
48.605074
 30
0.0
  0
VERTEX
  5
493
330
48D
100
AcDbEntity
  8
001
 62
   253
370
    50
100
AcDbVertex
100
AcDb2dVertex
 10
55.51674
 20
48.552974
 30
0.0
  0
SEQEND
  5
48E
330
48D
100
AcDbEntity
  8
001
370
    50
  0
POLYLINE
  5
494
330
1F
100
AcDbEntity
  8
001
 62
   253
370
    50
100
AcDb2dPolyline
 66
     1
 10
0.0
 20
0.0
 30
0.0
  0
VERTEX
  5
496
330
494
100
AcDbEntity
  8
001
 62
   253
370
    50
100
AcDbVertex
100
AcDb2dVertex
 10
54.775938
 20
48.815394
 30
0.0
  0
VERTEX
  5
497
330
494
100
AcDbEntity
  8
001
 62
   253
370
    50
100
AcDbVertex
100
AcDb2dVertex
 10
55.071852
 20
48.867055
 30
0.0
  0
VERTEX
  5
498
330
494
100
AcDbEntity
  8
001
 62
   253
370
    50
100
AcDbVertex
100
AcDb2dVertex
 10
55.503977
 20
48.94459
 30
0.0
  0
VERTEX
  5
499
330
494
100
AcDbEntity
  8
001
 62
   253
370
    50
100
AcDbVertex
100
AcDb2dVertex
 10
55.925899
 20
49.023169
 30
0.0
  0
VERTEX
  5
49A
330
494
100
AcDbEntity
  8
001
 62
   253
370
    50
100
AcDbVertex
100
AcDb2dVertex
 10
56.214326
 20
49.078311
 30
0.0
  0
SEQEND
  5
495
330
494
100
AcDbEntity
  8
001
370
    50
  0
LINE
  5
49B
330
1F
100
AcDbEntity
  8
001
 62
   253
370
    50
100
AcDbLine
 10
56.214326
 20
54.075121
 30
0.0
 11
56.214326
 21
49.078311
 31
0.0
  0
POLYLINE
  5
49C
330
1F
100
AcDbEntity
  8
001
 62
   253
370
    50
100
AcDb2dPolyline
 66
     1
 10
0.0
 20
0.0
 30
0.0
  0
VERTEX
  5
49E
330
49C
100
AcDbEntity
  8
001
 62
   253
370
    50
100
AcDbVertex
100
AcDb2dVertex
 10
56.214326
 20
54.075121
 30
0.0
  0
VERTEX
  5
49F
330
49C
100
AcDbEntity
  8
001
 62
   253
370
    50
100
AcDbVertex
100
AcDb2dVertex
 10
56.242888
 20
54.210049
 30
0.0
  0
VERTEX
  5
4A0
330
49C
100
AcDbEntity
  8
001
 62
   253
370
    50
100
AcDbVertex
100
AcDb2dVertex
 10
56.275509
 20
54.399505
 30
0.0
  0
VERTEX
  5
4A1
330
49C
100
AcDbEntity
  8
001
 62
   253
370
    50
100
AcDbVertex
100
AcDb2dVertex
 10
56.299177
 20
54.628699
 30
0.0
  0
VERTEX
  5
4A2
330
49C
100
AcDbEntity
  8
001
 62
   253
370
    50
100
AcDbVertex
100
AcDb2dVertex
 10
56.304606
 20
54.833625
 30
0.0
  0
VERTEX
  5
4A3
330
49C
100
AcDbEntity
  8
001
 62
   253
370
    50
100
AcDbVertex
100
AcDb2dVertex
 10
56.299177
 20
55.038552
 30
0.0
  0
VERTEX
  5
4A4
330
49C
100
AcDbEntity
  8
001
 62
   253
370
    50
100
AcDbVertex
100
AcDb2dVertex
 10
56.275509
 20
55.267746
 30
0.0
  0
VERTEX
  5
4A5
330
49C
100
AcDbEntity
  8
001
 62
   253
370
    50
100
AcDbVertex
100
AcDb2dVertex
 10
56.242888
 20
55.457202
 30
0.0
  0
VERTEX
  5
4A6
330
49C
100
AcDbEntity
  8
001
 62
   253
370
    50
100
AcDbVertex
100
AcDb2dVertex
 10
56.214326
 20
55.59213
 30
0.0
  0
SEQEND
  5
49D
330
49C
100
AcDbEntity
  8
001
370
    50
  0
LINE
  5
4A7
330
1F
100
AcDbEntity
  8
001
 62
   253
370
    50
100
AcDbLine
 10
56.214326
 20
59.501808
 30
0.0
 11
56.214326
 21
55.59213
 31
0.0
  0
POLYLINE
  5
4A8
330
1F
100
AcDbEntity
  8
001
 62
   253
370
    50
100
AcDb2dPolyline
 66
     1
 10
0.0
 20
0.0
 30
0.0
  0
VERTEX
  5
4AA
330
4A8
100
AcDbEntity
  8
001
 62
   253
370
    50
100
AcDbVertex
100
AcDb2dVertex
 10
53.88596
 20
52.333625
 30
0.0
  0
VERTEX
  5
4AB
330
4A8
100
AcDbEntity
  8
001
 62
   253
370
    50
100
AcDbVertex
100
AcDb2dVertex
 10
54.065116
 20
52.343222
 30
0.0
  0
VERTEX
  5
4AC
330
4A8
100
AcDbEntity
  8
001
 62
   253
370
    50
100
AcDbVertex
100
AcDb2dVertex
 10
54.310277
 20
52.371606
 30
0.0
  0
VERTEX
  5
4AD
330
4A8
100
AcDbEntity
  8
001
 62
   253
370
    50
100
AcDbVertex
100
AcDb2dVertex
 10
54.527567
 20
52.418481
 30
0.0
  0
VERTEX
  5
4AE
330
4A8
100
AcDbEntity
  8
001
 62
   253
370
    50
100
AcDbVertex
100
AcDb2dVertex
 10
54.721702
 20
52.484394
 30
0.0
  0
VERTEX
  5
4AF
330
4A8
100
AcDbEntity
  8
001
 62
   253
370
    50
100
AcDbVertex
100
AcDb2dVertex
 10
54.916439
 20
52.569326
 30
0.0
  0
VERTEX
  5
4B0
330
4A8
100
AcDbEntity
  8
001
 62
   253
370
    50
100
AcDbVertex
100
AcDb2dVertex
 10
55.107734
 20
52.668562
 30
0.0
  0
VERTEX
  5
4B1
330
4A8
100
AcDbEntity
  8
001
 62
   253
370
    50
100
AcDbVertex
100
AcDb2dVertex
 10
55.606561
 20
53.036795
 30
0.0
  0
VERTEX
  5
4B2
330
4A8
100
AcDbEntity
  8
001
 62
   253
370
    50
100
AcDbVertex
100
AcDb2dVertex
 10
56.002134
 20
53.583625
 30
0.0
  0
VERTEX
  5
4B3
330
4A8
100
AcDbEntity
  8
001
 62
   253
370
    50
100
AcDbVertex
100
AcDb2dVertex
 10
56.134937
 20
53.867487
 30
0.0
  0
VERTEX
  5
4B4
330
4A8
100
AcDbEntity
  8
001
 62
   253
370
    50
100
AcDbVertex
100
AcDb2dVertex
 10
56.214326
 20
54.075121
 30
0.0
  0
SEQEND
  5
4A9
330
4A8
100
AcDbEntity
  8
001
370
    50
  0
POLYLINE
  5
4B5
330
1F
100
AcDbEntity
  8
001
 62
   253
370
    50
100
AcDb2dPolyline
 66
     1
 10
0.0
 20
0.0
 30
0.0
  0
VERTEX
  5
4B7
330
4B5
100
AcDbEntity
  8
001
 62
   253
370
    50
100
AcDbVertex
100
AcDb2dVertex
 10
54.20081
 20
57.312786
 30
0.0
  0
VERTEX
  5
4B8
330
4B5
100
AcDbEntity
  8
001
 62
   253
370
    50
100
AcDbVertex
100
AcDb2dVertex
 10
54.155692
 20
57.30617
 30
0.0
  0
VERTEX
  5
4B9
330
4B5
100
AcDbEntity
  8
001
 62
   253
370
    50
100
AcDbVertex
100
AcDb2dVertex
 10
54.091343
 20
57.295645
 30
0.0
  0
VERTEX
  5
4BA
330
4B5
100
AcDbEntity
  8
001
 62
   253
370
    50
100
AcDbVertex
100
AcDb2dVertex
 10
53.867715
 20
57.245178
 30
0.0
  0
VERTEX
  5
4BB
330
4B5
100
AcDbEntity
  8
001
 62
   253
370
    50
100
AcDbVertex
100
AcDb2dVertex
 10
53.679918
 20
57.182857
 30
0.0
  0
VERTEX
  5
4BC
330
4B5
100
AcDbEntity
  8
001
 62
   253
370
    50
100
AcDbVertex
100
AcDb2dVertex
 10
53.494457
 20
57.106111
 30
0.0
  0
VERTEX
  5
4BD
330
4B5
100
AcDbEntity
  8
001
 62
   253
370
    50
100
AcDbVertex
100
AcDb2dVertex
 10
53.293887
 20
56.998689
 30
0.0
  0
VERTEX
  5
4BE
330
4B5
100
AcDbEntity
  8
001
 62
   253
370
    50
100
AcDbVertex
100
AcDb2dVertex
 10
53.145687
 20
56.902274
 30
0.0
  0
VERTEX
  5
4BF
330
4B5
100
AcDbEntity
  8
001
 62
   253
370
    50
100
AcDbVertex
100
AcDb2dVertex
 10
53.042936
 20
56.828547
 30
0.0
  0
SEQEND
  5
4B6
330
4B5
100
AcDbEntity
  8
001
370
    50
  0
POLYLINE
  5
4C0
330
1F
100
AcDbEntity
  8
001
 62
   253
370
    50
100
AcDb2dPolyline
 66
     1
 10
0.0
 20
0.0
 30
0.0
  0
VERTEX
  5
4C2
330
4C0
100
AcDbEntity
  8
001
 62
   253
370
    50
100
AcDbVertex
100
AcDb2dVertex
 10
53.885959
 20
57.333625
 30
0.0
  0
VERTEX
  5
4C3
330
4C0
100
AcDbEntity
  8
001
 62
   253
370
    50
100
AcDbVertex
100
AcDb2dVertex
 10
53.707234
 20
57.324437
 30
0.0
  0
VERTEX
  5
4C4
330
4C0
100
AcDbEntity
  8
001
 62
   253
370
    50
100
AcDbVertex
100
AcDb2dVertex
 10
53.461642
 20
57.295645
 30
0.0
  0
VERTEX
  5
4C5
330
4C0
100
AcDbEntity
  8
001
 62
   253
370
    50
100
AcDbVertex
100
AcDb2dVertex
 10
53.242198
 20
57.246726
 30
0.0
  0
VERTEX
  5
4C6
330
4C0
100
AcDbEntity
  8
001
 62
   253
370
    50
100
AcDbVertex
100
AcDb2dVertex
 10
53.050217
 20
57.182857
 30
0.0
  0
VERTEX
  5
4C7
330
4C0
100
AcDbEntity
  8
001
 62
   253
370
    50
100
AcDbVertex
100
AcDb2dVertex
 10
52.863698
 20
57.10572
 30
0.0
  0
VERTEX
  5
4C8
330
4C0
100
AcDbEntity
  8
001
 62
   253
370
    50
100
AcDbVertex
100
AcDb2dVertex
 10
52.664185
 20
56.998689
 30
0.0
  0
VERTEX
  5
4C9
330
4C0
100
AcDbEntity
  8
001
 62
   253
370
    50
100
AcDbVertex
100
AcDb2dVertex
 10
52.516115
 20
56.902321
 30
0.0
  0
VERTEX
  5
4CA
330
4C0
100
AcDbEntity
  8
001
 62
   253
370
    50
100
AcDbVertex
100
AcDb2dVertex
 10
52.413235
 20
56.828547
 30
0.0
  0
SEQEND
  5
4C1
330
4C0
100
AcDbEntity
  8
001
370
    50
  0
POLYLINE
  5
4CB
330
1F
100
AcDbEntity
  8
001
 62
   253
370
    50
100
AcDb2dPolyline
 66
     1
 10
0.0
 20
0.0
 30
0.0
  0
VERTEX
  5
4CD
330
4CB
100
AcDbEntity
  8
001
 62
   253
370
    50
100
AcDbVertex
100
AcDb2dVertex
 10
53.841415
 20
52.334041
 30
0.0
  0
VERTEX
  5
4CE
330
4CB
100
AcDbEntity
  8
001
 62
   253
370
    50
100
AcDbVertex
100
AcDb2dVertex
 10
53.850462
 20
52.333892
 30
0.0
  0
VERTEX
  5
4CF
330
4CB
100
AcDbEntity
  8
001
 62
   253
370
    50
100
AcDbVertex
100
AcDb2dVertex
 10
53.863686
 20
52.333729
 30
0.0
  0
VERTEX
  5
4D0
330
4CB
100
AcDbEntity
  8
001
 62
   253
370
    50
100
AcDbVertex
100
AcDb2dVertex
 10
53.876911
 20
52.333645
 30
0.0
  0
VERTEX
  5
4D1
330
4CB
100
AcDbEntity
  8
001
 62
   253
370
    50
100
AcDbVertex
100
AcDb2dVertex
 10
53.88596
 20
52.333625
 30
0.0
  0
SEQEND
  5
4CC
330
4CB
100
AcDbEntity
  8
001
370
    50
  0
LINE
  5
4D2
330
1F
100
AcDbEntity
  8
001
 62
   253
370
    50
100
AcDbLine
 10
53.930504
 20
52.334041
 30
0.0
 11
53.841415
 21
52.334041
 31
0.0
  0
LINE
  5
4D3
330
1F
100
AcDbEntity
  8
001
 62
   253
370
    50
100
AcDbLine
 10
52.413235
 20
56.828547
 30
0.0
 11
53.042936
 21
56.828547
 31
0.0
  0
POLYLINE
  5
4D4
330
1F
100
AcDbEntity
  8
001
 62
   253
370
    50
100
AcDb2dPolyline
 66
     1
 10
0.0
 20
0.0
 30
0.0
  0
VERTEX
  5
4D6
330
4D4
100
AcDbEntity
  8
001
 62
   253
370
    50
100
AcDbVertex
100
AcDb2dVertex
 10
56.214326
 20
55.59213
 30
0.0
  0
VERTEX
  5
4D7
330
4D4
100
AcDbEntity
  8
001
 62
   253
370
    50
100
AcDbVertex
100
AcDb2dVertex
 10
56.134937
 20
55.799764
 30
0.0
  0
VERTEX
  5
4D8
330
4D4
100
AcDbEntity
  8
001
 62
   253
370
    50
100
AcDbVertex
100
AcDb2dVertex
 10
56.002134
 20
56.083625
 30
0.0
  0
VERTEX
  5
4D9
330
4D4
100
AcDbEntity
  8
001
 62
   253
370
    50
100
AcDbVertex
100
AcDb2dVertex
 10
55.606561
 20
56.630456
 30
0.0
  0
VERTEX
  5
4DA
330
4D4
100
AcDbEntity
  8
001
 62
   253
370
    50
100
AcDbVertex
100
AcDb2dVertex
 10
55.107734
 20
56.998689
 30
0.0
  0
VERTEX
  5
4DB
330
4D4
100
AcDbEntity
  8
001
 62
   253
370
    50
100
AcDbVertex
100
AcDb2dVertex
 10
54.916439
 20
57.097925
 30
0.0
  0
VERTEX
  5
4DC
330
4D4
100
AcDbEntity
  8
001
 62
   253
370
    50
100
AcDbVertex
100
AcDb2dVertex
 10
54.721702
 20
57.182857
 30
0.0
  0
VERTEX
  5
4DD
330
4D4
100
AcDbEntity
  8
001
 62
   253
370
    50
100
AcDbVertex
100
AcDb2dVertex
 10
54.527567
 20
57.24877
 30
0.0
  0
VERTEX
  5
4DE
330
4D4
100
AcDbEntity
  8
001
 62
   253
370
    50
100
AcDbVertex
100
AcDb2dVertex
 10
54.310277
 20
57.295645
 30
0.0
  0
VERTEX
  5
4DF
330
4D4
100
AcDbEntity
  8
001
 62
   253
370
    50
100
AcDbVertex
100
AcDb2dVertex
 10
54.065116
 20
57.324029
 30
0.0
  0
VERTEX
  5
4E0
330
4D4
100
AcDbEntity
  8
001
 62
   253
370
    50
100
AcDbVertex
100
AcDb2dVertex
 10
53.885959
 20
57.333625
 30
0.0
  0
SEQEND
  5
4D5
330
4D4
100
AcDbEntity
  8
001
370
    50
  0
LINE
  5
4E1
330
1F
100
AcDbEntity
  8
001
 62
   253
370
    50
100
AcDbLine
 10
47.637987
 20
58.801507
 30
0.0
 11
52.413235
 21
56.828547
 31
0.0
  0
LINE
  5
4E2
330
1F
100
AcDbEntity
  8
001
 62
   253
370
    50
100
AcDbLine
 10
51.796771
 20
60.221007
 30
0.0
 11
47.637987
 21
58.801507
 31
0.0
  0
LINE
  5
4E3
330
1F
100
AcDbEntity
  8
001
 62
   253
370
    50
100
AcDbLine
 10
53.841415
 20
52.334041
 30
0.0
 11
52.314146
 21
49.832517
 31
0.0
  0
LINE
  5
4E4
330
1F
100
AcDbEntity
  8
001
 62
   253
370
    50
100
AcDbLine
 10
54.775938
 20
48.815394
 30
0.0
 11
52.314146
 21
49.832517
 31
0.0
  0
LINE
  5
4E5
330
1F
100
AcDbEntity
  8
001
 62
   253
370
    50
100
AcDbLine
 10
51.796771
 20
48.067648
 30
0.0
 11
51.42101
 21
48.19659
 31
0.0
  0
LINE
  5
4E6
330
1F
100
AcDbEntity
  8
001
 62
   253
370
    50
100
AcDbLine
 10
51.42101
 20
48.19659
 30
0.0
 11
52.398518
 21
49.797657
 31
0.0
  0
POLYLINE
  5
4E7
330
1F
100
AcDbEntity
  8
001
 62
   253
370
    50
100
AcDb2dPolyline
 66
     1
 10
0.0
 20
0.0
 30
0.0
  0
VERTEX
  5
4E9
330
4E7
100
AcDbEntity
  8
001
 62
   253
370
    50
100
AcDbVertex
100
AcDb2dVertex
 10
47.991931
 20
59.752804
 30
0.0
  0
VERTEX
  5
4EA
330
4E7
100
AcDbEntity
  8
001
 62
   253
370
    50
100
AcDbVertex
100
AcDb2dVertex
 10
47.908894
 20
59.710126
 30
0.0
  0
VERTEX
  5
4EB
330
4E7
100
AcDbEntity
  8
001
 62
   253
370
    50
100
AcDbVertex
100
AcDb2dVertex
 10
47.797751
 20
59.643539
 30
0.0
  0
VERTEX
  5
4EC
330
4E7
100
AcDbEntity
  8
001
 62
   253
370
    50
100
AcDbVertex
100
AcDb2dVertex
 10
47.631997
 20
59.523507
 30
0.0
  0
VERTEX
  5
4ED
330
4E7
100
AcDbEntity
  8
001
 62
   253
370
    50
100
AcDbVertex
100
AcDb2dVertex
 10
47.484664
 20
59.390685
 30
0.0
  0
VERTEX
  5
4EE
330
4E7
100
AcDbEntity
  8
001
 62
   253
370
    50
100
AcDbVertex
100
AcDb2dVertex
 10
47.297203
 20
59.210377
 30
0.0
  0
VERTEX
  5
4EF
330
4E7
100
AcDbEntity
  8
001
 62
   253
370
    50
100
AcDbVertex
100
AcDb2dVertex
 10
47.159448
 20
59.073665
 30
0.0
  0
SEQEND
  5
4E8
330
4E7
100
AcDbEntity
  8
001
370
    50
  0
LINE
  5
4F0
330
1F
100
AcDbEntity
  8
001
 62
   253
370
    50
100
AcDbLine
 10
51.796771
 20
61.290059
 30
0.0
 11
47.991931
 21
59.752804
 31
0.0
  0
LINE
  5
4F1
330
1F
100
AcDbEntity
  8
001
 62
   253
370
    50
100
AcDbLine
 10
51.471759
 20
47.421373
 30
0.0
 11
51.796771
 21
47.290059
 31
0.0
  0
POLYLINE
  5
4F2
330
1F
100
AcDbEntity
  8
001
 62
   253
370
    50
100
AcDb2dPolyline
 66
     1
 10
0.0
 20
0.0
 30
0.0
  0
VERTEX
  5
4F4
330
4F2
100
AcDbEntity
  8
001
 62
   253
370
    50
100
AcDbVertex
100
AcDb2dVertex
 10
47.159448
 20
59.073665
 30
0.0
  0
VERTEX
  5
4F5
330
4F2
100
AcDbEntity
  8
001
 62
   253
370
    50
100
AcDbVertex
100
AcDb2dVertex
 10
47.206577
 20
59.044646
 30
0.0
  0
VERTEX
  5
4F6
330
4F2
100
AcDbEntity
  8
001
 62
   253
370
    50
100
AcDbVertex
100
AcDb2dVertex
 10
47.253884
 20
59.01592
 30
0.0
  0
VERTEX
  5
4F7
330
4F2
100
AcDbEntity
  8
001
 62
   253
370
    50
100
AcDbVertex
100
AcDb2dVertex
 10
47.342427
 20
58.964036
 30
0.0
  0
VERTEX
  5
4F8
330
4F2
100
AcDbEntity
  8
001
 62
   253
370
    50
100
AcDbVertex
100
AcDb2dVertex
 10
47.431846
 20
58.913657
 30
0.0
  0
VERTEX
  5
4F9
330
4F2
100
AcDbEntity
  8
001
 62
   253
370
    50
100
AcDbVertex
100
AcDb2dVertex
 10
47.534742
 20
58.857259
 30
0.0
  0
VERTEX
  5
4FA
330
4F2
100
AcDbEntity
  8
001
 62
   253
370
    50
100
AcDbVertex
100
AcDb2dVertex
 10
47.637987
 20
58.801507
 30
0.0
  0
SEQEND
  5
4F3
330
4F2
100
AcDbEntity
  8
001
370
    50
  0
POLYLINE
  5
4FB
330
1F
100
AcDbEntity
  8
001
 62
   253
370
    50
100
AcDb2dPolyline
 66
     1
 10
0.0
 20
0.0
 30
0.0
  0
VERTEX
  5
4FD
330
4FB
100
AcDbEntity
  8
001
 62
   253
370
    50
100
AcDbVertex
100
AcDb2dVertex
 10
51.42101
 20
48.19659
 30
0.0
  0
VERTEX
  5
4FE
330
4FB
100
AcDbEntity
  8
001
 62
   253
370
    50
100
AcDbVertex
100
AcDb2dVertex
 10
51.385627
 20
47.995131
 30
0.0
  0
VERTEX
  5
4FF
330
4FB
100
AcDbEntity
  8
001
 62
   253
370
    50
100
AcDbVertex
100
AcDb2dVertex
 10
51.387314
 20
47.702117
 30
0.0
  0
VERTEX
  5
500
330
4FB
100
AcDbEntity
  8
001
 62
   253
370
    50
100
AcDbVertex
100
AcDb2dVertex
 10
51.43158
 20
47.542481
 30
0.0
  0
VERTEX
  5
501
330
4FB
100
AcDbEntity
  8
001
 62
   253
370
    50
100
AcDbVertex
100
AcDb2dVertex
 10
51.484682
 20
47.442539
 30
0.0
  0
SEQEND
  5
4FC
330
4FB
100
AcDbEntity
  8
001
370
    50
  0
LINE
  5
502
330
1F
100
AcDbEntity
  8
001
 62
   253
370
     9
100
AcDbLine
 10
42.214326
 20
41.796298
 30
0.0
 11
42.214326
 21
51.010678
 31
0.0
  0
ENDSEC
  0
SECTION
  2
OBJECTS
  0
DICTIONARY
  5
C
330
0
100
AcDbDictionary
281
     1
  3
ACAD_GROUP
350
D
  3
ACAD_LAYOUT
350
1A
  3
ACAD_MLEADERSTYLE
350
506
  3
ACAD_MLINESTYLE
350
17
  3
ACAD_PLOTSETTINGS
350
19
  3
ACAD_PLOTSTYLENAME
350
E
  3
ACAD_SCALELIST
350
3B
  3
ACAD_TABLESTYLE
350
505
  3
ACAD_VISUALSTYLE
350
2A
  3
AcDbVariableDictionary
350
503
  0
DICTIONARY
  5
D
102
{ACAD_REACTORS
330
C
102
}
330
C
100
AcDbDictionary
281
     1
  0
DICTIONARY
  5
1A
102
{ACAD_REACTORS
330
C
102
}
330
C
100
AcDbDictionary
281
     1
  3
Layout1
350
1E
  3
Layout2
350
26
  3
Model
350
22
  0
DICTIONARY
  5
506
102
{ACAD_REACTORS
330
C
102
}
330
C
100
AcDbDictionary
281
     1
  0
DICTIONARY
  5
17
102
{ACAD_REACTORS
330
C
102
}
330
C
100
AcDbDictionary
281
     1
  3
Standard
350
18
  0
DICTIONARY
  5
19
102
{ACAD_REACTORS
330
C
102
}
330
C
100
AcDbDictionary
281
     1
  0
ACDBDICTIONARYWDFLT
  5
E
102
{ACAD_REACTORS
330
C
102
}
330
C
100
AcDbDictionary
281
     1
  3
Normal
350
F
100
AcDbDictionaryWithDefault
340
F
  0
DICTIONARY
  5
3B
102
{ACAD_REACTORS
330
C
102
}
330
C
100
AcDbDictionary
281
     1
  3
A0
350
3C
  3
A1
350
3D
  3
A2
350
3E
  3
A3
350
3F
  3
A4
350
40
  3
A5
350
41
  3
A6
350
42
  3
A7
350
43
  3
A8
350
44
  3
A9
350
45
  3
B0
350
46
  3
B1
350
47
  3
B2
350
48
  3
B3
350
49
  3
B4
350
4A
  3
B5
350
4B
  3
B6
350
4C
  3
B7
350
4D
  3
B8
350
4E
  3
B9
350
4F
  3
C0
350
50
  3
C1
350
51
  3
C2
350
52
  3
C3
350
53
  3
C4
350
54
  3
C5
350
55
  3
C6
350
56
  3
C7
350
57
  3
C8
350
58
  3
C9
350
59
  3
D0
350
5A
  3
D1
350
5B
  3
D2
350
5C
  0
DICTIONARY
  5
505
102
{ACAD_REACTORS
330
C
102
}
330
C
100
AcDbDictionary
281
     1
  0
DICTIONARY
  5
2A
102
{ACAD_REACTORS
330
C
102
}
330
C
100
AcDbDictionary
281
     1
  3
2dWireframe
350
2F
  3
3D Hidden
350
31
  3
3dWireframe
350
30
  3
Basic
350
32
  3
Brighten
350
36
  3
ColorChange
350
3A
  3
Conceptual
350
34
  3
Dim
350
35
  3
Facepattern
350
39
  3
Flat
350
2B
  3
FlatWithEdges
350
2C
  3
Gouraud
350
2D
  3
GouraudWithEdges
350
2E
  3
Linepattern
350
38
  3
Realistic
350
33
  3
Thicken
350
37
  0
DICTIONARY
  5
503
102
{ACAD_REACTORS
330
C
102
}
330
C
100
AcDbDictionary
281
     1
  3
CANNOSCALE
350
504
  3
PSOLHEIGHT
350
508
  3
PSOLWIDTH
350
507
  0
LAYOUT
  5
1E
102
{ACAD_REACTORS
330
1A
102
}
330
1A
100
AcDbPlotSettings
  1

  2
none_device
  4

  6

 40
0.0
 41
0.0
 42
0.0
 43
0.0
 44
0.0
 45
0.0
 46
0.0
 47
0.0
 48
0.0
 49
0.0
140
0.0
141
0.0
142
1.0
143
1.0
 70
   688
 72
     0
 73
     0
 74
     5
  7

 75
    16
147
1.0
148
0.0
149
0.0
100
AcDbLayout
  1
Layout1
 70
     1
 71
     1
 10
0.0
 20
0.0
 11
12.0
 21
9.0
 12
0.0
 22
0.0
 32
0.0
 14
1.000000E+20
 24
1.000000E+20
 34
0.0
 15
-1.000000E+20
 25
-1.000000E+20
 35
0.0
146
0.0
 13
0.0
 23
0.0
 33
0.0
 16
1.0
 26
0.0
 36
0.0
 17
0.0
 27
1.0
 37
0.0
 76
     0
330
1B
  0
LAYOUT
  5
26
102
{ACAD_REACTORS
330
1A
102
}
330
1A
100
AcDbPlotSettings
  1

  2
none_device
  4

  6

 40
0.0
 41
0.0
 42
0.0
 43
0.0
 44
0.0
 45
0.0
 46
0.0
 47
0.0
 48
0.0
 49
0.0
140
0.0
141
0.0
142
1.0
143
1.0
 70
   688
 72
     0
 73
     0
 74
     5
  7

 75
    16
147
1.0
148
0.0
149
0.0
100
AcDbLayout
  1
Layout2
 70
     1
 71
     2
 10
0.0
 20
0.0
 11
0.0
 21
0.0
 12
0.0
 22
0.0
 32
0.0
 14
0.0
 24
0.0
 34
0.0
 15
0.0
 25
0.0
 35
0.0
146
0.0
 13
0.0
 23
0.0
 33
0.0
 16
1.0
 26
0.0
 36
0.0
 17
0.0
 27
1.0
 37
0.0
 76
     0
330
23
  0
LAYOUT
  5
22
102
{ACAD_REACTORS
330
1A
102
}
330
1A
100
AcDbPlotSettings
  1

  2
none_device
  4

  6

 40
0.0
 41
0.0
 42
0.0
 43
0.0
 44
0.0
 45
0.0
 46
0.0
 47
0.0
 48
0.0
 49
0.0
140
0.0
141
0.0
142
1.0
143
1.0
 70
  1712
 72
     0
 73
     0
 74
     0
  7

 75
     0
147
1.0
148
0.0
149
0.0
100
AcDbLayout
  1
Model
 70
     1
 71
     0
 10
0.0
 20
0.0
 11
12.0
 21
9.0
 12
0.0
 22
0.0
 32
0.0
 14
8.900116
 24
7.78669
 34
0.0
 15
192.620209
 25
91.346611
 35
0.0
146
0.0
 13
0.0
 23
0.0
 33
0.0
 16
1.0
 26
0.0
 36
0.0
 17
0.0
 27
1.0
 37
0.0
 76
     0
330
1F
331
29
  0
MLINESTYLE
  5
18
102
{ACAD_REACTORS
330
17
102
}
330
17
100
AcDbMlineStyle
  2
Standard
 70
     0
  3

 62
   256
 51
90.0
 52
90.0
 71
     2
 49
0.5
 62
   256
  6
BYLAYER
 49
-0.5
 62
   256
  6
BYLAYER
  0
ACDBPLACEHOLDER
  5
F
102
{ACAD_REACTORS
330
E
102
}
330
E
  0
SCALE
  5
3C
102
{ACAD_REACTORS
330
3B
102
}
330
3B
100
AcDbScale
 70
     0
300
1:1
140
1.0
141
1.0
290
     1
  0
SCALE
  5
3D
102
{ACAD_REACTORS
330
3B
102
}
330
3B
100
AcDbScale
 70
     0
300
1:2
140
1.0
141
2.0
290
     0
  0
SCALE
  5
3E
102
{ACAD_REACTORS
330
3B
102
}
330
3B
100
AcDbScale
 70
     0
300
1:4
140
1.0
141
4.0
290
     0
  0
SCALE
  5
3F
102
{ACAD_REACTORS
330
3B
102
}
330
3B
100
AcDbScale
 70
     0
300
1:5
140
1.0
141
5.0
290
     0
  0
SCALE
  5
40
102
{ACAD_REACTORS
330
3B
102
}
330
3B
100
AcDbScale
 70
     0
300
1:8
140
1.0
141
8.0
290
     0
  0
SCALE
  5
41
102
{ACAD_REACTORS
330
3B
102
}
330
3B
100
AcDbScale
 70
     0
300
1:10
140
1.0
141
10.0
290
     0
  0
SCALE
  5
42
102
{ACAD_REACTORS
330
3B
102
}
330
3B
100
AcDbScale
 70
     0
300
1:16
140
1.0
141
16.0
290
     0
  0
SCALE
  5
43
102
{ACAD_REACTORS
330
3B
102
}
330
3B
100
AcDbScale
 70
     0
300
1:20
140
1.0
141
20.0
290
     0
  0
SCALE
  5
44
102
{ACAD_REACTORS
330
3B
102
}
330
3B
100
AcDbScale
 70
     0
300
1:30
140
1.0
141
30.0
290
     0
  0
SCALE
  5
45
102
{ACAD_REACTORS
330
3B
102
}
330
3B
100
AcDbScale
 70
     0
300
1:40
140
1.0
141
40.0
290
     0
  0
SCALE
  5
46
102
{ACAD_REACTORS
330
3B
102
}
330
3B
100
AcDbScale
 70
     0
300
1:50
140
1.0
141
50.0
290
     0
  0
SCALE
  5
47
102
{ACAD_REACTORS
330
3B
102
}
330
3B
100
AcDbScale
 70
     0
300
1:100
140
1.0
141
100.0
290
     0
  0
SCALE
  5
48
102
{ACAD_REACTORS
330
3B
102
}
330
3B
100
AcDbScale
 70
     0
300
2:1
140
2.0
141
1.0
290
     0
  0
SCALE
  5
49
102
{ACAD_REACTORS
330
3B
102
}
330
3B
100
AcDbScale
 70
     0
300
4:1
140
4.0
141
1.0
290
     0
  0
SCALE
  5
4A
102
{ACAD_REACTORS
330
3B
102
}
330
3B
100
AcDbScale
 70
     0
300
8:1
140
8.0
141
1.0
290
     0
  0
SCALE
  5
4B
102
{ACAD_REACTORS
330
3B
102
}
330
3B
100
AcDbScale
 70
     0
300
10:1
140
10.0
141
1.0
290
     0
  0
SCALE
  5
4C
102
{ACAD_REACTORS
330
3B
102
}
330
3B
100
AcDbScale
 70
     0
300
100:1
140
100.0
141
1.0
290
     0
  0
SCALE
  5
4D
102
{ACAD_REACTORS
330
3B
102
}
330
3B
100
AcDbScale
 70
     0
300
1/128" = 1'-0"
140
0.007812
141
12.0
290
     0
  0
SCALE
  5
4E
102
{ACAD_REACTORS
330
3B
102
}
330
3B
100
AcDbScale
 70
     0
300
1/64" = 1'-0"
140
0.015625
141
12.0
290
     0
  0
SCALE
  5
4F
102
{ACAD_REACTORS
330
3B
102
}
330
3B
100
AcDbScale
 70
     0
300
1/32" = 1'-0"
140
0.03125
141
12.0
290
     0
  0
SCALE
  5
50
102
{ACAD_REACTORS
330
3B
102
}
330
3B
100
AcDbScale
 70
     0
300
1/16" = 1'-0"
140
0.0625
141
12.0
290
     0
  0
SCALE
  5
51
102
{ACAD_REACTORS
330
3B
102
}
330
3B
100
AcDbScale
 70
     0
300
3/32" = 1'-0"
140
0.09375
141
12.0
290
     0
  0
SCALE
  5
52
102
{ACAD_REACTORS
330
3B
102
}
330
3B
100
AcDbScale
 70
     0
300
1/8" = 1'-0"
140
0.125
141
12.0
290
     0
  0
SCALE
  5
53
102
{ACAD_REACTORS
330
3B
102
}
330
3B
100
AcDbScale
 70
     0
300
3/16" = 1'-0"
140
0.1875
141
12.0
290
     0
  0
SCALE
  5
54
102
{ACAD_REACTORS
330
3B
102
}
330
3B
100
AcDbScale
 70
     0
300
1/4" = 1'-0"
140
0.25
141
12.0
290
     0
  0
SCALE
  5
55
102
{ACAD_REACTORS
330
3B
102
}
330
3B
100
AcDbScale
 70
     0
300
3/8" = 1'-0"
140
0.375
141
12.0
290
     0
  0
SCALE
  5
56
102
{ACAD_REACTORS
330
3B
102
}
330
3B
100
AcDbScale
 70
     0
300
1/2" = 1'-0"
140
0.5
141
12.0
290
     0
  0
SCALE
  5
57
102
{ACAD_REACTORS
330
3B
102
}
330
3B
100
AcDbScale
 70
     0
300
3/4" = 1'-0"
140
0.75
141
12.0
290
     0
  0
SCALE
  5
58
102
{ACAD_REACTORS
330
3B
102
}
330
3B
100
AcDbScale
 70
     0
300
1" = 1'-0"
140
1.0
141
12.0
290
     0
  0
SCALE
  5
59
102
{ACAD_REACTORS
330
3B
102
}
330
3B
100
AcDbScale
 70
     0
300
1-1/2" = 1'-0"
140
1.5
141
12.0
290
     0
  0
SCALE
  5
5A
102
{ACAD_REACTORS
330
3B
102
}
330
3B
100
AcDbScale
 70
     0
300
3" = 1'-0"
140
3.0
141
12.0
290
     0
  0
SCALE
  5
5B
102
{ACAD_REACTORS
330
3B
102
}
330
3B
100
AcDbScale
 70
     0
300
6" = 1'-0"
140
6.0
141
12.0
290
     0
  0
SCALE
  5
5C
102
{ACAD_REACTORS
330
3B
102
}
330
3B
100
AcDbScale
 70
     0
300
1'-0" = 1'-0"
140
12.0
141
12.0
290
     0
  0
VISUALSTYLE
  5
2F
102
{ACAD_REACTORS
330
2A
102
}
330
2A
100
AcDbVisualStyle
  2
2dWireframe
 70
     4
 71
     0
 72
     2
 73
     0
 90
        0
 40
-0.6
 41
-30.0
 62
     5
 63
     7
 74
     1
 91
        4
 64
     7
 65
   257
 75
     1
175
     1
 42
1.0
 92
        0
 66
   257
 43
1.0
 76
     1
 77
     6
 78
     2
 67
     7
 79
     5
170
     0
171
     0
290
     0
174
     0
 93
        1
 44
0.0
173
     0
291
     0
 45
0.0
1001
ACAD
1000
AcDbSavedByObjectVersion
1070
     0
  0
VISUALSTYLE
  5
31
102
{ACAD_REACTORS
330
2A
102
}
330
2A
100
AcDbVisualStyle
  2
3D Hidden
 70
     6
 71
     1
 72
     2
 73
     2
 90
        0
 40
-0.6
 41
-30.0
 62
     5
 63
     7
 74
     2
 91
        2
 64
     7
 65
   257
 75
     2
175
     1
 42
40.0
 92
        0
 66
   257
 43
1.0
 76
     1
 77
     6
 78
     2
 67
     7
 79
     3
170
     0
171
     0
290
     0
174
     0
 93
        1
 44
0.0
173
     0
291
     0
 45
0.0
1001
ACAD
1000
AcDbSavedByObjectVersion
1070
     0
  0
VISUALSTYLE
  5
30
102
{ACAD_REACTORS
330
2A
102
}
330
2A
100
AcDbVisualStyle
  2
3dWireframe
 70
     5
 71
     0
 72
     2
 73
     0
 90
        0
 40
-0.6
 41
-30.0
 62
     5
 63
     7
 74
     1
 91
        4
 64
     7
 65
   257
 75
     1
175
     1
 42
1.0
 92
        0
 66
   257
 43
1.0
 76
     1
 77
     6
 78
     2
 67
     7
 79
     5
170
     0
171
     0
290
     0
174
     0
 93
        1
 44
0.0
173
     0
291
     0
 45
0.0
1001
ACAD
1000
AcDbSavedByObjectVersion
1070
     0
  0
VISUALSTYLE
  5
32
102
{ACAD_REACTORS
330
2A
102
}
330
2A
100
AcDbVisualStyle
  2
Basic
 70
     7
 71
     1
 72
     0
 73
     1
 90
        0
 40
-0.6
 41
-30.0
 62
     5
 63
     7
 74
     0
 91
        4
 64
     7
 65
   257
 75
     1
175
     1
 42
1.0
 92
        8
 66
     7
 43
1.0
 76
     1
 77
     6
 78
     2
 67
     7
 79
     5
170
     0
171
     0
290
     0
174
     0
 93
        1
 44
0.0
173
     0
291
     1
 45
0.0
1001
ACAD
1000
AcDbSavedByObjectVersion
1070
     0
  0
VISUALSTYLE
  5
36
102
{ACAD_REACTORS
330
2A
102
}
330
2A
100
AcDbVisualStyle
  2
Brighten
 70
    12
 71
     2
 72
     2
 73
     0
 90
        0
 40
-0.6
 41
-30.0
 62
     5
 63
     7
 74
     1
 91
        4
 64
     7
 65
   257
 75
     1
175
     1
 42
1.0
 92
        8
 66
     7
 43
1.0
 76
     1
 77
     6
 78
     2
 67
     7
 79
     5
170
     0
171
     0
290
     0
174
     0
 93
        1
 44
50.0
173
     0
291
     1
 45
0.0
1001
ACAD
1000
AcDbSavedByObjectVersion
1070
     0
  0
VISUALSTYLE
  5
3A
102
{ACAD_REACTORS
330
2A
102
}
330
2A
100
AcDbVisualStyle
  2
ColorChange
 70
    16
 71
     2
 72
     2
 73
     3
 90
        0
 40
-0.6
 41
-30.0
 62
     5
 63
     8
 74
     1
 91
        4
 64
     7
 65
   257
 75
     1
175
     1
 42
1.0
 92
        8
 66
     8
 43
1.0
 76
     1
 77
     6
 78
     2
 67
     7
 79
     5
170
     0
171
     0
290
     0
174
     0
 93
        1
 44
0.0
173
     0
291
     1
 45
0.0
1001
ACAD
1000
AcDbSavedByObjectVersion
1070
     0
  0
VISUALSTYLE
  5
34
102
{ACAD_REACTORS
330
2A
102
}
330
2A
100
AcDbVisualStyle
  2
Conceptual
 70
     9
 71
     3
 72
     2
 73
     0
 90
        0
 40
-0.6
 41
-30.0
 62
     5
 63
     7
 74
     2
 91
        2
 64
     7
 65
   257
 75
     1
175
     1
 42
40.0
 92
        8
 66
     7
 43
1.0
 76
     1
 77
     6
 78
     2
 67
     7
 79
     3
170
     0
171
     0
290
     0
174
     0
 93
        1
 44
0.0
173
     0
291
     0
 45
0.0
1001
ACAD
1000
AcDbSavedByObjectVersion
1070
     0
  0
VISUALSTYLE
  5
35
102
{ACAD_REACTORS
330
2A
102
}
330
2A
100
AcDbVisualStyle
  2
Dim
 70
    11
 71
     2
 72
     2
 73
     0
 90
        0
 40
-0.6
 41
-30.0
 62
     5
 63
     7
 74
     1
 91
        4
 64
     7
 65
   257
 75
     1
175
     1
 42
1.0
 92
        8
 66
     7
 43
1.0
 76
     1
 77
     6
 78
     2
 67
     7
 79
     5
170
     0
171
     0
290
     0
174
     0
 93
        1
 44
-50.0
173
     0
291
     1
 45
0.0
1001
ACAD
1000
AcDbSavedByObjectVersion
1070
     0
  0
VISUALSTYLE
  5
39
102
{ACAD_REACTORS
330
2A
102
}
330
2A
100
AcDbVisualStyle
  2
Facepattern
 70
    15
 71
     2
 72
     2
 73
     0
 90
        0
 40
-0.6
 41
-30.0
 62
     5
 63
     7
 74
     1
 91
        4
 64
     7
 65
   257
 75
     1
175
     1
 42
1.0
 92
        8
 66
     7
 43
1.0
 76
     1
 77
     6
 78
     2
 67
     7
 79
     5
170
     0
171
     0
290
     0
174
     0
 93
        1
 44
0.0
173
     0
291
     1
 45
0.0
1001
ACAD
1000
AcDbSavedByObjectVersion
1070
     0
  0
VISUALSTYLE
  5
2B
102
{ACAD_REACTORS
330
2A
102
}
330
2A
100
AcDbVisualStyle
  2
Flat
 70
     0
 71
     2
 72
     1
 73
     1
 90
        2
 40
-0.6
 41
30.0
 62
     5
 63
     7
 74
     0
 91
        4
 64
     7
 65
   257
 75
     1
175
     1
 42
1.0
 92
        8
 66
     7
 43
1.0
 76
     1
 77
     6
 78
     2
 67
     7
 79
     5
170
     0
171
     0
290
     0
174
     0
 93
       13
 44
0.0
173
     0
291
     1
 45
0.0
1001
ACAD
1000
AcDbSavedByObjectVersion
1070
     0
  0
VISUALSTYLE
  5
2C
102
{ACAD_REACTORS
330
2A
102
}
330
2A
100
AcDbVisualStyle
  2
FlatWithEdges
 70
     1
 71
     2
 72
     1
 73
     1
 90
        2
 40
-0.6
 41
30.0
 62
     5
 63
     7
 74
     1
 91
        4
 64
     7
 65
   257
 75
     1
175
     1
 42
1.0
 92
        0
 66
   257
 43
1.0
 76
     1
 77
     6
 78
     2
 67
     7
 79
     5
170
     0
171
     0
290
     0
174
     0
 93
       13
 44
0.0
173
     0
291
     1
 45
0.0
1001
ACAD
1000
AcDbSavedByObjectVersion
1070
     0
  0
VISUALSTYLE
  5
2D
102
{ACAD_REACTORS
330
2A
102
}
330
2A
100
AcDbVisualStyle
  2
Gouraud
 70
     2
 71
     2
 72
     2
 73
     1
 90
        2
 40
-0.6
 41
30.0
 62
     5
 63
     7
 74
     0
 91
        4
 64
     7
 65
   257
 75
     1
175
     1
 42
1.0
 92
        0
 66
     7
 43
1.0
 76
     1
 77
     6
 78
     2
 67
     7
 79
     5
170
     0
171
     0
290
     0
174
     0
 93
       13
 44
0.0
173
     0
291
     1
 45
0.0
1001
ACAD
1000
AcDbSavedByObjectVersion
1070
     0
  0
VISUALSTYLE
  5
2E
102
{ACAD_REACTORS
330
2A
102
}
330
2A
100
AcDbVisualStyle
  2
GouraudWithEdges
 70
     3
 71
     2
 72
     2
 73
     1
 90
        2
 40
-0.6
 41
30.0
 62
     5
 63
     7
 74
     1
 91
        4
 64
     7
 65
   257
 75
     1
175
     1
 42
1.0
 92
        0
 66
   257
 43
1.0
 76
     1
 77
     6
 78
     2
 67
     7
 79
     5
170
     0
171
     0
290
     0
174
     0
 93
       13
 44
0.0
173
     0
291
     1
 45
0.0
1001
ACAD
1000
AcDbSavedByObjectVersion
1070
     0
  0
VISUALSTYLE
  5
38
102
{ACAD_REACTORS
330
2A
102
}
330
2A
100
AcDbVisualStyle
  2
Linepattern
 70
    14
 71
     2
 72
     2
 73
     0
 90
        0
 40
-0.6
 41
-30.0
 62
     5
 63
     7
 74
     1
 91
        4
 64
     7
 65
   257
 75
     7
175
     7
 42
1.0
 92
        8
 66
     7
 43
1.0
 76
     1
 77
     6
 78
     2
 67
     7
 79
     5
170
     0
171
     0
290
     0
174
     0
 93
        1
 44
0.0
173
     0
291
     1
 45
0.0
1001
ACAD
1000
AcDbSavedByObjectVersion
1070
     0
  0
VISUALSTYLE
  5
33
102
{ACAD_REACTORS
330
2A
102
}
330
2A
100
AcDbVisualStyle
  2
Realistic
 70
     8
 71
     2
 72
     2
 73
     0
 90
        0
 40
-0.6
 41
-30.0
 62
     5
 63
     7
 74
     1
 91
        0
 64
     7
 65
   257
 75
     1
175
     1
 42
1.0
 92
        8
 66
     8
 43
1.0
 76
     1
 77
     6
 78
     2
 67
     7
 79
     5
170
     0
171
     0
290
     0
174
     0
 93
       13
 44
0.0
173
     0
291
     0
 45
0.0
1001
ACAD
1000
AcDbSavedByObjectVersion
1070
     0
  0
VISUALSTYLE
  5
37
102
{ACAD_REACTORS
330
2A
102
}
330
2A
100
AcDbVisualStyle
  2
Thicken
 70
    13
 71
     2
 72
     2
 73
     0
 90
        0
 40
-0.6
 41
-30.0
 62
     5
 63
     7
 74
     1
 91
        4
 64
     7
 65
   257
 75
     1
175
     1
 42
1.0
 92
       12
 66
     7
 43
1.0
 76
     1
 77
     6
 78
     2
 67
     7
 79
     5
170
     0
171
     0
290
     0
174
     0
 93
        1
 44
0.0
173
     0
291
     1
 45
0.0
1001
ACAD
1000
AcDbSavedByObjectVersion
1070
     0
  0
DICTIONARYVAR
  5
504
102
{ACAD_REACTORS
330
503
102
}
330
503
100
DictionaryVariables
280
     0
  1
1:1
  0
DICTIONARYVAR
  5
508
102
{ACAD_REACTORS
330
503
102
}
330
503
100
DictionaryVariables
280
     0
  1
80.000000
  0
DICTIONARYVAR
  5
507
102
{ACAD_REACTORS
330
503
102
}
330
503
100
DictionaryVariables
280
     0
  1
5.000000
  0
ENDSEC
  0
EOF
