  0
SECTION
  2
HEADER
  9
$ACADVER
  1
AC1014
  9
$ACADMAINTVER
 70
     9
  9
$DWGCODEPAGE
  3
ANSI_932
  9
$INSBASE
 10
0.0
 20
0.0
 30
0.0
  9
$EXTMIN
 10
-32.66040037852
 20
3.58741
 30
0.0
  9
$EXTMAX
 10
218.236081
 20
78.59656033333333
 30
0.0
  9
$LIMMIN
 10
0.0
 20
0.0
  9
$LIMMAX
 10
12.0
 20
9.0
  9
$ORTHOMODE
 70
     0
  9
$REGENMODE
 70
     1
  9
$FILLMODE
 70
     1
  9
$QTEXTMODE
 70
     0
  9
$MIRRTEXT
 70
     1
  9
$DRAGMODE
 70
     2
  9
$LTSCALE
 40
2.508029
  9
$OSMODE
 70
   511
  9
$ATTMODE
 70
     1
  9
$TEXTSIZE
 40
0.2
  9
$TRACEWID
 40
1.0
  9
$TEXTSTYLE
  7
STANDARD
  9
$CLAYER
  8
0
  9
$CELTYPE
  6
BYLAYER
  9
$CECOLOR
 62
   256
  9
$CELTSCALE
 40
1.0
  9
$DELOBJ
 70
     1
  9
$DISPSILH
 70
     0
  9
$DIMSCALE
 40
1.0
  9
$DIMASZ
 40
2.5
  9
$DIMEXO
 40
0.625
  9
$DIMDLI
 40
3.75
  9
$DIMRND
 40
0.0
  9
$DIMDLE
 40
0.0
  9
$DIMEXE
 40
1.25
  9
$DIMTP
 40
0.0
  9
$DIMTM
 40
0.0
  9
$DIMTXT
 40
2.5
  9
$DIMCEN
 40
0.09
  9
$DIMTSZ
 40
0.0
  9
$DIMTOL
 70
     0
  9
$DIMLIM
 70
     0
  9
$DIMTIH
 70
     0
  9
$DIMTOH
 70
     0
  9
$DIMSE1
 70
     0
  9
$DIMSE2
 70
     0
  9
$DIMTAD
 70
     0
  9
$DIMZIN
 70
     8
  9
$DIMBLK
  1

  9
$DIMASO
 70
     1
  9
$DIMSHO
 70
     0
  9
$DIMPOST
  1

  9
$DIMAPOST
  1

  9
$DIMALT
 70
     0
  9
$DIMALTD
 70
     3
  9
$DIMALTF
 40
0.03937
  9
$DIMLFAC
 40
1.0
  9
$DIMTOFL
 70
     1
  9
$DIMTVP
 40
0.0
  9
$DIMTIX
 70
     0
  9
$DIMSOXD
 70
     0
  9
$DIMSAH
 70
     0
  9
$DIMBLK1
  1

  9
$DIMBLK2
  1

  9
$DIMSTYLE
  2
ISO-25
  9
$DIMCLRD
 70
     0
  9
$DIMCLRE
 70
     0
  9
$DIMCLRT
 70
     0
  9
$DIMTFAC
 40
1.0
  9
$DIMGAP
 40
0.625
  9
$DIMJUST
 70
     0
  9
$DIMSD1
 70
     0
  9
$DIMSD2
 70
     0
  9
$DIMTOLJ
 70
     0
  9
$DIMTZIN
 70
     8
  9
$DIMALTZ
 70
     0
  9
$DIMALTTZ
 70
     0
  9
$DIMFIT
 70
     5
  9
$DIMUPT
 70
     0
  9
$DIMUNIT
 70
     2
  9
$DIMDEC
 70
     2
  9
$DIMTDEC
 70
     2
  9
$DIMALTU
 70
     2
  9
$DIMALTTD
 70
     3
  9
$DIMTXSTY
  7
STANDARD
  9
$DIMAUNIT
 70
     0
  9
$LUNITS
 70
     2
  9
$LUPREC
 70
     4
  9
$SKETCHINC
 40
1.0
  9
$FILLETRAD
 40
0.0
  9
$AUNITS
 70
     0
  9
$AUPREC
 70
     0
  9
$MENU
  1
.
  9
$ELEVATION
 40
0.0
  9
$PELEVATION
 40
0.0
  9
$THICKNESS
 40
0.0
  9
$LIMCHECK
 70
     0
  9
$CHAMFERA
 40
10.0
  9
$CHAMFERB
 40
10.0
  9
$CHAMFERC
 40
20.0
  9
$CHAMFERD
 40
0.0
  9
$SKPOLY
 70
     0
  9
$TDCREATE
 40
2454734.423953438
  9
$TDUPDATE
 40
2457962.433540162
  9
$TDINDWG
 40
0.0014372801
  9
$TDUSRTIMER
 40
2457962.058289699
  9
$USRTIMER
 70
     1
  9
$ANGBASE
 50
0.0
  9
$ANGDIR
 70
     0
  9
$PDMODE
 70
     0
  9
$PDSIZE
 40
0.0
  9
$PLINEWID
 40
0.0
  9
$COORDS
 70
     1
  9
$SPLFRAME
 70
     0
  9
$SPLINETYPE
 70
     6
  9
$SPLINESEGS
 70
     8
  9
$ATTDIA
 70
     0
  9
$ATTREQ
 70
     1
  9
$HANDLING
 70
     1
  9
$HANDSEED
  5
229
  9
$SURFTAB1
 70
     6
  9
$SURFTAB2
 70
     6
  9
$SURFTYPE
 70
     6
  9
$SURFU
 70
     6
  9
$SURFV
 70
     6
  9
$UCSNAME
  2

  9
$UCSORG
 10
0.0
 20
0.0
 30
0.0
  9
$UCSXDIR
 10
1.0
 20
0.0
 30
0.0
  9
$UCSYDIR
 10
0.0
 20
1.0
 30
0.0
  9
$PUCSNAME
  2

  9
$PUCSORG
 10
0.0
 20
0.0
 30
0.0
  9
$PUCSXDIR
 10
1.0
 20
0.0
 30
0.0
  9
$PUCSYDIR
 10
0.0
 20
1.0
 30
0.0
  9
$USERI1
 70
     0
  9
$USERI2
 70
     0
  9
$USERI3
 70
     0
  9
$USERI4
 70
     0
  9
$USERI5
 70
     0
  9
$USERR1
 40
0.0
  9
$USERR2
 40
0.0
  9
$USERR3
 40
0.0
  9
$USERR4
 40
0.0
  9
$USERR5
 40
0.0
  9
$WORLDVIEW
 70
     1
  9
$SHADEDGE
 70
     3
  9
$SHADEDIF
 70
    70
  9
$TILEMODE
 70
     1
  9
$MAXACTVP
 70
    64
  9
$PINSBASE
 10
0.0
 20
0.0
 30
0.0
  9
$PLIMCHECK
 70
     0
  9
$PEXTMIN
 10
1.000000000000000E+20
 20
1.000000000000000E+20
 30
0.0
  9
$PEXTMAX
 10
-1.000000000000000E+20
 20
-1.000000000000000E+20
 30
0.0
  9
$PLIMMIN
 10
0.0
 20
0.0
  9
$PLIMMAX
 10
0.0
 20
0.0
  9
$UNITMODE
 70
     0
  9
$VISRETAIN
 70
     1
  9
$PLINEGEN
 70
     0
  9
$PSLTSCALE
 70
     1
  9
$TREEDEPTH
 70
  3020
  9
$PICKSTYLE
 70
     1
  9
$CMLSTYLE
  2
STANDARD
  9
$CMLJUST
 70
     0
  9
$CMLSCALE
 40
20.0
  9
$PROXYGRAPHICS
 70
     1
  9
$MEASUREMENT
 70
     1
  0
ENDSEC
  0
SECTION
  2
CLASSES
  0
CLASS
  1
ACDBDICTIONARYWDFLT
  2
AcDbDictionaryWithDefault
  3
ObjectDBX Classes
 90
        0
280
     0
281
     0
  0
CLASS
  1
VISUALSTYLE
  2
AcDbVisualStyle
  3
ObjectDBX Classes
 90
     4095
280
     0
281
     0
  0
CLASS
  1
SCALE
  2
AcDbScale
  3
ObjectDBX Classes
 90
     1153
280
     0
281
     0
  0
CLASS
  1
DICTIONARYVAR
  2
AcDbDictionaryVar
  3
ObjectDBX Classes
 90
        0
280
     0
281
     0
  0
CLASS
  1
ACDBPLACEHOLDER
  2
AcDbPlaceHolder
  3
ObjectDBX Classes
 90
        0
280
     0
281
     0
  0
CLASS
  1
LAYOUT
  2
AcDbLayout
  3
ObjectDBX Classes
 90
        0
280
     0
281
     0
  0
CLASS
  1
MATERIAL
  2
AcDbMaterial
  3
ObjectDBX Classes
 90
     1153
280
     0
281
     0
  0
CLASS
  1
TABLESTYLE
  2
AcDbTableStyle
  3
ObjectDBX Classes
 90
     4095
280
     0
281
     0
  0
CLASS
  1
RASTERVARIABLES
  2
AcDbRasterVariables
  3
ISM
 90
        0
280
     0
281
     0
  0
CLASS
  1
DIMASSOC
  2
AcDbDimAssoc
  3
"AcDbDimAssoc|Product Desc:     AcDim ARX App For Dimension|Company:          Autodesk, Inc.|WEB Address:      www.autodesk.com"
 90
        0
280
     0
281
     0
  0
CLASS
  1
XRECORD
  2
AcDbXrecord
  3
ObjectDBX Classes
 90
        0
280
     0
281
     0
  0
CLASS
  1
LWPOLYLINE
  2
AcDbPolyline
  3
ObjectDBX Classes
 90
        0
280
     0
281
     1
  0
CLASS
  1
HATCH
  2
AcDbHatch
  3
ObjectDBX Classes
 90
        0
280
     0
281
     1
  0
CLASS
  1
MLEADERSTYLE
  2
AcDbMLeaderStyle
  3
ACDB_MLEADERSTYLE_CLASS
 90
     4095
280
     0
281
     0
  0
CLASS
  1
SUN
  2
AcDbSun
  3
SCENEOE
 90
     1153
280
     0
281
     0
  0
ENDSEC
  0
SECTION
  2
TABLES
  0
TABLE
  2
VPORT
  5
8
330
0
100
AcDbSymbolTable
 70
     1
  0
VPORT
  5
29
330
8
100
AcDbSymbolTableRecord
100
AcDbViewportTableRecord
  2
*ACTIVE
 70
     0
 10
0.0
 20
0.0
 11
1.0
 21
1.0
 12
92.78784031074001
 22
41.1753185
 13
0.0
 23
0.0
 14
1.0
 24
1.0
 15
0.0
 25
0.0
 16
0.0
 26
0.0
 36
1.0
 17
0.0
 27
0.0
 37
0.0
 40
186.8795435481777
 41
1.369408369408369
 42
50.0
 43
0.0
 44
0.0
 50
0.0
 51
0.0
 71
    16
 72
   100
 73
     1
 74
     3
 75
     0
 76
     0
 77
     0
 78
     0
  0
ENDTAB
  0
TABLE
  2
LTYPE
  5
5
330
0
100
AcDbSymbolTable
 70
     5
  0
LTYPE
  5
14
330
5
100
AcDbSymbolTableRecord
100
AcDbLinetypeTableRecord
  2
BYBLOCK
 70
     0
  3

 72
    65
 73
     0
 40
0.0
  0
LTYPE
  5
15
330
5
100
AcDbSymbolTableRecord
100
AcDbLinetypeTableRecord
  2
BYLAYER
 70
     0
  3

 72
    65
 73
     0
 40
0.0
  0
LTYPE
  5
16
330
5
100
AcDbSymbolTableRecord
100
AcDbLinetypeTableRecord
  2
CONTINUOUS
 70
     0
  3
Solid line
 72
    65
 73
     0
 40
0.0
  0
LTYPE
  5
5D
330
5
100
AcDbSymbolTableRecord
100
AcDbLinetypeTableRecord
  2
DASHED
 70
     0
  3
DASHED
 72
    83
 73
     2
 40
0.75
 49
0.5
 74
     0
 49
-0.25
 74
     0
  0
LTYPE
  5
5E
330
5
100
AcDbSymbolTableRecord
100
AcDbLinetypeTableRecord
  2
HIDDEN
 70
     0
  3
HIDDEN
 72
    83
 73
     2
 40
0.375
 49
0.25
 74
     0
 49
-0.125
 74
     0
  0
LTYPE
  5
5F
330
5
100
AcDbSymbolTableRecord
100
AcDbLinetypeTableRecord
  2
CENTER
 70
     0
  3
CENTER
 72
    83
 73
     4
 40
2.0
 49
1.25
 74
     0
 49
-0.25
 74
     0
 49
0.25
 74
     0
 49
-0.25
 74
     0
  0
LTYPE
  5
60
330
5
100
AcDbSymbolTableRecord
100
AcDbLinetypeTableRecord
  2
PHANTOM
 70
     0
  3
PHANTOM
 72
    83
 73
     6
 40
2.5
 49
1.25
 74
     0
 49
-0.25
 74
     0
 49
0.25
 74
     0
 49
-0.25
 74
     0
 49
0.25
 74
     0
 49
-0.25
 74
     0
  0
ENDTAB
  0
TABLE
  2
LAYER
  5
2
330
0
100
AcDbSymbolTable
 70
     3
  0
LAYER
  5
10
330
2
100
AcDbSymbolTableRecord
100
AcDbLayerTableRecord
  2
0
 70
     0
 62
     7
  6
CONTINUOUS
  0
LAYER
  5
61
330
2
100
AcDbSymbolTableRecord
100
AcDbLayerTableRecord
  2
001
 70
     0
 62
     7
  6
CONTINUOUS
  0
LAYER
  5
1C2
330
2
100
AcDbSymbolTableRecord
100
AcDbLayerTableRecord
  2
DEFPOINTS
 70
     0
 62
     7
  6
CONTINUOUS
  0
ENDTAB
  0
TABLE
  2
STYLE
  5
3
330
0
100
AcDbSymbolTable
 70
     2
  0
STYLE
  5
11
330
3
100
AcDbSymbolTableRecord
100
AcDbTextStyleTableRecord
  2
STANDARD
 70
     0
 40
0.0
 41
1.0
 50
0.0
 71
     0
 42
0.2
  3
TXT
  4
BIGFONT
  0
STYLE
  5
62
330
3
100
AcDbSymbolTableRecord
100
AcDbTextStyleTableRecord
  2
TATEGAKI
 70
     4
 40
1.0
 41
1.0
 50
0.0
 71
     0
 42
0.2
  3
TXT
  4
BIGFONT
  0
ENDTAB
  0
TABLE
  2
VIEW
  5
6
330
0
100
AcDbSymbolTable
 70
     0
  0
ENDTAB
  0
TABLE
  2
UCS
  5
7
330
0
100
AcDbSymbolTable
 70
     0
  0
ENDTAB
  0
TABLE
  2
APPID
  5
9
330
0
100
AcDbSymbolTable
 70
     1
  0
APPID
  5
12
330
9
100
AcDbSymbolTableRecord
100
AcDbRegAppTableRecord
  2
ACAD
 70
     0
  0
ENDTAB
  0
TABLE
  2
DIMSTYLE
  5
A
330
0
100
AcDbSymbolTable
 70
     2
  0
DIMSTYLE
105
27
102
{ACAD_REACTORS
330
1C3
102
}
330
A
100
AcDbSymbolTableRecord
100
AcDbDimStyleTableRecord
  2
ISO-25
 70
     0
  3

  4

  5

  6

  7

 40
1.0
 41
2.5
 42
0.625
 43
3.75
 44
1.25
 45
0.0
 46
0.0
 47
0.0
 48
0.0
140
2.5
141
2.5
142
0.0
143
0.03937
144
1.0
145
0.0
146
1.0
147
0.625
 71
     0
 72
     0
 73
     0
 74
     0
 75
     0
 76
     0
 77
     1
 78
     8
170
     0
171
     3
172
     1
173
     0
174
     0
175
     0
176
     0
177
     0
178
     0
270
     2
271
     2
272
     2
273
     2
274
     3
340
11
275
     0
280
     0
281
     0
282
     0
283
     0
284
     8
285
     0
286
     0
287
     3
288
     0
  0
DIMSTYLE
105
63
102
{ACAD_REACTORS
330
10D
330
11A
330
11B
330
11C
330
11D
330
11E
330
11F
330
120
102
}
330
A
100
AcDbSymbolTableRecord
100
AcDbDimStyleTableRecord
  2
STANDARD
 70
     0
  3

  4

  5

  6

  7

 40
1.0
 41
1.5
 42
0.0
 43
0.38
 44
2.75
 45
0.0
 46
0.0
 47
0.0
 48
0.0
140
4.0
141
0.09
142
0.0
143
25.4
144
1.0
145
0.0
146
0.8
147
1.0
 71
     0
 72
     0
 73
     0
 74
     0
 75
     0
 76
     0
 77
     1
 78
     8
170
     0
171
     2
172
     1
173
     0
174
     0
175
     0
176
     0
177
     0
178
     0
179
     1
270
     2
271
     1
272
     4
273
     2
274
     2
340
11
275
     0
280
     0
281
     0
282
     0
283
     1
284
     0
285
     0
286
     0
287
     3
288
     0
  0
ENDTAB
  0
TABLE
  2
BLOCK_RECORD
  5
1
330
0
100
AcDbSymbolTable
 70
    11
  0
BLOCK_RECORD
  5
1F
330
1
100
AcDbSymbolTableRecord
100
AcDbBlockTableRecord
  2
*MODEL_SPACE
  0
BLOCK_RECORD
  5
1B
330
1
100
AcDbSymbolTableRecord
100
AcDbBlockTableRecord
  2
*PAPER_SPACE
  0
BLOCK_RECORD
  5
23
330
1
100
AcDbSymbolTableRecord
100
AcDbBlockTableRecord
  2
*PAPER_SPACE0
  0
BLOCK_RECORD
  5
64
330
1
100
AcDbSymbolTableRecord
100
AcDbBlockTableRecord
  2
*D1
  0
BLOCK_RECORD
  5
7A
330
1
100
AcDbSymbolTableRecord
100
AcDbBlockTableRecord
  2
*D2
  0
BLOCK_RECORD
  5
8F
330
1
100
AcDbSymbolTableRecord
100
AcDbBlockTableRecord
  2
*D3
  0
BLOCK_RECORD
  5
A3
330
1
100
AcDbSymbolTableRecord
100
AcDbBlockTableRecord
  2
*D4
  0
BLOCK_RECORD
  5
B7
330
1
100
AcDbSymbolTableRecord
100
AcDbBlockTableRecord
  2
*D5
  0
BLOCK_RECORD
  5
CB
330
1
100
AcDbSymbolTableRecord
100
AcDbBlockTableRecord
  2
*D6
  0
BLOCK_RECORD
  5
E1
330
1
100
AcDbSymbolTableRecord
100
AcDbBlockTableRecord
  2
*D7
  0
BLOCK_RECORD
  5
F7
330
1
100
AcDbSymbolTableRecord
100
AcDbBlockTableRecord
  2
*D8
  0
BLOCK_RECORD
  5
1C6
330
1
100
AcDbSymbolTableRecord
100
AcDbBlockTableRecord
  2
*D9
  0
BLOCK_RECORD
  5
1D4
330
1
100
AcDbSymbolTableRecord
100
AcDbBlockTableRecord
  2
_OPEN
  0
ENDTAB
  0
ENDSEC
  0
SECTION
  2
BLOCKS
  0
BLOCK
  5
20
330
1F
100
AcDbEntity
  8
0
100
AcDbBlockBegin
  2
*MODEL_SPACE
 70
     0
 10
0.0
 20
0.0
 30
0.0
  3
*MODEL_SPACE
  1

  0
ENDBLK
  5
21
330
1F
100
AcDbEntity
  8
0
100
AcDbBlockEnd
  0
BLOCK
  5
1C
330
1B
100
AcDbEntity
 67
     1
  8
0
100
AcDbBlockBegin
  2
*PAPER_SPACE
 70
     0
 10
0.0
 20
0.0
 30
0.0
  3
*PAPER_SPACE
  1

  0
ENDBLK
  5
1D
330
1B
100
AcDbEntity
 67
     1
  8
0
100
AcDbBlockEnd
  0
BLOCK
  5
24
330
23
100
AcDbEntity
  8
0
100
AcDbBlockBegin
  2
*PAPER_SPACE0
 70
     0
 10
0.0
 20
0.0
 30
0.0
  3
*PAPER_SPACE0
  1

  0
ENDBLK
  5
25
330
23
100
AcDbEntity
  8
0
100
AcDbBlockEnd
  0
BLOCK
  5
65
330
64
100
AcDbEntity
  8
0
100
AcDbBlockBegin
  2
*D1
 70
     1
 10
0.0
 20
0.0
 30
0.0
  3
*D1
  1

  0
LINE
  5
67
330
64
100
AcDbEntity
  8
001
100
AcDbLine
 10
37.529835
 20
53.164184
 30
0.0
 11
25.594767
 21
53.164184
 31
0.0
  0
LINE
  5
68
330
64
100
AcDbEntity
  8
001
100
AcDbLine
 10
34.32258
 20
41.141409
 30
0.0
 11
25.594767
 21
41.141409
 31
0.0
  0
LINE
  5
69
330
64
100
AcDbEntity
  8
001
100
AcDbLine
 10
28.344767
 20
53.164184
 30
0.0
 11
28.344767
 21
41.141409
 31
0.0
  0
LWPOLYLINE
  5
6A
330
64
100
AcDbEntity
  8
001
100
AcDbPolyline
 90
        3
 70
     0
 43
0.0
 10
28.746691
 20
54.664184
 10
28.344767
 20
53.164184
 10
27.942844
 20
54.664184
  0
LWPOLYLINE
  5
6F
330
64
100
AcDbEntity
  8
001
100
AcDbPolyline
 90
        3
 70
     0
 43
0.0
 10
27.942844
 20
39.641409
 10
28.344767
 20
41.141409
 10
28.746691
 20
39.641409
  0
TEXT
  5
74
330
64
100
AcDbEntity
  8
001
100
AcDbText
 10
27.344767
 20
42.712558
 30
0.0
 40
4.0
  1
%%c１２
 50
90.000003
 41
0.882353
100
AcDbText
  0
POINT
  5
75
330
64
100
AcDbEntity
  8
001
100
AcDbPoint
 10
37.529835
 20
53.164184
 30
0.0
  0
POINT
  5
76
330
64
100
AcDbEntity
  8
001
100
AcDbPoint
 10
34.32258
 20
41.141409
 30
0.0
  0
POINT
  5
77
330
64
100
AcDbEntity
  8
001
100
AcDbPoint
 10
28.344767
 20
41.141409
 30
0.0
  0
LINE
  5
78
330
64
100
AcDbEntity
  8
001
100
AcDbLine
 10
28.344767
 20
53.164184
 30
0.0
 11
28.344767
 21
55.664184
 31
0.0
  0
LINE
  5
79
330
64
100
AcDbEntity
  8
001
100
AcDbLine
 10
28.344767
 20
41.141409
 30
0.0
 11
28.344767
 21
38.641409
 31
0.0
  0
ENDBLK
  5
66
330
64
100
AcDbEntity
  8
0
100
AcDbBlockEnd
  0
BLOCK
  5
7B
330
7A
100
AcDbEntity
  8
0
100
AcDbBlockBegin
  2
*D2
 70
     1
 10
0.0
 20
0.0
 30
0.0
  3
*D2
  1

  0
LINE
  5
7D
330
7A
100
AcDbEntity
  8
001
100
AcDbLine
 10
41.636242
 20
41.257688
 30
0.0
 11
23.923836
 21
23.545282
 31
0.0
  0
LINE
  5
7E
330
7A
100
AcDbEntity
  8
001
100
AcDbLine
 10
35.485576
 20
50.541409
 30
0.0
 11
12.741674
 21
50.541409
 31
0.0
  0
ARC
  5
7F
330
7A
100
AcDbEntity
  8
001
100
AcDbCircle
 10
50.919963
 20
50.541409
 30
0.0
 40
35.42828943417954
100
AcDbArc
 50
180.0
 51
225.0
  0
LWPOLYLINE
  5
80
330
7A
100
AcDbEntity
  8
001
100
AcDbPolyline
 90
        3
 70
     0
 43
0.0
 10
25.120564
 20
26.850824
 10
25.868379
 20
25.489826
 10
24.540253
 20
26.294577
  0
LWPOLYLINE
  5
85
330
7A
100
AcDbEntity
  8
001
100
AcDbPolyline
 90
        3
 70
     0
 43
0.0
 10
15.121592
 20
49.033238
 10
15.491674
 20
50.541409
 10
15.925259
 20
49.050253
  0
TEXT
  5
8A
330
7A
100
AcDbEntity
  8
001
100
AcDbText
 10
17.738
 20
39.574895
 30
0.0
 40
4.0
  1
４５%%d
 50
298.174476
 41
0.978261
100
AcDbText
  0
POINT
  5
8B
330
7A
100
AcDbEntity
  8
001
100
AcDbPoint
 10
41.636242
 20
41.257688
 30
0.0
  0
POINT
  5
8C
330
7A
100
AcDbEntity
  8
001
100
AcDbPoint
 10
50.919963
 20
50.541409
 30
0.0
  0
POINT
  5
8D
330
7A
100
AcDbEntity
  8
001
100
AcDbPoint
 10
50.919963
 20
50.541409
 30
0.0
  0
POINT
  5
8E
330
7A
100
AcDbEntity
  8
001
100
AcDbPoint
 10
35.485576
 20
50.541409
 30
0.0
  0
ENDBLK
  5
7C
330
7A
100
AcDbEntity
  8
0
100
AcDbBlockEnd
  0
BLOCK
  5
90
330
8F
100
AcDbEntity
  8
0
100
AcDbBlockBegin
  2
*D3
 70
     1
 10
0.0
 20
0.0
 30
0.0
  3
*D3
  1

  0
LINE
  5
92
330
8F
100
AcDbEntity
  8
001
100
AcDbLine
 10
106.029835
 20
45.041409
 30
0.0
 11
106.029835
 21
14.817544
 31
0.0
  0
LINE
  5
93
330
8F
100
AcDbEntity
  8
001
100
AcDbLine
 10
37.029835
 20
38.650912
 30
0.0
 11
37.029835
 21
14.817544
 31
0.0
  0
LINE
  5
94
330
8F
100
AcDbEntity
  8
001
100
AcDbLine
 10
106.029835
 20
17.567544
 30
0.0
 11
37.029835
 21
17.567544
 31
0.0
  0
LWPOLYLINE
  5
95
330
8F
100
AcDbEntity
  8
001
100
AcDbPolyline
 90
        3
 70
     0
 43
0.0
 10
104.529835
 20
17.969468
 10
106.029835
 20
17.567544
 10
104.529835
 20
17.16562
  0
LWPOLYLINE
  5
9A
330
8F
100
AcDbEntity
  8
001
100
AcDbPolyline
 90
        3
 70
     0
 43
0.0
 10
38.529835
 20
17.16562
 10
37.029835
 20
17.567544
 10
38.529835
 20
17.969468
  0
TEXT
  5
9F
330
8F
100
AcDbEntity
  8
001
100
AcDbText
 10
67.529835
 20
18.567544
 30
0.0
 40
4.0
  1
６９
 41
0.833333
100
AcDbText
  0
POINT
  5
A0
330
8F
100
AcDbEntity
  8
001
100
AcDbPoint
 10
106.029835
 20
45.041409
 30
0.0
  0
POINT
  5
A1
330
8F
100
AcDbEntity
  8
001
100
AcDbPoint
 10
37.029835
 20
38.650912
 30
0.0
  0
POINT
  5
A2
330
8F
100
AcDbEntity
  8
001
100
AcDbPoint
 10
37.029835
 20
17.567544
 30
0.0
  0
ENDBLK
  5
91
330
8F
100
AcDbEntity
  8
0
100
AcDbBlockEnd
  0
BLOCK
  5
A4
330
A3
100
AcDbEntity
  8
0
100
AcDbBlockBegin
  2
*D4
 70
     1
 10
0.0
 20
0.0
 30
0.0
  3
*D4
  1

  0
LINE
  5
A6
330
A3
100
AcDbEntity
  8
001
100
AcDbLine
 10
176.029835
 20
45.541409
 30
0.0
 11
176.029835
 21
14.817544
 31
0.0
  0
LINE
  5
A7
330
A3
100
AcDbEntity
  8
001
100
AcDbLine
 10
106.029835
 20
45.041409
 30
0.0
 11
106.029835
 21
14.817544
 31
0.0
  0
LINE
  5
A8
330
A3
100
AcDbEntity
  8
001
100
AcDbLine
 10
176.029835
 20
17.567544
 30
0.0
 11
106.029835
 21
17.567544
 31
0.0
  0
LWPOLYLINE
  5
A9
330
A3
100
AcDbEntity
  8
001
100
AcDbPolyline
 90
        3
 70
     0
 43
0.0
 10
174.529835
 20
17.969468
 10
176.029835
 20
17.567544
 10
174.529835
 20
17.16562
  0
LWPOLYLINE
  5
AE
330
A3
100
AcDbEntity
  8
001
100
AcDbPolyline
 90
        3
 70
     0
 43
0.0
 10
107.529835
 20
17.16562
 10
106.029835
 20
17.567544
 10
107.529835
 20
17.969468
  0
TEXT
  5
B3
330
A3
100
AcDbEntity
  8
001
100
AcDbText
 10
137.029835
 20
18.567544
 30
0.0
 40
4.0
  1
７０
 41
0.833333
100
AcDbText
  0
POINT
  5
B4
330
A3
100
AcDbEntity
  8
001
100
AcDbPoint
 10
176.029835
 20
45.541409
 30
0.0
  0
POINT
  5
B5
330
A3
100
AcDbEntity
  8
001
100
AcDbPoint
 10
106.029835
 20
45.041409
 30
0.0
  0
POINT
  5
B6
330
A3
100
AcDbEntity
  8
001
100
AcDbPoint
 10
106.029835
 20
17.567544
 30
0.0
  0
ENDBLK
  5
A5
330
A3
100
AcDbEntity
  8
0
100
AcDbBlockEnd
  0
BLOCK
  5
B8
330
B7
100
AcDbEntity
  8
0
100
AcDbBlockBegin
  2
*D5
 70
     1
 10
0.0
 20
0.0
 30
0.0
  3
*D5
  1

  0
LINE
  5
BA
330
B7
100
AcDbEntity
  8
001
100
AcDbLine
 10
37.029835
 20
41.141409
 30
0.0
 11
37.029835
 21
3.58741
 31
0.0
  0
LINE
  5
BB
330
B7
100
AcDbEntity
  8
001
100
AcDbLine
 10
176.029835
 20
45.541409
 30
0.0
 11
176.029835
 21
3.58741
 31
0.0
  0
LINE
  5
BC
330
B7
100
AcDbEntity
  8
001
100
AcDbLine
 10
37.029835
 20
6.33741
 30
0.0
 11
176.029835
 21
6.33741
 31
0.0
  0
LWPOLYLINE
  5
BD
330
B7
100
AcDbEntity
  8
001
100
AcDbPolyline
 90
        3
 70
     0
 43
0.0
 10
38.529835
 20
5.935486
 10
37.029835
 20
6.33741
 10
38.529835
 20
6.739334
  0
LWPOLYLINE
  5
C2
330
B7
100
AcDbEntity
  8
001
100
AcDbPolyline
 90
        3
 70
     0
 43
0.0
 10
174.529835
 20
6.739334
 10
176.029835
 20
6.33741
 10
174.529835
 20
5.935486
  0
TEXT
  5
C7
330
B7
100
AcDbEntity
  8
001
100
AcDbText
 10
100.529835
 20
7.33741
 30
0.0
 40
4.0
  1
１３９
 41
0.833333
100
AcDbText
  0
POINT
  5
C8
330
B7
100
AcDbEntity
  8
001
100
AcDbPoint
 10
37.029835
 20
41.141409
 30
0.0
  0
POINT
  5
C9
330
B7
100
AcDbEntity
  8
001
100
AcDbPoint
 10
176.029835
 20
45.541409
 30
0.0
  0
POINT
  5
CA
330
B7
100
AcDbEntity
  8
001
100
AcDbPoint
 10
176.029835
 20
6.33741
 30
0.0
  0
ENDBLK
  5
B9
330
B7
100
AcDbEntity
  8
0
100
AcDbBlockEnd
  0
BLOCK
  5
CC
330
CB
100
AcDbEntity
  8
0
100
AcDbBlockBegin
  2
*D6
 70
     1
 10
0.0
 20
0.0
 30
0.0
  3
*D6
  1

  0
LINE
  5
CE
330
CB
100
AcDbEntity
  8
001
100
AcDbLine
 10
43.929835
 20
43.551281
 30
0.0
 11
43.929835
 21
25.890303
 31
0.0
  0
LINE
  5
CF
330
CB
100
AcDbEntity
  8
001
100
AcDbLine
 10
37.029835
 20
41.141409
 30
0.0
 11
37.029835
 21
25.890303
 31
0.0
  0
LINE
  5
D0
330
CB
100
AcDbEntity
  8
001
100
AcDbLine
 10
43.929835
 20
28.640303
 30
0.0
 11
37.029835
 21
28.640303
 31
0.0
  0
LWPOLYLINE
  5
D1
330
CB
100
AcDbEntity
  8
001
100
AcDbPolyline
 90
        3
 70
     0
 43
0.0
 10
45.429835
 20
28.238379
 10
43.929835
 20
28.640303
 10
45.429835
 20
29.042227
  0
LWPOLYLINE
  5
D6
330
CB
100
AcDbEntity
  8
001
100
AcDbPolyline
 90
        3
 70
     0
 43
0.0
 10
35.529835
 20
29.042227
 10
37.029835
 20
28.640303
 10
35.529835
 20
28.238379
  0
TEXT
  5
DB
330
CB
100
AcDbEntity
  8
001
100
AcDbText
 10
47.429835
 20
29.640303
 30
0.0
 40
4.0
  1
（６．９）
 41
0.833333
100
AcDbText
  0
POINT
  5
DC
330
CB
100
AcDbEntity
  8
001
100
AcDbPoint
 10
43.929835
 20
43.551281
 30
0.0
  0
POINT
  5
DD
330
CB
100
AcDbEntity
  8
001
100
AcDbPoint
 10
37.029835
 20
41.141409
 30
0.0
  0
POINT
  5
DE
330
CB
100
AcDbEntity
  8
001
100
AcDbPoint
 10
37.029835
 20
28.640303
 30
0.0
  0
LINE
  5
DF
330
CB
100
AcDbEntity
  8
001
100
AcDbLine
 10
43.929835
 20
28.640303
 30
0.0
 11
70.429835
 21
28.640303
 31
0.0
  0
LINE
  5
E0
330
CB
100
AcDbEntity
  8
001
100
AcDbLine
 10
37.029835
 20
28.640303
 30
0.0
 11
34.529835
 21
28.640303
 31
0.0
  0
ENDBLK
  5
CD
330
CB
100
AcDbEntity
  8
0
100
AcDbBlockEnd
  0
BLOCK
  5
E2
330
E1
100
AcDbEntity
  8
0
100
AcDbBlockBegin
  2
*D7
 70
     1
 10
0.0
 20
0.0
 30
0.0
  3
*D7
  1

  0
LINE
  5
E4
330
E1
100
AcDbEntity
  8
001
100
AcDbLine
 10
175.029835
 20
56.541409
 30
0.0
 11
194.239548
 21
56.541409
 31
0.0
  0
LINE
  5
E5
330
E1
100
AcDbEntity
  8
001
100
AcDbLine
 10
175.029835
 20
44.541409
 30
0.0
 11
194.239548
 21
44.541409
 31
0.0
  0
LINE
  5
E6
330
E1
100
AcDbEntity
  8
001
100
AcDbLine
 10
191.489548
 20
56.541409
 30
0.0
 11
191.489548
 21
44.541409
 31
0.0
  0
LWPOLYLINE
  5
E7
330
E1
100
AcDbEntity
  8
001
100
AcDbPolyline
 90
        3
 70
     0
 43
0.0
 10
191.891472
 20
58.041409
 10
191.489548
 20
56.541409
 10
191.087625
 20
58.041409
  0
LWPOLYLINE
  5
EC
330
E1
100
AcDbEntity
  8
001
100
AcDbPolyline
 90
        3
 70
     0
 43
0.0
 10
191.087625
 20
43.041409
 10
191.489548
 20
44.541409
 10
191.891472
 20
43.041409
  0
TEXT
  5
F1
330
E1
100
AcDbEntity
  8
001
100
AcDbText
 10
190.489548
 20
29.041409
 30
0.0
 40
4.0
  1
%%c１２
 50
90.000003
 41
0.882353
100
AcDbText
  0
POINT
  5
F2
330
E1
100
AcDbEntity
  8
001
100
AcDbPoint
 10
175.029835
 20
56.541409
 30
0.0
  0
POINT
  5
F3
330
E1
100
AcDbEntity
  8
001
100
AcDbPoint
 10
175.029835
 20
44.541409
 30
0.0
  0
POINT
  5
F4
330
E1
100
AcDbEntity
  8
001
100
AcDbPoint
 10
191.489548
 20
44.541409
 30
0.0
  0
LINE
  5
F5
330
E1
100
AcDbEntity
  8
001
100
AcDbLine
 10
191.489548
 20
56.541409
 30
0.0
 11
191.489548
 21
59.041409
 31
0.0
  0
LINE
  5
F6
330
E1
100
AcDbEntity
  8
001
100
AcDbLine
 10
191.489548
 20
44.541409
 30
0.0
 11
191.489548
 21
26.041409
 31
0.0
  0
ENDBLK
  5
E3
330
E1
100
AcDbEntity
  8
0
100
AcDbBlockEnd
  0
BLOCK
  5
F8
330
F7
100
AcDbEntity
  8
0
100
AcDbBlockBegin
  2
*D8
 70
     1
 10
0.0
 20
0.0
 30
0.0
  3
*D8
  1

  0
LINE
  5
FA
330
F7
100
AcDbEntity
  8
001
100
AcDbLine
 10
215.736081
 20
50.541409
 30
0.0
 11
215.736081
 21
26.422889
 31
0.0
  0
LINE
  5
FB
330
F7
100
AcDbEntity
  8
001
100
AcDbLine
 10
204.736081
 20
47.224785
 30
0.0
 11
204.736081
 21
26.422889
 31
0.0
  0
LINE
  5
FC
330
F7
100
AcDbEntity
  8
001
100
AcDbLine
 10
215.736081
 20
29.172889
 30
0.0
 11
204.736081
 21
29.172889
 31
0.0
  0
LWPOLYLINE
  5
FD
330
F7
100
AcDbEntity
  8
001
100
AcDbPolyline
 90
        3
 70
     0
 43
0.0
 10
217.236081
 20
28.770965
 10
215.736081
 20
29.172889
 10
217.236081
 20
29.574813
  0
LWPOLYLINE
  5
102
330
F7
100
AcDbEntity
  8
001
100
AcDbPolyline
 90
        3
 70
     0
 43
0.0
 10
203.236081
 20
29.574813
 10
204.736081
 20
29.172889
 10
203.236081
 20
28.770965
  0
TEXT
  5
107
330
F7
100
AcDbEntity
  8
001
100
AcDbText
 10
206.236081
 20
30.172889
 30
0.0
 40
4.0
  1
１１
 41
0.833333
100
AcDbText
  0
POINT
  5
108
330
F7
100
AcDbEntity
  8
001
100
AcDbPoint
 10
215.736081
 20
50.541409
 30
0.0
  0
POINT
  5
109
330
F7
100
AcDbEntity
  8
001
100
AcDbPoint
 10
204.736081
 20
47.224785
 30
0.0
  0
POINT
  5
10A
330
F7
100
AcDbEntity
  8
001
100
AcDbPoint
 10
204.736081
 20
29.172889
 30
0.0
  0
LINE
  5
10B
330
F7
100
AcDbEntity
  8
001
100
AcDbLine
 10
215.736081
 20
29.172889
 30
0.0
 11
218.236081
 21
29.172889
 31
0.0
  0
LINE
  5
10C
330
F7
100
AcDbEntity
  8
001
100
AcDbLine
 10
204.736081
 20
29.172889
 30
0.0
 11
202.236081
 21
29.172889
 31
0.0
  0
ENDBLK
  5
F9
330
F7
100
AcDbEntity
  8
0
100
AcDbBlockEnd
  0
BLOCK
  5
1D2
330
1C6
100
AcDbEntity
  8
0
100
AcDbBlockBegin
  2
*D9
 70
     1
 10
0.0
 20
0.0
 30
0.0
  3
*D9
  1

  0
LINE
  5
1C7
330
1C6
100
AcDbEntity
  8
0
 62
     0
100
AcDbLine
 10
-21.581367
 20
47.131409
 30
0.0
 11
-31.86873371185333
 21
47.131409
 31
0.0
  0
LINE
  5
1C8
330
1C6
100
AcDbEntity
  8
0
 62
     0
100
AcDbLine
 10
-21.581367
 20
50.541409
 30
0.0
 11
-31.86873371185333
 21
50.541409
 31
0.0
  0
LINE
  5
1C9
330
1C6
100
AcDbEntity
  8
0
 62
     0
100
AcDbLine
 10
-30.61873371185333
 20
53.041409
 30
0.0
 11
-30.61873371185333
 21
55.541409
 31
0.0
  0
LINE
  5
1CA
330
1C6
100
AcDbEntity
  8
0
 62
     0
100
AcDbLine
 10
-30.61873371185333
 20
47.131409
 30
0.0
 11
-30.61873371185333
 21
50.541409
 31
0.0
  0
LINE
  5
1CB
330
1C6
100
AcDbEntity
  8
0
 62
     0
100
AcDbLine
 10
-30.61873371185333
 20
47.131409
 30
0.0
 11
-30.61873371185333
 21
42.131409
 31
0.0
  0
INSERT
  5
1CC
330
1C6
100
AcDbEntity
  8
0
 62
     0
100
AcDbBlockReference
  2
_OPEN
 10
-30.61873371185333
 20
47.131409
 30
0.0
 41
2.5
 42
2.5
 43
2.5
 50
90.0
  0
INSERT
  5
1CD
330
1C6
100
AcDbEntity
  8
0
 62
     0
100
AcDbBlockReference
  2
_OPEN
 10
-30.61873371185333
 20
50.541409
 30
0.0
 41
2.5
 42
2.5
 43
2.5
 50
270.0
  0
MTEXT
  5
1CE
330
1C6
100
AcDbEntity
  8
0
 62
     0
100
AcDbMText
 10
-30.61873371185333
 20
61.12474233333334
 30
0.0
 40
3.5
 41
0.0
 71
     5
 72
     1
  1
3,41
 11
0.0
 21
1.0
 31
0.0
  0
POINT
  5
1CF
330
1C6
100
AcDbEntity
  8
DEFPOINTS
 62
     0
100
AcDbPoint
 10
-20.956367
 20
47.131409
 30
0.0
  0
POINT
  5
1D0
330
1C6
100
AcDbEntity
  8
DEFPOINTS
 62
     0
100
AcDbPoint
 10
-20.956367
 20
50.541409
 30
0.0
  0
POINT
  5
1D1
330
1C6
100
AcDbEntity
  8
DEFPOINTS
 62
     0
100
AcDbPoint
 10
-30.61873371185333
 20
50.541409
 30
0.0
  0
ENDBLK
  5
1D3
330
1C6
100
AcDbEntity
  8
0
100
AcDbBlockEnd
  0
BLOCK
  5
1D5
330
1D4
100
AcDbEntity
  8
0
100
AcDbBlockBegin
  2
_OPEN
 70
     0
 10
0.0
 20
0.0
 30
0.0
  3
_OPEN
  1

  0
LINE
  5
1D7
330
1D4
100
AcDbEntity
  8
0
  6
BYBLOCK
 62
     0
100
AcDbLine
 10
-1.0
 20
0.166667
 30
0.0
 11
0.0
 21
0.0
 31
0.0
  0
LINE
  5
1D8
330
1D4
100
AcDbEntity
  8
0
  6
BYBLOCK
 62
     0
100
AcDbLine
 10
-1.0
 20
-0.166667
 30
0.0
 11
0.0
 21
0.0
 31
0.0
  0
LINE
  5
1D9
330
1D4
100
AcDbEntity
  8
0
  6
BYBLOCK
 62
     0
100
AcDbLine
 10
0.0
 20
0.0
 30
0.0
 11
-1.0
 21
0.0
 31
0.0
  0
ENDBLK
  5
1D6
330
1D4
100
AcDbEntity
  8
0
100
AcDbBlockEnd
  0
ENDSEC
  0
SECTION
  2
ENTITIES
  0
DIMENSION
  5
10D
330
1F
100
AcDbEntity
  8
001
100
AcDbDimension
  2
*D1
 10
28.344767
 20
41.141409
 30
0.0
 11
25.344767
 21
48.712558
 31
0.0
 70
   160
  3
STANDARD
100
AcDbAlignedDimension
 13
37.529835
 23
53.164184
 33
0.0
 14
34.32258
 24
41.141409
 34
0.0
 50
270.0
100
AcDbRotatedDimension
  0
TEXT
  5
10E
330
1F
100
AcDbEntity
  8
001
100
AcDbText
 10
9.28536
 20
40.541409
 30
0.0
 40
4.0
  1
%%c１８．８
 50
90.000003
 41
0.862069
100
AcDbText
  0
LWPOLYLINE
  5
10F
330
1F
100
AcDbEntity
  8
001
100
AcDbPolyline
 90
        3
 70
     0
 43
0.0
 10
10.687284
 20
42.641409
 10
10.28536
 20
41.141409
 10
9.883436
 20
42.641409
  0
LINE
  5
114
330
1F
100
AcDbEntity
  8
001
100
AcDbLine
 10
10.28536
 20
41.141409
 30
0.0
 11
10.28536
 21
59.941409
 31
0.0
  0
LWPOLYLINE
  5
115
330
1F
100
AcDbEntity
  8
001
100
AcDbPolyline
 90
        3
 70
     0
 43
0.0
 10
34.32258
 20
41.141409
 10
10.28536
 20
41.141409
 10
7.53536
 20
41.141409
  0
DIMENSION
  5
11A
330
1F
100
AcDbEntity
  8
001
100
AcDbDimension
  2
*D2
 10
50.919963
 20
50.541409
 30
0.0
 11
22.333976
 21
35.230128
 31
0.0
 70
    34
  3
STANDARD
100
AcDb2LineAngularDimension
 13
41.636242
 23
41.257688
 33
0.0
 14
50.919963
 24
50.541409
 34
0.0
 15
35.485576
 25
50.541409
 35
0.0
 16
18.188491
 26
36.98359
 36
0.0
  0
DIMENSION
  5
11B
330
1F
100
AcDbEntity
  8
001
100
AcDbDimension
  2
*D3
 10
37.029835
 20
17.567544
 30
0.0
 11
71.529835
 21
20.567544
 31
0.0
 70
   160
  3
STANDARD
100
AcDbAlignedDimension
 13
106.029835
 23
45.041409
 33
0.0
 14
37.029835
 24
38.650912
 34
0.0
 50
180.0
100
AcDbRotatedDimension
  0
DIMENSION
  5
11C
330
1F
100
AcDbEntity
  8
001
100
AcDbDimension
  2
*D4
 10
106.029835
 20
17.567544
 30
0.0
 11
141.029835
 21
20.567544
 31
0.0
 70
   160
  3
STANDARD
100
AcDbAlignedDimension
 13
176.029835
 23
45.541409
 33
0.0
 14
106.029835
 24
45.041409
 34
0.0
 50
180.0
100
AcDbRotatedDimension
  0
DIMENSION
  5
11D
330
1F
100
AcDbEntity
  8
001
100
AcDbDimension
  2
*D5
 10
176.029835
 20
6.33741
 30
0.0
 11
106.529835
 21
9.33741
 31
0.0
 70
   160
  3
STANDARD
100
AcDbAlignedDimension
 13
37.029835
 23
41.141409
 33
0.0
 14
176.029835
 24
45.541409
 34
0.0
100
AcDbRotatedDimension
  0
DIMENSION
  5
11E
330
1F
100
AcDbEntity
  8
001
100
AcDbDimension
  2
*D6
 10
37.029835
 20
28.640303
 30
0.0
 11
57.429835
 21
31.640303
 31
0.0
 70
   160
  3
STANDARD
100
AcDbAlignedDimension
 13
43.929835
 23
43.551281
 33
0.0
 14
37.029835
 24
41.141409
 34
0.0
 50
180.0
100
AcDbRotatedDimension
  0
DIMENSION
  5
11F
330
1F
100
AcDbEntity
  8
001
100
AcDbDimension
  2
*D7
 10
191.489548
 20
44.541409
 30
0.0
 11
188.489548
 21
35.041409
 31
0.0
 70
   160
  3
STANDARD
100
AcDbAlignedDimension
 13
175.029835
 23
56.541409
 33
0.0
 14
175.029835
 24
44.541409
 34
0.0
 50
270.0
100
AcDbRotatedDimension
  0
DIMENSION
  5
120
330
1F
100
AcDbEntity
  8
001
100
AcDbDimension
  2
*D8
 10
204.736081
 20
29.172889
 30
0.0
 11
210.236081
 21
32.172889
 31
0.0
 70
   160
  3
STANDARD
100
AcDbAlignedDimension
 13
215.736081
 23
50.541409
 33
0.0
 14
204.736081
 24
47.224785
 34
0.0
 50
180.0
100
AcDbRotatedDimension
  0
TEXT
  5
121
330
1F
100
AcDbEntity
  8
001
100
AcDbText
 10
61.892141
 20
45.164294
 30
0.0
 40
4.0
  1
%%c１４
 50
90.000003
 41
0.882353
100
AcDbText
  0
LWPOLYLINE
  5
122
330
1F
100
AcDbEntity
  8
001
100
AcDbPolyline
 90
        3
 70
     0
 43
0.0
 10
63.294065
 20
45.051281
 10
62.892141
 20
43.551281
 10
62.490218
 20
45.051281
  0
LINE
  5
127
330
1F
100
AcDbEntity
  8
001
100
AcDbLine
 10
62.892141
 20
43.551281
 30
0.0
 11
62.892141
 21
57.531537
 31
0.0
  0
LWPOLYLINE
  5
128
330
1F
100
AcDbEntity
  8
001
100
AcDbPolyline
 90
        3
 70
     0
 43
0.0
 10
46.755121
 20
43.551281
 10
62.892141
 20
43.551281
 10
65.642141
 20
43.551281
  0
TEXT
  5
12D
330
1F
100
AcDbEntity
  8
001
100
AcDbText
 10
5.295464
 20
74.013227
 30
0.0
 40
5.0
  1
ウラトリメンＣ　ＵＭＨ１２－１４Ｓ－Ｍ１６
 41
0.833333
100
AcDbText
  0
LINE
  5
12E
330
1F
100
AcDbEntity
  8
001
  6
CENTER
100
AcDbLine
 10
209.736081
 20
57.452732
 30
0.0
 11
209.736081
 21
43.43548
 31
0.0
  0
LINE
  5
12F
330
1F
100
AcDbEntity
  8
001
100
AcDbLine
 10
204.736081
 20
47.224785
 30
0.0
 11
204.736081
 21
53.858034
 31
0.0
  0
ARC
  5
130
330
1F
100
AcDbEntity
  8
001
100
AcDbCircle
 10
209.736081
 20
50.541409
 30
0.0
 40
6.0
100
AcDbArc
 50
213.55731
 51
146.44269
  0
LINE
  5
131
330
1F
100
AcDbEntity
  8
001
  6
CENTER
100
AcDbLine
 10
203.673121
 20
50.541409
 30
0.0
 11
216.909616
 21
50.541409
 31
0.0
  0
ARC
  5
132
330
1F
100
AcDbEntity
  8
001
100
AcDbCircle
 10
41.356864
 20
46.167093
 30
0.0
 40
0.175
100
AcDbArc
 50
14.543061
 51
165.236939
  0
ARC
  5
133
330
1F
100
AcDbEntity
  8
001
100
AcDbCircle
 10
40.881102
 20
46.292467
 30
0.0
 40
0.3170045884846417
100
AcDbArc
 50
254.543061
 51
345.2369390000001
  0
ARC
  5
134
330
1F
100
AcDbEntity
  8
001
100
AcDbCircle
 10
40.749975
 20
45.818258
 30
0.0
 40
0.175
100
AcDbArc
 50
74.543061
 51
225.2369390000001
  0
ARC
  5
135
330
1F
100
AcDbEntity
  8
001
100
AcDbCircle
 10
40.403517
 20
45.468922
 30
0.0
 40
0.3170045884846417
100
AcDbArc
 50
314.5430610000001
 51
45.236939
  0
ARC
  5
136
330
1F
100
AcDbEntity
  8
001
100
AcDbCircle
 10
40.748632
 20
45.118259
 30
0.0
 40
0.175
100
AcDbArc
 50
134.543061
 51
285.236939
  0
ARC
  5
137
330
1F
100
AcDbEntity
  8
001
100
AcDbCircle
 10
40.877936
 20
44.64355
 30
0.0
 40
0.3170045884846417
100
AcDbArc
 50
14.543061
 51
105.236939
  0
ARC
  5
138
330
1F
100
AcDbEntity
  8
001
100
AcDbCircle
 10
41.354176
 20
44.767096
 30
0.0
 40
0.175
100
AcDbArc
 50
194.543061
 51
345.2369390000001
  0
ARC
  5
139
330
1F
100
AcDbEntity
  8
001
100
AcDbCircle
 10
41.829939
 20
44.641722
 30
0.0
 40
0.3170045884846417
100
AcDbArc
 50
74.543061
 51
165.236939
  0
ARC
  5
13A
330
1F
100
AcDbEntity
  8
001
100
AcDbCircle
 10
41.961065
 20
45.115931
 30
0.0
 40
0.175
100
AcDbArc
 50
254.543061
 51
45.236939
  0
ARC
  5
13B
330
1F
100
AcDbEntity
  8
001
100
AcDbCircle
 10
42.307523
 20
45.465267
 30
0.0
 40
0.3170045884846417
100
AcDbArc
 50
134.543061
 51
225.2369390000001
  0
ARC
  5
13C
330
1F
100
AcDbEntity
  8
001
100
AcDbCircle
 10
41.962409
 20
45.81593
 30
0.0
 40
0.175
100
AcDbArc
 50
314.5430610000001
 51
105.236939
  0
ARC
  5
13D
330
1F
100
AcDbEntity
  8
001
100
AcDbCircle
 10
41.833104
 20
46.290639
 30
0.0
 40
0.3170045884846417
100
AcDbArc
 50
194.543061
 51
285.236939
  0
CIRCLE
  5
13E
330
1F
100
AcDbEntity
  8
001
100
AcDbCircle
 10
41.35552
 20
45.467095
 30
0.0
 40
1.3
  0
LINE
  5
13F
330
1F
100
AcDbEntity
  8
001
100
AcDbLine
 10
176.029835
 20
50.541409
 30
0.0
 11
178.627911
 21
52.041409
 31
0.0
  0
LINE
  5
140
330
1F
100
AcDbEntity
  8
001
100
AcDbLine
 10
176.029835
 20
50.541409
 30
0.0
 11
178.627911
 21
49.041409
 31
0.0
  0
LINE
  5
141
330
1F
100
AcDbEntity
  8
001
100
AcDbLine
 10
171.029835
 20
47.224785
 30
0.0
 11
171.029835
 21
53.858034
 31
0.0
  0
LINE
  5
142
330
1F
100
AcDbEntity
  8
001
100
AcDbLine
 10
111.029835
 20
47.224785
 30
0.0
 11
111.029835
 21
53.858034
 31
0.0
  0
LINE
  5
143
330
1F
100
AcDbEntity
  8
001
100
AcDbLine
 10
111.029835
 20
53.858034
 30
0.0
 11
171.029835
 21
53.858034
 31
0.0
  0
LINE
  5
144
330
1F
100
AcDbEntity
  8
001
100
AcDbLine
 10
171.029835
 20
47.224785
 30
0.0
 11
111.029835
 21
47.224785
 31
0.0
  0
LINE
  5
145
330
1F
100
AcDbEntity
  8
001
100
AcDbLine
 10
171.029835
 20
53.858034
 30
0.0
 11
111.029835
 21
47.224785
 31
0.0
  0
LINE
  5
146
330
1F
100
AcDbEntity
  8
001
100
AcDbLine
 10
111.029835
 20
53.858034
 30
0.0
 11
171.029835
 21
47.224785
 31
0.0
  0
CIRCLE
  5
147
330
1F
100
AcDbEntity
  8
001
100
AcDbCircle
 10
41.35552
 20
45.467095
 30
0.0
 40
1.7
  0
LINE
  5
148
330
1F
100
AcDbEntity
  8
001
100
AcDbLine
 10
41.636242
 20
41.257688
 30
0.0
 11
45.564927
 21
45.186373
 31
0.0
  0
ARC
  5
149
330
1F
100
AcDbEntity
  8
001
100
AcDbCircle
 10
41.35552
 20
41.538409
 30
0.0
 40
0.3969999999999994
100
AcDbArc
 50
225.0
 51
315.0
  0
LINE
  5
14A
330
1F
100
AcDbEntity
  8
001
100
AcDbLine
 10
37.146114
 20
45.186373
 30
0.0
 11
41.074799
 21
41.257688
 31
0.0
  0
ARC
  5
14B
330
1F
100
AcDbEntity
  8
001
100
AcDbCircle
 10
37.426835
 20
45.467095
 30
0.0
 40
0.397000000000003
100
AcDbArc
 50
135.0
 51
225.0
  0
ARC
  5
14C
330
1F
100
AcDbEntity
  8
001
100
AcDbCircle
 10
41.35552
 20
49.39578
 30
0.0
 40
0.3970000000000004
100
AcDbArc
 50
45.0
 51
135.0
  0
LINE
  5
14D
330
1F
100
AcDbEntity
  8
001
100
AcDbLine
 10
45.564927
 20
45.747816
 30
0.0
 11
41.636242
 21
49.676501
 31
0.0
  0
ARC
  5
14E
330
1F
100
AcDbEntity
  8
001
100
AcDbCircle
 10
45.284205
 20
45.467095
 30
0.0
 40
0.3970000000000037
100
AcDbArc
 50
315.0
 51
45.0
  0
LINE
  5
14F
330
1F
100
AcDbEntity
  8
001
100
AcDbLine
 10
41.074799
 20
49.676501
 30
0.0
 11
37.146114
 21
45.747816
 31
0.0
  0
LINE
  5
150
330
1F
100
AcDbEntity
  8
001
100
AcDbLine
 10
106.529835
 20
56.541409
 30
0.0
 11
106.529835
 21
44.541409
 31
0.0
  0
LINE
  5
151
330
1F
100
AcDbEntity
  8
001
100
AcDbLine
 10
175.029835
 20
56.541409
 30
0.0
 11
106.529835
 21
56.541409
 31
0.0
  0
LINE
  5
152
330
1F
100
AcDbEntity
  8
001
100
AcDbLine
 10
106.529835
 20
44.541409
 30
0.0
 11
175.029835
 21
44.541409
 31
0.0
  0
ARC
  5
153
330
1F
100
AcDbEntity
  8
001
100
AcDbCircle
 10
175.029835
 20
55.541409
 30
0.0
 40
1.000000000000001
100
AcDbArc
 50
0.0
 51
90.0
  0
ARC
  5
154
330
1F
100
AcDbEntity
  8
001
100
AcDbCircle
 10
175.029835
 20
45.541409
 30
0.0
 40
1.000000000000001
100
AcDbArc
 50
270.0
 51
0.0
  0
LINE
  5
155
330
1F
100
AcDbEntity
  8
001
100
AcDbLine
 10
176.029835
 20
55.541409
 30
0.0
 11
176.029835
 21
45.541409
 31
0.0
  0
LINE
  5
156
330
1F
100
AcDbEntity
  8
001
100
AcDbLine
 10
106.027213
 20
56.038788
 30
0.0
 11
106.529835
 21
56.541409
 31
0.0
  0
LINE
  5
157
330
1F
100
AcDbEntity
  8
001
100
AcDbLine
 10
106.029835
 20
45.041409
 30
0.0
 11
106.529835
 21
44.541409
 31
0.0
  0
LWPOLYLINE
  5
158
330
1F
100
AcDbEntity
  8
001
100
AcDbPolyline
 90
        5
 70
     0
 43
0.0
 10
45.608798
 20
45.193387
 10
45.724542
 20
45.141331
 10
45.898675
 20
45.079536
 10
46.026153
 20
45.05125
 10
46.115005
 20
45.041409
  0
LINE
  5
15F
330
1F
100
AcDbEntity
  8
001
100
AcDbLine
 10
46.115005
 20
45.041409
 30
0.0
 11
106.029835
 21
45.041409
 31
0.0
  0
LWPOLYLINE
  5
160
330
1F
100
AcDbEntity
  8
001
100
AcDbPolyline
 90
        5
 70
     0
 43
0.0
 10
46.115005
 20
45.041409
 10
46.140895
 20
45.042228
 10
46.178214
 20
45.047106
 10
46.209288
 20
45.055872
 10
46.229856
 20
45.064184
  0
LINE
  5
167
330
1F
100
AcDbEntity
  8
001
100
AcDbLine
 10
48.029835
 20
45.064184
 30
0.0
 11
46.229856
 21
45.064184
 31
0.0
  0
ARC
  5
168
330
1F
100
AcDbEntity
  8
001
100
AcDbCircle
 10
47.529835
 20
50.541409
 30
0.0
 40
5.500000000000001
100
AcDbArc
 50
275.215909
 51
341.914069
  0
LWPOLYLINE
  5
169
330
1F
100
AcDbEntity
  8
001
100
AcDbPolyline
 90
       47
 70
     0
 43
0.0
 10
103.029835
 20
48.833973
 10
103.148397
 20
48.839333
 10
103.266477
 20
48.849386
 10
103.383959
 20
48.86786
 10
103.500068
 20
48.894251
 10
103.613681
 20
48.9271
 10
103.725115
 20
48.966505
 10
103.832787
 20
49.012023
 10
103.937725
 20
49.0636
 10
104.039873
 20
49.120761
 10
104.138942
 20
49.183085
 10
104.23449
 20
49.250041
 10
104.326722
 20
49.32151
 10
104.451964
 20
49.430226
 10
104.570375
 20
49.546389
 10
104.682709
 20
49.669758
 10
104.78841
 20
49.798843
 10
104.887777
 20
49.933034
 10
104.980947
 20
50.071602
 10
105.069329
 20
50.215941
 10
105.151931
 20
50.363665
 10
105.229443
 20
50.51503
 10
105.301758
 20
50.668944
 10
105.369143
 20
50.824997
 10
105.431905
 20
50.982964
 10
105.489897
 20
51.141396
 10
105.543847
 20
51.301251
 10
105.610605
 20
51.518741
 10
105.670924
 20
51.738113
 10
105.724488
 20
51.955706
 10
105.772634
 20
52.17456
 10
105.814626
 20
52.388495
 10
105.852145
 20
52.603259
 10
105.880715
 20
52.786222
 10
105.906403
 20
52.969611
 10
105.928628
 20
53.147352
 10
105.948379
 20
53.325385
 10
105.965073
 20
53.496178
 10
105.979679
 20
53.667162
 10
105.991666
 20
53.829283
 10
106.001913
 20
53.991524
 10
106.011313
 20
54.171528
 10
106.01876
 20
54.351625
 10
106.023952
 20
54.517599
 10
106.0274
 20
54.683615
 10
106.029012
 20
54.833574
 10
106.029835
 20
54.983542
  0
ARC
  5
19A
330
1F
100
AcDbEntity
  8
001
100
AcDbCircle
 10
103.029835
 20
56.164184
 30
0.0
 40
3.0
100
AcDbArc
 50
270.0
 51
357.60441
  0
LINE
  5
19B
330
1F
100
AcDbEntity
  8
001
100
AcDbLine
 10
37.529835
 20
53.164184
 30
0.0
 11
103.029835
 21
53.164184
 31
0.0
  0
LINE
  5
19C
330
1F
100
AcDbEntity
  8
001
100
AcDbLine
 10
37.529835
 20
53.141409
 30
0.0
 11
48.029835
 21
53.141409
 31
0.0
  0
LINE
  5
19D
330
1F
100
AcDbEntity
  8
001
100
AcDbLine
 10
48.029835
 20
53.141409
 30
0.0
 11
48.029835
 21
45.064184
 31
0.0
  0
LINE
  5
19E
330
1F
100
AcDbEntity
  8
001
100
AcDbLine
 10
37.529835
 20
44.141409
 30
0.0
 11
39.892731
 21
41.778514
 31
0.0
  0
LINE
  5
19F
330
1F
100
AcDbEntity
  8
001
100
AcDbLine
 10
52.758091
 20
48.833973
 30
0.0
 11
103.029835
 21
48.833973
 31
0.0
  0
ARC
  5
1A0
330
1F
100
AcDbEntity
  8
001
100
AcDbCircle
 10
41.347354
 20
48.895779
 30
0.0
 40
1.25
100
AcDbArc
 50
352.233356
 51
188.428595
  0
LINE
  5
1A1
330
1F
100
AcDbEntity
  8
001
100
AcDbLine
 10
106.029835
 20
56.041409
 30
0.0
 11
106.029835
 21
45.041409
 31
0.0
  0
LINE
  5
1A2
330
1F
100
AcDbEntity
  8
001
  6
CENTER
100
AcDbLine
 10
35.485576
 20
50.541409
 30
0.0
 11
177.793409
 21
50.541409
 31
0.0
  0
LINE
  5
1A3
330
1F
100
AcDbEntity
  8
001
100
AcDbLine
 10
40.553973
 20
41.778514
 30
0.0
 11
39.892731
 21
41.778514
 31
0.0
  0
LINE
  5
1A4
330
1F
100
AcDbEntity
  8
001
100
AcDbLine
 10
37.529835
 20
44.141409
 30
0.0
 11
37.529835
 21
44.802652
 31
0.0
  0
LINE
  5
1A5
330
1F
100
AcDbEntity
  8
001
100
AcDbLine
 10
37.529835
 20
53.164184
 30
0.0
 11
37.529835
 21
46.131537
 31
0.0
  0
LINE
  5
1A6
330
1F
100
AcDbEntity
  8
001
100
AcDbLine
 10
45.630486
 20
45.661256
 30
0.0
 11
46.229856
 21
45.064184
 31
0.0
  0
LINE
  5
1A7
330
1F
100
AcDbEntity
  8
001
100
AcDbLine
 10
45.608798
 20
45.193387
 30
0.0
 11
45.58918
 21
45.21293
 31
0.0
  0
LINE
  5
1A8
330
1F
100
AcDbEntity
  8
001
100
AcDbLine
 10
45.608798
 20
45.193387
 30
0.0
 11
45.57177
 21
45.193387
 31
0.0
  0
ARC
  5
1A9
330
1F
100
AcDbEntity
  8
001
100
AcDbCircle
 10
46.599739
 20
46.822787
 30
0.0
 40
6.478438461516417
100
AcDbArc
 50
18.085931
 51
77.247089
  0
LINE
  5
1AA
330
1F
100
AcDbEntity
  8
001
100
AcDbLine
 10
37.029835
 20
45.467095
 30
0.0
 11
37.029835
 21
38.650912
 31
0.0
  0
LINE
  5
1AB
330
1F
100
AcDbEntity
  8
001
100
AcDbLine
 10
41.191077
 20
41.141409
 30
0.0
 11
41.074799
 21
41.257688
 31
0.0
  0
LINE
  5
1AC
330
1F
100
AcDbEntity
  8
001
100
AcDbLine
 10
43.929835
 20
45.467095
 30
0.0
 11
43.929835
 21
43.551281
 31
0.0
  0
LINE
  5
1AD
330
1F
100
AcDbEntity
  8
001
100
AcDbLine
 10
34.32258
 20
41.141409
 30
0.0
 11
41.35552
 21
41.141409
 31
0.0
  0
CIRCLE
  5
1AE
330
1F
100
AcDbEntity
  8
001
100
AcDbCircle
 10
-9.556367
 20
50.541409
 30
0.0
 40
9.4
  0
CIRCLE
  5
1AF
330
1F
100
AcDbEntity
  8
001
100
AcDbCircle
 10
-9.556367
 20
47.131409
 30
0.0
 40
6.0
  0
LINE
  5
1B0
330
1F
100
AcDbEntity
  8
001
  6
CENTER
 62
   253
100
AcDbLine
 10
-20.956367
 20
50.541409
 30
0.0
 11
1.843633
 21
50.541409
 31
0.0
  0
LINE
  5
1B1
330
1F
100
AcDbEntity
  8
001
  6
CENTER
 62
   253
100
AcDbLine
 10
-9.556367
 20
39.141409
 30
0.0
 11
-9.556367
 21
61.941409
 31
0.0
  0
LINE
  5
1B2
330
1F
100
AcDbEntity
  8
001
100
AcDbLine
 10
43.929835
 20
43.551281
 30
0.0
 11
46.755121
 21
43.551281
 31
0.0
  0
LINE
  5
1C1
330
1F
100
AcDbEntity
  8
001
  6
CENTER
 62
   253
100
AcDbLine
 10
-20.956367
 20
47.131409
 30
0.0
 11
1.843633
 21
47.131409
 31
0.0
  0
DIMENSION
  5
1C3
330
1F
100
AcDbEntity
  8
0
100
AcDbDimension
  2
*D9
 10
-30.61873371185333
 20
50.541409
 30
0.0
 11
-30.61873371185333
 21
61.12474233333334
 31
0.0
 70
    32
  3
ISO-25
100
AcDbAlignedDimension
 13
-20.956367
 23
47.131409
 33
0.0
 14
-20.956367
 24
50.541409
 34
0.0
 50
90.0
100
AcDbRotatedDimension
1001
ACAD
1000
DSTYLE
1002
{
1070
     7
1000
OPEN
1070
     6
1000
OPEN
1070
     5
1000

1070
   140
1040
3.5
1070
   173
1070
     1
1070
   141
1040
0.09
1070
    77
1070
     0
1002
}
  0
ENDSEC
  0
SECTION
  2
OBJECTS
  0
DICTIONARY
  5
C
330
0
100
AcDbDictionary
  3
ACAD_GROUP
350
D
  3
ACAD_IMAGE_VARS
350
1C0
  3
ACAD_MLINESTYLE
350
17
  3
ACAD_SCALELIST
350
1E1
  3
ACDBVARIABLEDICTIONARY
350
1B4
  3
APPDATA
350
1BF
  3
DWGPROPS
350
228
  0
DICTIONARY
  5
D
102
{ACAD_REACTORS
330
C
102
}
330
C
100
AcDbDictionary
  0
RASTERVARIABLES
  5
1C0
102
{ACAD_REACTORS
330
C
102
}
330
C
100
AcDbRasterVariables
 90
        0
 70
     1
 71
     1
 72
     1
  0
DICTIONARY
  5
17
102
{ACAD_REACTORS
330
C
102
}
330
C
100
AcDbDictionary
  3
STANDARD
350
18
  0
DICTIONARY
  5
1E1
102
{ACAD_REACTORS
330
C
102
}
330
C
100
AcDbDictionary
  0
DICTIONARY
  5
1B4
102
{ACAD_REACTORS
330
C
102
}
330
C
100
AcDbDictionary
  0
DICTIONARY
  5
1BF
102
{ACAD_REACTORS
330
C
102
}
330
C
100
AcDbDictionary
  0
XRECORD
  5
228
102
{ACAD_REACTORS
330
C
102
}
330
C
100
AcDbXrecord
  1
DWGPROPS COOKIE
  2

  3

  4

  6

  7

  8
kaihatu03
  9

300
=
301
=
302
=
303
=
304
=
305
=
306
=
307
=
308
=
309
=
 40
0.0
 41
2454734.048953438
 42
2457962.058540162
  1

 90
        0
  0
MLINESTYLE
  5
18
102
{ACAD_REACTORS
330
17
102
}
330
17
100
AcDbMlineStyle
  2
Standard
 70
     0
  3

 62
   256
 51
90.0
 52
90.0
 71
     2
 49
0.5
 62
   256
  6
BYLAYER
 49
-0.5
 62
   256
  6
BYLAYER
  0
ENDSEC
  0
EOF
