  0
SECTION
  2
HEADER
  9
$ACADVER
  1
AC1014
  9
$ACADMAINTVER
 70
     9
  9
$DWGCODEPAGE
  3
ANSI_932
  9
$INSBASE
 10
0.0
 20
0.0
 30
0.0
  9
$EXTMIN
 10
14.78649358333334
 20
-0.1161230000000018
 30
0.0
  9
$EXTMAX
 10
181.802131
 20
67.46914833333334
 30
0.0
  9
$LIMMIN
 10
0.0
 20
0.0
  9
$LIMMAX
 10
12.0
 20
9.0
  9
$ORTHOMODE
 70
     0
  9
$REGENMODE
 70
     1
  9
$FILLMODE
 70
     1
  9
$QTEXTMODE
 70
     0
  9
$MIRRTEXT
 70
     1
  9
$DRAGMODE
 70
     2
  9
$LTSCALE
 40
1.810366
  9
$OSMODE
 70
   511
  9
$ATTMODE
 70
     1
  9
$TEXTSIZE
 40
0.2
  9
$TRACEWID
 40
1.0
  9
$TEXTSTYLE
  7
STANDARD
  9
$CLAYER
  8
0
  9
$CELTYPE
  6
BYLAYER
  9
$CECOLOR
 62
   256
  9
$CELTSCALE
 40
1.0
  9
$DELOBJ
 70
     1
  9
$DISPSILH
 70
     0
  9
$DIMSCALE
 40
1.0
  9
$DIMASZ
 40
2.5
  9
$DIMEXO
 40
0.625
  9
$DIMDLI
 40
3.75
  9
$DIMRND
 40
0.0
  9
$DIMDLE
 40
0.0
  9
$DIMEXE
 40
1.25
  9
$DIMTP
 40
0.0
  9
$DIMTM
 40
0.0
  9
$DIMTXT
 40
2.5
  9
$DIMCEN
 40
0.09
  9
$DIMTSZ
 40
0.0
  9
$DIMTOL
 70
     0
  9
$DIMLIM
 70
     0
  9
$DIMTIH
 70
     0
  9
$DIMTOH
 70
     0
  9
$DIMSE1
 70
     0
  9
$DIMSE2
 70
     0
  9
$DIMTAD
 70
     0
  9
$DIMZIN
 70
     8
  9
$DIMBLK
  1

  9
$DIMASO
 70
     1
  9
$DIMSHO
 70
     0
  9
$DIMPOST
  1

  9
$DIMAPOST
  1

  9
$DIMALT
 70
     0
  9
$DIMALTD
 70
     3
  9
$DIMALTF
 40
0.03937
  9
$DIMLFAC
 40
1.0
  9
$DIMTOFL
 70
     1
  9
$DIMTVP
 40
0.0
  9
$DIMTIX
 70
     0
  9
$DIMSOXD
 70
     0
  9
$DIMSAH
 70
     0
  9
$DIMBLK1
  1

  9
$DIMBLK2
  1

  9
$DIMSTYLE
  2
ISO-25
  9
$DIMCLRD
 70
     0
  9
$DIMCLRE
 70
     0
  9
$DIMCLRT
 70
     0
  9
$DIMTFAC
 40
1.0
  9
$DIMGAP
 40
0.625
  9
$DIMJUST
 70
     0
  9
$DIMSD1
 70
     0
  9
$DIMSD2
 70
     0
  9
$DIMTOLJ
 70
     0
  9
$DIMTZIN
 70
     8
  9
$DIMALTZ
 70
     0
  9
$DIMALTTZ
 70
     0
  9
$DIMFIT
 70
     3
  9
$DIMUPT
 70
     0
  9
$DIMUNIT
 70
     2
  9
$DIMDEC
 70
     2
  9
$DIMTDEC
 70
     2
  9
$DIMALTU
 70
     2
  9
$DIMALTTD
 70
     3
  9
$DIMTXSTY
  7
STANDARD
  9
$DIMAUNIT
 70
     0
  9
$LUNITS
 70
     2
  9
$LUPREC
 70
     4
  9
$SKETCHINC
 40
1.0
  9
$FILLETRAD
 40
0.0
  9
$AUNITS
 70
     0
  9
$AUPREC
 70
     0
  9
$MENU
  1
.
  9
$ELEVATION
 40
0.0
  9
$PELEVATION
 40
0.0
  9
$THICKNESS
 40
0.0
  9
$LIMCHECK
 70
     0
  9
$CHAMFERA
 40
10.0
  9
$CHAMFERB
 40
10.0
  9
$CHAMFERC
 40
20.0
  9
$CHAMFERD
 40
0.0
  9
$SKPOLY
 70
     0
  9
$TDCREATE
 40
2454734.42414368
  9
$TDUPDATE
 40
2457962.432375197
  9
$TDINDWG
 40
0.000193912
  9
$TDUSRTIMER
 40
2457962.057181574
  9
$USRTIMER
 70
     1
  9
$ANGBASE
 50
0.0
  9
$ANGDIR
 70
     0
  9
$PDMODE
 70
     0
  9
$PDSIZE
 40
0.0
  9
$PLINEWID
 40
0.0
  9
$COORDS
 70
     1
  9
$SPLFRAME
 70
     0
  9
$SPLINETYPE
 70
     6
  9
$SPLINESEGS
 70
     8
  9
$ATTDIA
 70
     0
  9
$ATTREQ
 70
     1
  9
$HANDLING
 70
     1
  9
$HANDSEED
  5
166
  9
$SURFTAB1
 70
     6
  9
$SURFTAB2
 70
     6
  9
$SURFTYPE
 70
     6
  9
$SURFU
 70
     6
  9
$SURFV
 70
     6
  9
$UCSNAME
  2

  9
$UCSORG
 10
0.0
 20
0.0
 30
0.0
  9
$UCSXDIR
 10
1.0
 20
0.0
 30
0.0
  9
$UCSYDIR
 10
0.0
 20
1.0
 30
0.0
  9
$PUCSNAME
  2

  9
$PUCSORG
 10
0.0
 20
0.0
 30
0.0
  9
$PUCSXDIR
 10
1.0
 20
0.0
 30
0.0
  9
$PUCSYDIR
 10
0.0
 20
1.0
 30
0.0
  9
$USERI1
 70
     0
  9
$USERI2
 70
     0
  9
$USERI3
 70
     0
  9
$USERI4
 70
     0
  9
$USERI5
 70
     0
  9
$USERR1
 40
0.0
  9
$USERR2
 40
0.0
  9
$USERR3
 40
0.0
  9
$USERR4
 40
0.0
  9
$USERR5
 40
0.0
  9
$WORLDVIEW
 70
     1
  9
$SHADEDGE
 70
     3
  9
$SHADEDIF
 70
    70
  9
$TILEMODE
 70
     1
  9
$MAXACTVP
 70
    64
  9
$PINSBASE
 10
0.0
 20
0.0
 30
0.0
  9
$PLIMCHECK
 70
     0
  9
$PEXTMIN
 10
1.000000000000000E+20
 20
1.000000000000000E+20
 30
0.0
  9
$PEXTMAX
 10
-1.000000000000000E+20
 20
-1.000000000000000E+20
 30
0.0
  9
$PLIMMIN
 10
0.0
 20
0.0
  9
$PLIMMAX
 10
0.0
 20
0.0
  9
$UNITMODE
 70
     0
  9
$VISRETAIN
 70
     1
  9
$PLINEGEN
 70
     0
  9
$PSLTSCALE
 70
     1
  9
$TREEDEPTH
 70
  3020
  9
$PICKSTYLE
 70
     1
  9
$CMLSTYLE
  2
STANDARD
  9
$CMLJUST
 70
     0
  9
$CMLSCALE
 40
20.0
  9
$PROXYGRAPHICS
 70
     1
  9
$MEASUREMENT
 70
     1
  0
ENDSEC
  0
SECTION
  2
CLASSES
  0
CLASS
  1
ACDBDICTIONARYWDFLT
  2
AcDbDictionaryWithDefault
  3
ObjectDBX Classes
 90
        0
280
     0
281
     0
  0
CLASS
  1
VISUALSTYLE
  2
AcDbVisualStyle
  3
ObjectDBX Classes
 90
     4095
280
     0
281
     0
  0
CLASS
  1
SCALE
  2
AcDbScale
  3
ObjectDBX Classes
 90
     1153
280
     0
281
     0
  0
CLASS
  1
DICTIONARYVAR
  2
AcDbDictionaryVar
  3
ObjectDBX Classes
 90
        0
280
     0
281
     0
  0
CLASS
  1
ACDBPLACEHOLDER
  2
AcDbPlaceHolder
  3
ObjectDBX Classes
 90
        0
280
     0
281
     0
  0
CLASS
  1
LAYOUT
  2
AcDbLayout
  3
ObjectDBX Classes
 90
        0
280
     0
281
     0
  0
CLASS
  1
MATERIAL
  2
AcDbMaterial
  3
ObjectDBX Classes
 90
     1153
280
     0
281
     0
  0
CLASS
  1
TABLESTYLE
  2
AcDbTableStyle
  3
ObjectDBX Classes
 90
     4095
280
     0
281
     0
  0
CLASS
  1
MLEADERSTYLE
  2
AcDbMLeaderStyle
  3
ACDB_MLEADERSTYLE_CLASS
 90
     4095
280
     0
281
     0
  0
CLASS
  1
SUN
  2
AcDbSun
  3
SCENEOE
 90
     1153
280
     0
281
     0
  0
CLASS
  1
RASTERVARIABLES
  2
AcDbRasterVariables
  3
ISM
 90
        0
280
     0
281
     0
  0
CLASS
  1
XRECORD
  2
AcDbXrecord
  3
ObjectDBX Classes
 90
        0
280
     0
281
     0
  0
CLASS
  1
LWPOLYLINE
  2
AcDbPolyline
  3
ObjectDBX Classes
 90
        0
280
     0
281
     1
  0
CLASS
  1
HATCH
  2
AcDbHatch
  3
ObjectDBX Classes
 90
        0
280
     0
281
     1
  0
ENDSEC
  0
SECTION
  2
TABLES
  0
TABLE
  2
VPORT
  5
8
330
0
100
AcDbSymbolTable
 70
     1
  0
VPORT
  5
29
330
8
100
AcDbSymbolTableRecord
100
AcDbViewportTableRecord
  2
*ACTIVE
 70
     0
 10
0.0
 20
0.0
 11
1.0
 21
1.0
 12
97.912361
 22
33.884846
 13
0.0
 23
0.0
 14
1.0
 24
1.0
 15
0.0
 25
0.0
 16
0.0
 26
0.0
 36
1.0
 17
0.0
 27
0.0
 37
0.0
 40
100.194243
 41
1.691288
 42
50.0
 43
0.0
 44
0.0
 50
0.0
 51
0.0
 71
     0
 72
   100
 73
     1
 74
     3
 75
     0
 76
     0
 77
     0
 78
     0
  0
ENDTAB
  0
TABLE
  2
LTYPE
  5
5
330
0
100
AcDbSymbolTable
 70
     5
  0
LTYPE
  5
14
330
5
100
AcDbSymbolTableRecord
100
AcDbLinetypeTableRecord
  2
BYBLOCK
 70
     0
  3

 72
    65
 73
     0
 40
0.0
  0
LTYPE
  5
15
330
5
100
AcDbSymbolTableRecord
100
AcDbLinetypeTableRecord
  2
BYLAYER
 70
     0
  3

 72
    65
 73
     0
 40
0.0
  0
LTYPE
  5
16
330
5
100
AcDbSymbolTableRecord
100
AcDbLinetypeTableRecord
  2
CONTINUOUS
 70
     0
  3
Solid line
 72
    65
 73
     0
 40
0.0
  0
LTYPE
  5
5D
330
5
100
AcDbSymbolTableRecord
100
AcDbLinetypeTableRecord
  2
DASHED
 70
     0
  3
DASHED
 72
    83
 73
     2
 40
0.75
 49
0.5
 74
     0
 49
-0.25
 74
     0
  0
LTYPE
  5
5E
330
5
100
AcDbSymbolTableRecord
100
AcDbLinetypeTableRecord
  2
HIDDEN
 70
     0
  3
HIDDEN
 72
    83
 73
     2
 40
0.375
 49
0.25
 74
     0
 49
-0.125
 74
     0
  0
LTYPE
  5
5F
330
5
100
AcDbSymbolTableRecord
100
AcDbLinetypeTableRecord
  2
CENTER
 70
     0
  3
CENTER
 72
    83
 73
     4
 40
2.0
 49
1.25
 74
     0
 49
-0.25
 74
     0
 49
0.25
 74
     0
 49
-0.25
 74
     0
  0
LTYPE
  5
60
330
5
100
AcDbSymbolTableRecord
100
AcDbLinetypeTableRecord
  2
PHANTOM
 70
     0
  3
PHANTOM
 72
    83
 73
     6
 40
2.5
 49
1.25
 74
     0
 49
-0.25
 74
     0
 49
0.25
 74
     0
 49
-0.25
 74
     0
 49
0.25
 74
     0
 49
-0.25
 74
     0
  0
ENDTAB
  0
TABLE
  2
LAYER
  5
2
330
0
100
AcDbSymbolTable
 70
     2
  0
LAYER
  5
10
330
2
100
AcDbSymbolTableRecord
100
AcDbLayerTableRecord
  2
0
 70
     0
 62
     7
  6
CONTINUOUS
  0
LAYER
  5
61
330
2
100
AcDbSymbolTableRecord
100
AcDbLayerTableRecord
  2
001
 70
     0
 62
     7
  6
CONTINUOUS
  0
ENDTAB
  0
TABLE
  2
STYLE
  5
3
330
0
100
AcDbSymbolTable
 70
     2
  0
STYLE
  5
11
330
3
100
AcDbSymbolTableRecord
100
AcDbTextStyleTableRecord
  2
STANDARD
 70
     0
 40
0.0
 41
1.0
 50
0.0
 71
     0
 42
0.2
  3
TXT
  4
BIGFONT
  0
STYLE
  5
62
330
3
100
AcDbSymbolTableRecord
100
AcDbTextStyleTableRecord
  2
TATEGAKI
 70
     4
 40
1.0
 41
1.0
 50
0.0
 71
     0
 42
0.2
  3
TXT
  4
BIGFONT
  0
ENDTAB
  0
TABLE
  2
VIEW
  5
6
330
0
100
AcDbSymbolTable
 70
     0
  0
ENDTAB
  0
TABLE
  2
UCS
  5
7
330
0
100
AcDbSymbolTable
 70
     0
  0
ENDTAB
  0
TABLE
  2
APPID
  5
9
330
0
100
AcDbSymbolTable
 70
     1
  0
APPID
  5
12
330
9
100
AcDbSymbolTableRecord
100
AcDbRegAppTableRecord
  2
ACAD
 70
     0
  0
ENDTAB
  0
TABLE
  2
DIMSTYLE
  5
A
330
0
100
AcDbSymbolTable
 70
     2
  0
DIMSTYLE
105
27
330
A
100
AcDbSymbolTableRecord
100
AcDbDimStyleTableRecord
  2
ISO-25
 70
     0
  3

  4

  5

  6

  7

 40
1.0
 41
2.5
 42
0.625
 43
3.75
 44
1.25
 45
0.0
 46
0.0
 47
0.0
 48
0.0
140
2.5
141
2.5
142
0.0
143
0.03937
144
1.0
145
0.0
146
1.0
147
0.625
 71
     0
 72
     0
 73
     0
 74
     0
 75
     0
 76
     0
 77
     1
 78
     8
170
     0
171
     3
172
     1
173
     0
174
     0
175
     0
176
     0
177
     0
178
     0
270
     2
271
     2
272
     2
273
     2
274
     3
340
11
275
     0
280
     0
281
     0
282
     0
283
     0
284
     8
285
     0
286
     0
287
     3
288
     0
  0
DIMSTYLE
105
63
102
{ACAD_REACTORS
330
DF
330
E0
330
E1
330
E2
330
E3
330
FC
102
}
330
A
100
AcDbSymbolTableRecord
100
AcDbDimStyleTableRecord
  2
STANDARD
 70
     0
  3

  4

  5

  6

  7

 40
1.0
 41
1.5
 42
0.0
 43
0.38
 44
2.75
 45
0.0
 46
0.0
 47
0.0
 48
0.0
140
4.0
141
0.09
142
0.0
143
25.4
144
1.0
145
0.0
146
0.8
147
1.0
 71
     0
 72
     0
 73
     0
 74
     0
 75
     0
 76
     0
 77
     1
 78
     8
170
     0
171
     2
172
     1
173
     0
174
     0
175
     0
176
     0
177
     0
178
     0
179
     1
270
     2
271
     1
272
     4
273
     2
274
     2
340
11
275
     0
280
     0
281
     0
282
     0
283
     1
284
     0
285
     0
286
     0
287
     3
288
     0
  0
ENDTAB
  0
TABLE
  2
BLOCK_RECORD
  5
1
330
0
100
AcDbSymbolTable
 70
     7
  0
BLOCK_RECORD
  5
1F
330
1
100
AcDbSymbolTableRecord
100
AcDbBlockTableRecord
  2
*MODEL_SPACE
  0
BLOCK_RECORD
  5
1B
330
1
100
AcDbSymbolTableRecord
100
AcDbBlockTableRecord
  2
*PAPER_SPACE
  0
BLOCK_RECORD
  5
23
330
1
100
AcDbSymbolTableRecord
100
AcDbBlockTableRecord
  2
*PAPER_SPACE0
  0
BLOCK_RECORD
  5
64
330
1
100
AcDbSymbolTableRecord
100
AcDbBlockTableRecord
  2
*D1
  0
BLOCK_RECORD
  5
79
330
1
100
AcDbSymbolTableRecord
100
AcDbBlockTableRecord
  2
*D2
  0
BLOCK_RECORD
  5
8D
330
1
100
AcDbSymbolTableRecord
100
AcDbBlockTableRecord
  2
*D3
  0
BLOCK_RECORD
  5
A1
330
1
100
AcDbSymbolTableRecord
100
AcDbBlockTableRecord
  2
*D4
  0
BLOCK_RECORD
  5
B5
330
1
100
AcDbSymbolTableRecord
100
AcDbBlockTableRecord
  2
*D5
  0
BLOCK_RECORD
  5
CB
330
1
100
AcDbSymbolTableRecord
100
AcDbBlockTableRecord
  2
*D6
  0
ENDTAB
  0
ENDSEC
  0
SECTION
  2
BLOCKS
  0
BLOCK
  5
20
330
1F
100
AcDbEntity
  8
0
100
AcDbBlockBegin
  2
*MODEL_SPACE
 70
     0
 10
0.0
 20
0.0
 30
0.0
  3
*MODEL_SPACE
  1

  0
ENDBLK
  5
21
330
1F
100
AcDbEntity
  8
0
100
AcDbBlockEnd
  0
BLOCK
  5
1C
330
1B
100
AcDbEntity
 67
     1
  8
0
100
AcDbBlockBegin
  2
*PAPER_SPACE
 70
     0
 10
0.0
 20
0.0
 30
0.0
  3
*PAPER_SPACE
  1

  0
ENDBLK
  5
1D
330
1B
100
AcDbEntity
 67
     1
  8
0
100
AcDbBlockEnd
  0
BLOCK
  5
24
330
23
100
AcDbEntity
  8
0
100
AcDbBlockBegin
  2
*PAPER_SPACE0
 70
     0
 10
0.0
 20
0.0
 30
0.0
  3
*PAPER_SPACE0
  1

  0
ENDBLK
  5
25
330
23
100
AcDbEntity
  8
0
100
AcDbBlockEnd
  0
BLOCK
  5
65
330
64
100
AcDbEntity
  8
0
100
AcDbBlockBegin
  2
*D1
 70
     1
 10
0.0
 20
0.0
 30
0.0
  3
*D1
  1

  0
LINE
  5
67
330
64
100
AcDbEntity
  8
001
100
AcDbLine
 10
45.666128
 20
36.563204
 30
0.0
 11
34.150194
 21
25.04727
 31
0.0
  0
LINE
  5
68
330
64
100
AcDbEntity
  8
001
100
AcDbLine
 10
40.042238
 20
44.446926
 30
0.0
 11
26.114594
 21
44.446926
 31
0.0
  0
ARC
  5
69
330
64
100
AcDbEntity
  8
001
100
AcDbCircle
 10
53.549849
 20
44.446926
 30
0.0
 40
24.68525568044048
100
AcDbArc
 50
180.0
 51
225.0
  0
POLYLINE
  5
6A
330
64
100
AcDbEntity
  8
001
100
AcDb2dPolyline
 66
     1
 10
0.0
 20
0.0
 30
0.0
  0
VERTEX
  5
6C
330
6A
100
AcDbEntity
  8
001
100
AcDbVertex
100
AcDb2dVertex
 10
35.359493
 20
28.359644
 30
0.0
  0
VERTEX
  5
6D
330
6A
100
AcDbEntity
  8
001
100
AcDbVertex
100
AcDb2dVertex
 10
36.094738
 20
26.991814
 30
0.0
  0
VERTEX
  5
6E
330
6A
100
AcDbEntity
  8
001
100
AcDbVertex
100
AcDb2dVertex
 10
34.774082
 20
27.808767
 30
0.0
  0
SEQEND
  5
6B
330
6A
100
AcDbEntity
  8
001
  0
POLYLINE
  5
6F
330
64
100
AcDbEntity
  8
001
100
AcDb2dPolyline
 66
     1
 10
0.0
 20
0.0
 30
0.0
  0
VERTEX
  5
71
330
6F
100
AcDbEntity
  8
001
100
AcDbVertex
100
AcDb2dVertex
 10
28.508422
 20
42.935408
 30
0.0
  0
VERTEX
  5
72
330
6F
100
AcDbEntity
  8
001
100
AcDbVertex
100
AcDb2dVertex
 10
28.864594
 20
44.446926
 30
0.0
  0
VERTEX
  5
73
330
6F
100
AcDbEntity
  8
001
100
AcDbVertex
100
AcDb2dVertex
 10
29.311899
 20
42.959828
 30
0.0
  0
SEQEND
  5
70
330
6F
100
AcDbEntity
  8
001
  0
TEXT
  5
74
330
64
100
AcDbEntity
  8
001
100
AcDbText
 10
29.711242
 20
39.088557
 30
0.0
 40
4.0
  1
４５%%d
 50
296.883489
 41
0.978261
100
AcDbText
  0
POINT
  5
75
330
64
100
AcDbEntity
  8
001
100
AcDbPoint
 10
45.666128
 20
36.563204
 30
0.0
  0
POINT
  5
76
330
64
100
AcDbEntity
  8
001
100
AcDbPoint
 10
53.549849
 20
44.446926
 30
0.0
  0
POINT
  5
77
330
64
100
AcDbEntity
  8
001
100
AcDbPoint
 10
53.549849
 20
44.446926
 30
0.0
  0
POINT
  5
78
330
64
100
AcDbEntity
  8
001
100
AcDbPoint
 10
40.042238
 20
44.446926
 30
0.0
  0
ENDBLK
  5
66
330
64
100
AcDbEntity
  8
0
100
AcDbBlockEnd
  0
BLOCK
  5
7A
330
79
100
AcDbEntity
  8
0
100
AcDbBlockBegin
  2
*D2
 70
     1
 10
0.0
 20
0.0
 30
0.0
  3
*D2
  1

  0
LINE
  5
7C
330
79
100
AcDbEntity
  8
001
100
AcDbLine
 10
89.059721
 20
39.446926
 30
0.0
 11
89.059721
 21
8.218925
 31
0.0
  0
LINE
  5
7D
330
79
100
AcDbEntity
  8
001
100
AcDbLine
 10
41.059721
 20
28.666059
 30
0.0
 11
41.059721
 21
8.218925
 31
0.0
  0
LINE
  5
7E
330
79
100
AcDbEntity
  8
001
100
AcDbLine
 10
89.059721
 20
10.968925
 30
0.0
 11
41.059721
 21
10.968925
 31
0.0
  0
POLYLINE
  5
7F
330
79
100
AcDbEntity
  8
001
100
AcDb2dPolyline
 66
     1
 10
0.0
 20
0.0
 30
0.0
  0
VERTEX
  5
81
330
7F
100
AcDbEntity
  8
001
100
AcDbVertex
100
AcDb2dVertex
 10
87.559721
 20
11.370849
 30
0.0
  0
VERTEX
  5
82
330
7F
100
AcDbEntity
  8
001
100
AcDbVertex
100
AcDb2dVertex
 10
89.059721
 20
10.968925
 30
0.0
  0
VERTEX
  5
83
330
7F
100
AcDbEntity
  8
001
100
AcDbVertex
100
AcDb2dVertex
 10
87.559721
 20
10.567001
 30
0.0
  0
SEQEND
  5
80
330
7F
100
AcDbEntity
  8
001
  0
POLYLINE
  5
84
330
79
100
AcDbEntity
  8
001
100
AcDb2dPolyline
 66
     1
 10
0.0
 20
0.0
 30
0.0
  0
VERTEX
  5
86
330
84
100
AcDbEntity
  8
001
100
AcDbVertex
100
AcDb2dVertex
 10
42.559721
 20
10.567001
 30
0.0
  0
VERTEX
  5
87
330
84
100
AcDbEntity
  8
001
100
AcDbVertex
100
AcDb2dVertex
 10
41.059721
 20
10.968925
 30
0.0
  0
VERTEX
  5
88
330
84
100
AcDbEntity
  8
001
100
AcDbVertex
100
AcDb2dVertex
 10
42.559721
 20
11.370849
 30
0.0
  0
SEQEND
  5
85
330
84
100
AcDbEntity
  8
001
  0
TEXT
  5
89
330
79
100
AcDbEntity
  8
001
100
AcDbText
 10
61.059721
 20
11.968925
 30
0.0
 40
4.0
  1
４８
 41
0.833333
100
AcDbText
  0
POINT
  5
8A
330
79
100
AcDbEntity
  8
001
100
AcDbPoint
 10
89.059721
 20
39.446926
 30
0.0
  0
POINT
  5
8B
330
79
100
AcDbEntity
  8
001
100
AcDbPoint
 10
41.059721
 20
28.666059
 30
0.0
  0
POINT
  5
8C
330
79
100
AcDbEntity
  8
001
100
AcDbPoint
 10
41.059721
 20
10.968925
 30
0.0
  0
ENDBLK
  5
7B
330
79
100
AcDbEntity
  8
0
100
AcDbBlockEnd
  0
BLOCK
  5
8E
330
8D
100
AcDbEntity
  8
0
100
AcDbBlockBegin
  2
*D3
 70
     1
 10
0.0
 20
0.0
 30
0.0
  3
*D3
  1

  0
LINE
  5
90
330
8D
100
AcDbEntity
  8
001
100
AcDbLine
 10
159.059721
 20
39.446926
 30
0.0
 11
159.059721
 21
8.218925
 31
0.0
  0
LINE
  5
91
330
8D
100
AcDbEntity
  8
001
100
AcDbLine
 10
89.059721
 20
39.446926
 30
0.0
 11
89.059721
 21
8.218925
 31
0.0
  0
LINE
  5
92
330
8D
100
AcDbEntity
  8
001
100
AcDbLine
 10
159.059721
 20
10.968925
 30
0.0
 11
89.059721
 21
10.968925
 31
0.0
  0
POLYLINE
  5
93
330
8D
100
AcDbEntity
  8
001
100
AcDb2dPolyline
 66
     1
 10
0.0
 20
0.0
 30
0.0
  0
VERTEX
  5
95
330
93
100
AcDbEntity
  8
001
100
AcDbVertex
100
AcDb2dVertex
 10
157.559721
 20
11.370849
 30
0.0
  0
VERTEX
  5
96
330
93
100
AcDbEntity
  8
001
100
AcDbVertex
100
AcDb2dVertex
 10
159.059721
 20
10.968925
 30
0.0
  0
VERTEX
  5
97
330
93
100
AcDbEntity
  8
001
100
AcDbVertex
100
AcDb2dVertex
 10
157.559721
 20
10.567001
 30
0.0
  0
SEQEND
  5
94
330
93
100
AcDbEntity
  8
001
  0
POLYLINE
  5
98
330
8D
100
AcDbEntity
  8
001
100
AcDb2dPolyline
 66
     1
 10
0.0
 20
0.0
 30
0.0
  0
VERTEX
  5
9A
330
98
100
AcDbEntity
  8
001
100
AcDbVertex
100
AcDb2dVertex
 10
90.559721
 20
10.567001
 30
0.0
  0
VERTEX
  5
9B
330
98
100
AcDbEntity
  8
001
100
AcDbVertex
100
AcDb2dVertex
 10
89.059721
 20
10.968925
 30
0.0
  0
VERTEX
  5
9C
330
98
100
AcDbEntity
  8
001
100
AcDbVertex
100
AcDb2dVertex
 10
90.559721
 20
11.370849
 30
0.0
  0
SEQEND
  5
99
330
98
100
AcDbEntity
  8
001
  0
TEXT
  5
9D
330
8D
100
AcDbEntity
  8
001
100
AcDbText
 10
120.059721
 20
11.968925
 30
0.0
 40
4.0
  1
７０
 41
0.833333
100
AcDbText
  0
POINT
  5
9E
330
8D
100
AcDbEntity
  8
001
100
AcDbPoint
 10
159.059721
 20
39.446926
 30
0.0
  0
POINT
  5
9F
330
8D
100
AcDbEntity
  8
001
100
AcDbPoint
 10
89.059721
 20
39.446926
 30
0.0
  0
POINT
  5
A0
330
8D
100
AcDbEntity
  8
001
100
AcDbPoint
 10
89.059721
 20
10.968925
 30
0.0
  0
ENDBLK
  5
8F
330
8D
100
AcDbEntity
  8
0
100
AcDbBlockEnd
  0
BLOCK
  5
A2
330
A1
100
AcDbEntity
  8
0
100
AcDbBlockBegin
  2
*D4
 70
     1
 10
0.0
 20
0.0
 30
0.0
  3
*D4
  1

  0
LINE
  5
A4
330
A1
100
AcDbEntity
  8
001
100
AcDbLine
 10
41.059721
 20
28.666059
 30
0.0
 11
41.059721
 21
-0.116123
 31
0.0
  0
LINE
  5
A5
330
A1
100
AcDbEntity
  8
001
100
AcDbLine
 10
159.059721
 20
39.446926
 30
0.0
 11
159.059721
 21
-0.116123
 31
0.0
  0
LINE
  5
A6
330
A1
100
AcDbEntity
  8
001
100
AcDbLine
 10
41.059721
 20
2.633877
 30
0.0
 11
159.059721
 21
2.633877
 31
0.0
  0
POLYLINE
  5
A7
330
A1
100
AcDbEntity
  8
001
100
AcDb2dPolyline
 66
     1
 10
0.0
 20
0.0
 30
0.0
  0
VERTEX
  5
A9
330
A7
100
AcDbEntity
  8
001
100
AcDbVertex
100
AcDb2dVertex
 10
42.559721
 20
2.231953
 30
0.0
  0
VERTEX
  5
AA
330
A7
100
AcDbEntity
  8
001
100
AcDbVertex
100
AcDb2dVertex
 10
41.059721
 20
2.633877
 30
0.0
  0
VERTEX
  5
AB
330
A7
100
AcDbEntity
  8
001
100
AcDbVertex
100
AcDb2dVertex
 10
42.559721
 20
3.035801
 30
0.0
  0
SEQEND
  5
A8
330
A7
100
AcDbEntity
  8
001
  0
POLYLINE
  5
AC
330
A1
100
AcDbEntity
  8
001
100
AcDb2dPolyline
 66
     1
 10
0.0
 20
0.0
 30
0.0
  0
VERTEX
  5
AE
330
AC
100
AcDbEntity
  8
001
100
AcDbVertex
100
AcDb2dVertex
 10
157.559721
 20
3.035801
 30
0.0
  0
VERTEX
  5
AF
330
AC
100
AcDbEntity
  8
001
100
AcDbVertex
100
AcDb2dVertex
 10
159.059721
 20
2.633877
 30
0.0
  0
VERTEX
  5
B0
330
AC
100
AcDbEntity
  8
001
100
AcDbVertex
100
AcDb2dVertex
 10
157.559721
 20
2.231953
 30
0.0
  0
SEQEND
  5
AD
330
AC
100
AcDbEntity
  8
001
  0
TEXT
  5
B1
330
A1
100
AcDbEntity
  8
001
100
AcDbText
 10
94.059721
 20
3.633877
 30
0.0
 40
4.0
  1
１１８
 41
0.833333
100
AcDbText
  0
POINT
  5
B2
330
A1
100
AcDbEntity
  8
001
100
AcDbPoint
 10
41.059721
 20
28.666059
 30
0.0
  0
POINT
  5
B3
330
A1
100
AcDbEntity
  8
001
100
AcDbPoint
 10
159.059721
 20
39.446926
 30
0.0
  0
POINT
  5
B4
330
A1
100
AcDbEntity
  8
001
100
AcDbPoint
 10
159.059721
 20
2.633877
 30
0.0
  0
ENDBLK
  5
A3
330
A1
100
AcDbEntity
  8
0
100
AcDbBlockEnd
  0
BLOCK
  5
B6
330
B5
100
AcDbEntity
  8
0
100
AcDbBlockBegin
  2
*D5
 70
     1
 10
0.0
 20
0.0
 30
0.0
  3
*D5
  1

  0
LINE
  5
B8
330
B5
100
AcDbEntity
  8
001
100
AcDbLine
 10
48.059721
 20
38.956798
 30
0.0
 11
48.059721
 21
16.504673
 31
0.0
  0
LINE
  5
B9
330
B5
100
AcDbEntity
  8
001
100
AcDbLine
 10
41.059721
 20
28.666059
 30
0.0
 11
41.059721
 21
16.504673
 31
0.0
  0
LINE
  5
BA
330
B5
100
AcDbEntity
  8
001
100
AcDbLine
 10
48.059721
 20
19.254673
 30
0.0
 11
41.059721
 21
19.254673
 31
0.0
  0
POLYLINE
  5
BB
330
B5
100
AcDbEntity
  8
001
100
AcDb2dPolyline
 66
     1
 10
0.0
 20
0.0
 30
0.0
  0
VERTEX
  5
BD
330
BB
100
AcDbEntity
  8
001
100
AcDbVertex
100
AcDb2dVertex
 10
49.559721
 20
18.852749
 30
0.0
  0
VERTEX
  5
BE
330
BB
100
AcDbEntity
  8
001
100
AcDbVertex
100
AcDb2dVertex
 10
48.059721
 20
19.254673
 30
0.0
  0
VERTEX
  5
BF
330
BB
100
AcDbEntity
  8
001
100
AcDbVertex
100
AcDb2dVertex
 10
49.559721
 20
19.656597
 30
0.0
  0
SEQEND
  5
BC
330
BB
100
AcDbEntity
  8
001
  0
POLYLINE
  5
C0
330
B5
100
AcDbEntity
  8
001
100
AcDb2dPolyline
 66
     1
 10
0.0
 20
0.0
 30
0.0
  0
VERTEX
  5
C2
330
C0
100
AcDbEntity
  8
001
100
AcDbVertex
100
AcDb2dVertex
 10
39.559721
 20
19.656597
 30
0.0
  0
VERTEX
  5
C3
330
C0
100
AcDbEntity
  8
001
100
AcDbVertex
100
AcDb2dVertex
 10
41.059721
 20
19.254673
 30
0.0
  0
VERTEX
  5
C4
330
C0
100
AcDbEntity
  8
001
100
AcDbVertex
100
AcDb2dVertex
 10
39.559721
 20
18.852749
 30
0.0
  0
SEQEND
  5
C1
330
C0
100
AcDbEntity
  8
001
  0
TEXT
  5
C5
330
B5
100
AcDbEntity
  8
001
100
AcDbText
 10
42.559721
 20
20.254673
 30
0.0
 40
4.0
  1
７
 41
0.833333
100
AcDbText
  0
POINT
  5
C6
330
B5
100
AcDbEntity
  8
001
100
AcDbPoint
 10
48.059721
 20
38.956798
 30
0.0
  0
POINT
  5
C7
330
B5
100
AcDbEntity
  8
001
100
AcDbPoint
 10
41.059721
 20
28.666059
 30
0.0
  0
POINT
  5
C8
330
B5
100
AcDbEntity
  8
001
100
AcDbPoint
 10
41.059721
 20
19.254673
 30
0.0
  0
LINE
  5
C9
330
B5
100
AcDbEntity
  8
001
100
AcDbLine
 10
48.059721
 20
19.254673
 30
0.0
 11
50.559721
 21
19.254673
 31
0.0
  0
LINE
  5
CA
330
B5
100
AcDbEntity
  8
001
100
AcDbLine
 10
41.059721
 20
19.254673
 30
0.0
 11
38.559721
 21
19.254673
 31
0.0
  0
ENDBLK
  5
B7
330
B5
100
AcDbEntity
  8
0
100
AcDbBlockEnd
  0
BLOCK
  5
CC
330
CB
100
AcDbEntity
  8
0
100
AcDbBlockBegin
  2
*D6
 70
     1
 10
0.0
 20
0.0
 30
0.0
  3
*D6
  1

  0
LINE
  5
CE
330
CB
100
AcDbEntity
  8
001
100
AcDbLine
 10
158.059721
 20
50.446926
 30
0.0
 11
181.802131
 21
50.446926
 31
0.0
  0
LINE
  5
CF
330
CB
100
AcDbEntity
  8
001
100
AcDbLine
 10
158.059721
 20
38.446926
 30
0.0
 11
181.802131
 21
38.446926
 31
0.0
  0
LINE
  5
D0
330
CB
100
AcDbEntity
  8
001
100
AcDbLine
 10
179.052131
 20
50.446926
 30
0.0
 11
179.052131
 21
38.446926
 31
0.0
  0
POLYLINE
  5
D1
330
CB
100
AcDbEntity
  8
001
100
AcDb2dPolyline
 66
     1
 10
0.0
 20
0.0
 30
0.0
  0
VERTEX
  5
D3
330
D1
100
AcDbEntity
  8
001
100
AcDbVertex
100
AcDb2dVertex
 10
178.650207
 20
48.946926
 30
0.0
  0
VERTEX
  5
D4
330
D1
100
AcDbEntity
  8
001
100
AcDbVertex
100
AcDb2dVertex
 10
179.052131
 20
50.446926
 30
0.0
  0
VERTEX
  5
D5
330
D1
100
AcDbEntity
  8
001
100
AcDbVertex
100
AcDb2dVertex
 10
179.454055
 20
48.946926
 30
0.0
  0
SEQEND
  5
D2
330
D1
100
AcDbEntity
  8
001
  0
POLYLINE
  5
D6
330
CB
100
AcDbEntity
  8
001
100
AcDb2dPolyline
 66
     1
 10
0.0
 20
0.0
 30
0.0
  0
VERTEX
  5
D8
330
D6
100
AcDbEntity
  8
001
100
AcDbVertex
100
AcDb2dVertex
 10
179.454055
 20
39.946926
 30
0.0
  0
VERTEX
  5
D9
330
D6
100
AcDbEntity
  8
001
100
AcDbVertex
100
AcDb2dVertex
 10
179.052131
 20
38.446926
 30
0.0
  0
VERTEX
  5
DA
330
D6
100
AcDbEntity
  8
001
100
AcDbVertex
100
AcDb2dVertex
 10
178.650207
 20
39.946926
 30
0.0
  0
SEQEND
  5
D7
330
D6
100
AcDbEntity
  8
001
  0
TEXT
  5
DB
330
CB
100
AcDbEntity
  8
001
100
AcDbText
 10
178.052131
 20
38.446926
 30
0.0
 40
4.0
  1
%%c１２
 50
90.000003
 41
0.882353
100
AcDbText
  0
POINT
  5
DC
330
CB
100
AcDbEntity
  8
001
100
AcDbPoint
 10
158.059721
 20
50.446926
 30
0.0
  0
POINT
  5
DD
330
CB
100
AcDbEntity
  8
001
100
AcDbPoint
 10
158.059721
 20
38.446926
 30
0.0
  0
POINT
  5
DE
330
CB
100
AcDbEntity
  8
001
100
AcDbPoint
 10
179.052131
 20
38.446926
 30
0.0
  0
ENDBLK
  5
CD
330
CB
100
AcDbEntity
  8
0
100
AcDbBlockEnd
  0
ENDSEC
  0
SECTION
  2
ENTITIES
  0
DIMENSION
  5
DF
330
1F
100
AcDbEntity
  8
001
100
AcDbDimension
  2
*D1
 10
53.549849
 20
44.446926
 30
0.0
 11
34.208164
 21
34.641345
 31
0.0
 70
    34
  3
STANDARD
100
AcDb2LineAngularDimension
 13
45.666128
 23
36.563204
 33
0.0
 14
53.549849
 24
44.446926
 34
0.0
 15
40.042238
 25
44.446926
 35
0.0
 16
30.743647
 26
35.000287
 36
0.0
  0
DIMENSION
  5
E0
330
1F
100
AcDbEntity
  8
001
100
AcDbDimension
  2
*D2
 10
41.059721
 20
10.968925
 30
0.0
 11
65.059721
 21
13.968925
 31
0.0
 70
   160
  3
STANDARD
100
AcDbAlignedDimension
 13
89.059721
 23
39.446926
 33
0.0
 14
41.059721
 24
28.666059
 34
0.0
 50
180.0
100
AcDbRotatedDimension
  0
DIMENSION
  5
E1
330
1F
100
AcDbEntity
  8
001
100
AcDbDimension
  2
*D3
 10
89.059721
 20
10.968925
 30
0.0
 11
124.059721
 21
13.968925
 31
0.0
 70
   160
  3
STANDARD
100
AcDbAlignedDimension
 13
159.059721
 23
39.446926
 33
0.0
 14
89.059721
 24
39.446926
 34
0.0
 50
180.0
100
AcDbRotatedDimension
  0
DIMENSION
  5
E2
330
1F
100
AcDbEntity
  8
001
100
AcDbDimension
  2
*D4
 10
159.059721
 20
2.633877
 30
0.0
 11
100.059721
 21
5.633877
 31
0.0
 70
   160
  3
STANDARD
100
AcDbAlignedDimension
 13
41.059721
 23
28.666059
 33
0.0
 14
159.059721
 24
39.446926
 34
0.0
100
AcDbRotatedDimension
  0
DIMENSION
  5
E3
330
1F
100
AcDbEntity
  8
001
100
AcDbDimension
  2
*D5
 10
41.059721
 20
19.254673
 30
0.0
 11
44.559721
 21
22.254673
 31
0.0
 70
   160
  3
STANDARD
100
AcDbAlignedDimension
 13
48.059721
 23
38.956798
 33
0.0
 14
41.059721
 24
28.666059
 34
0.0
 50
180.0
100
AcDbRotatedDimension
  0
TEXT
  5
E4
330
1F
100
AcDbEntity
  8
001
100
AcDbText
 10
63.839158
 20
41.026566
 30
0.0
 40
4.0
  1
%%c１１
 50
90.000003
 41
0.882353
100
AcDbText
  0
POLYLINE
  5
E5
330
1F
100
AcDbEntity
  8
001
100
AcDb2dPolyline
 66
     1
 10
0.0
 20
0.0
 30
0.0
  0
VERTEX
  5
E7
330
E5
100
AcDbEntity
  8
001
100
AcDbVertex
100
AcDb2dVertex
 10
65.241081
 20
40.456798
 30
0.0
  0
VERTEX
  5
E8
330
E5
100
AcDbEntity
  8
001
100
AcDbVertex
100
AcDb2dVertex
 10
64.839158
 20
38.956798
 30
0.0
  0
VERTEX
  5
E9
330
E5
100
AcDbEntity
  8
001
100
AcDbVertex
100
AcDb2dVertex
 10
64.437234
 20
40.456798
 30
0.0
  0
SEQEND
  5
E6
330
E5
100
AcDbEntity
  8
001
  0
LINE
  5
EA
330
1F
100
AcDbEntity
  8
001
100
AcDbLine
 10
64.839158
 20
38.956798
 30
0.0
 11
64.839158
 21
49.937054
 31
0.0
  0
POLYLINE
  5
EB
330
1F
100
AcDbEntity
  8
001
100
AcDb2dPolyline
 66
     1
 10
0.0
 20
0.0
 30
0.0
  0
VERTEX
  5
ED
330
EB
100
AcDbEntity
  8
001
100
AcDbVertex
100
AcDb2dVertex
 10
49.82923
 20
38.956798
 30
0.0
  0
VERTEX
  5
EE
330
EB
100
AcDbEntity
  8
001
100
AcDbVertex
100
AcDb2dVertex
 10
64.839158
 20
38.956798
 30
0.0
  0
VERTEX
  5
EF
330
EB
100
AcDbEntity
  8
001
100
AcDbVertex
100
AcDb2dVertex
 10
67.589158
 20
38.956798
 30
0.0
  0
SEQEND
  5
EC
330
EB
100
AcDbEntity
  8
001
  0
TEXT
  5
F0
330
1F
100
AcDbEntity
  8
001
100
AcDbText
 10
21.8872
 20
38.446926
 30
0.0
 40
4.0
  1
%%c１６
 50
90.000003
 41
0.882353
100
AcDbText
  0
POLYLINE
  5
F1
330
1F
100
AcDbEntity
  8
001
100
AcDb2dPolyline
 66
     1
 10
0.0
 20
0.0
 30
0.0
  0
VERTEX
  5
F3
330
F1
100
AcDbEntity
  8
001
100
AcDbVertex
100
AcDb2dVertex
 10
23.289124
 20
37.946926
 30
0.0
  0
VERTEX
  5
F4
330
F1
100
AcDbEntity
  8
001
100
AcDbVertex
100
AcDb2dVertex
 10
22.8872
 20
36.446926
 30
0.0
  0
VERTEX
  5
F5
330
F1
100
AcDbEntity
  8
001
100
AcDbVertex
100
AcDb2dVertex
 10
22.485276
 20
37.946926
 30
0.0
  0
SEQEND
  5
F2
330
F1
100
AcDbEntity
  8
001
  0
LINE
  5
F6
330
1F
100
AcDbEntity
  8
001
100
AcDbLine
 10
22.8872
 20
52.446926
 30
0.0
 11
22.8872
 21
36.446926
 31
0.0
  0
POLYLINE
  5
F7
330
1F
100
AcDbEntity
  8
001
100
AcDb2dPolyline
 66
     1
 10
0.0
 20
0.0
 30
0.0
  0
VERTEX
  5
F9
330
F7
100
AcDbEntity
  8
001
100
AcDbVertex
100
AcDb2dVertex
 10
37.316852
 20
36.446926
 30
0.0
  0
VERTEX
  5
FA
330
F7
100
AcDbEntity
  8
001
100
AcDbVertex
100
AcDb2dVertex
 10
22.8872
 20
36.446926
 30
0.0
  0
VERTEX
  5
FB
330
F7
100
AcDbEntity
  8
001
100
AcDbVertex
100
AcDb2dVertex
 10
20.1372
 20
36.446926
 30
0.0
  0
SEQEND
  5
F8
330
F7
100
AcDbEntity
  8
001
  0
DIMENSION
  5
FC
330
1F
100
AcDbEntity
  8
001
100
AcDbDimension
  2
*D6
 10
179.052131
 20
38.446926
 30
0.0
 11
176.052131
 21
44.446926
 31
0.0
 70
   160
  3
STANDARD
100
AcDbAlignedDimension
 13
158.059721
 23
50.446926
 33
0.0
 14
158.059721
 24
38.446926
 34
0.0
 50
270.0
100
AcDbRotatedDimension
  0
ARC
  5
FD
330
1F
100
AcDbEntity
  8
001
100
AcDbCircle
 10
45.387361
 20
41.472608
 30
0.0
 40
0.175
100
AcDbArc
 50
14.493061
 51
165.186939
  0
ARC
  5
FE
330
1F
100
AcDbEntity
  8
001
100
AcDbCircle
 10
44.911709
 20
41.598397
 30
0.0
 40
0.3170045884846417
100
AcDbArc
 50
254.493061
 51
345.186939
  0
ARC
  5
FF
330
1F
100
AcDbEntity
  8
001
100
AcDbCircle
 10
44.780169
 20
41.124303
 30
0.0
 40
0.175
100
AcDbArc
 50
74.493061
 51
225.186939
  0
ARC
  5
100
330
1F
100
AcDbEntity
  8
001
100
AcDbCircle
 10
44.433406
 20
40.77527
 30
0.0
 40
0.3170045884846417
100
AcDbArc
 50
314.4930610000001
 51
45.186939
  0
ARC
  5
101
330
1F
100
AcDbEntity
  8
001
100
AcDbCircle
 10
44.778214
 20
40.424305
 30
0.0
 40
0.175
100
AcDbArc
 50
134.493061
 51
285.186939
  0
ARC
  5
102
330
1F
100
AcDbEntity
  8
001
100
AcDbCircle
 10
44.907104
 20
39.949483
 30
0.0
 40
0.3170045884846417
100
AcDbArc
 50
14.493061
 51
105.186939
  0
ARC
  5
103
330
1F
100
AcDbEntity
  8
001
100
AcDbCircle
 10
45.383452
 20
40.072614
 30
0.0
 40
0.175
100
AcDbArc
 50
194.493061
 51
345.186939
  0
ARC
  5
104
330
1F
100
AcDbEntity
  8
001
100
AcDbCircle
 10
45.859105
 20
39.946825
 30
0.0
 40
0.3170045884846417
100
AcDbArc
 50
74.493061
 51
165.186939
  0
ARC
  5
105
330
1F
100
AcDbEntity
  8
001
100
AcDbCircle
 10
45.990645
 20
40.42092
 30
0.0
 40
0.175
100
AcDbArc
 50
254.493061
 51
45.186939
  0
ARC
  5
106
330
1F
100
AcDbEntity
  8
001
100
AcDbCircle
 10
46.337408
 20
40.769953
 30
0.0
 40
0.3170045884846417
100
AcDbArc
 50
134.493061
 51
225.186939
  0
ARC
  5
107
330
1F
100
AcDbEntity
  8
001
100
AcDbCircle
 10
45.992599
 20
41.120917
 30
0.0
 40
0.175
100
AcDbArc
 50
314.4930610000001
 51
105.186939
  0
ARC
  5
108
330
1F
100
AcDbEntity
  8
001
100
AcDbCircle
 10
45.863709
 20
41.595739
 30
0.0
 40
0.3170045884846417
100
AcDbArc
 50
194.493061
 51
285.186939
  0
CIRCLE
  5
109
330
1F
100
AcDbEntity
  8
001
100
AcDbCircle
 10
45.385407
 20
40.772611
 30
0.0
 40
1.3
  0
CIRCLE
  5
10A
330
1F
100
AcDbEntity
  8
001
100
AcDbCircle
 10
45.385407
 20
40.772611
 30
0.0
 40
1.7
  0
LINE
  5
10B
330
1F
100
AcDbEntity
  8
001
100
AcDbLine
 10
45.666128
 20
36.563204
 30
0.0
 11
49.594813
 21
40.49189
 31
0.0
  0
ARC
  5
10C
330
1F
100
AcDbEntity
  8
001
100
AcDbCircle
 10
45.385407
 20
36.843926
 30
0.0
 40
0.3969999999999994
100
AcDbArc
 50
225.0
 51
315.0
  0
LINE
  5
10D
330
1F
100
AcDbEntity
  8
001
100
AcDbLine
 10
41.176
 20
40.49189
 30
0.0
 11
45.104685
 21
36.563204
 31
0.0
  0
ARC
  5
10E
330
1F
100
AcDbEntity
  8
001
100
AcDbCircle
 10
41.456721
 20
40.772611
 30
0.0
 40
0.3970000000000026
100
AcDbArc
 50
135.0
 51
225.0
  0
ARC
  5
10F
330
1F
100
AcDbEntity
  8
001
100
AcDbCircle
 10
45.385407
 20
44.701296
 30
0.0
 40
0.3970000000000019
100
AcDbArc
 50
45.0
 51
135.0
  0
LINE
  5
110
330
1F
100
AcDbEntity
  8
001
100
AcDbLine
 10
49.594813
 20
41.053332
 30
0.0
 11
45.666128
 21
44.982018
 31
0.0
  0
ARC
  5
111
330
1F
100
AcDbEntity
  8
001
100
AcDbCircle
 10
49.314092
 20
40.772611
 30
0.0
 40
0.3970000000000037
100
AcDbArc
 50
315.0
 51
45.0
  0
LINE
  5
112
330
1F
100
AcDbEntity
  8
001
100
AcDbLine
 10
45.104685
 20
44.982018
 30
0.0
 11
41.176
 21
41.053332
 31
0.0
  0
LINE
  5
113
330
1F
100
AcDbEntity
  8
001
100
AcDbLine
 10
45.309721
 20
51.946926
 30
0.0
 11
43.659721
 21
51.946926
 31
0.0
  0
LINE
  5
114
330
1F
100
AcDbEntity
  8
001
100
AcDbLine
 10
47.85374
 20
49.446926
 30
0.0
 11
45.309721
 21
51.946926
 31
0.0
  0
LINE
  5
115
330
1F
100
AcDbEntity
  8
001
100
AcDbLine
 10
43.659721
 20
51.946926
 30
0.0
 11
41.659721
 21
49.946926
 31
0.0
  0
POLYLINE
  5
116
330
1F
100
AcDbEntity
  8
001
100
AcDb2dPolyline
 66
     1
 10
0.0
 20
0.0
 30
0.0
  0
VERTEX
  5
118
330
116
100
AcDbEntity
  8
001
100
AcDbVertex
100
AcDb2dVertex
 10
43.659721
 20
37.057654
 30
0.0
  0
VERTEX
  5
119
330
116
100
AcDbEntity
  8
001
100
AcDbVertex
100
AcDb2dVertex
 10
43.231901
 20
37.492295
 30
0.0
  0
VERTEX
  5
11A
330
116
100
AcDbEntity
  8
001
100
AcDbVertex
100
AcDb2dVertex
 10
42.804518
 20
37.927365
 30
0.0
  0
VERTEX
  5
11B
330
116
100
AcDbEntity
  8
001
100
AcDbVertex
100
AcDb2dVertex
 10
42.231726
 20
38.512748
 30
0.0
  0
VERTEX
  5
11C
330
116
100
AcDbEntity
  8
001
100
AcDbVertex
100
AcDb2dVertex
 10
41.659721
 20
39.098903
 30
0.0
  0
SEQEND
  5
117
330
116
100
AcDbEntity
  8
001
  0
LINE
  5
11D
330
1F
100
AcDbEntity
  8
001
100
AcDbLine
 10
90.059721
 20
50.446926
 30
0.0
 11
90.059721
 21
38.446926
 31
0.0
  0
LINE
  5
11E
330
1F
100
AcDbEntity
  8
001
100
AcDbLine
 10
89.059721
 20
49.446926
 30
0.0
 11
89.059721
 21
39.446926
 31
0.0
  0
LINE
  5
11F
330
1F
100
AcDbEntity
  8
001
100
AcDbLine
 10
90.059721
 20
50.446926
 30
0.0
 11
89.059721
 21
49.446926
 31
0.0
  0
LINE
  5
120
330
1F
100
AcDbEntity
  8
001
100
AcDbLine
 10
89.059721
 20
39.446926
 30
0.0
 11
90.059721
 21
38.446926
 31
0.0
  0
LINE
  5
121
330
1F
100
AcDbEntity
  8
001
100
AcDbLine
 10
158.059721
 20
50.446926
 30
0.0
 11
90.059721
 21
50.446926
 31
0.0
  0
LINE
  5
122
330
1F
100
AcDbEntity
  8
001
100
AcDbLine
 10
90.059721
 20
38.446926
 30
0.0
 11
158.059721
 21
38.446926
 31
0.0
  0
ARC
  5
123
330
1F
100
AcDbEntity
  8
001
100
AcDbCircle
 10
158.059721
 20
49.446926
 30
0.0
 40
0.999999999999987
100
AcDbArc
 50
0.0
 51
90.0
  0
ARC
  5
124
330
1F
100
AcDbEntity
  8
001
100
AcDbCircle
 10
158.059721
 20
39.446926
 30
0.0
 40
0.999999999999987
100
AcDbArc
 50
270.0
 51
0.0
  0
LINE
  5
125
330
1F
100
AcDbEntity
  8
001
100
AcDbLine
 10
159.059721
 20
49.446926
 30
0.0
 11
159.059721
 21
39.446926
 31
0.0
  0
POLYLINE
  5
126
330
1F
100
AcDbEntity
  8
001
100
AcDb2dPolyline
 66
     1
 10
0.0
 20
0.0
 30
0.0
  0
VERTEX
  5
128
330
126
100
AcDbEntity
  8
001
100
AcDbVertex
100
AcDb2dVertex
 10
50.536523
 20
39.614603
 30
0.0
  0
VERTEX
  5
129
330
126
100
AcDbEntity
  8
001
100
AcDbVertex
100
AcDb2dVertex
 10
50.656817
 20
39.557397
 30
0.0
  0
VERTEX
  5
12A
330
126
100
AcDbEntity
  8
001
100
AcDbVertex
100
AcDb2dVertex
 10
50.838282
 20
39.489022
 30
0.0
  0
VERTEX
  5
12B
330
126
100
AcDbEntity
  8
001
100
AcDbVertex
100
AcDb2dVertex
 10
50.968294
 20
39.457957
 30
0.0
  0
VERTEX
  5
12C
330
126
100
AcDbEntity
  8
001
100
AcDbVertex
100
AcDb2dVertex
 10
51.059095
 20
39.446926
 30
0.0
  0
SEQEND
  5
127
330
126
100
AcDbEntity
  8
001
  0
LINE
  5
12D
330
1F
100
AcDbEntity
  8
001
100
AcDbLine
 10
89.059721
 20
49.446926
 30
0.0
 11
47.85374
 21
49.446926
 31
0.0
  0
LINE
  5
12E
330
1F
100
AcDbEntity
  8
001
100
AcDbLine
 10
51.059095
 20
39.446926
 30
0.0
 11
89.059721
 21
39.446926
 31
0.0
  0
POLYLINE
  5
12F
330
1F
100
AcDbEntity
  8
001
100
AcDb2dPolyline
 66
     1
 10
0.0
 20
0.0
 30
0.0
  0
VERTEX
  5
131
330
12F
100
AcDbEntity
  8
001
100
AcDbVertex
100
AcDb2dVertex
 10
51.059095
 20
39.446926
 30
0.0
  0
VERTEX
  5
132
330
12F
100
AcDbEntity
  8
001
100
AcDbVertex
100
AcDb2dVertex
 10
51.084832
 20
39.4478
 30
0.0
  0
VERTEX
  5
133
330
12F
100
AcDbEntity
  8
001
100
AcDbVertex
100
AcDb2dVertex
 10
51.121793
 20
39.453195
 30
0.0
  0
VERTEX
  5
134
330
12F
100
AcDbEntity
  8
001
100
AcDbVertex
100
AcDb2dVertex
 10
51.151956
 20
39.462843
 30
0.0
  0
VERTEX
  5
135
330
12F
100
AcDbEntity
  8
001
100
AcDbVertex
100
AcDb2dVertex
 10
51.171725
 20
39.471989
 30
0.0
  0
SEQEND
  5
130
330
12F
100
AcDbEntity
  8
001
  0
LINE
  5
136
330
1F
100
AcDbEntity
  8
001
100
AcDbLine
 10
54.659721
 20
39.471989
 30
0.0
 11
51.171725
 21
39.471989
 31
0.0
  0
LINE
  5
137
330
1F
100
AcDbEntity
  8
001
100
AcDbLine
 10
54.659721
 20
42.446926
 30
0.0
 11
54.659721
 21
39.471989
 31
0.0
  0
ARC
  5
138
330
1F
100
AcDbEntity
  8
001
100
AcDbCircle
 10
49.659721
 20
42.446926
 30
0.0
 40
4.999999999999999
100
AcDbArc
 50
0.0
 51
90.0
  0
LINE
  5
139
330
1F
100
AcDbEntity
  8
001
100
AcDbLine
 10
49.659721
 20
47.446926
 30
0.0
 11
41.659721
 21
47.446926
 31
0.0
  0
LINE
  5
13A
330
1F
100
AcDbEntity
  8
001
100
AcDbLine
 10
47.85374
 20
47.446926
 30
0.0
 11
47.85374
 21
49.446926
 31
0.0
  0
LINE
  5
13B
330
1F
100
AcDbEntity
  8
001
100
AcDbLine
 10
45.309721
 20
47.446926
 30
0.0
 11
45.309721
 21
51.946926
 31
0.0
  0
LINE
  5
13C
330
1F
100
AcDbEntity
  8
001
100
AcDbLine
 10
43.659721
 20
47.446926
 30
0.0
 11
43.659721
 21
51.946926
 31
0.0
  0
ARC
  5
13D
330
1F
100
AcDbEntity
  8
001
100
AcDbCircle
 10
45.377241
 20
44.201295
 30
0.0
 40
1.25
100
AcDbArc
 50
352.233356
 51
188.428595
  0
LINE
  5
13E
330
1F
100
AcDbEntity
  8
001
  6
CENTER
100
AcDbLine
 10
40.042238
 20
44.446926
 30
0.0
 11
161.223237
 21
44.446926
 31
0.0
  0
LINE
  5
13F
330
1F
100
AcDbEntity
  8
001
100
AcDbLine
 10
159.059721
 20
44.446926
 30
0.0
 11
161.657798
 21
45.946926
 31
0.0
  0
LINE
  5
140
330
1F
100
AcDbEntity
  8
001
100
AcDbLine
 10
159.059721
 20
44.446926
 30
0.0
 11
161.657798
 21
42.946926
 31
0.0
  0
LINE
  5
141
330
1F
100
AcDbEntity
  8
001
100
AcDbLine
 10
37.316852
 20
36.446926
 30
0.0
 11
45.385407
 21
36.446926
 31
0.0
  0
LINE
  5
142
330
1F
100
AcDbEntity
  8
001
100
AcDbLine
 10
44.610236
 20
37.057654
 30
0.0
 11
43.659721
 21
37.057654
 31
0.0
  0
LINE
  5
143
330
1F
100
AcDbEntity
  8
001
100
AcDbLine
 10
41.659721
 20
39.098903
 30
0.0
 11
41.659721
 21
40.008168
 31
0.0
  0
LINE
  5
144
330
1F
100
AcDbEntity
  8
001
100
AcDbLine
 10
41.659721
 20
41.537054
 30
0.0
 11
41.659721
 21
49.946926
 31
0.0
  0
LINE
  5
145
330
1F
100
AcDbEntity
  8
001
100
AcDbLine
 10
50.536523
 20
39.614603
 30
0.0
 11
48.717527
 21
39.614603
 31
0.0
  0
LINE
  5
146
330
1F
100
AcDbEntity
  8
001
100
AcDbLine
 10
50.536523
 20
39.614603
 30
0.0
 11
49.622909
 21
40.523129
 31
0.0
  0
LINE
  5
147
330
1F
100
AcDbEntity
  8
001
100
AcDbLine
 10
49.648225
 20
40.987003
 30
0.0
 11
51.171725
 21
39.471989
 31
0.0
  0
LINE
  5
148
330
1F
100
AcDbEntity
  8
001
100
AcDbLine
 10
41.059721
 20
40.772611
 30
0.0
 11
41.059721
 21
28.666059
 31
0.0
  0
LINE
  5
149
330
1F
100
AcDbEntity
  8
001
100
AcDbLine
 10
48.059721
 20
40.772611
 30
0.0
 11
48.059721
 21
38.956798
 31
0.0
  0
LINE
  5
14A
330
1F
100
AcDbEntity
  8
001
100
AcDbLine
 10
48.059721
 20
38.956798
 30
0.0
 11
49.82923
 21
38.956798
 31
0.0
  0
TEXT
  5
14B
330
1F
100
AcDbEntity
  8
001
100
AcDbText
 10
14.022605
 20
62.885815
 30
0.0
 40
5.0
  1
ウラトリメンＣ　ＵＭＨ１２－１６Ｓ
 41
0.833333
100
AcDbText
  0
ENDSEC
  0
SECTION
  2
OBJECTS
  0
DICTIONARY
  5
C
330
0
100
AcDbDictionary
  3
ACAD_GROUP
350
D
  3
ACAD_IMAGE_VARS
350
164
  3
ACAD_MLINESTYLE
350
17
  3
ACAD_SCALELIST
350
3B
  3
ACDBVARIABLEDICTIONARY
350
14C
  3
APPDATA
350
162
  3
DWGPROPS
350
165
  0
DICTIONARY
  5
D
102
{ACAD_REACTORS
330
C
102
}
330
C
100
AcDbDictionary
  0
RASTERVARIABLES
  5
164
102
{ACAD_REACTORS
330
C
102
}
330
C
100
AcDbRasterVariables
 90
        0
 70
     1
 71
     1
 72
     1
  0
DICTIONARY
  5
17
102
{ACAD_REACTORS
330
C
102
}
330
C
100
AcDbDictionary
  3
STANDARD
350
18
  0
DICTIONARY
  5
3B
102
{ACAD_REACTORS
330
C
102
}
330
C
100
AcDbDictionary
  0
DICTIONARY
  5
14C
102
{ACAD_REACTORS
330
C
102
}
330
C
100
AcDbDictionary
  0
DICTIONARY
  5
162
102
{ACAD_REACTORS
330
C
102
}
330
C
100
AcDbDictionary
  0
XRECORD
  5
165
102
{ACAD_REACTORS
330
C
102
}
330
C
100
AcDbXrecord
  1
DWGPROPS COOKIE
  2

  3

  4

  6

  7

  8
kaihatu03
  9

300
=
301
=
302
=
303
=
304
=
305
=
306
=
307
=
308
=
309
=
 40
0.0
 41
2454734.04914368
 42
2457962.057375197
  1

 90
        0
  0
MLINESTYLE
  5
18
102
{ACAD_REACTORS
330
17
102
}
330
17
100
AcDbMlineStyle
  2
Standard
 70
     0
  3

 62
   256
 51
90.0
 52
90.0
 71
     2
 49
0.5
 62
   256
  6
BYLAYER
 49
-0.5
 62
   256
  6
BYLAYER
  0
ENDSEC
  0
EOF
