  0
SECTION
  2
HEADER
  9
$ACADVER
  1
AC1014
  9
$ACADMAINTVER
 70
     9
  9
$DWGCODEPAGE
  3
ANSI_932
  9
$INSBASE
 10
0.0
 20
0.0
 30
0.0
  9
$EXTMIN
 10
-19.28568868827706
 20
11.543848
 30
0.0
  9
$EXTMAX
 10
194.43046
 20
78.59656033333334
 30
0.0
  9
$LIMMIN
 10
0.0
 20
0.0
  9
$LIMMAX
 10
12.0
 20
9.0
  9
$ORTHOMODE
 70
     0
  9
$REGENMODE
 70
     1
  9
$FILLMODE
 70
     1
  9
$QTEXTMODE
 70
     0
  9
$MIRRTEXT
 70
     1
  9
$DRAGMODE
 70
     2
  9
$LTSCALE
 40
2.148144
  9
$OSMODE
 70
   511
  9
$ATTMODE
 70
     1
  9
$TEXTSIZE
 40
0.2
  9
$TRACEWID
 40
1.0
  9
$TEXTSTYLE
  7
STANDARD
  9
$CLAYER
  8
0
  9
$CELTYPE
  6
BYLAYER
  9
$CECOLOR
 62
   256
  9
$CELTSCALE
 40
1.0
  9
$DELOBJ
 70
     1
  9
$DISPSILH
 70
     0
  9
$DIMSCALE
 40
1.0
  9
$DIMASZ
 40
2.5
  9
$DIMEXO
 40
0.625
  9
$DIMDLI
 40
3.75
  9
$DIMRND
 40
0.0
  9
$DIMDLE
 40
0.0
  9
$DIMEXE
 40
1.25
  9
$DIMTP
 40
0.0
  9
$DIMTM
 40
0.0
  9
$DIMTXT
 40
2.5
  9
$DIMCEN
 40
0.09
  9
$DIMTSZ
 40
0.0
  9
$DIMTOL
 70
     0
  9
$DIMLIM
 70
     0
  9
$DIMTIH
 70
     0
  9
$DIMTOH
 70
     0
  9
$DIMSE1
 70
     0
  9
$DIMSE2
 70
     0
  9
$DIMTAD
 70
     0
  9
$DIMZIN
 70
     8
  9
$DIMBLK
  1

  9
$DIMASO
 70
     1
  9
$DIMSHO
 70
     0
  9
$DIMPOST
  1

  9
$DIMAPOST
  1

  9
$DIMALT
 70
     0
  9
$DIMALTD
 70
     3
  9
$DIMALTF
 40
0.03937
  9
$DIMLFAC
 40
1.0
  9
$DIMTOFL
 70
     1
  9
$DIMTVP
 40
0.0
  9
$DIMTIX
 70
     0
  9
$DIMSOXD
 70
     0
  9
$DIMSAH
 70
     0
  9
$DIMBLK1
  1

  9
$DIMBLK2
  1

  9
$DIMSTYLE
  2
ISO-25
  9
$DIMCLRD
 70
     0
  9
$DIMCLRE
 70
     0
  9
$DIMCLRT
 70
     0
  9
$DIMTFAC
 40
1.0
  9
$DIMGAP
 40
0.625
  9
$DIMJUST
 70
     0
  9
$DIMSD1
 70
     0
  9
$DIMSD2
 70
     0
  9
$DIMTOLJ
 70
     0
  9
$DIMTZIN
 70
     8
  9
$DIMALTZ
 70
     0
  9
$DIMALTTZ
 70
     0
  9
$DIMFIT
 70
     5
  9
$DIMUPT
 70
     0
  9
$DIMUNIT
 70
     2
  9
$DIMDEC
 70
     2
  9
$DIMTDEC
 70
     2
  9
$DIMALTU
 70
     2
  9
$DIMALTTD
 70
     3
  9
$DIMTXSTY
  7
STANDARD
  9
$DIMAUNIT
 70
     0
  9
$LUNITS
 70
     2
  9
$LUPREC
 70
     4
  9
$SKETCHINC
 40
1.0
  9
$FILLETRAD
 40
0.0
  9
$AUNITS
 70
     0
  9
$AUPREC
 70
     0
  9
$MENU
  1
.
  9
$ELEVATION
 40
0.0
  9
$PELEVATION
 40
0.0
  9
$THICKNESS
 40
0.0
  9
$LIMCHECK
 70
     0
  9
$CHAMFERA
 40
10.0
  9
$CHAMFERB
 40
10.0
  9
$CHAMFERC
 40
20.0
  9
$CHAMFERD
 40
0.0
  9
$SKPOLY
 70
     0
  9
$TDCREATE
 40
2454734.423636239
  9
$TDUPDATE
 40
2457962.430803403
  9
$TDINDWG
 40
0.0033974653
  9
$TDUSRTIMER
 40
2457962.055622731
  9
$USRTIMER
 70
     1
  9
$ANGBASE
 50
0.0
  9
$ANGDIR
 70
     0
  9
$PDMODE
 70
     0
  9
$PDSIZE
 40
0.0
  9
$PLINEWID
 40
0.0
  9
$COORDS
 70
     1
  9
$SPLFRAME
 70
     0
  9
$SPLINETYPE
 70
     6
  9
$SPLINESEGS
 70
     8
  9
$ATTDIA
 70
     0
  9
$ATTREQ
 70
     1
  9
$HANDLING
 70
     1
  9
$HANDSEED
  5
269
  9
$SURFTAB1
 70
     6
  9
$SURFTAB2
 70
     6
  9
$SURFTYPE
 70
     6
  9
$SURFU
 70
     6
  9
$SURFV
 70
     6
  9
$UCSNAME
  2

  9
$UCSORG
 10
0.0
 20
0.0
 30
0.0
  9
$UCSXDIR
 10
1.0
 20
0.0
 30
0.0
  9
$UCSYDIR
 10
0.0
 20
1.0
 30
0.0
  9
$PUCSNAME
  2

  9
$PUCSORG
 10
0.0
 20
0.0
 30
0.0
  9
$PUCSXDIR
 10
1.0
 20
0.0
 30
0.0
  9
$PUCSYDIR
 10
0.0
 20
1.0
 30
0.0
  9
$USERI1
 70
     0
  9
$USERI2
 70
     0
  9
$USERI3
 70
     0
  9
$USERI4
 70
     0
  9
$USERI5
 70
     0
  9
$USERR1
 40
0.0
  9
$USERR2
 40
0.0
  9
$USERR3
 40
0.0
  9
$USERR4
 40
0.0
  9
$USERR5
 40
0.0
  9
$WORLDVIEW
 70
     1
  9
$SHADEDGE
 70
     3
  9
$SHADEDIF
 70
    70
  9
$TILEMODE
 70
     1
  9
$MAXACTVP
 70
    64
  9
$PINSBASE
 10
0.0
 20
0.0
 30
0.0
  9
$PLIMCHECK
 70
     0
  9
$PEXTMIN
 10
1.000000000000000E+20
 20
1.000000000000000E+20
 30
0.0
  9
$PEXTMAX
 10
-1.000000000000000E+20
 20
-1.000000000000000E+20
 30
0.0
  9
$PLIMMIN
 10
0.0
 20
0.0
  9
$PLIMMAX
 10
0.0
 20
0.0
  9
$UNITMODE
 70
     0
  9
$VISRETAIN
 70
     1
  9
$PLINEGEN
 70
     0
  9
$PSLTSCALE
 70
     1
  9
$TREEDEPTH
 70
  3020
  9
$PICKSTYLE
 70
     1
  9
$CMLSTYLE
  2
STANDARD
  9
$CMLJUST
 70
     0
  9
$CMLSCALE
 40
20.0
  9
$PROXYGRAPHICS
 70
     1
  9
$MEASUREMENT
 70
     1
  0
ENDSEC
  0
SECTION
  2
CLASSES
  0
CLASS
  1
ACDBDICTIONARYWDFLT
  2
AcDbDictionaryWithDefault
  3
ObjectDBX Classes
 90
        0
280
     0
281
     0
  0
CLASS
  1
VISUALSTYLE
  2
AcDbVisualStyle
  3
ObjectDBX Classes
 90
     4095
280
     0
281
     0
  0
CLASS
  1
SCALE
  2
AcDbScale
  3
ObjectDBX Classes
 90
     1153
280
     0
281
     0
  0
CLASS
  1
DICTIONARYVAR
  2
AcDbDictionaryVar
  3
ObjectDBX Classes
 90
        0
280
     0
281
     0
  0
CLASS
  1
ACDBPLACEHOLDER
  2
AcDbPlaceHolder
  3
ObjectDBX Classes
 90
        0
280
     0
281
     0
  0
CLASS
  1
LAYOUT
  2
AcDbLayout
  3
ObjectDBX Classes
 90
        0
280
     0
281
     0
  0
CLASS
  1
MATERIAL
  2
AcDbMaterial
  3
ObjectDBX Classes
 90
     1153
280
     0
281
     0
  0
CLASS
  1
TABLESTYLE
  2
AcDbTableStyle
  3
ObjectDBX Classes
 90
     4095
280
     0
281
     0
  0
CLASS
  1
RASTERVARIABLES
  2
AcDbRasterVariables
  3
ISM
 90
        0
280
     0
281
     0
  0
CLASS
  1
DIMASSOC
  2
AcDbDimAssoc
  3
"AcDbDimAssoc|Product Desc:     AcDim ARX App For Dimension|Company:          Autodesk, Inc.|WEB Address:      www.autodesk.com"
 90
        0
280
     0
281
     0
  0
CLASS
  1
XRECORD
  2
AcDbXrecord
  3
ObjectDBX Classes
 90
        0
280
     0
281
     0
  0
CLASS
  1
LWPOLYLINE
  2
AcDbPolyline
  3
ObjectDBX Classes
 90
        0
280
     0
281
     1
  0
CLASS
  1
HATCH
  2
AcDbHatch
  3
ObjectDBX Classes
 90
        0
280
     0
281
     1
  0
CLASS
  1
MLEADERSTYLE
  2
AcDbMLeaderStyle
  3
ACDB_MLEADERSTYLE_CLASS
 90
     4095
280
     0
281
     0
  0
CLASS
  1
SUN
  2
AcDbSun
  3
SCENEOE
 90
     1153
280
     0
281
     0
  0
ENDSEC
  0
SECTION
  2
TABLES
  0
TABLE
  2
VPORT
  5
8
330
0
100
AcDbSymbolTable
 70
     1
  0
VPORT
  5
29
330
8
100
AcDbSymbolTableRecord
100
AcDbViewportTableRecord
  2
*ACTIVE
 70
     0
 10
0.0
 20
0.0
 11
1.0
 21
1.0
 12
-2.480525516807084
 22
46.2706298005731
 13
0.0
 23
0.0
 14
1.0
 24
1.0
 15
0.0
 25
0.0
 16
0.0
 26
0.0
 36
1.0
 17
0.0
 27
0.0
 37
0.0
 40
41.97002211581997
 41
1.369408369408369
 42
50.0
 43
0.0
 44
0.0
 50
0.0
 51
0.0
 71
    16
 72
   100
 73
     1
 74
     3
 75
     0
 76
     0
 77
     0
 78
     0
  0
ENDTAB
  0
TABLE
  2
LTYPE
  5
5
330
0
100
AcDbSymbolTable
 70
     5
  0
LTYPE
  5
14
330
5
100
AcDbSymbolTableRecord
100
AcDbLinetypeTableRecord
  2
BYBLOCK
 70
     0
  3

 72
    65
 73
     0
 40
0.0
  0
LTYPE
  5
15
330
5
100
AcDbSymbolTableRecord
100
AcDbLinetypeTableRecord
  2
BYLAYER
 70
     0
  3

 72
    65
 73
     0
 40
0.0
  0
LTYPE
  5
16
330
5
100
AcDbSymbolTableRecord
100
AcDbLinetypeTableRecord
  2
CONTINUOUS
 70
     0
  3
Solid line
 72
    65
 73
     0
 40
0.0
  0
LTYPE
  5
5D
330
5
100
AcDbSymbolTableRecord
100
AcDbLinetypeTableRecord
  2
DASHED
 70
     0
  3
DASHED
 72
    83
 73
     2
 40
0.75
 49
0.5
 74
     0
 49
-0.25
 74
     0
  0
LTYPE
  5
5E
330
5
100
AcDbSymbolTableRecord
100
AcDbLinetypeTableRecord
  2
HIDDEN
 70
     0
  3
HIDDEN
 72
    83
 73
     2
 40
0.375
 49
0.25
 74
     0
 49
-0.125
 74
     0
  0
LTYPE
  5
5F
330
5
100
AcDbSymbolTableRecord
100
AcDbLinetypeTableRecord
  2
CENTER
 70
     0
  3
CENTER
 72
    83
 73
     4
 40
2.0
 49
1.25
 74
     0
 49
-0.25
 74
     0
 49
0.25
 74
     0
 49
-0.25
 74
     0
  0
LTYPE
  5
60
330
5
100
AcDbSymbolTableRecord
100
AcDbLinetypeTableRecord
  2
PHANTOM
 70
     0
  3
PHANTOM
 72
    83
 73
     6
 40
2.5
 49
1.25
 74
     0
 49
-0.25
 74
     0
 49
0.25
 74
     0
 49
-0.25
 74
     0
 49
0.25
 74
     0
 49
-0.25
 74
     0
  0
ENDTAB
  0
TABLE
  2
LAYER
  5
2
330
0
100
AcDbSymbolTable
 70
     3
  0
LAYER
  5
10
330
2
100
AcDbSymbolTableRecord
100
AcDbLayerTableRecord
  2
0
 70
     0
 62
     7
  6
CONTINUOUS
  0
LAYER
  5
61
330
2
100
AcDbSymbolTableRecord
100
AcDbLayerTableRecord
  2
001
 70
     0
 62
     7
  6
CONTINUOUS
  0
LAYER
  5
1C1
330
2
100
AcDbSymbolTableRecord
100
AcDbLayerTableRecord
  2
DEFPOINTS
 70
     0
 62
     7
  6
CONTINUOUS
  0
ENDTAB
  0
TABLE
  2
STYLE
  5
3
330
0
100
AcDbSymbolTable
 70
     2
  0
STYLE
  5
11
330
3
100
AcDbSymbolTableRecord
100
AcDbTextStyleTableRecord
  2
STANDARD
 70
     0
 40
0.0
 41
1.0
 50
0.0
 71
     0
 42
0.2
  3
TXT
  4
BIGFONT
  0
STYLE
  5
62
330
3
100
AcDbSymbolTableRecord
100
AcDbTextStyleTableRecord
  2
TATEGAKI
 70
     4
 40
1.0
 41
1.0
 50
0.0
 71
     0
 42
0.2
  3
TXT
  4
BIGFONT
  0
ENDTAB
  0
TABLE
  2
VIEW
  5
6
330
0
100
AcDbSymbolTable
 70
     0
  0
ENDTAB
  0
TABLE
  2
UCS
  5
7
330
0
100
AcDbSymbolTable
 70
     0
  0
ENDTAB
  0
TABLE
  2
APPID
  5
9
330
0
100
AcDbSymbolTable
 70
     1
  0
APPID
  5
12
330
9
100
AcDbSymbolTableRecord
100
AcDbRegAppTableRecord
  2
ACAD
 70
     0
  0
ENDTAB
  0
TABLE
  2
DIMSTYLE
  5
A
330
0
100
AcDbSymbolTable
 70
     2
  0
DIMSTYLE
105
27
102
{ACAD_REACTORS
330
1C2
102
}
330
A
100
AcDbSymbolTableRecord
100
AcDbDimStyleTableRecord
  2
ISO-25
 70
     0
  3

  4

  5

  6

  7

 40
1.0
 41
2.5
 42
0.625
 43
3.75
 44
1.25
 45
0.0
 46
0.0
 47
0.0
 48
0.0
140
2.5
141
2.5
142
0.0
143
0.03937
144
1.0
145
0.0
146
1.0
147
0.625
 71
     0
 72
     0
 73
     0
 74
     0
 75
     0
 76
     0
 77
     1
 78
     8
170
     0
171
     3
172
     1
173
     0
174
     0
175
     0
176
     0
177
     0
178
     0
270
     2
271
     2
272
     2
273
     2
274
     3
340
11
275
     0
280
     0
281
     0
282
     0
283
     0
284
     8
285
     0
286
     0
287
     3
288
     0
  0
DIMSTYLE
105
63
102
{ACAD_REACTORS
330
102
330
114
330
115
330
116
330
123
330
124
330
125
102
}
330
A
100
AcDbSymbolTableRecord
100
AcDbDimStyleTableRecord
  2
STANDARD
 70
     0
  3

  4

  5

  6

  7

 40
1.0
 41
1.5
 42
0.0
 43
0.38
 44
2.75
 45
0.0
 46
0.0
 47
0.0
 48
0.0
140
4.0
141
0.09
142
0.0
143
25.4
144
1.0
145
0.0
146
0.8
147
1.0
 71
     0
 72
     0
 73
     0
 74
     0
 75
     0
 76
     0
 77
     1
 78
     8
170
     0
171
     2
172
     1
173
     0
174
     0
175
     0
176
     0
177
     0
178
     0
179
     1
270
     2
271
     1
272
     4
273
     2
274
     2
340
11
275
     0
280
     0
281
     0
282
     0
283
     1
284
     0
285
     0
286
     0
287
     3
288
     0
  0
ENDTAB
  0
TABLE
  2
BLOCK_RECORD
  5
1
330
0
100
AcDbSymbolTable
 70
    10
  0
BLOCK_RECORD
  5
1F
330
1
100
AcDbSymbolTableRecord
100
AcDbBlockTableRecord
  2
*MODEL_SPACE
  0
BLOCK_RECORD
  5
1B
330
1
100
AcDbSymbolTableRecord
100
AcDbBlockTableRecord
  2
*PAPER_SPACE
  0
BLOCK_RECORD
  5
23
330
1
100
AcDbSymbolTableRecord
100
AcDbBlockTableRecord
  2
*PAPER_SPACE0
  0
BLOCK_RECORD
  5
64
330
1
100
AcDbSymbolTableRecord
100
AcDbBlockTableRecord
  2
*D1
  0
BLOCK_RECORD
  5
78
330
1
100
AcDbSymbolTableRecord
100
AcDbBlockTableRecord
  2
*D2
  0
BLOCK_RECORD
  5
8C
330
1
100
AcDbSymbolTableRecord
100
AcDbBlockTableRecord
  2
*D3
  0
BLOCK_RECORD
  5
A2
330
1
100
AcDbSymbolTableRecord
100
AcDbBlockTableRecord
  2
*D4
  0
BLOCK_RECORD
  5
B8
330
1
100
AcDbSymbolTableRecord
100
AcDbBlockTableRecord
  2
*D5
  0
BLOCK_RECORD
  5
CC
330
1
100
AcDbSymbolTableRecord
100
AcDbBlockTableRecord
  2
*D6
  0
BLOCK_RECORD
  5
E1
330
1
100
AcDbSymbolTableRecord
100
AcDbBlockTableRecord
  2
*D7
  0
BLOCK_RECORD
  5
1C5
330
1
100
AcDbSymbolTableRecord
100
AcDbBlockTableRecord
  2
*D8
  0
BLOCK_RECORD
  5
216
330
1
100
AcDbSymbolTableRecord
100
AcDbBlockTableRecord
  2
_OPEN
  0
ENDTAB
  0
ENDSEC
  0
SECTION
  2
BLOCKS
  0
BLOCK
  5
20
330
1F
100
AcDbEntity
  8
0
100
AcDbBlockBegin
  2
*MODEL_SPACE
 70
     0
 10
0.0
 20
0.0
 30
0.0
  3
*MODEL_SPACE
  1

  0
ENDBLK
  5
21
330
1F
100
AcDbEntity
  8
0
100
AcDbBlockEnd
  0
BLOCK
  5
1C
330
1B
100
AcDbEntity
 67
     1
  8
0
100
AcDbBlockBegin
  2
*PAPER_SPACE
 70
     0
 10
0.0
 20
0.0
 30
0.0
  3
*PAPER_SPACE
  1

  0
ENDBLK
  5
1D
330
1B
100
AcDbEntity
 67
     1
  8
0
100
AcDbBlockEnd
  0
BLOCK
  5
24
330
23
100
AcDbEntity
  8
0
100
AcDbBlockBegin
  2
*PAPER_SPACE0
 70
     0
 10
0.0
 20
0.0
 30
0.0
  3
*PAPER_SPACE0
  1

  0
ENDBLK
  5
25
330
23
100
AcDbEntity
  8
0
100
AcDbBlockEnd
  0
BLOCK
  5
65
330
64
100
AcDbEntity
  8
0
100
AcDbBlockBegin
  2
*D1
 70
     1
 10
0.0
 20
0.0
 30
0.0
  3
*D1
  1

  0
LINE
  5
67
330
64
100
AcDbEntity
  8
001
100
AcDbLine
 10
86.584127
 20
40.341932
 30
0.0
 11
86.584127
 21
18.989763
 31
0.0
  0
LINE
  5
68
330
64
100
AcDbEntity
  8
001
100
AcDbLine
 10
39.584127
 20
30.377202
 30
0.0
 11
39.584127
 21
18.989763
 31
0.0
  0
LINE
  5
69
330
64
100
AcDbEntity
  8
001
100
AcDbLine
 10
86.584127
 20
21.739763
 30
0.0
 11
39.584127
 21
21.739763
 31
0.0
  0
LWPOLYLINE
  5
6A
330
64
100
AcDbEntity
  8
001
100
AcDbPolyline
 90
        3
 70
     0
 43
0.0
 10
85.084127
 20
22.141687
 10
86.584127
 20
21.739763
 10
85.084127
 20
21.337839
  0
LWPOLYLINE
  5
6F
330
64
100
AcDbEntity
  8
001
100
AcDbPolyline
 90
        3
 70
     0
 43
0.0
 10
41.084127
 20
21.337839
 10
39.584127
 20
21.739763
 10
41.084127
 20
22.141687
  0
TEXT
  5
74
330
64
100
AcDbEntity
  8
001
100
AcDbText
 10
59.084127
 20
22.739763
 30
0.0
 40
4.0
  1
４７
 41
0.833333
100
AcDbText
  0
POINT
  5
75
330
64
100
AcDbEntity
  8
001
100
AcDbPoint
 10
86.584127
 20
40.341932
 30
0.0
  0
POINT
  5
76
330
64
100
AcDbEntity
  8
001
100
AcDbPoint
 10
39.584127
 20
30.377202
 30
0.0
  0
POINT
  5
77
330
64
100
AcDbEntity
  8
001
100
AcDbPoint
 10
39.584127
 20
21.739763
 30
0.0
  0
ENDBLK
  5
66
330
64
100
AcDbEntity
  8
0
100
AcDbBlockEnd
  0
BLOCK
  5
79
330
78
100
AcDbEntity
  8
0
100
AcDbBlockBegin
  2
*D2
 70
     1
 10
0.0
 20
0.0
 30
0.0
  3
*D2
  1

  0
LINE
  5
7B
330
78
100
AcDbEntity
  8
001
100
AcDbLine
 10
39.584127
 20
30.377202
 30
0.0
 11
39.584127
 21
11.543848
 31
0.0
  0
LINE
  5
7C
330
78
100
AcDbEntity
  8
001
100
AcDbLine
 10
156.584127
 20
38.741932
 30
0.0
 11
156.584127
 21
11.543848
 31
0.0
  0
LINE
  5
7D
330
78
100
AcDbEntity
  8
001
100
AcDbLine
 10
39.584127
 20
14.293848
 30
0.0
 11
156.584127
 21
14.293848
 31
0.0
  0
LWPOLYLINE
  5
7E
330
78
100
AcDbEntity
  8
001
100
AcDbPolyline
 90
        3
 70
     0
 43
0.0
 10
41.084127
 20
13.891925
 10
39.584127
 20
14.293848
 10
41.084127
 20
14.695772
  0
LWPOLYLINE
  5
83
330
78
100
AcDbEntity
  8
001
100
AcDbPolyline
 90
        3
 70
     0
 43
0.0
 10
155.084127
 20
14.695772
 10
156.584127
 20
14.293848
 10
155.084127
 20
13.891925
  0
TEXT
  5
88
330
78
100
AcDbEntity
  8
001
100
AcDbText
 10
92.084127
 20
15.293848
 30
0.0
 40
4.0
  1
１１７
 41
0.833333
100
AcDbText
  0
POINT
  5
89
330
78
100
AcDbEntity
  8
001
100
AcDbPoint
 10
39.584127
 20
30.377202
 30
0.0
  0
POINT
  5
8A
330
78
100
AcDbEntity
  8
001
100
AcDbPoint
 10
156.584127
 20
38.741932
 30
0.0
  0
POINT
  5
8B
330
78
100
AcDbEntity
  8
001
100
AcDbPoint
 10
156.584127
 20
14.293848
 30
0.0
  0
ENDBLK
  5
7A
330
78
100
AcDbEntity
  8
0
100
AcDbBlockEnd
  0
BLOCK
  5
8D
330
8C
100
AcDbEntity
  8
0
100
AcDbBlockBegin
  2
*D3
 70
     1
 10
0.0
 20
0.0
 30
0.0
  3
*D3
  1

  0
LINE
  5
8F
330
8C
100
AcDbEntity
  8
001
100
AcDbLine
 10
180.93046
 20
40.425307
 30
0.0
 11
180.93046
 21
23.426394
 31
0.0
  0
LINE
  5
90
330
8C
100
AcDbEntity
  8
001
100
AcDbLine
 10
191.93046
 20
43.741932
 30
0.0
 11
191.93046
 21
23.426394
 31
0.0
  0
LINE
  5
91
330
8C
100
AcDbEntity
  8
001
100
AcDbLine
 10
180.93046
 20
26.176394
 30
0.0
 11
191.93046
 21
26.176394
 31
0.0
  0
LWPOLYLINE
  5
92
330
8C
100
AcDbEntity
  8
001
100
AcDbPolyline
 90
        3
 70
     0
 43
0.0
 10
179.43046
 20
26.578317
 10
180.93046
 20
26.176394
 10
179.43046
 20
25.77447
  0
LWPOLYLINE
  5
97
330
8C
100
AcDbEntity
  8
001
100
AcDbPolyline
 90
        3
 70
     0
 43
0.0
 10
193.43046
 20
25.77447
 10
191.93046
 20
26.176394
 10
193.43046
 20
26.578317
  0
TEXT
  5
9C
330
8C
100
AcDbEntity
  8
001
100
AcDbText
 10
182.43046
 20
27.176394
 30
0.0
 40
4.0
  1
１１
 41
0.833333
100
AcDbText
  0
POINT
  5
9D
330
8C
100
AcDbEntity
  8
001
100
AcDbPoint
 10
180.93046
 20
40.425307
 30
0.0
  0
POINT
  5
9E
330
8C
100
AcDbEntity
  8
001
100
AcDbPoint
 10
191.93046
 20
43.741932
 30
0.0
  0
POINT
  5
9F
330
8C
100
AcDbEntity
  8
001
100
AcDbPoint
 10
191.93046
 20
26.176394
 30
0.0
  0
LINE
  5
A0
330
8C
100
AcDbEntity
  8
001
100
AcDbLine
 10
180.93046
 20
26.176394
 30
0.0
 11
178.43046
 21
26.176394
 31
0.0
  0
LINE
  5
A1
330
8C
100
AcDbEntity
  8
001
100
AcDbLine
 10
191.93046
 20
26.176394
 30
0.0
 11
194.43046
 21
26.176394
 31
0.0
  0
ENDBLK
  5
8E
330
8C
100
AcDbEntity
  8
0
100
AcDbBlockEnd
  0
BLOCK
  5
A3
330
A2
100
AcDbEntity
  8
0
100
AcDbBlockBegin
  2
*D4
 70
     1
 10
0.0
 20
0.0
 30
0.0
  3
*D4
  1

  0
LINE
  5
A5
330
A2
100
AcDbEntity
  8
001
100
AcDbLine
 10
155.584127
 20
49.741932
 30
0.0
 11
172.999205
 21
49.741932
 31
0.0
  0
LINE
  5
A6
330
A2
100
AcDbEntity
  8
001
100
AcDbLine
 10
155.584127
 20
37.741932
 30
0.0
 11
172.999205
 21
37.741932
 31
0.0
  0
LINE
  5
A7
330
A2
100
AcDbEntity
  8
001
100
AcDbLine
 10
170.249205
 20
49.741932
 30
0.0
 11
170.249205
 21
37.741932
 31
0.0
  0
LWPOLYLINE
  5
A8
330
A2
100
AcDbEntity
  8
001
100
AcDbPolyline
 90
        3
 70
     0
 43
0.0
 10
170.651129
 20
51.241932
 10
170.249205
 20
49.741932
 10
169.847281
 20
51.241932
  0
LWPOLYLINE
  5
AD
330
A2
100
AcDbEntity
  8
001
100
AcDbPolyline
 90
        3
 70
     0
 43
0.0
 10
169.847281
 20
36.241932
 10
170.249205
 20
37.741932
 10
170.651129
 20
36.241932
  0
TEXT
  5
B2
330
A2
100
AcDbEntity
  8
001
100
AcDbText
 10
169.249205
 20
37.741932
 30
0.0
 40
4.0
  1
%%c１２
 50
90.000003
 41
0.882353
100
AcDbText
  0
POINT
  5
B3
330
A2
100
AcDbEntity
  8
001
100
AcDbPoint
 10
155.584127
 20
49.741932
 30
0.0
  0
POINT
  5
B4
330
A2
100
AcDbEntity
  8
001
100
AcDbPoint
 10
155.584127
 20
37.741932
 30
0.0
  0
POINT
  5
B5
330
A2
100
AcDbEntity
  8
001
100
AcDbPoint
 10
170.249205
 20
37.741932
 30
0.0
  0
LINE
  5
B6
330
A2
100
AcDbEntity
  8
001
100
AcDbLine
 10
170.249205
 20
49.741932
 30
0.0
 11
170.249205
 21
52.241932
 31
0.0
  0
LINE
  5
B7
330
A2
100
AcDbEntity
  8
001
100
AcDbLine
 10
170.249205
 20
37.741932
 30
0.0
 11
170.249205
 21
35.241932
 31
0.0
  0
ENDBLK
  5
A4
330
A2
100
AcDbEntity
  8
0
100
AcDbBlockEnd
  0
BLOCK
  5
B9
330
B8
100
AcDbEntity
  8
0
100
AcDbBlockBegin
  2
*D5
 70
     1
 10
0.0
 20
0.0
 30
0.0
  3
*D5
  1

  0
LINE
  5
BB
330
B8
100
AcDbEntity
  8
001
100
AcDbLine
 10
36.211084
 20
45.391932
 30
0.0
 11
18.420406
 21
45.391932
 31
0.0
  0
LINE
  5
BC
330
B8
100
AcDbEntity
  8
001
100
AcDbLine
 10
36.211084
 20
37.891932
 30
0.0
 11
18.420406
 21
37.891932
 31
0.0
  0
LINE
  5
BD
330
B8
100
AcDbEntity
  8
001
100
AcDbLine
 10
21.170406
 20
45.391932
 30
0.0
 11
21.170406
 21
37.891932
 31
0.0
  0
LWPOLYLINE
  5
BE
330
B8
100
AcDbEntity
  8
001
100
AcDbPolyline
 90
        3
 70
     0
 43
0.0
 10
20.768482
 20
43.891932
 10
21.170406
 20
45.391932
 10
21.572329
 20
43.891932
  0
LWPOLYLINE
  5
C3
330
B8
100
AcDbEntity
  8
001
100
AcDbPolyline
 90
        3
 70
     0
 43
0.0
 10
21.572329
 20
39.391932
 10
21.170406
 20
37.891932
 10
20.768482
 20
39.391932
  0
TEXT
  5
C8
330
B8
100
AcDbEntity
  8
001
100
AcDbText
 10
20.170406
 20
33.641932
 30
0.0
 40
4.0
  1
%%c７．５
 50
90.000003
 41
0.869565
100
AcDbText
  0
POINT
  5
C9
330
B8
100
AcDbEntity
  8
001
100
AcDbPoint
 10
36.211084
 20
45.391932
 30
0.0
  0
POINT
  5
CA
330
B8
100
AcDbEntity
  8
001
100
AcDbPoint
 10
36.211084
 20
37.891932
 30
0.0
  0
POINT
  5
CB
330
B8
100
AcDbEntity
  8
001
100
AcDbPoint
 10
21.170406
 20
37.891932
 30
0.0
  0
ENDBLK
  5
BA
330
B8
100
AcDbEntity
  8
0
100
AcDbBlockEnd
  0
BLOCK
  5
CD
330
CC
100
AcDbEntity
  8
0
100
AcDbBlockBegin
  2
*D6
 70
     1
 10
0.0
 20
0.0
 30
0.0
  3
*D6
  1

  0
LINE
  5
CF
330
CC
100
AcDbEntity
  8
001
100
AcDbLine
 10
43.010827
 20
37.951389
 30
0.0
 11
30.294886
 21
25.235447
 31
0.0
  0
LINE
  5
D0
330
CC
100
AcDbEntity
  8
001
100
AcDbLine
 10
38.76202
 20
43.741932
 30
0.0
 11
22.629249
 21
43.741932
 31
0.0
  0
ARC
  5
D1
330
CC
100
AcDbEntity
  8
001
100
AcDbCircle
 10
48.80137
 20
43.741932
 30
0.0
 40
23.42212103228036
100
AcDbArc
 50
180.0
 51
225.0
  0
LWPOLYLINE
  5
D2
330
CC
100
AcDbEntity
  8
001
100
AcDbPolyline
 90
        3
 70
     0
 43
0.0
 10
31.506427
 20
28.549024
 10
32.239429
 20
27.179991
 10
30.920114
 20
27.999107
  0
LWPOLYLINE
  5
D7
330
CC
100
AcDbEntity
  8
001
100
AcDbPolyline
 90
        3
 70
     0
 43
0.0
 10
25.025554
 20
42.229833
 10
25.379249
 20
43.741932
 10
25.82899
 20
42.255568
  0
TEXT
  5
DC
330
CC
100
AcDbEntity
  8
001
100
AcDbText
 10
25.789931
 20
40.704635
 30
0.0
 40
4.0
  1
４５%%d
 50
292.50001
 41
0.978261
100
AcDbText
  0
POINT
  5
DD
330
CC
100
AcDbEntity
  8
001
100
AcDbPoint
 10
43.010827
 20
37.951389
 30
0.0
  0
POINT
  5
DE
330
CC
100
AcDbEntity
  8
001
100
AcDbPoint
 10
48.80137
 20
43.741932
 30
0.0
  0
POINT
  5
DF
330
CC
100
AcDbEntity
  8
001
100
AcDbPoint
 10
48.80137
 20
43.741932
 30
0.0
  0
POINT
  5
E0
330
CC
100
AcDbEntity
  8
001
100
AcDbPoint
 10
38.76202
 20
43.741932
 30
0.0
  0
ENDBLK
  5
CE
330
CC
100
AcDbEntity
  8
0
100
AcDbBlockEnd
  0
BLOCK
  5
E2
330
E1
100
AcDbEntity
  8
0
100
AcDbBlockBegin
  2
*D7
 70
     1
 10
0.0
 20
0.0
 30
0.0
  3
*D7
  1

  0
LINE
  5
E4
330
E1
100
AcDbEntity
  8
001
100
AcDbLine
 10
44.584127
 20
39.524689
 30
0.0
 11
44.584127
 21
26.420174
 31
0.0
  0
LINE
  5
E5
330
E1
100
AcDbEntity
  8
001
100
AcDbLine
 10
39.584127
 20
30.377202
 30
0.0
 11
39.584127
 21
26.420174
 31
0.0
  0
LINE
  5
E6
330
E1
100
AcDbEntity
  8
001
100
AcDbLine
 10
44.584127
 20
29.170174
 30
0.0
 11
39.584127
 21
29.170174
 31
0.0
  0
LWPOLYLINE
  5
E7
330
E1
100
AcDbEntity
  8
001
100
AcDbPolyline
 90
        3
 70
     0
 43
0.0
 10
43.084127
 20
29.572098
 10
44.584127
 20
29.170174
 10
43.084127
 20
28.768251
  0
LWPOLYLINE
  5
EC
330
E1
100
AcDbEntity
  8
001
100
AcDbPolyline
 90
        3
 70
     0
 43
0.0
 10
41.084127
 20
28.768251
 10
39.584127
 20
29.170174
 10
41.084127
 20
29.572098
  0
TEXT
  5
F1
330
E1
100
AcDbEntity
  8
001
100
AcDbText
 10
47.084127
 20
30.170174
 30
0.0
 40
4.0
  1
５
 41
0.833333
100
AcDbText
  0
POINT
  5
F2
330
E1
100
AcDbEntity
  8
001
100
AcDbPoint
 10
44.584127
 20
39.524689
 30
0.0
  0
POINT
  5
F3
330
E1
100
AcDbEntity
  8
001
100
AcDbPoint
 10
39.584127
 20
30.377202
 30
0.0
  0
POINT
  5
F4
330
E1
100
AcDbEntity
  8
001
100
AcDbPoint
 10
39.584127
 20
29.170174
 30
0.0
  0
LINE
  5
F5
330
E1
100
AcDbEntity
  8
001
100
AcDbLine
 10
44.584127
 20
29.170174
 30
0.0
 11
54.084127
 21
29.170174
 31
0.0
  0
ENDBLK
  5
E3
330
E1
100
AcDbEntity
  8
0
100
AcDbBlockEnd
  0
BLOCK
  5
1D1
330
1C5
100
AcDbEntity
  8
0
100
AcDbBlockBegin
  2
*D8
 70
     1
 10
0.0
 20
0.0
 30
0.0
  3
*D8
  1

  0
LINE
  5
1C6
330
1C5
100
AcDbEntity
  8
0
 62
     0
100
AcDbLine
 10
-10.138394
 20
41.631932
 30
0.0
 11
-18.78568868827706
 21
41.631932
 31
0.0
  0
LINE
  5
1C7
330
1C5
100
AcDbEntity
  8
0
 62
     0
100
AcDbLine
 10
-10.138394
 20
43.741932
 30
0.0
 11
-18.78568868827706
 21
43.741932
 31
0.0
  0
LINE
  5
1C8
330
1C5
100
AcDbEntity
  8
0
 62
     0
100
AcDbLine
 10
-17.53568868827706
 20
46.241932
 30
0.0
 11
-17.53568868827706
 21
48.741932
 31
0.0
  0
LINE
  5
1C9
330
1C5
100
AcDbEntity
  8
0
 62
     0
100
AcDbLine
 10
-17.53568868827706
 20
41.631932
 30
0.0
 11
-17.53568868827706
 21
43.741932
 31
0.0
  0
LINE
  5
1CA
330
1C5
100
AcDbEntity
  8
0
 62
     0
100
AcDbLine
 10
-17.53568868827706
 20
41.631932
 30
0.0
 11
-17.53568868827706
 21
36.631932
 31
0.0
  0
INSERT
  5
1CB
330
1C5
100
AcDbEntity
  8
0
 62
     0
100
AcDbBlockReference
  2
_OPEN
 10
-17.53568868827706
 20
41.631932
 30
0.0
 41
2.5
 42
2.5
 43
2.5
 50
90.0
  0
INSERT
  5
1CC
330
1C5
100
AcDbEntity
  8
0
 62
     0
100
AcDbBlockReference
  2
_OPEN
 10
-17.53568868827706
 20
43.741932
 30
0.0
 41
2.5
 42
2.5
 43
2.5
 50
270.0
  0
MTEXT
  5
1CD
330
1C5
100
AcDbEntity
  8
0
 62
     0
100
AcDbMText
 10
-17.53568868827706
 20
53.45026533333333
 30
0.0
 40
3.5
 41
0.0
 71
     5
 72
     1
  1
2.11
 11
0.0
 21
1.0
 31
0.0
  0
POINT
  5
1CE
330
1C5
100
AcDbEntity
  8
DEFPOINTS
 62
     0
100
AcDbPoint
 10
-9.513394
 20
41.631932
 30
0.0
  0
POINT
  5
1CF
330
1C5
100
AcDbEntity
  8
DEFPOINTS
 62
     0
100
AcDbPoint
 10
-9.513394
 20
43.741932
 30
0.0
  0
POINT
  5
1D0
330
1C5
100
AcDbEntity
  8
DEFPOINTS
 62
     0
100
AcDbPoint
 10
-17.53568868827706
 20
43.741932
 30
0.0
  0
ENDBLK
  5
1D2
330
1C5
100
AcDbEntity
  8
0
100
AcDbBlockEnd
  0
BLOCK
  5
217
330
216
100
AcDbEntity
  8
0
100
AcDbBlockBegin
  2
_OPEN
 70
     0
 10
0.0
 20
0.0
 30
0.0
  3
_OPEN
  1

  0
LINE
  5
219
330
216
100
AcDbEntity
  8
0
  6
BYBLOCK
 62
     0
100
AcDbLine
 10
-1.0
 20
0.166667
 30
0.0
 11
0.0
 21
0.0
 31
0.0
  0
LINE
  5
21A
330
216
100
AcDbEntity
  8
0
  6
BYBLOCK
 62
     0
100
AcDbLine
 10
-1.0
 20
-0.166667
 30
0.0
 11
0.0
 21
0.0
 31
0.0
  0
LINE
  5
21B
330
216
100
AcDbEntity
  8
0
  6
BYBLOCK
 62
     0
100
AcDbLine
 10
0.0
 20
0.0
 30
0.0
 11
-1.0
 21
0.0
 31
0.0
  0
ENDBLK
  5
218
330
216
100
AcDbEntity
  8
0
100
AcDbBlockEnd
  0
ENDSEC
  0
SECTION
  2
ENTITIES
  0
TEXT
  5
F6
330
1F
100
AcDbEntity
  8
001
100
AcDbText
 10
58.861697
 20
46.026979
 30
0.0
 40
4.0
  1
%%c８．４
 50
90.000003
 41
0.869565
100
AcDbText
  0
LWPOLYLINE
  5
F7
330
1F
100
AcDbEntity
  8
001
100
AcDbPolyline
 90
        3
 70
     0
 43
0.0
 10
60.263621
 20
41.024689
 10
59.861697
 20
39.524689
 10
59.459773
 20
41.024689
  0
LINE
  5
FC
330
1F
100
AcDbEntity
  8
001
100
AcDbLine
 10
59.861697
 20
47.959174
 30
0.0
 11
59.861697
 21
39.524689
 31
0.0
  0
LWPOLYLINE
  5
FD
330
1F
100
AcDbEntity
  8
001
100
AcDbPolyline
 90
        3
 70
     0
 43
0.0
 10
44.584127
 20
39.524689
 10
59.861697
 20
39.524689
 10
62.611697
 20
39.524689
  0
DIMENSION
  5
102
330
1F
100
AcDbEntity
  8
001
100
AcDbDimension
  2
*D1
 10
39.584127
 20
21.739763
 30
0.0
 11
63.084127
 21
24.739763
 31
0.0
 70
   160
  3
STANDARD
100
AcDbAlignedDimension
 13
86.584127
 23
40.341932
 33
0.0
 14
39.584127
 24
30.377202
 34
0.0
 50
180.0
100
AcDbRotatedDimension
  0
TEXT
  5
103
330
1F
100
AcDbEntity
  8
001
100
AcDbText
 10
117.584127
 20
22.739763
 30
0.0
 40
4.0
  1
７０
 41
0.833333
100
AcDbText
  0
LWPOLYLINE
  5
104
330
1F
100
AcDbEntity
  8
001
100
AcDbPolyline
 90
        3
 70
     0
 43
0.0
 10
88.084127
 20
21.337839
 10
86.584127
 20
21.739763
 10
88.084127
 20
22.141687
  0
LWPOLYLINE
  5
109
330
1F
100
AcDbEntity
  8
001
100
AcDbPolyline
 90
        3
 70
     0
 43
0.0
 10
155.084127
 20
22.141687
 10
156.584127
 20
21.739763
 10
155.084127
 20
21.337839
  0
LINE
  5
10E
330
1F
100
AcDbEntity
  8
001
100
AcDbLine
 10
86.584127
 20
21.739763
 30
0.0
 11
156.584127
 21
21.739763
 31
0.0
  0
LWPOLYLINE
  5
10F
330
1F
100
AcDbEntity
  8
001
100
AcDbPolyline
 90
        3
 70
     0
 43
0.0
 10
156.584127
 20
38.741932
 10
156.584127
 20
21.739763
 10
156.584127
 20
18.989763
  0
DIMENSION
  5
114
330
1F
100
AcDbEntity
  8
001
100
AcDbDimension
  2
*D2
 10
156.584127
 20
14.293848
 30
0.0
 11
98.084127
 21
17.293848
 31
0.0
 70
   160
  3
STANDARD
100
AcDbAlignedDimension
 13
39.584127
 23
30.377202
 33
0.0
 14
156.584127
 24
38.741932
 34
0.0
100
AcDbRotatedDimension
  0
DIMENSION
  5
115
330
1F
100
AcDbEntity
  8
001
100
AcDbDimension
  2
*D3
 10
191.93046
 20
26.176394
 30
0.0
 11
186.43046
 21
29.176394
 31
0.0
 70
   160
  3
STANDARD
100
AcDbAlignedDimension
 13
180.93046
 23
40.425307
 33
0.0
 14
191.93046
 24
43.741932
 34
0.0
100
AcDbRotatedDimension
  0
DIMENSION
  5
116
330
1F
100
AcDbEntity
  8
001
100
AcDbDimension
  2
*D4
 10
170.249205
 20
37.741932
 30
0.0
 11
167.249205
 21
43.741932
 31
0.0
 70
   160
  3
STANDARD
100
AcDbAlignedDimension
 13
155.584127
 23
49.741932
 33
0.0
 14
155.584127
 24
37.741932
 34
0.0
 50
270.0
100
AcDbRotatedDimension
  0
TEXT
  5
117
330
1F
100
AcDbEntity
  8
001
100
AcDbText
 10
12.096371
 20
33.741932
 30
0.0
 40
4.0
  1
%%c１１．７
 50
90.000003
 41
0.862069
100
AcDbText
  0
LWPOLYLINE
  5
118
330
1F
100
AcDbEntity
  8
001
100
AcDbPolyline
 90
        3
 70
     0
 43
0.0
 10
13.498295
 20
39.391932
 10
13.096371
 20
37.891932
 10
12.694448
 20
39.391932
  0
LINE
  5
11D
330
1F
100
AcDbEntity
  8
001
100
AcDbLine
 10
13.096371
 20
37.891932
 30
0.0
 11
13.096371
 21
49.591932
 31
0.0
  0
LWPOLYLINE
  5
11E
330
1F
100
AcDbEntity
  8
001
100
AcDbPolyline
 90
        3
 70
     0
 43
0.0
 10
36.211084
 20
37.891932
 10
13.096371
 20
37.891932
 10
10.346371
 20
37.891932
  0
DIMENSION
  5
123
330
1F
100
AcDbEntity
  8
001
100
AcDbDimension
  2
*D5
 10
21.170406
 20
37.891932
 30
0.0
 11
18.170405
 21
41.641932
 31
0.0
 70
   160
  3
STANDARD
100
AcDbAlignedDimension
 13
36.211084
 23
45.391932
 33
0.0
 14
36.211084
 24
37.891932
 34
0.0
 50
270.0
100
AcDbRotatedDimension
  0
DIMENSION
  5
124
330
1F
100
AcDbEntity
  8
001
100
AcDbDimension
  2
*D6
 10
48.80137
 20
43.741932
 30
0.0
 11
29.933791
 21
35.926725
 31
0.0
 70
    34
  3
STANDARD
100
AcDb2LineAngularDimension
 13
43.010827
 23
37.951389
 33
0.0
 14
48.80137
 24
43.741932
 34
0.0
 15
38.76202
 25
43.741932
 35
0.0
 16
27.162152
 26
34.778674
 36
0.0
  0
DIMENSION
  5
125
330
1F
100
AcDbEntity
  8
001
100
AcDbDimension
  2
*D7
 10
39.584127
 20
29.170174
 30
0.0
 11
49.084127
 21
32.170174
 31
0.0
 70
   160
  3
STANDARD
100
AcDbAlignedDimension
 13
44.584127
 23
39.524689
 33
0.0
 14
39.584127
 24
30.377202
 34
0.0
 50
180.0
100
AcDbRotatedDimension
  0
ARC
  5
126
330
1F
100
AcDbEntity
  8
001
100
AcDbCircle
 10
155.584127
 20
48.741932
 30
0.0
 40
1.000000000000001
100
AcDbArc
 50
0.0
 51
90.0
  0
ARC
  5
127
330
1F
100
AcDbEntity
  8
001
100
AcDbCircle
 10
155.584127
 20
38.741932
 30
0.0
 40
1.000000000000001
100
AcDbArc
 50
270.0
 51
0.0
  0
LINE
  5
128
330
1F
100
AcDbEntity
  8
001
100
AcDbLine
 10
156.584127
 20
48.741932
 30
0.0
 11
156.584127
 21
38.741932
 31
0.0
  0
LINE
  5
129
330
1F
100
AcDbEntity
  8
001
100
AcDbLine
 10
89.184127
 20
49.741932
 30
0.0
 11
89.184127
 21
37.741932
 31
0.0
  0
LINE
  5
12A
330
1F
100
AcDbEntity
  8
001
100
AcDbLine
 10
86.566084
 20
47.123889
 30
0.0
 11
89.184127
 21
49.741932
 31
0.0
  0
LINE
  5
12B
330
1F
100
AcDbEntity
  8
001
100
AcDbLine
 10
86.584127
 20
40.341932
 30
0.0
 11
89.184127
 21
37.741932
 31
0.0
  0
LINE
  5
12C
330
1F
100
AcDbEntity
  8
001
100
AcDbLine
 10
86.584127
 20
47.141932
 30
0.0
 11
86.584127
 21
40.341932
 31
0.0
  0
LINE
  5
12D
330
1F
100
AcDbEntity
  8
001
100
AcDbLine
 10
156.584127
 20
43.741932
 30
0.0
 11
159.182204
 21
45.241932
 31
0.0
  0
LINE
  5
12E
330
1F
100
AcDbEntity
  8
001
100
AcDbLine
 10
156.584127
 20
43.741932
 30
0.0
 11
159.182204
 21
42.241932
 31
0.0
  0
LINE
  5
12F
330
1F
100
AcDbEntity
  8
001
  6
CENTER
100
AcDbLine
 10
185.93046
 20
50.619263
 30
0.0
 11
185.93046
 21
36.913163
 31
0.0
  0
LINE
  5
130
330
1F
100
AcDbEntity
  8
001
  6
CENTER
100
AcDbLine
 10
192.852732
 20
43.741932
 30
0.0
 11
178.731296
 21
43.741932
 31
0.0
  0
LINE
  5
131
330
1F
100
AcDbEntity
  8
001
100
AcDbLine
 10
180.93046
 20
47.058556
 30
0.0
 11
180.93046
 21
40.425307
 31
0.0
  0
ARC
  5
132
330
1F
100
AcDbEntity
  8
001
100
AcDbCircle
 10
185.93046
 20
43.741932
 30
0.0
 40
6.0
100
AcDbArc
 50
213.55731
 51
146.44269
  0
LINE
  5
133
330
1F
100
AcDbEntity
  8
001
100
AcDbLine
 10
91.584127
 20
40.425307
 30
0.0
 11
91.584127
 21
47.058556
 31
0.0
  0
LINE
  5
134
330
1F
100
AcDbEntity
  8
001
100
AcDbLine
 10
155.584127
 20
37.741932
 30
0.0
 11
89.184127
 21
37.741932
 31
0.0
  0
LINE
  5
135
330
1F
100
AcDbEntity
  8
001
100
AcDbLine
 10
151.584127
 20
40.425307
 30
0.0
 11
91.584127
 21
40.425307
 31
0.0
  0
LINE
  5
136
330
1F
100
AcDbEntity
  8
001
100
AcDbLine
 10
151.584127
 20
47.058556
 30
0.0
 11
91.584127
 21
47.058556
 31
0.0
  0
LINE
  5
137
330
1F
100
AcDbEntity
  8
001
100
AcDbLine
 10
155.584127
 20
49.741932
 30
0.0
 11
89.184127
 21
49.741932
 31
0.0
  0
LINE
  5
138
330
1F
100
AcDbEntity
  8
001
100
AcDbLine
 10
151.584127
 20
40.425307
 30
0.0
 11
151.584127
 21
47.058556
 31
0.0
  0
CIRCLE
  5
139
330
1F
100
AcDbEntity
  8
001
100
AcDbCircle
 10
42.867285
 20
41.175089
 30
0.0
 40
1.5
  0
ARC
  5
13A
330
1F
100
AcDbEntity
  8
001
100
AcDbCircle
 10
39.787127
 20
41.175089
 30
0.0
 40
0.2030000000000001
100
AcDbArc
 50
135.0
 51
225.0
  0
LINE
  5
13B
330
1F
100
AcDbEntity
  8
001
100
AcDbLine
 10
42.723742
 20
44.398789
 30
0.0
 11
39.643585
 21
41.318632
 31
0.0
  0
ARC
  5
13C
330
1F
100
AcDbEntity
  8
001
100
AcDbCircle
 10
42.867285
 20
44.255246
 30
0.0
 40
0.2030000000000001
100
AcDbArc
 50
45.0
 51
135.0
  0
LINE
  5
13D
330
1F
100
AcDbEntity
  8
001
100
AcDbLine
 10
46.090984
 20
41.318632
 30
0.0
 11
43.010827
 21
44.398789
 31
0.0
  0
ARC
  5
13E
330
1F
100
AcDbEntity
  8
001
100
AcDbCircle
 10
45.947442
 20
41.175089
 30
0.0
 40
0.2030000000000001
100
AcDbArc
 50
315.0
 51
45.0
  0
LINE
  5
13F
330
1F
100
AcDbEntity
  8
001
100
AcDbLine
 10
43.010827
 20
37.951389
 30
0.0
 11
46.090984
 21
41.031546
 31
0.0
  0
ARC
  5
140
330
1F
100
AcDbEntity
  8
001
100
AcDbCircle
 10
42.867285
 20
38.094932
 30
0.0
 40
0.2030000000000001
100
AcDbArc
 50
225.0
 51
315.0
  0
LINE
  5
141
330
1F
100
AcDbEntity
  8
001
100
AcDbLine
 10
39.643585
 20
41.031546
 30
0.0
 11
42.723742
 21
37.951389
 31
0.0
  0
LWPOLYLINE
  5
142
330
1F
100
AcDbEntity
  8
001
100
AcDbPolyline
 90
        5
 70
     0
 43
0.0
 10
46.964597
 20
40.341932
 10
46.982572
 20
40.342556
 10
47.008352
 20
40.34645
 10
47.029255
 20
40.353404
 10
47.042906
 20
40.359994
  0
LINE
  5
149
330
1F
100
AcDbEntity
  8
001
100
AcDbLine
 10
46.964597
 20
40.341932
 30
0.0
 11
86.584127
 21
40.341932
 31
0.0
  0
LWPOLYLINE
  5
14A
330
1F
100
AcDbEntity
  8
001
100
AcDbPolyline
 90
        5
 70
     0
 43
0.0
 10
46.485006
 20
40.520712
 10
46.59714
 20
40.460341
 10
46.767421
 20
40.386924
 10
46.883265
 20
40.354123
 10
46.964597
 20
40.341932
  0
LINE
  5
151
330
1F
100
AcDbEntity
  8
001
100
AcDbLine
 10
48.084127
 20
40.359994
 30
0.0
 11
47.042906
 21
40.359994
 31
0.0
  0
ARC
  5
152
330
1F
100
AcDbEntity
  8
001
100
AcDbCircle
 10
47.734127
 20
43.741932
 30
0.0
 40
3.4
100
AcDbArc
 50
275.908562
 51
341.9046410000001
  0
LWPOLYLINE
  5
153
330
1F
100
AcDbEntity
  8
001
100
AcDbPolyline
 90
       49
 70
     0
 43
0.0
 10
84.584127
 20
42.685894
 10
84.663013
 20
42.68945
 10
84.74158
 20
42.696122
 10
84.81975
 20
42.708386
 10
84.89701
 20
42.725911
 10
84.972616
 20
42.747731
 10
85.046774
 20
42.773915
 10
85.118456
 20
42.804184
 10
85.188318
 20
42.838494
 10
85.256328
 20
42.876538
 10
85.32228
 20
42.918032
 10
85.385891
 20
42.96263
 10
85.447282
 20
43.010248
 10
85.52971
 20
43.081866
 10
85.607663
 20
43.158361
 10
85.681651
 20
43.239595
 10
85.751292
 20
43.324576
 10
85.816775
 20
43.412903
 10
85.878199
 20
43.504106
 10
85.953503
 20
43.628536
 10
86.022468
 20
43.756607
 10
86.085758
 20
43.888066
 10
86.143576
 20
44.022016
 10
86.195915
 20
44.156885
 10
86.243646
 20
44.293453
 10
86.28728
 20
44.431983
 10
86.326924
 20
44.571706
 10
86.362252
 20
44.709904
 10
86.394241
 20
44.848912
 10
86.422272
 20
44.984293
 10
86.447566
 20
45.120211
 10
86.472462
 20
45.270412
 10
86.494431
 20
45.42107
 10
86.512697
 20
45.564183
 10
86.528611
 20
45.707576
 10
86.541399
 20
45.841004
 10
86.552368
 20
45.974593
 10
86.559384
 20
46.073708
 10
86.565478
 20
46.172884
 10
86.570305
 20
46.264539
 10
86.574377
 20
46.356232
 10
86.577434
 20
46.439543
 10
86.579892
 20
46.522874
 10
86.581588
 20
46.596957
 10
86.582852
 20
46.671049
 10
86.583448
 20
46.718969
 10
86.583847
 20
46.76689
 10
86.584032
 20
46.80965
 10
86.584127
 20
46.85241
  0
ARC
  5
186
330
1F
100
AcDbEntity
  8
001
100
AcDbCircle
 10
84.584127
 20
47.391932
 30
0.0
 40
2.0
100
AcDbArc
 50
270.0
 51
352.297953
  0
LINE
  5
187
330
1F
100
AcDbEntity
  8
001
100
AcDbLine
 10
40.084127
 20
45.391932
 30
0.0
 11
41.860519
 21
45.391932
 31
0.0
  0
LINE
  5
188
330
1F
100
AcDbEntity
  8
001
100
AcDbLine
 10
43.860519
 20
45.391932
 30
0.0
 11
84.584127
 21
45.391932
 31
0.0
  0
LINE
  5
189
330
1F
100
AcDbEntity
  8
001
100
AcDbLine
 10
43.860519
 20
45.373869
 30
0.0
 11
48.084127
 21
45.373869
 31
0.0
  0
LINE
  5
18A
330
1F
100
AcDbEntity
  8
001
100
AcDbLine
 10
41.860519
 20
45.213151
 30
0.0
 11
43.860519
 21
45.213151
 31
0.0
  0
LINE
  5
18B
330
1F
100
AcDbEntity
  8
001
100
AcDbLine
 10
40.084127
 20
45.373869
 30
0.0
 11
41.860519
 21
45.373869
 31
0.0
  0
LINE
  5
18C
330
1F
100
AcDbEntity
  8
001
100
AcDbLine
 10
48.084127
 20
45.373869
 30
0.0
 11
48.084127
 21
40.359994
 31
0.0
  0
LINE
  5
18D
330
1F
100
AcDbEntity
  8
001
100
AcDbLine
 10
41.917423
 20
38.408636
 30
0.0
 11
40.084127
 21
40.241932
 31
0.0
  0
LINE
  5
18E
330
1F
100
AcDbEntity
  8
001
100
AcDbLine
 10
50.965966
 20
42.685894
 30
0.0
 11
84.584127
 21
42.685894
 31
0.0
  0
LINE
  5
18F
330
1F
100
AcDbEntity
  8
001
100
AcDbLine
 10
41.860519
 20
45.391932
 30
0.0
 11
41.860519
 21
43.776633
 31
0.0
  0
LINE
  5
190
330
1F
100
AcDbEntity
  8
001
100
AcDbLine
 10
43.860519
 20
45.391932
 30
0.0
 11
43.860519
 21
43.776633
 31
0.0
  0
LINE
  5
191
330
1F
100
AcDbEntity
  8
001
100
AcDbLine
 10
42.293666
 20
38.408636
 30
0.0
 11
41.917423
 21
38.408636
 31
0.0
  0
ARC
  5
192
330
1F
100
AcDbEntity
  8
001
100
AcDbCircle
 10
42.869117
 20
41.875086
 30
0.0
 40
0.175
100
AcDbArc
 50
14.503061
 51
165.196939
  0
ARC
  5
193
330
1F
100
AcDbEntity
  8
001
100
AcDbCircle
 10
42.393442
 20
42.000792
 30
0.0
 40
0.3170045884846417
100
AcDbArc
 50
254.503061
 51
345.196939
  0
ARC
  5
194
330
1F
100
AcDbEntity
  8
001
100
AcDbCircle
 10
42.261985
 20
41.526675
 30
0.0
 40
0.175
100
AcDbArc
 50
74.503061
 51
225.196939
  0
ARC
  5
195
330
1F
100
AcDbEntity
  8
001
100
AcDbCircle
 10
41.915283
 20
41.177581
 30
0.0
 40
0.3170045884846417
100
AcDbArc
 50
314.503061
 51
45.196939
  0
ARC
  5
196
330
1F
100
AcDbEntity
  8
001
100
AcDbCircle
 10
42.260153
 20
40.826677
 30
0.0
 40
0.175
100
AcDbArc
 50
134.503061
 51
285.196939
  0
ARC
  5
197
330
1F
100
AcDbEntity
  8
001
100
AcDbCircle
 10
42.389125
 20
40.351878
 30
0.0
 40
0.3170045884846417
100
AcDbArc
 50
14.503061
 51
105.196939
  0
ARC
  5
198
330
1F
100
AcDbEntity
  8
001
100
AcDbCircle
 10
42.865452
 20
40.475091
 30
0.0
 40
0.175
100
AcDbArc
 50
194.5030610000001
 51
345.196939
  0
ARC
  5
199
330
1F
100
AcDbEntity
  8
001
100
AcDbCircle
 10
43.341127
 20
40.349385
 30
0.0
 40
0.3170045884846417
100
AcDbArc
 50
74.503061
 51
165.196939
  0
ARC
  5
19A
330
1F
100
AcDbEntity
  8
001
100
AcDbCircle
 10
43.472584
 20
40.823503
 30
0.0
 40
0.175
100
AcDbArc
 50
254.503061
 51
45.196939
  0
ARC
  5
19B
330
1F
100
AcDbEntity
  8
001
100
AcDbCircle
 10
43.819286
 20
41.172596
 30
0.0
 40
0.3170045884846417
100
AcDbArc
 50
134.503061
 51
225.196939
  0
ARC
  5
19C
330
1F
100
AcDbEntity
  8
001
100
AcDbCircle
 10
43.474417
 20
41.523501
 30
0.0
 40
0.175
100
AcDbArc
 50
314.503061
 51
105.196939
  0
ARC
  5
19D
330
1F
100
AcDbEntity
  8
001
100
AcDbCircle
 10
43.345444
 20
41.9983
 30
0.0
 40
0.3170045884846417
100
AcDbArc
 50
194.5030610000001
 51
285.196939
  0
CIRCLE
  5
19E
330
1F
100
AcDbEntity
  8
001
100
AcDbCircle
 10
42.867285
 20
41.175089
 30
0.0
 40
1.15
  0
ARC
  5
19F
330
1F
100
AcDbEntity
  8
001
100
AcDbCircle
 10
42.860519
 20
43.776633
 30
0.0
 40
1.0
100
AcDbArc
 50
180.0
 51
192.544362
  0
ARC
  5
1A0
330
1F
100
AcDbEntity
  8
001
100
AcDbCircle
 10
42.860519
 20
43.776633
 30
0.0
 40
1.0
100
AcDbArc
 50
348.107673
 51
0.0
  0
LINE
  5
1A1
330
1F
100
AcDbEntity
  8
001
100
AcDbLine
 10
40.084127
 20
45.391932
 30
0.0
 11
40.084127
 21
41.759174
 31
0.0
  0
LINE
  5
1A2
330
1F
100
AcDbEntity
  8
001
100
AcDbLine
 10
40.084127
 20
40.241932
 30
0.0
 11
40.084127
 21
40.591003
 31
0.0
  0
LINE
  5
1A3
330
1F
100
AcDbEntity
  8
001
100
AcDbLine
 10
46.485006
 20
40.520712
 30
0.0
 11
45.58015
 21
40.520712
 31
0.0
  0
LINE
  5
1A4
330
1F
100
AcDbEntity
  8
001
100
AcDbLine
 10
46.485006
 20
40.520712
 30
0.0
 11
46.031394
 21
40.971956
 31
0.0
  0
LINE
  5
1A5
330
1F
100
AcDbEntity
  8
001
100
AcDbLine
 10
47.042906
 20
40.359994
 30
0.0
 11
46.125463
 21
41.272646
 31
0.0
  0
ARC
  5
1A6
330
1F
100
AcDbEntity
  8
001
100
AcDbCircle
 10
47.072084
 20
41.400004
 30
0.0
 40
4.100711475312105
100
AcDbArc
 50
18.27494
 51
75.711938
  0
LINE
  5
1A7
330
1F
100
AcDbEntity
  8
001
100
AcDbLine
 10
39.584127
 20
41.175089
 30
0.0
 11
39.584127
 21
30.377202
 31
0.0
  0
LINE
  5
1A8
330
1F
100
AcDbEntity
  8
001
100
AcDbLine
 10
36.211084
 20
45.391932
 30
0.0
 11
40.084127
 21
45.391932
 31
0.0
  0
LINE
  5
1A9
330
1F
100
AcDbEntity
  8
001
100
AcDbLine
 10
36.211084
 20
37.891932
 30
0.0
 11
42.867285
 21
37.891932
 31
0.0
  0
LINE
  5
1AA
330
1F
100
AcDbEntity
  8
001
  6
PHANTOM
100
AcDbLine
 10
44.584127
 20
41.175089
 30
0.0
 11
44.584127
 21
39.524689
 31
0.0
  0
LINE
  5
1AB
330
1F
100
AcDbEntity
  8
001
  6
CENTER
100
AcDbLine
 10
38.76202
 20
43.741932
 30
0.0
 11
161.420733
 21
43.741932
 31
0.0
  0
LINE
  5
1AC
330
1F
100
AcDbEntity
  8
001
100
AcDbLine
 10
151.584127
 20
47.058556
 30
0.0
 11
91.584127
 21
40.425307
 31
0.0
  0
LINE
  5
1AD
330
1F
100
AcDbEntity
  8
001
100
AcDbLine
 10
91.584127
 20
47.058556
 30
0.0
 11
151.584127
 21
40.425307
 31
0.0
  0
CIRCLE
  5
1AE
330
1F
100
AcDbEntity
  8
001
100
AcDbCircle
 10
-1.663394
 20
43.741932
 30
0.0
 40
5.850000000000009
  0
CIRCLE
  5
1AF
330
1F
100
AcDbEntity
  8
001
100
AcDbCircle
 10
-1.663394
 20
41.631932
 30
0.0
 40
3.75
  0
LINE
  5
1B0
330
1F
100
AcDbEntity
  8
001
  6
CENTER
 62
   253
100
AcDbLine
 10
-9.513394
 20
43.741932
 30
0.0
 11
6.186606
 21
43.741932
 31
0.0
  0
LINE
  5
1B1
330
1F
100
AcDbEntity
  8
001
  6
CENTER
 62
   253
100
AcDbLine
 10
-1.663394
 20
35.891932
 30
0.0
 11
-1.663394
 21
51.591932
 31
0.0
  0
TEXT
  5
1B2
330
1F
100
AcDbEntity
  8
001
100
AcDbText
 10
2.795464
 20
74.013227
 30
0.0
 40
5.0
  1
ウラトリメンＣ　ＵＭＨ１２－８．５Ｓ－Ｍ１０
 41
0.833333
100
AcDbText
  0
DIMENSION
  5
1C2
330
1F
100
AcDbEntity
  8
0
100
AcDbDimension
  2
*D8
 10
-17.53568868827706
 20
43.741932
 30
0.0
 11
-17.53568868827706
 21
53.45026533333333
 31
0.0
 70
    33
  3
ISO-25
100
AcDbAlignedDimension
 13
-9.513394
 23
41.631932
 33
0.0
 14
-9.513394
 24
43.741932
 34
0.0
1001
ACAD
1000
DSTYLE
1002
{
1070
     7
1000
OPEN
1070
     6
1000
OPEN
1070
     5
1000

1070
   173
1070
     1
1070
   140
1040
3.5
1070
   141
1040
0.09
1070
    77
1070
     0
1002
}
  0
LINE
  5
1D3
330
1F
100
AcDbEntity
  8
001
  6
CENTER
 62
   253
100
AcDbLine
 10
-9.513394
 20
41.631932
 30
0.0
 11
6.186606
 21
41.631932
 31
0.0
  0
ENDSEC
  0
SECTION
  2
OBJECTS
  0
DICTIONARY
  5
C
330
0
100
AcDbDictionary
  3
ACAD_GROUP
350
D
  3
ACAD_IMAGE_VARS
350
1C0
  3
ACAD_MLINESTYLE
350
17
  3
ACAD_SCALELIST
350
221
  3
ACDBVARIABLEDICTIONARY
350
1B4
  3
APPDATA
350
1BF
  3
DWGPROPS
350
268
  0
DICTIONARY
  5
D
102
{ACAD_REACTORS
330
C
102
}
330
C
100
AcDbDictionary
  0
RASTERVARIABLES
  5
1C0
102
{ACAD_REACTORS
330
C
102
}
330
C
100
AcDbRasterVariables
 90
        0
 70
     1
 71
     1
 72
     1
  0
DICTIONARY
  5
17
102
{ACAD_REACTORS
330
C
102
}
330
C
100
AcDbDictionary
  3
STANDARD
350
18
  0
DICTIONARY
  5
221
102
{ACAD_REACTORS
330
C
102
}
330
C
100
AcDbDictionary
  0
DICTIONARY
  5
1B4
102
{ACAD_REACTORS
330
C
102
}
330
C
100
AcDbDictionary
  0
DICTIONARY
  5
1BF
102
{ACAD_REACTORS
330
C
102
}
330
C
100
AcDbDictionary
  0
XRECORD
  5
268
102
{ACAD_REACTORS
330
C
102
}
330
C
100
AcDbXrecord
  1
DWGPROPS COOKIE
  2

  3

  4

  6

  7

  8
kaihatu03
  9

300
=
301
=
302
=
303
=
304
=
305
=
306
=
307
=
308
=
309
=
 40
0.0
 41
2454734.048636239
 42
2457962.055803403
  1

 90
        0
  0
MLINESTYLE
  5
18
102
{ACAD_REACTORS
330
17
102
}
330
17
100
AcDbMlineStyle
  2
Standard
 70
     0
  3

 62
   256
 51
90.0
 52
90.0
 71
     2
 49
0.5
 62
   256
  6
BYLAYER
 49
-0.5
 62
   256
  6
BYLAYER
  0
ENDSEC
  0
EOF
