  0
SECTION
  2
HEADER
  9
$ACADVER
  1
AC1015
  9
$ACADMAINTVER
 70
     6
  9
$DWGCODEPAGE
  3
ANSI_932
  9
$INSBASE
 10
0.0
 20
0.0
 30
0.0
  9
$EXTMIN
 10
-8.020737
 20
40.050995
 30
0.0
  9
$EXTMAX
 10
197.070755
 20
195.933273
 30
0.0
  9
$LIMMIN
 10
0.0
 20
0.0
  9
$LIMMAX
 10
12.0
 20
9.0
  9
$ORTHOMODE
 70
     0
  9
$REGENMODE
 70
     1
  9
$FILLMODE
 70
     1
  9
$QTEXTMODE
 70
     0
  9
$MIRRTEXT
 70
     1
  9
$LTSCALE
 40
2.576079
  9
$ATTMODE
 70
     1
  9
$TEXTSIZE
 40
3.2
  9
$TRACEWID
 40
1.0
  9
$TEXTSTYLE
  7
Standard
  9
$CLAYER
  8
0
  9
$CELTYPE
  6
ByLayer
  9
$CECOLOR
 62
   256
  9
$CELTSCALE
 40
1.0
  9
$DISPSILH
 70
     0
  9
$DIMSCALE
 40
1.0
  9
$DIMASZ
 40
2.5
  9
$DIMEXO
 40
0.625
  9
$DIMDLI
 40
3.75
  9
$DIMRND
 40
0.0
  9
$DIMDLE
 40
0.0
  9
$DIMEXE
 40
1.25
  9
$DIMTP
 40
0.0
  9
$DIMTM
 40
0.0
  9
$DIMTXT
 40
2.5
  9
$DIMCEN
 40
0.09
  9
$DIMTSZ
 40
0.0
  9
$DIMTOL
 70
     0
  9
$DIMLIM
 70
     0
  9
$DIMTIH
 70
     0
  9
$DIMTOH
 70
     0
  9
$DIMSE1
 70
     0
  9
$DIMSE2
 70
     0
  9
$DIMTAD
 70
     0
  9
$DIMZIN
 70
     8
  9
$DIMBLK
  1

  9
$DIMASO
 70
     1
  9
$DIMSHO
 70
     0
  9
$DIMPOST
  1

  9
$DIMAPOST
  1

  9
$DIMALT
 70
     0
  9
$DIMALTD
 70
     3
  9
$DIMALTF
 40
0.03937
  9
$DIMLFAC
 40
1.0
  9
$DIMTOFL
 70
     1
  9
$DIMTVP
 40
0.0
  9
$DIMTIX
 70
     0
  9
$DIMSOXD
 70
     0
  9
$DIMSAH
 70
     0
  9
$DIMBLK1
  1

  9
$DIMBLK2
  1

  9
$DIMSTYLE
  2
ISO-25
  9
$DIMCLRD
 70
     0
  9
$DIMCLRE
 70
     0
  9
$DIMCLRT
 70
     0
  9
$DIMTFAC
 40
1.0
  9
$DIMGAP
 40
0.625
  9
$DIMJUST
 70
     0
  9
$DIMSD1
 70
     0
  9
$DIMSD2
 70
     0
  9
$DIMTOLJ
 70
     0
  9
$DIMTZIN
 70
     8
  9
$DIMALTZ
 70
     0
  9
$DIMALTTZ
 70
     0
  9
$DIMUPT
 70
     0
  9
$DIMDEC
 70
     2
  9
$DIMTDEC
 70
     2
  9
$DIMALTU
 70
     2
  9
$DIMALTTD
 70
     3
  9
$DIMTXSTY
  7
Standard
  9
$DIMAUNIT
 70
     0
  9
$DIMADEC
 70
     0
  9
$DIMALTRND
 40
0.0
  9
$DIMAZIN
 70
     0
  9
$DIMDSEP
 70
    44
  9
$DIMATFIT
 70
     3
  9
$DIMFRAC
 70
     0
  9
$DIMLDRBLK
  1

  9
$DIMLUNIT
 70
     2
  9
$DIMLWD
 70
    -2
  9
$DIMLWE
 70
    -2
  9
$DIMTMOVE
 70
     0
  9
$LUNITS
 70
     2
  9
$LUPREC
 70
     4
  9
$SKETCHINC
 40
1.0
  9
$FILLETRAD
 40
0.0
  9
$AUNITS
 70
     0
  9
$AUPREC
 70
     0
  9
$MENU
  1
.
  9
$ELEVATION
 40
0.0
  9
$PELEVATION
 40
0.0
  9
$THICKNESS
 40
0.0
  9
$LIMCHECK
 70
     0
  9
$CHAMFERA
 40
10.0
  9
$CHAMFERB
 40
10.0
  9
$CHAMFERC
 40
20.0
  9
$CHAMFERD
 40
0.0
  9
$SKPOLY
 70
     0
  9
$TDCREATE
 40
2454728.393218495
  9
$TDUCREATE
 40
2454728.018218495
  9
$TDUPDATE
 40
2454728.393218507
  9
$TDUUPDATE
 40
2454728.018218507
  9
$TDINDWG
 40
0.0000000116
  9
$TDUSRTIMER
 40
0.0000000116
  9
$USRTIMER
 70
     1
  9
$ANGBASE
 50
0.0
  9
$ANGDIR
 70
     0
  9
$PDMODE
 70
     0
  9
$PDSIZE
 40
0.0
  9
$PLINEWID
 40
0.0
  9
$SPLFRAME
 70
     0
  9
$SPLINETYPE
 70
     6
  9
$SPLINESEGS
 70
     8
  9
$HANDSEED
  5
366
  9
$SURFTAB1
 70
     6
  9
$SURFTAB2
 70
     6
  9
$SURFTYPE
 70
     6
  9
$SURFU
 70
     6
  9
$SURFV
 70
     6
  9
$UCSBASE
  2

  9
$UCSNAME
  2

  9
$UCSORG
 10
0.0
 20
0.0
 30
0.0
  9
$UCSXDIR
 10
1.0
 20
0.0
 30
0.0
  9
$UCSYDIR
 10
0.0
 20
1.0
 30
0.0
  9
$UCSORTHOREF
  2

  9
$UCSORTHOVIEW
 70
     0
  9
$UCSORGTOP
 10
0.0
 20
0.0
 30
0.0
  9
$UCSORGBOTTOM
 10
0.0
 20
0.0
 30
0.0
  9
$UCSORGLEFT
 10
0.0
 20
0.0
 30
0.0
  9
$UCSORGRIGHT
 10
0.0
 20
0.0
 30
0.0
  9
$UCSORGFRONT
 10
0.0
 20
0.0
 30
0.0
  9
$UCSORGBACK
 10
0.0
 20
0.0
 30
0.0
  9
$PUCSBASE
  2

  9
$PUCSNAME
  2

  9
$PUCSORG
 10
0.0
 20
0.0
 30
0.0
  9
$PUCSXDIR
 10
1.0
 20
0.0
 30
0.0
  9
$PUCSYDIR
 10
0.0
 20
1.0
 30
0.0
  9
$PUCSORTHOREF
  2

  9
$PUCSORTHOVIEW
 70
     0
  9
$PUCSORGTOP
 10
0.0
 20
0.0
 30
0.0
  9
$PUCSORGBOTTOM
 10
0.0
 20
0.0
 30
0.0
  9
$PUCSORGLEFT
 10
0.0
 20
0.0
 30
0.0
  9
$PUCSORGRIGHT
 10
0.0
 20
0.0
 30
0.0
  9
$PUCSORGFRONT
 10
0.0
 20
0.0
 30
0.0
  9
$PUCSORGBACK
 10
0.0
 20
0.0
 30
0.0
  9
$USERI1
 70
     0
  9
$USERI2
 70
     0
  9
$USERI3
 70
     0
  9
$USERI4
 70
     0
  9
$USERI5
 70
     0
  9
$USERR1
 40
0.0
  9
$USERR2
 40
0.0
  9
$USERR3
 40
0.0
  9
$USERR4
 40
0.0
  9
$USERR5
 40
0.0
  9
$WORLDVIEW
 70
     1
  9
$SHADEDGE
 70
     3
  9
$SHADEDIF
 70
    70
  9
$TILEMODE
 70
     1
  9
$MAXACTVP
 70
    64
  9
$PINSBASE
 10
0.0
 20
0.0
 30
0.0
  9
$PLIMCHECK
 70
     0
  9
$PEXTMIN
 10
1.000000E+20
 20
1.000000E+20
 30
0.0
  9
$PEXTMAX
 10
-1.000000E+20
 20
-1.000000E+20
 30
0.0
  9
$PLIMMIN
 10
0.0
 20
0.0
  9
$PLIMMAX
 10
12.0
 20
9.0
  9
$UNITMODE
 70
     0
  9
$VISRETAIN
 70
     1
  9
$PLINEGEN
 70
     0
  9
$PSLTSCALE
 70
     1
  9
$TREEDEPTH
 70
  3020
  9
$CMLSTYLE
  2
Standard
  9
$CMLJUST
 70
     0
  9
$CMLSCALE
 40
20.0
  9
$PROXYGRAPHICS
 70
     1
  9
$MEASUREMENT
 70
     1
  9
$CELWEIGHT
370
    -1
  9
$ENDCAPS
280
     0
  9
$JOINSTYLE
280
     0
  9
$LWDISPLAY
290
     0
  9
$INSUNITS
 70
     4
  9
$HYPERLINKBASE
  1

  9
$STYLESHEET
  1

  9
$XEDIT
290
     1
  9
$CEPSNTYPE
380
     0
  9
$PSTYLEMODE
290
     1
  9
$FINGERPRINTGUID
  2
{7F3C6069-1FE8-44AA-A0B4-8BD137A1389A}
  9
$VERSIONGUID
  2
{FAEB1C32-E019-11D5-929B-00C0DF256EC4}
  9
$EXTNAMES
290
     1
  9
$PSVPSCALE
 40
0.0
  9
$OLESTARTUP
290
     0
  0
ENDSEC
  0
SECTION
  2
CLASSES
  0
CLASS
  1
ACDBDICTIONARYWDFLT
  2
AcDbDictionaryWithDefault
  3
ObjectDBX Classes
 90
        0
280
     0
281
     0
  0
CLASS
  1
VISUALSTYLE
  2
AcDbVisualStyle
  3
ObjectDBX Classes
 90
     4095
280
     0
281
     0
  0
CLASS
  1
SCALE
  2
AcDbScale
  3
ObjectDBX Classes
 90
     1153
280
     0
281
     0
  0
CLASS
  1
DICTIONARYVAR
  2
AcDbDictionaryVar
  3
ObjectDBX Classes
 90
        0
280
     0
281
     0
  0
CLASS
  1
ACDBPLACEHOLDER
  2
AcDbPlaceHolder
  3
ObjectDBX Classes
 90
        0
280
     0
281
     0
  0
CLASS
  1
LAYOUT
  2
AcDbLayout
  3
ObjectDBX Classes
 90
        0
280
     0
281
     0
  0
ENDSEC
  0
SECTION
  2
TABLES
  0
TABLE
  2
VPORT
  5
8
330
0
100
AcDbSymbolTable
 70
     1
  0
VPORT
  5
29
330
8
100
AcDbSymbolTableRecord
100
AcDbViewportTableRecord
  2
*Active
 70
     0
 10
0.0
 20
0.0
 11
1.0
 21
1.0
 12
94.525009
 22
117.992134
 13
0.0
 23
0.0
 14
1.0
 24
1.0
 15
0.0
 25
0.0
 16
0.0
 26
0.0
 36
1.0
 17
0.0
 27
0.0
 37
0.0
 40
157.441101
 41
1.691288
 42
50.0
 43
0.0
 44
0.0
 50
0.0
 51
0.0
 71
     0
 72
   100
 73
     1
 74
     3
 75
     0
 76
     0
 77
     0
 78
     0
281
     0
 65
     1
110
0.0
120
0.0
130
0.0
111
1.0
121
0.0
131
0.0
112
0.0
122
1.0
132
0.0
 79
     0
146
0.0
  0
ENDTAB
  0
TABLE
  2
LTYPE
  5
5
330
0
100
AcDbSymbolTable
 70
     5
  0
LTYPE
  5
14
330
5
100
AcDbSymbolTableRecord
100
AcDbLinetypeTableRecord
  2
ByBlock
 70
     0
  3

 72
    65
 73
     0
 40
0.0
  0
LTYPE
  5
15
330
5
100
AcDbSymbolTableRecord
100
AcDbLinetypeTableRecord
  2
ByLayer
 70
     0
  3

 72
    65
 73
     0
 40
0.0
  0
LTYPE
  5
16
330
5
100
AcDbSymbolTableRecord
100
AcDbLinetypeTableRecord
  2
Continuous
 70
     0
  3
Solid line
 72
    65
 73
     0
 40
0.0
  0
LTYPE
  5
5D
330
5
100
AcDbSymbolTableRecord
100
AcDbLinetypeTableRecord
  2
DASHED
 70
     0
  3
DASHED
 72
    83
 73
     2
 40
0.75
 49
0.5
 74
     0
 49
-0.25
 74
     0
  0
LTYPE
  5
5E
330
5
100
AcDbSymbolTableRecord
100
AcDbLinetypeTableRecord
  2
HIDDEN
 70
     0
  3
HIDDEN
 72
    83
 73
     2
 40
0.375
 49
0.25
 74
     0
 49
-0.125
 74
     0
  0
LTYPE
  5
5F
330
5
100
AcDbSymbolTableRecord
100
AcDbLinetypeTableRecord
  2
CENTER
 70
     0
  3
CENTER
 72
    83
 73
     4
 40
2.0
 49
1.25
 74
     0
 49
-0.25
 74
     0
 49
0.25
 74
     0
 49
-0.25
 74
     0
  0
LTYPE
  5
60
330
5
100
AcDbSymbolTableRecord
100
AcDbLinetypeTableRecord
  2
PHANTOM
 70
     0
  3
PHANTOM
 72
    83
 73
     6
 40
2.5
 49
1.25
 74
     0
 49
-0.25
 74
     0
 49
0.25
 74
     0
 49
-0.25
 74
     0
 49
0.25
 74
     0
 49
-0.25
 74
     0
  0
ENDTAB
  0
TABLE
  2
LAYER
  5
2
330
0
100
AcDbSymbolTable
 70
     2
  0
LAYER
  5
10
330
2
100
AcDbSymbolTableRecord
100
AcDbLayerTableRecord
  2
0
 70
     0
 62
     7
  6
Continuous
370
    -3
390
F
  0
LAYER
  5
61
330
2
100
AcDbSymbolTableRecord
100
AcDbLayerTableRecord
  2
001
 70
     0
 62
     7
  6
Continuous
370
    -3
390
F
  0
ENDTAB
  0
TABLE
  2
STYLE
  5
3
330
0
100
AcDbSymbolTable
 70
     2
  0
STYLE
  5
11
330
3
100
AcDbSymbolTableRecord
100
AcDbTextStyleTableRecord
  2
Standard
 70
     0
 40
0.0
 41
1.0
 50
0.0
 71
     0
 42
0.2
  3
TXT
  4
BIGFONT
  0
STYLE
  5
62
330
3
100
AcDbSymbolTableRecord
100
AcDbTextStyleTableRecord
  2
TATEGAKI
 70
     4
 40
1.0
 41
1.0
 50
0.0
 71
     0
 42
0.2
  3
TXT
  4
BIGFONT
  0
ENDTAB
  0
TABLE
  2
VIEW
  5
6
330
0
100
AcDbSymbolTable
 70
     0
  0
ENDTAB
  0
TABLE
  2
UCS
  5
7
330
0
100
AcDbSymbolTable
 70
     0
  0
ENDTAB
  0
TABLE
  2
APPID
  5
9
330
0
100
AcDbSymbolTable
 70
     1
  0
APPID
  5
12
330
9
100
AcDbSymbolTableRecord
100
AcDbRegAppTableRecord
  2
ACAD
 70
     0
  0
ENDTAB
  0
TABLE
  2
DIMSTYLE
  5
A
330
0
100
AcDbSymbolTable
 70
     2
100
AcDbDimStyleTable
  0
DIMSTYLE
105
27
330
A
100
AcDbSymbolTableRecord
100
AcDbDimStyleTableRecord
  2
ISO-25
 70
     0
 41
2.5
 42
0.625
 43
3.75
 44
1.25
 73
     0
 74
     0
 77
     1
 78
     8
140
2.5
141
2.5
143
0.03937
147
0.625
171
     3
172
     1
271
     2
272
     2
274
     3
278
    44
283
     0
284
     8
340
11
  0
DIMSTYLE
105
63
102
{ACAD_REACTORS
330
F7
330
F8
330
F9
330
FA
330
FB
330
108
102
}
330
A
100
AcDbSymbolTableRecord
100
AcDbDimStyleTableRecord
  2
Standard
 70
     0
 41
1.5
 42
0.0
 44
2.75
 73
     0
 74
     0
 77
     1
 78
     8
 79
     2
140
4.0
146
0.8
147
1.0
172
     1
179
     1
271
     1
340
11
  0
ENDTAB
  0
TABLE
  2
BLOCK_RECORD
  5
1
330
0
100
AcDbSymbolTable
 70
     7
  0
BLOCK_RECORD
  5
1F
330
1
100
AcDbSymbolTableRecord
100
AcDbBlockTableRecord
  2
*Model_Space
340
22
  0
BLOCK_RECORD
  5
1B
330
1
100
AcDbSymbolTableRecord
100
AcDbBlockTableRecord
  2
*Paper_Space
340
1E
  0
BLOCK_RECORD
  5
23
330
1
100
AcDbSymbolTableRecord
100
AcDbBlockTableRecord
  2
*Paper_Space0
340
26
  0
BLOCK_RECORD
  5
64
330
1
100
AcDbSymbolTableRecord
100
AcDbBlockTableRecord
  2
*D1
340
0
  0
BLOCK_RECORD
  5
79
330
1
100
AcDbSymbolTableRecord
100
AcDbBlockTableRecord
  2
*D2
340
0
  0
BLOCK_RECORD
  5
8D
330
1
100
AcDbSymbolTableRecord
100
AcDbBlockTableRecord
  2
*D3
340
0
  0
BLOCK_RECORD
  5
A1
330
1
100
AcDbSymbolTableRecord
100
AcDbBlockTableRecord
  2
*D4
340
0
  0
BLOCK_RECORD
  5
B5
330
1
100
AcDbSymbolTableRecord
100
AcDbBlockTableRecord
  2
*D5
340
0
  0
BLOCK_RECORD
  5
C9
330
1
100
AcDbSymbolTableRecord
100
AcDbBlockTableRecord
  2
*D6
340
0
  0
ENDTAB
  0
ENDSEC
  0
SECTION
  2
BLOCKS
  0
BLOCK
  5
20
330
1F
100
AcDbEntity
  8
0
100
AcDbBlockBegin
  2
*Model_Space
 70
     0
 10
0.0
 20
0.0
 30
0.0
  3
*Model_Space
  1

  0
ENDBLK
  5
21
330
1F
100
AcDbEntity
  8
0
100
AcDbBlockEnd
  0
BLOCK
  5
1C
330
1B
100
AcDbEntity
 67
     1
  8
0
100
AcDbBlockBegin
  2
*Paper_Space
 70
     0
 10
0.0
 20
0.0
 30
0.0
  3
*Paper_Space
  1

  0
ENDBLK
  5
1D
330
1B
100
AcDbEntity
 67
     1
  8
0
100
AcDbBlockEnd
  0
BLOCK
  5
24
330
23
100
AcDbEntity
  8
0
100
AcDbBlockBegin
  2
*Paper_Space0
 70
     0
 10
0.0
 20
0.0
 30
0.0
  3
*Paper_Space0
  1

  0
ENDBLK
  5
25
330
23
100
AcDbEntity
  8
0
100
AcDbBlockEnd
  0
BLOCK
  5
65
330
64
100
AcDbEntity
  8
0
100
AcDbBlockBegin
  2
*D1
 70
     1
 10
0.0
 20
0.0
 30
0.0
  3
*D1
  1

  0
LINE
  5
67
330
64
100
AcDbEntity
  8
001
370
     9
100
AcDbLine
 10
43.903365
 20
97.978749
 30
0.0
 11
58.326137
 21
67.049016
 31
0.0
  0
LINE
  5
68
330
64
100
AcDbEntity
  8
001
370
     9
100
AcDbLine
 10
31.193125
 20
82.50971
 30
0.0
 11
31.193125
 21
61.033772
 31
0.0
  0
ARC
  5
69
330
64
100
AcDbEntity
  8
001
370
     9
100
AcDbCircle
 10
31.193125
 20
125.235947
 30
0.0
 40
61.45217526694013
100
AcDbArc
 50
270.0
 51
295.0
  0
POLYLINE
  5
6A
330
64
100
AcDbEntity
  8
001
370
     9
100
AcDb2dPolyline
 66
     1
 10
0.0
 20
0.0
 30
0.0
  0
VERTEX
  5
6C
330
6A
100
AcDbEntity
  8
001
370
     9
100
AcDbVertex
100
AcDb2dVertex
 10
55.631437
 20
69.290386
 30
0.0
  0
VERTEX
  5
6D
330
6A
100
AcDbEntity
  8
001
370
     9
100
AcDbVertex
100
AcDb2dVertex
 10
57.163937
 20
69.541362
 30
0.0
  0
VERTEX
  5
6E
330
6A
100
AcDbEntity
  8
001
370
     9
100
AcDbVertex
100
AcDb2dVertex
 10
55.962242
 20
68.557761
 30
0.0
  0
SEQEND
  5
6B
330
6A
100
AcDbEntity
  8
001
370
     9
  0
POLYLINE
  5
6F
330
64
100
AcDbEntity
  8
001
370
     9
100
AcDb2dPolyline
 66
     1
 10
0.0
 20
0.0
 30
0.0
  0
VERTEX
  5
71
330
6F
100
AcDbEntity
  8
001
370
     9
100
AcDbVertex
100
AcDb2dVertex
 10
32.697919
 20
63.400185
 30
0.0
  0
VERTEX
  5
72
330
6F
100
AcDbEntity
  8
001
370
     9
100
AcDbVertex
100
AcDb2dVertex
 10
31.193125
 20
63.783772
 30
0.0
  0
VERTEX
  5
73
330
6F
100
AcDbEntity
  8
001
370
     9
100
AcDbVertex
100
AcDb2dVertex
 10
32.688108
 20
64.203972
 30
0.0
  0
SEQEND
  5
70
330
6F
100
AcDbEntity
  8
001
370
     9
  0
TEXT
  5
74
330
64
100
AcDbEntity
  8
001
370
    30
100
AcDbText
 10
38.419595
 20
64.918092
 30
0.0
 40
4.0
  1
２５%%d
 50
12.5
 41
0.978261
100
AcDbText
  0
POINT
  5
75
330
64
100
AcDbEntity
  8
001
370
     9
100
AcDbPoint
 10
43.903365
 20
97.978749
 30
0.0
  0
POINT
  5
76
330
64
100
AcDbEntity
  8
001
370
     9
100
AcDbPoint
 10
31.193125
 20
125.235947
 30
0.0
  0
POINT
  5
77
330
64
100
AcDbEntity
  8
001
370
     9
100
AcDbPoint
 10
31.193125
 20
125.235947
 30
0.0
  0
POINT
  5
78
330
64
100
AcDbEntity
  8
001
370
     9
100
AcDbPoint
 10
31.193125
 20
82.50971
 30
0.0
  0
ENDBLK
  5
66
330
64
100
AcDbEntity
  8
0
100
AcDbBlockEnd
  0
BLOCK
  5
7A
330
79
100
AcDbEntity
  8
0
100
AcDbBlockBegin
  2
*D2
 70
     1
 10
0.0
 20
0.0
 30
0.0
  3
*D2
  1

  0
LINE
  5
7C
330
79
100
AcDbEntity
  8
001
370
     9
100
AcDbLine
 10
86.193125
 20
104.742354
 30
0.0
 11
86.193125
 21
52.061568
 31
0.0
  0
LINE
  5
7D
330
79
100
AcDbEntity
  8
001
370
     9
100
AcDbLine
 10
31.193125
 20
82.50971
 30
0.0
 11
31.193125
 21
52.061568
 31
0.0
  0
LINE
  5
7E
330
79
100
AcDbEntity
  8
001
370
     9
100
AcDbLine
 10
86.193125
 20
54.811568
 30
0.0
 11
31.193125
 21
54.811568
 31
0.0
  0
POLYLINE
  5
7F
330
79
100
AcDbEntity
  8
001
370
     9
100
AcDb2dPolyline
 66
     1
 10
0.0
 20
0.0
 30
0.0
  0
VERTEX
  5
81
330
7F
100
AcDbEntity
  8
001
370
     9
100
AcDbVertex
100
AcDb2dVertex
 10
84.693125
 20
55.213492
 30
0.0
  0
VERTEX
  5
82
330
7F
100
AcDbEntity
  8
001
370
     9
100
AcDbVertex
100
AcDb2dVertex
 10
86.193125
 20
54.811568
 30
0.0
  0
VERTEX
  5
83
330
7F
100
AcDbEntity
  8
001
370
     9
100
AcDbVertex
100
AcDb2dVertex
 10
84.693125
 20
54.409645
 30
0.0
  0
SEQEND
  5
80
330
7F
100
AcDbEntity
  8
001
370
     9
  0
POLYLINE
  5
84
330
79
100
AcDbEntity
  8
001
370
     9
100
AcDb2dPolyline
 66
     1
 10
0.0
 20
0.0
 30
0.0
  0
VERTEX
  5
86
330
84
100
AcDbEntity
  8
001
370
     9
100
AcDbVertex
100
AcDb2dVertex
 10
32.693125
 20
54.409645
 30
0.0
  0
VERTEX
  5
87
330
84
100
AcDbEntity
  8
001
370
     9
100
AcDbVertex
100
AcDb2dVertex
 10
31.193125
 20
54.811568
 30
0.0
  0
VERTEX
  5
88
330
84
100
AcDbEntity
  8
001
370
     9
100
AcDbVertex
100
AcDb2dVertex
 10
32.693125
 20
55.213492
 30
0.0
  0
SEQEND
  5
85
330
84
100
AcDbEntity
  8
001
370
     9
  0
TEXT
  5
89
330
79
100
AcDbEntity
  8
001
370
    30
100
AcDbText
 10
54.693125
 20
55.811568
 30
0.0
 40
4.0
  1
５５
 41
0.833333
100
AcDbText
  0
POINT
  5
8A
330
79
100
AcDbEntity
  8
001
370
     9
100
AcDbPoint
 10
86.193125
 20
104.742354
 30
0.0
  0
POINT
  5
8B
330
79
100
AcDbEntity
  8
001
370
     9
100
AcDbPoint
 10
31.193125
 20
82.50971
 30
0.0
  0
POINT
  5
8C
330
79
100
AcDbEntity
  8
001
370
     9
100
AcDbPoint
 10
31.193125
 20
54.811568
 30
0.0
  0
ENDBLK
  5
7B
330
79
100
AcDbEntity
  8
0
100
AcDbBlockEnd
  0
BLOCK
  5
8E
330
8D
100
AcDbEntity
  8
0
100
AcDbBlockBegin
  2
*D3
 70
     1
 10
0.0
 20
0.0
 30
0.0
  3
*D3
  1

  0
LINE
  5
90
330
8D
100
AcDbEntity
  8
001
370
     9
100
AcDbLine
 10
166.193125
 20
124.735947
 30
0.0
 11
166.193125
 21
52.061568
 31
0.0
  0
LINE
  5
91
330
8D
100
AcDbEntity
  8
001
370
     9
100
AcDbLine
 10
86.193125
 20
104.742354
 30
0.0
 11
86.193125
 21
52.061568
 31
0.0
  0
LINE
  5
92
330
8D
100
AcDbEntity
  8
001
370
     9
100
AcDbLine
 10
166.193125
 20
54.811568
 30
0.0
 11
86.193125
 21
54.811568
 31
0.0
  0
POLYLINE
  5
93
330
8D
100
AcDbEntity
  8
001
370
     9
100
AcDb2dPolyline
 66
     1
 10
0.0
 20
0.0
 30
0.0
  0
VERTEX
  5
95
330
93
100
AcDbEntity
  8
001
370
     9
100
AcDbVertex
100
AcDb2dVertex
 10
164.693125
 20
55.213492
 30
0.0
  0
VERTEX
  5
96
330
93
100
AcDbEntity
  8
001
370
     9
100
AcDbVertex
100
AcDb2dVertex
 10
166.193125
 20
54.811568
 30
0.0
  0
VERTEX
  5
97
330
93
100
AcDbEntity
  8
001
370
     9
100
AcDbVertex
100
AcDb2dVertex
 10
164.693125
 20
54.409645
 30
0.0
  0
SEQEND
  5
94
330
93
100
AcDbEntity
  8
001
370
     9
  0
POLYLINE
  5
98
330
8D
100
AcDbEntity
  8
001
370
     9
100
AcDb2dPolyline
 66
     1
 10
0.0
 20
0.0
 30
0.0
  0
VERTEX
  5
9A
330
98
100
AcDbEntity
  8
001
370
     9
100
AcDbVertex
100
AcDb2dVertex
 10
87.693125
 20
54.409645
 30
0.0
  0
VERTEX
  5
9B
330
98
100
AcDbEntity
  8
001
370
     9
100
AcDbVertex
100
AcDb2dVertex
 10
86.193125
 20
54.811568
 30
0.0
  0
VERTEX
  5
9C
330
98
100
AcDbEntity
  8
001
370
     9
100
AcDbVertex
100
AcDb2dVertex
 10
87.693125
 20
55.213492
 30
0.0
  0
SEQEND
  5
99
330
98
100
AcDbEntity
  8
001
370
     9
  0
TEXT
  5
9D
330
8D
100
AcDbEntity
  8
001
370
    30
100
AcDbText
 10
122.193125
 20
55.811568
 30
0.0
 40
4.0
  1
８０
 41
0.833333
100
AcDbText
  0
POINT
  5
9E
330
8D
100
AcDbEntity
  8
001
370
     9
100
AcDbPoint
 10
166.193125
 20
124.735947
 30
0.0
  0
POINT
  5
9F
330
8D
100
AcDbEntity
  8
001
370
     9
100
AcDbPoint
 10
86.193125
 20
104.742354
 30
0.0
  0
POINT
  5
A0
330
8D
100
AcDbEntity
  8
001
370
     9
100
AcDbPoint
 10
86.193125
 20
54.811568
 30
0.0
  0
ENDBLK
  5
8F
330
8D
100
AcDbEntity
  8
0
100
AcDbBlockEnd
  0
BLOCK
  5
A2
330
A1
100
AcDbEntity
  8
0
100
AcDbBlockBegin
  2
*D4
 70
     1
 10
0.0
 20
0.0
 30
0.0
  3
*D4
  1

  0
LINE
  5
A4
330
A1
100
AcDbEntity
  8
001
370
     9
100
AcDbLine
 10
31.193125
 20
82.50971
 30
0.0
 11
31.193125
 21
40.050994
 31
0.0
  0
LINE
  5
A5
330
A1
100
AcDbEntity
  8
001
370
     9
100
AcDbLine
 10
166.193125
 20
124.735947
 30
0.0
 11
166.193125
 21
40.050994
 31
0.0
  0
LINE
  5
A6
330
A1
100
AcDbEntity
  8
001
370
     9
100
AcDbLine
 10
31.193125
 20
42.800994
 30
0.0
 11
166.193125
 21
42.800994
 31
0.0
  0
POLYLINE
  5
A7
330
A1
100
AcDbEntity
  8
001
370
     9
100
AcDb2dPolyline
 66
     1
 10
0.0
 20
0.0
 30
0.0
  0
VERTEX
  5
A9
330
A7
100
AcDbEntity
  8
001
370
     9
100
AcDbVertex
100
AcDb2dVertex
 10
32.693125
 20
42.39907
 30
0.0
  0
VERTEX
  5
AA
330
A7
100
AcDbEntity
  8
001
370
     9
100
AcDbVertex
100
AcDb2dVertex
 10
31.193125
 20
42.800994
 30
0.0
  0
VERTEX
  5
AB
330
A7
100
AcDbEntity
  8
001
370
     9
100
AcDbVertex
100
AcDb2dVertex
 10
32.693125
 20
43.202917
 30
0.0
  0
SEQEND
  5
A8
330
A7
100
AcDbEntity
  8
001
370
     9
  0
POLYLINE
  5
AC
330
A1
100
AcDbEntity
  8
001
370
     9
100
AcDb2dPolyline
 66
     1
 10
0.0
 20
0.0
 30
0.0
  0
VERTEX
  5
AE
330
AC
100
AcDbEntity
  8
001
370
     9
100
AcDbVertex
100
AcDb2dVertex
 10
164.693125
 20
43.202917
 30
0.0
  0
VERTEX
  5
AF
330
AC
100
AcDbEntity
  8
001
370
     9
100
AcDbVertex
100
AcDb2dVertex
 10
166.193125
 20
42.800994
 30
0.0
  0
VERTEX
  5
B0
330
AC
100
AcDbEntity
  8
001
370
     9
100
AcDbVertex
100
AcDb2dVertex
 10
164.693125
 20
42.39907
 30
0.0
  0
SEQEND
  5
AD
330
AC
100
AcDbEntity
  8
001
370
     9
  0
TEXT
  5
B1
330
A1
100
AcDbEntity
  8
001
370
    30
100
AcDbText
 10
92.693125
 20
43.800994
 30
0.0
 40
4.0
  1
１３５
 41
0.833333
100
AcDbText
  0
POINT
  5
B2
330
A1
100
AcDbEntity
  8
001
370
     9
100
AcDbPoint
 10
31.193125
 20
82.50971
 30
0.0
  0
POINT
  5
B3
330
A1
100
AcDbEntity
  8
001
370
     9
100
AcDbPoint
 10
166.193125
 20
124.735947
 30
0.0
  0
POINT
  5
B4
330
A1
100
AcDbEntity
  8
001
370
     9
100
AcDbPoint
 10
166.193125
 20
42.800994
 30
0.0
  0
ENDBLK
  5
A3
330
A1
100
AcDbEntity
  8
0
100
AcDbBlockEnd
  0
BLOCK
  5
B6
330
B5
100
AcDbEntity
  8
0
100
AcDbBlockBegin
  2
*D5
 70
     1
 10
0.0
 20
0.0
 30
0.0
  3
*D5
  1

  0
LINE
  5
B8
330
B5
100
AcDbEntity
  8
001
370
     9
100
AcDbLine
 10
158.193125
 20
148.735947
 30
0.0
 11
197.070755
 21
148.735947
 31
0.0
  0
LINE
  5
B9
330
B5
100
AcDbEntity
  8
001
370
     9
100
AcDbLine
 10
158.193125
 20
116.735947
 30
0.0
 11
197.070755
 21
116.735947
 31
0.0
  0
LINE
  5
BA
330
B5
100
AcDbEntity
  8
001
370
     9
100
AcDbLine
 10
194.320755
 20
148.735947
 30
0.0
 11
194.320755
 21
116.735947
 31
0.0
  0
POLYLINE
  5
BB
330
B5
100
AcDbEntity
  8
001
370
     9
100
AcDb2dPolyline
 66
     1
 10
0.0
 20
0.0
 30
0.0
  0
VERTEX
  5
BD
330
BB
100
AcDbEntity
  8
001
370
     9
100
AcDbVertex
100
AcDb2dVertex
 10
193.918831
 20
147.235947
 30
0.0
  0
VERTEX
  5
BE
330
BB
100
AcDbEntity
  8
001
370
     9
100
AcDbVertex
100
AcDb2dVertex
 10
194.320755
 20
148.735947
 30
0.0
  0
VERTEX
  5
BF
330
BB
100
AcDbEntity
  8
001
370
     9
100
AcDbVertex
100
AcDb2dVertex
 10
194.722679
 20
147.235947
 30
0.0
  0
SEQEND
  5
BC
330
BB
100
AcDbEntity
  8
001
370
     9
  0
POLYLINE
  5
C0
330
B5
100
AcDbEntity
  8
001
370
     9
100
AcDb2dPolyline
 66
     1
 10
0.0
 20
0.0
 30
0.0
  0
VERTEX
  5
C2
330
C0
100
AcDbEntity
  8
001
370
     9
100
AcDbVertex
100
AcDb2dVertex
 10
194.722679
 20
118.235947
 30
0.0
  0
VERTEX
  5
C3
330
C0
100
AcDbEntity
  8
001
370
     9
100
AcDbVertex
100
AcDb2dVertex
 10
194.320755
 20
116.735947
 30
0.0
  0
VERTEX
  5
C4
330
C0
100
AcDbEntity
  8
001
370
     9
100
AcDbVertex
100
AcDb2dVertex
 10
193.918831
 20
118.235947
 30
0.0
  0
SEQEND
  5
C1
330
C0
100
AcDbEntity
  8
001
370
     9
  0
TEXT
  5
C5
330
B5
100
AcDbEntity
  8
001
370
    30
100
AcDbText
 10
193.320755
 20
126.735947
 30
0.0
 40
4.0
  1
%%c３２
 50
90.000003
 41
0.882353
100
AcDbText
  0
POINT
  5
C6
330
B5
100
AcDbEntity
  8
001
370
     9
100
AcDbPoint
 10
158.193125
 20
148.735947
 30
0.0
  0
POINT
  5
C7
330
B5
100
AcDbEntity
  8
001
370
     9
100
AcDbPoint
 10
158.193125
 20
116.735947
 30
0.0
  0
POINT
  5
C8
330
B5
100
AcDbEntity
  8
001
370
     9
100
AcDbPoint
 10
194.320755
 20
116.735947
 30
0.0
  0
ENDBLK
  5
B7
330
B5
100
AcDbEntity
  8
0
100
AcDbBlockEnd
  0
BLOCK
  5
CA
330
C9
100
AcDbEntity
  8
0
100
AcDbBlockBegin
  2
*D6
 70
     1
 10
0.0
 20
0.0
 30
0.0
  3
*D6
  1

  0
LINE
  5
CC
330
C9
100
AcDbEntity
  8
001
370
     9
100
AcDbLine
 10
43.972286
 20
97.830947
 30
0.0
 11
43.972286
 21
73.747444
 31
0.0
  0
LINE
  5
CD
330
C9
100
AcDbEntity
  8
001
370
     9
100
AcDbLine
 10
31.193125
 20
82.50971
 30
0.0
 11
31.193125
 21
73.747444
 31
0.0
  0
LINE
  5
CE
330
C9
100
AcDbEntity
  8
001
370
     9
100
AcDbLine
 10
43.972286
 20
76.497444
 30
0.0
 11
31.193125
 21
76.497444
 31
0.0
  0
POLYLINE
  5
CF
330
C9
100
AcDbEntity
  8
001
370
     9
100
AcDb2dPolyline
 66
     1
 10
0.0
 20
0.0
 30
0.0
  0
VERTEX
  5
D1
330
CF
100
AcDbEntity
  8
001
370
     9
100
AcDbVertex
100
AcDb2dVertex
 10
45.472286
 20
76.095521
 30
0.0
  0
VERTEX
  5
D2
330
CF
100
AcDbEntity
  8
001
370
     9
100
AcDbVertex
100
AcDb2dVertex
 10
43.972286
 20
76.497444
 30
0.0
  0
VERTEX
  5
D3
330
CF
100
AcDbEntity
  8
001
370
     9
100
AcDbVertex
100
AcDb2dVertex
 10
45.472286
 20
76.899368
 30
0.0
  0
SEQEND
  5
D0
330
CF
100
AcDbEntity
  8
001
370
     9
  0
POLYLINE
  5
D4
330
C9
100
AcDbEntity
  8
001
370
     9
100
AcDb2dPolyline
 66
     1
 10
0.0
 20
0.0
 30
0.0
  0
VERTEX
  5
D6
330
D4
100
AcDbEntity
  8
001
370
     9
100
AcDbVertex
100
AcDb2dVertex
 10
29.693125
 20
76.899368
 30
0.0
  0
VERTEX
  5
D7
330
D4
100
AcDbEntity
  8
001
370
     9
100
AcDbVertex
100
AcDb2dVertex
 10
31.193125
 20
76.497444
 30
0.0
  0
VERTEX
  5
D8
330
D4
100
AcDbEntity
  8
001
370
     9
100
AcDbVertex
100
AcDb2dVertex
 10
29.693125
 20
76.095521
 30
0.0
  0
SEQEND
  5
D5
330
D4
100
AcDbEntity
  8
001
370
     9
  0
TEXT
  5
D9
330
C9
100
AcDbEntity
  8
001
370
    30
100
AcDbText
 10
3.693125
 20
77.497444
 30
0.0
 40
4.0
  1
（１２．８）
 41
0.833333
100
AcDbText
  0
POINT
  5
DA
330
C9
100
AcDbEntity
  8
001
370
     9
100
AcDbPoint
 10
43.972286
 20
97.830947
 30
0.0
  0
POINT
  5
DB
330
C9
100
AcDbEntity
  8
001
370
     9
100
AcDbPoint
 10
31.193125
 20
82.50971
 30
0.0
  0
POINT
  5
DC
330
C9
100
AcDbEntity
  8
001
370
     9
100
AcDbPoint
 10
31.193125
 20
76.497444
 30
0.0
  0
LINE
  5
DD
330
C9
100
AcDbEntity
  8
001
370
     9
100
AcDbLine
 10
43.972286
 20
76.497444
 30
0.0
 11
46.472286
 21
76.497444
 31
0.0
  0
LINE
  5
DE
330
C9
100
AcDbEntity
  8
001
370
     9
100
AcDbLine
 10
31.193125
 20
76.497444
 30
0.0
 11
0.693125
 21
76.497444
 31
0.0
  0
ENDBLK
  5
CB
330
C9
100
AcDbEntity
  8
0
100
AcDbBlockEnd
  0
ENDSEC
  0
SECTION
  2
ENTITIES
  0
TEXT
  5
DF
330
1F
100
AcDbEntity
  8
001
370
    30
100
AcDbText
 10
15.561717
 20
126.735947
 30
0.0
 40
4.0
  1
%%c１５
 50
90.000003
 41
0.882353
100
AcDbText
  0
POLYLINE
  5
E0
330
1F
100
AcDbEntity
  8
001
370
     9
100
AcDb2dPolyline
 66
     1
 10
0.0
 20
0.0
 30
0.0
  0
VERTEX
  5
E2
330
E0
100
AcDbEntity
  8
001
370
     9
100
AcDbVertex
100
AcDb2dVertex
 10
16.963641
 20
126.735947
 30
0.0
  0
VERTEX
  5
E3
330
E0
100
AcDbEntity
  8
001
370
     9
100
AcDbVertex
100
AcDb2dVertex
 10
16.561717
 20
125.235947
 30
0.0
  0
VERTEX
  5
E4
330
E0
100
AcDbEntity
  8
001
370
     9
100
AcDbVertex
100
AcDb2dVertex
 10
16.159793
 20
126.735947
 30
0.0
  0
SEQEND
  5
E1
330
E0
100
AcDbEntity
  8
001
370
     9
  0
LINE
  5
E5
330
1F
100
AcDbEntity
  8
001
370
     9
100
AcDbLine
 10
16.561717
 20
125.235947
 30
0.0
 11
16.561717
 21
140.235947
 31
0.0
  0
POLYLINE
  5
E6
330
1F
100
AcDbEntity
  8
001
370
     9
100
AcDb2dPolyline
 66
     1
 10
0.0
 20
0.0
 30
0.0
  0
VERTEX
  5
E8
330
E6
100
AcDbEntity
  8
001
370
     9
100
AcDbVertex
100
AcDb2dVertex
 10
24.44359
 20
125.235947
 30
0.0
  0
VERTEX
  5
E9
330
E6
100
AcDbEntity
  8
001
370
     9
100
AcDbVertex
100
AcDb2dVertex
 10
16.561717
 20
125.235947
 30
0.0
  0
VERTEX
  5
EA
330
E6
100
AcDbEntity
  8
001
370
     9
100
AcDbVertex
100
AcDb2dVertex
 10
13.811717
 20
125.235947
 30
0.0
  0
SEQEND
  5
E7
330
E6
100
AcDbEntity
  8
001
370
     9
  0
TEXT
  5
EB
330
1F
100
AcDbEntity
  8
001
370
    30
100
AcDbText
 10
6.162137
 20
120.735947
 30
0.0
 40
4.0
  1
%%c６９．８１
 50
90.000003
 41
0.857143
100
AcDbText
  0
POLYLINE
  5
EC
330
1F
100
AcDbEntity
  8
001
370
     9
100
AcDb2dPolyline
 66
     1
 10
0.0
 20
0.0
 30
0.0
  0
VERTEX
  5
EE
330
EC
100
AcDbEntity
  8
001
370
     9
100
AcDbVertex
100
AcDb2dVertex
 10
7.564061
 20
99.330947
 30
0.0
  0
VERTEX
  5
EF
330
EC
100
AcDbEntity
  8
001
370
     9
100
AcDbVertex
100
AcDb2dVertex
 10
7.162137
 20
97.830947
 30
0.0
  0
VERTEX
  5
F0
330
EC
100
AcDbEntity
  8
001
370
     9
100
AcDbVertex
100
AcDb2dVertex
 10
6.760213
 20
99.330947
 30
0.0
  0
SEQEND
  5
ED
330
EC
100
AcDbEntity
  8
001
370
     9
  0
LINE
  5
F1
330
1F
100
AcDbEntity
  8
001
370
     9
100
AcDbLine
 10
7.162137
 20
97.830947
 30
0.0
 11
7.162137
 21
167.640947
 31
0.0
  0
POLYLINE
  5
F2
330
1F
100
AcDbEntity
  8
001
370
     9
100
AcDb2dPolyline
 66
     1
 10
0.0
 20
0.0
 30
0.0
  0
VERTEX
  5
F4
330
F2
100
AcDbEntity
  8
001
370
     9
100
AcDbVertex
100
AcDb2dVertex
 10
24.44359
 20
97.830947
 30
0.0
  0
VERTEX
  5
F5
330
F2
100
AcDbEntity
  8
001
370
     9
100
AcDbVertex
100
AcDb2dVertex
 10
7.162137
 20
97.830947
 30
0.0
  0
VERTEX
  5
F6
330
F2
100
AcDbEntity
  8
001
370
     9
100
AcDbVertex
100
AcDb2dVertex
 10
4.412137
 20
97.830947
 30
0.0
  0
SEQEND
  5
F3
330
F2
100
AcDbEntity
  8
001
370
     9
  0
DIMENSION
  5
F7
330
1F
100
AcDbEntity
  8
001
370
     9
100
AcDbDimension
  2
*D1
 10
31.193125
 20
125.235947
 30
0.0
 11
43.844491
 21
68.169322
 31
0.0
 70
    34
 71
     5
 42
-1.0
  3
Standard
100
AcDb2LineAngularDimension
 13
43.903365
 23
97.978749
 33
0.0
 14
31.193125
 24
125.235947
 34
0.0
 15
31.193125
 25
82.50971
 35
0.0
 16
44.49381
 26
65.240434
 36
0.0
  0
DIMENSION
  5
F8
330
1F
100
AcDbEntity
  8
001
370
     9
100
AcDbDimension
  2
*D2
 10
31.193125
 20
54.811568
 30
0.0
 11
58.693125
 21
57.811568
 31
0.0
 70
   160
 71
     5
 42
-1.0
  3
Standard
100
AcDbAlignedDimension
 13
86.193125
 23
104.742354
 33
0.0
 14
31.193125
 24
82.50971
 34
0.0
 50
180.0
100
AcDbRotatedDimension
  0
DIMENSION
  5
F9
330
1F
100
AcDbEntity
  8
001
370
     9
100
AcDbDimension
  2
*D3
 10
86.193125
 20
54.811568
 30
0.0
 11
126.193125
 21
57.811568
 31
0.0
 70
   160
 71
     5
 42
-1.0
  3
Standard
100
AcDbAlignedDimension
 13
166.193125
 23
124.735947
 33
0.0
 14
86.193125
 24
104.742354
 34
0.0
 50
180.0
100
AcDbRotatedDimension
  0
DIMENSION
  5
FA
330
1F
100
AcDbEntity
  8
001
370
     9
100
AcDbDimension
  2
*D4
 10
166.193125
 20
42.800994
 30
0.0
 11
98.693125
 21
45.800994
 31
0.0
 70
   160
 71
     5
 42
-1.0
  3
Standard
100
AcDbAlignedDimension
 13
31.193125
 23
82.50971
 33
0.0
 14
166.193125
 24
124.735947
 34
0.0
100
AcDbRotatedDimension
  0
DIMENSION
  5
FB
330
1F
100
AcDbEntity
  8
001
370
     9
100
AcDbDimension
  2
*D5
 10
194.320755
 20
116.735947
 30
0.0
 11
191.320755
 21
132.735947
 31
0.0
 70
   160
 71
     5
 42
-1.0
  3
Standard
100
AcDbAlignedDimension
 13
158.193125
 23
148.735947
 33
0.0
 14
158.193125
 24
116.735947
 34
0.0
 50
270.0
100
AcDbRotatedDimension
  0
TEXT
  5
FC
330
1F
100
AcDbEntity
  8
001
370
    30
100
AcDbText
 10
-4.020742
 20
116.735947
 30
0.0
 40
4.0
  1
（%%c８４．９１）
 50
90.000003
 41
0.851064
100
AcDbText
  0
POLYLINE
  5
FD
330
1F
100
AcDbEntity
  8
001
370
     9
100
AcDb2dPolyline
 66
     1
 10
0.0
 20
0.0
 30
0.0
  0
VERTEX
  5
FF
330
FD
100
AcDbEntity
  8
001
370
     9
100
AcDbVertex
100
AcDb2dVertex
 10
-2.618818
 20
91.780947
 30
0.0
  0
VERTEX
  5
100
330
FD
100
AcDbEntity
  8
001
370
     9
100
AcDbVertex
100
AcDb2dVertex
 10
-3.020742
 20
90.280947
 30
0.0
  0
VERTEX
  5
101
330
FD
100
AcDbEntity
  8
001
370
     9
100
AcDbVertex
100
AcDb2dVertex
 10
-3.422666
 20
91.780947
 30
0.0
  0
SEQEND
  5
FE
330
FD
100
AcDbEntity
  8
001
370
     9
  0
LINE
  5
102
330
1F
100
AcDbEntity
  8
001
370
     9
100
AcDbLine
 10
-3.020742
 20
90.280947
 30
0.0
 11
-3.020742
 21
175.190947
 31
0.0
  0
POLYLINE
  5
103
330
1F
100
AcDbEntity
  8
001
370
     9
100
AcDb2dPolyline
 66
     1
 10
0.0
 20
0.0
 30
0.0
  0
VERTEX
  5
105
330
103
100
AcDbEntity
  8
001
370
     9
100
AcDbVertex
100
AcDb2dVertex
 10
24.44359
 20
90.280947
 30
0.0
  0
VERTEX
  5
106
330
103
100
AcDbEntity
  8
001
370
     9
100
AcDbVertex
100
AcDb2dVertex
 10
-3.020742
 20
90.280947
 30
0.0
  0
VERTEX
  5
107
330
103
100
AcDbEntity
  8
001
370
     9
100
AcDbVertex
100
AcDb2dVertex
 10
-5.770742
 20
90.280947
 30
0.0
  0
SEQEND
  5
104
330
103
100
AcDbEntity
  8
001
370
     9
  0
DIMENSION
  5
108
330
1F
100
AcDbEntity
  8
001
370
     9
100
AcDbDimension
  2
*D6
 10
31.193125
 20
76.497444
 30
0.0
 11
15.693125
 21
79.497444
 31
0.0
 70
   160
 71
     5
 42
-1.0
  3
Standard
100
AcDbAlignedDimension
 13
43.972286
 23
97.830947
 33
0.0
 14
31.193125
 24
82.50971
 34
0.0
 50
180.0
100
AcDbRotatedDimension
  0
TEXT
  5
109
330
1F
100
AcDbEntity
  8
001
370
    30
100
AcDbText
 10
39.568764
 20
191.933273
 30
0.0
 40
4.0
  1
ＮＫ２５６８Ｘ（ＮＥＷ）
 41
0.833333
100
AcDbText
  0
LINE
  5
10A
330
1F
100
AcDbEntity
  8
001
370
    50
100
AcDbLine
 10
65.216272
 20
154.656794
 30
0.0
 11
64.480041
 21
158.659797
 31
0.0
  0
POLYLINE
  5
10B
330
1F
100
AcDbEntity
  8
001
370
    50
100
AcDb2dPolyline
 66
     1
 10
0.0
 20
0.0
 30
0.0
  0
VERTEX
  5
10D
330
10B
100
AcDbEntity
  8
001
370
    50
100
AcDbVertex
100
AcDb2dVertex
 10
65.19026
 20
154.653263
 30
0.0
  0
VERTEX
  5
10E
330
10B
100
AcDbEntity
  8
001
370
    50
100
AcDbVertex
100
AcDb2dVertex
 10
65.17742
 20
154.663238
 30
0.0
  0
VERTEX
  5
10F
330
10B
100
AcDbEntity
  8
001
370
    50
100
AcDbVertex
100
AcDb2dVertex
 10
65.158203
 20
154.676264
 30
0.0
  0
VERTEX
  5
110
330
10B
100
AcDbEntity
  8
001
370
    50
100
AcDbVertex
100
AcDb2dVertex
 10
65.078579
 20
154.710441
 30
0.0
  0
VERTEX
  5
111
330
10B
100
AcDbEntity
  8
001
370
    50
100
AcDbVertex
100
AcDb2dVertex
 10
65.001131
 20
154.720882
 30
0.0
  0
VERTEX
  5
112
330
10B
100
AcDbEntity
  8
001
370
    50
100
AcDbVertex
100
AcDb2dVertex
 10
64.935684
 20
154.723198
 30
0.0
  0
VERTEX
  5
113
330
10B
100
AcDbEntity
  8
001
370
    50
100
AcDbVertex
100
AcDb2dVertex
 10
64.8685
 20
154.720343
 30
0.0
  0
VERTEX
  5
114
330
10B
100
AcDbEntity
  8
001
370
    50
100
AcDbVertex
100
AcDb2dVertex
 10
64.833354
 20
154.716176
 30
0.0
  0
VERTEX
  5
115
330
10B
100
AcDbEntity
  8
001
370
    50
100
AcDbVertex
100
AcDb2dVertex
 10
64.799643
 20
154.71073
 30
0.0
  0
VERTEX
  5
116
330
10B
100
AcDbEntity
  8
001
370
    50
100
AcDbVertex
100
AcDb2dVertex
 10
64.767512
 20
154.7043
 30
0.0
  0
VERTEX
  5
117
330
10B
100
AcDbEntity
  8
001
370
    50
100
AcDbVertex
100
AcDb2dVertex
 10
64.731873
 20
154.695215
 30
0.0
  0
VERTEX
  5
118
330
10B
100
AcDbEntity
  8
001
370
    50
100
AcDbVertex
100
AcDb2dVertex
 10
64.714639
 20
154.690205
 30
0.0
  0
VERTEX
  5
119
330
10B
100
AcDbEntity
  8
001
370
    50
100
AcDbVertex
100
AcDb2dVertex
 10
64.70247
 20
154.686487
 30
0.0
  0
SEQEND
  5
10C
330
10B
100
AcDbEntity
  8
001
370
    50
  0
POLYLINE
  5
11A
330
1F
100
AcDbEntity
  8
001
370
    50
100
AcDb2dPolyline
 66
     1
 10
0.0
 20
0.0
 30
0.0
  0
VERTEX
  5
11C
330
11A
100
AcDbEntity
  8
001
370
    50
100
AcDbVertex
100
AcDb2dVertex
 10
64.480041
 20
158.659797
 30
0.0
  0
VERTEX
  5
11D
330
11A
100
AcDbEntity
  8
001
370
    50
100
AcDbVertex
100
AcDb2dVertex
 10
64.475854
 20
158.673863
 30
0.0
  0
VERTEX
  5
11E
330
11A
100
AcDbEntity
  8
001
370
    50
100
AcDbVertex
100
AcDb2dVertex
 10
64.467861
 20
158.692429
 30
0.0
  0
VERTEX
  5
11F
330
11A
100
AcDbEntity
  8
001
370
    50
100
AcDbVertex
100
AcDb2dVertex
 10
64.456909
 20
158.708868
 30
0.0
  0
VERTEX
  5
120
330
11A
100
AcDbEntity
  8
001
370
    50
100
AcDbVertex
100
AcDb2dVertex
 10
64.444097
 20
158.721871
 30
0.0
  0
VERTEX
  5
121
330
11A
100
AcDbEntity
  8
001
370
    50
100
AcDbVertex
100
AcDb2dVertex
 10
64.427554
 20
158.73521
 30
0.0
  0
VERTEX
  5
122
330
11A
100
AcDbEntity
  8
001
370
    50
100
AcDbVertex
100
AcDb2dVertex
 10
64.409472
 20
158.747229
 30
0.0
  0
VERTEX
  5
123
330
11A
100
AcDbEntity
  8
001
370
    50
100
AcDbVertex
100
AcDb2dVertex
 10
64.333657
 20
158.778345
 30
0.0
  0
VERTEX
  5
124
330
11A
100
AcDbEntity
  8
001
370
    50
100
AcDbVertex
100
AcDb2dVertex
 10
64.2524
 20
158.791847
 30
0.0
  0
VERTEX
  5
125
330
11A
100
AcDbEntity
  8
001
370
    50
100
AcDbVertex
100
AcDb2dVertex
 10
64.186251
 20
158.794727
 30
0.0
  0
VERTEX
  5
126
330
11A
100
AcDbEntity
  8
001
370
    50
100
AcDbVertex
100
AcDb2dVertex
 10
64.119769
 20
158.791307
 30
0.0
  0
VERTEX
  5
127
330
11A
100
AcDbEntity
  8
001
370
    50
100
AcDbVertex
100
AcDb2dVertex
 10
64.084697
 20
158.787082
 30
0.0
  0
VERTEX
  5
128
330
11A
100
AcDbEntity
  8
001
370
    50
100
AcDbVertex
100
AcDb2dVertex
 10
64.050913
 20
158.781694
 30
0.0
  0
VERTEX
  5
129
330
11A
100
AcDbEntity
  8
001
370
    50
100
AcDbVertex
100
AcDb2dVertex
 10
64.018764
 20
158.775279
 30
0.0
  0
VERTEX
  5
12A
330
11A
100
AcDbEntity
  8
001
370
    50
100
AcDbVertex
100
AcDb2dVertex
 10
63.983142
 20
158.766179
 30
0.0
  0
VERTEX
  5
12B
330
11A
100
AcDbEntity
  8
001
370
    50
100
AcDbVertex
100
AcDb2dVertex
 10
63.965909
 20
158.761169
 30
0.0
  0
VERTEX
  5
12C
330
11A
100
AcDbEntity
  8
001
370
    50
100
AcDbVertex
100
AcDb2dVertex
 10
63.95374
 20
158.757451
 30
0.0
  0
SEQEND
  5
11B
330
11A
100
AcDbEntity
  8
001
370
    50
  0
POLYLINE
  5
12D
330
1F
100
AcDbEntity
  8
001
370
    50
100
AcDb2dPolyline
 66
     1
 10
0.0
 20
0.0
 30
0.0
  0
VERTEX
  5
12F
330
12D
100
AcDbEntity
  8
001
370
    50
100
AcDbVertex
100
AcDb2dVertex
 10
44.875917
 20
148.365311
 30
0.0
  0
VERTEX
  5
130
330
12D
100
AcDbEntity
  8
001
370
    50
100
AcDbVertex
100
AcDb2dVertex
 10
44.83666
 20
148.35162
 30
0.0
  0
VERTEX
  5
131
330
12D
100
AcDbEntity
  8
001
370
    50
100
AcDbVertex
100
AcDb2dVertex
 10
44.781176
 20
148.327353
 30
0.0
  0
VERTEX
  5
132
330
12D
100
AcDbEntity
  8
001
370
    50
100
AcDbVertex
100
AcDb2dVertex
 10
44.70053
 20
148.275855
 30
0.0
  0
VERTEX
  5
133
330
12D
100
AcDbEntity
  8
001
370
    50
100
AcDbVertex
100
AcDb2dVertex
 10
44.651803
 20
148.231654
 30
0.0
  0
SEQEND
  5
12E
330
12D
100
AcDbEntity
  8
001
370
    50
  0
LINE
  5
134
330
1F
100
AcDbEntity
  8
001
370
    50
100
AcDbLine
 10
44.875917
 20
148.365311
 30
0.0
 11
64.70247
 21
154.686487
 31
0.0
  0
POLYLINE
  5
135
330
1F
100
AcDbEntity
  8
001
370
    50
100
AcDb2dPolyline
 66
     1
 10
0.0
 20
0.0
 30
0.0
  0
VERTEX
  5
137
330
135
100
AcDbEntity
  8
001
370
    50
100
AcDbVertex
100
AcDb2dVertex
 10
31.943475
 20
132.826662
 30
0.0
  0
VERTEX
  5
138
330
135
100
AcDbEntity
  8
001
370
    50
100
AcDbVertex
100
AcDb2dVertex
 10
31.947638
 20
132.8126
 30
0.0
  0
VERTEX
  5
139
330
135
100
AcDbEntity
  8
001
370
    50
100
AcDbVertex
100
AcDb2dVertex
 10
31.955655
 20
132.79403
 30
0.0
  0
VERTEX
  5
13A
330
135
100
AcDbEntity
  8
001
370
    50
100
AcDbVertex
100
AcDb2dVertex
 10
31.966739
 20
132.777565
 30
0.0
  0
VERTEX
  5
13B
330
135
100
AcDbEntity
  8
001
370
    50
100
AcDbVertex
100
AcDb2dVertex
 10
31.979419
 20
132.764587
 30
0.0
  0
VERTEX
  5
13C
330
135
100
AcDbEntity
  8
001
370
    50
100
AcDbVertex
100
AcDb2dVertex
 10
31.995357
 20
132.751366
 30
0.0
  0
VERTEX
  5
13D
330
135
100
AcDbEntity
  8
001
370
    50
100
AcDbVertex
100
AcDb2dVertex
 10
32.014044
 20
132.739229
 30
0.0
  0
VERTEX
  5
13E
330
135
100
AcDbEntity
  8
001
370
    50
100
AcDbVertex
100
AcDb2dVertex
 10
32.058621
 20
132.719216
 30
0.0
  0
VERTEX
  5
13F
330
135
100
AcDbEntity
  8
001
370
    50
100
AcDbVertex
100
AcDb2dVertex
 10
32.093125
 20
132.70801
 30
0.0
  0
SEQEND
  5
136
330
135
100
AcDbEntity
  8
001
370
    50
  0
LINE
  5
140
330
1F
100
AcDbEntity
  8
001
370
    50
100
AcDbLine
 10
31.979863
 20
132.935368
 30
0.0
 11
35.42417
 21
137.092987
 31
0.0
  0
LINE
  5
141
330
1F
100
AcDbEntity
  8
001
370
    50
100
AcDbLine
 10
35.42417
 20
137.092987
 30
0.0
 11
44.651803
 21
148.231654
 31
0.0
  0
LINE
  5
142
330
1F
100
AcDbEntity
  8
001
370
    50
100
AcDbLine
 10
44.127186
 20
152.436276
 30
0.0
 11
63.95374
 21
158.757451
 31
0.0
  0
POLYLINE
  5
143
330
1F
100
AcDbEntity
  8
001
370
    50
100
AcDb2dPolyline
 66
     1
 10
0.0
 20
0.0
 30
0.0
  0
VERTEX
  5
145
330
143
100
AcDbEntity
  8
001
370
    50
100
AcDbVertex
100
AcDb2dVertex
 10
44.127186
 20
152.436276
 30
0.0
  0
VERTEX
  5
146
330
143
100
AcDbEntity
  8
001
370
    50
100
AcDbVertex
100
AcDb2dVertex
 10
44.08793
 20
152.422585
 30
0.0
  0
VERTEX
  5
147
330
143
100
AcDbEntity
  8
001
370
    50
100
AcDbVertex
100
AcDb2dVertex
 10
44.032445
 20
152.398317
 30
0.0
  0
VERTEX
  5
148
330
143
100
AcDbEntity
  8
001
370
    50
100
AcDbVertex
100
AcDb2dVertex
 10
43.951799
 20
152.34682
 30
0.0
  0
VERTEX
  5
149
330
143
100
AcDbEntity
  8
001
370
    50
100
AcDbVertex
100
AcDb2dVertex
 10
43.903073
 20
152.302618
 30
0.0
  0
SEQEND
  5
144
330
143
100
AcDbEntity
  8
001
370
    50
  0
LINE
  5
14A
330
1F
100
AcDbEntity
  8
001
370
    50
100
AcDbLine
 10
31.231132
 20
137.006332
 30
0.0
 11
43.903073
 21
152.302618
 31
0.0
  0
POLYLINE
  5
14B
330
1F
100
AcDbEntity
  8
001
370
    50
100
AcDb2dPolyline
 66
     1
 10
0.0
 20
0.0
 30
0.0
  0
VERTEX
  5
14D
330
14B
100
AcDbEntity
  8
001
370
    50
100
AcDbVertex
100
AcDb2dVertex
 10
31.979863
 20
132.935368
 30
0.0
  0
VERTEX
  5
14E
330
14B
100
AcDbEntity
  8
001
370
    50
100
AcDbVertex
100
AcDb2dVertex
 10
31.979231
 20
132.9346
 30
0.0
  0
VERTEX
  5
14F
330
14B
100
AcDbEntity
  8
001
370
    50
100
AcDbVertex
100
AcDb2dVertex
 10
31.978317
 20
132.933482
 30
0.0
  0
VERTEX
  5
150
330
14B
100
AcDbEntity
  8
001
370
    50
100
AcDbVertex
100
AcDb2dVertex
 10
31.964644
 20
132.914713
 30
0.0
  0
VERTEX
  5
151
330
14B
100
AcDbEntity
  8
001
370
    50
100
AcDbVertex
100
AcDb2dVertex
 10
31.95498
 20
132.897464
 30
0.0
  0
VERTEX
  5
152
330
14B
100
AcDbEntity
  8
001
370
    50
100
AcDbVertex
100
AcDb2dVertex
 10
31.947863
 20
132.880994
 30
0.0
  0
VERTEX
  5
153
330
14B
100
AcDbEntity
  8
001
370
    50
100
AcDbVertex
100
AcDb2dVertex
 10
31.943247
 20
132.861493
 30
0.0
  0
VERTEX
  5
154
330
14B
100
AcDbEntity
  8
001
370
    50
100
AcDbVertex
100
AcDb2dVertex
 10
31.942342
 20
132.841254
 30
0.0
  0
VERTEX
  5
155
330
14B
100
AcDbEntity
  8
001
370
    50
100
AcDbVertex
100
AcDb2dVertex
 10
31.943475
 20
132.826662
 30
0.0
  0
SEQEND
  5
14C
330
14B
100
AcDbEntity
  8
001
370
    50
  0
POLYLINE
  5
156
330
1F
100
AcDbEntity
  8
001
370
    50
100
AcDb2dPolyline
 66
     1
 10
0.0
 20
0.0
 30
0.0
  0
VERTEX
  5
158
330
156
100
AcDbEntity
  8
001
370
    50
100
AcDbVertex
100
AcDb2dVertex
 10
31.231132
 20
137.006332
 30
0.0
  0
VERTEX
  5
159
330
156
100
AcDbEntity
  8
001
370
    50
100
AcDbVertex
100
AcDb2dVertex
 10
31.230501
 20
137.005565
 30
0.0
  0
VERTEX
  5
15A
330
156
100
AcDbEntity
  8
001
370
    50
100
AcDbVertex
100
AcDb2dVertex
 10
31.229586
 20
137.004446
 30
0.0
  0
VERTEX
  5
15B
330
156
100
AcDbEntity
  8
001
370
    50
100
AcDbVertex
100
AcDb2dVertex
 10
31.215913
 20
136.985677
 30
0.0
  0
VERTEX
  5
15C
330
156
100
AcDbEntity
  8
001
370
    50
100
AcDbVertex
100
AcDb2dVertex
 10
31.20625
 20
136.968428
 30
0.0
  0
VERTEX
  5
15D
330
156
100
AcDbEntity
  8
001
370
    50
100
AcDbVertex
100
AcDb2dVertex
 10
31.199133
 20
136.951958
 30
0.0
  0
VERTEX
  5
15E
330
156
100
AcDbEntity
  8
001
370
    50
100
AcDbVertex
100
AcDb2dVertex
 10
31.194517
 20
136.932457
 30
0.0
  0
VERTEX
  5
15F
330
156
100
AcDbEntity
  8
001
370
    50
100
AcDbVertex
100
AcDb2dVertex
 10
31.193611
 20
136.912219
 30
0.0
  0
VERTEX
  5
160
330
156
100
AcDbEntity
  8
001
370
    50
100
AcDbVertex
100
AcDb2dVertex
 10
31.194744
 20
136.897626
 30
0.0
  0
SEQEND
  5
157
330
156
100
AcDbEntity
  8
001
370
    50
  0
LINE
  5
161
330
1F
100
AcDbEntity
  8
001
370
    50
100
AcDbLine
 10
31.194744
 20
136.897626
 30
0.0
 11
31.943475
 21
132.826662
 31
0.0
  0
POLYLINE
  5
162
330
1F
100
AcDbEntity
  8
001
370
    50
100
AcDb2dPolyline
 66
     1
 10
0.0
 20
0.0
 30
0.0
  0
VERTEX
  5
164
330
162
100
AcDbEntity
  8
001
370
    50
100
AcDbVertex
100
AcDb2dVertex
 10
51.771712
 20
118.345392
 30
0.0
  0
VERTEX
  5
165
330
162
100
AcDbEntity
  8
001
370
    50
100
AcDbVertex
100
AcDb2dVertex
 10
51.765811
 20
118.357294
 30
0.0
  0
VERTEX
  5
166
330
162
100
AcDbEntity
  8
001
370
    50
100
AcDbVertex
100
AcDb2dVertex
 10
51.756797
 20
118.374197
 30
0.0
  0
VERTEX
  5
167
330
162
100
AcDbEntity
  8
001
370
    50
100
AcDbVertex
100
AcDb2dVertex
 10
51.688955
 20
118.463266
 30
0.0
  0
VERTEX
  5
168
330
162
100
AcDbEntity
  8
001
370
    50
100
AcDbVertex
100
AcDb2dVertex
 10
51.612209
 20
118.520607
 30
0.0
  0
VERTEX
  5
169
330
162
100
AcDbEntity
  8
001
370
    50
100
AcDbVertex
100
AcDb2dVertex
 10
51.584446
 20
118.535546
 30
0.0
  0
VERTEX
  5
16A
330
162
100
AcDbEntity
  8
001
370
    50
100
AcDbVertex
100
AcDb2dVertex
 10
51.549804
 20
118.550074
 30
0.0
  0
VERTEX
  5
16B
330
162
100
AcDbEntity
  8
001
370
    50
100
AcDbVertex
100
AcDb2dVertex
 10
51.548497
 20
118.550552
 30
0.0
  0
VERTEX
  5
16C
330
162
100
AcDbEntity
  8
001
370
    50
100
AcDbVertex
100
AcDb2dVertex
 10
51.547599
 20
118.550879
 30
0.0
  0
SEQEND
  5
163
330
162
100
AcDbEntity
  8
001
370
    50
  0
LINE
  5
16D
330
1F
100
AcDbEntity
  8
001
370
    50
100
AcDbLine
 10
64.562907
 20
90.993746
 30
0.0
 11
51.771712
 21
118.345392
 31
0.0
  0
POLYLINE
  5
16E
330
1F
100
AcDbEntity
  8
001
370
    50
100
AcDb2dPolyline
 66
     1
 10
0.0
 20
0.0
 30
0.0
  0
VERTEX
  5
170
330
16E
100
AcDbEntity
  8
001
370
    50
100
AcDbVertex
100
AcDb2dVertex
 10
47.837393
 20
104.46218
 30
0.0
  0
VERTEX
  5
171
330
16E
100
AcDbEntity
  8
001
370
    50
100
AcDbVertex
100
AcDb2dVertex
 10
48.108857
 20
104.476447
 30
0.0
  0
VERTEX
  5
172
330
16E
100
AcDbEntity
  8
001
370
    50
100
AcDbVertex
100
AcDb2dVertex
 10
48.480467
 20
104.519151
 30
0.0
  0
VERTEX
  5
173
330
16E
100
AcDbEntity
  8
001
370
    50
100
AcDbVertex
100
AcDb2dVertex
 10
48.80989
 20
104.590072
 30
0.0
  0
VERTEX
  5
174
330
16E
100
AcDbEntity
  8
001
370
    50
100
AcDbVertex
100
AcDb2dVertex
 10
49.104002
 20
104.688333
 30
0.0
  0
VERTEX
  5
175
330
16E
100
AcDbEntity
  8
001
370
    50
100
AcDbVertex
100
AcDb2dVertex
 10
49.398285
 20
104.813287
 30
0.0
  0
VERTEX
  5
176
330
16E
100
AcDbEntity
  8
001
370
    50
100
AcDbVertex
100
AcDb2dVertex
 10
49.689052
 20
104.964585
 30
0.0
  0
VERTEX
  5
177
330
16E
100
AcDbEntity
  8
001
370
    50
100
AcDbVertex
100
AcDb2dVertex
 10
50.458744
 20
105.562288
 30
0.0
  0
VERTEX
  5
178
330
16E
100
AcDbEntity
  8
001
370
    50
100
AcDbVertex
100
AcDb2dVertex
 10
51.04456
 20
106.33718
 30
0.0
  0
VERTEX
  5
179
330
16E
100
AcDbEntity
  8
001
370
    50
100
AcDbVertex
100
AcDb2dVertex
 10
51.317603
 20
106.930967
 30
0.0
  0
VERTEX
  5
17A
330
16E
100
AcDbEntity
  8
001
370
    50
100
AcDbVertex
100
AcDb2dVertex
 10
51.484449
 20
107.560999
 30
0.0
  0
VERTEX
  5
17B
330
16E
100
AcDbEntity
  8
001
370
    50
100
AcDbVertex
100
AcDb2dVertex
 10
51.52665
 20
107.88548
 30
0.0
  0
VERTEX
  5
17C
330
16E
100
AcDbEntity
  8
001
370
    50
100
AcDbVertex
100
AcDb2dVertex
 10
51.540711
 20
108.21218
 30
0.0
  0
VERTEX
  5
17D
330
16E
100
AcDbEntity
  8
001
370
    50
100
AcDbVertex
100
AcDb2dVertex
 10
51.52665
 20
108.538881
 30
0.0
  0
VERTEX
  5
17E
330
16E
100
AcDbEntity
  8
001
370
    50
100
AcDbVertex
100
AcDb2dVertex
 10
51.484449
 20
108.863361
 30
0.0
  0
VERTEX
  5
17F
330
16E
100
AcDbEntity
  8
001
370
    50
100
AcDbVertex
100
AcDb2dVertex
 10
51.317603
 20
109.493393
 30
0.0
  0
VERTEX
  5
180
330
16E
100
AcDbEntity
  8
001
370
    50
100
AcDbVertex
100
AcDb2dVertex
 10
51.04456
 20
110.08718
 30
0.0
  0
VERTEX
  5
181
330
16E
100
AcDbEntity
  8
001
370
    50
100
AcDbVertex
100
AcDb2dVertex
 10
50.458744
 20
110.862073
 30
0.0
  0
VERTEX
  5
182
330
16E
100
AcDbEntity
  8
001
370
    50
100
AcDbVertex
100
AcDb2dVertex
 10
49.689052
 20
111.459775
 30
0.0
  0
VERTEX
  5
183
330
16E
100
AcDbEntity
  8
001
370
    50
100
AcDbVertex
100
AcDb2dVertex
 10
49.398285
 20
111.611074
 30
0.0
  0
VERTEX
  5
184
330
16E
100
AcDbEntity
  8
001
370
    50
100
AcDbVertex
100
AcDb2dVertex
 10
49.104002
 20
111.736027
 30
0.0
  0
VERTEX
  5
185
330
16E
100
AcDbEntity
  8
001
370
    50
100
AcDbVertex
100
AcDb2dVertex
 10
48.80989
 20
111.834289
 30
0.0
  0
VERTEX
  5
186
330
16E
100
AcDbEntity
  8
001
370
    50
100
AcDbVertex
100
AcDb2dVertex
 10
48.480467
 20
111.905209
 30
0.0
  0
VERTEX
  5
187
330
16E
100
AcDbEntity
  8
001
370
    50
100
AcDbVertex
100
AcDb2dVertex
 10
48.108857
 20
111.947914
 30
0.0
  0
VERTEX
  5
188
330
16E
100
AcDbEntity
  8
001
370
    50
100
AcDbVertex
100
AcDb2dVertex
 10
47.837393
 20
111.96218
 30
0.0
  0
SEQEND
  5
16F
330
16E
100
AcDbEntity
  8
001
370
    50
  0
LINE
  5
189
330
1F
100
AcDbEntity
  8
001
370
    50
100
AcDbLine
 10
53.960859
 20
115.265325
 30
0.0
 11
52.520443
 21
118.345392
 31
0.0
  0
POLYLINE
  5
18A
330
1F
100
AcDbEntity
  8
001
370
    50
100
AcDb2dPolyline
 66
     1
 10
0.0
 20
0.0
 30
0.0
  0
VERTEX
  5
18C
330
18A
100
AcDbEntity
  8
001
370
    50
100
AcDbVertex
100
AcDb2dVertex
 10
52.520443
 20
118.345392
 30
0.0
  0
VERTEX
  5
18D
330
18A
100
AcDbEntity
  8
001
370
    50
100
AcDbVertex
100
AcDb2dVertex
 10
52.514541
 20
118.357294
 30
0.0
  0
VERTEX
  5
18E
330
18A
100
AcDbEntity
  8
001
370
    50
100
AcDbVertex
100
AcDb2dVertex
 10
52.505528
 20
118.374197
 30
0.0
  0
VERTEX
  5
18F
330
18A
100
AcDbEntity
  8
001
370
    50
100
AcDbVertex
100
AcDb2dVertex
 10
52.437686
 20
118.463266
 30
0.0
  0
VERTEX
  5
190
330
18A
100
AcDbEntity
  8
001
370
    50
100
AcDbVertex
100
AcDb2dVertex
 10
52.36094
 20
118.520607
 30
0.0
  0
VERTEX
  5
191
330
18A
100
AcDbEntity
  8
001
370
    50
100
AcDbVertex
100
AcDb2dVertex
 10
52.333176
 20
118.535546
 30
0.0
  0
VERTEX
  5
192
330
18A
100
AcDbEntity
  8
001
370
    50
100
AcDbVertex
100
AcDb2dVertex
 10
52.298535
 20
118.550074
 30
0.0
  0
VERTEX
  5
193
330
18A
100
AcDbEntity
  8
001
370
    50
100
AcDbVertex
100
AcDb2dVertex
 10
52.297228
 20
118.550552
 30
0.0
  0
VERTEX
  5
194
330
18A
100
AcDbEntity
  8
001
370
    50
100
AcDbVertex
100
AcDb2dVertex
 10
52.29633
 20
118.550879
 30
0.0
  0
SEQEND
  5
18B
330
18A
100
AcDbEntity
  8
001
370
    50
  0
LINE
  5
195
330
1F
100
AcDbEntity
  8
001
370
    50
100
AcDbLine
 10
52.29633
 20
118.550879
 30
0.0
 11
48.439387
 21
119.946197
 31
0.0
  0
LINE
  5
196
330
1F
100
AcDbEntity
  8
001
370
    50
100
AcDbLine
 10
43.417101
 20
121.763099
 30
0.0
 11
37.105698
 21
124.046362
 31
0.0
  0
POLYLINE
  5
197
330
1F
100
AcDbEntity
  8
001
370
    50
100
AcDb2dPolyline
 66
     1
 10
0.0
 20
0.0
 30
0.0
  0
VERTEX
  5
199
330
197
100
AcDbEntity
  8
001
370
    50
100
AcDbVertex
100
AcDb2dVertex
 10
47.837393
 20
111.96218
 30
0.0
  0
VERTEX
  5
19A
330
197
100
AcDbEntity
  8
001
370
    50
100
AcDbVertex
100
AcDb2dVertex
 10
47.565928
 20
111.947914
 30
0.0
  0
VERTEX
  5
19B
330
197
100
AcDbEntity
  8
001
370
    50
100
AcDbVertex
100
AcDb2dVertex
 10
47.194318
 20
111.905209
 30
0.0
  0
VERTEX
  5
19C
330
197
100
AcDbEntity
  8
001
370
    50
100
AcDbVertex
100
AcDb2dVertex
 10
46.864895
 20
111.834289
 30
0.0
  0
VERTEX
  5
19D
330
197
100
AcDbEntity
  8
001
370
    50
100
AcDbVertex
100
AcDb2dVertex
 10
46.570783
 20
111.736027
 30
0.0
  0
VERTEX
  5
19E
330
197
100
AcDbEntity
  8
001
370
    50
100
AcDbVertex
100
AcDb2dVertex
 10
46.2765
 20
111.611074
 30
0.0
  0
VERTEX
  5
19F
330
197
100
AcDbEntity
  8
001
370
    50
100
AcDbVertex
100
AcDb2dVertex
 10
45.985734
 20
111.459775
 30
0.0
  0
VERTEX
  5
1A0
330
197
100
AcDbEntity
  8
001
370
    50
100
AcDbVertex
100
AcDb2dVertex
 10
45.216042
 20
110.862073
 30
0.0
  0
VERTEX
  5
1A1
330
197
100
AcDbEntity
  8
001
370
    50
100
AcDbVertex
100
AcDb2dVertex
 10
44.630225
 20
110.08718
 30
0.0
  0
VERTEX
  5
1A2
330
197
100
AcDbEntity
  8
001
370
    50
100
AcDbVertex
100
AcDb2dVertex
 10
44.357182
 20
109.493393
 30
0.0
  0
VERTEX
  5
1A3
330
197
100
AcDbEntity
  8
001
370
    50
100
AcDbVertex
100
AcDb2dVertex
 10
44.190336
 20
108.863361
 30
0.0
  0
VERTEX
  5
1A4
330
197
100
AcDbEntity
  8
001
370
    50
100
AcDbVertex
100
AcDb2dVertex
 10
44.148136
 20
108.538881
 30
0.0
  0
VERTEX
  5
1A5
330
197
100
AcDbEntity
  8
001
370
    50
100
AcDbVertex
100
AcDb2dVertex
 10
44.134075
 20
108.21218
 30
0.0
  0
VERTEX
  5
1A6
330
197
100
AcDbEntity
  8
001
370
    50
100
AcDbVertex
100
AcDb2dVertex
 10
44.148136
 20
107.88548
 30
0.0
  0
VERTEX
  5
1A7
330
197
100
AcDbEntity
  8
001
370
    50
100
AcDbVertex
100
AcDb2dVertex
 10
44.190336
 20
107.560999
 30
0.0
  0
VERTEX
  5
1A8
330
197
100
AcDbEntity
  8
001
370
    50
100
AcDbVertex
100
AcDb2dVertex
 10
44.357182
 20
106.930967
 30
0.0
  0
VERTEX
  5
1A9
330
197
100
AcDbEntity
  8
001
370
    50
100
AcDbVertex
100
AcDb2dVertex
 10
44.630225
 20
106.33718
 30
0.0
  0
VERTEX
  5
1AA
330
197
100
AcDbEntity
  8
001
370
    50
100
AcDbVertex
100
AcDb2dVertex
 10
45.216042
 20
105.562288
 30
0.0
  0
VERTEX
  5
1AB
330
197
100
AcDbEntity
  8
001
370
    50
100
AcDbVertex
100
AcDb2dVertex
 10
45.985734
 20
104.964585
 30
0.0
  0
VERTEX
  5
1AC
330
197
100
AcDbEntity
  8
001
370
    50
100
AcDbVertex
100
AcDb2dVertex
 10
46.2765
 20
104.813287
 30
0.0
  0
VERTEX
  5
1AD
330
197
100
AcDbEntity
  8
001
370
    50
100
AcDbVertex
100
AcDb2dVertex
 10
46.570783
 20
104.688333
 30
0.0
  0
VERTEX
  5
1AE
330
197
100
AcDbEntity
  8
001
370
    50
100
AcDbVertex
100
AcDb2dVertex
 10
46.864895
 20
104.590072
 30
0.0
  0
VERTEX
  5
1AF
330
197
100
AcDbEntity
  8
001
370
    50
100
AcDbVertex
100
AcDb2dVertex
 10
47.194318
 20
104.519151
 30
0.0
  0
VERTEX
  5
1B0
330
197
100
AcDbEntity
  8
001
370
    50
100
AcDbVertex
100
AcDb2dVertex
 10
47.565928
 20
104.476447
 30
0.0
  0
VERTEX
  5
1B1
330
197
100
AcDbEntity
  8
001
370
    50
100
AcDbVertex
100
AcDb2dVertex
 10
47.837393
 20
104.46218
 30
0.0
  0
SEQEND
  5
198
330
197
100
AcDbEntity
  8
001
370
    50
  0
POLYLINE
  5
1B2
330
1F
100
AcDbEntity
  8
001
370
    50
100
AcDb2dPolyline
 66
     1
 10
0.0
 20
0.0
 30
0.0
  0
VERTEX
  5
1B4
330
1B2
100
AcDbEntity
  8
001
370
    50
100
AcDbVertex
100
AcDb2dVertex
 10
31.943475
 20
140.034373
 30
0.0
  0
VERTEX
  5
1B5
330
1B2
100
AcDbEntity
  8
001
370
    50
100
AcDbVertex
100
AcDb2dVertex
 10
31.942368
 20
140.019745
 30
0.0
  0
VERTEX
  5
1B6
330
1B2
100
AcDbEntity
  8
001
370
    50
100
AcDbVertex
100
AcDb2dVertex
 10
31.943247
 20
139.999542
 30
0.0
  0
VERTEX
  5
1B7
330
1B2
100
AcDbEntity
  8
001
370
    50
100
AcDbVertex
100
AcDb2dVertex
 10
31.947717
 20
139.98024
 30
0.0
  0
VERTEX
  5
1B8
330
1B2
100
AcDbEntity
  8
001
370
    50
100
AcDbVertex
100
AcDb2dVertex
 10
31.95498
 20
139.963571
 30
0.0
  0
VERTEX
  5
1B9
330
1B2
100
AcDbEntity
  8
001
370
    50
100
AcDbVertex
100
AcDb2dVertex
 10
31.965312
 20
139.945412
 30
0.0
  0
VERTEX
  5
1BA
330
1B2
100
AcDbEntity
  8
001
370
    50
100
AcDbVertex
100
AcDb2dVertex
 10
31.978317
 20
139.927553
 30
0.0
  0
VERTEX
  5
1BB
330
1B2
100
AcDbEntity
  8
001
370
    50
100
AcDbVertex
100
AcDb2dVertex
 10
32.040108
 20
139.872186
 30
0.0
  0
VERTEX
  5
1BC
330
1B2
100
AcDbEntity
  8
001
370
    50
100
AcDbVertex
100
AcDb2dVertex
 10
32.093125
 20
139.838258
 30
0.0
  0
SEQEND
  5
1B3
330
1B2
100
AcDbEntity
  8
001
370
    50
  0
LINE
  5
1BD
330
1F
100
AcDbEntity
  8
001
370
    50
100
AcDbLine
 10
31.979863
 20
140.096863
 30
0.0
 11
32.093125
 21
140.202335
 31
0.0
  0
POLYLINE
  5
1BE
330
1F
100
AcDbEntity
  8
001
370
    50
100
AcDb2dPolyline
 66
     1
 10
0.0
 20
0.0
 30
0.0
  0
VERTEX
  5
1C0
330
1BE
100
AcDbEntity
  8
001
370
    50
100
AcDbVertex
100
AcDb2dVertex
 10
31.979863
 20
140.096863
 30
0.0
  0
VERTEX
  5
1C1
330
1BE
100
AcDbEntity
  8
001
370
    50
100
AcDbVertex
100
AcDb2dVertex
 10
31.979682
 20
140.096694
 30
0.0
  0
VERTEX
  5
1C2
330
1BE
100
AcDbEntity
  8
001
370
    50
100
AcDbVertex
100
AcDb2dVertex
 10
31.979419
 20
140.096448
 30
0.0
  0
VERTEX
  5
1C3
330
1BE
100
AcDbEntity
  8
001
370
    50
100
AcDbVertex
100
AcDb2dVertex
 10
31.965521
 20
140.082236
 30
0.0
  0
VERTEX
  5
1C4
330
1BE
100
AcDbEntity
  8
001
370
    50
100
AcDbVertex
100
AcDb2dVertex
 10
31.955655
 20
140.067005
 30
0.0
  0
VERTEX
  5
1C5
330
1BE
100
AcDbEntity
  8
001
370
    50
100
AcDbVertex
100
AcDb2dVertex
 10
31.947855
 20
140.048654
 30
0.0
  0
VERTEX
  5
1C6
330
1BE
100
AcDbEntity
  8
001
370
    50
100
AcDbVertex
100
AcDb2dVertex
 10
31.943475
 20
140.034373
 30
0.0
  0
SEQEND
  5
1BF
330
1BE
100
AcDbEntity
  8
001
370
    50
  0
LINE
  5
1C7
330
1F
100
AcDbEntity
  8
001
370
    50
100
AcDbLine
 10
31.943475
 20
140.034373
 30
0.0
 11
31.430911
 21
137.247485
 31
0.0
  0
LINE
  5
1C8
330
1F
100
AcDbEntity
  8
001
370
    50
100
AcDbLine
 10
31.280655
 20
136.430517
 30
0.0
 11
31.194744
 21
135.963408
 31
0.0
  0
POLYLINE
  5
1C9
330
1F
100
AcDbEntity
  8
001
370
    50
100
AcDb2dPolyline
 66
     1
 10
0.0
 20
0.0
 30
0.0
  0
VERTEX
  5
1CB
330
1C9
100
AcDbEntity
  8
001
370
    50
100
AcDbVertex
100
AcDb2dVertex
 10
31.194744
 20
135.963408
 30
0.0
  0
VERTEX
  5
1CC
330
1C9
100
AcDbEntity
  8
001
370
    50
100
AcDbVertex
100
AcDb2dVertex
 10
31.193658
 20
135.948771
 30
0.0
  0
VERTEX
  5
1CD
330
1C9
100
AcDbEntity
  8
001
370
    50
100
AcDbVertex
100
AcDb2dVertex
 10
31.194517
 20
135.928578
 30
0.0
  0
VERTEX
  5
1CE
330
1C9
100
AcDbEntity
  8
001
370
    50
100
AcDbVertex
100
AcDb2dVertex
 10
31.198873
 20
135.90933
 30
0.0
  0
VERTEX
  5
1CF
330
1C9
100
AcDbEntity
  8
001
370
    50
100
AcDbVertex
100
AcDb2dVertex
 10
31.20625
 20
135.892607
 30
0.0
  0
VERTEX
  5
1D0
330
1C9
100
AcDbEntity
  8
001
370
    50
100
AcDbVertex
100
AcDb2dVertex
 10
31.217102
 20
135.874199
 30
0.0
  0
VERTEX
  5
1D1
330
1C9
100
AcDbEntity
  8
001
370
    50
100
AcDbVertex
100
AcDb2dVertex
 10
31.229586
 20
135.856589
 30
0.0
  0
VERTEX
  5
1D2
330
1C9
100
AcDbEntity
  8
001
370
    50
100
AcDbVertex
100
AcDb2dVertex
 10
31.28532
 20
135.802175
 30
0.0
  0
VERTEX
  5
1D3
330
1C9
100
AcDbEntity
  8
001
370
    50
100
AcDbVertex
100
AcDb2dVertex
 10
31.360505
 20
135.759004
 30
0.0
  0
VERTEX
  5
1D4
330
1C9
100
AcDbEntity
  8
001
370
    50
100
AcDbVertex
100
AcDb2dVertex
 10
31.38828
 20
135.746315
 30
0.0
  0
VERTEX
  5
1D5
330
1C9
100
AcDbEntity
  8
001
370
    50
100
AcDbVertex
100
AcDb2dVertex
 10
31.408041
 20
135.737895
 30
0.0
  0
SEQEND
  5
1CA
330
1C9
100
AcDbEntity
  8
001
370
    50
  0
POLYLINE
  5
1D6
330
1F
100
AcDbEntity
  8
001
370
    50
100
AcDb2dPolyline
 66
     1
 10
0.0
 20
0.0
 30
0.0
  0
VERTEX
  5
1D8
330
1D6
100
AcDbEntity
  8
001
370
    50
100
AcDbVertex
100
AcDb2dVertex
 10
60.693234
 20
114.283582
 30
0.0
  0
VERTEX
  5
1D9
330
1D6
100
AcDbEntity
  8
001
370
    50
100
AcDbVertex
100
AcDb2dVertex
 10
61.508814
 20
112.727891
 30
0.0
  0
VERTEX
  5
1DA
330
1D6
100
AcDbEntity
  8
001
370
    50
100
AcDbVertex
100
AcDb2dVertex
 10
62.715296
 20
110.461899
 30
0.0
  0
VERTEX
  5
1DB
330
1D6
100
AcDbEntity
  8
001
370
    50
100
AcDbVertex
100
AcDb2dVertex
 10
63.901931
 20
108.280648
 30
0.0
  0
VERTEX
  5
1DC
330
1D6
100
AcDbEntity
  8
001
370
    50
100
AcDbVertex
100
AcDb2dVertex
 10
64.723608
 20
106.79353
 30
0.0
  0
SEQEND
  5
1D7
330
1D6
100
AcDbEntity
  8
001
370
    50
  0
POLYLINE
  5
1DD
330
1F
100
AcDbEntity
  8
001
370
    50
100
AcDb2dPolyline
 66
     1
 10
0.0
 20
0.0
 30
0.0
  0
VERTEX
  5
1DF
330
1DD
100
AcDbEntity
  8
001
370
    50
100
AcDbVertex
100
AcDb2dVertex
 10
47.742184
 20
125.149733
 30
0.0
  0
VERTEX
  5
1E0
330
1DD
100
AcDbEntity
  8
001
370
    50
100
AcDbVertex
100
AcDb2dVertex
 10
48.449489
 20
124.932872
 30
0.0
  0
VERTEX
  5
1E1
330
1DD
100
AcDbEntity
  8
001
370
    50
100
AcDbVertex
100
AcDb2dVertex
 10
49.150921
 20
124.698975
 30
0.0
  0
VERTEX
  5
1E2
330
1DD
100
AcDbEntity
  8
001
370
    50
100
AcDbVertex
100
AcDb2dVertex
 10
49.846684
 20
124.432649
 30
0.0
  0
VERTEX
  5
1E3
330
1DD
100
AcDbEntity
  8
001
370
    50
100
AcDbVertex
100
AcDb2dVertex
 10
50.530873
 20
124.137028
 30
0.0
  0
VERTEX
  5
1E4
330
1DD
100
AcDbEntity
  8
001
370
    50
100
AcDbVertex
100
AcDb2dVertex
 10
51.226958
 20
123.804777
 30
0.0
  0
VERTEX
  5
1E5
330
1DD
100
AcDbEntity
  8
001
370
    50
100
AcDbVertex
100
AcDb2dVertex
 10
51.909794
 20
123.44639
 30
0.0
  0
VERTEX
  5
1E6
330
1DD
100
AcDbEntity
  8
001
370
    50
100
AcDbVertex
100
AcDb2dVertex
 10
52.58317
 20
123.058731
 30
0.0
  0
VERTEX
  5
1E7
330
1DD
100
AcDbEntity
  8
001
370
    50
100
AcDbVertex
100
AcDb2dVertex
 10
53.241038
 20
122.645212
 30
0.0
  0
VERTEX
  5
1E8
330
1DD
100
AcDbEntity
  8
001
370
    50
100
AcDbVertex
100
AcDb2dVertex
 10
53.870559
 20
122.215469
 30
0.0
  0
VERTEX
  5
1E9
330
1DD
100
AcDbEntity
  8
001
370
    50
100
AcDbVertex
100
AcDb2dVertex
 10
54.483787
 20
121.762802
 30
0.0
  0
VERTEX
  5
1EA
330
1DD
100
AcDbEntity
  8
001
370
    50
100
AcDbVertex
100
AcDb2dVertex
 10
55.08322
 20
121.285546
 30
0.0
  0
VERTEX
  5
1EB
330
1DD
100
AcDbEntity
  8
001
370
    50
100
AcDbVertex
100
AcDb2dVertex
 10
55.664913
 20
120.786819
 30
0.0
  0
VERTEX
  5
1EC
330
1DD
100
AcDbEntity
  8
001
370
    50
100
AcDbVertex
100
AcDb2dVertex
 10
56.248107
 20
120.248419
 30
0.0
  0
VERTEX
  5
1ED
330
1DD
100
AcDbEntity
  8
001
370
    50
100
AcDbVertex
100
AcDb2dVertex
 10
56.81114
 20
119.688949
 30
0.0
  0
VERTEX
  5
1EE
330
1DD
100
AcDbEntity
  8
001
370
    50
100
AcDbVertex
100
AcDb2dVertex
 10
57.3539
 20
119.109185
 30
0.0
  0
VERTEX
  5
1EF
330
1DD
100
AcDbEntity
  8
001
370
    50
100
AcDbVertex
100
AcDb2dVertex
 10
57.875552
 20
118.510382
 30
0.0
  0
VERTEX
  5
1F0
330
1DD
100
AcDbEntity
  8
001
370
    50
100
AcDbVertex
100
AcDb2dVertex
 10
58.277583
 20
118.017909
 30
0.0
  0
VERTEX
  5
1F1
330
1DD
100
AcDbEntity
  8
001
370
    50
100
AcDbVertex
100
AcDb2dVertex
 10
58.6655
 20
117.514285
 30
0.0
  0
VERTEX
  5
1F2
330
1DD
100
AcDbEntity
  8
001
370
    50
100
AcDbVertex
100
AcDb2dVertex
 10
59.037304
 20
117.002681
 30
0.0
  0
VERTEX
  5
1F3
330
1DD
100
AcDbEntity
  8
001
370
    50
100
AcDbVertex
100
AcDb2dVertex
 10
59.395335
 20
116.481274
 30
0.0
  0
VERTEX
  5
1F4
330
1DD
100
AcDbEntity
  8
001
370
    50
100
AcDbVertex
100
AcDb2dVertex
 10
59.744659
 20
115.942439
 30
0.0
  0
VERTEX
  5
1F5
330
1DD
100
AcDbEntity
  8
001
370
    50
100
AcDbVertex
100
AcDb2dVertex
 10
60.077622
 20
115.393498
 30
0.0
  0
VERTEX
  5
1F6
330
1DD
100
AcDbEntity
  8
001
370
    50
100
AcDbVertex
100
AcDb2dVertex
 10
60.390064
 20
114.841203
 30
0.0
  0
VERTEX
  5
1F7
330
1DD
100
AcDbEntity
  8
001
370
    50
100
AcDbVertex
100
AcDb2dVertex
 10
60.693234
 20
114.283582
 30
0.0
  0
SEQEND
  5
1DE
330
1DD
100
AcDbEntity
  8
001
370
    50
  0
LINE
  5
1F8
330
1F
100
AcDbEntity
  8
001
370
    50
100
AcDbLine
 10
44.863719
 20
125.94901
 30
0.0
 11
47.742184
 21
125.149733
 31
0.0
  0
LINE
  5
1F9
330
1F
100
AcDbEntity
  8
001
370
    50
100
AcDbLine
 10
44.863719
 20
148.251121
 30
0.0
 11
44.863719
 21
125.94901
 31
0.0
  0
POLYLINE
  5
1FA
330
1F
100
AcDbEntity
  8
001
370
    50
100
AcDb2dPolyline
 66
     1
 10
0.0
 20
0.0
 30
0.0
  0
VERTEX
  5
1FC
330
1FA
100
AcDbEntity
  8
001
370
    50
100
AcDbVertex
100
AcDb2dVertex
 10
64.723608
 20
154.589886
 30
0.0
  0
VERTEX
  5
1FD
330
1FA
100
AcDbEntity
  8
001
370
    50
100
AcDbVertex
100
AcDb2dVertex
 10
62.734975
 20
153.960344
 30
0.0
  0
VERTEX
  5
1FE
330
1FA
100
AcDbEntity
  8
001
370
    50
100
AcDbVertex
100
AcDb2dVertex
 10
60.746463
 20
153.330421
 30
0.0
  0
VERTEX
  5
1FF
330
1FA
100
AcDbEntity
  8
001
370
    50
100
AcDbVertex
100
AcDb2dVertex
 10
58.758195
 20
152.699735
 30
0.0
  0
VERTEX
  5
200
330
1FA
100
AcDbEntity
  8
001
370
    50
100
AcDbVertex
100
AcDb2dVertex
 10
56.770292
 20
152.067905
 30
0.0
  0
VERTEX
  5
201
330
1FA
100
AcDbEntity
  8
001
370
    50
100
AcDbVertex
100
AcDb2dVertex
 10
54.782876
 20
151.43455
 30
0.0
  0
VERTEX
  5
202
330
1FA
100
AcDbEntity
  8
001
370
    50
100
AcDbVertex
100
AcDb2dVertex
 10
52.798316
 20
150.800147
 30
0.0
  0
VERTEX
  5
203
330
1FA
100
AcDbEntity
  8
001
370
    50
100
AcDbVertex
100
AcDb2dVertex
 10
50.814242
 20
150.164222
 30
0.0
  0
VERTEX
  5
204
330
1FA
100
AcDbEntity
  8
001
370
    50
100
AcDbVertex
100
AcDb2dVertex
 10
48.830532
 20
149.527156
 30
0.0
  0
VERTEX
  5
205
330
1FA
100
AcDbEntity
  8
001
370
    50
100
AcDbVertex
100
AcDb2dVertex
 10
46.847065
 20
148.889329
 30
0.0
  0
VERTEX
  5
206
330
1FA
100
AcDbEntity
  8
001
370
    50
100
AcDbVertex
100
AcDb2dVertex
 10
44.863719
 20
148.251121
 30
0.0
  0
SEQEND
  5
1FB
330
1FA
100
AcDbEntity
  8
001
370
    50
  0
LINE
  5
207
330
1F
100
AcDbEntity
  8
001
370
    50
100
AcDbLine
 10
64.723608
 20
154.589886
 30
0.0
 11
64.723608
 21
106.79353
 31
0.0
  0
LINE
  5
208
330
1F
100
AcDbEntity
  8
001
370
    50
100
AcDbLine
 10
64.723608
 20
174.585947
 30
0.0
 11
64.723608
 21
174.146743
 31
0.0
  0
LINE
  5
209
330
1F
100
AcDbEntity
  8
001
370
    50
100
AcDbLine
 10
78.193125
 20
174.585947
 30
0.0
 11
64.723608
 21
174.585947
 31
0.0
  0
POLYLINE
  5
20A
330
1F
100
AcDbEntity
  8
001
370
    50
100
AcDb2dPolyline
 66
     1
 10
0.0
 20
0.0
 30
0.0
  0
VERTEX
  5
20C
330
20A
100
AcDbEntity
  8
001
370
    50
100
AcDbVertex
100
AcDb2dVertex
 10
64.723608
 20
91.12535
 30
0.0
  0
VERTEX
  5
20D
330
20A
100
AcDbEntity
  8
001
370
    50
100
AcDbVertex
100
AcDb2dVertex
 10
64.855759
 20
91.061611
 30
0.0
  0
VERTEX
  5
20E
330
20A
100
AcDbEntity
  8
001
370
    50
100
AcDbVertex
100
AcDb2dVertex
 10
65.054115
 20
90.981591
 30
0.0
  0
VERTEX
  5
20F
330
20A
100
AcDbEntity
  8
001
370
    50
100
AcDbVertex
100
AcDb2dVertex
 10
65.230828
 20
90.929415
 30
0.0
  0
VERTEX
  5
210
330
20A
100
AcDbEntity
  8
001
370
    50
100
AcDbVertex
100
AcDb2dVertex
 10
65.354254
 20
90.902619
 30
0.0
  0
SEQEND
  5
20B
330
20A
100
AcDbEntity
  8
001
370
    50
  0
LINE
  5
211
330
1F
100
AcDbEntity
  8
001
370
    50
100
AcDbLine
 10
64.723608
 20
91.275687
 30
0.0
 11
64.723608
 21
91.12535
 31
0.0
  0
POLYLINE
  5
212
330
1F
100
AcDbEntity
  8
001
370
    50
100
AcDb2dPolyline
 66
     1
 10
0.0
 20
0.0
 30
0.0
  0
VERTEX
  5
214
330
212
100
AcDbEntity
  8
001
370
    50
100
AcDbVertex
100
AcDb2dVertex
 10
64.723608
 20
91.275687
 30
0.0
  0
VERTEX
  5
215
330
212
100
AcDbEntity
  8
001
370
    50
100
AcDbVertex
100
AcDb2dVertex
 10
66.570387
 20
91.317321
 30
0.0
  0
VERTEX
  5
216
330
212
100
AcDbEntity
  8
001
370
    50
100
AcDbVertex
100
AcDb2dVertex
 10
69.269443
 20
91.381657
 30
0.0
  0
VERTEX
  5
217
330
212
100
AcDbEntity
  8
001
370
    50
100
AcDbVertex
100
AcDb2dVertex
 10
71.961249
 20
91.450669
 30
0.0
  0
VERTEX
  5
218
330
212
100
AcDbEntity
  8
001
370
    50
100
AcDbVertex
100
AcDb2dVertex
 10
73.80295
 20
91.500271
 30
0.0
  0
SEQEND
  5
213
330
212
100
AcDbEntity
  8
001
370
    50
  0
POLYLINE
  5
219
330
1F
100
AcDbEntity
  8
001
370
    50
100
AcDb2dPolyline
 66
     1
 10
0.0
 20
0.0
 30
0.0
  0
VERTEX
  5
21B
330
219
100
AcDbEntity
  8
001
370
    50
100
AcDbVertex
100
AcDb2dVertex
 10
73.80295
 20
91.500271
 30
0.0
  0
VERTEX
  5
21C
330
219
100
AcDbEntity
  8
001
370
    50
100
AcDbVertex
100
AcDb2dVertex
 10
74.00445
 20
91.507919
 30
0.0
  0
VERTEX
  5
21D
330
219
100
AcDbEntity
  8
001
370
    50
100
AcDbVertex
100
AcDb2dVertex
 10
74.205828
 20
91.518032
 30
0.0
  0
VERTEX
  5
21E
330
219
100
AcDbEntity
  8
001
370
    50
100
AcDbVertex
100
AcDb2dVertex
 10
74.390221
 20
91.53118
 30
0.0
  0
VERTEX
  5
21F
330
219
100
AcDbEntity
  8
001
370
    50
100
AcDbVertex
100
AcDb2dVertex
 10
74.5743
 20
91.548011
 30
0.0
  0
VERTEX
  5
220
330
219
100
AcDbEntity
  8
001
370
    50
100
AcDbVertex
100
AcDb2dVertex
 10
74.727566
 20
91.565101
 30
0.0
  0
VERTEX
  5
221
330
219
100
AcDbEntity
  8
001
370
    50
100
AcDbVertex
100
AcDb2dVertex
 10
74.880274
 20
91.587517
 30
0.0
  0
VERTEX
  5
222
330
219
100
AcDbEntity
  8
001
370
    50
100
AcDbVertex
100
AcDb2dVertex
 10
75.010216
 20
91.612138
 30
0.0
  0
VERTEX
  5
223
330
219
100
AcDbEntity
  8
001
370
    50
100
AcDbVertex
100
AcDb2dVertex
 10
75.139229
 20
91.638213
 30
0.0
  0
VERTEX
  5
224
330
219
100
AcDbEntity
  8
001
370
    50
100
AcDbVertex
100
AcDb2dVertex
 10
75.295452
 20
91.674775
 30
0.0
  0
VERTEX
  5
225
330
219
100
AcDbEntity
  8
001
370
    50
100
AcDbVertex
100
AcDb2dVertex
 10
75.443126
 20
91.753952
 30
0.0
  0
VERTEX
  5
226
330
219
100
AcDbEntity
  8
001
370
    50
100
AcDbVertex
100
AcDb2dVertex
 10
75.498157
 20
91.812887
 30
0.0
  0
VERTEX
  5
227
330
219
100
AcDbEntity
  8
001
370
    50
100
AcDbVertex
100
AcDb2dVertex
 10
75.513333
 20
91.880076
 30
0.0
  0
VERTEX
  5
228
330
219
100
AcDbEntity
  8
001
370
    50
100
AcDbVertex
100
AcDb2dVertex
 10
75.510371
 20
91.889477
 30
0.0
  0
VERTEX
  5
229
330
219
100
AcDbEntity
  8
001
370
    50
100
AcDbVertex
100
AcDb2dVertex
 10
75.506678
 20
91.898865
 30
0.0
  0
SEQEND
  5
21A
330
219
100
AcDbEntity
  8
001
370
    50
  0
POLYLINE
  5
22A
330
1F
100
AcDbEntity
  8
001
370
    50
100
AcDb2dPolyline
 66
     1
 10
0.0
 20
0.0
 30
0.0
  0
VERTEX
  5
22C
330
22A
100
AcDbEntity
  8
001
370
    50
100
AcDbVertex
100
AcDb2dVertex
 10
64.723608
 20
106.79353
 30
0.0
  0
VERTEX
  5
22D
330
22A
100
AcDbEntity
  8
001
370
    50
100
AcDbVertex
100
AcDb2dVertex
 10
65.720812
 20
105.176263
 30
0.0
  0
VERTEX
  5
22E
330
22A
100
AcDbEntity
  8
001
370
    50
100
AcDbVertex
100
AcDb2dVertex
 10
67.169043
 20
102.909426
 30
0.0
  0
VERTEX
  5
22F
330
22A
100
AcDbEntity
  8
001
370
    50
100
AcDbVertex
100
AcDb2dVertex
 10
68.889867
 20
100.297577
 30
0.0
  0
VERTEX
  5
230
330
22A
100
AcDbEntity
  8
001
370
    50
100
AcDbVertex
100
AcDb2dVertex
 10
70.704848
 20
97.645276
 30
0.0
  0
VERTEX
  5
231
330
22A
100
AcDbEntity
  8
001
370
    50
100
AcDbVertex
100
AcDb2dVertex
 10
72.435551
 20
95.257082
 30
0.0
  0
VERTEX
  5
232
330
22A
100
AcDbEntity
  8
001
370
    50
100
AcDbVertex
100
AcDb2dVertex
 10
73.481683
 20
93.949817
 30
0.0
  0
VERTEX
  5
233
330
22A
100
AcDbEntity
  8
001
370
    50
100
AcDbVertex
100
AcDb2dVertex
 10
74.775212
 20
92.592895
 30
0.0
  0
VERTEX
  5
234
330
22A
100
AcDbEntity
  8
001
370
    50
100
AcDbVertex
100
AcDb2dVertex
 10
75.171365
 20
92.219248
 30
0.0
  0
VERTEX
  5
235
330
22A
100
AcDbEntity
  8
001
370
    50
100
AcDbVertex
100
AcDb2dVertex
 10
75.454638
 20
91.962818
 30
0.0
  0
SEQEND
  5
22B
330
22A
100
AcDbEntity
  8
001
370
    50
  0
POLYLINE
  5
236
330
1F
100
AcDbEntity
  8
001
370
    50
100
AcDb2dPolyline
 66
     1
 10
0.0
 20
0.0
 30
0.0
  0
VERTEX
  5
238
330
236
100
AcDbEntity
  8
001
370
    50
100
AcDbVertex
100
AcDb2dVertex
 10
65.354254
 20
154.67552
 30
0.0
  0
VERTEX
  5
239
330
236
100
AcDbEntity
  8
001
370
    50
100
AcDbVertex
100
AcDb2dVertex
 10
65.226155
 20
154.658135
 30
0.0
  0
VERTEX
  5
23A
330
236
100
AcDbEntity
  8
001
370
    50
100
AcDbVertex
100
AcDb2dVertex
 10
65.038936
 20
154.632719
 30
0.0
  0
VERTEX
  5
23B
330
236
100
AcDbEntity
  8
001
370
    50
100
AcDbVertex
100
AcDb2dVertex
 10
64.851709
 20
154.60729
 30
0.0
  0
VERTEX
  5
23C
330
236
100
AcDbEntity
  8
001
370
    50
100
AcDbVertex
100
AcDb2dVertex
 10
64.723608
 20
154.589886
 30
0.0
  0
SEQEND
  5
237
330
236
100
AcDbEntity
  8
001
370
    50
  0
POLYLINE
  5
23D
330
1F
100
AcDbEntity
  8
001
370
    50
100
AcDb2dPolyline
 66
     1
 10
0.0
 20
0.0
 30
0.0
  0
VERTEX
  5
23F
330
23D
100
AcDbEntity
  8
001
370
    50
100
AcDbVertex
100
AcDb2dVertex
 10
65.354254
 20
154.67552
 30
0.0
  0
VERTEX
  5
240
330
23D
100
AcDbEntity
  8
001
370
    50
100
AcDbVertex
100
AcDb2dVertex
 10
65.236363
 20
155.239688
 30
0.0
  0
VERTEX
  5
241
330
23D
100
AcDbEntity
  8
001
370
    50
100
AcDbVertex
100
AcDb2dVertex
 10
65.054115
 20
156.062037
 30
0.0
  0
VERTEX
  5
242
330
23D
100
AcDbEntity
  8
001
370
    50
100
AcDbVertex
100
AcDb2dVertex
 10
64.861878
 20
156.864751
 30
0.0
  0
VERTEX
  5
243
330
23D
100
AcDbEntity
  8
001
370
    50
100
AcDbVertex
100
AcDb2dVertex
 10
64.723608
 20
157.41236
 30
0.0
  0
SEQEND
  5
23E
330
23D
100
AcDbEntity
  8
001
370
    50
  0
LINE
  5
244
330
1F
100
AcDbEntity
  8
001
370
    50
100
AcDbLine
 10
64.723608
 20
158.40085
 30
0.0
 11
64.723608
 21
157.41236
 31
0.0
  0
POLYLINE
  5
245
330
1F
100
AcDbEntity
  8
001
370
    50
100
AcDb2dPolyline
 66
     1
 10
0.0
 20
0.0
 30
0.0
  0
VERTEX
  5
247
330
245
100
AcDbEntity
  8
001
370
    50
100
AcDbVertex
100
AcDb2dVertex
 10
73.80295
 20
159.54096
 30
0.0
  0
VERTEX
  5
248
330
245
100
AcDbEntity
  8
001
370
    50
100
AcDbVertex
100
AcDb2dVertex
 10
72.975042
 20
159.438059
 30
0.0
  0
VERTEX
  5
249
330
245
100
AcDbEntity
  8
001
370
    50
100
AcDbVertex
100
AcDb2dVertex
 10
71.765065
 20
159.287317
 30
0.0
  0
VERTEX
  5
24A
330
245
100
AcDbEntity
  8
001
370
    50
100
AcDbVertex
100
AcDb2dVertex
 10
68.89611
 20
158.927868
 30
0.0
  0
VERTEX
  5
24B
330
245
100
AcDbEntity
  8
001
370
    50
100
AcDbVertex
100
AcDb2dVertex
 10
66.418613
 20
158.615535
 30
0.0
  0
VERTEX
  5
24C
330
245
100
AcDbEntity
  8
001
370
    50
100
AcDbVertex
100
AcDb2dVertex
 10
64.723608
 20
158.40085
 30
0.0
  0
SEQEND
  5
246
330
245
100
AcDbEntity
  8
001
370
    50
  0
POLYLINE
  5
24D
330
1F
100
AcDbEntity
  8
001
370
    50
100
AcDb2dPolyline
 66
     1
 10
0.0
 20
0.0
 30
0.0
  0
VERTEX
  5
24F
330
24D
100
AcDbEntity
  8
001
370
    50
100
AcDbVertex
100
AcDb2dVertex
 10
73.80295
 20
159.54096
 30
0.0
  0
VERTEX
  5
250
330
24D
100
AcDbEntity
  8
001
370
    50
100
AcDbVertex
100
AcDb2dVertex
 10
74.15743
 20
159.614029
 30
0.0
  0
VERTEX
  5
251
330
24D
100
AcDbEntity
  8
001
370
    50
100
AcDbVertex
100
AcDb2dVertex
 10
74.500546
 20
159.719619
 30
0.0
  0
VERTEX
  5
252
330
24D
100
AcDbEntity
  8
001
370
    50
100
AcDbVertex
100
AcDb2dVertex
 10
74.658441
 20
159.790664
 30
0.0
  0
VERTEX
  5
253
330
24D
100
AcDbEntity
  8
001
370
    50
100
AcDbVertex
100
AcDb2dVertex
 10
74.81061
 20
159.874594
 30
0.0
  0
VERTEX
  5
254
330
24D
100
AcDbEntity
  8
001
370
    50
100
AcDbVertex
100
AcDb2dVertex
 10
74.949395
 20
159.965507
 30
0.0
  0
VERTEX
  5
255
330
24D
100
AcDbEntity
  8
001
370
    50
100
AcDbVertex
100
AcDb2dVertex
 10
75.07815
 20
160.069134
 30
0.0
  0
VERTEX
  5
256
330
24D
100
AcDbEntity
  8
001
370
    50
100
AcDbVertex
100
AcDb2dVertex
 10
75.165803
 20
160.155325
 30
0.0
  0
VERTEX
  5
257
330
24D
100
AcDbEntity
  8
001
370
    50
100
AcDbVertex
100
AcDb2dVertex
 10
75.249463
 20
160.24586
 30
0.0
  0
SEQEND
  5
24E
330
24D
100
AcDbEntity
  8
001
370
    50
  0
POLYLINE
  5
258
330
1F
100
AcDbEntity
  8
001
370
    50
100
AcDb2dPolyline
 66
     1
 10
0.0
 20
0.0
 30
0.0
  0
VERTEX
  5
25A
330
258
100
AcDbEntity
  8
001
370
    50
100
AcDbVertex
100
AcDb2dVertex
 10
75.454638
 20
161.291405
 30
0.0
  0
VERTEX
  5
25B
330
258
100
AcDbEntity
  8
001
370
    50
100
AcDbVertex
100
AcDb2dVertex
 10
74.800932
 20
162.927551
 30
0.0
  0
VERTEX
  5
25C
330
258
100
AcDbEntity
  8
001
370
    50
100
AcDbVertex
100
AcDb2dVertex
 10
73.736877
 20
165.23556
 30
0.0
  0
VERTEX
  5
25D
330
258
100
AcDbEntity
  8
001
370
    50
100
AcDbVertex
100
AcDb2dVertex
 10
72.426851
 20
167.615631
 30
0.0
  0
VERTEX
  5
25E
330
258
100
AcDbEntity
  8
001
370
    50
100
AcDbVertex
100
AcDb2dVertex
 10
71.072512
 20
169.518387
 30
0.0
  0
VERTEX
  5
25F
330
258
100
AcDbEntity
  8
001
370
    50
100
AcDbVertex
100
AcDb2dVertex
 10
69.638221
 20
171.101587
 30
0.0
  0
VERTEX
  5
260
330
258
100
AcDbEntity
  8
001
370
    50
100
AcDbVertex
100
AcDb2dVertex
 10
68.257417
 20
172.332589
 30
0.0
  0
VERTEX
  5
261
330
258
100
AcDbEntity
  8
001
370
    50
100
AcDbVertex
100
AcDb2dVertex
 10
66.486994
 20
173.421822
 30
0.0
  0
VERTEX
  5
262
330
258
100
AcDbEntity
  8
001
370
    50
100
AcDbVertex
100
AcDb2dVertex
 10
65.466664
 20
173.872418
 30
0.0
  0
VERTEX
  5
263
330
258
100
AcDbEntity
  8
001
370
    50
100
AcDbVertex
100
AcDb2dVertex
 10
64.723608
 20
174.146743
 30
0.0
  0
SEQEND
  5
259
330
258
100
AcDbEntity
  8
001
370
    50
  0
LINE
  5
264
330
1F
100
AcDbEntity
  8
001
370
    50
100
AcDbLine
 10
78.193125
 20
174.585947
 30
0.0
 11
78.193125
 21
90.885947
 31
0.0
  0
LINE
  5
265
330
1F
100
AcDbEntity
  8
001
370
    50
100
AcDbLine
 10
78.193125
 20
90.885947
 30
0.0
 11
86.193125
 21
104.742354
 31
0.0
  0
LINE
  5
266
330
1F
100
AcDbEntity
  8
001
370
    50
100
AcDbLine
 10
86.193125
 20
160.729541
 30
0.0
 11
78.193125
 21
174.585947
 31
0.0
  0
LINE
  5
267
330
1F
100
AcDbEntity
  8
001
370
    50
100
AcDbLine
 10
86.193125
 20
160.729541
 30
0.0
 11
86.193125
 21
104.742354
 31
0.0
  0
POLYLINE
  5
268
330
1F
100
AcDbEntity
  8
001
370
    50
100
AcDb2dPolyline
 66
     1
 10
0.0
 20
0.0
 30
0.0
  0
VERTEX
  5
26A
330
268
100
AcDbEntity
  8
001
370
    50
100
AcDbVertex
100
AcDb2dVertex
 10
64.723608
 20
157.41236
 30
0.0
  0
VERTEX
  5
26B
330
268
100
AcDbEntity
  8
001
370
    50
100
AcDbVertex
100
AcDb2dVertex
 10
64.717245
 20
157.431449
 30
0.0
  0
VERTEX
  5
26C
330
268
100
AcDbEntity
  8
001
370
    50
100
AcDbVertex
100
AcDb2dVertex
 10
64.707929
 20
157.459343
 30
0.0
  0
VERTEX
  5
26D
330
268
100
AcDbEntity
  8
001
370
    50
100
AcDbVertex
100
AcDb2dVertex
 10
64.698597
 20
157.487198
 30
0.0
  0
VERTEX
  5
26E
330
268
100
AcDbEntity
  8
001
370
    50
100
AcDbVertex
100
AcDb2dVertex
 10
64.692201
 20
157.506253
 30
0.0
  0
SEQEND
  5
269
330
268
100
AcDbEntity
  8
001
370
    50
  0
POLYLINE
  5
26F
330
1F
100
AcDbEntity
  8
001
370
    50
100
AcDb2dPolyline
 66
     1
 10
0.0
 20
0.0
 30
0.0
  0
VERTEX
  5
271
330
26F
100
AcDbEntity
  8
001
370
    50
100
AcDbVertex
100
AcDb2dVertex
 10
32.093125
 20
130.422209
 30
0.0
  0
VERTEX
  5
272
330
26F
100
AcDbEntity
  8
001
370
    50
100
AcDbVertex
100
AcDb2dVertex
 10
34.019756
 20
129.747045
 30
0.0
  0
VERTEX
  5
273
330
26F
100
AcDbEntity
  8
001
370
    50
100
AcDbVertex
100
AcDb2dVertex
 10
35.946415
 20
129.07196
 30
0.0
  0
VERTEX
  5
274
330
26F
100
AcDbEntity
  8
001
370
    50
100
AcDbVertex
100
AcDb2dVertex
 10
38.175677
 20
128.291039
 30
0.0
  0
VERTEX
  5
275
330
26F
100
AcDbEntity
  8
001
370
    50
100
AcDbVertex
100
AcDb2dVertex
 10
40.404993
 20
127.510275
 30
0.0
  0
VERTEX
  5
276
330
26F
100
AcDbEntity
  8
001
370
    50
100
AcDbVertex
100
AcDb2dVertex
 10
42.634347
 20
126.729616
 30
0.0
  0
VERTEX
  5
277
330
26F
100
AcDbEntity
  8
001
370
    50
100
AcDbVertex
100
AcDb2dVertex
 10
44.863719
 20
125.94901
 30
0.0
  0
SEQEND
  5
270
330
26F
100
AcDbEntity
  8
001
370
    50
  0
POLYLINE
  5
278
330
1F
100
AcDbEntity
  8
001
370
    50
100
AcDb2dPolyline
 66
     1
 10
0.0
 20
0.0
 30
0.0
  0
VERTEX
  5
27A
330
278
100
AcDbEntity
  8
001
370
    50
100
AcDbVertex
100
AcDb2dVertex
 10
44.863719
 20
148.251121
 30
0.0
  0
VERTEX
  5
27B
330
278
100
AcDbEntity
  8
001
370
    50
100
AcDbVertex
100
AcDb2dVertex
 10
43.556344
 20
146.715183
 30
0.0
  0
VERTEX
  5
27C
330
278
100
AcDbEntity
  8
001
370
    50
100
AcDbVertex
100
AcDb2dVertex
 10
42.249891
 20
145.178477
 30
0.0
  0
VERTEX
  5
27D
330
278
100
AcDbEntity
  8
001
370
    50
100
AcDbVertex
100
AcDb2dVertex
 10
40.945279
 20
143.640234
 30
0.0
  0
VERTEX
  5
27E
330
278
100
AcDbEntity
  8
001
370
    50
100
AcDbVertex
100
AcDb2dVertex
 10
39.643431
 20
142.099687
 30
0.0
  0
VERTEX
  5
27F
330
278
100
AcDbEntity
  8
001
370
    50
100
AcDbVertex
100
AcDb2dVertex
 10
38.345267
 20
140.556066
 30
0.0
  0
VERTEX
  5
280
330
278
100
AcDbEntity
  8
001
370
    50
100
AcDbVertex
100
AcDb2dVertex
 10
36.738982
 20
138.632867
 30
0.0
  0
VERTEX
  5
281
330
278
100
AcDbEntity
  8
001
370
    50
100
AcDbVertex
100
AcDb2dVertex
 10
35.141525
 20
136.702169
 30
0.0
  0
VERTEX
  5
282
330
278
100
AcDbEntity
  8
001
370
    50
100
AcDbVertex
100
AcDb2dVertex
 10
34.354541
 20
135.740524
 30
0.0
  0
VERTEX
  5
283
330
278
100
AcDbEntity
  8
001
370
    50
100
AcDbVertex
100
AcDb2dVertex
 10
33.578326
 20
134.770329
 30
0.0
  0
VERTEX
  5
284
330
278
100
AcDbEntity
  8
001
370
    50
100
AcDbVertex
100
AcDb2dVertex
 10
32.831152
 20
133.804691
 30
0.0
  0
VERTEX
  5
285
330
278
100
AcDbEntity
  8
001
370
    50
100
AcDbVertex
100
AcDb2dVertex
 10
32.093125
 20
132.831874
 30
0.0
  0
SEQEND
  5
279
330
278
100
AcDbEntity
  8
001
370
    50
  0
LINE
  5
286
330
1F
100
AcDbEntity
  8
001
370
    50
100
AcDbLine
 10
64.723608
 20
158.40085
 30
0.0
 11
64.538193
 21
158.343611
 31
0.0
  0
POLYLINE
  5
287
330
1F
100
AcDbEntity
  8
001
370
    50
100
AcDb2dPolyline
 66
     1
 10
0.0
 20
0.0
 30
0.0
  0
VERTEX
  5
289
330
287
100
AcDbEntity
  8
001
370
    50
100
AcDbVertex
100
AcDb2dVertex
 10
75.249463
 20
160.24586
 30
0.0
  0
VERTEX
  5
28A
330
287
100
AcDbEntity
  8
001
370
    50
100
AcDbVertex
100
AcDb2dVertex
 10
75.338274
 20
160.373793
 30
0.0
  0
VERTEX
  5
28B
330
287
100
AcDbEntity
  8
001
370
    50
100
AcDbVertex
100
AcDb2dVertex
 10
75.416452
 20
160.508445
 30
0.0
  0
VERTEX
  5
28C
330
287
100
AcDbEntity
  8
001
370
    50
100
AcDbVertex
100
AcDb2dVertex
 10
75.493977
 20
160.726863
 30
0.0
  0
VERTEX
  5
28D
330
287
100
AcDbEntity
  8
001
370
    50
100
AcDbVertex
100
AcDb2dVertex
 10
75.515858
 20
160.956435
 30
0.0
  0
VERTEX
  5
28E
330
287
100
AcDbEntity
  8
001
370
    50
100
AcDbVertex
100
AcDb2dVertex
 10
75.494201
 20
161.124872
 30
0.0
  0
VERTEX
  5
28F
330
287
100
AcDbEntity
  8
001
370
    50
100
AcDbVertex
100
AcDb2dVertex
 10
75.454638
 20
161.291405
 30
0.0
  0
SEQEND
  5
288
330
287
100
AcDbEntity
  8
001
370
    50
  0
POLYLINE
  5
290
330
1F
100
AcDbEntity
  8
001
370
    50
100
AcDb2dPolyline
 66
     1
 10
0.0
 20
0.0
 30
0.0
  0
VERTEX
  5
292
330
290
100
AcDbEntity
  8
001
370
    50
100
AcDbVertex
100
AcDb2dVertex
 10
61.705629
 20
173.499408
 30
0.0
  0
VERTEX
  5
293
330
290
100
AcDbEntity
  8
001
370
    50
100
AcDbVertex
100
AcDb2dVertex
 10
61.499065
 20
173.422692
 30
0.0
  0
VERTEX
  5
294
330
290
100
AcDbEntity
  8
001
370
    50
100
AcDbVertex
100
AcDb2dVertex
 10
61.199389
 20
173.304899
 30
0.0
  0
VERTEX
  5
295
330
290
100
AcDbEntity
  8
001
370
    50
100
AcDbVertex
100
AcDb2dVertex
 10
60.897889
 20
173.177173
 30
0.0
  0
VERTEX
  5
296
330
290
100
AcDbEntity
  8
001
370
    50
100
AcDbVertex
100
AcDb2dVertex
 10
60.693234
 20
173.085925
 30
0.0
  0
SEQEND
  5
291
330
290
100
AcDbEntity
  8
001
370
    50
  0
LINE
  5
297
330
1F
100
AcDbEntity
  8
001
370
    50
100
AcDbLine
 10
88.193125
 20
148.735947
 30
0.0
 11
158.193125
 21
148.735947
 31
0.0
  0
LINE
  5
298
330
1F
100
AcDbEntity
  8
001
370
    50
100
AcDbLine
 10
88.193125
 20
116.735947
 30
0.0
 11
158.193125
 21
116.735947
 31
0.0
  0
ARC
  5
299
330
1F
100
AcDbEntity
  8
001
370
    50
100
AcDbCircle
 10
158.193125
 20
140.735947
 30
0.0
 40
8.0
100
AcDbArc
 50
0.0
 51
90.0
  0
ARC
  5
29A
330
1F
100
AcDbEntity
  8
001
370
    50
100
AcDbCircle
 10
158.193125
 20
124.735947
 30
0.0
 40
8.0
100
AcDbArc
 50
270.0
 51
0.0
  0
LINE
  5
29B
330
1F
100
AcDbEntity
  8
001
370
    50
100
AcDbLine
 10
166.193125
 20
140.735947
 30
0.0
 11
166.193125
 21
124.735947
 31
0.0
  0
POLYLINE
  5
29C
330
1F
100
AcDbEntity
  8
001
370
    50
100
AcDb2dPolyline
 66
     1
 10
0.0
 20
0.0
 30
0.0
  0
VERTEX
  5
29E
330
29C
100
AcDbEntity
  8
001
370
    50
100
AcDbVertex
100
AcDb2dVertex
 10
47.742184
 20
166.772235
 30
0.0
  0
VERTEX
  5
29F
330
29C
100
AcDbEntity
  8
001
370
    50
100
AcDbVertex
100
AcDb2dVertex
 10
48.541099
 20
167.103948
 30
0.0
  0
VERTEX
  5
2A0
330
29C
100
AcDbEntity
  8
001
370
    50
100
AcDbVertex
100
AcDb2dVertex
 10
49.337579
 20
167.441361
 30
0.0
  0
VERTEX
  5
2A1
330
29C
100
AcDbEntity
  8
001
370
    50
100
AcDbVertex
100
AcDb2dVertex
 10
50.118134
 20
167.783746
 30
0.0
  0
VERTEX
  5
2A2
330
29C
100
AcDbEntity
  8
001
370
    50
100
AcDbVertex
100
AcDb2dVertex
 10
50.894582
 20
168.135417
 30
0.0
  0
VERTEX
  5
2A3
330
29C
100
AcDbEntity
  8
001
370
    50
100
AcDbVertex
100
AcDb2dVertex
 10
51.595257
 20
168.460915
 30
0.0
  0
VERTEX
  5
2A4
330
29C
100
AcDbEntity
  8
001
370
    50
100
AcDbVertex
100
AcDb2dVertex
 10
52.293065
 20
168.792483
 30
0.0
  0
VERTEX
  5
2A5
330
29C
100
AcDbEntity
  8
001
370
    50
100
AcDbVertex
100
AcDb2dVertex
 10
52.969883
 20
169.121033
 30
0.0
  0
VERTEX
  5
2A6
330
29C
100
AcDbEntity
  8
001
370
    50
100
AcDbVertex
100
AcDb2dVertex
 10
53.644208
 20
169.454679
 30
0.0
  0
VERTEX
  5
2A7
330
29C
100
AcDbEntity
  8
001
370
    50
100
AcDbVertex
100
AcDb2dVertex
 10
54.289807
 20
169.779471
 30
0.0
  0
VERTEX
  5
2A8
330
29C
100
AcDbEntity
  8
001
370
    50
100
AcDbVertex
100
AcDb2dVertex
 10
54.933461
 20
170.108094
 30
0.0
  0
VERTEX
  5
2A9
330
29C
100
AcDbEntity
  8
001
370
    50
100
AcDbVertex
100
AcDb2dVertex
 10
55.540573
 20
170.422096
 30
0.0
  0
VERTEX
  5
2AA
330
29C
100
AcDbEntity
  8
001
370
    50
100
AcDbVertex
100
AcDb2dVertex
 10
56.146274
 20
170.738815
 30
0.0
  0
VERTEX
  5
2AB
330
29C
100
AcDbEntity
  8
001
370
    50
100
AcDbVertex
100
AcDb2dVertex
 10
56.853423
 20
171.112034
 30
0.0
  0
VERTEX
  5
2AC
330
29C
100
AcDbEntity
  8
001
370
    50
100
AcDbVertex
100
AcDb2dVertex
 10
57.559856
 20
171.486589
 30
0.0
  0
VERTEX
  5
2AD
330
29C
100
AcDbEntity
  8
001
370
    50
100
AcDbVertex
100
AcDb2dVertex
 10
58.197382
 20
171.824195
 30
0.0
  0
VERTEX
  5
2AE
330
29C
100
AcDbEntity
  8
001
370
    50
100
AcDbVertex
100
AcDb2dVertex
 10
58.835722
 20
172.160326
 30
0.0
  0
VERTEX
  5
2AF
330
29C
100
AcDbEntity
  8
001
370
    50
100
AcDbVertex
100
AcDb2dVertex
 10
59.392356
 20
172.449789
 30
0.0
  0
VERTEX
  5
2B0
330
29C
100
AcDbEntity
  8
001
370
    50
100
AcDbVertex
100
AcDb2dVertex
 10
59.952743
 20
172.731764
 30
0.0
  0
VERTEX
  5
2B1
330
29C
100
AcDbEntity
  8
001
370
    50
100
AcDbVertex
100
AcDb2dVertex
 10
60.322302
 20
172.910241
 30
0.0
  0
VERTEX
  5
2B2
330
29C
100
AcDbEntity
  8
001
370
    50
100
AcDbVertex
100
AcDb2dVertex
 10
60.693234
 20
173.085925
 30
0.0
  0
SEQEND
  5
29D
330
29C
100
AcDbEntity
  8
001
370
    50
  0
LINE
  5
2B3
330
1F
100
AcDbEntity
  8
001
370
    50
100
AcDbLine
 10
75.506678
 20
91.898865
 30
0.0
 11
75.454638
 21
91.962818
 31
0.0
  0
LINE
  5
2B4
330
1F
100
AcDbEntity
  8
001
370
    50
100
AcDbLine
 10
64.723608
 20
91.275687
 30
0.0
 11
64.412881
 21
91.38182
 31
0.0
  0
LINE
  5
2B5
330
1F
100
AcDbEntity
  8
001
370
    50
100
AcDbLine
 10
64.412881
 20
91.38182
 30
0.0
 11
61.454348
 21
97.708105
 31
0.0
  0
POLYLINE
  5
2B6
330
1F
100
AcDbEntity
  8
001
370
    50
100
AcDb2dPolyline
 66
     1
 10
0.0
 20
0.0
 30
0.0
  0
VERTEX
  5
2B8
330
2B6
100
AcDbEntity
  8
001
370
    50
100
AcDbVertex
100
AcDb2dVertex
 10
61.454348
 20
97.708105
 30
0.0
  0
VERTEX
  5
2B9
330
2B6
100
AcDbEntity
  8
001
370
    50
100
AcDbVertex
100
AcDb2dVertex
 10
61.458701
 20
97.812768
 30
0.0
  0
VERTEX
  5
2BA
330
2B6
100
AcDbEntity
  8
001
370
    50
100
AcDbVertex
100
AcDb2dVertex
 10
61.462208
 20
97.960313
 30
0.0
  0
VERTEX
  5
2BB
330
2B6
100
AcDbEntity
  8
001
370
    50
100
AcDbVertex
100
AcDb2dVertex
 10
61.452877
 20
98.321155
 30
0.0
  0
VERTEX
  5
2BC
330
2B6
100
AcDbEntity
  8
001
370
    50
100
AcDbVertex
100
AcDb2dVertex
 10
61.402195
 20
98.654906
 30
0.0
  0
VERTEX
  5
2BD
330
2B6
100
AcDbEntity
  8
001
370
    50
100
AcDbVertex
100
AcDb2dVertex
 10
61.241138
 20
99.239638
 30
0.0
  0
VERTEX
  5
2BE
330
2B6
100
AcDbEntity
  8
001
370
    50
100
AcDbVertex
100
AcDb2dVertex
 10
61.082135
 20
99.672269
 30
0.0
  0
SEQEND
  5
2B7
330
2B6
100
AcDbEntity
  8
001
370
    50
  0
LINE
  5
2BF
330
1F
100
AcDbEntity
  8
001
370
    50
100
AcDbLine
 10
61.082135
 20
99.672269
 30
0.0
 11
57.647161
 21
107.017337
 31
0.0
  0
POLYLINE
  5
2C0
330
1F
100
AcDbEntity
  8
001
370
    50
100
AcDb2dPolyline
 66
     1
 10
0.0
 20
0.0
 30
0.0
  0
VERTEX
  5
2C2
330
2C0
100
AcDbEntity
  8
001
370
    50
100
AcDbVertex
100
AcDb2dVertex
 10
57.647161
 20
107.017337
 30
0.0
  0
VERTEX
  5
2C3
330
2C0
100
AcDbEntity
  8
001
370
    50
100
AcDbVertex
100
AcDb2dVertex
 10
57.589074
 20
107.135781
 30
0.0
  0
VERTEX
  5
2C4
330
2C0
100
AcDbEntity
  8
001
370
    50
100
AcDbVertex
100
AcDb2dVertex
 10
57.498007
 20
107.305381
 30
0.0
  0
VERTEX
  5
2C5
330
2C0
100
AcDbEntity
  8
001
370
    50
100
AcDbVertex
100
AcDb2dVertex
 10
56.895381
 20
108.094661
 30
0.0
  0
VERTEX
  5
2C6
330
2C0
100
AcDbEntity
  8
001
370
    50
100
AcDbVertex
100
AcDb2dVertex
 10
56.382415
 20
108.553512
 30
0.0
  0
SEQEND
  5
2C1
330
2C0
100
AcDbEntity
  8
001
370
    50
  0
LINE
  5
2C7
330
1F
100
AcDbEntity
  8
001
370
    50
100
AcDbLine
 10
56.382415
 20
108.553512
 30
0.0
 11
53.556085
 21
114.597105
 31
0.0
  0
POLYLINE
  5
2C8
330
1F
100
AcDbEntity
  8
001
370
    50
100
AcDb2dPolyline
 66
     1
 10
0.0
 20
0.0
 30
0.0
  0
VERTEX
  5
2CA
330
2C8
100
AcDbEntity
  8
001
370
    50
100
AcDbVertex
100
AcDb2dVertex
 10
50.407447
 20
121.012589
 30
0.0
  0
VERTEX
  5
2CB
330
2C8
100
AcDbEntity
  8
001
370
    50
100
AcDbVertex
100
AcDb2dVertex
 10
50.118351
 20
120.997822
 30
0.0
  0
VERTEX
  5
2CC
330
2C8
100
AcDbEntity
  8
001
370
    50
100
AcDbVertex
100
AcDb2dVertex
 10
49.721501
 20
120.95182
 30
0.0
  0
VERTEX
  5
2CD
330
2C8
100
AcDbEntity
  8
001
370
    50
100
AcDbVertex
100
AcDb2dVertex
 10
49.367783
 20
120.873917
 30
0.0
  0
VERTEX
  5
2CE
330
2C8
100
AcDbEntity
  8
001
370
    50
100
AcDbVertex
100
AcDb2dVertex
 10
49.056398
 20
120.77136
 30
0.0
  0
VERTEX
  5
2CF
330
2C8
100
AcDbEntity
  8
001
370
    50
100
AcDbVertex
100
AcDb2dVertex
 10
48.751382
 20
120.64666
 30
0.0
  0
VERTEX
  5
2D0
330
2C8
100
AcDbEntity
  8
001
370
    50
100
AcDbVertex
100
AcDb2dVertex
 10
48.432345
 20
120.476691
 30
0.0
  0
VERTEX
  5
2D1
330
2C8
100
AcDbEntity
  8
001
370
    50
100
AcDbVertex
100
AcDb2dVertex
 10
48.011088
 20
120.184325
 30
0.0
  0
VERTEX
  5
2D2
330
2C8
100
AcDbEntity
  8
001
370
    50
100
AcDbVertex
100
AcDb2dVertex
 10
47.722116
 20
119.946197
 30
0.0
  0
SEQEND
  5
2C9
330
2C8
100
AcDbEntity
  8
001
370
    50
  0
LINE
  5
2D3
330
1F
100
AcDbEntity
  8
001
370
    50
100
AcDbLine
 10
47.722116
 20
119.946197
 30
0.0
 11
43.828289
 21
121.354858
 31
0.0
  0
POLYLINE
  5
2D4
330
1F
100
AcDbEntity
  8
001
370
    50
100
AcDb2dPolyline
 66
     1
 10
0.0
 20
0.0
 30
0.0
  0
VERTEX
  5
2D6
330
2D4
100
AcDbEntity
  8
001
370
    50
100
AcDbVertex
100
AcDb2dVertex
 10
43.828289
 20
121.354858
 30
0.0
  0
VERTEX
  5
2D7
330
2D4
100
AcDbEntity
  8
001
370
    50
100
AcDbVertex
100
AcDb2dVertex
 10
43.41761
 20
121.737531
 30
0.0
  0
VERTEX
  5
2D8
330
2D4
100
AcDbEntity
  8
001
370
    50
100
AcDbVertex
100
AcDb2dVertex
 10
42.839614
 20
122.174499
 30
0.0
  0
VERTEX
  5
2D9
330
2D4
100
AcDbEntity
  8
001
370
    50
100
AcDbVertex
100
AcDb2dVertex
 10
42.554898
 20
122.332089
 30
0.0
  0
VERTEX
  5
2DA
330
2D4
100
AcDbEntity
  8
001
370
    50
100
AcDbVertex
100
AcDb2dVertex
 10
42.215561
 20
122.469168
 30
0.0
  0
VERTEX
  5
2DB
330
2D4
100
AcDbEntity
  8
001
370
    50
100
AcDbVertex
100
AcDb2dVertex
 10
42.202494
 20
122.473949
 30
0.0
  0
VERTEX
  5
2DC
330
2D4
100
AcDbEntity
  8
001
370
    50
100
AcDbVertex
100
AcDb2dVertex
 10
42.19351
 20
122.47722
 30
0.0
  0
SEQEND
  5
2D5
330
2D4
100
AcDbEntity
  8
001
370
    50
  0
LINE
  5
2DD
330
1F
100
AcDbEntity
  8
001
370
    50
100
AcDbLine
 10
42.19351
 20
122.47722
 30
0.0
 11
38.355456
 21
123.865705
 31
0.0
  0
POLYLINE
  5
2DE
330
1F
100
AcDbEntity
  8
001
370
    50
100
AcDb2dPolyline
 66
     1
 10
0.0
 20
0.0
 30
0.0
  0
VERTEX
  5
2E0
330
2DE
100
AcDbEntity
  8
001
370
    50
100
AcDbVertex
100
AcDb2dVertex
 10
38.355456
 20
123.865705
 30
0.0
  0
VERTEX
  5
2E1
330
2DE
100
AcDbEntity
  8
001
370
    50
100
AcDbVertex
100
AcDb2dVertex
 10
38.097053
 20
123.947812
 30
0.0
  0
VERTEX
  5
2E2
330
2DE
100
AcDbEntity
  8
001
370
    50
100
AcDbVertex
100
AcDb2dVertex
 10
37.712403
 20
124.038114
 30
0.0
  0
VERTEX
  5
2E3
330
2DE
100
AcDbEntity
  8
001
370
    50
100
AcDbVertex
100
AcDb2dVertex
 10
37.306705
 20
124.087377
 30
0.0
  0
VERTEX
  5
2E4
330
2DE
100
AcDbEntity
  8
001
370
    50
100
AcDbVertex
100
AcDb2dVertex
 10
37.026457
 20
124.098883
 30
0.0
  0
SEQEND
  5
2DF
330
2DE
100
AcDbEntity
  8
001
370
    50
  0
LINE
  5
2E5
330
1F
100
AcDbEntity
  8
001
370
    50
100
AcDbLine
 10
36.388427
 20
124.046362
 30
0.0
 11
32.093125
 21
125.600264
 31
0.0
  0
POLYLINE
  5
2E6
330
1F
100
AcDbEntity
  8
001
370
    50
100
AcDb2dPolyline
 66
     1
 10
0.0
 20
0.0
 30
0.0
  0
VERTEX
  5
2E8
330
2E6
100
AcDbEntity
  8
001
370
    50
100
AcDbVertex
100
AcDb2dVertex
 10
64.723608
 20
174.146743
 30
0.0
  0
VERTEX
  5
2E9
330
2E6
100
AcDbEntity
  8
001
370
    50
100
AcDbVertex
100
AcDb2dVertex
 10
64.101805
 20
174.082715
 30
0.0
  0
VERTEX
  5
2EA
330
2E6
100
AcDbEntity
  8
001
370
    50
100
AcDbVertex
100
AcDb2dVertex
 10
63.202682
 20
173.930916
 30
0.0
  0
VERTEX
  5
2EB
330
2E6
100
AcDbEntity
  8
001
370
    50
100
AcDbVertex
100
AcDb2dVertex
 10
62.307985
 20
173.697137
 30
0.0
  0
VERTEX
  5
2EC
330
2E6
100
AcDbEntity
  8
001
370
    50
100
AcDbVertex
100
AcDb2dVertex
 10
61.705629
 20
173.499408
 30
0.0
  0
SEQEND
  5
2E7
330
2E6
100
AcDbEntity
  8
001
370
    50
  0
LINE
  5
2ED
330
1F
100
AcDbEntity
  8
001
370
    50
100
AcDbLine
 10
64.723608
 20
174.585947
 30
0.0
 11
61.705629
 21
173.499408
 31
0.0
  0
LINE
  5
2EE
330
1F
100
AcDbEntity
  8
001
370
    50
100
AcDbLine
 10
44.863719
 20
165.60009
 30
0.0
 11
47.742184
 21
166.772235
 31
0.0
  0
POLYLINE
  5
2EF
330
1F
100
AcDbEntity
  8
001
370
    50
100
AcDb2dPolyline
 66
     1
 10
0.0
 20
0.0
 30
0.0
  0
VERTEX
  5
2F1
330
2EF
100
AcDbEntity
  8
001
370
    50
100
AcDbVertex
100
AcDb2dVertex
 10
64.412881
 20
91.38182
 30
0.0
  0
VERTEX
  5
2F2
330
2EF
100
AcDbEntity
  8
001
370
    50
100
AcDbVertex
100
AcDb2dVertex
 10
64.476566
 20
91.327262
 30
0.0
  0
VERTEX
  5
2F3
330
2EF
100
AcDbEntity
  8
001
370
    50
100
AcDbVertex
100
AcDb2dVertex
 10
64.570499
 20
91.248545
 30
0.0
  0
VERTEX
  5
2F4
330
2EF
100
AcDbEntity
  8
001
370
    50
100
AcDbVertex
100
AcDb2dVertex
 10
64.661071
 20
91.174984
 30
0.0
  0
VERTEX
  5
2F5
330
2EF
100
AcDbEntity
  8
001
370
    50
100
AcDbVertex
100
AcDb2dVertex
 10
64.723608
 20
91.12535
 30
0.0
  0
SEQEND
  5
2F0
330
2EF
100
AcDbEntity
  8
001
370
    50
  0
POLYLINE
  5
2F6
330
1F
100
AcDbEntity
  8
001
370
    50
100
AcDb2dPolyline
 66
     1
 10
0.0
 20
0.0
 30
0.0
  0
VERTEX
  5
2F8
330
2F6
100
AcDbEntity
  8
001
370
    50
100
AcDbVertex
100
AcDb2dVertex
 10
50.766083
 20
120.99607
 30
0.0
  0
VERTEX
  5
2F9
330
2F6
100
AcDbEntity
  8
001
370
    50
100
AcDbVertex
100
AcDb2dVertex
 10
50.629959
 20
120.980124
 30
0.0
  0
VERTEX
  5
2FA
330
2F6
100
AcDbEntity
  8
001
370
    50
100
AcDbVertex
100
AcDb2dVertex
 10
50.438773
 20
120.95182
 30
0.0
  0
VERTEX
  5
2FB
330
2F6
100
AcDbEntity
  8
001
370
    50
100
AcDbVertex
100
AcDb2dVertex
 10
50.08081
 20
120.872366
 30
0.0
  0
VERTEX
  5
2FC
330
2F6
100
AcDbEntity
  8
001
370
    50
100
AcDbVertex
100
AcDb2dVertex
 10
49.773669
 20
120.77136
 30
0.0
  0
VERTEX
  5
2FD
330
2F6
100
AcDbEntity
  8
001
370
    50
100
AcDbVertex
100
AcDb2dVertex
 10
49.469808
 20
120.647082
 30
0.0
  0
VERTEX
  5
2FE
330
2F6
100
AcDbEntity
  8
001
370
    50
100
AcDbVertex
100
AcDb2dVertex
 10
49.149616
 20
120.476691
 30
0.0
  0
VERTEX
  5
2FF
330
2F6
100
AcDbEntity
  8
001
370
    50
100
AcDbVertex
100
AcDb2dVertex
 10
48.728034
 20
120.184206
 30
0.0
  0
VERTEX
  5
300
330
2F6
100
AcDbEntity
  8
001
370
    50
100
AcDbVertex
100
AcDb2dVertex
 10
48.439387
 20
119.946197
 30
0.0
  0
SEQEND
  5
2F7
330
2F6
100
AcDbEntity
  8
001
370
    50
  0
POLYLINE
  5
301
330
1F
100
AcDbEntity
  8
001
370
    50
100
AcDb2dPolyline
 66
     1
 10
0.0
 20
0.0
 30
0.0
  0
VERTEX
  5
303
330
301
100
AcDbEntity
  8
001
370
    50
100
AcDbVertex
100
AcDb2dVertex
 10
53.556085
 20
114.597105
 30
0.0
  0
VERTEX
  5
304
330
301
100
AcDbEntity
  8
001
370
    50
100
AcDbVertex
100
AcDb2dVertex
 10
53.673041
 20
114.766248
 30
0.0
  0
VERTEX
  5
305
330
301
100
AcDbEntity
  8
001
370
    50
100
AcDbVertex
100
AcDb2dVertex
 10
53.828426
 20
115.012589
 30
0.0
  0
VERTEX
  5
306
330
301
100
AcDbEntity
  8
001
370
    50
100
AcDbVertex
100
AcDb2dVertex
 10
54.142277
 20
115.675974
 30
0.0
  0
VERTEX
  5
307
330
301
100
AcDbEntity
  8
001
370
    50
100
AcDbVertex
100
AcDb2dVertex
 10
54.297641
 20
116.317997
 30
0.0
  0
VERTEX
  5
308
330
301
100
AcDbEntity
  8
001
370
    50
100
AcDbVertex
100
AcDb2dVertex
 10
54.340405
 20
116.661122
 30
0.0
  0
VERTEX
  5
309
330
301
100
AcDbEntity
  8
001
370
    50
100
AcDbVertex
100
AcDb2dVertex
 10
54.357653
 20
117.012589
 30
0.0
  0
VERTEX
  5
30A
330
301
100
AcDbEntity
  8
001
370
    50
100
AcDbVertex
100
AcDb2dVertex
 10
54.343308
 20
117.361938
 30
0.0
  0
VERTEX
  5
30B
330
301
100
AcDbEntity
  8
001
370
    50
100
AcDbVertex
100
AcDb2dVertex
 10
54.297641
 20
117.707182
 30
0.0
  0
VERTEX
  5
30C
330
301
100
AcDbEntity
  8
001
370
    50
100
AcDbVertex
100
AcDb2dVertex
 10
54.119231
 20
118.37863
 30
0.0
  0
VERTEX
  5
30D
330
301
100
AcDbEntity
  8
001
370
    50
100
AcDbVertex
100
AcDb2dVertex
 10
53.828426
 20
119.012589
 30
0.0
  0
VERTEX
  5
30E
330
301
100
AcDbEntity
  8
001
370
    50
100
AcDbVertex
100
AcDb2dVertex
 10
53.203731
 20
119.839374
 30
0.0
  0
VERTEX
  5
30F
330
301
100
AcDbEntity
  8
001
370
    50
100
AcDbVertex
100
AcDb2dVertex
 10
52.38255
 20
120.476691
 30
0.0
  0
VERTEX
  5
310
330
301
100
AcDbEntity
  8
001
370
    50
100
AcDbVertex
100
AcDb2dVertex
 10
52.07239
 20
120.638064
 30
0.0
  0
VERTEX
  5
311
330
301
100
AcDbEntity
  8
001
370
    50
100
AcDbVertex
100
AcDb2dVertex
 10
51.758497
 20
120.77136
 30
0.0
  0
VERTEX
  5
312
330
301
100
AcDbEntity
  8
001
370
    50
100
AcDbVertex
100
AcDb2dVertex
 10
51.444781
 20
120.876175
 30
0.0
  0
VERTEX
  5
313
330
301
100
AcDbEntity
  8
001
370
    50
100
AcDbVertex
100
AcDb2dVertex
 10
51.093394
 20
120.95182
 30
0.0
  0
VERTEX
  5
314
330
301
100
AcDbEntity
  8
001
370
    50
100
AcDbVertex
100
AcDb2dVertex
 10
50.697009
 20
120.997371
 30
0.0
  0
VERTEX
  5
315
330
301
100
AcDbEntity
  8
001
370
    50
100
AcDbVertex
100
AcDb2dVertex
 10
50.407447
 20
121.012589
 30
0.0
  0
SEQEND
  5
302
330
301
100
AcDbEntity
  8
001
370
    50
  0
LINE
  5
316
330
1F
100
AcDbEntity
  8
001
370
    50
100
AcDbLine
 10
47.722116
 20
119.946197
 30
0.0
 11
48.439387
 21
119.946197
 31
0.0
  0
POLYLINE
  5
317
330
1F
100
AcDbEntity
  8
001
370
    50
100
AcDb2dPolyline
 66
     1
 10
0.0
 20
0.0
 30
0.0
  0
VERTEX
  5
319
330
317
100
AcDbEntity
  8
001
370
    50
100
AcDbVertex
100
AcDb2dVertex
 10
32.093125
 20
140.886025
 30
0.0
  0
VERTEX
  5
31A
330
317
100
AcDbEntity
  8
001
370
    50
100
AcDbVertex
100
AcDb2dVertex
 10
33.056211
 20
142.753262
 30
0.0
  0
VERTEX
  5
31B
330
317
100
AcDbEntity
  8
001
370
    50
100
AcDbVertex
100
AcDb2dVertex
 10
34.019391
 20
144.62045
 30
0.0
  0
VERTEX
  5
31C
330
317
100
AcDbEntity
  8
001
370
    50
100
AcDbVertex
100
AcDb2dVertex
 10
34.982761
 20
146.48754
 30
0.0
  0
VERTEX
  5
31D
330
317
100
AcDbEntity
  8
001
370
    50
100
AcDbVertex
100
AcDb2dVertex
 10
35.946415
 20
148.354483
 30
0.0
  0
VERTEX
  5
31E
330
317
100
AcDbEntity
  8
001
370
    50
100
AcDbVertex
100
AcDb2dVertex
 10
37.728323
 20
151.804407
 30
0.0
  0
VERTEX
  5
31F
330
317
100
AcDbEntity
  8
001
370
    50
100
AcDbVertex
100
AcDb2dVertex
 10
39.511266
 20
155.253795
 30
0.0
  0
VERTEX
  5
320
330
317
100
AcDbEntity
  8
001
370
    50
100
AcDbVertex
100
AcDb2dVertex
 10
41.294985
 20
158.702783
 30
0.0
  0
VERTEX
  5
321
330
317
100
AcDbEntity
  8
001
370
    50
100
AcDbVertex
100
AcDb2dVertex
 10
43.079223
 20
162.151503
 30
0.0
  0
VERTEX
  5
322
330
317
100
AcDbEntity
  8
001
370
    50
100
AcDbVertex
100
AcDb2dVertex
 10
44.863719
 20
165.60009
 30
0.0
  0
SEQEND
  5
318
330
317
100
AcDbEntity
  8
001
370
    50
  0
LINE
  5
323
330
1F
100
AcDbEntity
  8
001
370
    50
100
AcDbLine
 10
32.093125
 20
138.046843
 30
0.0
 11
32.093125
 21
140.886025
 31
0.0
  0
POLYLINE
  5
324
330
1F
100
AcDbEntity
  8
001
370
    50
100
AcDb2dPolyline
 66
     1
 10
0.0
 20
0.0
 30
0.0
  0
VERTEX
  5
326
330
324
100
AcDbEntity
  8
001
370
    50
100
AcDbVertex
100
AcDb2dVertex
 10
37.385092
 20
124.082363
 30
0.0
  0
VERTEX
  5
327
330
324
100
AcDbEntity
  8
001
370
    50
100
AcDbVertex
100
AcDb2dVertex
 10
37.328147
 20
124.076627
 30
0.0
  0
VERTEX
  5
328
330
324
100
AcDbEntity
  8
001
370
    50
100
AcDbVertex
100
AcDb2dVertex
 10
37.245078
 20
124.066885
 30
0.0
  0
VERTEX
  5
329
330
324
100
AcDbEntity
  8
001
370
    50
100
AcDbVertex
100
AcDb2dVertex
 10
37.162244
 20
124.05525
 30
0.0
  0
VERTEX
  5
32A
330
324
100
AcDbEntity
  8
001
370
    50
100
AcDbVertex
100
AcDb2dVertex
 10
37.105698
 20
124.046362
 30
0.0
  0
SEQEND
  5
325
330
324
100
AcDbEntity
  8
001
370
    50
  0
POLYLINE
  5
32B
330
1F
100
AcDbEntity
  8
001
370
    50
100
AcDb2dPolyline
 66
     1
 10
0.0
 20
0.0
 30
0.0
  0
VERTEX
  5
32D
330
32B
100
AcDbEntity
  8
001
370
    50
100
AcDbVertex
100
AcDb2dVertex
 10
37.026457
 20
124.098883
 30
0.0
  0
VERTEX
  5
32E
330
32B
100
AcDbEntity
  8
001
370
    50
100
AcDbVertex
100
AcDb2dVertex
 10
36.896269
 20
124.096411
 30
0.0
  0
VERTEX
  5
32F
330
32B
100
AcDbEntity
  8
001
370
    50
100
AcDbVertex
100
AcDb2dVertex
 10
36.70639
 20
124.085731
 30
0.0
  0
VERTEX
  5
330
330
32B
100
AcDbEntity
  8
001
370
    50
100
AcDbVertex
100
AcDb2dVertex
 10
36.517288
 20
124.065215
 30
0.0
  0
VERTEX
  5
331
330
32B
100
AcDbEntity
  8
001
370
    50
100
AcDbVertex
100
AcDb2dVertex
 10
36.388427
 20
124.046362
 30
0.0
  0
SEQEND
  5
32C
330
32B
100
AcDbEntity
  8
001
370
    50
  0
LINE
  5
332
330
1F
100
AcDbEntity
  8
001
370
    50
100
AcDbLine
 10
36.388427
 20
124.046362
 30
0.0
 11
37.105698
 21
124.046362
 31
0.0
  0
LINE
  5
333
330
1F
100
AcDbEntity
  8
001
370
    50
100
AcDbLine
 10
32.093125
 20
132.831874
 30
0.0
 11
32.093125
 21
125.600264
 31
0.0
  0
LINE
  5
334
330
1F
100
AcDbEntity
  8
001
370
    50
100
AcDbLine
 10
88.193125
 20
116.735947
 30
0.0
 11
88.193125
 21
148.735947
 31
0.0
  0
LINE
  5
335
330
1F
100
AcDbEntity
  8
001
370
    50
100
AcDbLine
 10
88.193125
 20
148.235947
 30
0.0
 11
86.193125
 21
148.235947
 31
0.0
  0
LINE
  5
336
330
1F
100
AcDbEntity
  8
001
370
    50
100
AcDbLine
 10
86.193125
 20
117.235947
 30
0.0
 11
88.193125
 21
117.235947
 31
0.0
  0
LINE
  5
337
330
1F
100
AcDbEntity
  8
001
370
    50
100
AcDbLine
 10
166.193125
 20
132.735947
 30
0.0
 11
168.791201
 21
134.235947
 31
0.0
  0
LINE
  5
338
330
1F
100
AcDbEntity
  8
001
370
    50
100
AcDbLine
 10
166.193125
 20
132.735947
 30
0.0
 11
168.791201
 21
131.235947
 31
0.0
  0
LINE
  5
339
330
1F
100
AcDbEntity
  8
001
  6
CENTER
370
     9
100
AcDbLine
 10
29.330047
 20
132.735947
 30
0.0
 11
168.567176
 21
132.735947
 31
0.0
  0
ARC
  5
33A
330
1F
100
AcDbEntity
  8
001
370
    50
100
AcDbCircle
 10
47.837393
 20
109.79218
 30
0.0
 40
0.3950000000000001
100
AcDbArc
 50
13.633617
 51
166.366383
  0
ARC
  5
33B
330
1F
100
AcDbEntity
  8
001
370
    50
100
AcDbCircle
 10
46.776637
 20
110.049463
 30
0.0
 40
0.6965113125890092
100
AcDbArc
 50
253.633617
 51
346.366383
  0
ARC
  5
33C
330
1F
100
AcDbEntity
  8
001
370
    50
100
AcDbCircle
 10
46.469073
 20
109.00218
 30
0.0
 40
0.3950000000000001
100
AcDbArc
 50
73.633617
 51
226.366383
  0
ARC
  5
33D
330
1F
100
AcDbEntity
  8
001
370
    50
100
AcDbCircle
 10
45.715881
 20
108.21218
 30
0.0
 40
0.6965113125890092
100
AcDbArc
 50
313.633617
 51
46.366383
  0
ARC
  5
33E
330
1F
100
AcDbEntity
  8
001
370
    50
100
AcDbCircle
 10
46.469073
 20
107.42218
 30
0.0
 40
0.3950000000000001
100
AcDbArc
 50
133.633617
 51
286.366383
  0
ARC
  5
33F
330
1F
100
AcDbEntity
  8
001
370
    50
100
AcDbCircle
 10
46.776637
 20
106.374897
 30
0.0
 40
0.6965113125890092
100
AcDbArc
 50
13.633617
 51
106.366383
  0
ARC
  5
340
330
1F
100
AcDbEntity
  8
001
370
    50
100
AcDbCircle
 10
47.837393
 20
106.63218
 30
0.0
 40
0.3950000000000001
100
AcDbArc
 50
193.633617
 51
346.366383
  0
ARC
  5
341
330
1F
100
AcDbEntity
  8
001
370
    50
100
AcDbCircle
 10
48.898148
 20
106.374897
 30
0.0
 40
0.6965113125890092
100
AcDbArc
 50
73.633617
 51
166.366383
  0
ARC
  5
342
330
1F
100
AcDbEntity
  8
001
370
    50
100
AcDbCircle
 10
49.205713
 20
107.42218
 30
0.0
 40
0.3950000000000001
100
AcDbArc
 50
253.633617
 51
46.366383
  0
ARC
  5
343
330
1F
100
AcDbEntity
  8
001
370
    50
100
AcDbCircle
 10
49.958904
 20
108.21218
 30
0.0
 40
0.6965113125890092
100
AcDbArc
 50
133.633617
 51
226.366383
  0
ARC
  5
344
330
1F
100
AcDbEntity
  8
001
370
    50
100
AcDbCircle
 10
49.205713
 20
109.00218
 30
0.0
 40
0.3950000000000001
100
AcDbArc
 50
313.633617
 51
106.366383
  0
ARC
  5
345
330
1F
100
AcDbEntity
  8
001
370
    50
100
AcDbCircle
 10
48.898148
 20
110.049463
 30
0.0
 40
0.6965113125890092
100
AcDbArc
 50
193.633617
 51
286.366383
  0
CIRCLE
  5
346
330
1F
100
AcDbEntity
  8
001
370
    50
100
AcDbCircle
 10
47.837393
 20
108.21218
 30
0.0
 40
3.0
  0
ARC
  5
347
330
1F
100
AcDbEntity
  8
001
370
    50
100
AcDbCircle
 10
64.109358
 20
90.781641
 30
0.0
 40
0.5006940151299828
100
AcDbArc
 50
249.361846
 51
25.06348
  0
LINE
  5
348
330
1F
100
AcDbEntity
  8
001
370
    50
100
AcDbLine
 10
64.83537
 20
90.280947
 30
0.0
 11
64.08664
 21
90.280947
 31
0.0
  0
ARC
  5
349
330
1F
100
AcDbEntity
  8
001
370
    50
100
AcDbCircle
 10
64.83537
 20
90.781641
 30
0.0
 40
0.5006940151299828
100
AcDbArc
 50
270.0
 51
14.745673
  0
LINE
  5
34A
330
1F
100
AcDbEntity
  8
001
370
    50
100
AcDbLine
 10
65.325079
 20
90.885947
 30
0.0
 11
78.193125
 21
90.885947
 31
0.0
  0
POLYLINE
  5
34B
330
1F
100
AcDbEntity
  8
001
370
    50
100
AcDb2dPolyline
 66
     1
 10
0.0
 20
0.0
 30
0.0
  0
VERTEX
  5
34D
330
34B
100
AcDbEntity
  8
001
370
    50
100
AcDbVertex
100
AcDb2dVertex
 10
65.321266
 20
90.902471
 30
0.0
  0
VERTEX
  5
34E
330
34B
100
AcDbEntity
  8
001
370
    50
100
AcDbVertex
100
AcDb2dVertex
 10
65.340607
 20
90.902557
 30
0.0
  0
VERTEX
  5
34F
330
34B
100
AcDbEntity
  8
001
370
    50
100
AcDbVertex
100
AcDb2dVertex
 10
65.354254
 20
90.902619
 30
0.0
  0
SEQEND
  5
34C
330
34B
100
AcDbEntity
  8
001
370
    50
  0
ARC
  5
350
330
1F
100
AcDbEntity
  8
001
370
    50
100
AcDbCircle
 10
44.265888
 20
98.147797
 30
0.0
 40
0.4
100
AcDbArc
 50
205.0
 51
249.361846
  0
LINE
  5
351
330
1F
100
AcDbEntity
  8
001
  6
PHANTOM
370
     9
100
AcDbLine
 10
43.903365
 20
97.978749
 30
0.0
 11
43.972286
 21
97.830947
 31
0.0
  0
LINE
  5
352
330
1F
100
AcDbEntity
  8
001
  6
PHANTOM
370
     9
100
AcDbLine
 10
44.124902
 20
97.773467
 30
0.0
 11
43.972286
 21
97.830947
 31
0.0
  0
LINE
  5
353
330
1F
100
AcDbEntity
  8
001
  6
PHANTOM
370
     9
100
AcDbLine
 10
31.193125
 20
125.235947
 30
0.0
 11
31.193125
 21
125.327287
 31
0.0
  0
LINE
  5
354
330
1F
100
AcDbEntity
  8
001
  6
PHANTOM
370
     9
100
AcDbLine
 10
31.230602
 20
125.155578
 30
0.0
 11
31.193125
 21
125.235947
 31
0.0
  0
LINE
  5
355
330
1F
100
AcDbEntity
  8
001
370
    50
100
AcDbLine
 10
31.230602
 20
125.155578
 30
0.0
 11
43.903365
 21
97.978749
 31
0.0
  0
LINE
  5
356
330
1F
100
AcDbEntity
  8
001
370
    50
100
AcDbLine
 10
44.124902
 20
97.773467
 30
0.0
 11
63.932881
 21
90.313079
 31
0.0
  0
LINE
  5
357
330
1F
100
AcDbEntity
  8
001
  6
PHANTOM
370
     9
100
AcDbLine
 10
64.018195
 20
90.280947
 30
0.0
 11
63.932881
 21
90.313079
 31
0.0
  0
LINE
  5
358
330
1F
100
AcDbEntity
  8
001
  6
CENTER
370
     9
100
AcDbLine
 10
64.018195
 20
90.280947
 30
0.0
 11
64.109358
 21
90.280947
 31
0.0
  0
LINE
  5
359
330
1F
100
AcDbEntity
  8
001
370
     9
100
AcDbLine
 10
24.44359
 20
125.235947
 30
0.0
 11
31.193125
 21
125.235947
 31
0.0
  0
LINE
  5
35A
330
1F
100
AcDbEntity
  8
001
370
     9
100
AcDbLine
 10
24.44359
 20
90.280947
 30
0.0
 11
64.018195
 21
90.280947
 31
0.0
  0
LINE
  5
35B
330
1F
100
AcDbEntity
  8
001
370
     9
100
AcDbLine
 10
24.44359
 20
97.830947
 30
0.0
 11
43.972286
 21
97.830947
 31
0.0
  0
LINE
  5
35C
330
1F
100
AcDbEntity
  8
001
370
     9
100
AcDbLine
 10
31.193125
 20
125.235947
 30
0.0
 11
31.193125
 21
82.50971
 31
0.0
  0
ARC
  5
35D
330
1F
100
AcDbEntity
  8
001
370
    50
100
AcDbCircle
 10
31.593125
 20
125.324625
 30
0.0
 40
0.4
100
AcDbArc
 50
70.111503
 51
205.0
  0
LINE
  5
35E
330
1F
100
AcDbEntity
  8
001
370
    50
100
AcDbLine
 10
31.728869
 20
125.700888
 30
0.0
 11
51.547599
 21
118.550879
 31
0.0
  0
LINE
  5
35F
330
1F
100
AcDbEntity
  8
001
370
    50
100
AcDbLine
 10
31.593125
 20
125.724625
 30
0.0
 11
32.093125
 21
125.724625
 31
0.0
  0
ENDSEC
  0
SECTION
  2
OBJECTS
  0
DICTIONARY
  5
C
330
0
100
AcDbDictionary
281
     1
  3
ACAD_GROUP
350
D
  3
ACAD_LAYOUT
350
1A
  3
ACAD_MLEADERSTYLE
350
363
  3
ACAD_MLINESTYLE
350
17
  3
ACAD_PLOTSETTINGS
350
19
  3
ACAD_PLOTSTYLENAME
350
E
  3
ACAD_SCALELIST
350
3B
  3
ACAD_TABLESTYLE
350
362
  3
ACAD_VISUALSTYLE
350
2A
  3
AcDbVariableDictionary
350
360
  0
DICTIONARY
  5
D
102
{ACAD_REACTORS
330
C
102
}
330
C
100
AcDbDictionary
281
     1
  0
DICTIONARY
  5
1A
102
{ACAD_REACTORS
330
C
102
}
330
C
100
AcDbDictionary
281
     1
  3
Layout1
350
1E
  3
Layout2
350
26
  3
Model
350
22
  0
DICTIONARY
  5
363
102
{ACAD_REACTORS
330
C
102
}
330
C
100
AcDbDictionary
281
     1
  0
DICTIONARY
  5
17
102
{ACAD_REACTORS
330
C
102
}
330
C
100
AcDbDictionary
281
     1
  3
Standard
350
18
  0
DICTIONARY
  5
19
102
{ACAD_REACTORS
330
C
102
}
330
C
100
AcDbDictionary
281
     1
  0
ACDBDICTIONARYWDFLT
  5
E
102
{ACAD_REACTORS
330
C
102
}
330
C
100
AcDbDictionary
281
     1
  3
Normal
350
F
100
AcDbDictionaryWithDefault
340
F
  0
DICTIONARY
  5
3B
102
{ACAD_REACTORS
330
C
102
}
330
C
100
AcDbDictionary
281
     1
  3
A0
350
3C
  3
A1
350
3D
  3
A2
350
3E
  3
A3
350
3F
  3
A4
350
40
  3
A5
350
41
  3
A6
350
42
  3
A7
350
43
  3
A8
350
44
  3
A9
350
45
  3
B0
350
46
  3
B1
350
47
  3
B2
350
48
  3
B3
350
49
  3
B4
350
4A
  3
B5
350
4B
  3
B6
350
4C
  3
B7
350
4D
  3
B8
350
4E
  3
B9
350
4F
  3
C0
350
50
  3
C1
350
51
  3
C2
350
52
  3
C3
350
53
  3
C4
350
54
  3
C5
350
55
  3
C6
350
56
  3
C7
350
57
  3
C8
350
58
  3
C9
350
59
  3
D0
350
5A
  3
D1
350
5B
  3
D2
350
5C
  0
DICTIONARY
  5
362
102
{ACAD_REACTORS
330
C
102
}
330
C
100
AcDbDictionary
281
     1
  0
DICTIONARY
  5
2A
102
{ACAD_REACTORS
330
C
102
}
330
C
100
AcDbDictionary
281
     1
  3
2dWireframe
350
2F
  3
3D Hidden
350
31
  3
3dWireframe
350
30
  3
Basic
350
32
  3
Brighten
350
36
  3
ColorChange
350
3A
  3
Conceptual
350
34
  3
Dim
350
35
  3
Facepattern
350
39
  3
Flat
350
2B
  3
FlatWithEdges
350
2C
  3
Gouraud
350
2D
  3
GouraudWithEdges
350
2E
  3
Linepattern
350
38
  3
Realistic
350
33
  3
Thicken
350
37
  0
DICTIONARY
  5
360
102
{ACAD_REACTORS
330
C
102
}
330
C
100
AcDbDictionary
281
     1
  3
CANNOSCALE
350
361
  3
PSOLHEIGHT
350
365
  3
PSOLWIDTH
350
364
  0
LAYOUT
  5
1E
102
{ACAD_REACTORS
330
1A
102
}
330
1A
100
AcDbPlotSettings
  1

  2
none_device
  4

  6

 40
0.0
 41
0.0
 42
0.0
 43
0.0
 44
0.0
 45
0.0
 46
0.0
 47
0.0
 48
0.0
 49
0.0
140
0.0
141
0.0
142
1.0
143
1.0
 70
   688
 72
     0
 73
     0
 74
     5
  7

 75
    16
147
1.0
148
0.0
149
0.0
100
AcDbLayout
  1
Layout1
 70
     1
 71
     1
 10
0.0
 20
0.0
 11
12.0
 21
9.0
 12
0.0
 22
0.0
 32
0.0
 14
1.000000E+20
 24
1.000000E+20
 34
0.0
 15
-1.000000E+20
 25
-1.000000E+20
 35
0.0
146
0.0
 13
0.0
 23
0.0
 33
0.0
 16
1.0
 26
0.0
 36
0.0
 17
0.0
 27
1.0
 37
0.0
 76
     0
330
1B
  0
LAYOUT
  5
26
102
{ACAD_REACTORS
330
1A
102
}
330
1A
100
AcDbPlotSettings
  1

  2
none_device
  4

  6

 40
0.0
 41
0.0
 42
0.0
 43
0.0
 44
0.0
 45
0.0
 46
0.0
 47
0.0
 48
0.0
 49
0.0
140
0.0
141
0.0
142
1.0
143
1.0
 70
   688
 72
     0
 73
     0
 74
     5
  7

 75
    16
147
1.0
148
0.0
149
0.0
100
AcDbLayout
  1
Layout2
 70
     1
 71
     2
 10
0.0
 20
0.0
 11
0.0
 21
0.0
 12
0.0
 22
0.0
 32
0.0
 14
0.0
 24
0.0
 34
0.0
 15
0.0
 25
0.0
 35
0.0
146
0.0
 13
0.0
 23
0.0
 33
0.0
 16
1.0
 26
0.0
 36
0.0
 17
0.0
 27
1.0
 37
0.0
 76
     0
330
23
  0
LAYOUT
  5
22
102
{ACAD_REACTORS
330
1A
102
}
330
1A
100
AcDbPlotSettings
  1

  2
none_device
  4

  6

 40
0.0
 41
0.0
 42
0.0
 43
0.0
 44
0.0
 45
0.0
 46
0.0
 47
0.0
 48
0.0
 49
0.0
140
0.0
141
0.0
142
1.0
143
1.0
 70
  1712
 72
     0
 73
     0
 74
     0
  7

 75
     0
147
1.0
148
0.0
149
0.0
100
AcDbLayout
  1
Model
 70
     1
 71
     0
 10
0.0
 20
0.0
 11
12.0
 21
9.0
 12
0.0
 22
0.0
 32
0.0
 14
-8.020737
 24
40.050995
 34
0.0
 15
197.070755
 25
195.933273
 35
0.0
146
0.0
 13
0.0
 23
0.0
 33
0.0
 16
1.0
 26
0.0
 36
0.0
 17
0.0
 27
1.0
 37
0.0
 76
     0
330
1F
331
29
  0
MLINESTYLE
  5
18
102
{ACAD_REACTORS
330
17
102
}
330
17
100
AcDbMlineStyle
  2
Standard
 70
     0
  3

 62
   256
 51
90.0
 52
90.0
 71
     2
 49
0.5
 62
   256
  6
BYLAYER
 49
-0.5
 62
   256
  6
BYLAYER
  0
ACDBPLACEHOLDER
  5
F
102
{ACAD_REACTORS
330
E
102
}
330
E
  0
SCALE
  5
3C
102
{ACAD_REACTORS
330
3B
102
}
330
3B
100
AcDbScale
 70
     0
300
1:1
140
1.0
141
1.0
290
     1
  0
SCALE
  5
3D
102
{ACAD_REACTORS
330
3B
102
}
330
3B
100
AcDbScale
 70
     0
300
1:2
140
1.0
141
2.0
290
     0
  0
SCALE
  5
3E
102
{ACAD_REACTORS
330
3B
102
}
330
3B
100
AcDbScale
 70
     0
300
1:4
140
1.0
141
4.0
290
     0
  0
SCALE
  5
3F
102
{ACAD_REACTORS
330
3B
102
}
330
3B
100
AcDbScale
 70
     0
300
1:5
140
1.0
141
5.0
290
     0
  0
SCALE
  5
40
102
{ACAD_REACTORS
330
3B
102
}
330
3B
100
AcDbScale
 70
     0
300
1:8
140
1.0
141
8.0
290
     0
  0
SCALE
  5
41
102
{ACAD_REACTORS
330
3B
102
}
330
3B
100
AcDbScale
 70
     0
300
1:10
140
1.0
141
10.0
290
     0
  0
SCALE
  5
42
102
{ACAD_REACTORS
330
3B
102
}
330
3B
100
AcDbScale
 70
     0
300
1:16
140
1.0
141
16.0
290
     0
  0
SCALE
  5
43
102
{ACAD_REACTORS
330
3B
102
}
330
3B
100
AcDbScale
 70
     0
300
1:20
140
1.0
141
20.0
290
     0
  0
SCALE
  5
44
102
{ACAD_REACTORS
330
3B
102
}
330
3B
100
AcDbScale
 70
     0
300
1:30
140
1.0
141
30.0
290
     0
  0
SCALE
  5
45
102
{ACAD_REACTORS
330
3B
102
}
330
3B
100
AcDbScale
 70
     0
300
1:40
140
1.0
141
40.0
290
     0
  0
SCALE
  5
46
102
{ACAD_REACTORS
330
3B
102
}
330
3B
100
AcDbScale
 70
     0
300
1:50
140
1.0
141
50.0
290
     0
  0
SCALE
  5
47
102
{ACAD_REACTORS
330
3B
102
}
330
3B
100
AcDbScale
 70
     0
300
1:100
140
1.0
141
100.0
290
     0
  0
SCALE
  5
48
102
{ACAD_REACTORS
330
3B
102
}
330
3B
100
AcDbScale
 70
     0
300
2:1
140
2.0
141
1.0
290
     0
  0
SCALE
  5
49
102
{ACAD_REACTORS
330
3B
102
}
330
3B
100
AcDbScale
 70
     0
300
4:1
140
4.0
141
1.0
290
     0
  0
SCALE
  5
4A
102
{ACAD_REACTORS
330
3B
102
}
330
3B
100
AcDbScale
 70
     0
300
8:1
140
8.0
141
1.0
290
     0
  0
SCALE
  5
4B
102
{ACAD_REACTORS
330
3B
102
}
330
3B
100
AcDbScale
 70
     0
300
10:1
140
10.0
141
1.0
290
     0
  0
SCALE
  5
4C
102
{ACAD_REACTORS
330
3B
102
}
330
3B
100
AcDbScale
 70
     0
300
100:1
140
100.0
141
1.0
290
     0
  0
SCALE
  5
4D
102
{ACAD_REACTORS
330
3B
102
}
330
3B
100
AcDbScale
 70
     0
300
1/128" = 1'-0"
140
0.007812
141
12.0
290
     0
  0
SCALE
  5
4E
102
{ACAD_REACTORS
330
3B
102
}
330
3B
100
AcDbScale
 70
     0
300
1/64" = 1'-0"
140
0.015625
141
12.0
290
     0
  0
SCALE
  5
4F
102
{ACAD_REACTORS
330
3B
102
}
330
3B
100
AcDbScale
 70
     0
300
1/32" = 1'-0"
140
0.03125
141
12.0
290
     0
  0
SCALE
  5
50
102
{ACAD_REACTORS
330
3B
102
}
330
3B
100
AcDbScale
 70
     0
300
1/16" = 1'-0"
140
0.0625
141
12.0
290
     0
  0
SCALE
  5
51
102
{ACAD_REACTORS
330
3B
102
}
330
3B
100
AcDbScale
 70
     0
300
3/32" = 1'-0"
140
0.09375
141
12.0
290
     0
  0
SCALE
  5
52
102
{ACAD_REACTORS
330
3B
102
}
330
3B
100
AcDbScale
 70
     0
300
1/8" = 1'-0"
140
0.125
141
12.0
290
     0
  0
SCALE
  5
53
102
{ACAD_REACTORS
330
3B
102
}
330
3B
100
AcDbScale
 70
     0
300
3/16" = 1'-0"
140
0.1875
141
12.0
290
     0
  0
SCALE
  5
54
102
{ACAD_REACTORS
330
3B
102
}
330
3B
100
AcDbScale
 70
     0
300
1/4" = 1'-0"
140
0.25
141
12.0
290
     0
  0
SCALE
  5
55
102
{ACAD_REACTORS
330
3B
102
}
330
3B
100
AcDbScale
 70
     0
300
3/8" = 1'-0"
140
0.375
141
12.0
290
     0
  0
SCALE
  5
56
102
{ACAD_REACTORS
330
3B
102
}
330
3B
100
AcDbScale
 70
     0
300
1/2" = 1'-0"
140
0.5
141
12.0
290
     0
  0
SCALE
  5
57
102
{ACAD_REACTORS
330
3B
102
}
330
3B
100
AcDbScale
 70
     0
300
3/4" = 1'-0"
140
0.75
141
12.0
290
     0
  0
SCALE
  5
58
102
{ACAD_REACTORS
330
3B
102
}
330
3B
100
AcDbScale
 70
     0
300
1" = 1'-0"
140
1.0
141
12.0
290
     0
  0
SCALE
  5
59
102
{ACAD_REACTORS
330
3B
102
}
330
3B
100
AcDbScale
 70
     0
300
1-1/2" = 1'-0"
140
1.5
141
12.0
290
     0
  0
SCALE
  5
5A
102
{ACAD_REACTORS
330
3B
102
}
330
3B
100
AcDbScale
 70
     0
300
3" = 1'-0"
140
3.0
141
12.0
290
     0
  0
SCALE
  5
5B
102
{ACAD_REACTORS
330
3B
102
}
330
3B
100
AcDbScale
 70
     0
300
6" = 1'-0"
140
6.0
141
12.0
290
     0
  0
SCALE
  5
5C
102
{ACAD_REACTORS
330
3B
102
}
330
3B
100
AcDbScale
 70
     0
300
1'-0" = 1'-0"
140
12.0
141
12.0
290
     0
  0
VISUALSTYLE
  5
2F
102
{ACAD_REACTORS
330
2A
102
}
330
2A
100
AcDbVisualStyle
  2
2dWireframe
 70
     4
 71
     0
 72
     2
 73
     0
 90
        0
 40
-0.6
 41
-30.0
 62
     5
 63
     7
 74
     1
 91
        4
 64
     7
 65
   257
 75
     1
175
     1
 42
1.0
 92
        0
 66
   257
 43
1.0
 76
     1
 77
     6
 78
     2
 67
     7
 79
     5
170
     0
171
     0
290
     0
174
     0
 93
        1
 44
0.0
173
     0
291
     0
 45
0.0
1001
ACAD
1000
AcDbSavedByObjectVersion
1070
     0
  0
VISUALSTYLE
  5
31
102
{ACAD_REACTORS
330
2A
102
}
330
2A
100
AcDbVisualStyle
  2
3D Hidden
 70
     6
 71
     1
 72
     2
 73
     2
 90
        0
 40
-0.6
 41
-30.0
 62
     5
 63
     7
 74
     2
 91
        2
 64
     7
 65
   257
 75
     2
175
     1
 42
40.0
 92
        0
 66
   257
 43
1.0
 76
     1
 77
     6
 78
     2
 67
     7
 79
     3
170
     0
171
     0
290
     0
174
     0
 93
        1
 44
0.0
173
     0
291
     0
 45
0.0
1001
ACAD
1000
AcDbSavedByObjectVersion
1070
     0
  0
VISUALSTYLE
  5
30
102
{ACAD_REACTORS
330
2A
102
}
330
2A
100
AcDbVisualStyle
  2
3dWireframe
 70
     5
 71
     0
 72
     2
 73
     0
 90
        0
 40
-0.6
 41
-30.0
 62
     5
 63
     7
 74
     1
 91
        4
 64
     7
 65
   257
 75
     1
175
     1
 42
1.0
 92
        0
 66
   257
 43
1.0
 76
     1
 77
     6
 78
     2
 67
     7
 79
     5
170
     0
171
     0
290
     0
174
     0
 93
        1
 44
0.0
173
     0
291
     0
 45
0.0
1001
ACAD
1000
AcDbSavedByObjectVersion
1070
     0
  0
VISUALSTYLE
  5
32
102
{ACAD_REACTORS
330
2A
102
}
330
2A
100
AcDbVisualStyle
  2
Basic
 70
     7
 71
     1
 72
     0
 73
     1
 90
        0
 40
-0.6
 41
-30.0
 62
     5
 63
     7
 74
     0
 91
        4
 64
     7
 65
   257
 75
     1
175
     1
 42
1.0
 92
        8
 66
     7
 43
1.0
 76
     1
 77
     6
 78
     2
 67
     7
 79
     5
170
     0
171
     0
290
     0
174
     0
 93
        1
 44
0.0
173
     0
291
     1
 45
0.0
1001
ACAD
1000
AcDbSavedByObjectVersion
1070
     0
  0
VISUALSTYLE
  5
36
102
{ACAD_REACTORS
330
2A
102
}
330
2A
100
AcDbVisualStyle
  2
Brighten
 70
    12
 71
     2
 72
     2
 73
     0
 90
        0
 40
-0.6
 41
-30.0
 62
     5
 63
     7
 74
     1
 91
        4
 64
     7
 65
   257
 75
     1
175
     1
 42
1.0
 92
        8
 66
     7
 43
1.0
 76
     1
 77
     6
 78
     2
 67
     7
 79
     5
170
     0
171
     0
290
     0
174
     0
 93
        1
 44
50.0
173
     0
291
     1
 45
0.0
1001
ACAD
1000
AcDbSavedByObjectVersion
1070
     0
  0
VISUALSTYLE
  5
3A
102
{ACAD_REACTORS
330
2A
102
}
330
2A
100
AcDbVisualStyle
  2
ColorChange
 70
    16
 71
     2
 72
     2
 73
     3
 90
        0
 40
-0.6
 41
-30.0
 62
     5
 63
     8
 74
     1
 91
        4
 64
     7
 65
   257
 75
     1
175
     1
 42
1.0
 92
        8
 66
     8
 43
1.0
 76
     1
 77
     6
 78
     2
 67
     7
 79
     5
170
     0
171
     0
290
     0
174
     0
 93
        1
 44
0.0
173
     0
291
     1
 45
0.0
1001
ACAD
1000
AcDbSavedByObjectVersion
1070
     0
  0
VISUALSTYLE
  5
34
102
{ACAD_REACTORS
330
2A
102
}
330
2A
100
AcDbVisualStyle
  2
Conceptual
 70
     9
 71
     3
 72
     2
 73
     0
 90
        0
 40
-0.6
 41
-30.0
 62
     5
 63
     7
 74
     2
 91
        2
 64
     7
 65
   257
 75
     1
175
     1
 42
40.0
 92
        8
 66
     7
 43
1.0
 76
     1
 77
     6
 78
     2
 67
     7
 79
     3
170
     0
171
     0
290
     0
174
     0
 93
        1
 44
0.0
173
     0
291
     0
 45
0.0
1001
ACAD
1000
AcDbSavedByObjectVersion
1070
     0
  0
VISUALSTYLE
  5
35
102
{ACAD_REACTORS
330
2A
102
}
330
2A
100
AcDbVisualStyle
  2
Dim
 70
    11
 71
     2
 72
     2
 73
     0
 90
        0
 40
-0.6
 41
-30.0
 62
     5
 63
     7
 74
     1
 91
        4
 64
     7
 65
   257
 75
     1
175
     1
 42
1.0
 92
        8
 66
     7
 43
1.0
 76
     1
 77
     6
 78
     2
 67
     7
 79
     5
170
     0
171
     0
290
     0
174
     0
 93
        1
 44
-50.0
173
     0
291
     1
 45
0.0
1001
ACAD
1000
AcDbSavedByObjectVersion
1070
     0
  0
VISUALSTYLE
  5
39
102
{ACAD_REACTORS
330
2A
102
}
330
2A
100
AcDbVisualStyle
  2
Facepattern
 70
    15
 71
     2
 72
     2
 73
     0
 90
        0
 40
-0.6
 41
-30.0
 62
     5
 63
     7
 74
     1
 91
        4
 64
     7
 65
   257
 75
     1
175
     1
 42
1.0
 92
        8
 66
     7
 43
1.0
 76
     1
 77
     6
 78
     2
 67
     7
 79
     5
170
     0
171
     0
290
     0
174
     0
 93
        1
 44
0.0
173
     0
291
     1
 45
0.0
1001
ACAD
1000
AcDbSavedByObjectVersion
1070
     0
  0
VISUALSTYLE
  5
2B
102
{ACAD_REACTORS
330
2A
102
}
330
2A
100
AcDbVisualStyle
  2
Flat
 70
     0
 71
     2
 72
     1
 73
     1
 90
        2
 40
-0.6
 41
30.0
 62
     5
 63
     7
 74
     0
 91
        4
 64
     7
 65
   257
 75
     1
175
     1
 42
1.0
 92
        8
 66
     7
 43
1.0
 76
     1
 77
     6
 78
     2
 67
     7
 79
     5
170
     0
171
     0
290
     0
174
     0
 93
       13
 44
0.0
173
     0
291
     1
 45
0.0
1001
ACAD
1000
AcDbSavedByObjectVersion
1070
     0
  0
VISUALSTYLE
  5
2C
102
{ACAD_REACTORS
330
2A
102
}
330
2A
100
AcDbVisualStyle
  2
FlatWithEdges
 70
     1
 71
     2
 72
     1
 73
     1
 90
        2
 40
-0.6
 41
30.0
 62
     5
 63
     7
 74
     1
 91
        4
 64
     7
 65
   257
 75
     1
175
     1
 42
1.0
 92
        0
 66
   257
 43
1.0
 76
     1
 77
     6
 78
     2
 67
     7
 79
     5
170
     0
171
     0
290
     0
174
     0
 93
       13
 44
0.0
173
     0
291
     1
 45
0.0
1001
ACAD
1000
AcDbSavedByObjectVersion
1070
     0
  0
VISUALSTYLE
  5
2D
102
{ACAD_REACTORS
330
2A
102
}
330
2A
100
AcDbVisualStyle
  2
Gouraud
 70
     2
 71
     2
 72
     2
 73
     1
 90
        2
 40
-0.6
 41
30.0
 62
     5
 63
     7
 74
     0
 91
        4
 64
     7
 65
   257
 75
     1
175
     1
 42
1.0
 92
        0
 66
     7
 43
1.0
 76
     1
 77
     6
 78
     2
 67
     7
 79
     5
170
     0
171
     0
290
     0
174
     0
 93
       13
 44
0.0
173
     0
291
     1
 45
0.0
1001
ACAD
1000
AcDbSavedByObjectVersion
1070
     0
  0
VISUALSTYLE
  5
2E
102
{ACAD_REACTORS
330
2A
102
}
330
2A
100
AcDbVisualStyle
  2
GouraudWithEdges
 70
     3
 71
     2
 72
     2
 73
     1
 90
        2
 40
-0.6
 41
30.0
 62
     5
 63
     7
 74
     1
 91
        4
 64
     7
 65
   257
 75
     1
175
     1
 42
1.0
 92
        0
 66
   257
 43
1.0
 76
     1
 77
     6
 78
     2
 67
     7
 79
     5
170
     0
171
     0
290
     0
174
     0
 93
       13
 44
0.0
173
     0
291
     1
 45
0.0
1001
ACAD
1000
AcDbSavedByObjectVersion
1070
     0
  0
VISUALSTYLE
  5
38
102
{ACAD_REACTORS
330
2A
102
}
330
2A
100
AcDbVisualStyle
  2
Linepattern
 70
    14
 71
     2
 72
     2
 73
     0
 90
        0
 40
-0.6
 41
-30.0
 62
     5
 63
     7
 74
     1
 91
        4
 64
     7
 65
   257
 75
     7
175
     7
 42
1.0
 92
        8
 66
     7
 43
1.0
 76
     1
 77
     6
 78
     2
 67
     7
 79
     5
170
     0
171
     0
290
     0
174
     0
 93
        1
 44
0.0
173
     0
291
     1
 45
0.0
1001
ACAD
1000
AcDbSavedByObjectVersion
1070
     0
  0
VISUALSTYLE
  5
33
102
{ACAD_REACTORS
330
2A
102
}
330
2A
100
AcDbVisualStyle
  2
Realistic
 70
     8
 71
     2
 72
     2
 73
     0
 90
        0
 40
-0.6
 41
-30.0
 62
     5
 63
     7
 74
     1
 91
        0
 64
     7
 65
   257
 75
     1
175
     1
 42
1.0
 92
        8
 66
     8
 43
1.0
 76
     1
 77
     6
 78
     2
 67
     7
 79
     5
170
     0
171
     0
290
     0
174
     0
 93
       13
 44
0.0
173
     0
291
     0
 45
0.0
1001
ACAD
1000
AcDbSavedByObjectVersion
1070
     0
  0
VISUALSTYLE
  5
37
102
{ACAD_REACTORS
330
2A
102
}
330
2A
100
AcDbVisualStyle
  2
Thicken
 70
    13
 71
     2
 72
     2
 73
     0
 90
        0
 40
-0.6
 41
-30.0
 62
     5
 63
     7
 74
     1
 91
        4
 64
     7
 65
   257
 75
     1
175
     1
 42
1.0
 92
       12
 66
     7
 43
1.0
 76
     1
 77
     6
 78
     2
 67
     7
 79
     5
170
     0
171
     0
290
     0
174
     0
 93
        1
 44
0.0
173
     0
291
     1
 45
0.0
1001
ACAD
1000
AcDbSavedByObjectVersion
1070
     0
  0
DICTIONARYVAR
  5
361
102
{ACAD_REACTORS
330
360
102
}
330
360
100
DictionaryVariables
280
     0
  1
1:1
  0
DICTIONARYVAR
  5
365
102
{ACAD_REACTORS
330
360
102
}
330
360
100
DictionaryVariables
280
     0
  1
80.000000
  0
DICTIONARYVAR
  5
364
102
{ACAD_REACTORS
330
360
102
}
330
360
100
DictionaryVariables
280
     0
  1
5.000000
  0
ENDSEC
  0
EOF
