  0
SECTION
  2
HEADER
  9
$ACADVER
  1
AC1015
  9
$ACADMAINTVER
 70
     6
  9
$DWGCODEPAGE
  3
ANSI_932
  9
$INSBASE
 10
0.0
 20
0.0
 30
0.0
  9
$EXTMIN
 10
-9.23761
 20
23.719238
 30
0.0
  9
$EXTMAX
 10
191.227905
 20
151.709564
 30
0.0
  9
$LIMMIN
 10
0.0
 20
0.0
  9
$LIMMAX
 10
12.0
 20
9.0
  9
$ORTHOMODE
 70
     0
  9
$REGENMODE
 70
     1
  9
$FILLMODE
 70
     1
  9
$QTEXTMODE
 70
     0
  9
$MIRRTEXT
 70
     1
  9
$LTSCALE
 40
2.378402
  9
$ATTMODE
 70
     1
  9
$TEXTSIZE
 40
3.2
  9
$TRACEWID
 40
1.0
  9
$TEXTSTYLE
  7
Standard
  9
$CLAYER
  8
0
  9
$CELTYPE
  6
ByLayer
  9
$CECOLOR
 62
   256
  9
$CELTSCALE
 40
1.0
  9
$DISPSILH
 70
     0
  9
$DIMSCALE
 40
1.0
  9
$DIMASZ
 40
2.5
  9
$DIMEXO
 40
0.625
  9
$DIMDLI
 40
3.75
  9
$DIMRND
 40
0.0
  9
$DIMDLE
 40
0.0
  9
$DIMEXE
 40
1.25
  9
$DIMTP
 40
0.0
  9
$DIMTM
 40
0.0
  9
$DIMTXT
 40
2.5
  9
$DIMCEN
 40
0.09
  9
$DIMTSZ
 40
0.0
  9
$DIMTOL
 70
     0
  9
$DIMLIM
 70
     0
  9
$DIMTIH
 70
     0
  9
$DIMTOH
 70
     0
  9
$DIMSE1
 70
     0
  9
$DIMSE2
 70
     0
  9
$DIMTAD
 70
     0
  9
$DIMZIN
 70
     8
  9
$DIMBLK
  1

  9
$DIMASO
 70
     1
  9
$DIMSHO
 70
     0
  9
$DIMPOST
  1

  9
$DIMAPOST
  1

  9
$DIMALT
 70
     0
  9
$DIMALTD
 70
     3
  9
$DIMALTF
 40
0.03937
  9
$DIMLFAC
 40
1.0
  9
$DIMTOFL
 70
     1
  9
$DIMTVP
 40
0.0
  9
$DIMTIX
 70
     0
  9
$DIMSOXD
 70
     0
  9
$DIMSAH
 70
     0
  9
$DIMBLK1
  1

  9
$DIMBLK2
  1

  9
$DIMSTYLE
  2
ISO-25
  9
$DIMCLRD
 70
     0
  9
$DIMCLRE
 70
     0
  9
$DIMCLRT
 70
     0
  9
$DIMTFAC
 40
1.0
  9
$DIMGAP
 40
0.625
  9
$DIMJUST
 70
     0
  9
$DIMSD1
 70
     0
  9
$DIMSD2
 70
     0
  9
$DIMTOLJ
 70
     0
  9
$DIMTZIN
 70
     8
  9
$DIMALTZ
 70
     0
  9
$DIMALTTZ
 70
     0
  9
$DIMUPT
 70
     0
  9
$DIMDEC
 70
     2
  9
$DIMTDEC
 70
     2
  9
$DIMALTU
 70
     2
  9
$DIMALTTD
 70
     3
  9
$DIMTXSTY
  7
Standard
  9
$DIMAUNIT
 70
     0
  9
$DIMADEC
 70
     0
  9
$DIMALTRND
 40
0.0
  9
$DIMAZIN
 70
     0
  9
$DIMDSEP
 70
    44
  9
$DIMATFIT
 70
     3
  9
$DIMFRAC
 70
     0
  9
$DIMLDRBLK
  1

  9
$DIMLUNIT
 70
     2
  9
$DIMLWD
 70
    -2
  9
$DIMLWE
 70
    -2
  9
$DIMTMOVE
 70
     0
  9
$LUNITS
 70
     2
  9
$LUPREC
 70
     4
  9
$SKETCHINC
 40
1.0
  9
$FILLETRAD
 40
0.0
  9
$AUNITS
 70
     0
  9
$AUPREC
 70
     0
  9
$MENU
  1
.
  9
$ELEVATION
 40
0.0
  9
$PELEVATION
 40
0.0
  9
$THICKNESS
 40
0.0
  9
$LIMCHECK
 70
     0
  9
$CHAMFERA
 40
10.0
  9
$CHAMFERB
 40
10.0
  9
$CHAMFERC
 40
20.0
  9
$CHAMFERD
 40
0.0
  9
$SKPOLY
 70
     0
  9
$TDCREATE
 40
2454728.392482453
  9
$TDUCREATE
 40
2454728.017482453
  9
$TDUPDATE
 40
2454728.392482465
  9
$TDUUPDATE
 40
2454728.017482465
  9
$TDINDWG
 40
0.0000000116
  9
$TDUSRTIMER
 40
0.0000000116
  9
$USRTIMER
 70
     1
  9
$ANGBASE
 50
0.0
  9
$ANGDIR
 70
     0
  9
$PDMODE
 70
     0
  9
$PDSIZE
 40
0.0
  9
$PLINEWID
 40
0.0
  9
$SPLFRAME
 70
     0
  9
$SPLINETYPE
 70
     6
  9
$SPLINESEGS
 70
     8
  9
$HANDSEED
  5
355
  9
$SURFTAB1
 70
     6
  9
$SURFTAB2
 70
     6
  9
$SURFTYPE
 70
     6
  9
$SURFU
 70
     6
  9
$SURFV
 70
     6
  9
$UCSBASE
  2

  9
$UCSNAME
  2

  9
$UCSORG
 10
0.0
 20
0.0
 30
0.0
  9
$UCSXDIR
 10
1.0
 20
0.0
 30
0.0
  9
$UCSYDIR
 10
0.0
 20
1.0
 30
0.0
  9
$UCSORTHOREF
  2

  9
$UCSORTHOVIEW
 70
     0
  9
$UCSORGTOP
 10
0.0
 20
0.0
 30
0.0
  9
$UCSORGBOTTOM
 10
0.0
 20
0.0
 30
0.0
  9
$UCSORGLEFT
 10
0.0
 20
0.0
 30
0.0
  9
$UCSORGRIGHT
 10
0.0
 20
0.0
 30
0.0
  9
$UCSORGFRONT
 10
0.0
 20
0.0
 30
0.0
  9
$UCSORGBACK
 10
0.0
 20
0.0
 30
0.0
  9
$PUCSBASE
  2

  9
$PUCSNAME
  2

  9
$PUCSORG
 10
0.0
 20
0.0
 30
0.0
  9
$PUCSXDIR
 10
1.0
 20
0.0
 30
0.0
  9
$PUCSYDIR
 10
0.0
 20
1.0
 30
0.0
  9
$PUCSORTHOREF
  2

  9
$PUCSORTHOVIEW
 70
     0
  9
$PUCSORGTOP
 10
0.0
 20
0.0
 30
0.0
  9
$PUCSORGBOTTOM
 10
0.0
 20
0.0
 30
0.0
  9
$PUCSORGLEFT
 10
0.0
 20
0.0
 30
0.0
  9
$PUCSORGRIGHT
 10
0.0
 20
0.0
 30
0.0
  9
$PUCSORGFRONT
 10
0.0
 20
0.0
 30
0.0
  9
$PUCSORGBACK
 10
0.0
 20
0.0
 30
0.0
  9
$USERI1
 70
     0
  9
$USERI2
 70
     0
  9
$USERI3
 70
     0
  9
$USERI4
 70
     0
  9
$USERI5
 70
     0
  9
$USERR1
 40
0.0
  9
$USERR2
 40
0.0
  9
$USERR3
 40
0.0
  9
$USERR4
 40
0.0
  9
$USERR5
 40
0.0
  9
$WORLDVIEW
 70
     1
  9
$SHADEDGE
 70
     3
  9
$SHADEDIF
 70
    70
  9
$TILEMODE
 70
     1
  9
$MAXACTVP
 70
    64
  9
$PINSBASE
 10
0.0
 20
0.0
 30
0.0
  9
$PLIMCHECK
 70
     0
  9
$PEXTMIN
 10
1.000000E+20
 20
1.000000E+20
 30
0.0
  9
$PEXTMAX
 10
-1.000000E+20
 20
-1.000000E+20
 30
0.0
  9
$PLIMMIN
 10
0.0
 20
0.0
  9
$PLIMMAX
 10
12.0
 20
9.0
  9
$UNITMODE
 70
     0
  9
$VISRETAIN
 70
     1
  9
$PLINEGEN
 70
     0
  9
$PSLTSCALE
 70
     1
  9
$TREEDEPTH
 70
  3020
  9
$CMLSTYLE
  2
Standard
  9
$CMLJUST
 70
     0
  9
$CMLSCALE
 40
20.0
  9
$PROXYGRAPHICS
 70
     1
  9
$MEASUREMENT
 70
     1
  9
$CELWEIGHT
370
    -1
  9
$ENDCAPS
280
     0
  9
$JOINSTYLE
280
     0
  9
$LWDISPLAY
290
     0
  9
$INSUNITS
 70
     4
  9
$HYPERLINKBASE
  1

  9
$STYLESHEET
  1

  9
$XEDIT
290
     1
  9
$CEPSNTYPE
380
     0
  9
$PSTYLEMODE
290
     1
  9
$FINGERPRINTGUID
  2
{305D7883-61B5-4117-AB1E-DB25BE83B6EA}
  9
$VERSIONGUID
  2
{FAEB1C32-E019-11D5-929B-00C0DF256EC4}
  9
$EXTNAMES
290
     1
  9
$PSVPSCALE
 40
0.0
  9
$OLESTARTUP
290
     0
  0
ENDSEC
  0
SECTION
  2
CLASSES
  0
CLASS
  1
ACDBDICTIONARYWDFLT
  2
AcDbDictionaryWithDefault
  3
ObjectDBX Classes
 90
        0
280
     0
281
     0
  0
CLASS
  1
VISUALSTYLE
  2
AcDbVisualStyle
  3
ObjectDBX Classes
 90
     4095
280
     0
281
     0
  0
CLASS
  1
SCALE
  2
AcDbScale
  3
ObjectDBX Classes
 90
     1153
280
     0
281
     0
  0
CLASS
  1
DICTIONARYVAR
  2
AcDbDictionaryVar
  3
ObjectDBX Classes
 90
        0
280
     0
281
     0
  0
CLASS
  1
ACDBPLACEHOLDER
  2
AcDbPlaceHolder
  3
ObjectDBX Classes
 90
        0
280
     0
281
     0
  0
CLASS
  1
LAYOUT
  2
AcDbLayout
  3
ObjectDBX Classes
 90
        0
280
     0
281
     0
  0
ENDSEC
  0
SECTION
  2
TABLES
  0
TABLE
  2
VPORT
  5
8
330
0
100
AcDbSymbolTable
 70
     1
  0
VPORT
  5
29
330
8
100
AcDbSymbolTableRecord
100
AcDbViewportTableRecord
  2
*Active
 70
     0
 10
0.0
 20
0.0
 11
1.0
 21
1.0
 12
90.995148
 22
87.714401
 13
0.0
 23
0.0
 14
1.0
 24
1.0
 15
0.0
 25
0.0
 16
0.0
 26
0.0
 36
1.0
 17
0.0
 27
0.0
 37
0.0
 40
129.270229
 41
1.691288
 42
50.0
 43
0.0
 44
0.0
 50
0.0
 51
0.0
 71
     0
 72
   100
 73
     1
 74
     3
 75
     0
 76
     0
 77
     0
 78
     0
281
     0
 65
     1
110
0.0
120
0.0
130
0.0
111
1.0
121
0.0
131
0.0
112
0.0
122
1.0
132
0.0
 79
     0
146
0.0
  0
ENDTAB
  0
TABLE
  2
LTYPE
  5
5
330
0
100
AcDbSymbolTable
 70
     5
  0
LTYPE
  5
14
330
5
100
AcDbSymbolTableRecord
100
AcDbLinetypeTableRecord
  2
ByBlock
 70
     0
  3

 72
    65
 73
     0
 40
0.0
  0
LTYPE
  5
15
330
5
100
AcDbSymbolTableRecord
100
AcDbLinetypeTableRecord
  2
ByLayer
 70
     0
  3

 72
    65
 73
     0
 40
0.0
  0
LTYPE
  5
16
330
5
100
AcDbSymbolTableRecord
100
AcDbLinetypeTableRecord
  2
Continuous
 70
     0
  3
Solid line
 72
    65
 73
     0
 40
0.0
  0
LTYPE
  5
5D
330
5
100
AcDbSymbolTableRecord
100
AcDbLinetypeTableRecord
  2
DASHED
 70
     0
  3
DASHED
 72
    83
 73
     2
 40
0.75
 49
0.5
 74
     0
 49
-0.25
 74
     0
  0
LTYPE
  5
5E
330
5
100
AcDbSymbolTableRecord
100
AcDbLinetypeTableRecord
  2
HIDDEN
 70
     0
  3
HIDDEN
 72
    83
 73
     2
 40
0.375
 49
0.25
 74
     0
 49
-0.125
 74
     0
  0
LTYPE
  5
5F
330
5
100
AcDbSymbolTableRecord
100
AcDbLinetypeTableRecord
  2
CENTER
 70
     0
  3
CENTER
 72
    83
 73
     4
 40
2.0
 49
1.25
 74
     0
 49
-0.25
 74
     0
 49
0.25
 74
     0
 49
-0.25
 74
     0
  0
LTYPE
  5
60
330
5
100
AcDbSymbolTableRecord
100
AcDbLinetypeTableRecord
  2
PHANTOM
 70
     0
  3
PHANTOM
 72
    83
 73
     6
 40
2.5
 49
1.25
 74
     0
 49
-0.25
 74
     0
 49
0.25
 74
     0
 49
-0.25
 74
     0
 49
0.25
 74
     0
 49
-0.25
 74
     0
  0
ENDTAB
  0
TABLE
  2
LAYER
  5
2
330
0
100
AcDbSymbolTable
 70
     2
  0
LAYER
  5
10
330
2
100
AcDbSymbolTableRecord
100
AcDbLayerTableRecord
  2
0
 70
     0
 62
     7
  6
Continuous
370
    -3
390
F
  0
LAYER
  5
61
330
2
100
AcDbSymbolTableRecord
100
AcDbLayerTableRecord
  2
001
 70
     0
 62
     7
  6
Continuous
370
    -3
390
F
  0
ENDTAB
  0
TABLE
  2
STYLE
  5
3
330
0
100
AcDbSymbolTable
 70
     2
  0
STYLE
  5
11
330
3
100
AcDbSymbolTableRecord
100
AcDbTextStyleTableRecord
  2
Standard
 70
     0
 40
0.0
 41
1.0
 50
0.0
 71
     0
 42
0.2
  3
TXT
  4
BIGFONT
  0
STYLE
  5
62
330
3
100
AcDbSymbolTableRecord
100
AcDbTextStyleTableRecord
  2
TATEGAKI
 70
     4
 40
1.0
 41
1.0
 50
0.0
 71
     0
 42
0.2
  3
TXT
  4
BIGFONT
  0
ENDTAB
  0
TABLE
  2
VIEW
  5
6
330
0
100
AcDbSymbolTable
 70
     0
  0
ENDTAB
  0
TABLE
  2
UCS
  5
7
330
0
100
AcDbSymbolTable
 70
     0
  0
ENDTAB
  0
TABLE
  2
APPID
  5
9
330
0
100
AcDbSymbolTable
 70
     1
  0
APPID
  5
12
330
9
100
AcDbSymbolTableRecord
100
AcDbRegAppTableRecord
  2
ACAD
 70
     0
  0
ENDTAB
  0
TABLE
  2
DIMSTYLE
  5
A
330
0
100
AcDbSymbolTable
 70
     2
100
AcDbDimStyleTable
  0
DIMSTYLE
105
27
330
A
100
AcDbSymbolTableRecord
100
AcDbDimStyleTableRecord
  2
ISO-25
 70
     0
 41
2.5
 42
0.625
 43
3.75
 44
1.25
 73
     0
 74
     0
 77
     1
 78
     8
140
2.5
141
2.5
143
0.03937
147
0.625
171
     3
172
     1
271
     2
272
     2
274
     3
278
    44
283
     0
284
     8
340
11
  0
DIMSTYLE
105
63
102
{ACAD_REACTORS
330
DD
330
DE
330
DF
330
F8
330
F9
330
FA
102
}
330
A
100
AcDbSymbolTableRecord
100
AcDbDimStyleTableRecord
  2
Standard
 70
     0
 41
1.5
 42
0.0
 44
2.75
 73
     0
 74
     0
 77
     1
 78
     8
 79
     2
140
4.0
146
0.8
147
1.0
172
     1
179
     1
271
     1
340
11
  0
ENDTAB
  0
TABLE
  2
BLOCK_RECORD
  5
1
330
0
100
AcDbSymbolTable
 70
     7
  0
BLOCK_RECORD
  5
1F
330
1
100
AcDbSymbolTableRecord
100
AcDbBlockTableRecord
  2
*Model_Space
340
22
  0
BLOCK_RECORD
  5
1B
330
1
100
AcDbSymbolTableRecord
100
AcDbBlockTableRecord
  2
*Paper_Space
340
1E
  0
BLOCK_RECORD
  5
23
330
1
100
AcDbSymbolTableRecord
100
AcDbBlockTableRecord
  2
*Paper_Space0
340
26
  0
BLOCK_RECORD
  5
64
330
1
100
AcDbSymbolTableRecord
100
AcDbBlockTableRecord
  2
*D1
340
0
  0
BLOCK_RECORD
  5
79
330
1
100
AcDbSymbolTableRecord
100
AcDbBlockTableRecord
  2
*D2
340
0
  0
BLOCK_RECORD
  5
8D
330
1
100
AcDbSymbolTableRecord
100
AcDbBlockTableRecord
  2
*D3
340
0
  0
BLOCK_RECORD
  5
A1
330
1
100
AcDbSymbolTableRecord
100
AcDbBlockTableRecord
  2
*D4
340
0
  0
BLOCK_RECORD
  5
B5
330
1
100
AcDbSymbolTableRecord
100
AcDbBlockTableRecord
  2
*D5
340
0
  0
BLOCK_RECORD
  5
C9
330
1
100
AcDbSymbolTableRecord
100
AcDbBlockTableRecord
  2
*D6
340
0
  0
ENDTAB
  0
ENDSEC
  0
SECTION
  2
BLOCKS
  0
BLOCK
  5
20
330
1F
100
AcDbEntity
  8
0
100
AcDbBlockBegin
  2
*Model_Space
 70
     0
 10
0.0
 20
0.0
 30
0.0
  3
*Model_Space
  1

  0
ENDBLK
  5
21
330
1F
100
AcDbEntity
  8
0
100
AcDbBlockEnd
  0
BLOCK
  5
1C
330
1B
100
AcDbEntity
 67
     1
  8
0
100
AcDbBlockBegin
  2
*Paper_Space
 70
     0
 10
0.0
 20
0.0
 30
0.0
  3
*Paper_Space
  1

  0
ENDBLK
  5
1D
330
1B
100
AcDbEntity
 67
     1
  8
0
100
AcDbBlockEnd
  0
BLOCK
  5
24
330
23
100
AcDbEntity
  8
0
100
AcDbBlockBegin
  2
*Paper_Space0
 70
     0
 10
0.0
 20
0.0
 30
0.0
  3
*Paper_Space0
  1

  0
ENDBLK
  5
25
330
23
100
AcDbEntity
  8
0
100
AcDbBlockEnd
  0
BLOCK
  5
65
330
64
100
AcDbEntity
  8
0
100
AcDbBlockBegin
  2
*D1
 70
     1
 10
0.0
 20
0.0
 30
0.0
  3
*D1
  1

  0
LINE
  5
67
330
64
100
AcDbEntity
  8
001
370
     9
100
AcDbLine
 10
52.536308
 20
76.177991
 30
0.0
 11
60.410287
 21
70.664571
 31
0.0
  0
LINE
  5
68
330
64
100
AcDbEntity
  8
001
370
     9
100
AcDbLine
 10
27.804125
 20
67.720104
 30
0.0
 11
27.804125
 21
53.690877
 31
0.0
  0
ARC
  5
69
330
64
100
AcDbEntity
  8
001
370
     9
100
AcDbCircle
 10
27.804125
 20
93.495652
 30
0.0
 40
37.05477431576382
100
AcDbArc
 50
270.0
 51
325.0
  0
POLYLINE
  5
6A
330
64
100
AcDbEntity
  8
001
370
     9
100
AcDb2dPolyline
 66
     1
 10
0.0
 20
0.0
 30
0.0
  0
VERTEX
  5
6C
330
6A
100
AcDbEntity
  8
001
370
     9
100
AcDbVertex
100
AcDb2dVertex
 10
56.948059
 20
71.267993
 30
0.0
  0
VERTEX
  5
6D
330
6A
100
AcDbEntity
  8
001
370
     9
100
AcDbVertex
100
AcDb2dVertex
 10
58.157619
 20
72.241906
 30
0.0
  0
VERTEX
  5
6E
330
6A
100
AcDbEntity
  8
001
370
     9
100
AcDbVertex
100
AcDb2dVertex
 10
57.597066
 20
70.793693
 30
0.0
  0
SEQEND
  5
6B
330
6A
100
AcDbEntity
  8
001
370
     9
  0
POLYLINE
  5
6F
330
64
100
AcDbEntity
  8
001
370
     9
100
AcDb2dPolyline
 66
     1
 10
0.0
 20
0.0
 30
0.0
  0
VERTEX
  5
71
330
6F
100
AcDbEntity
  8
001
370
     9
100
AcDbVertex
100
AcDb2dVertex
 10
29.311952
 20
56.069394
 30
0.0
  0
VERTEX
  5
72
330
6F
100
AcDbEntity
  8
001
370
     9
100
AcDbVertex
100
AcDb2dVertex
 10
27.804125
 20
56.440877
 30
0.0
  0
VERTEX
  5
73
330
6F
100
AcDbEntity
  8
001
370
     9
100
AcDbVertex
100
AcDb2dVertex
 10
29.295683
 20
56.873077
 30
0.0
  0
SEQEND
  5
70
330
6F
100
AcDbEntity
  8
001
370
     9
  0
TEXT
  5
74
330
64
100
AcDbEntity
  8
001
370
    30
100
AcDbText
 10
39.130302
 20
58.744185
 30
0.0
 40
4.0
  1
５５%%d
 50
27.5
 41
0.978261
100
AcDbText
  0
POINT
  5
75
330
64
100
AcDbEntity
  8
001
370
     9
100
AcDbPoint
 10
52.536308
 20
76.177991
 30
0.0
  0
POINT
  5
76
330
64
100
AcDbEntity
  8
001
370
     9
100
AcDbPoint
 10
27.804125
 20
93.495652
 30
0.0
  0
POINT
  5
77
330
64
100
AcDbEntity
  8
001
370
     9
100
AcDbPoint
 10
27.804125
 20
93.495652
 30
0.0
  0
POINT
  5
78
330
64
100
AcDbEntity
  8
001
370
     9
100
AcDbPoint
 10
27.804125
 20
67.720104
 30
0.0
  0
ENDBLK
  5
66
330
64
100
AcDbEntity
  8
0
100
AcDbBlockEnd
  0
BLOCK
  5
7A
330
79
100
AcDbEntity
  8
0
100
AcDbBlockBegin
  2
*D2
 70
     1
 10
0.0
 20
0.0
 30
0.0
  3
*D2
  1

  0
LINE
  5
7C
330
79
100
AcDbEntity
  8
001
370
     9
100
AcDbLine
 10
82.804125
 20
82.141804
 30
0.0
 11
82.804125
 21
33.836839
 31
0.0
  0
LINE
  5
7D
330
79
100
AcDbEntity
  8
001
370
     9
100
AcDbLine
 10
27.804125
 20
67.720104
 30
0.0
 11
27.804125
 21
33.836839
 31
0.0
  0
LINE
  5
7E
330
79
100
AcDbEntity
  8
001
370
     9
100
AcDbLine
 10
82.804125
 20
36.586839
 30
0.0
 11
27.804125
 21
36.586839
 31
0.0
  0
POLYLINE
  5
7F
330
79
100
AcDbEntity
  8
001
370
     9
100
AcDb2dPolyline
 66
     1
 10
0.0
 20
0.0
 30
0.0
  0
VERTEX
  5
81
330
7F
100
AcDbEntity
  8
001
370
     9
100
AcDbVertex
100
AcDb2dVertex
 10
81.304125
 20
36.988763
 30
0.0
  0
VERTEX
  5
82
330
7F
100
AcDbEntity
  8
001
370
     9
100
AcDbVertex
100
AcDb2dVertex
 10
82.804125
 20
36.586839
 30
0.0
  0
VERTEX
  5
83
330
7F
100
AcDbEntity
  8
001
370
     9
100
AcDbVertex
100
AcDb2dVertex
 10
81.304125
 20
36.184916
 30
0.0
  0
SEQEND
  5
80
330
7F
100
AcDbEntity
  8
001
370
     9
  0
POLYLINE
  5
84
330
79
100
AcDbEntity
  8
001
370
     9
100
AcDb2dPolyline
 66
     1
 10
0.0
 20
0.0
 30
0.0
  0
VERTEX
  5
86
330
84
100
AcDbEntity
  8
001
370
     9
100
AcDbVertex
100
AcDb2dVertex
 10
29.304125
 20
36.184916
 30
0.0
  0
VERTEX
  5
87
330
84
100
AcDbEntity
  8
001
370
     9
100
AcDbVertex
100
AcDb2dVertex
 10
27.804125
 20
36.586839
 30
0.0
  0
VERTEX
  5
88
330
84
100
AcDbEntity
  8
001
370
     9
100
AcDbVertex
100
AcDb2dVertex
 10
29.304125
 20
36.988763
 30
0.0
  0
SEQEND
  5
85
330
84
100
AcDbEntity
  8
001
370
     9
  0
TEXT
  5
89
330
79
100
AcDbEntity
  8
001
370
    30
100
AcDbText
 10
51.304125
 20
37.586839
 30
0.0
 40
4.0
  1
５５
 41
0.833333
100
AcDbText
  0
POINT
  5
8A
330
79
100
AcDbEntity
  8
001
370
     9
100
AcDbPoint
 10
82.804125
 20
82.141804
 30
0.0
  0
POINT
  5
8B
330
79
100
AcDbEntity
  8
001
370
     9
100
AcDbPoint
 10
27.804125
 20
67.720104
 30
0.0
  0
POINT
  5
8C
330
79
100
AcDbEntity
  8
001
370
     9
100
AcDbPoint
 10
27.804125
 20
36.586839
 30
0.0
  0
ENDBLK
  5
7B
330
79
100
AcDbEntity
  8
0
100
AcDbBlockEnd
  0
BLOCK
  5
8E
330
8D
100
AcDbEntity
  8
0
100
AcDbBlockBegin
  2
*D3
 70
     1
 10
0.0
 20
0.0
 30
0.0
  3
*D3
  1

  0
LINE
  5
90
330
8D
100
AcDbEntity
  8
001
370
     9
100
AcDbLine
 10
162.804125
 20
96.495652
 30
0.0
 11
162.804125
 21
33.836839
 31
0.0
  0
LINE
  5
91
330
8D
100
AcDbEntity
  8
001
370
     9
100
AcDbLine
 10
82.804125
 20
82.141804
 30
0.0
 11
82.804125
 21
33.836839
 31
0.0
  0
LINE
  5
92
330
8D
100
AcDbEntity
  8
001
370
     9
100
AcDbLine
 10
162.804125
 20
36.586839
 30
0.0
 11
82.804125
 21
36.586839
 31
0.0
  0
POLYLINE
  5
93
330
8D
100
AcDbEntity
  8
001
370
     9
100
AcDb2dPolyline
 66
     1
 10
0.0
 20
0.0
 30
0.0
  0
VERTEX
  5
95
330
93
100
AcDbEntity
  8
001
370
     9
100
AcDbVertex
100
AcDb2dVertex
 10
161.304125
 20
36.988763
 30
0.0
  0
VERTEX
  5
96
330
93
100
AcDbEntity
  8
001
370
     9
100
AcDbVertex
100
AcDb2dVertex
 10
162.804125
 20
36.586839
 30
0.0
  0
VERTEX
  5
97
330
93
100
AcDbEntity
  8
001
370
     9
100
AcDbVertex
100
AcDb2dVertex
 10
161.304125
 20
36.184916
 30
0.0
  0
SEQEND
  5
94
330
93
100
AcDbEntity
  8
001
370
     9
  0
POLYLINE
  5
98
330
8D
100
AcDbEntity
  8
001
370
     9
100
AcDb2dPolyline
 66
     1
 10
0.0
 20
0.0
 30
0.0
  0
VERTEX
  5
9A
330
98
100
AcDbEntity
  8
001
370
     9
100
AcDbVertex
100
AcDb2dVertex
 10
84.304125
 20
36.184916
 30
0.0
  0
VERTEX
  5
9B
330
98
100
AcDbEntity
  8
001
370
     9
100
AcDbVertex
100
AcDb2dVertex
 10
82.804125
 20
36.586839
 30
0.0
  0
VERTEX
  5
9C
330
98
100
AcDbEntity
  8
001
370
     9
100
AcDbVertex
100
AcDb2dVertex
 10
84.304125
 20
36.988763
 30
0.0
  0
SEQEND
  5
99
330
98
100
AcDbEntity
  8
001
370
     9
  0
TEXT
  5
9D
330
8D
100
AcDbEntity
  8
001
370
    30
100
AcDbText
 10
118.804125
 20
37.586839
 30
0.0
 40
4.0
  1
８０
 41
0.833333
100
AcDbText
  0
POINT
  5
9E
330
8D
100
AcDbEntity
  8
001
370
     9
100
AcDbPoint
 10
162.804125
 20
96.495652
 30
0.0
  0
POINT
  5
9F
330
8D
100
AcDbEntity
  8
001
370
     9
100
AcDbPoint
 10
82.804125
 20
82.141804
 30
0.0
  0
POINT
  5
A0
330
8D
100
AcDbEntity
  8
001
370
     9
100
AcDbPoint
 10
82.804125
 20
36.586839
 30
0.0
  0
ENDBLK
  5
8F
330
8D
100
AcDbEntity
  8
0
100
AcDbBlockEnd
  0
BLOCK
  5
A2
330
A1
100
AcDbEntity
  8
0
100
AcDbBlockBegin
  2
*D4
 70
     1
 10
0.0
 20
0.0
 30
0.0
  3
*D4
  1

  0
LINE
  5
A4
330
A1
100
AcDbEntity
  8
001
370
     9
100
AcDbLine
 10
27.804125
 20
67.720104
 30
0.0
 11
27.804125
 21
23.719237
 31
0.0
  0
LINE
  5
A5
330
A1
100
AcDbEntity
  8
001
370
     9
100
AcDbLine
 10
162.804125
 20
96.495652
 30
0.0
 11
162.804125
 21
23.719237
 31
0.0
  0
LINE
  5
A6
330
A1
100
AcDbEntity
  8
001
370
     9
100
AcDbLine
 10
27.804125
 20
26.469237
 30
0.0
 11
162.804125
 21
26.469237
 31
0.0
  0
POLYLINE
  5
A7
330
A1
100
AcDbEntity
  8
001
370
     9
100
AcDb2dPolyline
 66
     1
 10
0.0
 20
0.0
 30
0.0
  0
VERTEX
  5
A9
330
A7
100
AcDbEntity
  8
001
370
     9
100
AcDbVertex
100
AcDb2dVertex
 10
29.304125
 20
26.067313
 30
0.0
  0
VERTEX
  5
AA
330
A7
100
AcDbEntity
  8
001
370
     9
100
AcDbVertex
100
AcDb2dVertex
 10
27.804125
 20
26.469237
 30
0.0
  0
VERTEX
  5
AB
330
A7
100
AcDbEntity
  8
001
370
     9
100
AcDbVertex
100
AcDb2dVertex
 10
29.304125
 20
26.871161
 30
0.0
  0
SEQEND
  5
A8
330
A7
100
AcDbEntity
  8
001
370
     9
  0
POLYLINE
  5
AC
330
A1
100
AcDbEntity
  8
001
370
     9
100
AcDb2dPolyline
 66
     1
 10
0.0
 20
0.0
 30
0.0
  0
VERTEX
  5
AE
330
AC
100
AcDbEntity
  8
001
370
     9
100
AcDbVertex
100
AcDb2dVertex
 10
161.304125
 20
26.871161
 30
0.0
  0
VERTEX
  5
AF
330
AC
100
AcDbEntity
  8
001
370
     9
100
AcDbVertex
100
AcDb2dVertex
 10
162.804125
 20
26.469237
 30
0.0
  0
VERTEX
  5
B0
330
AC
100
AcDbEntity
  8
001
370
     9
100
AcDbVertex
100
AcDb2dVertex
 10
161.304125
 20
26.067313
 30
0.0
  0
SEQEND
  5
AD
330
AC
100
AcDbEntity
  8
001
370
     9
  0
TEXT
  5
B1
330
A1
100
AcDbEntity
  8
001
370
    30
100
AcDbText
 10
89.304125
 20
27.469237
 30
0.0
 40
4.0
  1
１３５
 41
0.833333
100
AcDbText
  0
POINT
  5
B2
330
A1
100
AcDbEntity
  8
001
370
     9
100
AcDbPoint
 10
27.804125
 20
67.720104
 30
0.0
  0
POINT
  5
B3
330
A1
100
AcDbEntity
  8
001
370
     9
100
AcDbPoint
 10
162.804125
 20
96.495652
 30
0.0
  0
POINT
  5
B4
330
A1
100
AcDbEntity
  8
001
370
     9
100
AcDbPoint
 10
162.804125
 20
26.469237
 30
0.0
  0
ENDBLK
  5
A3
330
A1
100
AcDbEntity
  8
0
100
AcDbBlockEnd
  0
BLOCK
  5
B6
330
B5
100
AcDbEntity
  8
0
100
AcDbBlockBegin
  2
*D5
 70
     1
 10
0.0
 20
0.0
 30
0.0
  3
*D5
  1

  0
LINE
  5
B8
330
B5
100
AcDbEntity
  8
001
370
     9
100
AcDbLine
 10
52.639619
 20
67.720104
 30
0.0
 11
52.639619
 21
44.607191
 31
0.0
  0
LINE
  5
B9
330
B5
100
AcDbEntity
  8
001
370
     9
100
AcDbLine
 10
27.804125
 20
67.720104
 30
0.0
 11
27.804125
 21
44.607191
 31
0.0
  0
LINE
  5
BA
330
B5
100
AcDbEntity
  8
001
370
     9
100
AcDbLine
 10
52.639619
 20
47.357191
 30
0.0
 11
27.804125
 21
47.357191
 31
0.0
  0
POLYLINE
  5
BB
330
B5
100
AcDbEntity
  8
001
370
     9
100
AcDb2dPolyline
 66
     1
 10
0.0
 20
0.0
 30
0.0
  0
VERTEX
  5
BD
330
BB
100
AcDbEntity
  8
001
370
     9
100
AcDbVertex
100
AcDb2dVertex
 10
51.139619
 20
47.759115
 30
0.0
  0
VERTEX
  5
BE
330
BB
100
AcDbEntity
  8
001
370
     9
100
AcDbVertex
100
AcDb2dVertex
 10
52.639619
 20
47.357191
 30
0.0
  0
VERTEX
  5
BF
330
BB
100
AcDbEntity
  8
001
370
     9
100
AcDbVertex
100
AcDb2dVertex
 10
51.139619
 20
46.955267
 30
0.0
  0
SEQEND
  5
BC
330
BB
100
AcDbEntity
  8
001
370
     9
  0
POLYLINE
  5
C0
330
B5
100
AcDbEntity
  8
001
370
     9
100
AcDb2dPolyline
 66
     1
 10
0.0
 20
0.0
 30
0.0
  0
VERTEX
  5
C2
330
C0
100
AcDbEntity
  8
001
370
     9
100
AcDbVertex
100
AcDb2dVertex
 10
29.304125
 20
46.955267
 30
0.0
  0
VERTEX
  5
C3
330
C0
100
AcDbEntity
  8
001
370
     9
100
AcDbVertex
100
AcDb2dVertex
 10
27.804125
 20
47.357191
 30
0.0
  0
VERTEX
  5
C4
330
C0
100
AcDbEntity
  8
001
370
     9
100
AcDbVertex
100
AcDb2dVertex
 10
29.304125
 20
47.759115
 30
0.0
  0
SEQEND
  5
C1
330
C0
100
AcDbEntity
  8
001
370
     9
  0
TEXT
  5
C5
330
B5
100
AcDbEntity
  8
001
370
    30
100
AcDbText
 10
28.221872
 20
48.357191
 30
0.0
 40
4.0
  1
（２４．８）
 41
0.833333
100
AcDbText
  0
POINT
  5
C6
330
B5
100
AcDbEntity
  8
001
370
     9
100
AcDbPoint
 10
52.639619
 20
67.720104
 30
0.0
  0
POINT
  5
C7
330
B5
100
AcDbEntity
  8
001
370
     9
100
AcDbPoint
 10
27.804125
 20
67.720104
 30
0.0
  0
POINT
  5
C8
330
B5
100
AcDbEntity
  8
001
370
     9
100
AcDbPoint
 10
27.804125
 20
47.357191
 30
0.0
  0
ENDBLK
  5
B7
330
B5
100
AcDbEntity
  8
0
100
AcDbBlockEnd
  0
BLOCK
  5
CA
330
C9
100
AcDbEntity
  8
0
100
AcDbBlockBegin
  2
*D6
 70
     1
 10
0.0
 20
0.0
 30
0.0
  3
*D6
  1

  0
LINE
  5
CC
330
C9
100
AcDbEntity
  8
001
370
     9
100
AcDbLine
 10
154.804125
 20
120.495652
 30
0.0
 11
191.227906
 21
120.495652
 31
0.0
  0
LINE
  5
CD
330
C9
100
AcDbEntity
  8
001
370
     9
100
AcDbLine
 10
154.804125
 20
88.495652
 30
0.0
 11
191.227906
 21
88.495652
 31
0.0
  0
LINE
  5
CE
330
C9
100
AcDbEntity
  8
001
370
     9
100
AcDbLine
 10
188.477906
 20
120.495652
 30
0.0
 11
188.477906
 21
88.495652
 31
0.0
  0
POLYLINE
  5
CF
330
C9
100
AcDbEntity
  8
001
370
     9
100
AcDb2dPolyline
 66
     1
 10
0.0
 20
0.0
 30
0.0
  0
VERTEX
  5
D1
330
CF
100
AcDbEntity
  8
001
370
     9
100
AcDbVertex
100
AcDb2dVertex
 10
188.075982
 20
118.995652
 30
0.0
  0
VERTEX
  5
D2
330
CF
100
AcDbEntity
  8
001
370
     9
100
AcDbVertex
100
AcDb2dVertex
 10
188.477906
 20
120.495652
 30
0.0
  0
VERTEX
  5
D3
330
CF
100
AcDbEntity
  8
001
370
     9
100
AcDbVertex
100
AcDb2dVertex
 10
188.87983
 20
118.995652
 30
0.0
  0
SEQEND
  5
D0
330
CF
100
AcDbEntity
  8
001
370
     9
  0
POLYLINE
  5
D4
330
C9
100
AcDbEntity
  8
001
370
     9
100
AcDb2dPolyline
 66
     1
 10
0.0
 20
0.0
 30
0.0
  0
VERTEX
  5
D6
330
D4
100
AcDbEntity
  8
001
370
     9
100
AcDbVertex
100
AcDb2dVertex
 10
188.87983
 20
89.995652
 30
0.0
  0
VERTEX
  5
D7
330
D4
100
AcDbEntity
  8
001
370
     9
100
AcDbVertex
100
AcDb2dVertex
 10
188.477906
 20
88.495652
 30
0.0
  0
VERTEX
  5
D8
330
D4
100
AcDbEntity
  8
001
370
     9
100
AcDbVertex
100
AcDb2dVertex
 10
188.075982
 20
89.995652
 30
0.0
  0
SEQEND
  5
D5
330
D4
100
AcDbEntity
  8
001
370
     9
  0
TEXT
  5
D9
330
C9
100
AcDbEntity
  8
001
370
    30
100
AcDbText
 10
187.477906
 20
98.495652
 30
0.0
 40
4.0
  1
%%c３２
 50
90.000003
 41
0.882353
100
AcDbText
  0
POINT
  5
DA
330
C9
100
AcDbEntity
  8
001
370
     9
100
AcDbPoint
 10
154.804125
 20
120.495652
 30
0.0
  0
POINT
  5
DB
330
C9
100
AcDbEntity
  8
001
370
     9
100
AcDbPoint
 10
154.804125
 20
88.495652
 30
0.0
  0
POINT
  5
DC
330
C9
100
AcDbEntity
  8
001
370
     9
100
AcDbPoint
 10
188.477906
 20
88.495652
 30
0.0
  0
ENDBLK
  5
CB
330
C9
100
AcDbEntity
  8
0
100
AcDbBlockEnd
  0
ENDSEC
  0
SECTION
  2
ENTITIES
  0
DIMENSION
  5
DD
330
1F
100
AcDbEntity
  8
001
370
     9
100
AcDbDimension
  2
*D1
 10
27.804125
 20
93.495652
 30
0.0
 11
43.52887
 21
63.288698
 31
0.0
 70
    34
 71
     5
 42
-1.0
  3
Standard
100
AcDb2LineAngularDimension
 13
52.536308
 23
76.177991
 33
0.0
 14
27.804125
 24
93.495652
 34
0.0
 15
27.804125
 25
67.720104
 35
0.0
 16
44.914116
 26
60.627665
 36
0.0
  0
DIMENSION
  5
DE
330
1F
100
AcDbEntity
  8
001
370
     9
100
AcDbDimension
  2
*D2
 10
27.804125
 20
36.586839
 30
0.0
 11
55.304125
 21
39.586839
 31
0.0
 70
   160
 71
     5
 42
-1.0
  3
Standard
100
AcDbAlignedDimension
 13
82.804125
 23
82.141804
 33
0.0
 14
27.804125
 24
67.720104
 34
0.0
 50
180.0
100
AcDbRotatedDimension
  0
DIMENSION
  5
DF
330
1F
100
AcDbEntity
  8
001
370
     9
100
AcDbDimension
  2
*D3
 10
82.804125
 20
36.586839
 30
0.0
 11
122.804125
 21
39.586839
 31
0.0
 70
   160
 71
     5
 42
-1.0
  3
Standard
100
AcDbAlignedDimension
 13
162.804125
 23
96.495652
 33
0.0
 14
82.804125
 24
82.141804
 34
0.0
 50
180.0
100
AcDbRotatedDimension
  0
TEXT
  5
E0
330
1F
100
AcDbEntity
  8
001
370
    30
100
AcDbText
 10
5.532748
 20
98.495652
 30
0.0
 40
4.0
  1
%%c２２
 50
90.000003
 41
0.882353
100
AcDbText
  0
POLYLINE
  5
E1
330
1F
100
AcDbEntity
  8
001
370
     9
100
AcDb2dPolyline
 66
     1
 10
0.0
 20
0.0
 30
0.0
  0
VERTEX
  5
E3
330
E1
100
AcDbEntity
  8
001
370
     9
100
AcDbVertex
100
AcDb2dVertex
 10
6.934672
 20
94.995652
 30
0.0
  0
VERTEX
  5
E4
330
E1
100
AcDbEntity
  8
001
370
     9
100
AcDbVertex
100
AcDb2dVertex
 10
6.532748
 20
93.495652
 30
0.0
  0
VERTEX
  5
E5
330
E1
100
AcDbEntity
  8
001
370
     9
100
AcDbVertex
100
AcDb2dVertex
 10
6.130824
 20
94.995652
 30
0.0
  0
SEQEND
  5
E2
330
E1
100
AcDbEntity
  8
001
370
     9
  0
LINE
  5
E6
330
1F
100
AcDbEntity
  8
001
370
     9
100
AcDbLine
 10
6.532748
 20
93.495652
 30
0.0
 11
6.532748
 21
115.495652
 31
0.0
  0
POLYLINE
  5
E7
330
1F
100
AcDbEntity
  8
001
370
     9
100
AcDb2dPolyline
 66
     1
 10
0.0
 20
0.0
 30
0.0
  0
VERTEX
  5
E9
330
E7
100
AcDbEntity
  8
001
370
     9
100
AcDbVertex
100
AcDb2dVertex
 10
11.440352
 20
93.495652
 30
0.0
  0
VERTEX
  5
EA
330
E7
100
AcDbEntity
  8
001
370
     9
100
AcDbVertex
100
AcDb2dVertex
 10
6.532748
 20
93.495652
 30
0.0
  0
VERTEX
  5
EB
330
E7
100
AcDbEntity
  8
001
370
     9
100
AcDbVertex
100
AcDb2dVertex
 10
3.782748
 20
93.495652
 30
0.0
  0
SEQEND
  5
E8
330
E7
100
AcDbEntity
  8
001
370
     9
  0
TEXT
  5
EC
330
1F
100
AcDbEntity
  8
001
370
    30
100
AcDbText
 10
-5.237604
 20
88.495652
 30
0.0
 40
4.0
  1
（%%c５６．７８）
 50
90.000003
 41
0.851064
100
AcDbText
  0
POLYLINE
  5
ED
330
1F
100
AcDbEntity
  8
001
370
     9
100
AcDb2dPolyline
 66
     1
 10
0.0
 20
0.0
 30
0.0
  0
VERTEX
  5
EF
330
ED
100
AcDbEntity
  8
001
370
     9
100
AcDbVertex
100
AcDb2dVertex
 10
-3.83568
 20
77.605652
 30
0.0
  0
VERTEX
  5
F0
330
ED
100
AcDbEntity
  8
001
370
     9
100
AcDbVertex
100
AcDb2dVertex
 10
-4.237604
 20
76.105652
 30
0.0
  0
VERTEX
  5
F1
330
ED
100
AcDbEntity
  8
001
370
     9
100
AcDbVertex
100
AcDb2dVertex
 10
-4.639528
 20
77.605652
 30
0.0
  0
SEQEND
  5
EE
330
ED
100
AcDbEntity
  8
001
370
     9
  0
LINE
  5
F2
330
1F
100
AcDbEntity
  8
001
370
     9
100
AcDbLine
 10
-4.237604
 20
76.105652
 30
0.0
 11
-4.237604
 21
132.885652
 31
0.0
  0
POLYLINE
  5
F3
330
1F
100
AcDbEntity
  8
001
370
     9
100
AcDb2dPolyline
 66
     1
 10
0.0
 20
0.0
 30
0.0
  0
VERTEX
  5
F5
330
F3
100
AcDbEntity
  8
001
370
     9
100
AcDbVertex
100
AcDb2dVertex
 10
11.440352
 20
76.105652
 30
0.0
  0
VERTEX
  5
F6
330
F3
100
AcDbEntity
  8
001
370
     9
100
AcDbVertex
100
AcDb2dVertex
 10
-4.237604
 20
76.105652
 30
0.0
  0
VERTEX
  5
F7
330
F3
100
AcDbEntity
  8
001
370
     9
100
AcDbVertex
100
AcDb2dVertex
 10
-6.987604
 20
76.105652
 30
0.0
  0
SEQEND
  5
F4
330
F3
100
AcDbEntity
  8
001
370
     9
  0
DIMENSION
  5
F8
330
1F
100
AcDbEntity
  8
001
370
     9
100
AcDbDimension
  2
*D4
 10
162.804125
 20
26.469237
 30
0.0
 11
95.304125
 21
29.469237
 31
0.0
 70
   160
 71
     5
 42
-1.0
  3
Standard
100
AcDbAlignedDimension
 13
27.804125
 23
67.720104
 33
0.0
 14
162.804125
 24
96.495652
 34
0.0
100
AcDbRotatedDimension
  0
DIMENSION
  5
F9
330
1F
100
AcDbEntity
  8
001
370
     9
100
AcDbDimension
  2
*D5
 10
27.804125
 20
47.357191
 30
0.0
 11
40.221872
 21
50.357191
 31
0.0
 70
   160
 71
     5
 42
-1.0
  3
Standard
100
AcDbAlignedDimension
 13
52.639619
 23
67.720104
 33
0.0
 14
27.804125
 24
67.720104
 34
0.0
 50
180.0
100
AcDbRotatedDimension
  0
DIMENSION
  5
FA
330
1F
100
AcDbEntity
  8
001
370
     9
100
AcDbDimension
  2
*D6
 10
188.477906
 20
88.495652
 30
0.0
 11
185.477906
 21
104.495652
 31
0.0
 70
   160
 71
     5
 42
-1.0
  3
Standard
100
AcDbAlignedDimension
 13
154.804125
 23
120.495652
 33
0.0
 14
154.804125
 24
88.495652
 34
0.0
 50
270.0
100
AcDbRotatedDimension
  0
TEXT
  5
FB
330
1F
100
AcDbEntity
  8
001
370
    30
100
AcDbText
 10
38.10008
 20
147.709557
 30
0.0
 40
4.0
  1
ＮＫ５５５６Ｘ（ＮＥＷ）
 41
0.833333
100
AcDbText
  0
POLYLINE
  5
FC
330
1F
100
AcDbEntity
  8
001
370
    50
100
AcDb2dPolyline
 66
     1
 10
0.0
 20
0.0
 30
0.0
  0
VERTEX
  5
FE
330
FC
100
AcDbEntity
  8
001
370
    50
100
AcDbVertex
100
AcDb2dVertex
 10
53.541337
 20
119.577971
 30
0.0
  0
VERTEX
  5
FF
330
FC
100
AcDbEntity
  8
001
370
    50
100
AcDbVertex
100
AcDb2dVertex
 10
53.524749
 20
119.577177
 30
0.0
  0
VERTEX
  5
100
330
FC
100
AcDbEntity
  8
001
370
    50
100
AcDbVertex
100
AcDb2dVertex
 10
53.501495
 20
119.575626
 30
0.0
  0
VERTEX
  5
101
330
FC
100
AcDbEntity
  8
001
370
    50
100
AcDbVertex
100
AcDb2dVertex
 10
53.46484
 20
119.571752
 30
0.0
  0
VERTEX
  5
102
330
FC
100
AcDbEntity
  8
001
370
    50
100
AcDbVertex
100
AcDb2dVertex
 10
53.432543
 20
119.56672
 30
0.0
  0
VERTEX
  5
103
330
FC
100
AcDbEntity
  8
001
370
    50
100
AcDbVertex
100
AcDb2dVertex
 10
53.399908
 20
119.560512
 30
0.0
  0
VERTEX
  5
104
330
FC
100
AcDbEntity
  8
001
370
    50
100
AcDbVertex
100
AcDb2dVertex
 10
53.364619
 20
119.551892
 30
0.0
  0
VERTEX
  5
105
330
FC
100
AcDbEntity
  8
001
370
    50
100
AcDbVertex
100
AcDb2dVertex
 10
53.294839
 20
119.528956
 30
0.0
  0
VERTEX
  5
106
330
FC
100
AcDbEntity
  8
001
370
    50
100
AcDbVertex
100
AcDb2dVertex
 10
53.244736
 20
119.508698
 30
0.0
  0
SEQEND
  5
FD
330
FC
100
AcDbEntity
  8
001
370
    50
  0
LINE
  5
107
330
1F
100
AcDbEntity
  8
001
370
    50
100
AcDbLine
 10
53.541337
 20
119.577971
 30
0.0
 11
54.642798
 21
119.613667
 31
0.0
  0
POLYLINE
  5
108
330
1F
100
AcDbEntity
  8
001
370
    50
100
AcDb2dPolyline
 66
     1
 10
0.0
 20
0.0
 30
0.0
  0
VERTEX
  5
10A
330
108
100
AcDbEntity
  8
001
370
    50
100
AcDbVertex
100
AcDb2dVertex
 10
28.51243
 20
107.711742
 30
0.0
  0
VERTEX
  5
10B
330
108
100
AcDbEntity
  8
001
370
    50
100
AcDbVertex
100
AcDb2dVertex
 10
28.516459
 20
107.697617
 30
0.0
  0
VERTEX
  5
10C
330
108
100
AcDbEntity
  8
001
370
    50
100
AcDbVertex
100
AcDb2dVertex
 10
28.524286
 20
107.678941
 30
0.0
  0
VERTEX
  5
10D
330
108
100
AcDbEntity
  8
001
370
    50
100
AcDbVertex
100
AcDb2dVertex
 10
28.535174
 20
107.662354
 30
0.0
  0
VERTEX
  5
10E
330
108
100
AcDbEntity
  8
001
370
    50
100
AcDbVertex
100
AcDb2dVertex
 10
28.547756
 20
107.649212
 30
0.0
  0
VERTEX
  5
10F
330
108
100
AcDbEntity
  8
001
370
    50
100
AcDbVertex
100
AcDb2dVertex
 10
28.563699
 20
107.635746
 30
0.0
  0
VERTEX
  5
110
330
108
100
AcDbEntity
  8
001
370
    50
100
AcDbVertex
100
AcDb2dVertex
 10
28.582127
 20
107.62346
 30
0.0
  0
VERTEX
  5
111
330
108
100
AcDbEntity
  8
001
370
    50
100
AcDbVertex
100
AcDb2dVertex
 10
28.650189
 20
107.59534
 30
0.0
  0
VERTEX
  5
112
330
108
100
AcDbEntity
  8
001
370
    50
100
AcDbVertex
100
AcDb2dVertex
 10
28.704125
 20
107.581927
 30
0.0
  0
SEQEND
  5
109
330
108
100
AcDbEntity
  8
001
370
    50
  0
LINE
  5
113
330
1F
100
AcDbEntity
  8
001
370
    50
100
AcDbLine
 10
28.684952
 20
107.916933
 30
0.0
 11
53.244736
 21
119.508698
 31
0.0
  0
POLYLINE
  5
114
330
1F
100
AcDbEntity
  8
001
370
    50
100
AcDb2dPolyline
 66
     1
 10
0.0
 20
0.0
 30
0.0
  0
VERTEX
  5
116
330
114
100
AcDbEntity
  8
001
370
    50
100
AcDbVertex
100
AcDb2dVertex
 10
52.834477
 20
123.654546
 30
0.0
  0
VERTEX
  5
117
330
114
100
AcDbEntity
  8
001
370
    50
100
AcDbVertex
100
AcDb2dVertex
 10
52.81789
 20
123.653752
 30
0.0
  0
VERTEX
  5
118
330
114
100
AcDbEntity
  8
001
370
    50
100
AcDbVertex
100
AcDb2dVertex
 10
52.794636
 20
123.652201
 30
0.0
  0
VERTEX
  5
119
330
114
100
AcDbEntity
  8
001
370
    50
100
AcDbVertex
100
AcDb2dVertex
 10
52.757981
 20
123.648327
 30
0.0
  0
VERTEX
  5
11A
330
114
100
AcDbEntity
  8
001
370
    50
100
AcDbVertex
100
AcDb2dVertex
 10
52.725684
 20
123.643295
 30
0.0
  0
VERTEX
  5
11B
330
114
100
AcDbEntity
  8
001
370
    50
100
AcDbVertex
100
AcDb2dVertex
 10
52.693049
 20
123.637087
 30
0.0
  0
VERTEX
  5
11C
330
114
100
AcDbEntity
  8
001
370
    50
100
AcDbVertex
100
AcDb2dVertex
 10
52.657759
 20
123.628467
 30
0.0
  0
VERTEX
  5
11D
330
114
100
AcDbEntity
  8
001
370
    50
100
AcDbVertex
100
AcDb2dVertex
 10
52.58798
 20
123.605531
 30
0.0
  0
VERTEX
  5
11E
330
114
100
AcDbEntity
  8
001
370
    50
100
AcDbVertex
100
AcDb2dVertex
 10
52.537877
 20
123.585273
 30
0.0
  0
SEQEND
  5
115
330
114
100
AcDbEntity
  8
001
370
    50
  0
LINE
  5
11F
330
1F
100
AcDbEntity
  8
001
370
    50
100
AcDbLine
 10
52.834477
 20
123.654546
 30
0.0
 11
73.534915
 21
124.325397
 31
0.0
  0
LINE
  5
120
330
1F
100
AcDbEntity
  8
001
370
    50
100
AcDbLine
 10
27.978093
 20
111.993508
 30
0.0
 11
52.537877
 21
123.585273
 31
0.0
  0
LINE
  5
121
330
1F
100
AcDbEntity
  8
001
370
    50
100
AcDbLine
 10
74.233797
 20
121.997437
 30
0.0
 11
73.854032
 21
124.18761
 31
0.0
  0
POLYLINE
  5
122
330
1F
100
AcDbEntity
  8
001
370
    50
100
AcDb2dPolyline
 66
     1
 10
0.0
 20
0.0
 30
0.0
  0
VERTEX
  5
124
330
122
100
AcDbEntity
  8
001
370
    50
100
AcDbVertex
100
AcDb2dVertex
 10
73.854031
 20
124.18761
 30
0.0
  0
VERTEX
  5
125
330
122
100
AcDbEntity
  8
001
370
    50
100
AcDbVertex
100
AcDb2dVertex
 10
73.84998
 20
124.201737
 30
0.0
  0
VERTEX
  5
126
330
122
100
AcDbEntity
  8
001
370
    50
100
AcDbVertex
100
AcDb2dVertex
 10
73.842176
 20
124.220411
 30
0.0
  0
VERTEX
  5
127
330
122
100
AcDbEntity
  8
001
370
    50
100
AcDbVertex
100
AcDb2dVertex
 10
73.831418
 20
124.236985
 30
0.0
  0
VERTEX
  5
128
330
122
100
AcDbEntity
  8
001
370
    50
100
AcDbVertex
100
AcDb2dVertex
 10
73.818706
 20
124.25014
 30
0.0
  0
VERTEX
  5
129
330
122
100
AcDbEntity
  8
001
370
    50
100
AcDbVertex
100
AcDb2dVertex
 10
73.80217
 20
124.263664
 30
0.0
  0
VERTEX
  5
12A
330
122
100
AcDbEntity
  8
001
370
    50
100
AcDbVertex
100
AcDb2dVertex
 10
73.784334
 20
124.275892
 30
0.0
  0
VERTEX
  5
12B
330
122
100
AcDbEntity
  8
001
370
    50
100
AcDbVertex
100
AcDb2dVertex
 10
73.712599
 20
124.307961
 30
0.0
  0
VERTEX
  5
12C
330
122
100
AcDbEntity
  8
001
370
    50
100
AcDbVertex
100
AcDb2dVertex
 10
73.627709
 20
124.322207
 30
0.0
  0
VERTEX
  5
12D
330
122
100
AcDbEntity
  8
001
370
    50
100
AcDbVertex
100
AcDb2dVertex
 10
73.57359
 20
124.325101
 30
0.0
  0
VERTEX
  5
12E
330
122
100
AcDbEntity
  8
001
370
    50
100
AcDbVertex
100
AcDb2dVertex
 10
73.534915
 20
124.325397
 30
0.0
  0
SEQEND
  5
123
330
122
100
AcDbEntity
  8
001
370
    50
  0
POLYLINE
  5
12F
330
1F
100
AcDbEntity
  8
001
370
    50
100
AcDb2dPolyline
 66
     1
 10
0.0
 20
0.0
 30
0.0
  0
VERTEX
  5
131
330
12F
100
AcDbEntity
  8
001
370
    50
100
AcDbVertex
100
AcDb2dVertex
 10
28.684952
 20
107.916933
 30
0.0
  0
VERTEX
  5
132
330
12F
100
AcDbEntity
  8
001
370
    50
100
AcDbVertex
100
AcDb2dVertex
 10
28.683027
 20
107.916018
 30
0.0
  0
VERTEX
  5
133
330
12F
100
AcDbEntity
  8
001
370
    50
100
AcDbVertex
100
AcDb2dVertex
 10
28.680227
 20
107.914678
 30
0.0
  0
VERTEX
  5
134
330
12F
100
AcDbEntity
  8
001
370
    50
100
AcDbVertex
100
AcDb2dVertex
 10
28.603814
 20
107.871414
 30
0.0
  0
VERTEX
  5
135
330
12F
100
AcDbEntity
  8
001
370
    50
100
AcDbVertex
100
AcDb2dVertex
 10
28.548337
 20
107.818335
 30
0.0
  0
VERTEX
  5
136
330
12F
100
AcDbEntity
  8
001
370
    50
100
AcDbVertex
100
AcDb2dVertex
 10
28.535703
 20
107.800859
 30
0.0
  0
VERTEX
  5
137
330
12F
100
AcDbEntity
  8
001
370
    50
100
AcDbVertex
100
AcDb2dVertex
 10
28.524642
 20
107.782514
 30
0.0
  0
VERTEX
  5
138
330
12F
100
AcDbEntity
  8
001
370
    50
100
AcDbVertex
100
AcDb2dVertex
 10
28.517092
 20
107.765839
 30
0.0
  0
VERTEX
  5
139
330
12F
100
AcDbEntity
  8
001
370
    50
100
AcDbVertex
100
AcDb2dVertex
 10
28.51255
 20
107.74662
 30
0.0
  0
VERTEX
  5
13A
330
12F
100
AcDbEntity
  8
001
370
    50
100
AcDbVertex
100
AcDb2dVertex
 10
28.511491
 20
107.726411
 30
0.0
  0
VERTEX
  5
13B
330
12F
100
AcDbEntity
  8
001
370
    50
100
AcDbVertex
100
AcDb2dVertex
 10
28.51243
 20
107.711742
 30
0.0
  0
SEQEND
  5
130
330
12F
100
AcDbEntity
  8
001
370
    50
  0
POLYLINE
  5
13C
330
1F
100
AcDbEntity
  8
001
370
    50
100
AcDb2dPolyline
 66
     1
 10
0.0
 20
0.0
 30
0.0
  0
VERTEX
  5
13E
330
13C
100
AcDbEntity
  8
001
370
    50
100
AcDbVertex
100
AcDb2dVertex
 10
27.978093
 20
111.993508
 30
0.0
  0
VERTEX
  5
13F
330
13C
100
AcDbEntity
  8
001
370
    50
100
AcDbVertex
100
AcDb2dVertex
 10
27.976168
 20
111.992593
 30
0.0
  0
VERTEX
  5
140
330
13C
100
AcDbEntity
  8
001
370
    50
100
AcDbVertex
100
AcDb2dVertex
 10
27.973367
 20
111.991253
 30
0.0
  0
VERTEX
  5
141
330
13C
100
AcDbEntity
  8
001
370
    50
100
AcDbVertex
100
AcDb2dVertex
 10
27.896955
 20
111.947989
 30
0.0
  0
VERTEX
  5
142
330
13C
100
AcDbEntity
  8
001
370
    50
100
AcDbVertex
100
AcDb2dVertex
 10
27.841478
 20
111.89491
 30
0.0
  0
VERTEX
  5
143
330
13C
100
AcDbEntity
  8
001
370
    50
100
AcDbVertex
100
AcDb2dVertex
 10
27.828844
 20
111.877434
 30
0.0
  0
VERTEX
  5
144
330
13C
100
AcDbEntity
  8
001
370
    50
100
AcDbVertex
100
AcDb2dVertex
 10
27.817782
 20
111.859089
 30
0.0
  0
VERTEX
  5
145
330
13C
100
AcDbEntity
  8
001
370
    50
100
AcDbVertex
100
AcDb2dVertex
 10
27.810232
 20
111.842414
 30
0.0
  0
VERTEX
  5
146
330
13C
100
AcDbEntity
  8
001
370
    50
100
AcDbVertex
100
AcDb2dVertex
 10
27.805691
 20
111.823195
 30
0.0
  0
VERTEX
  5
147
330
13C
100
AcDbEntity
  8
001
370
    50
100
AcDbVertex
100
AcDb2dVertex
 10
27.804632
 20
111.802985
 30
0.0
  0
VERTEX
  5
148
330
13C
100
AcDbEntity
  8
001
370
    50
100
AcDbVertex
100
AcDb2dVertex
 10
27.805571
 20
111.788317
 30
0.0
  0
SEQEND
  5
13D
330
13C
100
AcDbEntity
  8
001
370
    50
  0
LINE
  5
149
330
1F
100
AcDbEntity
  8
001
370
    50
100
AcDbLine
 10
27.805571
 20
111.788317
 30
0.0
 11
28.51243
 21
107.711742
 31
0.0
  0
POLYLINE
  5
14A
330
1F
100
AcDbEntity
  8
001
370
    50
100
AcDb2dPolyline
 66
     1
 10
0.0
 20
0.0
 30
0.0
  0
VERTEX
  5
14C
330
14A
100
AcDbEntity
  8
001
370
    50
100
AcDbVertex
100
AcDb2dVertex
 10
49.121726
 20
98.337847
 30
0.0
  0
VERTEX
  5
14D
330
14A
100
AcDbEntity
  8
001
370
    50
100
AcDbVertex
100
AcDb2dVertex
 10
49.111963
 20
98.344231
 30
0.0
  0
VERTEX
  5
14E
330
14A
100
AcDbEntity
  8
001
370
    50
100
AcDbVertex
100
AcDb2dVertex
 10
49.097911
 20
98.352916
 30
0.0
  0
VERTEX
  5
14F
330
14A
100
AcDbEntity
  8
001
370
    50
100
AcDbVertex
100
AcDb2dVertex
 10
49.065307
 20
98.370158
 30
0.0
  0
VERTEX
  5
150
330
14A
100
AcDbEntity
  8
001
370
    50
100
AcDbVertex
100
AcDb2dVertex
 10
49.035419
 20
98.382383
 30
0.0
  0
VERTEX
  5
151
330
14A
100
AcDbEntity
  8
001
370
    50
100
AcDbVertex
100
AcDb2dVertex
 10
49.004409
 20
98.392574
 30
0.0
  0
VERTEX
  5
152
330
14A
100
AcDbEntity
  8
001
370
    50
100
AcDbVertex
100
AcDb2dVertex
 10
48.968817
 20
98.400429
 30
0.0
  0
VERTEX
  5
153
330
14A
100
AcDbEntity
  8
001
370
    50
100
AcDbVertex
100
AcDb2dVertex
 10
48.929043
 20
98.405042
 30
0.0
  0
VERTEX
  5
154
330
14A
100
AcDbEntity
  8
001
370
    50
100
AcDbVertex
100
AcDb2dVertex
 10
48.900128
 20
98.406506
 30
0.0
  0
SEQEND
  5
14B
330
14A
100
AcDbEntity
  8
001
370
    50
  0
LINE
  5
155
330
1F
100
AcDbEntity
  8
001
370
    50
100
AcDbLine
 10
74.135852
 20
81.231436
 30
0.0
 11
49.121726
 21
98.337847
 31
0.0
  0
POLYLINE
  5
156
330
1F
100
AcDbEntity
  8
001
370
    50
100
AcDb2dPolyline
 66
     1
 10
0.0
 20
0.0
 30
0.0
  0
VERTEX
  5
158
330
156
100
AcDbEntity
  8
001
370
    50
100
AcDbVertex
100
AcDb2dVertex
 10
50.829801
 20
83.837487
 30
0.0
  0
VERTEX
  5
159
330
156
100
AcDbEntity
  8
001
370
    50
100
AcDbVertex
100
AcDb2dVertex
 10
51.101638
 20
83.851753
 30
0.0
  0
VERTEX
  5
15A
330
156
100
AcDbEntity
  8
001
370
    50
100
AcDbVertex
100
AcDb2dVertex
 10
51.473762
 20
83.894458
 30
0.0
  0
VERTEX
  5
15B
330
156
100
AcDbEntity
  8
001
370
    50
100
AcDbVertex
100
AcDb2dVertex
 10
51.803628
 20
83.965376
 30
0.0
  0
VERTEX
  5
15C
330
156
100
AcDbEntity
  8
001
370
    50
100
AcDbVertex
100
AcDb2dVertex
 10
52.098156
 20
84.06364
 30
0.0
  0
VERTEX
  5
15D
330
156
100
AcDbEntity
  8
001
370
    50
100
AcDbVertex
100
AcDb2dVertex
 10
52.392832
 20
84.188586
 30
0.0
  0
VERTEX
  5
15E
330
156
100
AcDbEntity
  8
001
370
    50
100
AcDbVertex
100
AcDb2dVertex
 10
52.684012
 20
84.339892
 30
0.0
  0
VERTEX
  5
15F
330
156
100
AcDbEntity
  8
001
370
    50
100
AcDbVertex
100
AcDb2dVertex
 10
53.454653
 20
84.937482
 30
0.0
  0
VERTEX
  5
160
330
156
100
AcDbEntity
  8
001
370
    50
100
AcDbVertex
100
AcDb2dVertex
 10
54.041389
 20
85.712487
 30
0.0
  0
VERTEX
  5
161
330
156
100
AcDbEntity
  8
001
370
    50
100
AcDbVertex
100
AcDb2dVertex
 10
54.314788
 20
86.306228
 30
0.0
  0
VERTEX
  5
162
330
156
100
AcDbEntity
  8
001
370
    50
100
AcDbVertex
100
AcDb2dVertex
 10
54.481884
 20
86.936306
 30
0.0
  0
VERTEX
  5
163
330
156
100
AcDbEntity
  8
001
370
    50
100
AcDbVertex
100
AcDb2dVertex
 10
54.524142
 20
87.260783
 30
0.0
  0
VERTEX
  5
164
330
156
100
AcDbEntity
  8
001
370
    50
100
AcDbVertex
100
AcDb2dVertex
 10
54.538223
 20
87.587487
 30
0.0
  0
VERTEX
  5
165
330
156
100
AcDbEntity
  8
001
370
    50
100
AcDbVertex
100
AcDb2dVertex
 10
54.524142
 20
87.91419
 30
0.0
  0
VERTEX
  5
166
330
156
100
AcDbEntity
  8
001
370
    50
100
AcDbVertex
100
AcDb2dVertex
 10
54.481884
 20
88.238668
 30
0.0
  0
VERTEX
  5
167
330
156
100
AcDbEntity
  8
001
370
    50
100
AcDbVertex
100
AcDb2dVertex
 10
54.314788
 20
88.868746
 30
0.0
  0
VERTEX
  5
168
330
156
100
AcDbEntity
  8
001
370
    50
100
AcDbVertex
100
AcDb2dVertex
 10
54.041389
 20
89.462487
 30
0.0
  0
VERTEX
  5
169
330
156
100
AcDbEntity
  8
001
370
    50
100
AcDbVertex
100
AcDb2dVertex
 10
53.454653
 20
90.237492
 30
0.0
  0
VERTEX
  5
16A
330
156
100
AcDbEntity
  8
001
370
    50
100
AcDbVertex
100
AcDb2dVertex
 10
52.684012
 20
90.835082
 30
0.0
  0
VERTEX
  5
16B
330
156
100
AcDbEntity
  8
001
370
    50
100
AcDbVertex
100
AcDb2dVertex
 10
52.392832
 20
90.986388
 30
0.0
  0
VERTEX
  5
16C
330
156
100
AcDbEntity
  8
001
370
    50
100
AcDbVertex
100
AcDb2dVertex
 10
52.098156
 20
91.111334
 30
0.0
  0
VERTEX
  5
16D
330
156
100
AcDbEntity
  8
001
370
    50
100
AcDbVertex
100
AcDb2dVertex
 10
51.803628
 20
91.209598
 30
0.0
  0
VERTEX
  5
16E
330
156
100
AcDbEntity
  8
001
370
    50
100
AcDbVertex
100
AcDb2dVertex
 10
51.473762
 20
91.280516
 30
0.0
  0
VERTEX
  5
16F
330
156
100
AcDbEntity
  8
001
370
    50
100
AcDbVertex
100
AcDb2dVertex
 10
51.101638
 20
91.323221
 30
0.0
  0
VERTEX
  5
170
330
156
100
AcDbEntity
  8
001
370
    50
100
AcDbVertex
100
AcDb2dVertex
 10
50.829801
 20
91.337487
 30
0.0
  0
SEQEND
  5
157
330
156
100
AcDbEntity
  8
001
370
    50
  0
LINE
  5
171
330
1F
100
AcDbEntity
  8
001
370
    50
100
AcDbLine
 10
67.267506
 20
86.411892
 30
0.0
 11
59.04068
 21
92.037971
 31
0.0
  0
LINE
  5
172
330
1F
100
AcDbEntity
  8
001
370
    50
100
AcDbLine
 10
52.182629
 20
96.727987
 30
0.0
 11
49.828585
 21
98.337847
 31
0.0
  0
POLYLINE
  5
173
330
1F
100
AcDbEntity
  8
001
370
    50
100
AcDb2dPolyline
 66
     1
 10
0.0
 20
0.0
 30
0.0
  0
VERTEX
  5
175
330
173
100
AcDbEntity
  8
001
370
    50
100
AcDbVertex
100
AcDb2dVertex
 10
50.829801
 20
91.337487
 30
0.0
  0
VERTEX
  5
176
330
173
100
AcDbEntity
  8
001
370
    50
100
AcDbVertex
100
AcDb2dVertex
 10
50.557965
 20
91.323221
 30
0.0
  0
VERTEX
  5
177
330
173
100
AcDbEntity
  8
001
370
    50
100
AcDbVertex
100
AcDb2dVertex
 10
50.185841
 20
91.280516
 30
0.0
  0
VERTEX
  5
178
330
173
100
AcDbEntity
  8
001
370
    50
100
AcDbVertex
100
AcDb2dVertex
 10
49.855975
 20
91.209598
 30
0.0
  0
VERTEX
  5
179
330
173
100
AcDbEntity
  8
001
370
    50
100
AcDbVertex
100
AcDb2dVertex
 10
49.561446
 20
91.111334
 30
0.0
  0
VERTEX
  5
17A
330
173
100
AcDbEntity
  8
001
370
    50
100
AcDbVertex
100
AcDb2dVertex
 10
49.266771
 20
90.986388
 30
0.0
  0
VERTEX
  5
17B
330
173
100
AcDbEntity
  8
001
370
    50
100
AcDbVertex
100
AcDb2dVertex
 10
48.97559
 20
90.835082
 30
0.0
  0
VERTEX
  5
17C
330
173
100
AcDbEntity
  8
001
370
    50
100
AcDbVertex
100
AcDb2dVertex
 10
48.20495
 20
90.237492
 30
0.0
  0
VERTEX
  5
17D
330
173
100
AcDbEntity
  8
001
370
    50
100
AcDbVertex
100
AcDb2dVertex
 10
47.618214
 20
89.462487
 30
0.0
  0
VERTEX
  5
17E
330
173
100
AcDbEntity
  8
001
370
    50
100
AcDbVertex
100
AcDb2dVertex
 10
47.344815
 20
88.868746
 30
0.0
  0
VERTEX
  5
17F
330
173
100
AcDbEntity
  8
001
370
    50
100
AcDbVertex
100
AcDb2dVertex
 10
47.177719
 20
88.238668
 30
0.0
  0
VERTEX
  5
180
330
173
100
AcDbEntity
  8
001
370
    50
100
AcDbVertex
100
AcDb2dVertex
 10
47.13546
 20
87.91419
 30
0.0
  0
VERTEX
  5
181
330
173
100
AcDbEntity
  8
001
370
    50
100
AcDbVertex
100
AcDb2dVertex
 10
47.12138
 20
87.587487
 30
0.0
  0
VERTEX
  5
182
330
173
100
AcDbEntity
  8
001
370
    50
100
AcDbVertex
100
AcDb2dVertex
 10
47.13546
 20
87.260783
 30
0.0
  0
VERTEX
  5
183
330
173
100
AcDbEntity
  8
001
370
    50
100
AcDbVertex
100
AcDb2dVertex
 10
47.177719
 20
86.936306
 30
0.0
  0
VERTEX
  5
184
330
173
100
AcDbEntity
  8
001
370
    50
100
AcDbVertex
100
AcDb2dVertex
 10
47.344815
 20
86.306228
 30
0.0
  0
VERTEX
  5
185
330
173
100
AcDbEntity
  8
001
370
    50
100
AcDbVertex
100
AcDb2dVertex
 10
47.618214
 20
85.712487
 30
0.0
  0
VERTEX
  5
186
330
173
100
AcDbEntity
  8
001
370
    50
100
AcDbVertex
100
AcDb2dVertex
 10
48.20495
 20
84.937482
 30
0.0
  0
VERTEX
  5
187
330
173
100
AcDbEntity
  8
001
370
    50
100
AcDbVertex
100
AcDb2dVertex
 10
48.97559
 20
84.339892
 30
0.0
  0
VERTEX
  5
188
330
173
100
AcDbEntity
  8
001
370
    50
100
AcDbVertex
100
AcDb2dVertex
 10
49.266771
 20
84.188586
 30
0.0
  0
VERTEX
  5
189
330
173
100
AcDbEntity
  8
001
370
    50
100
AcDbVertex
100
AcDb2dVertex
 10
49.561446
 20
84.06364
 30
0.0
  0
VERTEX
  5
18A
330
173
100
AcDbEntity
  8
001
370
    50
100
AcDbVertex
100
AcDb2dVertex
 10
49.855975
 20
83.965376
 30
0.0
  0
VERTEX
  5
18B
330
173
100
AcDbEntity
  8
001
370
    50
100
AcDbVertex
100
AcDb2dVertex
 10
50.185841
 20
83.894458
 30
0.0
  0
VERTEX
  5
18C
330
173
100
AcDbEntity
  8
001
370
    50
100
AcDbVertex
100
AcDb2dVertex
 10
50.557965
 20
83.851753
 30
0.0
  0
VERTEX
  5
18D
330
173
100
AcDbEntity
  8
001
370
    50
100
AcDbVertex
100
AcDb2dVertex
 10
50.829801
 20
83.837487
 30
0.0
  0
SEQEND
  5
174
330
173
100
AcDbEntity
  8
001
370
    50
  0
POLYLINE
  5
18E
330
1F
100
AcDbEntity
  8
001
370
    50
100
AcDb2dPolyline
 66
     1
 10
0.0
 20
0.0
 30
0.0
  0
VERTEX
  5
190
330
18E
100
AcDbEntity
  8
001
370
    50
100
AcDbVertex
100
AcDb2dVertex
 10
48.900128
 20
98.406506
 30
0.0
  0
VERTEX
  5
191
330
18E
100
AcDbEntity
  8
001
370
    50
100
AcDbVertex
100
AcDb2dVertex
 10
48.872079
 20
98.405358
 30
0.0
  0
VERTEX
  5
192
330
18E
100
AcDbEntity
  8
001
370
    50
100
AcDbVertex
100
AcDb2dVertex
 10
48.831439
 20
98.400429
 30
0.0
  0
VERTEX
  5
193
330
18E
100
AcDbEntity
  8
001
370
    50
100
AcDbVertex
100
AcDb2dVertex
 10
48.827688
 20
98.39974
 30
0.0
  0
VERTEX
  5
194
330
18E
100
AcDbEntity
  8
001
370
    50
100
AcDbVertex
100
AcDb2dVertex
 10
48.825125
 20
98.399249
 30
0.0
  0
SEQEND
  5
18F
330
18E
100
AcDbEntity
  8
001
370
    50
  0
LINE
  5
195
330
1F
100
AcDbEntity
  8
001
370
    50
100
AcDbLine
 10
49.606987
 20
98.406506
 30
0.0
 11
48.900128
 21
98.406506
 31
0.0
  0
POLYLINE
  5
196
330
1F
100
AcDbEntity
  8
001
370
    50
100
AcDb2dPolyline
 66
     1
 10
0.0
 20
0.0
 30
0.0
  0
VERTEX
  5
198
330
196
100
AcDbEntity
  8
001
370
    50
100
AcDbVertex
100
AcDb2dVertex
 10
49.828585
 20
98.337847
 30
0.0
  0
VERTEX
  5
199
330
196
100
AcDbEntity
  8
001
370
    50
100
AcDbVertex
100
AcDb2dVertex
 10
49.818822
 20
98.344231
 30
0.0
  0
VERTEX
  5
19A
330
196
100
AcDbEntity
  8
001
370
    50
100
AcDbVertex
100
AcDb2dVertex
 10
49.80477
 20
98.352916
 30
0.0
  0
VERTEX
  5
19B
330
196
100
AcDbEntity
  8
001
370
    50
100
AcDbVertex
100
AcDb2dVertex
 10
49.772166
 20
98.370158
 30
0.0
  0
VERTEX
  5
19C
330
196
100
AcDbEntity
  8
001
370
    50
100
AcDbVertex
100
AcDb2dVertex
 10
49.742278
 20
98.382383
 30
0.0
  0
VERTEX
  5
19D
330
196
100
AcDbEntity
  8
001
370
    50
100
AcDbVertex
100
AcDb2dVertex
 10
49.711268
 20
98.392574
 30
0.0
  0
VERTEX
  5
19E
330
196
100
AcDbEntity
  8
001
370
    50
100
AcDbVertex
100
AcDb2dVertex
 10
49.675676
 20
98.400429
 30
0.0
  0
VERTEX
  5
19F
330
196
100
AcDbEntity
  8
001
370
    50
100
AcDbVertex
100
AcDb2dVertex
 10
49.635902
 20
98.405042
 30
0.0
  0
VERTEX
  5
1A0
330
196
100
AcDbEntity
  8
001
370
    50
100
AcDbVertex
100
AcDb2dVertex
 10
49.606987
 20
98.406506
 30
0.0
  0
SEQEND
  5
197
330
196
100
AcDbEntity
  8
001
370
    50
  0
LINE
  5
1A1
330
1F
100
AcDbEntity
  8
001
370
    50
100
AcDbLine
 10
28.704125
 20
107.347584
 30
0.0
 11
28.124687
 21
107.479514
 31
0.0
  0
LINE
  5
1A2
330
1F
100
AcDbEntity
  8
001
370
    50
100
AcDbLine
 10
28.15703
 20
109.761394
 30
0.0
 11
27.805571
 21
107.73447
 31
0.0
  0
POLYLINE
  5
1A3
330
1F
100
AcDbEntity
  8
001
370
    50
100
AcDb2dPolyline
 66
     1
 10
0.0
 20
0.0
 30
0.0
  0
VERTEX
  5
1A5
330
1A3
100
AcDbEntity
  8
001
370
    50
100
AcDbVertex
100
AcDb2dVertex
 10
27.805571
 20
107.73447
 30
0.0
  0
VERTEX
  5
1A6
330
1A3
100
AcDbEntity
  8
001
370
    50
100
AcDbVertex
100
AcDb2dVertex
 10
27.804623
 20
107.719805
 30
0.0
  0
VERTEX
  5
1A7
330
1A3
100
AcDbEntity
  8
001
370
    50
100
AcDbVertex
100
AcDb2dVertex
 10
27.805691
 20
107.699592
 30
0.0
  0
VERTEX
  5
1A8
330
1A3
100
AcDbEntity
  8
001
370
    50
100
AcDbVertex
100
AcDb2dVertex
 10
27.810278
 20
107.680353
 30
0.0
  0
VERTEX
  5
1A9
330
1A3
100
AcDbEntity
  8
001
370
    50
100
AcDbVertex
100
AcDb2dVertex
 10
27.817782
 20
107.663698
 30
0.0
  0
VERTEX
  5
1AA
330
1A3
100
AcDbEntity
  8
001
370
    50
100
AcDbVertex
100
AcDb2dVertex
 10
27.828637
 20
107.645445
 30
0.0
  0
VERTEX
  5
1AB
330
1A3
100
AcDbEntity
  8
001
370
    50
100
AcDbVertex
100
AcDb2dVertex
 10
27.841478
 20
107.627877
 30
0.0
  0
VERTEX
  5
1AC
330
1A3
100
AcDbEntity
  8
001
370
    50
100
AcDbVertex
100
AcDb2dVertex
 10
27.90304
 20
107.572085
 30
0.0
  0
VERTEX
  5
1AD
330
1A3
100
AcDbEntity
  8
001
370
    50
100
AcDbVertex
100
AcDb2dVertex
 10
27.973367
 20
107.531535
 30
0.0
  0
VERTEX
  5
1AE
330
1A3
100
AcDbEntity
  8
001
370
    50
100
AcDbVertex
100
AcDb2dVertex
 10
28.030372
 20
107.506888
 30
0.0
  0
VERTEX
  5
1AF
330
1A3
100
AcDbEntity
  8
001
370
    50
100
AcDbVertex
100
AcDb2dVertex
 10
28.097975
 20
107.486085
 30
0.0
  0
VERTEX
  5
1B0
330
1A3
100
AcDbEntity
  8
001
370
    50
100
AcDbVertex
100
AcDb2dVertex
 10
28.113689
 20
107.482139
 30
0.0
  0
VERTEX
  5
1B1
330
1A3
100
AcDbEntity
  8
001
370
    50
100
AcDbVertex
100
AcDb2dVertex
 10
28.124687
 20
107.479514
 30
0.0
  0
SEQEND
  5
1A4
330
1A3
100
AcDbEntity
  8
001
370
    50
  0
POLYLINE
  5
1B2
330
1F
100
AcDbEntity
  8
001
370
    50
100
AcDb2dPolyline
 66
     1
 10
0.0
 20
0.0
 30
0.0
  0
VERTEX
  5
1B4
330
1B2
100
AcDbEntity
  8
001
370
    50
100
AcDbVertex
100
AcDb2dVertex
 10
58.656984
 20
98.878693
 30
0.0
  0
VERTEX
  5
1B5
330
1B2
100
AcDbEntity
  8
001
370
    50
100
AcDbVertex
100
AcDb2dVertex
 10
59.301326
 20
98.442636
 30
0.0
  0
VERTEX
  5
1B6
330
1B2
100
AcDbEntity
  8
001
370
    50
100
AcDbVertex
100
AcDb2dVertex
 10
60.22698
 20
97.81684
 30
0.0
  0
VERTEX
  5
1B7
330
1B2
100
AcDbEntity
  8
001
370
    50
100
AcDbVertex
100
AcDb2dVertex
 10
63.159095
 20
95.838672
 30
0.0
  0
VERTEX
  5
1B8
330
1B2
100
AcDbEntity
  8
001
370
    50
100
AcDbVertex
100
AcDb2dVertex
 10
65.72235
 20
94.120671
 30
0.0
  0
VERTEX
  5
1B9
330
1B2
100
AcDbEntity
  8
001
370
    50
100
AcDbVertex
100
AcDb2dVertex
 10
68.140077
 20
92.517875
 30
0.0
  0
VERTEX
  5
1BA
330
1B2
100
AcDbEntity
  8
001
370
    50
100
AcDbVertex
100
AcDb2dVertex
 10
70.635607
 20
90.88532
 30
0.0
  0
VERTEX
  5
1BB
330
1B2
100
AcDbEntity
  8
001
370
    50
100
AcDbVertex
100
AcDb2dVertex
 10
73.432274
 20
89.078043
 30
0.0
  0
VERTEX
  5
1BC
330
1B2
100
AcDbEntity
  8
001
370
    50
100
AcDbVertex
100
AcDb2dVertex
 10
75.915352
 20
87.48635
 30
0.0
  0
VERTEX
  5
1BD
330
1B2
100
AcDbEntity
  8
001
370
    50
100
AcDbVertex
100
AcDb2dVertex
 10
78.212043
 20
86.02195
 30
0.0
  0
VERTEX
  5
1BE
330
1B2
100
AcDbEntity
  8
001
370
    50
100
AcDbVertex
100
AcDb2dVertex
 10
79.804125
 20
85.014401
 30
0.0
  0
SEQEND
  5
1B3
330
1B2
100
AcDbEntity
  8
001
370
    50
  0
POLYLINE
  5
1BF
330
1F
100
AcDbEntity
  8
001
370
    50
100
AcDb2dPolyline
 66
     1
 10
0.0
 20
0.0
 30
0.0
  0
VERTEX
  5
1C1
330
1BF
100
AcDbEntity
  8
001
370
    50
100
AcDbVertex
100
AcDb2dVertex
 10
53.388765
 20
101.469867
 30
0.0
  0
VERTEX
  5
1C2
330
1BF
100
AcDbEntity
  8
001
370
    50
100
AcDbVertex
100
AcDb2dVertex
 10
53.732947
 20
101.352357
 30
0.0
  0
VERTEX
  5
1C3
330
1BF
100
AcDbEntity
  8
001
370
    50
100
AcDbVertex
100
AcDb2dVertex
 10
54.075859
 20
101.231277
 30
0.0
  0
VERTEX
  5
1C4
330
1BF
100
AcDbEntity
  8
001
370
    50
100
AcDbVertex
100
AcDb2dVertex
 10
54.673463
 20
101.002342
 30
0.0
  0
VERTEX
  5
1C5
330
1BF
100
AcDbEntity
  8
001
370
    50
100
AcDbVertex
100
AcDb2dVertex
 10
55.263261
 20
100.753746
 30
0.0
  0
VERTEX
  5
1C6
330
1BF
100
AcDbEntity
  8
001
370
    50
100
AcDbVertex
100
AcDb2dVertex
 10
55.847064
 20
100.486743
 30
0.0
  0
VERTEX
  5
1C7
330
1BF
100
AcDbEntity
  8
001
370
    50
100
AcDbVertex
100
AcDb2dVertex
 10
56.422863
 20
100.202842
 30
0.0
  0
VERTEX
  5
1C8
330
1BF
100
AcDbEntity
  8
001
370
    50
100
AcDbVertex
100
AcDb2dVertex
 10
56.996227
 20
99.898667
 30
0.0
  0
VERTEX
  5
1C9
330
1BF
100
AcDbEntity
  8
001
370
    50
100
AcDbVertex
100
AcDb2dVertex
 10
57.558904
 20
99.575454
 30
0.0
  0
VERTEX
  5
1CA
330
1BF
100
AcDbEntity
  8
001
370
    50
100
AcDbVertex
100
AcDb2dVertex
 10
58.111204
 20
99.232405
 30
0.0
  0
VERTEX
  5
1CB
330
1BF
100
AcDbEntity
  8
001
370
    50
100
AcDbVertex
100
AcDb2dVertex
 10
58.656984
 20
98.878693
 30
0.0
  0
SEQEND
  5
1C0
330
1BF
100
AcDbEntity
  8
001
370
    50
  0
LINE
  5
1CC
330
1F
100
AcDbEntity
  8
001
370
    50
100
AcDbLine
 10
53.388765
 20
119.455659
 30
0.0
 11
53.388765
 21
101.469867
 31
0.0
  0
POLYLINE
  5
1CD
330
1F
100
AcDbEntity
  8
001
370
    50
100
AcDb2dPolyline
 66
     1
 10
0.0
 20
0.0
 30
0.0
  0
VERTEX
  5
1CF
330
1CD
100
AcDbEntity
  8
001
370
    50
100
AcDbVertex
100
AcDb2dVertex
 10
79.804125
 20
122.645649
 30
0.0
  0
VERTEX
  5
1D0
330
1CD
100
AcDbEntity
  8
001
370
    50
100
AcDbVertex
100
AcDb2dVertex
 10
77.549464
 20
122.384721
 30
0.0
  0
VERTEX
  5
1D1
330
1CD
100
AcDbEntity
  8
001
370
    50
100
AcDbVertex
100
AcDb2dVertex
 10
74.254598
 20
121.999882
 30
0.0
  0
VERTEX
  5
1D2
330
1CD
100
AcDbEntity
  8
001
370
    50
100
AcDbVertex
100
AcDb2dVertex
 10
69.077967
 20
121.384796
 30
0.0
  0
VERTEX
  5
1D3
330
1CD
100
AcDbEntity
  8
001
370
    50
100
AcDbVertex
100
AcDb2dVertex
 10
64.153062
 20
120.78901
 30
0.0
  0
VERTEX
  5
1D4
330
1CD
100
AcDbEntity
  8
001
370
    50
100
AcDbVertex
100
AcDb2dVertex
 10
59.729889
 20
120.246345
 30
0.0
  0
VERTEX
  5
1D5
330
1CD
100
AcDbEntity
  8
001
370
    50
100
AcDbVertex
100
AcDb2dVertex
 10
56.058454
 20
119.790621
 30
0.0
  0
VERTEX
  5
1D6
330
1CD
100
AcDbEntity
  8
001
370
    50
100
AcDbVertex
100
AcDb2dVertex
 10
53.388765
 20
119.455659
 30
0.0
  0
SEQEND
  5
1CE
330
1CD
100
AcDbEntity
  8
001
370
    50
  0
LINE
  5
1D7
330
1F
100
AcDbEntity
  8
001
370
    50
100
AcDbLine
 10
79.804125
 20
122.645649
 30
0.0
 11
79.804125
 21
85.014401
 31
0.0
  0
LINE
  5
1D8
330
1F
100
AcDbEntity
  8
001
370
    50
100
AcDbLine
 10
79.804125
 20
132.045652
 30
0.0
 11
79.804125
 21
131.10674
 31
0.0
  0
LINE
  5
1D9
330
1F
100
AcDbEntity
  8
001
370
    50
100
AcDbLine
 10
79.804125
 20
76.945652
 30
0.0
 11
82.804125
 21
82.141804
 31
0.0
  0
LINE
  5
1DA
330
1F
100
AcDbEntity
  8
001
370
    50
100
AcDbLine
 10
82.804125
 20
126.849499
 30
0.0
 11
79.804125
 21
132.045652
 31
0.0
  0
LINE
  5
1DB
330
1F
100
AcDbEntity
  8
001
370
    50
100
AcDbLine
 10
79.804125
 20
77.471138
 30
0.0
 11
79.804125
 21
76.945652
 31
0.0
  0
LINE
  5
1DC
330
1F
100
AcDbEntity
  8
001
370
    50
100
AcDbLine
 10
79.952242
 20
77.737181
 30
0.0
 11
79.804125
 21
77.471138
 31
0.0
  0
LINE
  5
1DD
330
1F
100
AcDbEntity
  8
001
370
    50
100
AcDbLine
 10
79.804125
 20
77.723478
 30
0.0
 11
79.952242
 21
77.737181
 31
0.0
  0
LINE
  5
1DE
330
1F
100
AcDbEntity
  8
001
370
    50
100
AcDbLine
 10
79.804125
 20
78.811516
 30
0.0
 11
79.804125
 21
77.723478
 31
0.0
  0
LINE
  5
1DF
330
1F
100
AcDbEntity
  8
001
370
    50
100
AcDbLine
 10
81.595337
 20
82.293843
 30
0.0
 11
79.804125
 21
78.811516
 31
0.0
  0
POLYLINE
  5
1E0
330
1F
100
AcDbEntity
  8
001
370
    50
100
AcDb2dPolyline
 66
     1
 10
0.0
 20
0.0
 30
0.0
  0
VERTEX
  5
1E2
330
1E0
100
AcDbEntity
  8
001
370
    50
100
AcDbVertex
100
AcDb2dVertex
 10
81.595337
 20
82.293843
 30
0.0
  0
VERTEX
  5
1E3
330
1E0
100
AcDbEntity
  8
001
370
    50
100
AcDbVertex
100
AcDb2dVertex
 10
81.664015
 20
82.433603
 30
0.0
  0
VERTEX
  5
1E4
330
1E0
100
AcDbEntity
  8
001
370
    50
100
AcDbVertex
100
AcDb2dVertex
 10
81.731103
 20
82.574117
 30
0.0
  0
VERTEX
  5
1E5
330
1E0
100
AcDbEntity
  8
001
370
    50
100
AcDbVertex
100
AcDb2dVertex
 10
81.793244
 20
82.711341
 30
0.0
  0
VERTEX
  5
1E6
330
1E0
100
AcDbEntity
  8
001
370
    50
100
AcDbVertex
100
AcDb2dVertex
 10
81.852482
 20
82.849853
 30
0.0
  0
VERTEX
  5
1E7
330
1E0
100
AcDbEntity
  8
001
370
    50
100
AcDbVertex
100
AcDb2dVertex
 10
81.910269
 20
82.993347
 30
0.0
  0
VERTEX
  5
1E8
330
1E0
100
AcDbEntity
  8
001
370
    50
100
AcDbVertex
100
AcDb2dVertex
 10
81.964561
 20
83.138211
 30
0.0
  0
VERTEX
  5
1E9
330
1E0
100
AcDbEntity
  8
001
370
    50
100
AcDbVertex
100
AcDb2dVertex
 10
82.010453
 20
83.271468
 30
0.0
  0
VERTEX
  5
1EA
330
1E0
100
AcDbEntity
  8
001
370
    50
100
AcDbVertex
100
AcDb2dVertex
 10
82.052116
 20
83.406055
 30
0.0
  0
VERTEX
  5
1EB
330
1E0
100
AcDbEntity
  8
001
370
    50
100
AcDbVertex
100
AcDb2dVertex
 10
82.084653
 20
83.52622
 30
0.0
  0
VERTEX
  5
1EC
330
1E0
100
AcDbEntity
  8
001
370
    50
100
AcDbVertex
100
AcDb2dVertex
 10
82.112281
 20
83.647759
 30
0.0
  0
VERTEX
  5
1ED
330
1E0
100
AcDbEntity
  8
001
370
    50
100
AcDbVertex
100
AcDb2dVertex
 10
82.130722
 20
83.751028
 30
0.0
  0
VERTEX
  5
1EE
330
1E0
100
AcDbEntity
  8
001
370
    50
100
AcDbVertex
100
AcDb2dVertex
 10
82.142603
 20
83.85486
 30
0.0
  0
VERTEX
  5
1EF
330
1E0
100
AcDbEntity
  8
001
370
    50
100
AcDbVertex
100
AcDb2dVertex
 10
82.145685
 20
83.937794
 30
0.0
  0
VERTEX
  5
1F0
330
1E0
100
AcDbEntity
  8
001
370
    50
100
AcDbVertex
100
AcDb2dVertex
 10
82.141493
 20
84.021625
 30
0.0
  0
VERTEX
  5
1F1
330
1E0
100
AcDbEntity
  8
001
370
    50
100
AcDbVertex
100
AcDb2dVertex
 10
82.131497
 20
84.084768
 30
0.0
  0
VERTEX
  5
1F2
330
1E0
100
AcDbEntity
  8
001
370
    50
100
AcDbVertex
100
AcDb2dVertex
 10
82.109181
 20
84.142868
 30
0.0
  0
VERTEX
  5
1F3
330
1E0
100
AcDbEntity
  8
001
370
    50
100
AcDbVertex
100
AcDb2dVertex
 10
82.084818
 20
84.176642
 30
0.0
  0
VERTEX
  5
1F4
330
1E0
100
AcDbEntity
  8
001
370
    50
100
AcDbVertex
100
AcDb2dVertex
 10
82.056053
 20
84.207925
 30
0.0
  0
SEQEND
  5
1E1
330
1E0
100
AcDbEntity
  8
001
370
    50
  0
POLYLINE
  5
1F5
330
1F
100
AcDbEntity
  8
001
370
    50
100
AcDb2dPolyline
 66
     1
 10
0.0
 20
0.0
 30
0.0
  0
VERTEX
  5
1F7
330
1F5
100
AcDbEntity
  8
001
370
    50
100
AcDbVertex
100
AcDb2dVertex
 10
79.804125
 20
85.014401
 30
0.0
  0
VERTEX
  5
1F8
330
1F5
100
AcDbEntity
  8
001
370
    50
100
AcDbVertex
100
AcDb2dVertex
 10
80.105694
 20
84.896407
 30
0.0
  0
VERTEX
  5
1F9
330
1F5
100
AcDbEntity
  8
001
370
    50
100
AcDbVertex
100
AcDb2dVertex
 10
80.407883
 20
84.780042
 30
0.0
  0
VERTEX
  5
1FA
330
1F5
100
AcDbEntity
  8
001
370
    50
100
AcDbVertex
100
AcDb2dVertex
 10
80.693504
 20
84.673147
 30
0.0
  0
VERTEX
  5
1FB
330
1F5
100
AcDbEntity
  8
001
370
    50
100
AcDbVertex
100
AcDb2dVertex
 10
80.980147
 20
84.568978
 30
0.0
  0
VERTEX
  5
1FC
330
1F5
100
AcDbEntity
  8
001
370
    50
100
AcDbVertex
100
AcDb2dVertex
 10
81.248302
 20
84.474459
 30
0.0
  0
VERTEX
  5
1FD
330
1F5
100
AcDbEntity
  8
001
370
    50
100
AcDbVertex
100
AcDb2dVertex
 10
81.517726
 20
84.3837
 30
0.0
  0
VERTEX
  5
1FE
330
1F5
100
AcDbEntity
  8
001
370
    50
100
AcDbVertex
100
AcDb2dVertex
 10
81.766389
 20
84.304436
 30
0.0
  0
VERTEX
  5
1FF
330
1F5
100
AcDbEntity
  8
001
370
    50
100
AcDbVertex
100
AcDb2dVertex
 10
82.015776
 20
84.227403
 30
0.0
  0
SEQEND
  5
1F6
330
1F5
100
AcDbEntity
  8
001
370
    50
  0
LINE
  5
200
330
1F
100
AcDbEntity
  8
001
370
    50
100
AcDbLine
 10
79.952242
 20
122.531889
 30
0.0
 11
79.804125
 21
122.645649
 31
0.0
  0
LINE
  5
201
330
1F
100
AcDbEntity
  8
001
370
    50
100
AcDbLine
 10
79.804125
 20
123.511119
 30
0.0
 11
79.952242
 21
122.531889
 31
0.0
  0
LINE
  5
202
330
1F
100
AcDbEntity
  8
001
370
    50
100
AcDbLine
 10
79.804125
 20
125.968812
 30
0.0
 11
79.804125
 21
123.511119
 31
0.0
  0
LINE
  5
203
330
1F
100
AcDbEntity
  8
001
370
    50
100
AcDbLine
 10
81.595337
 20
124.460589
 30
0.0
 11
79.804125
 21
125.968812
 31
0.0
  0
POLYLINE
  5
204
330
1F
100
AcDbEntity
  8
001
370
    50
100
AcDb2dPolyline
 66
     1
 10
0.0
 20
0.0
 30
0.0
  0
VERTEX
  5
206
330
204
100
AcDbEntity
  8
001
370
    50
100
AcDbVertex
100
AcDb2dVertex
 10
81.595337
 20
124.460589
 30
0.0
  0
VERTEX
  5
207
330
204
100
AcDbEntity
  8
001
370
    50
100
AcDbVertex
100
AcDb2dVertex
 10
81.665976
 20
124.404982
 30
0.0
  0
VERTEX
  5
208
330
204
100
AcDbEntity
  8
001
370
    50
100
AcDbVertex
100
AcDb2dVertex
 10
81.739607
 20
124.354139
 30
0.0
  0
VERTEX
  5
209
330
204
100
AcDbEntity
  8
001
370
    50
100
AcDbVertex
100
AcDb2dVertex
 10
81.802192
 20
124.320324
 30
0.0
  0
VERTEX
  5
20A
330
204
100
AcDbEntity
  8
001
370
    50
100
AcDbVertex
100
AcDb2dVertex
 10
81.869467
 20
124.295241
 30
0.0
  0
VERTEX
  5
20B
330
204
100
AcDbEntity
  8
001
370
    50
100
AcDbVertex
100
AcDb2dVertex
 10
81.923892
 20
124.284548
 30
0.0
  0
VERTEX
  5
20C
330
204
100
AcDbEntity
  8
001
370
    50
100
AcDbVertex
100
AcDb2dVertex
 10
81.978031
 20
124.287135
 30
0.0
  0
VERTEX
  5
20D
330
204
100
AcDbEntity
  8
001
370
    50
100
AcDbVertex
100
AcDb2dVertex
 10
81.999037
 20
124.29308
 30
0.0
  0
VERTEX
  5
20E
330
204
100
AcDbEntity
  8
001
370
    50
100
AcDbVertex
100
AcDb2dVertex
 10
82.019732
 20
124.300639
 30
0.0
  0
SEQEND
  5
205
330
204
100
AcDbEntity
  8
001
370
    50
  0
POLYLINE
  5
20F
330
1F
100
AcDbEntity
  8
001
370
    50
100
AcDb2dPolyline
 66
     1
 10
0.0
 20
0.0
 30
0.0
  0
VERTEX
  5
211
330
20F
100
AcDbEntity
  8
001
370
    50
100
AcDbVertex
100
AcDb2dVertex
 10
79.804125
 20
131.10674
 30
0.0
  0
VERTEX
  5
212
330
20F
100
AcDbEntity
  8
001
370
    50
100
AcDbVertex
100
AcDb2dVertex
 10
80.108782
 20
130.401459
 30
0.0
  0
VERTEX
  5
213
330
20F
100
AcDbEntity
  8
001
370
    50
100
AcDbVertex
100
AcDb2dVertex
 10
80.407883
 20
129.693858
 30
0.0
  0
VERTEX
  5
214
330
20F
100
AcDbEntity
  8
001
370
    50
100
AcDbVertex
100
AcDb2dVertex
 10
80.698921
 20
128.977381
 30
0.0
  0
VERTEX
  5
215
330
20F
100
AcDbEntity
  8
001
370
    50
100
AcDbVertex
100
AcDb2dVertex
 10
80.980147
 20
128.256935
 30
0.0
  0
VERTEX
  5
216
330
20F
100
AcDbEntity
  8
001
370
    50
100
AcDbVertex
100
AcDb2dVertex
 10
81.254617
 20
127.526715
 30
0.0
  0
VERTEX
  5
217
330
20F
100
AcDbEntity
  8
001
370
    50
100
AcDbVertex
100
AcDb2dVertex
 10
81.517726
 20
126.792399
 30
0.0
  0
VERTEX
  5
218
330
20F
100
AcDbEntity
  8
001
370
    50
100
AcDbVertex
100
AcDb2dVertex
 10
81.770365
 20
126.047424
 30
0.0
  0
VERTEX
  5
219
330
20F
100
AcDbEntity
  8
001
370
    50
100
AcDbVertex
100
AcDb2dVertex
 10
82.015776
 20
125.299956
 30
0.0
  0
SEQEND
  5
210
330
20F
100
AcDbEntity
  8
001
370
    50
  0
LINE
  5
21A
330
1F
100
AcDbEntity
  8
001
370
    50
100
AcDbLine
 10
82.804125
 20
126.849499
 30
0.0
 11
82.804125
 21
82.141804
 31
0.0
  0
POLYLINE
  5
21B
330
1F
100
AcDbEntity
  8
001
370
    50
100
AcDb2dPolyline
 66
     1
 10
0.0
 20
0.0
 30
0.0
  0
VERTEX
  5
21D
330
21B
100
AcDbEntity
  8
001
370
    50
100
AcDbVertex
100
AcDb2dVertex
 10
47.571855
 20
102.495652
 30
0.0
  0
VERTEX
  5
21E
330
21B
100
AcDbEntity
  8
001
370
    50
100
AcDbVertex
100
AcDb2dVertex
 10
48.115599
 20
102.483673
 30
0.0
  0
VERTEX
  5
21F
330
21B
100
AcDbEntity
  8
001
370
    50
100
AcDbVertex
100
AcDb2dVertex
 10
48.658779
 20
102.460593
 30
0.0
  0
VERTEX
  5
220
330
21B
100
AcDbEntity
  8
001
370
    50
100
AcDbVertex
100
AcDb2dVertex
 10
49.204484
 20
102.41733
 30
0.0
  0
VERTEX
  5
221
330
21B
100
AcDbEntity
  8
001
370
    50
100
AcDbVertex
100
AcDb2dVertex
 10
49.748481
 20
102.35479
 30
0.0
  0
VERTEX
  5
222
330
21B
100
AcDbEntity
  8
001
370
    50
100
AcDbVertex
100
AcDb2dVertex
 10
50.206497
 20
102.288854
 30
0.0
  0
VERTEX
  5
223
330
21B
100
AcDbEntity
  8
001
370
    50
100
AcDbVertex
100
AcDb2dVertex
 10
50.662522
 20
102.210792
 30
0.0
  0
VERTEX
  5
224
330
21B
100
AcDbEntity
  8
001
370
    50
100
AcDbVertex
100
AcDb2dVertex
 10
51.118721
 20
102.11965
 30
0.0
  0
VERTEX
  5
225
330
21B
100
AcDbEntity
  8
001
370
    50
100
AcDbVertex
100
AcDb2dVertex
 10
51.572399
 20
102.016386
 30
0.0
  0
VERTEX
  5
226
330
21B
100
AcDbEntity
  8
001
370
    50
100
AcDbVertex
100
AcDb2dVertex
 10
52.03031
 20
101.899468
 30
0.0
  0
VERTEX
  5
227
330
21B
100
AcDbEntity
  8
001
370
    50
100
AcDbVertex
100
AcDb2dVertex
 10
52.484422
 20
101.768959
 30
0.0
  0
VERTEX
  5
228
330
21B
100
AcDbEntity
  8
001
370
    50
100
AcDbVertex
100
AcDb2dVertex
 10
52.937827
 20
101.623353
 30
0.0
  0
VERTEX
  5
229
330
21B
100
AcDbEntity
  8
001
370
    50
100
AcDbVertex
100
AcDb2dVertex
 10
53.388765
 20
101.469867
 30
0.0
  0
SEQEND
  5
21C
330
21B
100
AcDbEntity
  8
001
370
    50
  0
POLYLINE
  5
22A
330
1F
100
AcDbEntity
  8
001
370
    50
100
AcDb2dPolyline
 66
     1
 10
0.0
 20
0.0
 30
0.0
  0
VERTEX
  5
22C
330
22A
100
AcDbEntity
  8
001
370
    50
100
AcDbVertex
100
AcDb2dVertex
 10
28.704125
 20
102.495652
 30
0.0
  0
VERTEX
  5
22D
330
22A
100
AcDbEntity
  8
001
370
    50
100
AcDbVertex
100
AcDb2dVertex
 10
30.467823
 20
102.495652
 30
0.0
  0
VERTEX
  5
22E
330
22A
100
AcDbEntity
  8
001
370
    50
100
AcDbVertex
100
AcDb2dVertex
 10
32.231521
 20
102.495652
 30
0.0
  0
VERTEX
  5
22F
330
22A
100
AcDbEntity
  8
001
370
    50
100
AcDbVertex
100
AcDb2dVertex
 10
35.299588
 20
102.495652
 30
0.0
  0
VERTEX
  5
230
330
22A
100
AcDbEntity
  8
001
370
    50
100
AcDbVertex
100
AcDb2dVertex
 10
38.367655
 20
102.495652
 30
0.0
  0
VERTEX
  5
231
330
22A
100
AcDbEntity
  8
001
370
    50
100
AcDbVertex
100
AcDb2dVertex
 10
41.435721
 20
102.495652
 30
0.0
  0
VERTEX
  5
232
330
22A
100
AcDbEntity
  8
001
370
    50
100
AcDbVertex
100
AcDb2dVertex
 10
44.503788
 20
102.495652
 30
0.0
  0
VERTEX
  5
233
330
22A
100
AcDbEntity
  8
001
370
    50
100
AcDbVertex
100
AcDb2dVertex
 10
47.571855
 20
102.495652
 30
0.0
  0
SEQEND
  5
22B
330
22A
100
AcDbEntity
  8
001
370
    50
  0
POLYLINE
  5
234
330
1F
100
AcDbEntity
  8
001
370
    50
100
AcDb2dPolyline
 66
     1
 10
0.0
 20
0.0
 30
0.0
  0
VERTEX
  5
236
330
234
100
AcDbEntity
  8
001
370
    50
100
AcDbVertex
100
AcDb2dVertex
 10
53.388765
 20
119.455659
 30
0.0
  0
VERTEX
  5
237
330
234
100
AcDbEntity
  8
001
370
    50
100
AcDbVertex
100
AcDb2dVertex
 10
50.906487
 20
118.302386
 30
0.0
  0
VERTEX
  5
238
330
234
100
AcDbEntity
  8
001
370
    50
100
AcDbVertex
100
AcDb2dVertex
 10
48.424571
 20
117.148338
 30
0.0
  0
VERTEX
  5
239
330
234
100
AcDbEntity
  8
001
370
    50
100
AcDbVertex
100
AcDb2dVertex
 10
45.943382
 20
115.992738
 30
0.0
  0
VERTEX
  5
23A
330
234
100
AcDbEntity
  8
001
370
    50
100
AcDbVertex
100
AcDb2dVertex
 10
43.463283
 20
114.834809
 30
0.0
  0
VERTEX
  5
23B
330
234
100
AcDbEntity
  8
001
370
    50
100
AcDbVertex
100
AcDb2dVertex
 10
40.984637
 20
113.673777
 30
0.0
  0
VERTEX
  5
23C
330
234
100
AcDbEntity
  8
001
370
    50
100
AcDbVertex
100
AcDb2dVertex
 10
38.926812
 20
112.706296
 30
0.0
  0
VERTEX
  5
23D
330
234
100
AcDbEntity
  8
001
370
    50
100
AcDbVertex
100
AcDb2dVertex
 10
36.870479
 20
111.735644
 30
0.0
  0
VERTEX
  5
23E
330
234
100
AcDbEntity
  8
001
370
    50
100
AcDbVertex
100
AcDb2dVertex
 10
34.815874
 20
110.761329
 30
0.0
  0
VERTEX
  5
23F
330
234
100
AcDbEntity
  8
001
370
    50
100
AcDbVertex
100
AcDb2dVertex
 10
33.281272
 20
110.029901
 30
0.0
  0
VERTEX
  5
240
330
234
100
AcDbEntity
  8
001
370
    50
100
AcDbVertex
100
AcDb2dVertex
 10
31.748849
 20
109.29394
 30
0.0
  0
VERTEX
  5
241
330
234
100
AcDbEntity
  8
001
370
    50
100
AcDbVertex
100
AcDb2dVertex
 10
30.225679
 20
108.555306
 30
0.0
  0
VERTEX
  5
242
330
234
100
AcDbEntity
  8
001
370
    50
100
AcDbVertex
100
AcDb2dVertex
 10
28.704125
 20
107.813328
 30
0.0
  0
SEQEND
  5
235
330
234
100
AcDbEntity
  8
001
370
    50
  0
LINE
  5
243
330
1F
100
AcDbEntity
  8
001
370
    50
100
AcDbLine
 10
77.866457
 20
125.772334
 30
0.0
 11
73.903568
 21
123.901924
 31
0.0
  0
POLYLINE
  5
244
330
1F
100
AcDbEntity
  8
001
370
    50
100
AcDb2dPolyline
 66
     1
 10
0.0
 20
0.0
 30
0.0
  0
VERTEX
  5
246
330
244
100
AcDbEntity
  8
001
370
    50
100
AcDbVertex
100
AcDb2dVertex
 10
79.804125
 20
123.511119
 30
0.0
  0
VERTEX
  5
247
330
244
100
AcDbEntity
  8
001
370
    50
100
AcDbVertex
100
AcDb2dVertex
 10
79.479849
 20
123.95895
 30
0.0
  0
VERTEX
  5
248
330
244
100
AcDbEntity
  8
001
370
    50
100
AcDbVertex
100
AcDb2dVertex
 10
78.978436
 20
124.591707
 30
0.0
  0
VERTEX
  5
249
330
244
100
AcDbEntity
  8
001
370
    50
100
AcDbVertex
100
AcDb2dVertex
 10
78.332631
 20
125.305774
 30
0.0
  0
VERTEX
  5
24A
330
244
100
AcDbEntity
  8
001
370
    50
100
AcDbVertex
100
AcDb2dVertex
 10
77.866457
 20
125.772334
 30
0.0
  0
SEQEND
  5
245
330
244
100
AcDbEntity
  8
001
370
    50
  0
POLYLINE
  5
24B
330
1F
100
AcDbEntity
  8
001
370
    50
100
AcDb2dPolyline
 66
     1
 10
0.0
 20
0.0
 30
0.0
  0
VERTEX
  5
24D
330
24B
100
AcDbEntity
  8
001
370
    50
100
AcDbVertex
100
AcDb2dVertex
 10
79.804125
 20
125.968812
 30
0.0
  0
VERTEX
  5
24E
330
24B
100
AcDbEntity
  8
001
370
    50
100
AcDbVertex
100
AcDb2dVertex
 10
79.410956
 20
125.929092
 30
0.0
  0
VERTEX
  5
24F
330
24B
100
AcDbEntity
  8
001
370
    50
100
AcDbVertex
100
AcDb2dVertex
 10
78.836336
 20
125.870915
 30
0.0
  0
VERTEX
  5
250
330
24B
100
AcDbEntity
  8
001
370
    50
100
AcDbVertex
100
AcDb2dVertex
 10
78.260465
 20
125.812433
 30
0.0
  0
VERTEX
  5
251
330
24B
100
AcDbEntity
  8
001
370
    50
100
AcDbVertex
100
AcDb2dVertex
 10
77.866457
 20
125.772334
 30
0.0
  0
SEQEND
  5
24C
330
24B
100
AcDbEntity
  8
001
370
    50
  0
ARC
  5
252
330
1F
100
AcDbEntity
  8
001
370
    50
100
AcDbCircle
 10
154.804125
 20
112.495652
 30
0.0
 40
8.0
100
AcDbArc
 50
0.0
 51
90.0
  0
ARC
  5
253
330
1F
100
AcDbEntity
  8
001
370
    50
100
AcDbCircle
 10
154.804125
 20
96.495652
 30
0.0
 40
8.0
100
AcDbArc
 50
270.0
 51
0.0
  0
LINE
  5
254
330
1F
100
AcDbEntity
  8
001
370
    50
100
AcDbLine
 10
162.804125
 20
112.495652
 30
0.0
 11
162.804125
 21
96.495652
 31
0.0
  0
LINE
  5
255
330
1F
100
AcDbEntity
  8
001
370
    50
100
AcDbLine
 10
84.804125
 20
120.495652
 30
0.0
 11
154.804125
 21
120.495652
 31
0.0
  0
LINE
  5
256
330
1F
100
AcDbEntity
  8
001
370
    50
100
AcDbLine
 10
84.804125
 20
88.495652
 30
0.0
 11
154.804125
 21
88.495652
 31
0.0
  0
POLYLINE
  5
257
330
1F
100
AcDbEntity
  8
001
370
    50
100
AcDb2dPolyline
 66
     1
 10
0.0
 20
0.0
 30
0.0
  0
VERTEX
  5
259
330
257
100
AcDbEntity
  8
001
370
    50
100
AcDbVertex
100
AcDb2dVertex
 10
82.019732
 20
124.300639
 30
0.0
  0
VERTEX
  5
25A
330
257
100
AcDbEntity
  8
001
370
    50
100
AcDbVertex
100
AcDb2dVertex
 10
82.041744
 20
124.314936
 30
0.0
  0
VERTEX
  5
25B
330
257
100
AcDbEntity
  8
001
370
    50
100
AcDbVertex
100
AcDb2dVertex
 10
82.062163
 20
124.330936
 30
0.0
  0
VERTEX
  5
25C
330
257
100
AcDbEntity
  8
001
370
    50
100
AcDbVertex
100
AcDb2dVertex
 10
82.095698
 20
124.373779
 30
0.0
  0
VERTEX
  5
25D
330
257
100
AcDbEntity
  8
001
370
    50
100
AcDbVertex
100
AcDb2dVertex
 10
82.118319
 20
124.424682
 30
0.0
  0
VERTEX
  5
25E
330
257
100
AcDbEntity
  8
001
370
    50
100
AcDbVertex
100
AcDb2dVertex
 10
82.136197
 20
124.495303
 30
0.0
  0
VERTEX
  5
25F
330
257
100
AcDbEntity
  8
001
370
    50
100
AcDbVertex
100
AcDb2dVertex
 10
82.144236
 20
124.567155
 30
0.0
  0
VERTEX
  5
260
330
257
100
AcDbEntity
  8
001
370
    50
100
AcDbVertex
100
AcDb2dVertex
 10
82.145402
 20
124.660223
 30
0.0
  0
VERTEX
  5
261
330
257
100
AcDbEntity
  8
001
370
    50
100
AcDbVertex
100
AcDb2dVertex
 10
82.138996
 20
124.75326
 30
0.0
  0
VERTEX
  5
262
330
257
100
AcDbEntity
  8
001
370
    50
100
AcDbVertex
100
AcDb2dVertex
 10
82.123702
 20
124.866331
 30
0.0
  0
VERTEX
  5
263
330
257
100
AcDbEntity
  8
001
370
    50
100
AcDbVertex
100
AcDb2dVertex
 10
82.10223
 20
124.978347
 30
0.0
  0
VERTEX
  5
264
330
257
100
AcDbEntity
  8
001
370
    50
100
AcDbVertex
100
AcDb2dVertex
 10
82.071484
 20
125.107781
 30
0.0
  0
VERTEX
  5
265
330
257
100
AcDbEntity
  8
001
370
    50
100
AcDbVertex
100
AcDb2dVertex
 10
82.035514
 20
125.235854
 30
0.0
  0
VERTEX
  5
266
330
257
100
AcDbEntity
  8
001
370
    50
100
AcDbVertex
100
AcDb2dVertex
 10
82.025718
 20
125.267928
 30
0.0
  0
VERTEX
  5
267
330
257
100
AcDbEntity
  8
001
370
    50
100
AcDbVertex
100
AcDb2dVertex
 10
82.015776
 20
125.299956
 30
0.0
  0
SEQEND
  5
258
330
257
100
AcDbEntity
  8
001
370
    50
  0
LINE
  5
268
330
1F
100
AcDbEntity
  8
001
370
    50
100
AcDbLine
 10
82.056053
 20
84.207925
 30
0.0
 11
82.015776
 21
84.227403
 31
0.0
  0
POLYLINE
  5
269
330
1F
100
AcDbEntity
  8
001
370
    50
100
AcDb2dPolyline
 66
     1
 10
0.0
 20
0.0
 30
0.0
  0
VERTEX
  5
26B
330
269
100
AcDbEntity
  8
001
370
    50
100
AcDbVertex
100
AcDb2dVertex
 10
70.905863
 20
132.045652
 30
0.0
  0
VERTEX
  5
26C
330
269
100
AcDbEntity
  8
001
370
    50
100
AcDbVertex
100
AcDb2dVertex
 10
68.846432
 20
131.995128
 30
0.0
  0
VERTEX
  5
26D
330
269
100
AcDbEntity
  8
001
370
    50
100
AcDbVertex
100
AcDb2dVertex
 10
65.844837
 20
131.795298
 30
0.0
  0
VERTEX
  5
26E
330
269
100
AcDbEntity
  8
001
370
    50
100
AcDbVertex
100
AcDb2dVertex
 10
62.903943
 20
131.431482
 30
0.0
  0
VERTEX
  5
26F
330
269
100
AcDbEntity
  8
001
370
    50
100
AcDbVertex
100
AcDb2dVertex
 10
60.376906
 20
131.006403
 30
0.0
  0
VERTEX
  5
270
330
269
100
AcDbEntity
  8
001
370
    50
100
AcDbVertex
100
AcDb2dVertex
 10
58.656984
 20
130.661982
 30
0.0
  0
SEQEND
  5
26A
330
269
100
AcDbEntity
  8
001
370
    50
  0
POLYLINE
  5
271
330
1F
100
AcDbEntity
  8
001
370
    50
100
AcDb2dPolyline
 66
     1
 10
0.0
 20
0.0
 30
0.0
  0
VERTEX
  5
273
330
271
100
AcDbEntity
  8
001
370
    50
100
AcDbVertex
100
AcDb2dVertex
 10
77.866457
 20
78.700498
 30
0.0
  0
VERTEX
  5
274
330
271
100
AcDbEntity
  8
001
370
    50
100
AcDbVertex
100
AcDb2dVertex
 10
78.260476
 20
78.722779
 30
0.0
  0
VERTEX
  5
275
330
271
100
AcDbEntity
  8
001
370
    50
100
AcDbVertex
100
AcDb2dVertex
 10
78.836336
 20
78.755596
 30
0.0
  0
VERTEX
  5
276
330
271
100
AcDbEntity
  8
001
370
    50
100
AcDbVertex
100
AcDb2dVertex
 10
79.410967
 20
78.788696
 30
0.0
  0
VERTEX
  5
277
330
271
100
AcDbEntity
  8
001
370
    50
100
AcDbVertex
100
AcDb2dVertex
 10
79.804125
 20
78.811516
 30
0.0
  0
SEQEND
  5
272
330
271
100
AcDbEntity
  8
001
370
    50
  0
LINE
  5
278
330
1F
100
AcDbEntity
  8
001
370
    50
100
AcDbLine
 10
77.866457
 20
78.700498
 30
0.0
 11
67.856596
 21
85.545942
 31
0.0
  0
POLYLINE
  5
279
330
1F
100
AcDbEntity
  8
001
370
    50
100
AcDb2dPolyline
 66
     1
 10
0.0
 20
0.0
 30
0.0
  0
VERTEX
  5
27B
330
279
100
AcDbEntity
  8
001
370
    50
100
AcDbVertex
100
AcDb2dVertex
 10
67.856596
 20
85.545942
 30
0.0
  0
VERTEX
  5
27C
330
279
100
AcDbEntity
  8
001
370
    50
100
AcDbVertex
100
AcDb2dVertex
 10
67.817185
 20
85.621957
 30
0.0
  0
VERTEX
  5
27D
330
279
100
AcDbEntity
  8
001
370
    50
100
AcDbVertex
100
AcDb2dVertex
 10
67.756996
 20
85.731537
 30
0.0
  0
VERTEX
  5
27E
330
279
100
AcDbEntity
  8
001
370
    50
100
AcDbVertex
100
AcDb2dVertex
 10
67.106012
 20
86.567204
 30
0.0
  0
VERTEX
  5
27F
330
279
100
AcDbEntity
  8
001
370
    50
100
AcDbVertex
100
AcDb2dVertex
 10
66.547279
 20
87.044952
 30
0.0
  0
SEQEND
  5
27A
330
279
100
AcDbEntity
  8
001
370
    50
  0
LINE
  5
280
330
1F
100
AcDbEntity
  8
001
370
    50
100
AcDbLine
 10
66.547279
 20
87.044952
 30
0.0
 11
59.889876
 21
91.59775
 31
0.0
  0
POLYLINE
  5
281
330
1F
100
AcDbEntity
  8
001
370
    50
100
AcDb2dPolyline
 66
     1
 10
0.0
 20
0.0
 30
0.0
  0
VERTEX
  5
283
330
281
100
AcDbEntity
  8
001
370
    50
100
AcDbVertex
100
AcDb2dVertex
 10
59.889876
 20
91.59775
 30
0.0
  0
VERTEX
  5
284
330
281
100
AcDbEntity
  8
001
370
    50
100
AcDbVertex
100
AcDb2dVertex
 10
59.792298
 20
91.661576
 30
0.0
  0
VERTEX
  5
285
330
281
100
AcDbEntity
  8
001
370
    50
100
AcDbVertex
100
AcDb2dVertex
 10
59.651724
 20
91.748437
 30
0.0
  0
VERTEX
  5
286
330
281
100
AcDbEntity
  8
001
370
    50
100
AcDbVertex
100
AcDb2dVertex
 10
59.324755
 20
91.921203
 30
0.0
  0
VERTEX
  5
287
330
281
100
AcDbEntity
  8
001
370
    50
100
AcDbVertex
100
AcDb2dVertex
 10
59.026811
 20
92.043105
 30
0.0
  0
VERTEX
  5
288
330
281
100
AcDbEntity
  8
001
370
    50
100
AcDbVertex
100
AcDb2dVertex
 10
58.720661
 20
92.143579
 30
0.0
  0
VERTEX
  5
289
330
281
100
AcDbEntity
  8
001
370
    50
100
AcDbVertex
100
AcDb2dVertex
 10
58.360791
 20
92.223566
 30
0.0
  0
VERTEX
  5
28A
330
281
100
AcDbEntity
  8
001
370
    50
100
AcDbVertex
100
AcDb2dVertex
 10
58.165504
 20
92.252346
 30
0.0
  0
VERTEX
  5
28B
330
281
100
AcDbEntity
  8
001
370
    50
100
AcDbVertex
100
AcDb2dVertex
 10
58.026564
 20
92.268406
 30
0.0
  0
SEQEND
  5
282
330
281
100
AcDbEntity
  8
001
370
    50
  0
LINE
  5
28C
330
1F
100
AcDbEntity
  8
001
370
    50
100
AcDbLine
 10
58.026564
 20
92.268406
 30
0.0
 11
52.318713
 21
96.171834
 31
0.0
  0
LINE
  5
28D
330
1F
100
AcDbEntity
  8
001
370
    50
100
AcDbLine
 10
38.788395
 20
96.942736
 30
0.0
 11
34.781172
 21
96.160214
 31
0.0
  0
POLYLINE
  5
28E
330
1F
100
AcDbEntity
  8
001
370
    50
100
AcDb2dPolyline
 66
     1
 10
0.0
 20
0.0
 30
0.0
  0
VERTEX
  5
290
330
28E
100
AcDbEntity
  8
001
370
    50
100
AcDbVertex
100
AcDb2dVertex
 10
77.866457
 20
78.700498
 30
0.0
  0
VERTEX
  5
291
330
28E
100
AcDbEntity
  8
001
370
    50
100
AcDbVertex
100
AcDb2dVertex
 10
78.406663
 20
78.41827
 30
0.0
  0
VERTEX
  5
292
330
28E
100
AcDbEntity
  8
001
370
    50
100
AcDbVertex
100
AcDb2dVertex
 10
79.20127
 20
78.015814
 30
0.0
  0
VERTEX
  5
293
330
28E
100
AcDbEntity
  8
001
370
    50
100
AcDbVertex
100
AcDb2dVertex
 10
79.558692
 20
77.841168
 30
0.0
  0
VERTEX
  5
294
330
28E
100
AcDbEntity
  8
001
370
    50
100
AcDbVertex
100
AcDb2dVertex
 10
79.804125
 20
77.723478
 30
0.0
  0
SEQEND
  5
28F
330
28E
100
AcDbEntity
  8
001
370
    50
  0
POLYLINE
  5
295
330
1F
100
AcDbEntity
  8
001
370
    50
100
AcDb2dPolyline
 66
     1
 10
0.0
 20
0.0
 30
0.0
  0
VERTEX
  5
297
330
295
100
AcDbEntity
  8
001
370
    50
100
AcDbVertex
100
AcDb2dVertex
 10
79.804125
 20
131.10674
 30
0.0
  0
VERTEX
  5
298
330
295
100
AcDbEntity
  8
001
370
    50
100
AcDbVertex
100
AcDb2dVertex
 10
78.077393
 20
131.446393
 30
0.0
  0
VERTEX
  5
299
330
295
100
AcDbEntity
  8
001
370
    50
100
AcDbVertex
100
AcDb2dVertex
 10
75.534161
 20
131.809915
 30
0.0
  0
VERTEX
  5
29A
330
295
100
AcDbEntity
  8
001
370
    50
100
AcDbVertex
100
AcDb2dVertex
 10
72.790163
 20
132.005382
 30
0.0
  0
VERTEX
  5
29B
330
295
100
AcDbEntity
  8
001
370
    50
100
AcDbVertex
100
AcDb2dVertex
 10
70.905863
 20
132.045652
 30
0.0
  0
SEQEND
  5
296
330
295
100
AcDbEntity
  8
001
370
    50
  0
LINE
  5
29C
330
1F
100
AcDbEntity
  8
001
370
    50
100
AcDbLine
 10
79.804125
 20
132.045652
 30
0.0
 11
70.905863
 21
132.045652
 31
0.0
  0
POLYLINE
  5
29D
330
1F
100
AcDbEntity
  8
001
370
    50
100
AcDb2dPolyline
 66
     1
 10
0.0
 20
0.0
 30
0.0
  0
VERTEX
  5
29F
330
29D
100
AcDbEntity
  8
001
370
    50
100
AcDbVertex
100
AcDb2dVertex
 10
53.388765
 20
129.723209
 30
0.0
  0
VERTEX
  5
2A0
330
29D
100
AcDbEntity
  8
001
370
    50
100
AcDbVertex
100
AcDb2dVertex
 10
53.573097
 20
129.748105
 30
0.0
  0
VERTEX
  5
2A1
330
29D
100
AcDbEntity
  8
001
370
    50
100
AcDbVertex
100
AcDb2dVertex
 10
53.75738
 20
129.773357
 30
0.0
  0
VERTEX
  5
2A2
330
29D
100
AcDbEntity
  8
001
370
    50
100
AcDbVertex
100
AcDb2dVertex
 10
54.393237
 20
129.865705
 30
0.0
  0
VERTEX
  5
2A3
330
29D
100
AcDbEntity
  8
001
370
    50
100
AcDbVertex
100
AcDb2dVertex
 10
55.02795
 20
129.965683
 30
0.0
  0
VERTEX
  5
2A4
330
29D
100
AcDbEntity
  8
001
370
    50
100
AcDbVertex
100
AcDb2dVertex
 10
55.648724
 20
130.07029
 30
0.0
  0
VERTEX
  5
2A5
330
29D
100
AcDbEntity
  8
001
370
    50
100
AcDbVertex
100
AcDb2dVertex
 10
56.268431
 20
130.181037
 30
0.0
  0
VERTEX
  5
2A6
330
29D
100
AcDbEntity
  8
001
370
    50
100
AcDbVertex
100
AcDb2dVertex
 10
56.876748
 20
130.295646
 30
0.0
  0
VERTEX
  5
2A7
330
29D
100
AcDbEntity
  8
001
370
    50
100
AcDbVertex
100
AcDb2dVertex
 10
57.48395
 20
130.415984
 30
0.0
  0
VERTEX
  5
2A8
330
29D
100
AcDbEntity
  8
001
370
    50
100
AcDbVertex
100
AcDb2dVertex
 10
58.070751
 20
130.537605
 30
0.0
  0
VERTEX
  5
2A9
330
29D
100
AcDbEntity
  8
001
370
    50
100
AcDbVertex
100
AcDb2dVertex
 10
58.656984
 20
130.661982
 30
0.0
  0
SEQEND
  5
29E
330
29D
100
AcDbEntity
  8
001
370
    50
  0
POLYLINE
  5
2AA
330
1F
100
AcDbEntity
  8
001
370
    50
100
AcDb2dPolyline
 66
     1
 10
0.0
 20
0.0
 30
0.0
  0
VERTEX
  5
2AC
330
2AA
100
AcDbEntity
  8
001
370
    50
100
AcDbVertex
100
AcDb2dVertex
 10
52.318713
 20
96.171834
 30
0.0
  0
VERTEX
  5
2AD
330
2AA
100
AcDbEntity
  8
001
370
    50
100
AcDbVertex
100
AcDb2dVertex
 10
52.317709
 20
96.177682
 30
0.0
  0
VERTEX
  5
2AE
330
2AA
100
AcDbEntity
  8
001
370
    50
100
AcDbVertex
100
AcDb2dVertex
 10
52.316232
 20
96.186217
 30
0.0
  0
VERTEX
  5
2AF
330
2AA
100
AcDbEntity
  8
001
370
    50
100
AcDbVertex
100
AcDb2dVertex
 10
52.128692
 20
96.913221
 30
0.0
  0
VERTEX
  5
2B0
330
2AA
100
AcDbEntity
  8
001
370
    50
100
AcDbVertex
100
AcDb2dVertex
 10
51.846371
 20
97.491624
 30
0.0
  0
VERTEX
  5
2B1
330
2AA
100
AcDbEntity
  8
001
370
    50
100
AcDbVertex
100
AcDb2dVertex
 10
51.224218
 20
98.296458
 30
0.0
  0
VERTEX
  5
2B2
330
2AA
100
AcDbEntity
  8
001
370
    50
100
AcDbVertex
100
AcDb2dVertex
 10
50.398502
 20
98.955725
 30
0.0
  0
VERTEX
  5
2B3
330
2AA
100
AcDbEntity
  8
001
370
    50
100
AcDbVertex
100
AcDb2dVertex
 10
50.087718
 20
99.118255
 30
0.0
  0
VERTEX
  5
2B4
330
2AA
100
AcDbEntity
  8
001
370
    50
100
AcDbVertex
100
AcDb2dVertex
 10
49.773589
 20
99.250394
 30
0.0
  0
VERTEX
  5
2B5
330
2AA
100
AcDbEntity
  8
001
370
    50
100
AcDbVertex
100
AcDb2dVertex
 10
49.459476
 20
99.35491
 30
0.0
  0
VERTEX
  5
2B6
330
2AA
100
AcDbEntity
  8
001
370
    50
100
AcDbVertex
100
AcDb2dVertex
 10
49.107569
 20
99.430855
 30
0.0
  0
VERTEX
  5
2B7
330
2AA
100
AcDbEntity
  8
001
370
    50
100
AcDbVertex
100
AcDb2dVertex
 10
48.710627
 20
99.476466
 30
0.0
  0
VERTEX
  5
2B8
330
2AA
100
AcDbEntity
  8
001
370
    50
100
AcDbVertex
100
AcDb2dVertex
 10
48.420678
 20
99.491624
 30
0.0
  0
SEQEND
  5
2AB
330
2AA
100
AcDbEntity
  8
001
370
    50
  0
LINE
  5
2B9
330
1F
100
AcDbEntity
  8
001
370
    50
100
AcDbLine
 10
39.465554
 20
96.942736
 30
0.0
 11
35.458332
 21
96.160214
 31
0.0
  0
POLYLINE
  5
2BA
330
1F
100
AcDbEntity
  8
001
370
    50
100
AcDb2dPolyline
 66
     1
 10
0.0
 20
0.0
 30
0.0
  0
VERTEX
  5
2BC
330
2BA
100
AcDbEntity
  8
001
370
    50
100
AcDbVertex
100
AcDb2dVertex
 10
39.877003
 20
97.000618
 30
0.0
  0
VERTEX
  5
2BD
330
2BA
100
AcDbEntity
  8
001
370
    50
100
AcDbVertex
100
AcDb2dVertex
 10
39.735012
 20
96.985309
 30
0.0
  0
VERTEX
  5
2BE
330
2BA
100
AcDbEntity
  8
001
370
    50
100
AcDbVertex
100
AcDb2dVertex
 10
39.528692
 20
96.954529
 30
0.0
  0
VERTEX
  5
2BF
330
2BA
100
AcDbEntity
  8
001
370
    50
100
AcDbVertex
100
AcDb2dVertex
 10
39.491183
 20
96.94764
 30
0.0
  0
VERTEX
  5
2C0
330
2BA
100
AcDbEntity
  8
001
370
    50
100
AcDbVertex
100
AcDb2dVertex
 10
39.465554
 20
96.942736
 30
0.0
  0
SEQEND
  5
2BB
330
2BA
100
AcDbEntity
  8
001
370
    50
  0
POLYLINE
  5
2C1
330
1F
100
AcDbEntity
  8
001
370
    50
100
AcDb2dPolyline
 66
     1
 10
0.0
 20
0.0
 30
0.0
  0
VERTEX
  5
2C3
330
2C1
100
AcDbEntity
  8
001
370
    50
100
AcDbVertex
100
AcDb2dVertex
 10
39.538424
 20
97.015298
 30
0.0
  0
VERTEX
  5
2C4
330
2C1
100
AcDbEntity
  8
001
370
    50
100
AcDbVertex
100
AcDb2dVertex
 10
39.257937
 20
97.003822
 30
0.0
  0
VERTEX
  5
2C5
330
2C1
100
AcDbEntity
  8
001
370
    50
100
AcDbVertex
100
AcDb2dVertex
 10
38.851532
 20
96.954529
 30
0.0
  0
VERTEX
  5
2C6
330
2C1
100
AcDbEntity
  8
001
370
    50
100
AcDbVertex
100
AcDb2dVertex
 10
38.814025
 20
96.947641
 30
0.0
  0
VERTEX
  5
2C7
330
2C1
100
AcDbEntity
  8
001
370
    50
100
AcDbVertex
100
AcDb2dVertex
 10
38.788395
 20
96.942736
 30
0.0
  0
SEQEND
  5
2C2
330
2C1
100
AcDbEntity
  8
001
370
    50
  0
POLYLINE
  5
2C8
330
1F
100
AcDbEntity
  8
001
370
    50
100
AcDb2dPolyline
 66
     1
 10
0.0
 20
0.0
 30
0.0
  0
VERTEX
  5
2CA
330
2C8
100
AcDbEntity
  8
001
370
    50
100
AcDbVertex
100
AcDb2dVertex
 10
47.571855
 20
125.883311
 30
0.0
  0
VERTEX
  5
2CB
330
2C8
100
AcDbEntity
  8
001
370
    50
100
AcDbVertex
100
AcDb2dVertex
 10
48.116366
 20
126.207658
 30
0.0
  0
VERTEX
  5
2CC
330
2C8
100
AcDbEntity
  8
001
370
    50
100
AcDbVertex
100
AcDb2dVertex
 10
48.658779
 20
126.535453
 30
0.0
  0
VERTEX
  5
2CD
330
2C8
100
AcDbEntity
  8
001
370
    50
100
AcDbVertex
100
AcDb2dVertex
 10
49.205494
 20
126.874446
 30
0.0
  0
VERTEX
  5
2CE
330
2C8
100
AcDbEntity
  8
001
370
    50
100
AcDbVertex
100
AcDb2dVertex
 10
49.748481
 20
127.219411
 30
0.0
  0
VERTEX
  5
2CF
330
2C8
100
AcDbEntity
  8
001
370
    50
100
AcDbVertex
100
AcDb2dVertex
 10
50.206694
 20
127.516129
 30
0.0
  0
VERTEX
  5
2D0
330
2C8
100
AcDbEntity
  8
001
370
    50
100
AcDbVertex
100
AcDb2dVertex
 10
50.662522
 20
127.816482
 30
0.0
  0
VERTEX
  5
2D1
330
2C8
100
AcDbEntity
  8
001
370
    50
100
AcDbVertex
100
AcDb2dVertex
 10
51.118659
 20
128.122431
 30
0.0
  0
VERTEX
  5
2D2
330
2C8
100
AcDbEntity
  8
001
370
    50
100
AcDbVertex
100
AcDb2dVertex
 10
51.572399
 20
128.431937
 30
0.0
  0
VERTEX
  5
2D3
330
2C8
100
AcDbEntity
  8
001
370
    50
100
AcDbVertex
100
AcDb2dVertex
 10
52.02976
 20
128.749014
 30
0.0
  0
VERTEX
  5
2D4
330
2C8
100
AcDbEntity
  8
001
370
    50
100
AcDbVertex
100
AcDb2dVertex
 10
52.484422
 20
129.069932
 30
0.0
  0
VERTEX
  5
2D5
330
2C8
100
AcDbEntity
  8
001
370
    50
100
AcDbVertex
100
AcDb2dVertex
 10
52.937369
 20
129.395487
 30
0.0
  0
VERTEX
  5
2D6
330
2C8
100
AcDbEntity
  8
001
370
    50
100
AcDbVertex
100
AcDb2dVertex
 10
53.388765
 20
129.723209
 30
0.0
  0
SEQEND
  5
2C9
330
2C8
100
AcDbEntity
  8
001
370
    50
  0
POLYLINE
  5
2D7
330
1F
100
AcDbEntity
  8
001
370
    50
100
AcDb2dPolyline
 66
     1
 10
0.0
 20
0.0
 30
0.0
  0
VERTEX
  5
2D9
330
2D7
100
AcDbEntity
  8
001
370
    50
100
AcDbVertex
100
AcDb2dVertex
 10
28.704125
 20
114.775064
 30
0.0
  0
VERTEX
  5
2DA
330
2D7
100
AcDbEntity
  8
001
370
    50
100
AcDbVertex
100
AcDb2dVertex
 10
30.58847
 20
115.88925
 30
0.0
  0
VERTEX
  5
2DB
330
2D7
100
AcDbEntity
  8
001
370
    50
100
AcDbVertex
100
AcDb2dVertex
 10
32.472984
 20
117.003148
 30
0.0
  0
VERTEX
  5
2DC
330
2D7
100
AcDbEntity
  8
001
370
    50
100
AcDbVertex
100
AcDb2dVertex
 10
34.357838
 20
118.116469
 30
0.0
  0
VERTEX
  5
2DD
330
2D7
100
AcDbEntity
  8
001
370
    50
100
AcDbVertex
100
AcDb2dVertex
 10
36.243202
 20
119.228924
 30
0.0
  0
VERTEX
  5
2DE
330
2D7
100
AcDbEntity
  8
001
370
    50
100
AcDbVertex
100
AcDb2dVertex
 10
38.129244
 20
120.340226
 30
0.0
  0
VERTEX
  5
2DF
330
2D7
100
AcDbEntity
  8
001
370
    50
100
AcDbVertex
100
AcDb2dVertex
 10
40.016747
 20
121.450575
 30
0.0
  0
VERTEX
  5
2E0
330
2D7
100
AcDbEntity
  8
001
370
    50
100
AcDbVertex
100
AcDb2dVertex
 10
41.904929
 20
122.559769
 30
0.0
  0
VERTEX
  5
2E1
330
2D7
100
AcDbEntity
  8
001
370
    50
100
AcDbVertex
100
AcDb2dVertex
 10
43.793621
 20
123.668098
 30
0.0
  0
VERTEX
  5
2E2
330
2D7
100
AcDbEntity
  8
001
370
    50
100
AcDbVertex
100
AcDb2dVertex
 10
45.682653
 20
124.775849
 30
0.0
  0
VERTEX
  5
2E3
330
2D7
100
AcDbEntity
  8
001
370
    50
100
AcDbVertex
100
AcDb2dVertex
 10
47.571855
 20
125.883311
 30
0.0
  0
SEQEND
  5
2D8
330
2D7
100
AcDbEntity
  8
001
370
    50
  0
LINE
  5
2E4
330
1F
100
AcDbEntity
  8
001
370
    50
100
AcDbLine
 10
28.704125
 20
112.336182
 30
0.0
 11
28.704125
 21
114.775064
 31
0.0
  0
LINE
  5
2E5
330
1F
100
AcDbEntity
  8
001
370
    50
100
AcDbLine
 10
162.804125
 20
104.495652
 30
0.0
 11
165.402201
 21
105.995652
 31
0.0
  0
LINE
  5
2E6
330
1F
100
AcDbEntity
  8
001
370
    50
100
AcDbLine
 10
162.804125
 20
104.495652
 30
0.0
 11
165.402201
 21
102.995652
 31
0.0
  0
LINE
  5
2E7
330
1F
100
AcDbEntity
  8
001
  6
CENTER
370
     9
100
AcDbLine
 10
25.413719
 20
104.495652
 30
0.0
 11
165.39455
 21
104.495652
 31
0.0
  0
LINE
  5
2E8
330
1F
100
AcDbEntity
  8
001
370
    50
100
AcDbLine
 10
84.804125
 20
88.495652
 30
0.0
 11
84.804125
 21
120.495652
 31
0.0
  0
LINE
  5
2E9
330
1F
100
AcDbEntity
  8
001
370
    50
100
AcDbLine
 10
84.804125
 20
119.995652
 30
0.0
 11
82.804125
 21
119.995652
 31
0.0
  0
LINE
  5
2EA
330
1F
100
AcDbEntity
  8
001
370
    50
100
AcDbLine
 10
82.804125
 20
88.995652
 30
0.0
 11
84.804125
 21
88.995652
 31
0.0
  0
ARC
  5
2EB
330
1F
100
AcDbEntity
  8
001
370
    50
100
AcDbCircle
 10
50.829801
 20
89.167487
 30
0.0
 40
0.3950000000000001
100
AcDbArc
 50
13.633617
 51
166.366383
  0
ARC
  5
2EC
330
1F
100
AcDbEntity
  8
001
370
    50
100
AcDbCircle
 10
49.769046
 20
89.42477
 30
0.0
 40
0.6965113125890092
100
AcDbArc
 50
253.633617
 51
346.366383
  0
ARC
  5
2ED
330
1F
100
AcDbEntity
  8
001
370
    50
100
AcDbCircle
 10
49.461481
 20
88.377487
 30
0.0
 40
0.3950000000000001
100
AcDbArc
 50
73.633617
 51
226.366383
  0
ARC
  5
2EE
330
1F
100
AcDbEntity
  8
001
370
    50
100
AcDbCircle
 10
48.70829
 20
87.587487
 30
0.0
 40
0.6965113125890092
100
AcDbArc
 50
313.633617
 51
46.366383
  0
ARC
  5
2EF
330
1F
100
AcDbEntity
  8
001
370
    50
100
AcDbCircle
 10
49.461481
 20
86.797487
 30
0.0
 40
0.3950000000000001
100
AcDbArc
 50
133.633617
 51
286.366383
  0
ARC
  5
2F0
330
1F
100
AcDbEntity
  8
001
370
    50
100
AcDbCircle
 10
49.769046
 20
85.750204
 30
0.0
 40
0.6965113125890092
100
AcDbArc
 50
13.633617
 51
106.366383
  0
ARC
  5
2F1
330
1F
100
AcDbEntity
  8
001
370
    50
100
AcDbCircle
 10
50.829801
 20
86.007487
 30
0.0
 40
0.3950000000000001
100
AcDbArc
 50
193.633617
 51
346.366383
  0
ARC
  5
2F2
330
1F
100
AcDbEntity
  8
001
370
    50
100
AcDbCircle
 10
51.890557
 20
85.750204
 30
0.0
 40
0.6965113125890092
100
AcDbArc
 50
73.633617
 51
166.366383
  0
ARC
  5
2F3
330
1F
100
AcDbEntity
  8
001
370
    50
100
AcDbCircle
 10
52.198121
 20
86.797487
 30
0.0
 40
0.3950000000000001
100
AcDbArc
 50
253.633617
 51
46.366383
  0
ARC
  5
2F4
330
1F
100
AcDbEntity
  8
001
370
    50
100
AcDbCircle
 10
52.951313
 20
87.587487
 30
0.0
 40
0.6965113125890092
100
AcDbArc
 50
133.633617
 51
226.366383
  0
ARC
  5
2F5
330
1F
100
AcDbEntity
  8
001
370
    50
100
AcDbCircle
 10
52.198121
 20
88.377487
 30
0.0
 40
0.3950000000000001
100
AcDbArc
 50
313.633617
 51
106.366383
  0
ARC
  5
2F6
330
1F
100
AcDbEntity
  8
001
370
    50
100
AcDbCircle
 10
51.890557
 20
89.42477
 30
0.0
 40
0.6965113125890092
100
AcDbArc
 50
193.633617
 51
286.366383
  0
CIRCLE
  5
2F7
330
1F
100
AcDbEntity
  8
001
370
    50
100
AcDbCircle
 10
50.829801
 20
87.587487
 30
0.0
 40
3.0
  0
LINE
  5
2F8
330
1F
100
AcDbEntity
  8
001
  6
PHANTOM
370
     9
100
AcDbLine
 10
52.536308
 20
76.177991
 30
0.0
 11
52.639619
 21
76.105652
 31
0.0
  0
LINE
  5
2F9
330
1F
100
AcDbEntity
  8
001
370
     9
100
AcDbLine
 10
11.440352
 20
76.105652
 30
0.0
 11
52.639619
 21
76.105652
 31
0.0
  0
LINE
  5
2FA
330
1F
100
AcDbEntity
  8
001
370
     9
100
AcDbLine
 10
11.440352
 20
93.495652
 30
0.0
 11
27.804125
 21
93.495652
 31
0.0
  0
LINE
  5
2FB
330
1F
100
AcDbEntity
  8
001
370
    50
100
AcDbLine
 10
52.536308
 20
76.177991
 30
0.0
 11
27.974695
 21
93.376218
 31
0.0
  0
LINE
  5
2FC
330
1F
100
AcDbEntity
  8
001
  6
PHANTOM
370
     9
100
AcDbLine
 10
27.974695
 20
93.376218
 30
0.0
 11
27.804125
 21
93.495652
 31
0.0
  0
LINE
  5
2FD
330
1F
100
AcDbEntity
  8
001
370
     9
100
AcDbLine
 10
27.804125
 20
93.495652
 30
0.0
 11
27.804125
 21
67.720104
 31
0.0
  0
LINE
  5
2FE
330
1F
100
AcDbEntity
  8
001
370
    50
100
AcDbLine
 10
53.421216
 20
76.105652
 30
0.0
 11
52.765739
 21
76.105652
 31
0.0
  0
LINE
  5
2FF
330
1F
100
AcDbEntity
  8
001
  6
PHANTOM
370
     9
100
AcDbLine
 10
52.765739
 20
76.105652
 30
0.0
 11
52.639619
 21
76.105652
 31
0.0
  0
LINE
  5
300
330
1F
100
AcDbEntity
  8
001
370
     9
100
AcDbLine
 10
52.639619
 20
76.105652
 30
0.0
 11
52.639619
 21
67.720104
 31
0.0
  0
ARC
  5
301
330
1F
100
AcDbEntity
  8
001
370
    50
100
AcDbCircle
 10
28.204125
 20
93.703879
 30
0.0
 40
0.4
100
AcDbArc
 50
101.743727
 51
235.0
  0
LINE
  5
302
330
1F
100
AcDbEntity
  8
001
  6
PHANTOM
370
     9
100
AcDbLine
 10
27.804125
 20
93.703879
 30
0.0
 11
27.804125
 21
93.495652
 31
0.0
  0
LINE
  5
303
330
1F
100
AcDbEntity
  8
001
370
    50
100
AcDbLine
 10
28.122711
 20
94.095506
 30
0.0
 11
48.825125
 21
98.399249
 31
0.0
  0
LINE
  5
304
330
1F
100
AcDbEntity
  8
001
370
    50
100
AcDbLine
 10
28.704125
 20
107.813328
 30
0.0
 11
28.704125
 21
94.216374
 31
0.0
  0
POLYLINE
  5
305
330
1F
100
AcDbEntity
  8
001
370
    50
100
AcDb2dPolyline
 66
     1
 10
0.0
 20
0.0
 30
0.0
  0
VERTEX
  5
307
330
305
100
AcDbEntity
  8
001
370
    50
100
AcDbVertex
100
AcDb2dVertex
 10
34.781172
 20
96.160214
 30
0.0
  0
VERTEX
  5
308
330
305
100
AcDbEntity
  8
001
370
    50
100
AcDbVertex
100
AcDb2dVertex
 10
34.524314
 20
96.09613
 30
0.0
  0
VERTEX
  5
309
330
305
100
AcDbEntity
  8
001
370
    50
100
AcDbVertex
100
AcDb2dVertex
 10
34.178289
 20
95.991546
 30
0.0
  0
VERTEX
  5
30A
330
305
100
AcDbEntity
  8
001
370
    50
100
AcDbVertex
100
AcDb2dVertex
 10
33.851866
 20
95.863149
 30
0.0
  0
VERTEX
  5
30B
330
305
100
AcDbEntity
  8
001
370
    50
100
AcDbVertex
100
AcDb2dVertex
 10
33.553376
 20
95.696878
 30
0.0
  0
VERTEX
  5
30C
330
305
100
AcDbEntity
  8
001
370
    50
100
AcDbVertex
100
AcDb2dVertex
 10
33.067477
 20
95.346114
 30
0.0
  0
VERTEX
  5
30D
330
305
100
AcDbEntity
  8
001
370
    50
100
AcDbVertex
100
AcDb2dVertex
 10
32.725397
 20
95.05234
 30
0.0
  0
SEQEND
  5
306
330
305
100
AcDbEntity
  8
001
370
    50
  0
POLYLINE
  5
30E
330
1F
100
AcDbEntity
  8
001
370
    50
100
AcDb2dPolyline
 66
     1
 10
0.0
 20
0.0
 30
0.0
  0
VERTEX
  5
310
330
30E
100
AcDbEntity
  8
001
370
    50
100
AcDbVertex
100
AcDb2dVertex
 10
35.458332
 20
96.160214
 30
0.0
  0
VERTEX
  5
311
330
30E
100
AcDbEntity
  8
001
370
    50
100
AcDbVertex
100
AcDb2dVertex
 10
35.201052
 20
96.095998
 30
0.0
  0
VERTEX
  5
312
330
30E
100
AcDbEntity
  8
001
370
    50
100
AcDbVertex
100
AcDb2dVertex
 10
34.855449
 20
95.991546
 30
0.0
  0
VERTEX
  5
313
330
30E
100
AcDbEntity
  8
001
370
    50
100
AcDbVertex
100
AcDb2dVertex
 10
34.531446
 20
95.863907
 30
0.0
  0
VERTEX
  5
314
330
30E
100
AcDbEntity
  8
001
370
    50
100
AcDbVertex
100
AcDb2dVertex
 10
34.230536
 20
95.696878
 30
0.0
  0
VERTEX
  5
315
330
30E
100
AcDbEntity
  8
001
370
    50
100
AcDbVertex
100
AcDb2dVertex
 10
33.856885
 20
95.440134
 30
0.0
  0
VERTEX
  5
316
330
30E
100
AcDbEntity
  8
001
370
    50
100
AcDbVertex
100
AcDb2dVertex
 10
33.591516
 20
95.232394
 30
0.0
  0
SEQEND
  5
30F
330
30E
100
AcDbEntity
  8
001
370
    50
  0
POLYLINE
  5
317
330
1F
100
AcDbEntity
  8
001
370
    50
100
AcDb2dPolyline
 66
     1
 10
0.0
 20
0.0
 30
0.0
  0
VERTEX
  5
319
330
317
100
AcDbEntity
  8
001
370
    50
100
AcDbVertex
100
AcDb2dVertex
 10
40.932794
 20
96.758544
 30
0.0
  0
VERTEX
  5
31A
330
317
100
AcDbEntity
  8
001
370
    50
100
AcDbVertex
100
AcDb2dVertex
 10
40.915876
 20
96.764913
 30
0.0
  0
VERTEX
  5
31B
330
317
100
AcDbEntity
  8
001
370
    50
100
AcDbVertex
100
AcDb2dVertex
 10
40.891336
 20
96.774068
 30
0.0
  0
VERTEX
  5
31C
330
317
100
AcDbEntity
  8
001
370
    50
100
AcDbVertex
100
AcDb2dVertex
 10
40.549797
 20
96.888006
 30
0.0
  0
VERTEX
  5
31D
330
317
100
AcDbEntity
  8
001
370
    50
100
AcDbVertex
100
AcDb2dVertex
 10
40.225315
 20
96.954529
 30
0.0
  0
VERTEX
  5
31E
330
317
100
AcDbEntity
  8
001
370
    50
100
AcDbVertex
100
AcDb2dVertex
 10
39.833853
 20
96.998258
 30
0.0
  0
VERTEX
  5
31F
330
317
100
AcDbEntity
  8
001
370
    50
100
AcDbVertex
100
AcDb2dVertex
 10
39.538424
 20
97.015298
 30
0.0
  0
SEQEND
  5
318
330
317
100
AcDbEntity
  8
001
370
    50
  0
POLYLINE
  5
320
330
1F
100
AcDbEntity
  8
001
370
    50
100
AcDb2dPolyline
 66
     1
 10
0.0
 20
0.0
 30
0.0
  0
VERTEX
  5
322
330
320
100
AcDbEntity
  8
001
370
    50
100
AcDbVertex
100
AcDb2dVertex
 10
48.420678
 20
99.491624
 30
0.0
  0
VERTEX
  5
323
330
320
100
AcDbEntity
  8
001
370
    50
100
AcDbVertex
100
AcDb2dVertex
 10
48.130941
 20
99.476768
 30
0.0
  0
VERTEX
  5
324
330
320
100
AcDbEntity
  8
001
370
    50
100
AcDbVertex
100
AcDb2dVertex
 10
47.733786
 20
99.430855
 30
0.0
  0
VERTEX
  5
325
330
320
100
AcDbEntity
  8
001
370
    50
100
AcDbVertex
100
AcDb2dVertex
 10
47.380814
 20
99.353402
 30
0.0
  0
VERTEX
  5
326
330
320
100
AcDbEntity
  8
001
370
    50
100
AcDbVertex
100
AcDb2dVertex
 10
47.067766
 20
99.250394
 30
0.0
  0
VERTEX
  5
327
330
320
100
AcDbEntity
  8
001
370
    50
100
AcDbVertex
100
AcDb2dVertex
 10
46.757692
 20
99.123996
 30
0.0
  0
VERTEX
  5
328
330
320
100
AcDbEntity
  8
001
370
    50
100
AcDbVertex
100
AcDb2dVertex
 10
46.442853
 20
98.955725
 30
0.0
  0
VERTEX
  5
329
330
320
100
AcDbEntity
  8
001
370
    50
100
AcDbVertex
100
AcDb2dVertex
 10
45.599812
 20
98.252294
 30
0.0
  0
VERTEX
  5
32A
330
320
100
AcDbEntity
  8
001
370
    50
100
AcDbVertex
100
AcDb2dVertex
 10
45.070717
 20
97.61876
 30
0.0
  0
SEQEND
  5
321
330
320
100
AcDbEntity
  8
001
370
    50
  0
POLYLINE
  5
32B
330
1F
100
AcDbEntity
  8
001
370
    50
100
AcDb2dPolyline
 66
     1
 10
0.0
 20
0.0
 30
0.0
  0
VERTEX
  5
32D
330
32B
100
AcDbEntity
  8
001
370
    50
100
AcDbVertex
100
AcDb2dVertex
 10
48.759257
 20
99.476944
 30
0.0
  0
VERTEX
  5
32E
330
32B
100
AcDbEntity
  8
001
370
    50
100
AcDbVertex
100
AcDb2dVertex
 10
48.614183
 20
99.460507
 30
0.0
  0
VERTEX
  5
32F
330
32B
100
AcDbEntity
  8
001
370
    50
100
AcDbVertex
100
AcDb2dVertex
 10
48.410945
 20
99.430855
 30
0.0
  0
VERTEX
  5
330
330
32B
100
AcDbEntity
  8
001
370
    50
100
AcDbVertex
100
AcDb2dVertex
 10
48.053766
 20
99.351867
 30
0.0
  0
VERTEX
  5
331
330
32B
100
AcDbEntity
  8
001
370
    50
100
AcDbVertex
100
AcDb2dVertex
 10
47.744925
 20
99.250394
 30
0.0
  0
VERTEX
  5
332
330
32B
100
AcDbEntity
  8
001
370
    50
100
AcDbVertex
100
AcDb2dVertex
 10
47.436638
 20
99.124643
 30
0.0
  0
VERTEX
  5
333
330
32B
100
AcDbEntity
  8
001
370
    50
100
AcDbVertex
100
AcDb2dVertex
 10
47.120012
 20
98.955725
 30
0.0
  0
VERTEX
  5
334
330
32B
100
AcDbEntity
  8
001
370
    50
100
AcDbVertex
100
AcDb2dVertex
 10
46.348328
 20
98.333655
 30
0.0
  0
VERTEX
  5
335
330
32B
100
AcDbEntity
  8
001
370
    50
100
AcDbVertex
100
AcDb2dVertex
 10
45.854654
 20
97.78173
 30
0.0
  0
SEQEND
  5
32C
330
32B
100
AcDbEntity
  8
001
370
    50
  0
ARC
  5
336
330
1F
100
AcDbEntity
  8
001
370
    50
100
AcDbCircle
 10
52.765739
 20
76.505652
 30
0.0
 40
0.4
100
AcDbArc
 50
235.0
 51
270.0
  0
LINE
  5
337
330
1F
100
AcDbEntity
  8
001
370
    50
100
AcDbLine
 10
73.991469
 20
80.509634
 30
0.0
 11
52.847152
 21
76.114025
 31
0.0
  0
ARC
  5
338
330
1F
100
AcDbEntity
  8
001
370
    50
100
AcDbCircle
 10
73.910055
 20
80.901261
 30
0.0
 40
0.4
100
AcDbArc
 50
281.743727
 51
55.632946
  0
ARC
  5
339
330
1F
100
AcDbEntity
  8
001
370
    50
100
AcDbCircle
 10
53.421216
 20
76.505652
 30
0.0
 40
0.4
100
AcDbArc
 50
270.0
 51
281.743727
  0
LINE
  5
33A
330
1F
100
AcDbEntity
  8
001
370
    50
100
AcDbLine
 10
57.503028
 20
76.945652
 30
0.0
 11
79.804125
 21
76.945652
 31
0.0
  0
POLYLINE
  5
33B
330
1F
100
AcDbEntity
  8
001
370
    50
100
AcDb2dPolyline
 66
     1
 10
0.0
 20
0.0
 30
0.0
  0
VERTEX
  5
33D
330
33B
100
AcDbEntity
  8
001
370
    50
100
AcDbVertex
100
AcDb2dVertex
 10
57.883455
 20
77.024737
 30
0.0
  0
VERTEX
  5
33E
330
33B
100
AcDbEntity
  8
001
370
    50
100
AcDbVertex
100
AcDb2dVertex
 10
60.80544
 20
77.062886
 30
0.0
  0
VERTEX
  5
33F
330
33B
100
AcDbEntity
  8
001
370
    50
100
AcDbVertex
100
AcDb2dVertex
 10
64.19517
 20
77.114759
 30
0.0
  0
VERTEX
  5
340
330
33B
100
AcDbEntity
  8
001
370
    50
100
AcDbVertex
100
AcDb2dVertex
 10
67.935597
 20
77.181503
 30
0.0
  0
VERTEX
  5
341
330
33B
100
AcDbEntity
  8
001
370
    50
100
AcDbVertex
100
AcDb2dVertex
 10
71.909672
 20
77.264267
 30
0.0
  0
VERTEX
  5
342
330
33B
100
AcDbEntity
  8
001
370
    50
100
AcDbVertex
100
AcDb2dVertex
 10
76.000346
 20
77.364198
 30
0.0
  0
VERTEX
  5
343
330
33B
100
AcDbEntity
  8
001
370
    50
100
AcDbVertex
100
AcDb2dVertex
 10
78.258876
 20
77.426343
 30
0.0
  0
VERTEX
  5
344
330
33B
100
AcDbEntity
  8
001
370
    50
100
AcDbVertex
100
AcDb2dVertex
 10
79.804125
 20
77.471138
 30
0.0
  0
SEQEND
  5
33C
330
33B
100
AcDbEntity
  8
001
370
    50
  0
LINE
  5
345
330
1F
100
AcDbEntity
  8
001
370
    50
100
AcDbLine
 10
74.684629
 20
80.517467
 30
0.0
 11
53.50263
 21
76.114025
 31
0.0
  0
POLYLINE
  5
346
330
1F
100
AcDbEntity
  8
001
370
    50
100
AcDb2dPolyline
 66
     1
 10
0.0
 20
0.0
 30
0.0
  0
VERTEX
  5
348
330
346
100
AcDbEntity
  8
001
370
    50
100
AcDbVertex
100
AcDb2dVertex
 10
74.684629
 20
80.517467
 30
0.0
  0
VERTEX
  5
349
330
346
100
AcDbEntity
  8
001
370
    50
100
AcDbVertex
100
AcDb2dVertex
 10
74.710144
 20
80.524002
 30
0.0
  0
VERTEX
  5
34A
330
346
100
AcDbEntity
  8
001
370
    50
100
AcDbVertex
100
AcDb2dVertex
 10
74.742382
 20
80.533807
 30
0.0
  0
VERTEX
  5
34B
330
346
100
AcDbEntity
  8
001
370
    50
100
AcDbVertex
100
AcDb2dVertex
 10
74.775521
 20
80.546801
 30
0.0
  0
VERTEX
  5
34C
330
346
100
AcDbEntity
  8
001
370
    50
100
AcDbVertex
100
AcDb2dVertex
 10
74.804874
 20
80.563274
 30
0.0
  0
VERTEX
  5
34D
330
346
100
AcDbEntity
  8
001
370
    50
100
AcDbVertex
100
AcDb2dVertex
 10
74.888588
 20
80.634552
 30
0.0
  0
VERTEX
  5
34E
330
346
100
AcDbEntity
  8
001
370
    50
100
AcDbVertex
100
AcDb2dVertex
 10
74.943568
 20
80.699374
 30
0.0
  0
SEQEND
  5
347
330
346
100
AcDbEntity
  8
001
370
    50
  0
ENDSEC
  0
SECTION
  2
OBJECTS
  0
DICTIONARY
  5
C
330
0
100
AcDbDictionary
281
     1
  3
ACAD_GROUP
350
D
  3
ACAD_LAYOUT
350
1A
  3
ACAD_MLEADERSTYLE
350
352
  3
ACAD_MLINESTYLE
350
17
  3
ACAD_PLOTSETTINGS
350
19
  3
ACAD_PLOTSTYLENAME
350
E
  3
ACAD_SCALELIST
350
3B
  3
ACAD_TABLESTYLE
350
351
  3
ACAD_VISUALSTYLE
350
2A
  3
AcDbVariableDictionary
350
34F
  0
DICTIONARY
  5
D
102
{ACAD_REACTORS
330
C
102
}
330
C
100
AcDbDictionary
281
     1
  0
DICTIONARY
  5
1A
102
{ACAD_REACTORS
330
C
102
}
330
C
100
AcDbDictionary
281
     1
  3
Layout1
350
1E
  3
Layout2
350
26
  3
Model
350
22
  0
DICTIONARY
  5
352
102
{ACAD_REACTORS
330
C
102
}
330
C
100
AcDbDictionary
281
     1
  0
DICTIONARY
  5
17
102
{ACAD_REACTORS
330
C
102
}
330
C
100
AcDbDictionary
281
     1
  3
Standard
350
18
  0
DICTIONARY
  5
19
102
{ACAD_REACTORS
330
C
102
}
330
C
100
AcDbDictionary
281
     1
  0
ACDBDICTIONARYWDFLT
  5
E
102
{ACAD_REACTORS
330
C
102
}
330
C
100
AcDbDictionary
281
     1
  3
Normal
350
F
100
AcDbDictionaryWithDefault
340
F
  0
DICTIONARY
  5
3B
102
{ACAD_REACTORS
330
C
102
}
330
C
100
AcDbDictionary
281
     1
  3
A0
350
3C
  3
A1
350
3D
  3
A2
350
3E
  3
A3
350
3F
  3
A4
350
40
  3
A5
350
41
  3
A6
350
42
  3
A7
350
43
  3
A8
350
44
  3
A9
350
45
  3
B0
350
46
  3
B1
350
47
  3
B2
350
48
  3
B3
350
49
  3
B4
350
4A
  3
B5
350
4B
  3
B6
350
4C
  3
B7
350
4D
  3
B8
350
4E
  3
B9
350
4F
  3
C0
350
50
  3
C1
350
51
  3
C2
350
52
  3
C3
350
53
  3
C4
350
54
  3
C5
350
55
  3
C6
350
56
  3
C7
350
57
  3
C8
350
58
  3
C9
350
59
  3
D0
350
5A
  3
D1
350
5B
  3
D2
350
5C
  0
DICTIONARY
  5
351
102
{ACAD_REACTORS
330
C
102
}
330
C
100
AcDbDictionary
281
     1
  0
DICTIONARY
  5
2A
102
{ACAD_REACTORS
330
C
102
}
330
C
100
AcDbDictionary
281
     1
  3
2dWireframe
350
2F
  3
3D Hidden
350
31
  3
3dWireframe
350
30
  3
Basic
350
32
  3
Brighten
350
36
  3
ColorChange
350
3A
  3
Conceptual
350
34
  3
Dim
350
35
  3
Facepattern
350
39
  3
Flat
350
2B
  3
FlatWithEdges
350
2C
  3
Gouraud
350
2D
  3
GouraudWithEdges
350
2E
  3
Linepattern
350
38
  3
Realistic
350
33
  3
Thicken
350
37
  0
DICTIONARY
  5
34F
102
{ACAD_REACTORS
330
C
102
}
330
C
100
AcDbDictionary
281
     1
  3
CANNOSCALE
350
350
  3
PSOLHEIGHT
350
354
  3
PSOLWIDTH
350
353
  0
LAYOUT
  5
1E
102
{ACAD_REACTORS
330
1A
102
}
330
1A
100
AcDbPlotSettings
  1

  2
none_device
  4

  6

 40
0.0
 41
0.0
 42
0.0
 43
0.0
 44
0.0
 45
0.0
 46
0.0
 47
0.0
 48
0.0
 49
0.0
140
0.0
141
0.0
142
1.0
143
1.0
 70
   688
 72
     0
 73
     0
 74
     5
  7

 75
    16
147
1.0
148
0.0
149
0.0
100
AcDbLayout
  1
Layout1
 70
     1
 71
     1
 10
0.0
 20
0.0
 11
12.0
 21
9.0
 12
0.0
 22
0.0
 32
0.0
 14
1.000000E+20
 24
1.000000E+20
 34
0.0
 15
-1.000000E+20
 25
-1.000000E+20
 35
0.0
146
0.0
 13
0.0
 23
0.0
 33
0.0
 16
1.0
 26
0.0
 36
0.0
 17
0.0
 27
1.0
 37
0.0
 76
     0
330
1B
  0
LAYOUT
  5
26
102
{ACAD_REACTORS
330
1A
102
}
330
1A
100
AcDbPlotSettings
  1

  2
none_device
  4

  6

 40
0.0
 41
0.0
 42
0.0
 43
0.0
 44
0.0
 45
0.0
 46
0.0
 47
0.0
 48
0.0
 49
0.0
140
0.0
141
0.0
142
1.0
143
1.0
 70
   688
 72
     0
 73
     0
 74
     5
  7

 75
    16
147
1.0
148
0.0
149
0.0
100
AcDbLayout
  1
Layout2
 70
     1
 71
     2
 10
0.0
 20
0.0
 11
0.0
 21
0.0
 12
0.0
 22
0.0
 32
0.0
 14
0.0
 24
0.0
 34
0.0
 15
0.0
 25
0.0
 35
0.0
146
0.0
 13
0.0
 23
0.0
 33
0.0
 16
1.0
 26
0.0
 36
0.0
 17
0.0
 27
1.0
 37
0.0
 76
     0
330
23
  0
LAYOUT
  5
22
102
{ACAD_REACTORS
330
1A
102
}
330
1A
100
AcDbPlotSettings
  1

  2
none_device
  4

  6

 40
0.0
 41
0.0
 42
0.0
 43
0.0
 44
0.0
 45
0.0
 46
0.0
 47
0.0
 48
0.0
 49
0.0
140
0.0
141
0.0
142
1.0
143
1.0
 70
  1712
 72
     0
 73
     0
 74
     0
  7

 75
     0
147
1.0
148
0.0
149
0.0
100
AcDbLayout
  1
Model
 70
     1
 71
     0
 10
0.0
 20
0.0
 11
12.0
 21
9.0
 12
0.0
 22
0.0
 32
0.0
 14
-9.23761
 24
23.719238
 34
0.0
 15
191.227905
 25
151.709564
 35
0.0
146
0.0
 13
0.0
 23
0.0
 33
0.0
 16
1.0
 26
0.0
 36
0.0
 17
0.0
 27
1.0
 37
0.0
 76
     0
330
1F
331
29
  0
MLINESTYLE
  5
18
102
{ACAD_REACTORS
330
17
102
}
330
17
100
AcDbMlineStyle
  2
Standard
 70
     0
  3

 62
   256
 51
90.0
 52
90.0
 71
     2
 49
0.5
 62
   256
  6
BYLAYER
 49
-0.5
 62
   256
  6
BYLAYER
  0
ACDBPLACEHOLDER
  5
F
102
{ACAD_REACTORS
330
E
102
}
330
E
  0
SCALE
  5
3C
102
{ACAD_REACTORS
330
3B
102
}
330
3B
100
AcDbScale
 70
     0
300
1:1
140
1.0
141
1.0
290
     1
  0
SCALE
  5
3D
102
{ACAD_REACTORS
330
3B
102
}
330
3B
100
AcDbScale
 70
     0
300
1:2
140
1.0
141
2.0
290
     0
  0
SCALE
  5
3E
102
{ACAD_REACTORS
330
3B
102
}
330
3B
100
AcDbScale
 70
     0
300
1:4
140
1.0
141
4.0
290
     0
  0
SCALE
  5
3F
102
{ACAD_REACTORS
330
3B
102
}
330
3B
100
AcDbScale
 70
     0
300
1:5
140
1.0
141
5.0
290
     0
  0
SCALE
  5
40
102
{ACAD_REACTORS
330
3B
102
}
330
3B
100
AcDbScale
 70
     0
300
1:8
140
1.0
141
8.0
290
     0
  0
SCALE
  5
41
102
{ACAD_REACTORS
330
3B
102
}
330
3B
100
AcDbScale
 70
     0
300
1:10
140
1.0
141
10.0
290
     0
  0
SCALE
  5
42
102
{ACAD_REACTORS
330
3B
102
}
330
3B
100
AcDbScale
 70
     0
300
1:16
140
1.0
141
16.0
290
     0
  0
SCALE
  5
43
102
{ACAD_REACTORS
330
3B
102
}
330
3B
100
AcDbScale
 70
     0
300
1:20
140
1.0
141
20.0
290
     0
  0
SCALE
  5
44
102
{ACAD_REACTORS
330
3B
102
}
330
3B
100
AcDbScale
 70
     0
300
1:30
140
1.0
141
30.0
290
     0
  0
SCALE
  5
45
102
{ACAD_REACTORS
330
3B
102
}
330
3B
100
AcDbScale
 70
     0
300
1:40
140
1.0
141
40.0
290
     0
  0
SCALE
  5
46
102
{ACAD_REACTORS
330
3B
102
}
330
3B
100
AcDbScale
 70
     0
300
1:50
140
1.0
141
50.0
290
     0
  0
SCALE
  5
47
102
{ACAD_REACTORS
330
3B
102
}
330
3B
100
AcDbScale
 70
     0
300
1:100
140
1.0
141
100.0
290
     0
  0
SCALE
  5
48
102
{ACAD_REACTORS
330
3B
102
}
330
3B
100
AcDbScale
 70
     0
300
2:1
140
2.0
141
1.0
290
     0
  0
SCALE
  5
49
102
{ACAD_REACTORS
330
3B
102
}
330
3B
100
AcDbScale
 70
     0
300
4:1
140
4.0
141
1.0
290
     0
  0
SCALE
  5
4A
102
{ACAD_REACTORS
330
3B
102
}
330
3B
100
AcDbScale
 70
     0
300
8:1
140
8.0
141
1.0
290
     0
  0
SCALE
  5
4B
102
{ACAD_REACTORS
330
3B
102
}
330
3B
100
AcDbScale
 70
     0
300
10:1
140
10.0
141
1.0
290
     0
  0
SCALE
  5
4C
102
{ACAD_REACTORS
330
3B
102
}
330
3B
100
AcDbScale
 70
     0
300
100:1
140
100.0
141
1.0
290
     0
  0
SCALE
  5
4D
102
{ACAD_REACTORS
330
3B
102
}
330
3B
100
AcDbScale
 70
     0
300
1/128" = 1'-0"
140
0.007812
141
12.0
290
     0
  0
SCALE
  5
4E
102
{ACAD_REACTORS
330
3B
102
}
330
3B
100
AcDbScale
 70
     0
300
1/64" = 1'-0"
140
0.015625
141
12.0
290
     0
  0
SCALE
  5
4F
102
{ACAD_REACTORS
330
3B
102
}
330
3B
100
AcDbScale
 70
     0
300
1/32" = 1'-0"
140
0.03125
141
12.0
290
     0
  0
SCALE
  5
50
102
{ACAD_REACTORS
330
3B
102
}
330
3B
100
AcDbScale
 70
     0
300
1/16" = 1'-0"
140
0.0625
141
12.0
290
     0
  0
SCALE
  5
51
102
{ACAD_REACTORS
330
3B
102
}
330
3B
100
AcDbScale
 70
     0
300
3/32" = 1'-0"
140
0.09375
141
12.0
290
     0
  0
SCALE
  5
52
102
{ACAD_REACTORS
330
3B
102
}
330
3B
100
AcDbScale
 70
     0
300
1/8" = 1'-0"
140
0.125
141
12.0
290
     0
  0
SCALE
  5
53
102
{ACAD_REACTORS
330
3B
102
}
330
3B
100
AcDbScale
 70
     0
300
3/16" = 1'-0"
140
0.1875
141
12.0
290
     0
  0
SCALE
  5
54
102
{ACAD_REACTORS
330
3B
102
}
330
3B
100
AcDbScale
 70
     0
300
1/4" = 1'-0"
140
0.25
141
12.0
290
     0
  0
SCALE
  5
55
102
{ACAD_REACTORS
330
3B
102
}
330
3B
100
AcDbScale
 70
     0
300
3/8" = 1'-0"
140
0.375
141
12.0
290
     0
  0
SCALE
  5
56
102
{ACAD_REACTORS
330
3B
102
}
330
3B
100
AcDbScale
 70
     0
300
1/2" = 1'-0"
140
0.5
141
12.0
290
     0
  0
SCALE
  5
57
102
{ACAD_REACTORS
330
3B
102
}
330
3B
100
AcDbScale
 70
     0
300
3/4" = 1'-0"
140
0.75
141
12.0
290
     0
  0
SCALE
  5
58
102
{ACAD_REACTORS
330
3B
102
}
330
3B
100
AcDbScale
 70
     0
300
1" = 1'-0"
140
1.0
141
12.0
290
     0
  0
SCALE
  5
59
102
{ACAD_REACTORS
330
3B
102
}
330
3B
100
AcDbScale
 70
     0
300
1-1/2" = 1'-0"
140
1.5
141
12.0
290
     0
  0
SCALE
  5
5A
102
{ACAD_REACTORS
330
3B
102
}
330
3B
100
AcDbScale
 70
     0
300
3" = 1'-0"
140
3.0
141
12.0
290
     0
  0
SCALE
  5
5B
102
{ACAD_REACTORS
330
3B
102
}
330
3B
100
AcDbScale
 70
     0
300
6" = 1'-0"
140
6.0
141
12.0
290
     0
  0
SCALE
  5
5C
102
{ACAD_REACTORS
330
3B
102
}
330
3B
100
AcDbScale
 70
     0
300
1'-0" = 1'-0"
140
12.0
141
12.0
290
     0
  0
VISUALSTYLE
  5
2F
102
{ACAD_REACTORS
330
2A
102
}
330
2A
100
AcDbVisualStyle
  2
2dWireframe
 70
     4
 71
     0
 72
     2
 73
     0
 90
        0
 40
-0.6
 41
-30.0
 62
     5
 63
     7
 74
     1
 91
        4
 64
     7
 65
   257
 75
     1
175
     1
 42
1.0
 92
        0
 66
   257
 43
1.0
 76
     1
 77
     6
 78
     2
 67
     7
 79
     5
170
     0
171
     0
290
     0
174
     0
 93
        1
 44
0.0
173
     0
291
     0
 45
0.0
1001
ACAD
1000
AcDbSavedByObjectVersion
1070
     0
  0
VISUALSTYLE
  5
31
102
{ACAD_REACTORS
330
2A
102
}
330
2A
100
AcDbVisualStyle
  2
3D Hidden
 70
     6
 71
     1
 72
     2
 73
     2
 90
        0
 40
-0.6
 41
-30.0
 62
     5
 63
     7
 74
     2
 91
        2
 64
     7
 65
   257
 75
     2
175
     1
 42
40.0
 92
        0
 66
   257
 43
1.0
 76
     1
 77
     6
 78
     2
 67
     7
 79
     3
170
     0
171
     0
290
     0
174
     0
 93
        1
 44
0.0
173
     0
291
     0
 45
0.0
1001
ACAD
1000
AcDbSavedByObjectVersion
1070
     0
  0
VISUALSTYLE
  5
30
102
{ACAD_REACTORS
330
2A
102
}
330
2A
100
AcDbVisualStyle
  2
3dWireframe
 70
     5
 71
     0
 72
     2
 73
     0
 90
        0
 40
-0.6
 41
-30.0
 62
     5
 63
     7
 74
     1
 91
        4
 64
     7
 65
   257
 75
     1
175
     1
 42
1.0
 92
        0
 66
   257
 43
1.0
 76
     1
 77
     6
 78
     2
 67
     7
 79
     5
170
     0
171
     0
290
     0
174
     0
 93
        1
 44
0.0
173
     0
291
     0
 45
0.0
1001
ACAD
1000
AcDbSavedByObjectVersion
1070
     0
  0
VISUALSTYLE
  5
32
102
{ACAD_REACTORS
330
2A
102
}
330
2A
100
AcDbVisualStyle
  2
Basic
 70
     7
 71
     1
 72
     0
 73
     1
 90
        0
 40
-0.6
 41
-30.0
 62
     5
 63
     7
 74
     0
 91
        4
 64
     7
 65
   257
 75
     1
175
     1
 42
1.0
 92
        8
 66
     7
 43
1.0
 76
     1
 77
     6
 78
     2
 67
     7
 79
     5
170
     0
171
     0
290
     0
174
     0
 93
        1
 44
0.0
173
     0
291
     1
 45
0.0
1001
ACAD
1000
AcDbSavedByObjectVersion
1070
     0
  0
VISUALSTYLE
  5
36
102
{ACAD_REACTORS
330
2A
102
}
330
2A
100
AcDbVisualStyle
  2
Brighten
 70
    12
 71
     2
 72
     2
 73
     0
 90
        0
 40
-0.6
 41
-30.0
 62
     5
 63
     7
 74
     1
 91
        4
 64
     7
 65
   257
 75
     1
175
     1
 42
1.0
 92
        8
 66
     7
 43
1.0
 76
     1
 77
     6
 78
     2
 67
     7
 79
     5
170
     0
171
     0
290
     0
174
     0
 93
        1
 44
50.0
173
     0
291
     1
 45
0.0
1001
ACAD
1000
AcDbSavedByObjectVersion
1070
     0
  0
VISUALSTYLE
  5
3A
102
{ACAD_REACTORS
330
2A
102
}
330
2A
100
AcDbVisualStyle
  2
ColorChange
 70
    16
 71
     2
 72
     2
 73
     3
 90
        0
 40
-0.6
 41
-30.0
 62
     5
 63
     8
 74
     1
 91
        4
 64
     7
 65
   257
 75
     1
175
     1
 42
1.0
 92
        8
 66
     8
 43
1.0
 76
     1
 77
     6
 78
     2
 67
     7
 79
     5
170
     0
171
     0
290
     0
174
     0
 93
        1
 44
0.0
173
     0
291
     1
 45
0.0
1001
ACAD
1000
AcDbSavedByObjectVersion
1070
     0
  0
VISUALSTYLE
  5
34
102
{ACAD_REACTORS
330
2A
102
}
330
2A
100
AcDbVisualStyle
  2
Conceptual
 70
     9
 71
     3
 72
     2
 73
     0
 90
        0
 40
-0.6
 41
-30.0
 62
     5
 63
     7
 74
     2
 91
        2
 64
     7
 65
   257
 75
     1
175
     1
 42
40.0
 92
        8
 66
     7
 43
1.0
 76
     1
 77
     6
 78
     2
 67
     7
 79
     3
170
     0
171
     0
290
     0
174
     0
 93
        1
 44
0.0
173
     0
291
     0
 45
0.0
1001
ACAD
1000
AcDbSavedByObjectVersion
1070
     0
  0
VISUALSTYLE
  5
35
102
{ACAD_REACTORS
330
2A
102
}
330
2A
100
AcDbVisualStyle
  2
Dim
 70
    11
 71
     2
 72
     2
 73
     0
 90
        0
 40
-0.6
 41
-30.0
 62
     5
 63
     7
 74
     1
 91
        4
 64
     7
 65
   257
 75
     1
175
     1
 42
1.0
 92
        8
 66
     7
 43
1.0
 76
     1
 77
     6
 78
     2
 67
     7
 79
     5
170
     0
171
     0
290
     0
174
     0
 93
        1
 44
-50.0
173
     0
291
     1
 45
0.0
1001
ACAD
1000
AcDbSavedByObjectVersion
1070
     0
  0
VISUALSTYLE
  5
39
102
{ACAD_REACTORS
330
2A
102
}
330
2A
100
AcDbVisualStyle
  2
Facepattern
 70
    15
 71
     2
 72
     2
 73
     0
 90
        0
 40
-0.6
 41
-30.0
 62
     5
 63
     7
 74
     1
 91
        4
 64
     7
 65
   257
 75
     1
175
     1
 42
1.0
 92
        8
 66
     7
 43
1.0
 76
     1
 77
     6
 78
     2
 67
     7
 79
     5
170
     0
171
     0
290
     0
174
     0
 93
        1
 44
0.0
173
     0
291
     1
 45
0.0
1001
ACAD
1000
AcDbSavedByObjectVersion
1070
     0
  0
VISUALSTYLE
  5
2B
102
{ACAD_REACTORS
330
2A
102
}
330
2A
100
AcDbVisualStyle
  2
Flat
 70
     0
 71
     2
 72
     1
 73
     1
 90
        2
 40
-0.6
 41
30.0
 62
     5
 63
     7
 74
     0
 91
        4
 64
     7
 65
   257
 75
     1
175
     1
 42
1.0
 92
        8
 66
     7
 43
1.0
 76
     1
 77
     6
 78
     2
 67
     7
 79
     5
170
     0
171
     0
290
     0
174
     0
 93
       13
 44
0.0
173
     0
291
     1
 45
0.0
1001
ACAD
1000
AcDbSavedByObjectVersion
1070
     0
  0
VISUALSTYLE
  5
2C
102
{ACAD_REACTORS
330
2A
102
}
330
2A
100
AcDbVisualStyle
  2
FlatWithEdges
 70
     1
 71
     2
 72
     1
 73
     1
 90
        2
 40
-0.6
 41
30.0
 62
     5
 63
     7
 74
     1
 91
        4
 64
     7
 65
   257
 75
     1
175
     1
 42
1.0
 92
        0
 66
   257
 43
1.0
 76
     1
 77
     6
 78
     2
 67
     7
 79
     5
170
     0
171
     0
290
     0
174
     0
 93
       13
 44
0.0
173
     0
291
     1
 45
0.0
1001
ACAD
1000
AcDbSavedByObjectVersion
1070
     0
  0
VISUALSTYLE
  5
2D
102
{ACAD_REACTORS
330
2A
102
}
330
2A
100
AcDbVisualStyle
  2
Gouraud
 70
     2
 71
     2
 72
     2
 73
     1
 90
        2
 40
-0.6
 41
30.0
 62
     5
 63
     7
 74
     0
 91
        4
 64
     7
 65
   257
 75
     1
175
     1
 42
1.0
 92
        0
 66
     7
 43
1.0
 76
     1
 77
     6
 78
     2
 67
     7
 79
     5
170
     0
171
     0
290
     0
174
     0
 93
       13
 44
0.0
173
     0
291
     1
 45
0.0
1001
ACAD
1000
AcDbSavedByObjectVersion
1070
     0
  0
VISUALSTYLE
  5
2E
102
{ACAD_REACTORS
330
2A
102
}
330
2A
100
AcDbVisualStyle
  2
GouraudWithEdges
 70
     3
 71
     2
 72
     2
 73
     1
 90
        2
 40
-0.6
 41
30.0
 62
     5
 63
     7
 74
     1
 91
        4
 64
     7
 65
   257
 75
     1
175
     1
 42
1.0
 92
        0
 66
   257
 43
1.0
 76
     1
 77
     6
 78
     2
 67
     7
 79
     5
170
     0
171
     0
290
     0
174
     0
 93
       13
 44
0.0
173
     0
291
     1
 45
0.0
1001
ACAD
1000
AcDbSavedByObjectVersion
1070
     0
  0
VISUALSTYLE
  5
38
102
{ACAD_REACTORS
330
2A
102
}
330
2A
100
AcDbVisualStyle
  2
Linepattern
 70
    14
 71
     2
 72
     2
 73
     0
 90
        0
 40
-0.6
 41
-30.0
 62
     5
 63
     7
 74
     1
 91
        4
 64
     7
 65
   257
 75
     7
175
     7
 42
1.0
 92
        8
 66
     7
 43
1.0
 76
     1
 77
     6
 78
     2
 67
     7
 79
     5
170
     0
171
     0
290
     0
174
     0
 93
        1
 44
0.0
173
     0
291
     1
 45
0.0
1001
ACAD
1000
AcDbSavedByObjectVersion
1070
     0
  0
VISUALSTYLE
  5
33
102
{ACAD_REACTORS
330
2A
102
}
330
2A
100
AcDbVisualStyle
  2
Realistic
 70
     8
 71
     2
 72
     2
 73
     0
 90
        0
 40
-0.6
 41
-30.0
 62
     5
 63
     7
 74
     1
 91
        0
 64
     7
 65
   257
 75
     1
175
     1
 42
1.0
 92
        8
 66
     8
 43
1.0
 76
     1
 77
     6
 78
     2
 67
     7
 79
     5
170
     0
171
     0
290
     0
174
     0
 93
       13
 44
0.0
173
     0
291
     0
 45
0.0
1001
ACAD
1000
AcDbSavedByObjectVersion
1070
     0
  0
VISUALSTYLE
  5
37
102
{ACAD_REACTORS
330
2A
102
}
330
2A
100
AcDbVisualStyle
  2
Thicken
 70
    13
 71
     2
 72
     2
 73
     0
 90
        0
 40
-0.6
 41
-30.0
 62
     5
 63
     7
 74
     1
 91
        4
 64
     7
 65
   257
 75
     1
175
     1
 42
1.0
 92
       12
 66
     7
 43
1.0
 76
     1
 77
     6
 78
     2
 67
     7
 79
     5
170
     0
171
     0
290
     0
174
     0
 93
        1
 44
0.0
173
     0
291
     1
 45
0.0
1001
ACAD
1000
AcDbSavedByObjectVersion
1070
     0
  0
DICTIONARYVAR
  5
350
102
{ACAD_REACTORS
330
34F
102
}
330
34F
100
DictionaryVariables
280
     0
  1
1:1
  0
DICTIONARYVAR
  5
354
102
{ACAD_REACTORS
330
34F
102
}
330
34F
100
DictionaryVariables
280
     0
  1
80.000000
  0
DICTIONARYVAR
  5
353
102
{ACAD_REACTORS
330
34F
102
}
330
34F
100
DictionaryVariables
280
     0
  1
5.000000
  0
ENDSEC
  0
EOF
