  0
SECTION
  2
HEADER
  9
$ACADVER
  1
AC1009
  9
$INSBASE
 10
0.0
 20
0.0
 30
0.0
  9
$EXTMIN
 10
24.550255
 20
33.374532000000009
 30
0.0
  9
$EXTMAX
 10
201.61120500000001
 20
179.79807376691991
 30
0.0
  9
$LIMMIN
 10
0.0
 20
0.0
  9
$LIMMAX
 10
12.0
 20
9.0
  9
$ORTHOMODE
 70
     0
  9
$REGENMODE
 70
     1
  9
$FILLMODE
 70
     1
  9
$QTEXTMODE
 70
     0
  9
$MIRRTEXT
 70
     1
  9
$DRAGMODE
 70
     2
  9
$LTSCALE
 40
2.3045610000000001
  9
$OSMODE
 70
  2623
  9
$ATTMODE
 70
     1
  9
$TEXTSIZE
 40
0.2
  9
$TRACEWID
 40
1.0
  9
$TEXTSTYLE
  7
STANDARD
  9
$CLAYER
  8
0
  9
$CELTYPE
  6
BYLAYER
  9
$CECOLOR
 62
   256
  9
$DIMSCALE
 40
1.0
  9
$DIMASZ
 40
2.5
  9
$DIMEXO
 40
0.625
  9
$DIMDLI
 40
3.75
  9
$DIMRND
 40
0.0
  9
$DIMDLE
 40
0.0
  9
$DIMEXE
 40
1.25
  9
$DIMTP
 40
0.0
  9
$DIMTM
 40
0.0
  9
$DIMTXT
 40
2.5
  9
$DIMCEN
 40
0.09
  9
$DIMTSZ
 40
0.0
  9
$DIMTOL
 70
     0
  9
$DIMLIM
 70
     0
  9
$DIMTIH
 70
     0
  9
$DIMTOH
 70
     0
  9
$DIMSE1
 70
     0
  9
$DIMSE2
 70
     0
  9
$DIMTAD
 70
     0
  9
$DIMZIN
 70
     8
  9
$DIMBLK
  1

  9
$DIMASO
 70
     1
  9
$DIMSHO
 70
     0
  9
$DIMPOST
  1

  9
$DIMAPOST
  1

  9
$DIMALT
 70
     0
  9
$DIMALTD
 70
     3
  9
$DIMALTF
 40
0.03937
  9
$DIMLFAC
 40
1.0
  9
$DIMTOFL
 70
     1
  9
$DIMTVP
 40
0.0
  9
$DIMTIX
 70
     0
  9
$DIMSOXD
 70
     0
  9
$DIMSAH
 70
     0
  9
$DIMBLK1
  1

  9
$DIMBLK2
  1

  9
$DIMSTYLE
  2
ISO-25
  9
$DIMCLRD
 70
     0
  9
$DIMCLRE
 70
     0
  9
$DIMCLRT
 70
     0
  9
$DIMTFAC
 40
1.0
  9
$DIMGAP
 40
0.625
  9
$LUNITS
 70
     2
  9
$LUPREC
 70
     4
  9
$SKETCHINC
 40
1.0
  9
$FILLETRAD
 40
0.0
  9
$AUNITS
 70
     0
  9
$AUPREC
 70
     0
  9
$MENU
  1
.
  9
$ELEVATION
 40
0.0
  9
$PELEVATION
 40
0.0
  9
$THICKNESS
 40
0.0
  9
$LIMCHECK
 70
     0
  9
$BLIPMODE
 70
     0
  9
$CHAMFERA
 40
10.0
  9
$CHAMFERB
 40
10.0
  9
$SKPOLY
 70
     0
  9
$TDCREATE
 40
2456458.7017899998
  9
$TDUPDATE
 40
2456673.7008288079
  9
$TDINDWG
 40
0.0001993056
  9
$TDUSRTIMER
 40
0.0001991319
  9
$USRTIMER
 70
     1
  9
$ANGBASE
 50
0.0
  9
$ANGDIR
 70
     0
  9
$PDMODE
 70
     0
  9
$PDSIZE
 40
0.0
  9
$PLINEWID
 40
0.0
  9
$COORDS
 70
     1
  9
$SPLFRAME
 70
     0
  9
$SPLINETYPE
 70
     6
  9
$SPLINESEGS
 70
     8
  9
$ATTDIA
 70
     0
  9
$ATTREQ
 70
     1
  9
$HANDLING
 70
     1
  9
$HANDSEED
  5
348
  9
$SURFTAB1
 70
     6
  9
$SURFTAB2
 70
     6
  9
$SURFTYPE
 70
     6
  9
$SURFU
 70
     6
  9
$SURFV
 70
     6
  9
$UCSNAME
  2

  9
$UCSORG
 10
0.0
 20
0.0
 30
0.0
  9
$UCSXDIR
 10
1.0
 20
0.0
 30
0.0
  9
$UCSYDIR
 10
0.0
 20
1.0
 30
0.0
  9
$PUCSNAME
  2

  9
$PUCSORG
 10
0.0
 20
0.0
 30
0.0
  9
$PUCSXDIR
 10
1.0
 20
0.0
 30
0.0
  9
$PUCSYDIR
 10
0.0
 20
1.0
 30
0.0
  9
$USERI1
 70
     0
  9
$USERI2
 70
     0
  9
$USERI3
 70
     0
  9
$USERI4
 70
     0
  9
$USERI5
 70
     0
  9
$USERR1
 40
0.0
  9
$USERR2
 40
0.0
  9
$USERR3
 40
0.0
  9
$USERR4
 40
0.0
  9
$USERR5
 40
0.0
  9
$WORLDVIEW
 70
     1
  9
$SHADEDGE
 70
     3
  9
$SHADEDIF
 70
    70
  9
$TILEMODE
 70
     1
  9
$MAXACTVP
 70
    64
  9
$PLIMCHECK
 70
     0
  9
$PEXTMIN
 10
1.0000000000000000E+020
 20
1.0000000000000000E+020
 30
0.0
  9
$PEXTMAX
 10
-1.0000000000000000E+020
 20
-1.0000000000000000E+020
 30
0.0
  9
$PLIMMIN
 10
0.0
 20
0.0
  9
$PLIMMAX
 10
12.0
 20
9.0
  9
$UNITMODE
 70
     0
  9
$VISRETAIN
 70
     1
  9
$PLINEGEN
 70
     0
  9
$PSLTSCALE
 70
     1
  0
ENDSEC
  0
SECTION
  2
TABLES
  0
TABLE
  2
VPORT
 70
     2
  0
VPORT
  2
*ACTIVE
 70
     0
 10
0.0
 20
0.0
 11
1.0
 21
1.0
 12
119.2681689886968
 22
83.330797570171171
 13
0.0
 23
0.0
 14
1.0
 24
1.0
 15
0.0
 25
0.0
 16
0.0
 26
0.0
 36
1.0
 17
0.0
 27
0.0
 37
0.0
 40
271.64878905541411
 41
1.4836683417085419
 42
50.0
 43
0.0
 44
0.0
 50
0.0
 51
0.0
 71
     0
 72
   100
 73
     1
 74
     3
 75
     0
 76
     0
 77
     0
 78
     0
  0
ENDTAB
  0
TABLE
  2
LTYPE
 70
     5
  0
LTYPE
  2
CONTINUOUS
 70
     0
  3
Solid line
 72
    65
 73
     0
 40
0.0
  0
LTYPE
  2
DASHED
 70
     0
  3
DASHED
 72
    83
 73
     2
 40
0.75
 49
0.5
 49
-0.25
  0
LTYPE
  2
HIDDEN
 70
     0
  3
HIDDEN
 72
    83
 73
     2
 40
0.375
 49
0.25
 49
-0.125
  0
LTYPE
  2
CENTER
 70
     0
  3
CENTER
 72
    83
 73
     4
 40
2.0
 49
1.25
 49
-0.25
 49
0.25
 49
-0.25
  0
LTYPE
  2
PHANTOM
 70
     0
  3
PHANTOM
 72
    83
 73
     6
 40
2.5
 49
1.25
 49
-0.25
 49
0.25
 49
-0.25
 49
0.25
 49
-0.25
  0
ENDTAB
  0
TABLE
  2
LAYER
 70
     2
  0
LAYER
  2
0
 70
     0
 62
     7
  6
CONTINUOUS
  0
LAYER
  2
001
 70
     0
 62
     7
  6
CONTINUOUS
  0
ENDTAB
  0
TABLE
  2
STYLE
 70
     2
  0
STYLE
  2
STANDARD
 70
     0
 40
0.0
 41
1.0
 50
0.0
 71
     0
 42
0.2
  3
TXT
  4
BIGFONT
  0
STYLE
  2
TATEGAKI
 70
     4
 40
1.0
 41
1.0
 50
0.0
 71
     0
 42
0.2
  3
TXT
  4
BIGFONT
  0
ENDTAB
  0
TABLE
  2
VIEW
 70
     0
  0
ENDTAB
  0
TABLE
  2
UCS
 70
     0
  0
ENDTAB
  0
TABLE
  2
APPID
 70
     1
  0
APPID
  2
ACAD
 70
     0
  0
ENDTAB
  0
TABLE
  2
DIMSTYLE
 70
     2
  0
DIMSTYLE
  2
ISO-25
 70
     0
  3

  4

  5

  6

  7

 40
1.0
 41
2.5
 42
0.625
 43
3.75
 44
1.25
 45
0.0
 46
0.0
 47
0.0
 48
0.0
140
2.5
141
2.5
142
0.0
143
0.03937
144
1.0
145
0.0
146
1.0
147
0.625
 71
     0
 72
     0
 73
     0
 74
     0
 75
     0
 76
     0
 77
     1
 78
     8
170
     0
171
     3
172
     1
173
     0
174
     0
175
     0
176
     0
177
     0
178
     0
  0
DIMSTYLE
  2
STANDARD
 70
     0
  3

  4

  5

  6

  7

 40
1.0
 41
1.5
 42
0.0
 43
0.38
 44
2.75
 45
0.0
 46
0.0
 47
0.0
 48
0.0
140
4.0
141
0.09
142
0.0
143
25.399999999999999
144
1.0
145
0.0
146
0.8
147
1.0
 71
     0
 72
     0
 73
     0
 74
     0
 75
     0
 76
     0
 77
     1
 78
     8
170
     0
171
     2
172
     1
173
     0
174
     0
175
     0
176
     0
177
     0
178
     0
  0
ENDTAB
  0
ENDSEC
  0
SECTION
  2
BLOCKS
  0
BLOCK
  8
0
  2
$MODEL_SPACE
 70
     0
 10
0.0
 20
0.0
 30
0.0
  3
$MODEL_SPACE
  1

  0
ENDBLK
  5
21
  8
0
  0
BLOCK
 67
     1
  8
0
  2
$PAPER_SPACE
 70
     0
 10
0.0
 20
0.0
 30
0.0
  3
$PAPER_SPACE
  1

  0
ENDBLK
  5
1D
 67
     1
  8
0
  0
BLOCK
  8
0
  2
*D1
 70
     1
 10
0.0
 20
0.0
 30
0.0
  3
*D1
  1

  0
LINE
  5
67
  8
001
 10
70.966118999999992
 20
65.033206000000007
 30
0.0
 11
70.966118999999992
 21
43.707330999999989
 31
0.0
  0
LINE
  5
68
  8
001
 10
55.966113999999997
 20
69.352519999999998
 30
0.0
 11
55.966113999999997
 21
43.707330999999989
 31
0.0
  0
LINE
  5
69
  8
001
 10
70.966118999999992
 20
46.457331000000003
 30
0.0
 11
55.966113999999997
 21
46.457331000000003
 31
0.0
  0
POLYLINE
  5
6A
  8
001
 66
     1
 10
0.0
 20
0.0
 30
0.0
  0
VERTEX
  5
6C
  8
001
 10
69.466118999999992
 20
46.85925499999999
 30
0.0
  0
VERTEX
  5
6D
  8
001
 10
70.966118999999992
 20
46.457331000000003
 30
0.0
  0
VERTEX
  5
6E
  8
001
 10
69.466118999999992
 20
46.055407999999993
 30
0.0
  0
SEQEND
  5
6B
  8
001
  0
POLYLINE
  5
6F
  8
001
 66
     1
 10
0.0
 20
0.0
 30
0.0
  0
VERTEX
  5
71
  8
001
 10
57.466113999999997
 20
46.055407999999993
 30
0.0
  0
VERTEX
  5
72
  8
001
 10
55.966113999999997
 20
46.457331000000003
 30
0.0
  0
VERTEX
  5
73
  8
001
 10
57.466113999999997
 20
46.85925499999999
 30
0.0
  0
SEQEND
  5
70
  8
001
  0
TEXT
  5
74
  8
001
 10
59.466116999999997
 20
47.457330999999989
 30
0.0
 40
4.0
  1
１５
 41
0.833333
  0
POINT
  5
75
  8
001
 10
70.966118999999992
 20
65.033206000000007
 30
0.0
  0
POINT
  5
76
  8
001
 10
55.966113999999997
 20
69.352519999999998
 30
0.0
  0
POINT
  5
77
  8
001
 10
55.966113999999997
 20
46.457331000000003
 30
0.0
  0
ENDBLK
  5
66
  8
0
  0
BLOCK
  8
0
  2
*D2
 70
     1
 10
0.0
 20
0.0
 30
0.0
  3
*D2
  1

  0
LINE
  5
7B
  8
001
 10
150.96611899999999
 20
66.783206000000007
 30
0.0
 11
150.96611899999999
 21
43.707330999999989
 31
0.0
  0
LINE
  5
7C
  8
001
 10
70.966118999999992
 20
65.033206000000007
 30
0.0
 11
70.966118999999992
 21
43.707330999999989
 31
0.0
  0
LINE
  5
7D
  8
001
 10
150.96611899999999
 20
46.457331000000003
 30
0.0
 11
70.966118999999992
 21
46.457331000000003
 31
0.0
  0
POLYLINE
  5
7E
  8
001
 66
     1
 10
0.0
 20
0.0
 30
0.0
  0
VERTEX
  5
80
  8
001
 10
149.46611899999999
 20
46.85925499999999
 30
0.0
  0
VERTEX
  5
81
  8
001
 10
150.96611899999999
 20
46.457331000000003
 30
0.0
  0
VERTEX
  5
82
  8
001
 10
149.46611899999999
 20
46.055407999999993
 30
0.0
  0
SEQEND
  5
7F
  8
001
  0
POLYLINE
  5
83
  8
001
 66
     1
 10
0.0
 20
0.0
 30
0.0
  0
VERTEX
  5
85
  8
001
 10
72.466118999999992
 20
46.055407999999993
 30
0.0
  0
VERTEX
  5
86
  8
001
 10
70.966118999999992
 20
46.457331000000003
 30
0.0
  0
VERTEX
  5
87
  8
001
 10
72.466118999999992
 20
46.85925499999999
 30
0.0
  0
SEQEND
  5
84
  8
001
  0
TEXT
  5
88
  8
001
 10
106.96611900000001
 20
47.457330999999989
 30
0.0
 40
4.0
  1
８０
 41
0.833333
  0
POINT
  5
89
  8
001
 10
150.96611899999999
 20
66.783206000000007
 30
0.0
  0
POINT
  5
8A
  8
001
 10
70.966118999999992
 20
65.033206000000007
 30
0.0
  0
POINT
  5
8B
  8
001
 10
70.966118999999992
 20
46.457331000000003
 30
0.0
  0
ENDBLK
  5
7A
  8
0
  0
BLOCK
  8
0
  2
*D3
 70
     1
 10
0.0
 20
0.0
 30
0.0
  3
*D3
  1

  0
LINE
  5
8F
  8
001
 10
55.966113999999997
 20
46.457331000000003
 30
0.0
 11
55.966113999999997
 21
33.374532000000009
 31
0.0
  0
LINE
  5
90
  8
001
 10
150.96611899999999
 20
66.783206000000007
 30
0.0
 11
150.96611899999999
 21
33.374532000000009
 31
0.0
  0
LINE
  5
91
  8
001
 10
55.966113999999997
 20
36.124532000000002
 30
0.0
 11
150.96611899999999
 21
36.124532000000002
 31
0.0
  0
POLYLINE
  5
92
  8
001
 66
     1
 10
0.0
 20
0.0
 30
0.0
  0
VERTEX
  5
94
  8
001
 10
57.466113999999997
 20
35.722608000000001
 30
0.0
  0
VERTEX
  5
95
  8
001
 10
55.966113999999997
 20
36.124532000000002
 30
0.0
  0
VERTEX
  5
96
  8
001
 10
57.466113999999997
 20
36.526454999999999
 30
0.0
  0
SEQEND
  5
93
  8
001
  0
POLYLINE
  5
97
  8
001
 66
     1
 10
0.0
 20
0.0
 30
0.0
  0
VERTEX
  5
99
  8
001
 10
149.46611899999999
 20
36.526454999999999
 30
0.0
  0
VERTEX
  5
9A
  8
001
 10
150.96611899999999
 20
36.124532000000002
 30
0.0
  0
VERTEX
  5
9B
  8
001
 10
149.46611899999999
 20
35.722608000000001
 30
0.0
  0
SEQEND
  5
98
  8
001
  0
TEXT
  5
9C
  8
001
 10
99.466117000000011
 20
37.124532000000009
 30
0.0
 40
4.0
  1
９５
 41
0.833333
  0
POINT
  5
9D
  8
001
 10
55.966113999999997
 20
46.457331000000003
 30
0.0
  0
POINT
  5
9E
  8
001
 10
150.96611899999999
 20
66.783206000000007
 30
0.0
  0
POINT
  5
9F
  8
001
 10
150.96611899999999
 20
36.124532000000002
 30
0.0
  0
ENDBLK
  5
8E
  8
0
  0
BLOCK
  8
0
  2
*D4
 70
     1
 10
0.0
 20
0.0
 30
0.0
  3
*D4
  1

  0
LINE
  5
A3
  8
001
 10
148.96611899999999
 20
64.783206000000007
 30
0.0
 11
172.164389
 21
64.783206000000007
 31
0.0
  0
LINE
  5
A4
  8
001
 10
148.96611899999999
 20
74.783206000000007
 30
0.0
 11
172.164389
 21
74.783206000000007
 31
0.0
  0
LINE
  5
A5
  8
001
 10
169.414389
 20
64.783206000000007
 30
0.0
 11
169.414389
 21
74.783206000000007
 31
0.0
  0
POLYLINE
  5
A6
  8
001
 66
     1
 10
0.0
 20
0.0
 30
0.0
  0
VERTEX
  5
A8
  8
001
 10
169.01246499999999
 20
63.283206000000007
 30
0.0
  0
VERTEX
  5
A9
  8
001
 10
169.414389
 20
64.783206000000007
 30
0.0
  0
VERTEX
  5
AA
  8
001
 10
169.81631300000001
 20
63.283206000000007
 30
0.0
  0
SEQEND
  5
A7
  8
001
  0
POLYLINE
  5
AB
  8
001
 66
     1
 10
0.0
 20
0.0
 30
0.0
  0
VERTEX
  5
AD
  8
001
 10
169.81631300000001
 20
76.283206000000007
 30
0.0
  0
VERTEX
  5
AE
  8
001
 10
169.414389
 20
74.783206000000007
 30
0.0
  0
VERTEX
  5
AF
  8
001
 10
169.01246499999999
 20
76.283206000000007
 30
0.0
  0
SEQEND
  5
AC
  8
001
  0
TEXT
  5
B0
  8
001
 10
168.414389
 20
49.283206
 30
0.0
 40
4.0
  1
%%c１０
 50
90.000003000000007
 41
0.8823529999999999
  0
POINT
  5
B1
  8
001
 10
148.96611899999999
 20
64.783206000000007
 30
0.0
  0
POINT
  5
B2
  8
001
 10
148.96611899999999
 20
74.783206000000007
 30
0.0
  0
POINT
  5
B3
  8
001
 10
169.414389
 20
74.783206000000007
 30
0.0
  0
LINE
  5
B4
  8
001
 10
169.414389
 20
64.783206000000007
 30
0.0
 11
169.414389
 21
46.283206
 31
0.0
  0
LINE
  5
B5
  8
001
 10
169.414389
 20
74.783206000000007
 30
0.0
 11
169.414389
 21
77.283206000000007
 31
0.0
  0
ENDBLK
  5
A2
  8
0
  0
BLOCK
  8
0
  2
*D5
 70
     1
 10
0.0
 20
0.0
 30
0.0
  3
*D5
  1

  0
LINE
  5
B9
  8
001
 10
40.412936000000002
 20
154.59438700000001
 30
0.0
 11
40.412936000000002
 21
133.26851199999999
 31
0.0
  0
LINE
  5
BA
  8
001
 10
25.412931
 20
158.913701
 30
0.0
 11
25.412931
 21
133.26851199999999
 31
0.0
  0
LINE
  5
BB
  8
001
 10
40.412936000000002
 20
136.01851199999999
 30
0.0
 11
25.412931
 21
136.01851199999999
 31
0.0
  0
POLYLINE
  5
BC
  8
001
 66
     1
 10
0.0
 20
0.0
 30
0.0
  0
VERTEX
  5
BE
  8
001
 10
38.912936000000002
 20
136.420436
 30
0.0
  0
VERTEX
  5
BF
  8
001
 10
40.412936000000002
 20
136.01851199999999
 30
0.0
  0
VERTEX
  5
C0
  8
001
 10
38.912936000000002
 20
135.61658899999989
 30
0.0
  0
SEQEND
  5
BD
  8
001
  0
POLYLINE
  5
C1
  8
001
 66
     1
 10
0.0
 20
0.0
 30
0.0
  0
VERTEX
  5
C3
  8
001
 10
26.912931
 20
135.61658899999989
 30
0.0
  0
VERTEX
  5
C4
  8
001
 10
25.412931
 20
136.01851199999999
 30
0.0
  0
VERTEX
  5
C5
  8
001
 10
26.912931
 20
136.420436
 30
0.0
  0
SEQEND
  5
C2
  8
001
  0
TEXT
  5
C6
  8
001
 10
28.912932999999999
 20
137.01851199999999
 30
0.0
 40
4.0
  1
１５
 41
0.833333
  0
POINT
  5
C7
  8
001
 10
40.412936000000002
 20
154.59438700000001
 30
0.0
  0
POINT
  5
C8
  8
001
 10
25.412931
 20
158.913701
 30
0.0
  0
POINT
  5
C9
  8
001
 10
25.412931
 20
136.01851199999999
 30
0.0
  0
ENDBLK
  5
B8
  8
0
  0
BLOCK
  8
0
  2
*D6
 70
     1
 10
0.0
 20
0.0
 30
0.0
  3
*D6
  1

  0
LINE
  5
CD
  8
001
 10
178.412936
 20
154.34438700000001
 30
0.0
 11
201.61120500000001
 21
154.34438700000001
 31
0.0
  0
LINE
  5
CE
  8
001
 10
178.412936
 20
164.34438700000001
 30
0.0
 11
201.61120500000001
 21
164.34438700000001
 31
0.0
  0
LINE
  5
CF
  8
001
 10
198.86120500000001
 20
154.34438700000001
 30
0.0
 11
198.86120500000001
 21
164.34438700000001
 31
0.0
  0
POLYLINE
  5
D0
  8
001
 66
     1
 10
0.0
 20
0.0
 30
0.0
  0
VERTEX
  5
D2
  8
001
 10
198.459281
 20
152.84438700000001
 30
0.0
  0
VERTEX
  5
D3
  8
001
 10
198.86120500000001
 20
154.34438700000001
 30
0.0
  0
VERTEX
  5
D4
  8
001
 10
199.26312899999999
 20
152.84438700000001
 30
0.0
  0
SEQEND
  5
D1
  8
001
  0
POLYLINE
  5
D5
  8
001
 66
     1
 10
0.0
 20
0.0
 30
0.0
  0
VERTEX
  5
D7
  8
001
 10
199.26312899999999
 20
165.84438700000001
 30
0.0
  0
VERTEX
  5
D8
  8
001
 10
198.86120500000001
 20
164.34438700000001
 30
0.0
  0
VERTEX
  5
D9
  8
001
 10
198.459281
 20
165.84438700000001
 30
0.0
  0
SEQEND
  5
D6
  8
001
  0
TEXT
  5
DA
  8
001
 10
197.86120500000001
 20
138.84438700000001
 30
0.0
 40
4.0
  1
%%c１０
 50
90.000003000000007
 41
0.8823529999999999
  0
POINT
  5
DB
  8
001
 10
178.412936
 20
154.34438700000001
 30
0.0
  0
POINT
  5
DC
  8
001
 10
178.412936
 20
164.34438700000001
 30
0.0
  0
POINT
  5
DD
  8
001
 10
198.86120500000001
 20
164.34438700000001
 30
0.0
  0
LINE
  5
DE
  8
001
 10
198.86120500000001
 20
154.34438700000001
 30
0.0
 11
198.86120500000001
 21
135.84438700000001
 31
0.0
  0
LINE
  5
DF
  8
001
 10
198.86120500000001
 20
164.34438700000001
 30
0.0
 11
198.86120500000001
 21
166.84438700000001
 31
0.0
  0
ENDBLK
  5
CC
  8
0
  0
BLOCK
  8
0
  2
*D7
 70
     1
 10
0.0
 20
0.0
 30
0.0
  3
*D7
  1

  0
LINE
  5
E3
  8
001
 10
25.412931
 20
136.01851199999999
 30
0.0
 11
25.412931
 21
122.93571300000001
 31
0.0
  0
LINE
  5
E4
  8
001
 10
180.412936
 20
156.34438700000001
 30
0.0
 11
180.412936
 21
122.93571300000001
 31
0.0
  0
LINE
  5
E5
  8
001
 10
25.412931
 20
125.68571300000001
 30
0.0
 11
180.412936
 21
125.68571300000001
 31
0.0
  0
POLYLINE
  5
E6
  8
001
 66
     1
 10
0.0
 20
0.0
 30
0.0
  0
VERTEX
  5
E8
  8
001
 10
26.912931
 20
125.283789
 30
0.0
  0
VERTEX
  5
E9
  8
001
 10
25.412931
 20
125.68571300000001
 30
0.0
  0
VERTEX
  5
EA
  8
001
 10
26.912931
 20
126.087636
 30
0.0
  0
SEQEND
  5
E7
  8
001
  0
POLYLINE
  5
EB
  8
001
 66
     1
 10
0.0
 20
0.0
 30
0.0
  0
VERTEX
  5
ED
  8
001
 10
178.912936
 20
126.087636
 30
0.0
  0
VERTEX
  5
EE
  8
001
 10
180.412936
 20
125.68571300000001
 30
0.0
  0
VERTEX
  5
EF
  8
001
 10
178.912936
 20
125.283789
 30
0.0
  0
SEQEND
  5
EC
  8
001
  0
TEXT
  5
F0
  8
001
 10
96.912932999999995
 20
126.68571300000001
 30
0.0
 40
4.0
  1
１５５
 41
0.833333
  0
POINT
  5
F1
  8
001
 10
25.412931
 20
136.01851199999999
 30
0.0
  0
POINT
  5
F2
  8
001
 10
180.412936
 20
156.34438700000001
 30
0.0
  0
POINT
  5
F3
  8
001
 10
180.412936
 20
125.68571300000001
 30
0.0
  0
ENDBLK
  5
E2
  8
0
  0
BLOCK
  8
0
  2
*D8
 70
     1
 10
0.0
 20
0.0
 30
0.0
  3
*D8
  1

  0
LINE
  5
F7
  8
001
 10
180.412936
 20
156.34438700000001
 30
0.0
 11
180.412936
 21
133.26851199999999
 31
0.0
  0
LINE
  5
F8
  8
001
 10
40.412936000000002
 20
154.59438700000001
 30
0.0
 11
40.412936000000002
 21
133.26851199999999
 31
0.0
  0
LINE
  5
F9
  8
001
 10
180.412936
 20
136.01851199999999
 30
0.0
 11
40.412936000000002
 21
136.01851199999999
 31
0.0
  0
POLYLINE
  5
FA
  8
001
 66
     1
 10
0.0
 20
0.0
 30
0.0
  0
VERTEX
  5
FC
  8
001
 10
178.912936
 20
136.420436
 30
0.0
  0
VERTEX
  5
FD
  8
001
 10
180.412936
 20
136.01851199999999
 30
0.0
  0
VERTEX
  5
FE
  8
001
 10
178.912936
 20
135.61658899999989
 30
0.0
  0
SEQEND
  5
FB
  8
001
  0
POLYLINE
  5
FF
  8
001
 66
     1
 10
0.0
 20
0.0
 30
0.0
  0
VERTEX
  5
101
  8
001
 10
41.912936000000002
 20
135.61658899999989
 30
0.0
  0
VERTEX
  5
102
  8
001
 10
40.412936000000002
 20
136.01851199999999
 30
0.0
  0
VERTEX
  5
103
  8
001
 10
41.912936000000002
 20
136.420436
 30
0.0
  0
SEQEND
  5
100
  8
001
  0
TEXT
  5
104
  8
001
 10
104.412936
 20
137.01851199999999
 30
0.0
 40
4.0
  1
１４０
 41
0.833333
  0
POINT
  5
105
  8
001
 10
180.412936
 20
156.34438700000001
 30
0.0
  0
POINT
  5
106
  8
001
 10
40.412936000000002
 20
154.59438700000001
 30
0.0
  0
POINT
  5
107
  8
001
 10
40.412936000000002
 20
136.01851199999999
 30
0.0
  0
ENDBLK
  5
F6
  8
0
  0
ENDSEC
  0
SECTION
  2
ENTITIES
  0
DIMENSION
  5
108
  8
001
  2
*D1
 10
55.966113999999997
 20
46.457331000000003
 30
0.0
 11
63.466116999999997
 21
49.457330999999989
 31
0.0
 70
   128
 13
70.966118999999992
 23
65.033206000000007
 33
0.0
 14
55.966113999999997
 24
69.352519999999998
 34
0.0
 50
180.0
  0
DIMENSION
  5
109
  8
001
  2
*D2
 10
70.966118999999992
 20
46.457331000000003
 30
0.0
 11
110.96611900000001
 21
49.457330999999989
 31
0.0
 70
   128
 13
150.96611899999999
 23
66.783206000000007
 33
0.0
 14
70.966118999999992
 24
65.033206000000007
 34
0.0
 50
180.0
  0
DIMENSION
  5
10A
  8
001
  2
*D3
 10
150.96611899999999
 20
36.124532000000002
 30
0.0
 11
103.466117
 21
39.124532000000002
 31
0.0
 70
   128
 13
55.966113999999997
 23
46.457331000000003
 33
0.0
 14
150.96611899999999
 24
66.783206000000007
 34
0.0
  0
TEXT
  5
10B
  8
001
 10
75.388171
 20
89.210080999999988
 30
0.0
 40
4.0
  1
９０%%d
 50
301.90406000000002
 41
0.9782610000000001
  0
POLYLINE
  5
10C
  8
001
 66
     1
 10
0.0
 20
0.0
 30
0.0
  0
VERTEX
  5
10E
  8
001
 10
75.327602999999996
 20
52.127796000000011
 30
0.0
  0
VERTEX
  5
10F
  8
001
 10
74.005584999999996
 20
51.313048999999992
 30
0.0
  0
VERTEX
  5
110
  8
001
 10
74.743111999999996
 20
52.679648999999991
 30
0.0
  0
SEQEND
  5
10D
  8
001
  0
ARC
  5
111
  8
001
 10
55.535428000000003
 20
69.783206000000007
 30
0.0
 40
26.120746292779831
 50
315.0
 51
45.0
  0
POLYLINE
  5
112
  8
001
 66
     1
 10
0.0
 20
0.0
 30
0.0
  0
VERTEX
  5
114
  8
001
 10
60.560276000000002
 20
64.758358000000001
 30
0.0
  0
VERTEX
  5
115
  8
001
 10
74.005584999999996
 20
51.313048999999992
 30
0.0
  0
VERTEX
  5
116
  8
001
 10
75.950128000000007
 20
49.368505999999989
 30
0.0
  0
SEQEND
  5
113
  8
001
  0
DIMENSION
  5
117
  8
001
  2
*D4
 10
169.414389
 20
74.783206000000007
 30
0.0
 11
166.414389
 21
55.283206
 31
0.0
 70
   128
 13
148.96611899999999
 23
64.783206000000007
 33
0.0
 14
148.96611899999999
 24
74.783206000000007
 34
0.0
 50
90.0
  0
POLYLINE
  5
128
  8
001
 66
     1
 10
0.0
 20
0.0
 30
0.0
  0
VERTEX
  5
12A
  8
001
 10
62.917720999999993
 20
71.19614399999999
 30
0.0
  0
VERTEX
  5
12B
  8
001
 10
62.921168999999992
 20
71.211577000000005
 30
0.0
  0
VERTEX
  5
12C
  8
001
 10
62.925553000000001
 20
71.234261000000004
 30
0.0
  0
VERTEX
  5
12D
  8
001
 10
62.926618999999988
 20
71.240656999999999
 30
0.0
  0
VERTEX
  5
12E
  8
001
 10
62.927314000000003
 20
71.245039000000006
 30
0.0
  0
SEQEND
  5
129
  8
001
  0
POLYLINE
  5
12F
  8
001
 66
     1
 10
0.0
 20
0.0
 30
0.0
  0
VERTEX
  5
131
  8
001
 10
62.764729000000003
 20
70.152989000000005
 30
0.0
  0
VERTEX
  5
132
  8
001
 10
62.771338999999998
 20
70.197385999999995
 30
0.0
  0
VERTEX
  5
133
  8
001
 10
62.777947999999988
 20
70.241782999999984
 30
0.0
  0
VERTEX
  5
134
  8
001
 10
62.852690000000003
 20
70.743808999999999
 30
0.0
  0
VERTEX
  5
135
  8
001
 10
62.927435000000003
 20
71.245834999999985
 30
0.0
  0
SEQEND
  5
130
  8
001
  0
POLYLINE
  5
136
  8
001
 66
     1
 10
0.0
 20
0.0
 30
0.0
  0
VERTEX
  5
138
  8
001
 10
62.927314000000003
 20
71.245039000000006
 30
0.0
  0
VERTEX
  5
139
  8
001
 10
62.931528
 20
71.284143
 30
0.0
  0
VERTEX
  5
13A
  8
001
 10
62.934472
 20
71.338449999999995
 30
0.0
  0
VERTEX
  5
13B
  8
001
 10
62.93262399999999
 20
71.393235000000004
 30
0.0
  0
VERTEX
  5
13C
  8
001
 10
62.925553000000001
 20
71.442639
 30
0.0
  0
VERTEX
  5
13D
  8
001
 10
62.898950999999997
 20
71.541696999999999
 30
0.0
  0
VERTEX
  5
13E
  8
001
 10
62.855823000000001
 20
71.638450000000006
 30
0.0
  0
VERTEX
  5
13F
  8
001
 10
62.762570999999987
 20
71.762998999999994
 30
0.0
  0
VERTEX
  5
140
  8
001
 10
62.640951000000001
 20
71.858066000000008
 30
0.0
  0
VERTEX
  5
141
  8
001
 10
62.595477000000002
 20
71.882214000000005
 30
0.0
  0
VERTEX
  5
142
  8
001
 10
62.548211000000002
 20
71.902265999999983
 30
0.0
  0
VERTEX
  5
143
  8
001
 10
62.499580999999999
 20
71.918047999999985
 30
0.0
  0
VERTEX
  5
144
  8
001
 10
62.449370000000002
 20
71.929334999999995
 30
0.0
  0
VERTEX
  5
145
  8
001
 10
62.397928
 20
71.935964999999996
 30
0.0
  0
VERTEX
  5
146
  8
001
 10
62.347431000000007
 20
71.938450000000003
 30
0.0
  0
VERTEX
  5
147
  8
001
 10
62.298768999999993
 20
71.936914000000002
 30
0.0
  0
VERTEX
  5
148
  8
001
 10
62.245493000000003
 20
71.929334999999995
 30
0.0
  0
VERTEX
  5
149
  8
001
 10
62.208857999999999
 20
71.921214000000006
 30
0.0
  0
VERTEX
  5
14A
  8
001
 10
62.182865
 20
71.914392000000007
 30
0.0
  0
SEQEND
  5
137
  8
001
  0
LINE
  5
14B
  8
001
 10
61.486045999999988
 20
65.202618999999999
 30
0.0
 11
62.917720999999993
 21
71.19614399999999
 31
0.0
  0
POLYLINE
  5
14C
  8
001
 66
     1
 10
0.0
 20
0.0
 30
0.0
  0
VERTEX
  5
14E
  8
001
 10
61.474052999999998
 20
65.159478000000007
 30
0.0
  0
VERTEX
  5
14F
  8
001
 10
61.476736000000002
 20
65.168168999999992
 30
0.0
  0
VERTEX
  5
150
  8
001
 10
61.480443999999991
 20
65.180933999999993
 30
0.0
  0
VERTEX
  5
151
  8
001
 10
61.483856999999993
 20
65.193786000000003
 30
0.0
  0
VERTEX
  5
152
  8
001
 10
61.486045999999988
 20
65.202618999999999
 30
0.0
  0
SEQEND
  5
14D
  8
001
  0
LINE
  5
153
  8
001
 10
56.401061999999989
 20
70.188589000000007
 30
0.0
 11
62.182865
 21
71.914392000000007
 31
0.0
  0
POLYLINE
  5
154
  8
001
 66
     1
 10
0.0
 20
0.0
 30
0.0
  0
VERTEX
  5
156
  8
001
 10
59.938782000000003
 20
70.264099999999999
 30
0.0
  0
VERTEX
  5
157
  8
001
 10
59.831196999999989
 20
70.258392999999998
 30
0.0
  0
VERTEX
  5
158
  8
001
 10
59.683935999999989
 20
70.241311999999994
 30
0.0
  0
VERTEX
  5
159
  8
001
 10
59.553356999999998
 20
70.212936999999997
 30
0.0
  0
VERTEX
  5
15A
  8
001
 10
59.436833
 20
70.173638999999994
 30
0.0
  0
VERTEX
  5
15B
  8
001
 10
59.320175999999996
 20
70.123638
 30
0.0
  0
VERTEX
  5
15C
  8
001
 10
59.204981999999987
 20
70.063139000000007
 30
0.0
  0
VERTEX
  5
15D
  8
001
 10
58.899656999999998
 20
69.823755000000006
 30
0.0
  0
VERTEX
  5
15E
  8
001
 10
58.667802000000002
 20
69.514099999999999
 30
0.0
  0
VERTEX
  5
15F
  8
001
 10
58.559542999999998
 20
69.276463000000007
 30
0.0
  0
VERTEX
  5
160
  8
001
 10
58.493476999999999
 20
69.024573000000004
 30
0.0
  0
VERTEX
  5
161
  8
001
 10
58.476753000000002
 20
68.894773000000001
 30
0.0
  0
VERTEX
  5
162
  8
001
 10
58.471181000000009
 20
68.764099999999985
 30
0.0
  0
VERTEX
  5
163
  8
001
 10
58.476753000000002
 20
68.633428000000009
 30
0.0
  0
VERTEX
  5
164
  8
001
 10
58.493476999999999
 20
68.503628000000006
 30
0.0
  0
VERTEX
  5
165
  8
001
 10
58.559542999999998
 20
68.251738000000003
 30
0.0
  0
VERTEX
  5
166
  8
001
 10
58.667802000000002
 20
68.014099999999999
 30
0.0
  0
VERTEX
  5
167
  8
001
 10
58.899656999999998
 20
67.70444599999999
 30
0.0
  0
VERTEX
  5
168
  8
001
 10
59.204981999999987
 20
67.465062000000003
 30
0.0
  0
VERTEX
  5
169
  8
001
 10
59.320175999999996
 20
67.404562999999996
 30
0.0
  0
VERTEX
  5
16A
  8
001
 10
59.436833
 20
67.354562000000001
 30
0.0
  0
VERTEX
  5
16B
  8
001
 10
59.553356999999998
 20
67.315263999999985
 30
0.0
  0
VERTEX
  5
16C
  8
001
 10
59.683935999999989
 20
67.286889000000002
 30
0.0
  0
VERTEX
  5
16D
  8
001
 10
59.831196999999989
 20
67.269807999999983
 30
0.0
  0
VERTEX
  5
16E
  8
001
 10
59.938782000000003
 20
67.264099999999999
 30
0.0
  0
SEQEND
  5
155
  8
001
  0
LINE
  5
16F
  8
001
 10
61.486045999999988
 20
65.202618999999999
 30
0.0
 11
61.550465000000003
 21
65.402760999999984
 31
0.0
  0
LINE
  5
170
  8
001
 10
61.473813
 20
65.158725000000004
 30
0.0
 11
61.544119999999992
 21
65.376156000000009
 31
0.0
  0
POLYLINE
  5
171
  8
001
 66
     1
 10
0.0
 20
0.0
 30
0.0
  0
VERTEX
  5
173
  8
001
 10
59.938782000000003
 20
67.264099999999999
 30
0.0
  0
VERTEX
  5
174
  8
001
 10
60.046368000000001
 20
67.269807999999983
 30
0.0
  0
VERTEX
  5
175
  8
001
 10
60.193629000000001
 20
67.286889000000002
 30
0.0
  0
VERTEX
  5
176
  8
001
 10
60.324207999999999
 20
67.315263999999985
 30
0.0
  0
VERTEX
  5
177
  8
001
 10
60.44073199999999
 20
67.354562000000001
 30
0.0
  0
VERTEX
  5
178
  8
001
 10
60.557389000000001
 20
67.404562999999996
 30
0.0
  0
VERTEX
  5
179
  8
001
 10
60.672582999999989
 20
67.465062000000003
 30
0.0
  0
VERTEX
  5
17A
  8
001
 10
60.977907999999999
 20
67.70444599999999
 30
0.0
  0
VERTEX
  5
17B
  8
001
 10
61.209761999999998
 20
68.014099999999999
 30
0.0
  0
VERTEX
  5
17C
  8
001
 10
61.318021999999999
 20
68.251738000000003
 30
0.0
  0
VERTEX
  5
17D
  8
001
 10
61.384087999999998
 20
68.503628000000006
 30
0.0
  0
VERTEX
  5
17E
  8
001
 10
61.40081099999999
 20
68.633428000000009
 30
0.0
  0
VERTEX
  5
17F
  8
001
 10
61.406384000000003
 20
68.764099999999985
 30
0.0
  0
VERTEX
  5
180
  8
001
 10
61.40081099999999
 20
68.894773000000001
 30
0.0
  0
VERTEX
  5
181
  8
001
 10
61.384087999999998
 20
69.024573000000004
 30
0.0
  0
VERTEX
  5
182
  8
001
 10
61.318021999999999
 20
69.276463000000007
 30
0.0
  0
VERTEX
  5
183
  8
001
 10
61.209761999999998
 20
69.514099999999999
 30
0.0
  0
VERTEX
  5
184
  8
001
 10
60.977907999999999
 20
69.823755000000006
 30
0.0
  0
VERTEX
  5
185
  8
001
 10
60.672582999999989
 20
70.063139000000007
 30
0.0
  0
VERTEX
  5
186
  8
001
 10
60.557389000000001
 20
70.123638
 30
0.0
  0
VERTEX
  5
187
  8
001
 10
60.44073199999999
 20
70.173638999999994
 30
0.0
  0
VERTEX
  5
188
  8
001
 10
60.324207999999999
 20
70.212936999999997
 30
0.0
  0
VERTEX
  5
189
  8
001
 10
60.193629000000001
 20
70.241311999999994
 30
0.0
  0
VERTEX
  5
18A
  8
001
 10
60.046368000000001
 20
70.258392999999998
 30
0.0
  0
VERTEX
  5
18B
  8
001
 10
59.938782000000003
 20
70.264099999999999
 30
0.0
  0
SEQEND
  5
172
  8
001
  0
LINE
  5
18C
  8
001
 10
148.96611899999999
 20
74.783206000000007
 30
0.0
 11
71.216118999999992
 21
74.783206000000007
 31
0.0
  0
LINE
  5
18D
  8
001
 10
71.216118999999992
 20
64.783206000000007
 30
0.0
 11
148.96611899999999
 21
64.783206000000007
 31
0.0
  0
LINE
  5
18E
  8
001
 10
71.216118999999992
 20
74.783206000000007
 30
0.0
 11
71.216118999999992
 21
64.783206000000007
 31
0.0
  0
LINE
  5
18F
  8
001
 10
71.216118999999992
 20
74.783206000000007
 30
0.0
 11
70.966118999999992
 21
74.533206000000007
 31
0.0
  0
LINE
  5
190
  8
001
 10
70.966118999999992
 20
65.033206000000007
 30
0.0
 11
71.216118999999992
 21
64.783206000000007
 31
0.0
  0
LINE
  5
191
  8
001
 10
70.966118999999992
 20
74.533206000000007
 30
0.0
 11
70.966118999999992
 21
65.033206000000007
 31
0.0
  0
ARC
  5
192
  8
001
 10
148.96611899999999
 20
72.783206000000007
 30
0.0
 40
2.0
 50
0.0
 51
90.0
  0
ARC
  5
193
  8
001
 10
148.96611899999999
 20
66.783206000000007
 30
0.0
 40
2.0
 50
270.0
 51
0.0
  0
LINE
  5
194
  8
001
 10
150.96611899999999
 20
72.783206000000007
 30
0.0
 11
150.96611899999999
 21
66.783206000000007
 31
0.0
  0
LINE
  5
195
  8
001
 10
61.216118999999992
 20
74.533206000000007
 30
0.0
 11
61.216118999999992
 21
74.427866000000009
 31
0.0
  0
LINE
  5
196
  8
001
 10
70.966118999999992
 20
74.533206000000007
 30
0.0
 11
61.216118999999992
 21
74.533206000000007
 31
0.0
  0
LINE
  5
197
  8
001
 10
61.548740000000002
 20
65.033206000000007
 30
0.0
 11
70.966118999999992
 21
65.033206000000007
 31
0.0
  0
POLYLINE
  5
198
  8
001
 66
     1
 10
0.0
 20
0.0
 30
0.0
  0
VERTEX
  5
19A
  8
001
 10
61.481014999999999
 20
65.181691999999984
 30
0.0
  0
VERTEX
  5
19B
  8
001
 10
61.484352000000001
 20
65.181511999999998
 30
0.0
  0
VERTEX
  5
19C
  8
001
 10
61.489229999999999
 20
65.181247999999997
 30
0.0
  0
VERTEX
  5
19D
  8
001
 10
61.494108999999987
 20
65.180984999999993
 30
0.0
  0
VERTEX
  5
19E
  8
001
 10
61.497446999999987
 20
65.180805000000007
 30
0.0
  0
SEQEND
  5
199
  8
001
  0
POLYLINE
  5
19F
  8
001
 66
     1
 10
0.0
 20
0.0
 30
0.0
  0
VERTEX
  5
1A1
  8
001
 10
61.490407999999988
 20
65.151337999999996
 30
0.0
  0
VERTEX
  5
1A2
  8
001
 10
61.492168000000007
 20
65.139380000000003
 30
0.0
  0
VERTEX
  5
1A3
  8
001
 10
61.49474399999999
 20
65.121965000000003
 30
0.0
  0
VERTEX
  5
1A4
  8
001
 10
61.505320999999988
 20
65.065349999999995
 30
0.0
  0
VERTEX
  5
1A5
  8
001
 10
61.541454000000002
 20
65.034070999999997
 30
0.0
  0
VERTEX
  5
1A6
  8
001
 10
61.545735999999991
 20
65.033443000000005
 30
0.0
  0
VERTEX
  5
1A7
  8
001
 10
61.548740000000002
 20
65.033206000000007
 30
0.0
  0
SEQEND
  5
1A0
  8
001
  0
POLYLINE
  5
1A8
  8
001
 66
     1
 10
0.0
 20
0.0
 30
0.0
  0
VERTEX
  5
1AA
  8
001
 10
61.490407999999988
 20
65.151337999999996
 30
0.0
  0
VERTEX
  5
1AB
  8
001
 10
62.379292
 20
65.198502000000005
 30
0.0
  0
VERTEX
  5
1AC
  8
001
 10
63.677548999999999
 20
65.281238000000002
 30
0.0
  0
VERTEX
  5
1AD
  8
001
 10
64.933131000000003
 20
65.380111999999997
 30
0.0
  0
VERTEX
  5
1AE
  8
001
 10
65.791471000000001
 20
65.457113000000007
 30
0.0
  0
SEQEND
  5
1A9
  8
001
  0
POLYLINE
  5
1AF
  8
001
 66
     1
 10
0.0
 20
0.0
 30
0.0
  0
VERTEX
  5
1B1
  8
001
 10
65.791471000000001
 20
65.457113000000007
 30
0.0
  0
VERTEX
  5
1B2
  8
001
 10
65.903898999999996
 20
65.541814000000002
 30
0.0
  0
VERTEX
  5
1B3
  8
001
 10
66.060730000000007
 20
65.669584999999998
 30
0.0
  0
VERTEX
  5
1B4
  8
001
 10
66.785653999999994
 20
66.505229
 30
0.0
  0
VERTEX
  5
1B5
  8
001
 10
67.192825999999997
 20
67.408206000000007
 30
0.0
  0
VERTEX
  5
1B6
  8
001
 10
67.415374999999983
 20
68.167063999999996
 30
0.0
  0
VERTEX
  5
1B7
  8
001
 10
67.560213000000005
 20
68.958376999999999
 30
0.0
  0
VERTEX
  5
1B8
  8
001
 10
67.596143999999995
 20
69.370936
 30
0.0
  0
VERTEX
  5
1B9
  8
001
 10
67.607202000000001
 20
69.783206000000007
 30
0.0
  0
VERTEX
  5
1BA
  8
001
 10
67.596143999999995
 20
70.195475999999999
 30
0.0
  0
VERTEX
  5
1BB
  8
001
 10
67.560213000000005
 20
70.608035000000001
 30
0.0
  0
VERTEX
  5
1BC
  8
001
 10
67.415374999999983
 20
71.399349000000001
 30
0.0
  0
VERTEX
  5
1BD
  8
001
 10
67.192825999999997
 20
72.158206000000007
 30
0.0
  0
VERTEX
  5
1BE
  8
001
 10
66.785653999999994
 20
73.061183
 30
0.0
  0
VERTEX
  5
1BF
  8
001
 10
66.060730000000007
 20
73.896827000000002
 30
0.0
  0
VERTEX
  5
1C0
  8
001
 10
65.903898999999996
 20
74.024597999999983
 30
0.0
  0
VERTEX
  5
1C1
  8
001
 10
65.791471000000001
 20
74.109298999999993
 30
0.0
  0
SEQEND
  5
1B0
  8
001
  0
POLYLINE
  5
1C2
  8
001
 66
     1
 10
0.0
 20
0.0
 30
0.0
  0
VERTEX
  5
1C4
  8
001
 10
65.791471000000001
 20
74.109298999999993
 30
0.0
  0
VERTEX
  5
1C5
  8
001
 10
64.879046000000002
 20
74.190804
 30
0.0
  0
VERTEX
  5
1C6
  8
001
 10
63.544297999999998
 20
74.294549000000004
 30
0.0
  0
VERTEX
  5
1C7
  8
001
 10
62.16233299999999
 20
74.380018000000007
 30
0.0
  0
VERTEX
  5
1C8
  8
001
 10
61.216118999999992
 20
74.427866000000009
 30
0.0
  0
SEQEND
  5
1C3
  8
001
  0
LINE
  5
1C9
  8
001
 10
65.791471000000001
 20
74.109298999999993
 30
0.0
 11
65.791471000000001
 21
65.457113000000007
 31
0.0
  0
LINE
  5
1CA
  8
001
 10
62.678219999999989
 20
70.123962000000006
 30
0.0
 11
61.490407999999988
 21
65.151337999999996
 31
0.0
  0
POLYLINE
  5
1CB
  8
001
 66
     1
 10
0.0
 20
0.0
 30
0.0
  0
VERTEX
  5
1CD
  8
001
 10
62.678219999999989
 20
70.123962000000006
 30
0.0
  0
VERTEX
  5
1CE
  8
001
 10
62.732300000000002
 20
70.139385000000004
 30
0.0
  0
VERTEX
  5
1CF
  8
001
 10
62.807065000000001
 20
70.163833999999994
 30
0.0
  0
VERTEX
  5
1D0
  8
001
 10
62.911611000000001
 20
70.206992
 30
0.0
  0
VERTEX
  5
1D1
  8
001
 10
63.000275000000002
 20
70.255918999999992
 30
0.0
  0
VERTEX
  5
1D2
  8
001
 10
63.247315999999998
 20
70.453902999999997
 30
0.0
  0
VERTEX
  5
1D3
  8
001
 10
63.447924
 20
70.713449999999995
 30
0.0
  0
VERTEX
  5
1D4
  8
001
 10
63.539183000000001
 20
70.911693
 30
0.0
  0
VERTEX
  5
1D5
  8
001
 10
63.593194999999987
 20
71.121390000000005
 30
0.0
  0
VERTEX
  5
1D6
  8
001
 10
63.607028
 20
71.229535999999996
 30
0.0
  0
VERTEX
  5
1D7
  8
001
 10
63.611775000000002
 20
71.338449999999995
 30
0.0
  0
VERTEX
  5
1D8
  8
001
 10
63.607162000000002
 20
71.44735
 30
0.0
  0
VERTEX
  5
1D9
  8
001
 10
63.593194999999987
 20
71.555509999999984
 30
0.0
  0
VERTEX
  5
1DA
  8
001
 10
63.538119999999992
 20
71.765415000000004
 30
0.0
  0
VERTEX
  5
1DB
  8
001
 10
63.447924
 20
71.963449999999995
 30
0.0
  0
VERTEX
  5
1DC
  8
001
 10
63.254720999999989
 20
72.221496999999999
 30
0.0
  0
VERTEX
  5
1DD
  8
001
 10
63.000275000000002
 20
72.420981999999995
 30
0.0
  0
VERTEX
  5
1DE
  8
001
 10
62.904280000000007
 20
72.471397999999994
 30
0.0
  0
VERTEX
  5
1DF
  8
001
 10
62.807065000000001
 20
72.513066000000009
 30
0.0
  0
VERTEX
  5
1E0
  8
001
 10
62.709963000000002
 20
72.545814000000007
 30
0.0
  0
VERTEX
  5
1E1
  8
001
 10
62.601145999999993
 20
72.569459999999992
 30
0.0
  0
VERTEX
  5
1E2
  8
001
 10
62.478429000000013
 20
72.583693999999994
 30
0.0
  0
VERTEX
  5
1E3
  8
001
 10
62.388773999999991
 20
72.588449999999995
 30
0.0
  0
SEQEND
  5
1CC
  8
001
  0
LINE
  5
1E4
  8
001
 10
61.216118999999992
 20
74.427866000000009
 30
0.0
 11
57.089115999999997
 21
70.393968999999984
 31
0.0
  0
POLYLINE
  5
1E5
  8
001
 66
     1
 10
0.0
 20
0.0
 30
0.0
  0
VERTEX
  5
1E7
  8
001
 10
62.388773999999991
 20
72.588449999999995
 30
0.0
  0
VERTEX
  5
1E8
  8
001
 10
62.299110999999989
 20
72.583654999999993
 30
0.0
  0
VERTEX
  5
1E9
  8
001
 10
62.176402000000003
 20
72.569459999999992
 30
0.0
  0
VERTEX
  5
1EA
  8
001
 10
62.067630999999999
 20
72.546009999999995
 30
0.0
  0
VERTEX
  5
1EB
  8
001
 10
61.970482999999987
 20
72.513066000000009
 30
0.0
  0
VERTEX
  5
1EC
  8
001
 10
61.873100000000001
 20
72.470652000000001
 30
0.0
  0
VERTEX
  5
1ED
  8
001
 10
61.777273999999998
 20
72.420981999999995
 30
0.0
  0
VERTEX
  5
1EE
  8
001
 10
61.526102000000002
 20
72.235904000000005
 30
0.0
  0
VERTEX
  5
1EF
  8
001
 10
61.329624000000003
 20
71.963449999999995
 30
0.0
  0
VERTEX
  5
1F0
  8
001
 10
61.244079999999997
 20
71.766614000000004
 30
0.0
  0
VERTEX
  5
1F1
  8
001
 10
61.197245000000002
 20
71.620195999999993
 30
0.0
  0
SEQEND
  5
1E6
  8
001
  0
POLYLINE
  5
1F2
  8
001
 66
     1
 10
0.0
 20
0.0
 30
0.0
  0
VERTEX
  5
1F4
  8
001
 10
62.614198999999992
 20
72.567032999999995
 30
0.0
  0
VERTEX
  5
1F5
  8
001
 10
62.532513000000002
 20
72.547232999999991
 30
0.0
  0
VERTEX
  5
1F6
  8
001
 10
62.421331999999992
 20
72.513066000000009
 30
0.0
  0
VERTEX
  5
1F7
  8
001
 10
62.317283000000003
 20
72.469600999999983
 30
0.0
  0
VERTEX
  5
1F8
  8
001
 10
62.228122999999997
 20
72.420981999999995
 30
0.0
  0
VERTEX
  5
1F9
  8
001
 10
61.985481
 20
72.238391000000007
 30
0.0
  0
VERTEX
  5
1FA
  8
001
 10
61.780473000000001
 20
71.963449999999995
 30
0.0
  0
VERTEX
  5
1FB
  8
001
 10
61.724982999999987
 20
71.849789999999999
 30
0.0
  0
VERTEX
  5
1FC
  8
001
 10
61.690943000000011
 20
71.767558999999991
 30
0.0
  0
SEQEND
  5
1F3
  8
001
  0
LINE
  5
1FD
  8
001
 10
61.216118999999992
 20
74.533206000000007
 30
0.0
 11
57.071672
 21
70.388758999999993
 31
0.0
  0
ARC
  5
1FE
  8
001
 10
59.938782000000003
 20
69.464100000000002
 30
0.0
 40
0.175
 50
14.653060999999999
 51
165.34693899999999
  0
ARC
  5
1FF
  8
001
 10
59.462780000000002
 20
69.588560999999999
 30
0.0
 40
0.3170045884846417
 50
254.65306100000001
 51
345.34693900000002
  0
ARC
  5
200
  8
001
 10
59.332565000000002
 20
69.114099999999993
 30
0.0
 40
0.175
 50
74.653060999999994
 51
225.34693900000011
  0
ARC
  5
201
  8
001
 10
58.986778000000001
 20
68.764099999999985
 30
0.0
 40
0.3170045884846417
 50
314.65306099999998
 51
45.346938999999992
  0
ARC
  5
202
  8
001
 10
59.332565000000002
 20
68.414100000000005
 30
0.0
 40
0.175
 50
134.65306100000001
 51
285.34693900000002
  0
ARC
  5
203
  8
001
 10
59.462780000000002
 20
67.939639999999983
 30
0.0
 40
0.3170045884846417
 50
14.653060999999999
 51
105.34693900000001
  0
ARC
  5
204
  8
001
 10
59.938782000000003
 20
68.064099999999996
 30
0.0
 40
0.175
 50
194.65306100000001
 51
345.34693900000002
  0
ARC
  5
205
  8
001
 10
60.414785000000002
 20
67.939639999999983
 30
0.0
 40
0.3170045884846417
 50
74.653060999999994
 51
165.34693899999999
  0
ARC
  5
206
  8
001
 10
60.545000000000002
 20
68.414100000000005
 30
0.0
 40
0.175
 50
254.65306100000001
 51
45.346938999999992
  0
ARC
  5
207
  8
001
 10
60.890786999999989
 20
68.764099999999985
 30
0.0
 40
0.3170045884846417
 50
134.65306100000001
 51
225.34693900000011
  0
ARC
  5
208
  8
001
 10
60.545000000000002
 20
69.114099999999993
 30
0.0
 40
0.175
 50
314.65306099999998
 51
105.34693900000001
  0
ARC
  5
209
  8
001
 10
60.414785000000002
 20
69.588560999999999
 30
0.0
 40
0.3170045884846417
 50
194.65306100000001
 51
285.34693900000002
  0
CIRCLE
  5
20A
  8
001
 10
59.938782000000003
 20
68.764099999999985
 30
0.0
 40
1.149999999999999
  0
LINE
  5
20B
  8
001
 10
150.96611899999999
 20
69.783206000000007
 30
0.0
 11
152.69817
 21
70.783206000000007
 31
0.0
  0
LINE
  5
20C
  8
001
 10
150.96611899999999
 20
69.783206000000007
 30
0.0
 11
152.69817
 21
68.783206000000007
 31
0.0
  0
LINE
  5
20D
  8
001
  6
CENTER
 10
55.103439000000002
 20
69.783206000000007
 30
0.0
 11
152.55104499999999
 21
69.783206000000007
 31
0.0
  0
POLYLINE
  5
20E
  8
001
 66
     1
 10
0.0
 20
0.0
 30
0.0
  0
VERTEX
  5
210
  8
001
 10
60.560276000000002
 20
64.758358000000001
 30
0.0
  0
VERTEX
  5
211
  8
001
 10
60.599389000000002
 20
64.728018000000006
 30
0.0
  0
VERTEX
  5
212
  8
001
 10
60.642420999999999
 20
64.698590999999993
 30
0.0
  0
VERTEX
  5
213
  8
001
 10
60.689152999999997
 20
64.673129000000003
 30
0.0
  0
VERTEX
  5
214
  8
001
 10
60.735160999999991
 20
64.654391000000004
 30
0.0
  0
VERTEX
  5
215
  8
001
 10
60.783622999999999
 20
64.639009999999985
 30
0.0
  0
VERTEX
  5
216
  8
001
 10
60.834001999999998
 20
64.627320999999995
 30
0.0
  0
VERTEX
  5
217
  8
001
 10
60.884861999999998
 20
64.62039200000001
 30
0.0
  0
VERTEX
  5
218
  8
001
 10
60.935941
 20
64.618206000000001
 30
0.0
  0
VERTEX
  5
219
  8
001
 10
60.987094999999997
 20
64.620541000000003
 30
0.0
  0
VERTEX
  5
21A
  8
001
 10
61.037878999999997
 20
64.627320999999995
 30
0.0
  0
VERTEX
  5
21B
  8
001
 10
61.087881999999993
 20
64.638561999999993
 30
0.0
  0
VERTEX
  5
21C
  8
001
 10
61.136720999999987
 20
64.654391000000004
 30
0.0
  0
VERTEX
  5
21D
  8
001
 10
61.184165
 20
64.674778000000003
 30
0.0
  0
VERTEX
  5
21E
  8
001
 10
61.229461000000001
 20
64.698590999999993
 30
0.0
  0
VERTEX
  5
21F
  8
001
 10
61.348602
 20
64.786908999999994
 30
0.0
  0
VERTEX
  5
220
  8
001
 10
61.444332999999993
 20
64.918206000000012
 30
0.0
  0
VERTEX
  5
221
  8
001
 10
61.475532999999999
 20
64.984403
 30
0.0
  0
VERTEX
  5
222
  8
001
 10
61.494238000000003
 20
65.032758999999999
 30
0.0
  0
SEQEND
  5
20F
  8
001
  0
LINE
  5
223
  8
001
  6
PHANTOM
 10
60.700428000000002
 20
64.618206000000001
 30
0.0
 11
60.560276000000002
 21
64.758358000000001
 31
0.0
  0
LINE
  5
224
  8
001
  6
PHANTOM
 10
60.700428000000002
 20
64.618206000000001
 30
0.0
 11
60.933672999999999
 21
64.618206000000001
 31
0.0
  0
ARC
  5
225
  8
001
 10
56.575299999999999
 20
69.604853000000006
 30
0.0
 40
0.6091859693174766
 50
106.61976900000001
 51
225.0
  0
LINE
  5
226
  8
001
  6
PHANTOM
 10
55.966113999999997
 20
69.352519999999998
 30
0.0
 11
55.966113999999997
 21
69.604853000000006
 31
0.0
  0
LINE
  5
227
  8
001
 10
56.144540999999997
 20
69.174092999999999
 30
0.0
 11
60.560276000000002
 21
64.758358000000001
 31
0.0
  0
TEXT
  5
329
  8
001
 10
68.600371999999993
 20
94.884687
 30
0.0
 40
5.0
  1
チビエコ　ＥＭＳ１０４５Ｔ
 41
0.833333
  0
LINE
  5
32A
  8
001
  6
PHANTOM
 10
56.144540999999997
 20
69.174092999999999
 30
0.0
 11
55.966113999999997
 21
69.352519999999998
 31
0.0
  0
ENDSEC
  0
EOF
