  0
SECTION
  2
HEADER
  9
$ACADVER
  1
AC1009
  9
$INSBASE
 10
0.0
 20
0.0
 30
0.0
  9
$EXTMIN
 10
-2.3694250000000001
 20
13.775069999999999
 30
0.0
  9
$EXTMAX
 10
205.15743699999999
 20
79.304355333333334
 30
0.0
  9
$LIMMIN
 10
0.0
 20
0.0
  9
$LIMMAX
 10
12.0
 20
9.0
  9
$ORTHOMODE
 70
     0
  9
$REGENMODE
 70
     1
  9
$FILLMODE
 70
     1
  9
$QTEXTMODE
 70
     0
  9
$MIRRTEXT
 70
     1
  9
$DRAGMODE
 70
     2
  9
$LTSCALE
 40
3.4587809999999992
  9
$OSMODE
 70
  2999
  9
$ATTMODE
 70
     1
  9
$TEXTSIZE
 40
0.2
  9
$TRACEWID
 40
1.0
  9
$TEXTSTYLE
  7
STANDARD
  9
$CLAYER
  8
0
  9
$CELTYPE
  6
BYLAYER
  9
$CECOLOR
 62
   256
  9
$DIMSCALE
 40
1.0
  9
$DIMASZ
 40
2.5
  9
$DIMEXO
 40
0.625
  9
$DIMDLI
 40
3.75
  9
$DIMRND
 40
0.0
  9
$DIMDLE
 40
0.0
  9
$DIMEXE
 40
1.25
  9
$DIMTP
 40
0.0
  9
$DIMTM
 40
0.0
  9
$DIMTXT
 40
2.5
  9
$DIMCEN
 40
0.09
  9
$DIMTSZ
 40
0.0
  9
$DIMTOL
 70
     0
  9
$DIMLIM
 70
     0
  9
$DIMTIH
 70
     0
  9
$DIMTOH
 70
     0
  9
$DIMSE1
 70
     0
  9
$DIMSE2
 70
     0
  9
$DIMTAD
 70
     0
  9
$DIMZIN
 70
     8
  9
$DIMBLK
  1

  9
$DIMASO
 70
     1
  9
$DIMSHO
 70
     0
  9
$DIMPOST
  1

  9
$DIMAPOST
  1

  9
$DIMALT
 70
     0
  9
$DIMALTD
 70
     3
  9
$DIMALTF
 40
0.03937
  9
$DIMLFAC
 40
1.0
  9
$DIMTOFL
 70
     1
  9
$DIMTVP
 40
0.0
  9
$DIMTIX
 70
     0
  9
$DIMSOXD
 70
     0
  9
$DIMSAH
 70
     0
  9
$DIMBLK1
  1

  9
$DIMBLK2
  1

  9
$DIMSTYLE
  2
ISO-25
  9
$DIMCLRD
 70
     0
  9
$DIMCLRE
 70
     0
  9
$DIMCLRT
 70
     0
  9
$DIMTFAC
 40
1.0
  9
$DIMGAP
 40
0.625
  9
$LUNITS
 70
     2
  9
$LUPREC
 70
     4
  9
$SKETCHINC
 40
1.0
  9
$FILLETRAD
 40
0.0
  9
$AUNITS
 70
     0
  9
$AUPREC
 70
     0
  9
$MENU
  1
.
  9
$ELEVATION
 40
0.0
  9
$PELEVATION
 40
0.0
  9
$THICKNESS
 40
0.0
  9
$LIMCHECK
 70
     0
  9
$BLIPMODE
 70
     0
  9
$CHAMFERA
 40
10.0
  9
$CHAMFERB
 40
10.0
  9
$SKPOLY
 70
     0
  9
$TDCREATE
 40
2454522.4637427661
  9
$TDUPDATE
 40
2454522.4996232991
  9
$TDINDWG
 40
0.0008796412
  9
$TDUSRTIMER
 40
0.0008792708
  9
$USRTIMER
 70
     1
  9
$ANGBASE
 50
0.0
  9
$ANGDIR
 70
     0
  9
$PDMODE
 70
     0
  9
$PDSIZE
 40
0.0
  9
$PLINEWID
 40
0.0
  9
$COORDS
 70
     2
  9
$SPLFRAME
 70
     0
  9
$SPLINETYPE
 70
     6
  9
$SPLINESEGS
 70
     8
  9
$ATTDIA
 70
     0
  9
$ATTREQ
 70
     1
  9
$HANDLING
 70
     1
  9
$HANDSEED
  5
2E4
  9
$SURFTAB1
 70
     6
  9
$SURFTAB2
 70
     6
  9
$SURFTYPE
 70
     6
  9
$SURFU
 70
     6
  9
$SURFV
 70
     6
  9
$UCSNAME
  2

  9
$UCSORG
 10
0.0
 20
0.0
 30
0.0
  9
$UCSXDIR
 10
1.0
 20
0.0
 30
0.0
  9
$UCSYDIR
 10
0.0
 20
1.0
 30
0.0
  9
$PUCSNAME
  2

  9
$PUCSORG
 10
0.0
 20
0.0
 30
0.0
  9
$PUCSXDIR
 10
1.0
 20
0.0
 30
0.0
  9
$PUCSYDIR
 10
0.0
 20
1.0
 30
0.0
  9
$USERI1
 70
     0
  9
$USERI2
 70
     0
  9
$USERI3
 70
     0
  9
$USERI4
 70
     0
  9
$USERI5
 70
     0
  9
$USERR1
 40
0.0
  9
$USERR2
 40
0.0
  9
$USERR3
 40
0.0
  9
$USERR4
 40
0.0
  9
$USERR5
 40
0.0
  9
$WORLDVIEW
 70
     1
  9
$SHADEDGE
 70
     3
  9
$SHADEDIF
 70
    70
  9
$TILEMODE
 70
     1
  9
$MAXACTVP
 70
    64
  9
$PLIMCHECK
 70
     0
  9
$PEXTMIN
 10
1.0000000000000000E+020
 20
1.0000000000000000E+020
 30
0.0
  9
$PEXTMAX
 10
-1.0000000000000000E+020
 20
-1.0000000000000000E+020
 30
0.0
  9
$PLIMMIN
 10
0.0
 20
0.0
  9
$PLIMMAX
 10
12.0
 20
9.0
  9
$UNITMODE
 70
     0
  9
$VISRETAIN
 70
     1
  9
$PLINEGEN
 70
     0
  9
$PSLTSCALE
 70
     1
  0
ENDSEC
  0
SECTION
  2
TABLES
  0
TABLE
  2
VPORT
 70
     3
  0
VPORT
  2
*ACTIVE
 70
     0
 10
0.0
 20
0.0
 11
1.0
 21
1.0
 12
104.75657147742901
 22
37.17652030007887
 13
0.0
 23
0.0
 14
1.0
 24
1.0
 15
0.0
 25
0.0
 16
0.0
 26
0.0
 36
1.0
 17
0.0
 27
0.0
 37
0.0
 40
160.16811081744521
 41
1.504504504504504
 42
50.0
 43
0.0
 44
0.0
 50
0.0
 51
0.0
 71
     0
 72
   100
 73
     1
 74
     3
 75
     0
 76
     0
 77
     0
 78
     0
  0
ENDTAB
  0
TABLE
  2
LTYPE
 70
     5
  0
LTYPE
  2
CONTINUOUS
 70
     0
  3
Solid line
 72
    65
 73
     0
 40
0.0
  0
LTYPE
  2
DASHED
 70
     0
  3
DASHED
 72
    83
 73
     2
 40
0.75
 49
0.5
 49
-0.25
  0
LTYPE
  2
HIDDEN
 70
     0
  3
HIDDEN
 72
    83
 73
     2
 40
0.375
 49
0.25
 49
-0.125
  0
LTYPE
  2
CENTER
 70
     0
  3
CENTER
 72
    83
 73
     4
 40
2.0
 49
1.25
 49
-0.25
 49
0.25
 49
-0.25
  0
LTYPE
  2
PHANTOM
 70
     0
  3
PHANTOM
 72
    83
 73
     6
 40
2.5
 49
1.25
 49
-0.25
 49
0.25
 49
-0.25
 49
0.25
 49
-0.25
  0
ENDTAB
  0
TABLE
  2
LAYER
 70
     3
  0
LAYER
  2
0
 70
     0
 62
     7
  6
CONTINUOUS
  0
LAYER
  2
001
 70
     0
 62
     7
  6
CONTINUOUS
  0
LAYER
  2
DEFPOINTS
 70
     0
 62
     7
  6
CONTINUOUS
  0
ENDTAB
  0
TABLE
  2
STYLE
 70
     2
  0
STYLE
  2
STANDARD
 70
     0
 40
0.0
 41
1.0
 50
0.0
 71
     0
 42
0.2
  3
TXT
  4
BIGFONT
  0
STYLE
  2
TATEGAKI
 70
     4
 40
1.0
 41
1.0
 50
0.0
 71
     0
 42
0.2
  3
TXT
  4
BIGFONT
  0
ENDTAB
  0
TABLE
  2
VIEW
 70
     0
  0
ENDTAB
  0
TABLE
  2
UCS
 70
     0
  0
ENDTAB
  0
TABLE
  2
APPID
 70
     1
  0
APPID
  2
ACAD
 70
     0
  0
ENDTAB
  0
TABLE
  2
DIMSTYLE
 70
     2
  0
DIMSTYLE
  2
ISO-25
 70
     0
  3

  4

  5

  6

  7

 40
1.0
 41
2.5
 42
0.625
 43
3.75
 44
1.25
 45
0.0
 46
0.0
 47
0.0
 48
0.0
140
2.5
141
2.5
142
0.0
143
0.03937
144
1.0
145
0.0
146
1.0
147
0.625
 71
     0
 72
     0
 73
     0
 74
     0
 75
     0
 76
     0
 77
     1
 78
     8
170
     0
171
     3
172
     1
173
     0
174
     0
175
     0
176
     0
177
     0
178
     0
  0
DIMSTYLE
  2
STANDARD
 70
     0
  3

  4

  5

  6

  7

 40
1.0
 41
1.5
 42
0.0
 43
0.38
 44
2.75
 45
0.0
 46
0.0
 47
0.0
 48
0.0
140
4.0
141
0.09
142
0.0
143
25.399999999999999
144
1.0
145
0.0
146
0.8
147
1.0
 71
     0
 72
     0
 73
     0
 74
     0
 75
     0
 76
     0
 77
     1
 78
     8
170
     0
171
     2
172
     1
173
     0
174
     0
175
     0
176
     0
177
     0
178
     0
  0
ENDTAB
  0
ENDSEC
  0
SECTION
  2
BLOCKS
  0
BLOCK
  8
0
  2
$MODEL_SPACE
 70
     0
 10
0.0
 20
0.0
 30
0.0
  3
$MODEL_SPACE
  1

  0
ENDBLK
  5
1C0
  8
0
  0
BLOCK
 67
     1
  8
0
  2
$PAPER_SPACE
 70
     0
 10
0.0
 20
0.0
 30
0.0
  3
$PAPER_SPACE
  1

  0
ENDBLK
  5
1BC
 67
     1
  8
0
  0
BLOCK
  8
0
  2
*D2
 70
     1
 10
0.0
 20
0.0
 30
0.0
  3
*D2
  1

  0
LINE
  5
67
  8
001
 10
20.285882000000001
 20
43.388483000000001
 30
0.0
 11
20.285882000000001
 21
23.390832
 31
0.0
  0
LINE
  5
68
  8
001
 10
53.285881999999987
 20
46.814485999999981
 30
0.0
 11
53.285881999999987
 21
23.390832
 31
0.0
  0
LINE
  5
69
  8
001
 10
20.285882000000001
 20
26.140832
 30
0.0
 11
53.285881999999987
 21
26.140832
 31
0.0
  0
POLYLINE
  5
6A
  8
001
 66
     1
 10
0.0
 20
0.0
 30
0.0
  0
VERTEX
  5
280
  8
001
 10
21.785882000000001
 20
25.738907999999999
 30
0.0
  0
VERTEX
  5
281
  8
001
 10
20.285882000000001
 20
26.140832
 30
0.0
  0
VERTEX
  5
282
  8
001
 10
21.785882000000001
 20
26.542756000000001
 30
0.0
  0
SEQEND
  5
283
  8
001
  0
POLYLINE
  5
6F
  8
001
 66
     1
 10
0.0
 20
0.0
 30
0.0
  0
VERTEX
  5
284
  8
001
 10
51.785882000000001
 20
26.542756000000001
 30
0.0
  0
VERTEX
  5
285
  8
001
 10
53.285881999999987
 20
26.140832
 30
0.0
  0
VERTEX
  5
286
  8
001
 10
51.785882000000001
 20
25.738907999999999
 30
0.0
  0
SEQEND
  5
287
  8
001
  0
TEXT
  5
74
  8
001
 10
32.785882000000001
 20
27.140832
 30
0.0
 40
4.0
  1
３３
 41
0.833333
  0
POINT
  5
75
  8
001
 10
20.285882000000001
 20
43.388483000000001
 30
0.0
  0
POINT
  5
76
  8
001
 10
53.285881999999987
 20
46.814485999999981
 30
0.0
  0
POINT
  5
77
  8
001
 10
53.285881999999987
 20
26.140832
 30
0.0
  0
ENDBLK
  5
66
  8
0
  0
BLOCK
  8
0
  2
*D3
 70
     1
 10
0.0
 20
0.0
 30
0.0
  3
*D3
  1

  0
LINE
  5
7B
  8
001
 10
24.61665
 20
46.373064999999997
 30
0.0
 11
37.780571000000002
 21
33.209144000000002
 31
0.0
  0
LINE
  5
7C
  8
001
 10
20.285882000000001
 20
43.388483000000001
 30
0.0
 11
20.285882000000001
 21
25.962606999999998
 31
0.0
  0
ARC
  5
7D
  8
001
 10
20.285882000000001
 20
50.703833000000003
 30
0.0
 40
21.99122604123783
 50
270.0
 51
315.0
  0
POLYLINE
  5
7E
  8
001
 66
     1
 10
0.0
 20
0.0
 30
0.0
  0
VERTEX
  5
288
  8
001
 10
34.465471000000001
 20
34.423538999999998
 30
0.0
  0
VERTEX
  5
289
  8
001
 10
35.836027000000001
 20
35.153688000000002
 30
0.0
  0
VERTEX
  5
28A
  8
001
 10
35.014165000000013
 20
33.836081999999998
 30
0.0
  0
SEQEND
  5
28B
  8
001
  0
POLYLINE
  5
83
  8
001
 66
     1
 10
0.0
 20
0.0
 30
0.0
  0
VERTEX
  5
28C
  8
001
 10
21.798715000000001
 20
28.362062999999999
 30
0.0
  0
VERTEX
  5
28D
  8
001
 10
20.285882000000001
 20
28.712606999999998
 30
0.0
  0
VERTEX
  5
28E
  8
001
 10
21.771305000000002
 20
29.165444000000001
 30
0.0
  0
SEQEND
  5
28F
  8
001
  0
TEXT
  5
88
  8
001
 10
22.775599
 20
29.014368000000001
 30
0.0
 40
4.0
  1
４５%%d
 50
22.500001000000012
 41
0.9782610000000001
  0
POINT
  5
89
  8
001
 10
24.61665
 20
46.373064999999997
 30
0.0
  0
POINT
  5
8A
  8
001
 10
20.285882000000001
 20
50.703833000000003
 30
0.0
  0
POINT
  5
8B
  8
001
 10
20.285882000000001
 20
50.703833000000003
 30
0.0
  0
POINT
  5
8C
  8
001
 10
20.285882000000001
 20
43.388483000000001
 30
0.0
  0
ENDBLK
  5
7A
  8
0
  0
BLOCK
  8
0
  2
*D4
 70
     1
 10
0.0
 20
0.0
 30
0.0
  3
*D4
  1

  0
LINE
  5
90
  8
001
 10
183.28588199999999
 20
55.814485999999981
 30
0.0
 11
205.15743699999999
 21
55.814485999999981
 31
0.0
  0
LINE
  5
91
  8
001
 10
183.28588199999999
 20
45.814485999999981
 30
0.0
 11
205.15743699999999
 21
45.814485999999981
 31
0.0
  0
LINE
  5
92
  8
001
 10
202.40743699999999
 20
55.814485999999981
 30
0.0
 11
202.40743699999999
 21
45.814485999999981
 31
0.0
  0
POLYLINE
  5
93
  8
001
 66
     1
 10
0.0
 20
0.0
 30
0.0
  0
VERTEX
  5
290
  8
001
 10
202.809361
 20
57.314486000000002
 30
0.0
  0
VERTEX
  5
291
  8
001
 10
202.40743699999999
 20
55.814485999999981
 30
0.0
  0
VERTEX
  5
292
  8
001
 10
202.00551300000001
 20
57.314486000000002
 30
0.0
  0
SEQEND
  5
293
  8
001
  0
POLYLINE
  5
98
  8
001
 66
     1
 10
0.0
 20
0.0
 30
0.0
  0
VERTEX
  5
294
  8
001
 10
202.00551300000001
 20
44.314485999999981
 30
0.0
  0
VERTEX
  5
295
  8
001
 10
202.40743699999999
 20
45.814485999999981
 30
0.0
  0
VERTEX
  5
296
  8
001
 10
202.809361
 20
44.314485999999981
 30
0.0
  0
SEQEND
  5
297
  8
001
  0
TEXT
  5
9D
  8
001
 10
201.40743699999999
 20
30.314485999999999
 30
0.0
 40
4.0
  1
%%c１０
 50
90.000003000000007
 41
0.8823529999999999
  0
POINT
  5
9E
  8
001
 10
183.28588199999999
 20
55.814485999999981
 30
0.0
  0
POINT
  5
9F
  8
001
 10
183.28588199999999
 20
45.814485999999981
 30
0.0
  0
POINT
  5
A0
  8
001
 10
202.40743699999999
 20
45.814485999999981
 30
0.0
  0
LINE
  5
A1
  8
001
 10
202.40743699999999
 20
55.814485999999981
 30
0.0
 11
202.40743699999999
 21
58.314485999999981
 31
0.0
  0
LINE
  5
A2
  8
001
 10
202.40743699999999
 20
45.814485999999981
 30
0.0
 11
202.40743699999999
 21
27.314485999999999
 31
0.0
  0
ENDBLK
  5
8F
  8
0
  0
BLOCK
  8
0
  2
*D5
 70
     1
 10
0.0
 20
0.0
 30
0.0
  3
*D5
  1

  0
LINE
  5
A6
  8
001
 10
20.485882
 20
50.786675000000002
 30
0.0
 11
20.336988000000002
 21
50.920206
 31
0.0
  0
POLYLINE
  5
A7
  8
001
 66
     1
 10
0.0
 20
0.0
 30
0.0
  0
VERTEX
  5
298
  8
001
 10
19.488624999999999
 20
52.22090699999999
 30
0.0
  0
VERTEX
  5
299
  8
001
 10
20.336988000000002
 20
50.920206
 30
0.0
  0
VERTEX
  5
29A
  8
001
 10
18.951933
 20
51.622464000000001
 30
0.0
  0
SEQEND
  5
29B
  8
001
  0
TEXT
  5
AC
  8
001
 10
0.531646
 20
70.025137999999998
 30
0.0
 40
4.0
  1
（Ｒ０．２）
 50
318.1137930000001
 41
0.833333
  0
POINT
  5
AD
  8
001
 10
20.336988000000002
 20
50.920206
 30
0.0
  0
POINT
  5
AE
  8
001
 10
20.485882
 20
50.786675000000002
 30
0.0
  0
LINE
  5
AF
  8
001
 10
20.336988000000002
 20
50.920206
 30
0.0
 11
-2.3694250000000001
 21
71.283625000000001
 31
0.0
  0
ENDBLK
  5
A5
  8
0
  0
BLOCK
  8
0
  2
*D6
 70
     1
 10
0.0
 20
0.0
 30
0.0
  3
*D6
  1

  0
LINE
  5
B3
  8
001
 10
185.2858819999999
 20
50.814485999999981
 30
0.0
 11
185.2858819999999
 21
13.775069999999999
 31
0.0
  0
LINE
  5
B4
  8
001
 10
20.285882000000001
 20
43.388483000000001
 30
0.0
 11
20.285882000000001
 21
13.775069999999999
 31
0.0
  0
LINE
  5
B5
  8
001
 10
185.2858819999999
 20
16.525069999999999
 30
0.0
 11
20.285882000000001
 21
16.525069999999999
 31
0.0
  0
POLYLINE
  5
B6
  8
001
 66
     1
 10
0.0
 20
0.0
 30
0.0
  0
VERTEX
  5
29C
  8
001
 10
183.78588199999999
 20
16.926994000000001
 30
0.0
  0
VERTEX
  5
29D
  8
001
 10
185.2858819999999
 20
16.525069999999999
 30
0.0
  0
VERTEX
  5
29E
  8
001
 10
183.78588199999999
 20
16.123145999999998
 30
0.0
  0
SEQEND
  5
29F
  8
001
  0
POLYLINE
  5
BB
  8
001
 66
     1
 10
0.0
 20
0.0
 30
0.0
  0
VERTEX
  5
2A0
  8
001
 10
21.785882000000001
 20
16.123145999999998
 30
0.0
  0
VERTEX
  5
2A1
  8
001
 10
20.285882000000001
 20
16.525069999999999
 30
0.0
  0
VERTEX
  5
2A2
  8
001
 10
21.785882000000001
 20
16.926994000000001
 30
0.0
  0
SEQEND
  5
2A3
  8
001
  0
TEXT
  5
C0
  8
001
 10
96.785882000000001
 20
17.525069999999999
 30
0.0
 40
4.0
  1
１６５
 41
0.833333
  0
POINT
  5
C1
  8
001
 10
185.2858819999999
 20
50.814485999999981
 30
0.0
  0
POINT
  5
C2
  8
001
 10
20.285882000000001
 20
43.388483000000001
 30
0.0
  0
POINT
  5
C3
  8
001
 10
20.285882000000001
 20
16.525069999999999
 30
0.0
  0
ENDBLK
  5
B2
  8
0
  0
BLOCK
  8
0
  2
*D7
 70
     1
 10
0.0
 20
0.0
 30
0.0
  3
*D7
  1

  0
LINE
  5
C7
  8
001
 10
53.285881999999987
 20
46.814485999999981
 30
0.0
 11
53.285881999999987
 21
23.390832
 31
0.0
  0
LINE
  5
C8
  8
001
 10
185.2858819999999
 20
50.814485999999981
 30
0.0
 11
185.2858819999999
 21
23.390832
 31
0.0
  0
LINE
  5
C9
  8
001
 10
53.285881999999987
 20
26.140832
 30
0.0
 11
185.2858819999999
 21
26.140832
 31
0.0
  0
POLYLINE
  5
CA
  8
001
 66
     1
 10
0.0
 20
0.0
 30
0.0
  0
VERTEX
  5
2A4
  8
001
 10
54.785881999999987
 20
25.738907999999999
 30
0.0
  0
VERTEX
  5
2A5
  8
001
 10
53.285881999999987
 20
26.140832
 30
0.0
  0
VERTEX
  5
2A6
  8
001
 10
54.785881999999987
 20
26.542756000000001
 30
0.0
  0
SEQEND
  5
2A7
  8
001
  0
POLYLINE
  5
CF
  8
001
 66
     1
 10
0.0
 20
0.0
 30
0.0
  0
VERTEX
  5
2A8
  8
001
 10
183.78588199999999
 20
26.542756000000001
 30
0.0
  0
VERTEX
  5
2A9
  8
001
 10
185.2858819999999
 20
26.140832
 30
0.0
  0
VERTEX
  5
2AA
  8
001
 10
183.78588199999999
 20
25.738907999999999
 30
0.0
  0
SEQEND
  5
2AB
  8
001
  0
TEXT
  5
D4
  8
001
 10
113.285882
 20
27.140832
 30
0.0
 40
4.0
  1
１３２
 41
0.833333
  0
POINT
  5
D5
  8
001
 10
53.285881999999987
 20
46.814485999999981
 30
0.0
  0
POINT
  5
D6
  8
001
 10
185.2858819999999
 20
50.814485999999981
 30
0.0
  0
POINT
  5
D7
  8
001
 10
185.2858819999999
 20
26.140832
 30
0.0
  0
ENDBLK
  5
C6
  8
0
  0
BLOCK
  8
0
  2
*D8
 70
     1
 10
0.0
 20
0.0
 30
0.0
  3
*D8
  1

  0
LINE
  5
1E0
  8
0
 62
     0
 10
25.058591738241599
 20
45.931123261758401
 30
0.0
 11
36.649498960177588
 21
34.340216039822437
 31
0.0
  0
ARC
  5
1E1
  8
0
 62
     0
 10
20.175229000000009
 20
50.814485999999981
 30
0.0
 40
22.048136007878782
 50
321.500154657096
 51
45.000000000000078
  0
INSERT
  5
1E2
  8
0
 62
     0
  2
_OPEN30
 10
35.765615483694397
 20
35.224099516305621
 30
0.0
 41
2.5
 42
2.5
 43
2.5
 50
228.250077328548
  0
INSERT
  5
1E3
  8
0
  2
*U13
 10
0.0
 20
0.0
 30
0.0
  0
POINT
  5
1E4
  8
DEFPOINTS
 62
     0
 10
41.472092991544073
 20
56.520963507849679
 30
0.0
  0
POINT
  5
1E5
  8
DEFPOINTS
 62
     0
 10
24.61665
 20
46.37306499999999
 30
0.0
  0
POINT
  5
1E6
  8
DEFPOINTS
 62
     0
 10
24.61665
 20
55.255906999999972
 30
0.0
  0
POINT
  5
1E7
  8
DEFPOINTS
 62
     0
 10
20.344460999999988
 20
50.983717999999982
 30
0.0
  0
POINT
  5
1E8
  8
DEFPOINTS
 62
     0
 10
20.344460999999999
 20
50.645253999999987
 30
0.0
  0
ENDBLK
  5
1E9
  8
0
  0
BLOCK
  8
0
  2
_NONE
 70
     0
 10
0.0
 20
0.0
 30
0.0
  3
_NONE
  1

  0
ENDBLK
  5
1EC
  8
0
  0
BLOCK
  8
0
  2
_OPEN30
 70
     0
 10
0.0
 20
0.0
 30
0.0
  3
_OPEN30
  1

  0
LINE
  5
1EF
  8
0
  6
BYBLOCK
 62
     0
 10
-1.0
 20
0.26794919
 30
0.0
 11
0.0
 21
0.0
 31
0.0
  0
LINE
  5
1F0
  8
0
  6
BYBLOCK
 62
     0
 10
0.0
 20
0.0
 30
0.0
 11
-1.0
 21
-0.26794919
 31
0.0
  0
LINE
  5
1F1
  8
0
  6
BYBLOCK
 62
     0
 10
0.0
 20
0.0
 30
0.0
 11
-1.0
 21
0.0
 31
0.0
  0
ENDBLK
  5
1F2
  8
0
  0
BLOCK
  8
0
  2
*D12
 70
     1
 10
0.0
 20
0.0
 30
0.0
  3
*D12
  1

  0
LINE
  5
2DA
  8
0
 62
     0
 10
24.616650000000011
 20
46.373065000000011
 30
0.0
 11
36.207557221935971
 21
34.782157778064018
 31
0.0
  0
ARC
  5
2DB
  8
0
 62
     0
 10
19.73328726175842
 20
51.256427738241591
 30
0.0
 40
22.048136007878771
 50
321.50015465709589
 51
45.000000000000078
  0
INSERT
  5
2DC
  8
0
 62
     0
  2
_OPEN30
 10
35.323673745452787
 20
35.66604125454721
 30
0.0
 41
2.5
 42
2.5
 43
2.5
 50
228.25007732854789
  0
TEXT
  8
0
  40
2.5
  5
2E3
  62
0
  72
0
  71
0
 10
33.5944
 20
39.6751
 30
0.000000
  1
90°
  0
POINT
  5
2DE
  8
DEFPOINTS
 62
     0
 10
41.030151253302492
 20
56.962905246091282
 30
0.0
  0
POINT
  5
2DF
  8
DEFPOINTS
 62
     0
 10
24.174708261758418
 20
46.815006738241593
 30
0.0
  0
POINT
  5
2E0
  8
DEFPOINTS
 62
     0
 10
24.174708261758418
 20
55.697848738241582
 30
0.0
  0
POINT
  5
2E1
  8
DEFPOINTS
 62
     0
 10
19.90251926175841
 20
51.425659738241578
 30
0.0
  0
POINT
  5
2E2
  8
DEFPOINTS
 62
     0
 10
19.90251926175841
 20
51.087195738241611
 30
0.0
  0
ENDBLK
  5
205
  8
0
  0
BLOCK
  8
0
  2
*U13
 70
     1
 10
0.0
 20
0.0
 30
0.0
  3
*U13
  1

  0
TEXT
  5
2D7
  8
0
 62
     0
 10
38.859994727865512
 20
39.66966557892696
 30
0.0
 40
2.5
  1
90°
 50
69.222178124737241
  0
ENDBLK
  5
2D9
  8
0
  0
ENDSEC
  0
SECTION
  2
ENTITIES
  0
DIMENSION
  5
D8
  8
001
  2
*D2
 10
53.285881999999987
 20
26.140832
 30
0.0
 11
36.785882000000001
 21
29.140832
 31
0.0
 70
   128
 13
20.285882000000001
 23
43.388483000000001
 33
0.0
 14
53.285881999999987
 24
46.814485999999981
 34
0.0
  0
DIMENSION
  5
DA
  8
001
  2
*D4
 10
202.40743699999999
 20
45.814485999999981
 30
0.0
 11
199.40743699999999
 21
36.314486000000009
 31
0.0
 70
   128
 13
183.28588199999999
 23
55.814485999999981
 33
0.0
 14
183.28588199999999
 24
45.814485999999981
 34
0.0
 50
270.0
  0
TEXT
  5
DB
  8
001
 10
11.550179
 20
46.814485999999981
 30
0.0
 40
4.0
  1
%%c９
 50
90.000003000000007
 41
0.9090909999999999
  0
POLYLINE
  5
DC
  8
001
 66
     1
 10
0.0
 20
0.0
 30
0.0
  0
VERTEX
  5
2AC
  8
001
 10
12.952102999999999
 20
47.814486000000002
 30
0.0
  0
VERTEX
  5
2AD
  8
001
 10
12.550179
 20
46.314485999999981
 30
0.0
  0
VERTEX
  5
2AE
  8
001
 10
12.148256
 20
47.814486000000002
 30
0.0
  0
SEQEND
  5
2AF
  8
001
  0
LINE
  5
E1
  8
001
 10
12.550179
 20
55.314486000000002
 30
0.0
 11
12.550179
 21
46.314485999999981
 31
0.0
  0
POLYLINE
  5
E2
  8
001
 66
     1
 10
0.0
 20
0.0
 30
0.0
  0
VERTEX
  5
2B0
  8
001
 10
18.874651
 20
46.314485999999981
 30
0.0
  0
VERTEX
  5
2B1
  8
001
 10
12.550179
 20
46.314485999999981
 30
0.0
  0
VERTEX
  5
2B2
  8
001
 10
9.8001789999999982
 20
46.314485999999981
 30
0.0
  0
SEQEND
  5
2B3
  8
001
  0
DIMENSION
  5
E7
  8
001
  2
*D5
 10
20.485882
 20
50.786675000000002
 30
0.0
 11
10.80062
 21
63.502243
 31
0.0
 70
   132
 15
20.336988000000002
 25
50.920206
 35
0.0
 40
0.0
  0
DIMENSION
  5
E8
  8
001
  2
*D6
 10
20.285882000000001
 20
16.525069999999999
 30
0.0
 11
102.785882
 21
19.525069999999999
 31
0.0
 70
   128
 13
185.2858819999999
 23
50.814485999999981
 33
0.0
 14
20.285882000000001
 24
43.388483000000001
 34
0.0
 50
180.0
  0
DIMENSION
  5
E9
  8
001
  2
*D7
 10
185.2858819999999
 20
26.140832
 30
0.0
 11
119.285882
 21
29.140832
 31
0.0
 70
   128
 13
53.285881999999987
 23
46.814485999999981
 33
0.0
 14
185.2858819999999
 24
50.814485999999981
 34
0.0
  0
LINE
  5
EA
  8
001
 10
24.61665
 20
46.373064999999997
 30
0.0
 11
20.344460999999999
 21
50.645254000000001
 31
0.0
  0
LINE
  5
EB
  8
001
 10
25.576447000000002
 20
54.393523999999999
 30
0.0
 11
29.848635999999999
 21
50.121335000000002
 31
0.0
  0
LINE
  5
EC
  8
001
 10
20.371167
 20
50.950505999999997
 30
0.0
 11
25.320309999999999
 21
54.415933000000003
 31
0.0
  0
LINE
  5
ED
  8
001
 10
24.872786999999999
 20
46.350655999999987
 30
0.0
 11
29.821929999999998
 21
49.816082999999999
 31
0.0
  0
CIRCLE
  5
EE
  8
001
 10
25.096549
 20
50.383293999999999
 30
0.0
 40
1.7
  0
LINE
  5
EF
  8
001
 10
28.519956000000001
 20
48.904431000000002
 30
0.0
 11
26.775706
 21
50.648679999999999
 31
0.0
  0
LINE
  5
F0
  8
001
 10
25.361934999999999
 20
52.062452
 30
0.0
 11
23.960560000000001
 21
53.463825999999997
 31
0.0
  0
LINE
  5
F1
  8
001
 10
26.232537000000001
 20
47.302762999999977
 30
0.0
 11
24.831163
 21
48.704137000000003
 31
0.0
  0
LINE
  5
F2
  8
001
 10
23.417390999999999
 20
50.117907999999993
 30
0.0
 11
21.673141000000001
 21
51.862158000000001
 31
0.0
  0
ARC
  5
F3
  8
001
 10
29.707215000000001
 20
49.979913000000003
 30
0.0
 40
0.2
 50
305.0
 51
45.0
  0
ARC
  5
F4
  8
001
 10
25.435025
 20
54.252102999999991
 30
0.0
 40
0.2
 50
45.0
 51
125.0
  0
ARC
  5
F5
  8
001
 10
20.485882
 20
50.786675000000002
 30
0.0
 40
0.2
 50
125.0
 51
225.0
  0
ARC
  5
F6
  8
001
 10
24.758071999999999
 20
46.514485999999998
 30
0.0
 40
0.2
 50
225.0
 51
305.0
  0
LINE
  5
F7
  8
001
 10
53.285881999999987
 20
46.814485999999981
 30
0.0
 11
25.535205000000001
 21
46.814485999999981
 31
0.0
  0
LINE
  5
F8
  8
001
 10
26.238192000000002
 20
54.814486000000002
 30
0.0
 11
53.285881999999987
 21
54.814486000000002
 31
0.0
  0
LINE
  5
F9
  8
001
 10
185.2858819999999
 20
47.814486000000002
 30
0.0
 11
185.2858819999999
 21
53.814485999999981
 31
0.0
  0
LINE
  5
FA
  8
001
 10
54.285882000000001
 20
55.814485999999981
 30
0.0
 11
183.28588199999999
 21
55.814485999999981
 31
0.0
  0
LINE
  5
FB
  8
001
 10
54.285882000000001
 20
45.814485999999981
 30
0.0
 11
183.28588199999999
 21
45.814485999999981
 31
0.0
  0
ARC
  5
FC
  8
001
 10
183.28588199999999
 20
53.814485999999981
 30
0.0
 40
2.0
 50
0.0
 51
90.0
  0
ARC
  5
FD
  8
001
 10
183.28588199999999
 20
47.814486000000002
 30
0.0
 40
2.0
 50
270.0
 51
0.0
  0
LINE
  5
FE
  8
001
 10
53.285881999999987
 20
54.814486000000002
 30
0.0
 11
54.285882000000001
 21
55.814485999999981
 31
0.0
  0
LINE
  5
FF
  8
001
 10
53.285881999999987
 20
46.814485999999981
 30
0.0
 11
54.285882000000001
 21
45.814485999999981
 31
0.0
  0
LINE
  5
100
  8
001
 10
54.285882000000001
 20
45.814485999999981
 30
0.0
 11
54.285882000000001
 21
55.814485999999981
 31
0.0
  0
LINE
  5
101
  8
001
 10
53.285881999999987
 20
46.814485999999981
 30
0.0
 11
53.285881999999987
 21
54.814486000000002
 31
0.0
  0
LINE
  5
102
  8
001
 10
26.238192000000002
 20
54.814486000000002
 30
0.0
 11
25.601382999999998
 21
54.368588000000003
 31
0.0
  0
LINE
  5
103
  8
001
 10
20.285882000000001
 20
50.814485999999981
 30
0.0
 11
20.285882000000001
 21
43.388483000000001
 31
0.0
  0
LINE
  5
104
  8
001
 10
185.2858819999999
 20
50.814485999999981
 30
0.0
 11
188.78922399999999
 21
52.837141000000003
 31
0.0
  0
LINE
  5
105
  8
001
 10
185.2858819999999
 20
50.814485999999981
 30
0.0
 11
188.78922399999999
 21
48.791831000000002
 31
0.0
  0
LINE
  5
106
  8
001
 10
24.758071999999999
 20
46.314485999999981
 30
0.0
 11
18.874651
 21
46.314485999999981
 31
0.0
  0
ARC
  5
107
  8
001
 10
29.109497999999999
 20
50.032206999999993
 30
0.0
 40
1.5
 50
237.98240200000001
 51
112.01759800000001
  0
ARC
  5
123
  8
001
 10
25.096549
 20
51.343294
 30
0.0
 40
0.24
 50
15.497709
 51
164.5022909999999
  0
ARC
  5
124
  8
001
 10
24.43665
 20
51.526271999999999
 30
0.0
 40
0.4447968694145123
 50
255.49770899999999
 51
344.50229100000001
  0
ARC
  5
125
  8
001
 10
24.265164000000009
 20
50.863294000000003
 30
0.0
 40
0.24
 50
75.497709
 51
224.50229100000001
  0
ARC
  5
126
  8
001
 10
23.776751999999998
 20
50.383293999999999
 30
0.0
 40
0.4447968694145123
 50
315.49770899999999
 51
44.502291
  0
ARC
  5
127
  8
001
 10
24.265164000000009
 20
49.903294000000002
 30
0.0
 40
0.24
 50
135.49770899999999
 51
284.50229100000001
  0
ARC
  5
128
  8
001
 10
24.43665
 20
49.240316999999997
 30
0.0
 40
0.4447968694145123
 50
15.497709
 51
104.502291
  0
ARC
  5
129
  8
001
 10
25.096549
 20
49.423293999999999
 30
0.0
 40
0.24
 50
195.49770899999999
 51
344.50229100000001
  0
ARC
  5
12A
  8
001
 10
25.756447000000001
 20
49.240316999999997
 30
0.0
 40
0.4447968694145123
 50
75.497709
 51
164.5022909999999
  0
ARC
  5
12B
  8
001
 10
25.927932999999999
 20
49.903294000000002
 30
0.0
 40
0.24
 50
255.49770899999999
 51
44.502291
  0
ARC
  5
12C
  8
001
 10
26.416345
 20
50.383293999999999
 30
0.0
 40
0.4447968694145123
 50
135.49770899999999
 51
224.50229100000001
  0
ARC
  5
12D
  8
001
 10
25.927932999999999
 20
50.863294000000003
 30
0.0
 40
0.24
 50
315.49770899999999
 51
104.502291
  0
ARC
  5
12E
  8
001
 10
25.756447000000001
 20
51.526271999999999
 30
0.0
 40
0.4447968694145123
 50
195.49770899999999
 51
284.50229100000001
  0
CIRCLE
  5
12F
  8
001
 10
25.096549
 20
50.383293999999999
 30
0.0
 40
1.55
  0
TEXT
  5
130
  8
001
 10
12.448986
 20
75.571021999999999
 30
0.0
 40
4.0
  1
ＳＣＭ１０４５ＣＬ
 41
0.833333
  0
LINE
  5
131
  8
001
  6
CENTER
 10
17.968807000000002
 20
50.814485999999981
 30
0.0
 11
190.77345500000001
 21
50.814485999999981
 31
0.0
  0
POLYLINE
  5
175
  8
001
 66
     1
 10
0.0
 20
0.0
 30
0.0
  0
VERTEX
  5
2B4
  8
001
 10
26.269593040193691
 20
47.328710052075351
 30
0.0
  0
VERTEX
  5
2B5
  8
001
 10
26.523388000000001
 20
47.374850999999992
 30
0.0
  0
VERTEX
  5
2B6
  8
001
 10
27.653203000000001
 20
47.614336999999999
 30
0.0
  0
VERTEX
  5
2B7
  8
001
 10
28.544678999999999
 20
47.848874000000002
 30
0.0
  0
VERTEX
  5
2B8
  8
001
 10
29.354749000000002
 20
48.116013000000002
 30
0.0
  0
VERTEX
  5
2B9
  8
001
 10
30.05087700000001
 20
48.388032000000003
 30
0.0
  0
VERTEX
  5
2BA
  8
001
 10
30.739747999999999
 20
48.711686
 30
0.0
  0
VERTEX
  5
2BB
  8
001
 10
31.268996999999999
 20
49.018715
 30
0.0
  0
VERTEX
  5
2BC
  8
001
 10
31.759955999999999
 20
49.380608000000002
 30
0.0
  0
VERTEX
  5
2BD
  8
001
 10
32.10338800000001
 20
49.711469000000001
 30
0.0
  0
VERTEX
  5
2BE
  8
001
 10
32.379834000000002
 20
50.099477999999991
 30
0.0
  0
VERTEX
  5
2BF
  8
001
 10
32.527543000000001
 20
50.460428999999991
 30
0.0
  0
VERTEX
  5
2C0
  8
001
 10
32.577790999999998
 20
50.843253999999988
 30
0.0
  0
VERTEX
  5
2C1
  8
001
 10
32.510593
 20
51.227383000000003
 30
0.0
  0
VERTEX
  5
2C2
  8
001
 10
32.34693
 20
51.586027000000001
 30
0.0
  0
VERTEX
  5
2C3
  8
001
 10
32.052979999999998
 20
51.973025999999997
 30
0.0
  0
VERTEX
  5
2C4
  8
001
 10
31.695292999999999
 20
52.301924999999997
 30
0.0
  0
VERTEX
  5
2C5
  8
001
 10
31.188915999999999
 20
52.661110999999991
 30
0.0
  0
VERTEX
  5
2C6
  8
001
 10
30.645579000000001
 20
52.96600999999999
 30
0.0
  0
VERTEX
  5
2C7
  8
001
 10
29.943016
 20
53.286158999999991
 30
0.0
  0
VERTEX
  5
2C8
  8
001
 10
29.234354
 20
53.555149999999998
 30
0.0
  0
VERTEX
  5
2C9
  8
001
 10
28.413509000000001
 20
53.818218999999992
 30
0.0
  0
VERTEX
  5
2CA
  8
001
 10
27.510774999999999
 20
54.048821999999987
 30
0.0
  0
VERTEX
  5
2CB
  8
001
 10
26.370926000000001
 20
54.282905000000007
 30
0.0
  0
VERTEX
  5
2CC
  8
001
 10
25.657956430730589
 20
54.408201101598621
 30
0.0
  0
SEQEND
  5
2CD
  8
001
  0
DIMENSION
  5
1F9
  8
0
  2
*D12
 10
19.90251926175841
 20
51.087195738241611
 30
0.0
 11
40.34748000677299
 21
43.434959916067207
 31
0.0
 70
   130
 13
24.174708261758418
 23
55.697848738241589
 33
0.0
 14
19.90251926175841
 24
51.425659738241578
 34
0.0
 15
24.174708261758418
 25
46.8150067382416
 35
0.0
 16
41.030151253302492
 26
56.962905246091282
 36
0.0
1001
ACAD
1000
DSTYLE
1002
{
1070
   287
1070
     3
1070
   271
1070
     0
1070
     7
1000
NONE
1070
   173
1070
     1
1070
     6
1000
OPEN30
1070
    76
1070
     1
1070
   141
1040
0.09
1070
   279
1070
     0
1070
   284
1070
     0
1070
   285
1070
     0
1070
   286
1070
     0
1002
}
  0
ENDSEC
  0
EOF
