  0
SECTION
  2
HEADER
  9
$ACADVER
  1
AC1015
  9
$ACADMAINTVER
 70
     6
  9
$DWGCODEPAGE
  3
ANSI_932
  9
$INSBASE
 10
0.0
 20
0.0
 30
0.0
  9
$EXTMIN
 10
13.134689
 20
-2.249619
 30
0.0
  9
$EXTMAX
 10
223.134689
 20
90.143753
 30
0.0
  9
$LIMMIN
 10
0.0
 20
0.0
  9
$LIMMAX
 10
12.0
 20
9.0
  9
$ORTHOMODE
 70
     0
  9
$REGENMODE
 70
     1
  9
$FILLMODE
 70
     1
  9
$QTEXTMODE
 70
     0
  9
$MIRRTEXT
 70
     1
  9
$LTSCALE
 40
2.294265
  9
$ATTMODE
 70
     1
  9
$TEXTSIZE
 40
3.2
  9
$TRACEWID
 40
1.0
  9
$TEXTSTYLE
  7
Standard
  9
$CLAYER
  8
0
  9
$CELTYPE
  6
ByLayer
  9
$CECOLOR
 62
   256
  9
$CELTSCALE
 40
1.0
  9
$DISPSILH
 70
     0
  9
$DIMSCALE
 40
1.0
  9
$DIMASZ
 40
2.5
  9
$DIMEXO
 40
0.625
  9
$DIMDLI
 40
3.75
  9
$DIMRND
 40
0.0
  9
$DIMDLE
 40
0.0
  9
$DIMEXE
 40
1.25
  9
$DIMTP
 40
0.0
  9
$DIMTM
 40
0.0
  9
$DIMTXT
 40
2.5
  9
$DIMCEN
 40
0.09
  9
$DIMTSZ
 40
0.0
  9
$DIMTOL
 70
     0
  9
$DIMLIM
 70
     0
  9
$DIMTIH
 70
     0
  9
$DIMTOH
 70
     0
  9
$DIMSE1
 70
     0
  9
$DIMSE2
 70
     0
  9
$DIMTAD
 70
     0
  9
$DIMZIN
 70
     8
  9
$DIMBLK
  1

  9
$DIMASO
 70
     1
  9
$DIMSHO
 70
     0
  9
$DIMPOST
  1

  9
$DIMAPOST
  1

  9
$DIMALT
 70
     0
  9
$DIMALTD
 70
     3
  9
$DIMALTF
 40
0.03937
  9
$DIMLFAC
 40
1.0
  9
$DIMTOFL
 70
     1
  9
$DIMTVP
 40
0.0
  9
$DIMTIX
 70
     0
  9
$DIMSOXD
 70
     0
  9
$DIMSAH
 70
     0
  9
$DIMBLK1
  1

  9
$DIMBLK2
  1

  9
$DIMSTYLE
  2
ISO-25
  9
$DIMCLRD
 70
     0
  9
$DIMCLRE
 70
     0
  9
$DIMCLRT
 70
     0
  9
$DIMTFAC
 40
1.0
  9
$DIMGAP
 40
0.625
  9
$DIMJUST
 70
     0
  9
$DIMSD1
 70
     0
  9
$DIMSD2
 70
     0
  9
$DIMTOLJ
 70
     0
  9
$DIMTZIN
 70
     8
  9
$DIMALTZ
 70
     0
  9
$DIMALTTZ
 70
     0
  9
$DIMUPT
 70
     0
  9
$DIMDEC
 70
     2
  9
$DIMTDEC
 70
     2
  9
$DIMALTU
 70
     2
  9
$DIMALTTD
 70
     3
  9
$DIMTXSTY
  7
Standard
  9
$DIMAUNIT
 70
     0
  9
$DIMADEC
 70
     0
  9
$DIMALTRND
 40
0.0
  9
$DIMAZIN
 70
     0
  9
$DIMDSEP
 70
    44
  9
$DIMATFIT
 70
     3
  9
$DIMFRAC
 70
     0
  9
$DIMLDRBLK
  1

  9
$DIMLUNIT
 70
     2
  9
$DIMLWD
 70
    -2
  9
$DIMLWE
 70
    -2
  9
$DIMTMOVE
 70
     0
  9
$LUNITS
 70
     2
  9
$LUPREC
 70
     4
  9
$SKETCHINC
 40
1.0
  9
$FILLETRAD
 40
0.0
  9
$AUNITS
 70
     0
  9
$AUPREC
 70
     0
  9
$MENU
  1
.
  9
$ELEVATION
 40
0.0
  9
$PELEVATION
 40
0.0
  9
$THICKNESS
 40
0.0
  9
$LIMCHECK
 70
     0
  9
$CHAMFERA
 40
10.0
  9
$CHAMFERB
 40
10.0
  9
$CHAMFERC
 40
20.0
  9
$CHAMFERD
 40
0.0
  9
$SKPOLY
 70
     0
  9
$TDCREATE
 40
2454798.6765625
  9
$TDUCREATE
 40
2454798.3015625
  9
$TDUPDATE
 40
2454798.676562511
  9
$TDUUPDATE
 40
2454798.301562511
  9
$TDINDWG
 40
0.0000000116
  9
$TDUSRTIMER
 40
0.0000000116
  9
$USRTIMER
 70
     1
  9
$ANGBASE
 50
0.0
  9
$ANGDIR
 70
     0
  9
$PDMODE
 70
     0
  9
$PDSIZE
 40
0.0
  9
$PLINEWID
 40
0.0
  9
$SPLFRAME
 70
     0
  9
$SPLINETYPE
 70
     6
  9
$SPLINESEGS
 70
     8
  9
$HANDSEED
  5
389
  9
$SURFTAB1
 70
     6
  9
$SURFTAB2
 70
     6
  9
$SURFTYPE
 70
     6
  9
$SURFU
 70
     6
  9
$SURFV
 70
     6
  9
$UCSBASE
  2

  9
$UCSNAME
  2

  9
$UCSORG
 10
0.0
 20
0.0
 30
0.0
  9
$UCSXDIR
 10
1.0
 20
0.0
 30
0.0
  9
$UCSYDIR
 10
0.0
 20
1.0
 30
0.0
  9
$UCSORTHOREF
  2

  9
$UCSORTHOVIEW
 70
     0
  9
$UCSORGTOP
 10
0.0
 20
0.0
 30
0.0
  9
$UCSORGBOTTOM
 10
0.0
 20
0.0
 30
0.0
  9
$UCSORGLEFT
 10
0.0
 20
0.0
 30
0.0
  9
$UCSORGRIGHT
 10
0.0
 20
0.0
 30
0.0
  9
$UCSORGFRONT
 10
0.0
 20
0.0
 30
0.0
  9
$UCSORGBACK
 10
0.0
 20
0.0
 30
0.0
  9
$PUCSBASE
  2

  9
$PUCSNAME
  2

  9
$PUCSORG
 10
0.0
 20
0.0
 30
0.0
  9
$PUCSXDIR
 10
1.0
 20
0.0
 30
0.0
  9
$PUCSYDIR
 10
0.0
 20
1.0
 30
0.0
  9
$PUCSORTHOREF
  2

  9
$PUCSORTHOVIEW
 70
     0
  9
$PUCSORGTOP
 10
0.0
 20
0.0
 30
0.0
  9
$PUCSORGBOTTOM
 10
0.0
 20
0.0
 30
0.0
  9
$PUCSORGLEFT
 10
0.0
 20
0.0
 30
0.0
  9
$PUCSORGRIGHT
 10
0.0
 20
0.0
 30
0.0
  9
$PUCSORGFRONT
 10
0.0
 20
0.0
 30
0.0
  9
$PUCSORGBACK
 10
0.0
 20
0.0
 30
0.0
  9
$USERI1
 70
     0
  9
$USERI2
 70
     0
  9
$USERI3
 70
     0
  9
$USERI4
 70
     0
  9
$USERI5
 70
     0
  9
$USERR1
 40
0.0
  9
$USERR2
 40
0.0
  9
$USERR3
 40
0.0
  9
$USERR4
 40
0.0
  9
$USERR5
 40
0.0
  9
$WORLDVIEW
 70
     1
  9
$SHADEDGE
 70
     3
  9
$SHADEDIF
 70
    70
  9
$TILEMODE
 70
     1
  9
$MAXACTVP
 70
    64
  9
$PINSBASE
 10
0.0
 20
0.0
 30
0.0
  9
$PLIMCHECK
 70
     0
  9
$PEXTMIN
 10
1.000000E+20
 20
1.000000E+20
 30
0.0
  9
$PEXTMAX
 10
-1.000000E+20
 20
-1.000000E+20
 30
0.0
  9
$PLIMMIN
 10
0.0
 20
0.0
  9
$PLIMMAX
 10
12.0
 20
9.0
  9
$UNITMODE
 70
     0
  9
$VISRETAIN
 70
     1
  9
$PLINEGEN
 70
     0
  9
$PSLTSCALE
 70
     1
  9
$TREEDEPTH
 70
  3020
  9
$CMLSTYLE
  2
Standard
  9
$CMLJUST
 70
     0
  9
$CMLSCALE
 40
20.0
  9
$PROXYGRAPHICS
 70
     1
  9
$MEASUREMENT
 70
     1
  9
$CELWEIGHT
370
    -1
  9
$ENDCAPS
280
     0
  9
$JOINSTYLE
280
     0
  9
$LWDISPLAY
290
     0
  9
$INSUNITS
 70
     4
  9
$HYPERLINKBASE
  1

  9
$STYLESHEET
  1

  9
$XEDIT
290
     1
  9
$CEPSNTYPE
380
     0
  9
$PSTYLEMODE
290
     1
  9
$FINGERPRINTGUID
  2
{59AE8B56-810D-4044-B103-BA41090C5BBB}
  9
$VERSIONGUID
  2
{FAEB1C32-E019-11D5-929B-00C0DF256EC4}
  9
$EXTNAMES
290
     1
  9
$PSVPSCALE
 40
0.0
  9
$OLESTARTUP
290
     0
  0
ENDSEC
  0
SECTION
  2
CLASSES
  0
CLASS
  1
ACDBDICTIONARYWDFLT
  2
AcDbDictionaryWithDefault
  3
ObjectDBX Classes
 90
        0
280
     0
281
     0
  0
CLASS
  1
VISUALSTYLE
  2
AcDbVisualStyle
  3
ObjectDBX Classes
 90
     4095
280
     0
281
     0
  0
CLASS
  1
SCALE
  2
AcDbScale
  3
ObjectDBX Classes
 90
     1153
280
     0
281
     0
  0
CLASS
  1
DICTIONARYVAR
  2
AcDbDictionaryVar
  3
ObjectDBX Classes
 90
        0
280
     0
281
     0
  0
CLASS
  1
ACDBPLACEHOLDER
  2
AcDbPlaceHolder
  3
ObjectDBX Classes
 90
        0
280
     0
281
     0
  0
CLASS
  1
LAYOUT
  2
AcDbLayout
  3
ObjectDBX Classes
 90
        0
280
     0
281
     0
  0
ENDSEC
  0
SECTION
  2
TABLES
  0
TABLE
  2
VPORT
  5
8
330
0
100
AcDbSymbolTable
 70
     1
  0
VPORT
  5
29
330
8
100
AcDbSymbolTableRecord
100
AcDbViewportTableRecord
  2
*Active
 70
     0
 10
0.0
 20
0.0
 11
1.0
 21
1.0
 12
118.134689
 22
43.947067
 13
0.0
 23
0.0
 14
1.0
 24
1.0
 15
0.0
 25
0.0
 16
0.0
 26
0.0
 36
1.0
 17
0.0
 27
0.0
 37
0.0
 40
125.407382
 41
1.691288
 42
50.0
 43
0.0
 44
0.0
 50
0.0
 51
0.0
 71
     0
 72
   100
 73
     1
 74
     3
 75
     0
 76
     0
 77
     0
 78
     0
281
     0
 65
     1
110
0.0
120
0.0
130
0.0
111
1.0
121
0.0
131
0.0
112
0.0
122
1.0
132
0.0
 79
     0
146
0.0
  0
ENDTAB
  0
TABLE
  2
LTYPE
  5
5
330
0
100
AcDbSymbolTable
 70
     5
  0
LTYPE
  5
14
330
5
100
AcDbSymbolTableRecord
100
AcDbLinetypeTableRecord
  2
ByBlock
 70
     0
  3

 72
    65
 73
     0
 40
0.0
  0
LTYPE
  5
15
330
5
100
AcDbSymbolTableRecord
100
AcDbLinetypeTableRecord
  2
ByLayer
 70
     0
  3

 72
    65
 73
     0
 40
0.0
  0
LTYPE
  5
16
330
5
100
AcDbSymbolTableRecord
100
AcDbLinetypeTableRecord
  2
Continuous
 70
     0
  3
Solid line
 72
    65
 73
     0
 40
0.0
  0
LTYPE
  5
5D
330
5
100
AcDbSymbolTableRecord
100
AcDbLinetypeTableRecord
  2
DASHED
 70
     0
  3
DASHED
 72
    83
 73
     2
 40
0.75
 49
0.5
 74
     0
 49
-0.25
 74
     0
  0
LTYPE
  5
5E
330
5
100
AcDbSymbolTableRecord
100
AcDbLinetypeTableRecord
  2
HIDDEN
 70
     0
  3
HIDDEN
 72
    83
 73
     2
 40
0.375
 49
0.25
 74
     0
 49
-0.125
 74
     0
  0
LTYPE
  5
5F
330
5
100
AcDbSymbolTableRecord
100
AcDbLinetypeTableRecord
  2
CENTER
 70
     0
  3
CENTER
 72
    83
 73
     4
 40
2.0
 49
1.25
 74
     0
 49
-0.25
 74
     0
 49
0.25
 74
     0
 49
-0.25
 74
     0
  0
LTYPE
  5
60
330
5
100
AcDbSymbolTableRecord
100
AcDbLinetypeTableRecord
  2
PHANTOM
 70
     0
  3
PHANTOM
 72
    83
 73
     6
 40
2.5
 49
1.25
 74
     0
 49
-0.25
 74
     0
 49
0.25
 74
     0
 49
-0.25
 74
     0
 49
0.25
 74
     0
 49
-0.25
 74
     0
  0
ENDTAB
  0
TABLE
  2
LAYER
  5
2
330
0
100
AcDbSymbolTable
 70
     2
  0
LAYER
  5
10
330
2
100
AcDbSymbolTableRecord
100
AcDbLayerTableRecord
  2
0
 70
     0
 62
     7
  6
Continuous
370
    -3
390
F
  0
LAYER
  5
61
330
2
100
AcDbSymbolTableRecord
100
AcDbLayerTableRecord
  2
001
 70
     0
 62
     7
  6
Continuous
370
    -3
390
F
  0
ENDTAB
  0
TABLE
  2
STYLE
  5
3
330
0
100
AcDbSymbolTable
 70
     2
  0
STYLE
  5
11
330
3
100
AcDbSymbolTableRecord
100
AcDbTextStyleTableRecord
  2
Standard
 70
     0
 40
0.0
 41
1.0
 50
0.0
 71
     0
 42
0.2
  3
TXT
  4
BIGFONT
  0
STYLE
  5
62
330
3
100
AcDbSymbolTableRecord
100
AcDbTextStyleTableRecord
  2
TATEGAKI
 70
     4
 40
1.0
 41
1.0
 50
0.0
 71
     0
 42
0.2
  3
TXT
  4
BIGFONT
  0
ENDTAB
  0
TABLE
  2
VIEW
  5
6
330
0
100
AcDbSymbolTable
 70
     0
  0
ENDTAB
  0
TABLE
  2
UCS
  5
7
330
0
100
AcDbSymbolTable
 70
     0
  0
ENDTAB
  0
TABLE
  2
APPID
  5
9
330
0
100
AcDbSymbolTable
 70
     1
  0
APPID
  5
12
330
9
100
AcDbSymbolTableRecord
100
AcDbRegAppTableRecord
  2
ACAD
 70
     0
  0
ENDTAB
  0
TABLE
  2
DIMSTYLE
  5
A
330
0
100
AcDbSymbolTable
 70
     2
100
AcDbDimStyleTable
  0
DIMSTYLE
105
27
330
A
100
AcDbSymbolTableRecord
100
AcDbDimStyleTableRecord
  2
ISO-25
 70
     0
 41
2.5
 42
0.625
 43
3.75
 44
1.25
 73
     0
 74
     0
 77
     1
 78
     8
140
2.5
141
2.5
143
0.03937
147
0.625
171
     3
172
     1
271
     2
272
     2
274
     3
278
    44
283
     0
284
     8
340
11
  0
DIMSTYLE
105
63
102
{ACAD_REACTORS
330
F7
330
F8
330
F9
330
FA
330
FB
330
FC
102
}
330
A
100
AcDbSymbolTableRecord
100
AcDbDimStyleTableRecord
  2
Standard
 70
     0
 41
1.5
 42
0.0
 44
2.75
 73
     0
 74
     0
 77
     1
 78
     8
 79
     2
140
4.0
146
0.8
147
1.0
172
     1
179
     1
271
     1
340
11
  0
ENDTAB
  0
TABLE
  2
BLOCK_RECORD
  5
1
330
0
100
AcDbSymbolTable
 70
     7
  0
BLOCK_RECORD
  5
1F
330
1
100
AcDbSymbolTableRecord
100
AcDbBlockTableRecord
  2
*Model_Space
340
22
  0
BLOCK_RECORD
  5
1B
330
1
100
AcDbSymbolTableRecord
100
AcDbBlockTableRecord
  2
*Paper_Space
340
1E
  0
BLOCK_RECORD
  5
23
330
1
100
AcDbSymbolTableRecord
100
AcDbBlockTableRecord
  2
*Paper_Space0
340
26
  0
BLOCK_RECORD
  5
64
330
1
100
AcDbSymbolTableRecord
100
AcDbBlockTableRecord
  2
*D1
340
0
  0
BLOCK_RECORD
  5
78
330
1
100
AcDbSymbolTableRecord
100
AcDbBlockTableRecord
  2
*D2
340
0
  0
BLOCK_RECORD
  5
8C
330
1
100
AcDbSymbolTableRecord
100
AcDbBlockTableRecord
  2
*D3
340
0
  0
BLOCK_RECORD
  5
A0
330
1
100
AcDbSymbolTableRecord
100
AcDbBlockTableRecord
  2
*D4
340
0
  0
BLOCK_RECORD
  5
B4
330
1
100
AcDbSymbolTableRecord
100
AcDbBlockTableRecord
  2
*D5
340
0
  0
BLOCK_RECORD
  5
C9
330
1
100
AcDbSymbolTableRecord
100
AcDbBlockTableRecord
  2
*D6
340
0
  0
ENDTAB
  0
ENDSEC
  0
SECTION
  2
BLOCKS
  0
BLOCK
  5
20
330
1F
100
AcDbEntity
  8
0
100
AcDbBlockBegin
  2
*Model_Space
 70
     0
 10
0.0
 20
0.0
 30
0.0
  3
*Model_Space
  1

  0
ENDBLK
  5
21
330
1F
100
AcDbEntity
  8
0
100
AcDbBlockEnd
  0
BLOCK
  5
1C
330
1B
100
AcDbEntity
 67
     1
  8
0
100
AcDbBlockBegin
  2
*Paper_Space
 70
     0
 10
0.0
 20
0.0
 30
0.0
  3
*Paper_Space
  1

  0
ENDBLK
  5
1D
330
1B
100
AcDbEntity
 67
     1
  8
0
100
AcDbBlockEnd
  0
BLOCK
  5
24
330
23
100
AcDbEntity
  8
0
100
AcDbBlockBegin
  2
*Paper_Space0
 70
     0
 10
0.0
 20
0.0
 30
0.0
  3
*Paper_Space0
  1

  0
ENDBLK
  5
25
330
23
100
AcDbEntity
  8
0
100
AcDbBlockEnd
  0
BLOCK
  5
65
330
64
100
AcDbEntity
  8
0
100
AcDbBlockBegin
  2
*D1
 70
     1
 10
0.0
 20
0.0
 30
0.0
  3
*D1
  1

  0
LINE
  5
67
330
64
100
AcDbEntity
  8
001
370
     9
100
AcDbLine
 10
90.820728
 20
33.534677
 30
0.0
 11
90.820728
 21
7.105051
 31
0.0
  0
LINE
  5
68
330
64
100
AcDbEntity
  8
001
370
     9
100
AcDbLine
 10
62.820728
 20
35.634677
 30
0.0
 11
62.820728
 21
7.105051
 31
0.0
  0
LINE
  5
69
330
64
100
AcDbEntity
  8
001
370
     9
100
AcDbLine
 10
90.820728
 20
9.855051
 30
0.0
 11
62.820728
 21
9.855051
 31
0.0
  0
POLYLINE
  5
6A
330
64
100
AcDbEntity
  8
001
370
     9
100
AcDb2dPolyline
 66
     1
 10
0.0
 20
0.0
 30
0.0
  0
VERTEX
  5
6C
330
6A
100
AcDbEntity
  8
001
370
     9
100
AcDbVertex
100
AcDb2dVertex
 10
89.320728
 20
10.256975
 30
0.0
  0
VERTEX
  5
6D
330
6A
100
AcDbEntity
  8
001
370
     9
100
AcDbVertex
100
AcDb2dVertex
 10
90.820728
 20
9.855051
 30
0.0
  0
VERTEX
  5
6E
330
6A
100
AcDbEntity
  8
001
370
     9
100
AcDbVertex
100
AcDb2dVertex
 10
89.320728
 20
9.453127
 30
0.0
  0
SEQEND
  5
6B
330
6A
100
AcDbEntity
  8
001
370
     9
  0
POLYLINE
  5
6F
330
64
100
AcDbEntity
  8
001
370
     9
100
AcDb2dPolyline
 66
     1
 10
0.0
 20
0.0
 30
0.0
  0
VERTEX
  5
71
330
6F
100
AcDbEntity
  8
001
370
     9
100
AcDbVertex
100
AcDb2dVertex
 10
64.320728
 20
9.453127
 30
0.0
  0
VERTEX
  5
72
330
6F
100
AcDbEntity
  8
001
370
     9
100
AcDbVertex
100
AcDb2dVertex
 10
62.820728
 20
9.855051
 30
0.0
  0
VERTEX
  5
73
330
6F
100
AcDbEntity
  8
001
370
     9
100
AcDbVertex
100
AcDb2dVertex
 10
64.320728
 20
10.256975
 30
0.0
  0
SEQEND
  5
70
330
6F
100
AcDbEntity
  8
001
370
     9
  0
TEXT
  5
74
330
64
100
AcDbEntity
  8
001
370
    30
100
AcDbText
 10
72.820728
 20
10.855051
 30
0.0
 40
4.0
  1
２８
 41
0.833333
100
AcDbText
  0
POINT
  5
75
330
64
100
AcDbEntity
  8
001
370
     9
100
AcDbPoint
 10
90.820728
 20
33.534677
 30
0.0
  0
POINT
  5
76
330
64
100
AcDbEntity
  8
001
370
     9
100
AcDbPoint
 10
62.820728
 20
35.634677
 30
0.0
  0
POINT
  5
77
330
64
100
AcDbEntity
  8
001
370
     9
100
AcDbPoint
 10
62.820728
 20
9.855051
 30
0.0
  0
ENDBLK
  5
66
330
64
100
AcDbEntity
  8
0
100
AcDbBlockEnd
  0
BLOCK
  5
79
330
78
100
AcDbEntity
  8
0
100
AcDbBlockBegin
  2
*D2
 70
     1
 10
0.0
 20
0.0
 30
0.0
  3
*D2
  1

  0
LINE
  5
7B
330
78
100
AcDbEntity
  8
001
370
     9
100
AcDbLine
 10
170.820728
 20
34.834677
 30
0.0
 11
170.820728
 21
7.105051
 31
0.0
  0
LINE
  5
7C
330
78
100
AcDbEntity
  8
001
370
     9
100
AcDbLine
 10
90.820728
 20
33.534677
 30
0.0
 11
90.820728
 21
7.105051
 31
0.0
  0
LINE
  5
7D
330
78
100
AcDbEntity
  8
001
370
     9
100
AcDbLine
 10
170.820728
 20
9.855051
 30
0.0
 11
90.820728
 21
9.855051
 31
0.0
  0
POLYLINE
  5
7E
330
78
100
AcDbEntity
  8
001
370
     9
100
AcDb2dPolyline
 66
     1
 10
0.0
 20
0.0
 30
0.0
  0
VERTEX
  5
80
330
7E
100
AcDbEntity
  8
001
370
     9
100
AcDbVertex
100
AcDb2dVertex
 10
169.320728
 20
10.256975
 30
0.0
  0
VERTEX
  5
81
330
7E
100
AcDbEntity
  8
001
370
     9
100
AcDbVertex
100
AcDb2dVertex
 10
170.820728
 20
9.855051
 30
0.0
  0
VERTEX
  5
82
330
7E
100
AcDbEntity
  8
001
370
     9
100
AcDbVertex
100
AcDb2dVertex
 10
169.320728
 20
9.453127
 30
0.0
  0
SEQEND
  5
7F
330
7E
100
AcDbEntity
  8
001
370
     9
  0
POLYLINE
  5
83
330
78
100
AcDbEntity
  8
001
370
     9
100
AcDb2dPolyline
 66
     1
 10
0.0
 20
0.0
 30
0.0
  0
VERTEX
  5
85
330
83
100
AcDbEntity
  8
001
370
     9
100
AcDbVertex
100
AcDb2dVertex
 10
92.320728
 20
9.453127
 30
0.0
  0
VERTEX
  5
86
330
83
100
AcDbEntity
  8
001
370
     9
100
AcDbVertex
100
AcDb2dVertex
 10
90.820728
 20
9.855051
 30
0.0
  0
VERTEX
  5
87
330
83
100
AcDbEntity
  8
001
370
     9
100
AcDbVertex
100
AcDb2dVertex
 10
92.320728
 20
10.256975
 30
0.0
  0
SEQEND
  5
84
330
83
100
AcDbEntity
  8
001
370
     9
  0
TEXT
  5
88
330
78
100
AcDbEntity
  8
001
370
    30
100
AcDbText
 10
126.820728
 20
10.855051
 30
0.0
 40
4.0
  1
８０
 41
0.833333
100
AcDbText
  0
POINT
  5
89
330
78
100
AcDbEntity
  8
001
370
     9
100
AcDbPoint
 10
170.820728
 20
34.834677
 30
0.0
  0
POINT
  5
8A
330
78
100
AcDbEntity
  8
001
370
     9
100
AcDbPoint
 10
90.820728
 20
33.534677
 30
0.0
  0
POINT
  5
8B
330
78
100
AcDbEntity
  8
001
370
     9
100
AcDbPoint
 10
90.820728
 20
9.855051
 30
0.0
  0
ENDBLK
  5
7A
330
78
100
AcDbEntity
  8
0
100
AcDbBlockEnd
  0
BLOCK
  5
8D
330
8C
100
AcDbEntity
  8
0
100
AcDbBlockBegin
  2
*D3
 70
     1
 10
0.0
 20
0.0
 30
0.0
  3
*D3
  1

  0
LINE
  5
8F
330
8C
100
AcDbEntity
  8
001
370
     9
100
AcDbLine
 10
170.820728
 20
34.834677
 30
0.0
 11
170.820728
 21
-2.249618
 31
0.0
  0
LINE
  5
90
330
8C
100
AcDbEntity
  8
001
370
     9
100
AcDbLine
 10
62.820728
 20
35.634677
 30
0.0
 11
62.820728
 21
-2.249618
 31
0.0
  0
LINE
  5
91
330
8C
100
AcDbEntity
  8
001
370
     9
100
AcDbLine
 10
170.820728
 20
0.500382
 30
0.0
 11
62.820728
 21
0.500382
 31
0.0
  0
POLYLINE
  5
92
330
8C
100
AcDbEntity
  8
001
370
     9
100
AcDb2dPolyline
 66
     1
 10
0.0
 20
0.0
 30
0.0
  0
VERTEX
  5
94
330
92
100
AcDbEntity
  8
001
370
     9
100
AcDbVertex
100
AcDb2dVertex
 10
169.320728
 20
0.902306
 30
0.0
  0
VERTEX
  5
95
330
92
100
AcDbEntity
  8
001
370
     9
100
AcDbVertex
100
AcDb2dVertex
 10
170.820728
 20
0.500382
 30
0.0
  0
VERTEX
  5
96
330
92
100
AcDbEntity
  8
001
370
     9
100
AcDbVertex
100
AcDb2dVertex
 10
169.320728
 20
0.098459
 30
0.0
  0
SEQEND
  5
93
330
92
100
AcDbEntity
  8
001
370
     9
  0
POLYLINE
  5
97
330
8C
100
AcDbEntity
  8
001
370
     9
100
AcDb2dPolyline
 66
     1
 10
0.0
 20
0.0
 30
0.0
  0
VERTEX
  5
99
330
97
100
AcDbEntity
  8
001
370
     9
100
AcDbVertex
100
AcDb2dVertex
 10
64.320728
 20
0.098459
 30
0.0
  0
VERTEX
  5
9A
330
97
100
AcDbEntity
  8
001
370
     9
100
AcDbVertex
100
AcDb2dVertex
 10
62.820728
 20
0.500382
 30
0.0
  0
VERTEX
  5
9B
330
97
100
AcDbEntity
  8
001
370
     9
100
AcDbVertex
100
AcDb2dVertex
 10
64.320728
 20
0.902306
 30
0.0
  0
SEQEND
  5
98
330
97
100
AcDbEntity
  8
001
370
     9
  0
TEXT
  5
9C
330
8C
100
AcDbEntity
  8
001
370
    30
100
AcDbText
 10
110.820728
 20
1.500382
 30
0.0
 40
4.0
  1
１０８
 41
0.833333
100
AcDbText
  0
POINT
  5
9D
330
8C
100
AcDbEntity
  8
001
370
     9
100
AcDbPoint
 10
170.820728
 20
34.834677
 30
0.0
  0
POINT
  5
9E
330
8C
100
AcDbEntity
  8
001
370
     9
100
AcDbPoint
 10
62.820728
 20
35.634677
 30
0.0
  0
POINT
  5
9F
330
8C
100
AcDbEntity
  8
001
370
     9
100
AcDbPoint
 10
62.820728
 20
0.500382
 30
0.0
  0
ENDBLK
  5
8E
330
8C
100
AcDbEntity
  8
0
100
AcDbBlockEnd
  0
BLOCK
  5
A1
330
A0
100
AcDbEntity
  8
0
100
AcDbBlockBegin
  2
*D4
 70
     1
 10
0.0
 20
0.0
 30
0.0
  3
*D4
  1

  0
LINE
  5
A3
330
A0
100
AcDbEntity
  8
001
370
     9
100
AcDbLine
 10
63.620728
 20
34.834678
 30
0.0
 11
81.111753
 21
17.343652
 31
0.0
  0
ARC
  5
A4
330
A0
100
AcDbEntity
  8
001
370
     9
100
AcDbCircle
 10
58.620728
 20
39.834677
 30
0.0
 40
29.05711305130216
100
AcDbArc
 50
315.0
 51
0.0
  0
POLYLINE
  5
A5
330
A0
100
AcDbEntity
  8
001
370
     9
100
AcDb2dPolyline
 66
     1
 10
0.0
 20
0.0
 30
0.0
  0
VERTEX
  5
A7
330
A5
100
AcDbEntity
  8
001
370
     9
100
AcDbVertex
100
AcDb2dVertex
 10
87.237339
 20
38.34555
 30
0.0
  0
VERTEX
  5
A8
330
A5
100
AcDbEntity
  8
001
370
     9
100
AcDbVertex
100
AcDb2dVertex
 10
87.677841
 20
39.834677
 30
0.0
  0
VERTEX
  5
A9
330
A5
100
AcDbEntity
  8
001
370
     9
100
AcDbVertex
100
AcDb2dVertex
 10
88.040918
 20
38.324804
 30
0.0
  0
SEQEND
  5
A6
330
A5
100
AcDbEntity
  8
001
370
     9
  0
POLYLINE
  5
AA
330
A0
100
AcDbEntity
  8
001
370
     9
100
AcDb2dPolyline
 66
     1
 10
0.0
 20
0.0
 30
0.0
  0
VERTEX
  5
AC
330
AA
100
AcDbEntity
  8
001
370
     9
100
AcDbVertex
100
AcDb2dVertex
 10
80.491586
 20
20.099103
 30
0.0
  0
VERTEX
  5
AD
330
AA
100
AcDbEntity
  8
001
370
     9
100
AcDbVertex
100
AcDb2dVertex
 10
79.16721
 20
19.288196
 30
0.0
  0
VERTEX
  5
AE
330
AA
100
AcDbEntity
  8
001
370
     9
100
AcDbVertex
100
AcDb2dVertex
 10
79.908699
 20
20.65265
 30
0.0
  0
SEQEND
  5
AB
330
AA
100
AcDbEntity
  8
001
370
     9
  0
TEXT
  5
AF
330
A0
100
AcDbEntity
  8
001
370
    30
100
AcDbText
 10
82.24602
 20
23.554408
 30
0.0
 40
4.0
  1
４５%%d
 50
67.5
 41
0.978261
100
AcDbText
  0
POINT
  5
B0
330
A0
100
AcDbEntity
  8
001
370
     9
100
AcDbPoint
 10
62.366815
 20
39.834677
 30
0.0
  0
POINT
  5
B1
330
A0
100
AcDbEntity
  8
001
370
     9
100
AcDbPoint
 10
58.620728
 20
39.834677
 30
0.0
  0
POINT
  5
B2
330
A0
100
AcDbEntity
  8
001
370
     9
100
AcDbPoint
 10
58.620728
 20
39.834677
 30
0.0
  0
POINT
  5
B3
330
A0
100
AcDbEntity
  8
001
370
     9
100
AcDbPoint
 10
63.620728
 20
34.834678
 30
0.0
  0
ENDBLK
  5
A2
330
A0
100
AcDbEntity
  8
0
100
AcDbBlockEnd
  0
BLOCK
  5
B5
330
B4
100
AcDbEntity
  8
0
100
AcDbBlockBegin
  2
*D5
 70
     1
 10
0.0
 20
0.0
 30
0.0
  3
*D5
  1

  0
LINE
  5
B7
330
B4
100
AcDbEntity
  8
001
370
     9
100
AcDbLine
 10
63.620728
 20
33.231521
 30
0.0
 11
63.620728
 21
15.832915
 31
0.0
  0
LINE
  5
B8
330
B4
100
AcDbEntity
  8
001
370
     9
100
AcDbLine
 10
62.820728
 20
18.582915
 30
0.0
 11
63.620728
 21
18.582915
 31
0.0
  0
POLYLINE
  5
B9
330
B4
100
AcDbEntity
  8
001
370
     9
100
AcDb2dPolyline
 66
     1
 10
0.0
 20
0.0
 30
0.0
  0
VERTEX
  5
BB
330
B9
100
AcDbEntity
  8
001
370
     9
100
AcDbVertex
100
AcDb2dVertex
 10
61.320728
 20
18.984839
 30
0.0
  0
VERTEX
  5
BC
330
B9
100
AcDbEntity
  8
001
370
     9
100
AcDbVertex
100
AcDb2dVertex
 10
62.820728
 20
18.582915
 30
0.0
  0
VERTEX
  5
BD
330
B9
100
AcDbEntity
  8
001
370
     9
100
AcDbVertex
100
AcDb2dVertex
 10
61.320728
 20
18.180991
 30
0.0
  0
SEQEND
  5
BA
330
B9
100
AcDbEntity
  8
001
370
     9
  0
POLYLINE
  5
BE
330
B4
100
AcDbEntity
  8
001
370
     9
100
AcDb2dPolyline
 66
     1
 10
0.0
 20
0.0
 30
0.0
  0
VERTEX
  5
C0
330
BE
100
AcDbEntity
  8
001
370
     9
100
AcDbVertex
100
AcDb2dVertex
 10
65.120728
 20
18.180991
 30
0.0
  0
VERTEX
  5
C1
330
BE
100
AcDbEntity
  8
001
370
     9
100
AcDbVertex
100
AcDb2dVertex
 10
63.620728
 20
18.582915
 30
0.0
  0
VERTEX
  5
C2
330
BE
100
AcDbEntity
  8
001
370
     9
100
AcDbVertex
100
AcDb2dVertex
 10
65.120728
 20
18.984839
 30
0.0
  0
SEQEND
  5
BF
330
BE
100
AcDbEntity
  8
001
370
     9
  0
TEXT
  5
C3
330
B4
100
AcDbEntity
  8
001
370
    30
100
AcDbText
 10
47.320728
 20
19.582915
 30
0.0
 40
4.0
  1
０．８
 41
0.833333
100
AcDbText
  0
POINT
  5
C4
330
B4
100
AcDbEntity
  8
001
370
     9
100
AcDbPoint
 10
62.820728
 20
35.634677
 30
0.0
  0
POINT
  5
C5
330
B4
100
AcDbEntity
  8
001
370
     9
100
AcDbPoint
 10
63.620728
 20
33.231521
 30
0.0
  0
POINT
  5
C6
330
B4
100
AcDbEntity
  8
001
370
     9
100
AcDbPoint
 10
63.620728
 20
18.582915
 30
0.0
  0
LINE
  5
C7
330
B4
100
AcDbEntity
  8
001
370
     9
100
AcDbLine
 10
62.820728
 20
18.582915
 30
0.0
 11
44.320728
 21
18.582915
 31
0.0
  0
LINE
  5
C8
330
B4
100
AcDbEntity
  8
001
370
     9
100
AcDbLine
 10
63.620728
 20
18.582915
 30
0.0
 11
66.120728
 21
18.582915
 31
0.0
  0
ENDBLK
  5
B6
330
B4
100
AcDbEntity
  8
0
100
AcDbBlockEnd
  0
BLOCK
  5
CA
330
C9
100
AcDbEntity
  8
0
100
AcDbBlockBegin
  2
*D6
 70
     1
 10
0.0
 20
0.0
 30
0.0
  3
*D6
  1

  0
LINE
  5
CC
330
C9
100
AcDbEntity
  8
001
370
     9
100
AcDbLine
 10
167.820728
 20
47.834677
 30
0.0
 11
198.787765
 21
47.834677
 31
0.0
  0
LINE
  5
CD
330
C9
100
AcDbEntity
  8
001
370
     9
100
AcDbLine
 10
167.820728
 20
31.834677
 30
0.0
 11
198.787765
 21
31.834677
 31
0.0
  0
LINE
  5
CE
330
C9
100
AcDbEntity
  8
001
370
     9
100
AcDbLine
 10
196.037765
 20
47.834677
 30
0.0
 11
196.037765
 21
31.834677
 31
0.0
  0
POLYLINE
  5
CF
330
C9
100
AcDbEntity
  8
001
370
     9
100
AcDb2dPolyline
 66
     1
 10
0.0
 20
0.0
 30
0.0
  0
VERTEX
  5
D1
330
CF
100
AcDbEntity
  8
001
370
     9
100
AcDbVertex
100
AcDb2dVertex
 10
196.439689
 20
49.334677
 30
0.0
  0
VERTEX
  5
D2
330
CF
100
AcDbEntity
  8
001
370
     9
100
AcDbVertex
100
AcDb2dVertex
 10
196.037765
 20
47.834677
 30
0.0
  0
VERTEX
  5
D3
330
CF
100
AcDbEntity
  8
001
370
     9
100
AcDbVertex
100
AcDb2dVertex
 10
195.635841
 20
49.334677
 30
0.0
  0
SEQEND
  5
D0
330
CF
100
AcDbEntity
  8
001
370
     9
  0
POLYLINE
  5
D4
330
C9
100
AcDbEntity
  8
001
370
     9
100
AcDb2dPolyline
 66
     1
 10
0.0
 20
0.0
 30
0.0
  0
VERTEX
  5
D6
330
D4
100
AcDbEntity
  8
001
370
     9
100
AcDbVertex
100
AcDb2dVertex
 10
195.635841
 20
30.334677
 30
0.0
  0
VERTEX
  5
D7
330
D4
100
AcDbEntity
  8
001
370
     9
100
AcDbVertex
100
AcDb2dVertex
 10
196.037765
 20
31.834677
 30
0.0
  0
VERTEX
  5
D8
330
D4
100
AcDbEntity
  8
001
370
     9
100
AcDbVertex
100
AcDb2dVertex
 10
196.439689
 20
30.334677
 30
0.0
  0
SEQEND
  5
D5
330
D4
100
AcDbEntity
  8
001
370
     9
  0
TEXT
  5
D9
330
C9
100
AcDbEntity
  8
001
370
    30
100
AcDbText
 10
195.037765
 20
33.834677
 30
0.0
 40
4.0
  1
%%c１６
 50
90.000003
 41
0.882353
100
AcDbText
  0
POINT
  5
DA
330
C9
100
AcDbEntity
  8
001
370
     9
100
AcDbPoint
 10
167.820728
 20
47.834677
 30
0.0
  0
POINT
  5
DB
330
C9
100
AcDbEntity
  8
001
370
     9
100
AcDbPoint
 10
167.820728
 20
31.834677
 30
0.0
  0
POINT
  5
DC
330
C9
100
AcDbEntity
  8
001
370
     9
100
AcDbPoint
 10
196.037765
 20
31.834677
 30
0.0
  0
LINE
  5
DD
330
C9
100
AcDbEntity
  8
001
370
     9
100
AcDbLine
 10
196.037765
 20
47.834677
 30
0.0
 11
196.037765
 21
50.334677
 31
0.0
  0
LINE
  5
DE
330
C9
100
AcDbEntity
  8
001
370
     9
100
AcDbLine
 10
196.037765
 20
31.834677
 30
0.0
 11
196.037765
 21
29.334677
 31
0.0
  0
ENDBLK
  5
CB
330
C9
100
AcDbEntity
  8
0
100
AcDbBlockEnd
  0
ENDSEC
  0
SECTION
  2
ENTITIES
  0
TEXT
  5
DF
330
1F
100
AcDbEntity
  8
001
370
    30
100
AcDbText
 10
47.726324
 20
31.834677
 30
0.0
 40
4.0
  1
%%c８．４
 50
90.000003
 41
0.869565
100
AcDbText
  0
POLYLINE
  5
E0
330
1F
100
AcDbEntity
  8
001
370
     9
100
AcDb2dPolyline
 66
     1
 10
0.0
 20
0.0
 30
0.0
  0
VERTEX
  5
E2
330
E0
100
AcDbEntity
  8
001
370
     9
100
AcDbVertex
100
AcDb2dVertex
 10
49.128248
 20
37.134677
 30
0.0
  0
VERTEX
  5
E3
330
E0
100
AcDbEntity
  8
001
370
     9
100
AcDbVertex
100
AcDb2dVertex
 10
48.726324
 20
35.634677
 30
0.0
  0
VERTEX
  5
E4
330
E0
100
AcDbEntity
  8
001
370
     9
100
AcDbVertex
100
AcDb2dVertex
 10
48.3244
 20
37.134677
 30
0.0
  0
SEQEND
  5
E1
330
E0
100
AcDbEntity
  8
001
370
     9
  0
LINE
  5
E5
330
1F
100
AcDbEntity
  8
001
370
     9
100
AcDbLine
 10
48.726324
 20
35.634677
 30
0.0
 11
48.726324
 21
44.034677
 31
0.0
  0
POLYLINE
  5
E6
330
1F
100
AcDbEntity
  8
001
370
     9
100
AcDb2dPolyline
 66
     1
 10
0.0
 20
0.0
 30
0.0
  0
VERTEX
  5
E8
330
E6
100
AcDbEntity
  8
001
370
     9
100
AcDbVertex
100
AcDb2dVertex
 10
62.820728
 20
35.634677
 30
0.0
  0
VERTEX
  5
E9
330
E6
100
AcDbEntity
  8
001
370
     9
100
AcDbVertex
100
AcDb2dVertex
 10
48.726324
 20
35.634677
 30
0.0
  0
VERTEX
  5
EA
330
E6
100
AcDbEntity
  8
001
370
     9
100
AcDbVertex
100
AcDb2dVertex
 10
45.976324
 20
35.634677
 30
0.0
  0
SEQEND
  5
E7
330
E6
100
AcDbEntity
  8
001
370
     9
  0
TEXT
  5
EB
330
1F
100
AcDbEntity
  8
001
370
    30
100
AcDbText
 10
38.271548
 20
33.834677
 30
0.0
 40
4.0
  1
%%c１４
 50
90.000003
 41
0.882353
100
AcDbText
  0
POLYLINE
  5
EC
330
1F
100
AcDbEntity
  8
001
370
     9
100
AcDb2dPolyline
 66
     1
 10
0.0
 20
0.0
 30
0.0
  0
VERTEX
  5
EE
330
EC
100
AcDbEntity
  8
001
370
     9
100
AcDbVertex
100
AcDb2dVertex
 10
39.673472
 20
34.334677
 30
0.0
  0
VERTEX
  5
EF
330
EC
100
AcDbEntity
  8
001
370
     9
100
AcDbVertex
100
AcDb2dVertex
 10
39.271548
 20
32.834677
 30
0.0
  0
VERTEX
  5
F0
330
EC
100
AcDbEntity
  8
001
370
     9
100
AcDbVertex
100
AcDb2dVertex
 10
38.869625
 20
34.334677
 30
0.0
  0
SEQEND
  5
ED
330
EC
100
AcDbEntity
  8
001
370
     9
  0
LINE
  5
F1
330
1F
100
AcDbEntity
  8
001
370
     9
100
AcDbLine
 10
39.271548
 20
32.834677
 30
0.0
 11
39.271548
 21
46.834677
 31
0.0
  0
POLYLINE
  5
F2
330
1F
100
AcDbEntity
  8
001
370
     9
100
AcDb2dPolyline
 66
     1
 10
0.0
 20
0.0
 30
0.0
  0
VERTEX
  5
F4
330
F2
100
AcDbEntity
  8
001
370
     9
100
AcDbVertex
100
AcDb2dVertex
 10
64.011696
 20
32.834677
 30
0.0
  0
VERTEX
  5
F5
330
F2
100
AcDbEntity
  8
001
370
     9
100
AcDbVertex
100
AcDb2dVertex
 10
39.271548
 20
32.834677
 30
0.0
  0
VERTEX
  5
F6
330
F2
100
AcDbEntity
  8
001
370
     9
100
AcDbVertex
100
AcDb2dVertex
 10
36.521548
 20
32.834677
 30
0.0
  0
SEQEND
  5
F3
330
F2
100
AcDbEntity
  8
001
370
     9
  0
DIMENSION
  5
F7
330
1F
100
AcDbEntity
  8
001
370
     9
100
AcDbDimension
  2
*D1
 10
62.820728
 20
9.855051
 30
0.0
 11
76.820728
 21
12.855051
 31
0.0
 70
   160
 71
     5
 42
-1.0
  3
Standard
100
AcDbAlignedDimension
 13
90.820728
 23
33.534677
 33
0.0
 14
62.820728
 24
35.634677
 34
0.0
 50
180.0
100
AcDbRotatedDimension
  0
DIMENSION
  5
F8
330
1F
100
AcDbEntity
  8
001
370
     9
100
AcDbDimension
  2
*D2
 10
90.820728
 20
9.855051
 30
0.0
 11
130.820728
 21
12.855051
 31
0.0
 70
   160
 71
     5
 42
-1.0
  3
Standard
100
AcDbAlignedDimension
 13
170.820728
 23
34.834677
 33
0.0
 14
90.820728
 24
33.534677
 34
0.0
 50
180.0
100
AcDbRotatedDimension
  0
DIMENSION
  5
F9
330
1F
100
AcDbEntity
  8
001
370
     9
100
AcDbDimension
  2
*D3
 10
62.820728
 20
0.500382
 30
0.0
 11
116.820728
 21
3.500382
 31
0.0
 70
   160
 71
     5
 42
-1.0
  3
Standard
100
AcDbAlignedDimension
 13
170.820728
 23
34.834677
 33
0.0
 14
62.820728
 24
35.634677
 34
0.0
 50
180.0
100
AcDbRotatedDimension
  0
DIMENSION
  5
FA
330
1F
100
AcDbEntity
  8
001
370
     9
100
AcDbDimension
  2
*D4
 10
58.620728
 20
39.834677
 30
0.0
 11
82.694361
 21
29.863052
 31
0.0
 70
    34
 71
     5
 42
-1.0
  3
Standard
100
AcDb2LineAngularDimension
 13
62.366815
 23
39.834677
 33
0.0
 14
58.620728
 24
39.834677
 34
0.0
 15
63.620728
 25
34.834678
 35
0.0
 16
85.466
 26
28.715002
 36
0.0
  0
DIMENSION
  5
FB
330
1F
100
AcDbEntity
  8
001
370
     9
100
AcDbDimension
  2
*D5
 10
63.620728
 20
18.582915
 30
0.0
 11
53.320728
 21
21.582915
 31
0.0
 70
   160
 71
     5
 42
-1.0
  3
Standard
100
AcDbAlignedDimension
 13
62.820728
 23
35.634677
 33
0.0
 14
63.620728
 24
33.231521
 34
0.0
100
AcDbRotatedDimension
  0
DIMENSION
  5
FC
330
1F
100
AcDbEntity
  8
001
370
     9
100
AcDbDimension
  2
*D6
 10
196.037765
 20
31.834677
 30
0.0
 11
193.037765
 21
39.834677
 31
0.0
 70
   160
 71
     5
 42
-1.0
  3
Standard
100
AcDbAlignedDimension
 13
167.820728
 23
47.834677
 33
0.0
 14
167.820728
 24
31.834677
 34
0.0
 50
270.0
100
AcDbRotatedDimension
  0
TEXT
  5
FD
330
1F
100
AcDbEntity
  8
001
370
    30
100
AcDbText
 10
13.134687
 20
80.14375
 30
0.0
 40
10.0
  1
バーディーカット　ＢＣ１６－１４ＸＳ－Ｍ８
 41
0.833333
100
AcDbText
  0
POLYLINE
  5
FE
330
1F
100
AcDbEntity
  8
001
370
    50
100
AcDb2dPolyline
 66
     1
 10
0.0
 20
0.0
 30
0.0
  0
VERTEX
  5
100
330
FE
100
AcDbEntity
  8
001
370
    50
100
AcDbVertex
100
AcDb2dVertex
 10
65.947493
 20
37.804726
 30
0.0
  0
VERTEX
  5
101
330
FE
100
AcDbEntity
  8
001
370
    50
100
AcDbVertex
100
AcDb2dVertex
 10
65.824754
 20
37.79825
 30
0.0
  0
VERTEX
  5
102
330
FE
100
AcDbEntity
  8
001
370
    50
100
AcDbVertex
100
AcDb2dVertex
 10
65.656776
 20
37.778899
 30
0.0
  0
VERTEX
  5
103
330
FE
100
AcDbEntity
  8
001
370
    50
100
AcDbVertex
100
AcDb2dVertex
 10
65.507915
 20
37.746785
 30
0.0
  0
VERTEX
  5
104
330
FE
100
AcDbEntity
  8
001
370
    50
100
AcDbVertex
100
AcDb2dVertex
 10
65.374892
 20
37.702203
 30
0.0
  0
VERTEX
  5
105
330
FE
100
AcDbEntity
  8
001
370
    50
100
AcDbVertex
100
AcDb2dVertex
 10
65.241562
 20
37.645404
 30
0.0
  0
VERTEX
  5
106
330
FE
100
AcDbEntity
  8
001
370
    50
100
AcDbVertex
100
AcDb2dVertex
 10
65.110406
 20
37.576969
 30
0.0
  0
VERTEX
  5
107
330
FE
100
AcDbEntity
  8
001
370
    50
100
AcDbVertex
100
AcDb2dVertex
 10
64.986704
 20
37.497259
 30
0.0
  0
VERTEX
  5
108
330
FE
100
AcDbEntity
  8
001
370
    50
100
AcDbVertex
100
AcDb2dVertex
 10
64.871355
 20
37.407002
 30
0.0
  0
VERTEX
  5
109
330
FE
100
AcDbEntity
  8
001
370
    50
100
AcDbVertex
100
AcDb2dVertex
 10
64.763729
 20
37.306615
 30
0.0
  0
VERTEX
  5
10A
330
FE
100
AcDbEntity
  8
001
370
    50
100
AcDbVertex
100
AcDb2dVertex
 10
64.665002
 20
37.197465
 30
0.0
  0
VERTEX
  5
10B
330
FE
100
AcDbEntity
  8
001
370
    50
100
AcDbVertex
100
AcDb2dVertex
 10
64.576009
 20
37.080177
 30
0.0
  0
VERTEX
  5
10C
330
FE
100
AcDbEntity
  8
001
370
    50
100
AcDbVertex
100
AcDb2dVertex
 10
64.497616
 20
36.954726
 30
0.0
  0
VERTEX
  5
10D
330
FE
100
AcDbEntity
  8
001
370
    50
100
AcDbVertex
100
AcDb2dVertex
 10
64.430157
 20
36.821425
 30
0.0
  0
VERTEX
  5
10E
330
FE
100
AcDbEntity
  8
001
370
    50
100
AcDbVertex
100
AcDb2dVertex
 10
64.374284
 20
36.68616
 30
0.0
  0
VERTEX
  5
10F
330
FE
100
AcDbEntity
  8
001
370
    50
100
AcDbVertex
100
AcDb2dVertex
 10
64.330354
 20
36.550968
 30
0.0
  0
VERTEX
  5
110
330
FE
100
AcDbEntity
  8
001
370
    50
100
AcDbVertex
100
AcDb2dVertex
 10
64.298754
 20
36.399928
 30
0.0
  0
VERTEX
  5
111
330
FE
100
AcDbEntity
  8
001
370
    50
100
AcDbVertex
100
AcDb2dVertex
 10
64.279693
 20
36.229338
 30
0.0
  0
VERTEX
  5
112
330
FE
100
AcDbEntity
  8
001
370
    50
100
AcDbVertex
100
AcDb2dVertex
 10
64.273319
 20
36.104726
 30
0.0
  0
SEQEND
  5
FF
330
FE
100
AcDbEntity
  8
001
370
    50
  0
LINE
  5
113
330
1F
100
AcDbEntity
  8
001
370
    50
100
AcDbLine
 10
66.193909
 20
32.834677
 30
0.0
 11
67.1251
 21
33.742067
 31
0.0
  0
LINE
  5
114
330
1F
100
AcDbEntity
  8
001
370
    50
100
AcDbLine
 10
64.020728
 20
32.834677
 30
0.0
 11
66.193909
 21
32.834677
 31
0.0
  0
LINE
  5
115
330
1F
100
AcDbEntity
  8
001
370
    50
100
AcDbLine
 10
63.620728
 20
33.234677
 30
0.0
 11
63.620728
 21
34.834678
 31
0.0
  0
LINE
  5
116
330
1F
100
AcDbEntity
  8
001
370
    50
100
AcDbLine
 10
62.820728
 20
35.634677
 30
0.0
 11
62.820728
 21
38.070385
 31
0.0
  0
POLYLINE
  5
117
330
1F
100
AcDbEntity
  8
001
370
    50
100
AcDb2dPolyline
 66
     1
 10
0.0
 20
0.0
 30
0.0
  0
VERTEX
  5
119
330
117
100
AcDbEntity
  8
001
370
    50
100
AcDbVertex
100
AcDb2dVertex
 10
63.211697
 20
38.467385
 30
0.0
  0
VERTEX
  5
11A
330
117
100
AcDbEntity
  8
001
370
    50
100
AcDbVertex
100
AcDb2dVertex
 10
63.179465
 20
38.465471
 30
0.0
  0
VERTEX
  5
11B
330
117
100
AcDbEntity
  8
001
370
    50
100
AcDbVertex
100
AcDb2dVertex
 10
63.135422
 20
38.459757
 30
0.0
  0
VERTEX
  5
11C
330
117
100
AcDbEntity
  8
001
370
    50
100
AcDbVertex
100
AcDb2dVertex
 10
63.096553
 20
38.450282
 30
0.0
  0
VERTEX
  5
11D
330
117
100
AcDbEntity
  8
001
370
    50
100
AcDbVertex
100
AcDb2dVertex
 10
63.062079
 20
38.437165
 30
0.0
  0
VERTEX
  5
11E
330
117
100
AcDbEntity
  8
001
370
    50
100
AcDbVertex
100
AcDb2dVertex
 10
63.027815
 20
38.420503
 30
0.0
  0
VERTEX
  5
11F
330
117
100
AcDbEntity
  8
001
370
    50
100
AcDbVertex
100
AcDb2dVertex
 10
62.994486
 20
38.400478
 30
0.0
  0
VERTEX
  5
120
330
117
100
AcDbEntity
  8
001
370
    50
100
AcDbVertex
100
AcDb2dVertex
 10
62.96353
 20
38.377219
 30
0.0
  0
VERTEX
  5
121
330
117
100
AcDbEntity
  8
001
370
    50
100
AcDbVertex
100
AcDb2dVertex
 10
62.93524
 20
38.351106
 30
0.0
  0
VERTEX
  5
122
330
117
100
AcDbEntity
  8
001
370
    50
100
AcDbVertex
100
AcDb2dVertex
 10
62.909489
 20
38.322334
 30
0.0
  0
VERTEX
  5
123
330
117
100
AcDbEntity
  8
001
370
    50
100
AcDbVertex
100
AcDb2dVertex
 10
62.886618
 20
38.290946
 30
0.0
  0
VERTEX
  5
124
330
117
100
AcDbEntity
  8
001
370
    50
100
AcDbVertex
100
AcDb2dVertex
 10
62.866875
 20
38.257066
 30
0.0
  0
VERTEX
  5
125
330
117
100
AcDbEntity
  8
001
370
    50
100
AcDbVertex
100
AcDb2dVertex
 10
62.850489
 20
38.22231
 30
0.0
  0
VERTEX
  5
126
330
117
100
AcDbEntity
  8
001
370
    50
100
AcDbVertex
100
AcDb2dVertex
 10
62.837562
 20
38.187267
 30
0.0
  0
VERTEX
  5
127
330
117
100
AcDbEntity
  8
001
370
    50
100
AcDbVertex
100
AcDb2dVertex
 10
62.82824
 20
38.147836
 30
0.0
  0
VERTEX
  5
128
330
117
100
AcDbEntity
  8
001
370
    50
100
AcDbVertex
100
AcDb2dVertex
 10
62.822611
 20
38.103107
 30
0.0
  0
VERTEX
  5
129
330
117
100
AcDbEntity
  8
001
370
    50
100
AcDbVertex
100
AcDb2dVertex
 10
62.820728
 20
38.070385
 30
0.0
  0
SEQEND
  5
118
330
117
100
AcDbEntity
  8
001
370
    50
  0
LINE
  5
12A
330
1F
100
AcDbEntity
  8
001
370
    50
100
AcDbLine
 10
64.769885
 20
38.467385
 30
0.0
 11
63.211697
 21
38.467385
 31
0.0
  0
LINE
  5
12B
330
1F
100
AcDbEntity
  8
001
370
    50
100
AcDbLine
 10
65.603534
 20
39.279726
 30
0.0
 11
64.769885
 21
38.467385
 31
0.0
  0
LINE
  5
12C
330
1F
100
AcDbEntity
  8
001
370
    50
100
AcDbLine
 10
67.883289
 20
39.279726
 30
0.0
 11
65.603534
 21
39.279726
 31
0.0
  0
POLYLINE
  5
12D
330
1F
100
AcDbEntity
  8
001
370
    50
100
AcDb2dPolyline
 66
     1
 10
0.0
 20
0.0
 30
0.0
  0
VERTEX
  5
12F
330
12D
100
AcDbEntity
  8
001
370
    50
100
AcDbVertex
100
AcDb2dVertex
 10
68.274258
 20
38.882726
 30
0.0
  0
VERTEX
  5
130
330
12D
100
AcDbEntity
  8
001
370
    50
100
AcDbVertex
100
AcDb2dVertex
 10
68.272769
 20
38.911827
 30
0.0
  0
VERTEX
  5
131
330
12D
100
AcDbEntity
  8
001
370
    50
100
AcDbVertex
100
AcDb2dVertex
 10
68.268318
 20
38.951664
 30
0.0
  0
VERTEX
  5
132
330
12D
100
AcDbEntity
  8
001
370
    50
100
AcDbVertex
100
AcDb2dVertex
 10
68.260938
 20
38.986937
 30
0.0
  0
VERTEX
  5
133
330
12D
100
AcDbEntity
  8
001
370
    50
100
AcDbVertex
100
AcDb2dVertex
 10
68.250679
 20
39.018508
 30
0.0
  0
VERTEX
  5
134
330
12D
100
AcDbEntity
  8
001
370
    50
100
AcDbVertex
100
AcDb2dVertex
 10
68.237631
 20
39.050096
 30
0.0
  0
VERTEX
  5
135
330
12D
100
AcDbEntity
  8
001
370
    50
100
AcDbVertex
100
AcDb2dVertex
 10
68.221878
 20
39.081226
 30
0.0
  0
VERTEX
  5
136
330
12D
100
AcDbEntity
  8
001
370
    50
100
AcDbVertex
100
AcDb2dVertex
 10
68.203571
 20
39.110523
 30
0.0
  0
VERTEX
  5
137
330
12D
100
AcDbEntity
  8
001
370
    50
100
AcDbVertex
100
AcDb2dVertex
 10
68.182788
 20
39.137913
 30
0.0
  0
VERTEX
  5
138
330
12D
100
AcDbEntity
  8
001
370
    50
100
AcDbVertex
100
AcDb2dVertex
 10
68.159733
 20
39.163402
 30
0.0
  0
VERTEX
  5
139
330
12D
100
AcDbEntity
  8
001
370
    50
100
AcDbVertex
100
AcDb2dVertex
 10
68.134599
 20
39.186846
 30
0.0
  0
VERTEX
  5
13A
330
12D
100
AcDbEntity
  8
001
370
    50
100
AcDbVertex
100
AcDb2dVertex
 10
68.107661
 20
39.207924
 30
0.0
  0
VERTEX
  5
13B
330
12D
100
AcDbEntity
  8
001
370
    50
100
AcDbVertex
100
AcDb2dVertex
 10
68.078773
 20
39.226538
 30
0.0
  0
VERTEX
  5
13C
330
12D
100
AcDbEntity
  8
001
370
    50
100
AcDbVertex
100
AcDb2dVertex
 10
68.048144
 20
39.24252
 30
0.0
  0
VERTEX
  5
13D
330
12D
100
AcDbEntity
  8
001
370
    50
100
AcDbVertex
100
AcDb2dVertex
 10
68.017008
 20
39.255784
 30
0.0
  0
VERTEX
  5
13E
330
12D
100
AcDbEntity
  8
001
370
    50
100
AcDbVertex
100
AcDb2dVertex
 10
67.985943
 20
39.266195
 30
0.0
  0
VERTEX
  5
13F
330
12D
100
AcDbEntity
  8
001
370
    50
100
AcDbVertex
100
AcDb2dVertex
 10
67.95118
 20
39.273695
 30
0.0
  0
VERTEX
  5
140
330
12D
100
AcDbEntity
  8
001
370
    50
100
AcDbVertex
100
AcDb2dVertex
 10
67.911952
 20
39.278214
 30
0.0
  0
VERTEX
  5
141
330
12D
100
AcDbEntity
  8
001
370
    50
100
AcDbVertex
100
AcDb2dVertex
 10
67.883289
 20
39.279726
 30
0.0
  0
SEQEND
  5
12E
330
12D
100
AcDbEntity
  8
001
370
    50
  0
LINE
  5
142
330
1F
100
AcDbEntity
  8
001
370
    50
100
AcDbLine
 10
68.274258
 20
37.3005
 30
0.0
 11
68.274258
 21
38.882726
 31
0.0
  0
LINE
  5
143
330
1F
100
AcDbEntity
  8
001
370
    50
100
AcDbLine
 10
69.074257
 20
36.45399
 30
0.0
 11
68.274258
 21
37.3005
 31
0.0
  0
LINE
  5
144
330
1F
100
AcDbEntity
  8
001
370
    50
100
AcDbLine
 10
69.074257
 20
34.139067
 30
0.0
 11
69.074257
 21
36.45399
 31
0.0
  0
POLYLINE
  5
145
330
1F
100
AcDbEntity
  8
001
370
    50
100
AcDb2dPolyline
 66
     1
 10
0.0
 20
0.0
 30
0.0
  0
VERTEX
  5
147
330
145
100
AcDbEntity
  8
001
370
    50
100
AcDbVertex
100
AcDb2dVertex
 10
68.683289
 20
33.742067
 30
0.0
  0
VERTEX
  5
148
330
145
100
AcDbEntity
  8
001
370
    50
100
AcDbVertex
100
AcDb2dVertex
 10
68.71552
 20
33.743981
 30
0.0
  0
VERTEX
  5
149
330
145
100
AcDbEntity
  8
001
370
    50
100
AcDbVertex
100
AcDb2dVertex
 10
68.759563
 20
33.749695
 30
0.0
  0
VERTEX
  5
14A
330
145
100
AcDbEntity
  8
001
370
    50
100
AcDbVertex
100
AcDb2dVertex
 10
68.798432
 20
33.75917
 30
0.0
  0
VERTEX
  5
14B
330
145
100
AcDbEntity
  8
001
370
    50
100
AcDbVertex
100
AcDb2dVertex
 10
68.832906
 20
33.772287
 30
0.0
  0
VERTEX
  5
14C
330
145
100
AcDbEntity
  8
001
370
    50
100
AcDbVertex
100
AcDb2dVertex
 10
68.867171
 20
33.788949
 30
0.0
  0
VERTEX
  5
14D
330
145
100
AcDbEntity
  8
001
370
    50
100
AcDbVertex
100
AcDb2dVertex
 10
68.900499
 20
33.808974
 30
0.0
  0
VERTEX
  5
14E
330
145
100
AcDbEntity
  8
001
370
    50
100
AcDbVertex
100
AcDb2dVertex
 10
68.931456
 20
33.832233
 30
0.0
  0
VERTEX
  5
14F
330
145
100
AcDbEntity
  8
001
370
    50
100
AcDbVertex
100
AcDb2dVertex
 10
68.959745
 20
33.858346
 30
0.0
  0
VERTEX
  5
150
330
145
100
AcDbEntity
  8
001
370
    50
100
AcDbVertex
100
AcDb2dVertex
 10
68.985496
 20
33.887118
 30
0.0
  0
VERTEX
  5
151
330
145
100
AcDbEntity
  8
001
370
    50
100
AcDbVertex
100
AcDb2dVertex
 10
69.008367
 20
33.918506
 30
0.0
  0
VERTEX
  5
152
330
145
100
AcDbEntity
  8
001
370
    50
100
AcDbVertex
100
AcDb2dVertex
 10
69.028111
 20
33.952386
 30
0.0
  0
VERTEX
  5
153
330
145
100
AcDbEntity
  8
001
370
    50
100
AcDbVertex
100
AcDb2dVertex
 10
69.044497
 20
33.987142
 30
0.0
  0
VERTEX
  5
154
330
145
100
AcDbEntity
  8
001
370
    50
100
AcDbVertex
100
AcDb2dVertex
 10
69.057423
 20
34.022185
 30
0.0
  0
VERTEX
  5
155
330
145
100
AcDbEntity
  8
001
370
    50
100
AcDbVertex
100
AcDb2dVertex
 10
69.066745
 20
34.061616
 30
0.0
  0
VERTEX
  5
156
330
145
100
AcDbEntity
  8
001
370
    50
100
AcDbVertex
100
AcDb2dVertex
 10
69.072374
 20
34.106345
 30
0.0
  0
VERTEX
  5
157
330
145
100
AcDbEntity
  8
001
370
    50
100
AcDbVertex
100
AcDb2dVertex
 10
69.074257
 20
34.139067
 30
0.0
  0
SEQEND
  5
146
330
145
100
AcDbEntity
  8
001
370
    50
  0
LINE
  5
158
330
1F
100
AcDbEntity
  8
001
370
    50
100
AcDbLine
 10
67.1251
 20
33.742067
 30
0.0
 11
68.683289
 21
33.742067
 31
0.0
  0
POLYLINE
  5
159
330
1F
100
AcDbEntity
  8
001
370
    50
100
AcDb2dPolyline
 66
     1
 10
0.0
 20
0.0
 30
0.0
  0
VERTEX
  5
15B
330
159
100
AcDbEntity
  8
001
370
    50
100
AcDbVertex
100
AcDb2dVertex
 10
64.273319
 20
36.104726
 30
0.0
  0
VERTEX
  5
15C
330
159
100
AcDbEntity
  8
001
370
    50
100
AcDbVertex
100
AcDb2dVertex
 10
64.279693
 20
35.980114
 30
0.0
  0
VERTEX
  5
15D
330
159
100
AcDbEntity
  8
001
370
    50
100
AcDbVertex
100
AcDb2dVertex
 10
64.298754
 20
35.809524
 30
0.0
  0
VERTEX
  5
15E
330
159
100
AcDbEntity
  8
001
370
    50
100
AcDbVertex
100
AcDb2dVertex
 10
64.330354
 20
35.658484
 30
0.0
  0
VERTEX
  5
15F
330
159
100
AcDbEntity
  8
001
370
    50
100
AcDbVertex
100
AcDb2dVertex
 10
64.374284
 20
35.523292
 30
0.0
  0
VERTEX
  5
160
330
159
100
AcDbEntity
  8
001
370
    50
100
AcDbVertex
100
AcDb2dVertex
 10
64.430157
 20
35.388027
 30
0.0
  0
VERTEX
  5
161
330
159
100
AcDbEntity
  8
001
370
    50
100
AcDbVertex
100
AcDb2dVertex
 10
64.497616
 20
35.254726
 30
0.0
  0
VERTEX
  5
162
330
159
100
AcDbEntity
  8
001
370
    50
100
AcDbVertex
100
AcDb2dVertex
 10
64.576009
 20
35.129274
 30
0.0
  0
VERTEX
  5
163
330
159
100
AcDbEntity
  8
001
370
    50
100
AcDbVertex
100
AcDb2dVertex
 10
64.665002
 20
35.011987
 30
0.0
  0
VERTEX
  5
164
330
159
100
AcDbEntity
  8
001
370
    50
100
AcDbVertex
100
AcDb2dVertex
 10
64.763729
 20
34.902837
 30
0.0
  0
VERTEX
  5
165
330
159
100
AcDbEntity
  8
001
370
    50
100
AcDbVertex
100
AcDb2dVertex
 10
64.871355
 20
34.80245
 30
0.0
  0
VERTEX
  5
166
330
159
100
AcDbEntity
  8
001
370
    50
100
AcDbVertex
100
AcDb2dVertex
 10
64.986704
 20
34.712192
 30
0.0
  0
VERTEX
  5
167
330
159
100
AcDbEntity
  8
001
370
    50
100
AcDbVertex
100
AcDb2dVertex
 10
65.110406
 20
34.632483
 30
0.0
  0
VERTEX
  5
168
330
159
100
AcDbEntity
  8
001
370
    50
100
AcDbVertex
100
AcDb2dVertex
 10
65.241562
 20
34.564048
 30
0.0
  0
VERTEX
  5
169
330
159
100
AcDbEntity
  8
001
370
    50
100
AcDbVertex
100
AcDb2dVertex
 10
65.374892
 20
34.507248
 30
0.0
  0
VERTEX
  5
16A
330
159
100
AcDbEntity
  8
001
370
    50
100
AcDbVertex
100
AcDb2dVertex
 10
65.507915
 20
34.462667
 30
0.0
  0
VERTEX
  5
16B
330
159
100
AcDbEntity
  8
001
370
    50
100
AcDbVertex
100
AcDb2dVertex
 10
65.656776
 20
34.430553
 30
0.0
  0
VERTEX
  5
16C
330
159
100
AcDbEntity
  8
001
370
    50
100
AcDbVertex
100
AcDb2dVertex
 10
65.824754
 20
34.411202
 30
0.0
  0
VERTEX
  5
16D
330
159
100
AcDbEntity
  8
001
370
    50
100
AcDbVertex
100
AcDb2dVertex
 10
65.947493
 20
34.404726
 30
0.0
  0
SEQEND
  5
15A
330
159
100
AcDbEntity
  8
001
370
    50
  0
POLYLINE
  5
16E
330
1F
100
AcDbEntity
  8
001
370
    50
100
AcDb2dPolyline
 66
     1
 10
0.0
 20
0.0
 30
0.0
  0
VERTEX
  5
170
330
16E
100
AcDbEntity
  8
001
370
    50
100
AcDbVertex
100
AcDb2dVertex
 10
65.947493
 20
34.404726
 30
0.0
  0
VERTEX
  5
171
330
16E
100
AcDbEntity
  8
001
370
    50
100
AcDbVertex
100
AcDb2dVertex
 10
66.077425
 20
34.411986
 30
0.0
  0
VERTEX
  5
172
330
16E
100
AcDbEntity
  8
001
370
    50
100
AcDbVertex
100
AcDb2dVertex
 10
66.255121
 20
34.433672
 30
0.0
  0
VERTEX
  5
173
330
16E
100
AcDbEntity
  8
001
370
    50
100
AcDbVertex
100
AcDb2dVertex
 10
66.412298
 20
34.469644
 30
0.0
  0
VERTEX
  5
174
330
16E
100
AcDbEntity
  8
001
370
    50
100
AcDbVertex
100
AcDb2dVertex
 10
66.552274
 20
34.519523
 30
0.0
  0
VERTEX
  5
175
330
16E
100
AcDbEntity
  8
001
370
    50
100
AcDbVertex
100
AcDb2dVertex
 10
66.69204
 20
34.582993
 30
0.0
  0
VERTEX
  5
176
330
16E
100
AcDbEntity
  8
001
370
    50
100
AcDbVertex
100
AcDb2dVertex
 10
66.828831
 20
34.659357
 30
0.0
  0
VERTEX
  5
177
330
16E
100
AcDbEntity
  8
001
370
    50
100
AcDbVertex
100
AcDb2dVertex
 10
66.956965
 20
34.748165
 30
0.0
  0
VERTEX
  5
178
330
16E
100
AcDbEntity
  8
001
370
    50
100
AcDbVertex
100
AcDb2dVertex
 10
67.075376
 20
34.848411
 30
0.0
  0
VERTEX
  5
179
330
16E
100
AcDbEntity
  8
001
370
    50
100
AcDbVertex
100
AcDb2dVertex
 10
67.184663
 20
34.959528
 30
0.0
  0
VERTEX
  5
17A
330
16E
100
AcDbEntity
  8
001
370
    50
100
AcDbVertex
100
AcDb2dVertex
 10
67.283512
 20
35.080247
 30
0.0
  0
VERTEX
  5
17B
330
16E
100
AcDbEntity
  8
001
370
    50
100
AcDbVertex
100
AcDb2dVertex
 10
67.370985
 20
35.209878
 30
0.0
  0
VERTEX
  5
17C
330
16E
100
AcDbEntity
  8
001
370
    50
100
AcDbVertex
100
AcDb2dVertex
 10
67.446151
 20
35.346971
 30
0.0
  0
VERTEX
  5
17D
330
16E
100
AcDbEntity
  8
001
370
    50
100
AcDbVertex
100
AcDb2dVertex
 10
67.508625
 20
35.490686
 30
0.0
  0
VERTEX
  5
17E
330
16E
100
AcDbEntity
  8
001
370
    50
100
AcDbVertex
100
AcDb2dVertex
 10
67.557755
 20
35.639499
 30
0.0
  0
VERTEX
  5
17F
330
16E
100
AcDbEntity
  8
001
370
    50
100
AcDbVertex
100
AcDb2dVertex
 10
67.593165
 20
35.792391
 30
0.0
  0
VERTEX
  5
180
330
16E
100
AcDbEntity
  8
001
370
    50
100
AcDbVertex
100
AcDb2dVertex
 10
67.614524
 20
35.94787
 30
0.0
  0
VERTEX
  5
181
330
16E
100
AcDbEntity
  8
001
370
    50
100
AcDbVertex
100
AcDb2dVertex
 10
67.62166
 20
36.104726
 30
0.0
  0
VERTEX
  5
182
330
16E
100
AcDbEntity
  8
001
370
    50
100
AcDbVertex
100
AcDb2dVertex
 10
67.614524
 20
36.261582
 30
0.0
  0
VERTEX
  5
183
330
16E
100
AcDbEntity
  8
001
370
    50
100
AcDbVertex
100
AcDb2dVertex
 10
67.593165
 20
36.417061
 30
0.0
  0
VERTEX
  5
184
330
16E
100
AcDbEntity
  8
001
370
    50
100
AcDbVertex
100
AcDb2dVertex
 10
67.557755
 20
36.569953
 30
0.0
  0
VERTEX
  5
185
330
16E
100
AcDbEntity
  8
001
370
    50
100
AcDbVertex
100
AcDb2dVertex
 10
67.508625
 20
36.718767
 30
0.0
  0
VERTEX
  5
186
330
16E
100
AcDbEntity
  8
001
370
    50
100
AcDbVertex
100
AcDb2dVertex
 10
67.446151
 20
36.862481
 30
0.0
  0
VERTEX
  5
187
330
16E
100
AcDbEntity
  8
001
370
    50
100
AcDbVertex
100
AcDb2dVertex
 10
67.370985
 20
36.999575
 30
0.0
  0
VERTEX
  5
188
330
16E
100
AcDbEntity
  8
001
370
    50
100
AcDbVertex
100
AcDb2dVertex
 10
67.283512
 20
37.129205
 30
0.0
  0
VERTEX
  5
189
330
16E
100
AcDbEntity
  8
001
370
    50
100
AcDbVertex
100
AcDb2dVertex
 10
67.184662
 20
37.249924
 30
0.0
  0
VERTEX
  5
18A
330
16E
100
AcDbEntity
  8
001
370
    50
100
AcDbVertex
100
AcDb2dVertex
 10
67.075376
 20
37.361041
 30
0.0
  0
VERTEX
  5
18B
330
16E
100
AcDbEntity
  8
001
370
    50
100
AcDbVertex
100
AcDb2dVertex
 10
66.956965
 20
37.461287
 30
0.0
  0
VERTEX
  5
18C
330
16E
100
AcDbEntity
  8
001
370
    50
100
AcDbVertex
100
AcDb2dVertex
 10
66.828831
 20
37.550095
 30
0.0
  0
VERTEX
  5
18D
330
16E
100
AcDbEntity
  8
001
370
    50
100
AcDbVertex
100
AcDb2dVertex
 10
66.69204
 20
37.626459
 30
0.0
  0
VERTEX
  5
18E
330
16E
100
AcDbEntity
  8
001
370
    50
100
AcDbVertex
100
AcDb2dVertex
 10
66.552274
 20
37.689929
 30
0.0
  0
VERTEX
  5
18F
330
16E
100
AcDbEntity
  8
001
370
    50
100
AcDbVertex
100
AcDb2dVertex
 10
66.412298
 20
37.739808
 30
0.0
  0
VERTEX
  5
190
330
16E
100
AcDbEntity
  8
001
370
    50
100
AcDbVertex
100
AcDb2dVertex
 10
66.255121
 20
37.77578
 30
0.0
  0
VERTEX
  5
191
330
16E
100
AcDbEntity
  8
001
370
    50
100
AcDbVertex
100
AcDb2dVertex
 10
66.077425
 20
37.797466
 30
0.0
  0
VERTEX
  5
192
330
16E
100
AcDbEntity
  8
001
370
    50
100
AcDbVertex
100
AcDb2dVertex
 10
65.947493
 20
37.804726
 30
0.0
  0
SEQEND
  5
16F
330
16E
100
AcDbEntity
  8
001
370
    50
  0
ARC
  5
193
330
1F
100
AcDbEntity
  8
001
370
    50
100
AcDbCircle
 10
167.820728
 20
44.834677
 30
0.0
 40
3.000000000000003
100
AcDbArc
 50
0.0
 51
90.0
  0
ARC
  5
194
330
1F
100
AcDbEntity
  8
001
370
    50
100
AcDbCircle
 10
167.820728
 20
34.834677
 30
0.0
 40
3.000000000000003
100
AcDbArc
 50
270.0
 51
0.0
  0
LINE
  5
195
330
1F
100
AcDbEntity
  8
001
370
    50
100
AcDbLine
 10
170.820728
 20
44.834677
 30
0.0
 11
170.820728
 21
34.834677
 31
0.0
  0
LINE
  5
196
330
1F
100
AcDbEntity
  8
001
370
    50
100
AcDbLine
 10
92.520728
 20
47.834677
 30
0.0
 11
92.520728
 21
31.834677
 31
0.0
  0
LINE
  5
197
330
1F
100
AcDbEntity
  8
001
370
    50
100
AcDbLine
 10
167.820728
 20
47.834677
 30
0.0
 11
92.520728
 21
47.834677
 31
0.0
  0
LINE
  5
198
330
1F
100
AcDbEntity
  8
001
370
    50
100
AcDbLine
 10
92.520728
 20
31.834677
 30
0.0
 11
167.820728
 21
31.834677
 31
0.0
  0
LINE
  5
199
330
1F
100
AcDbEntity
  8
001
370
    50
100
AcDbLine
 10
90.820728
 20
46.134677
 30
0.0
 11
90.820728
 21
33.534677
 31
0.0
  0
LINE
  5
19A
330
1F
100
AcDbEntity
  8
001
370
    50
100
AcDbLine
 10
92.520728
 20
47.834677
 30
0.0
 11
90.820728
 21
46.134677
 31
0.0
  0
LINE
  5
19B
330
1F
100
AcDbEntity
  8
001
370
    50
100
AcDbLine
 10
90.820728
 20
33.534677
 30
0.0
 11
92.520728
 21
31.834677
 31
0.0
  0
POLYLINE
  5
19C
330
1F
100
AcDbEntity
  8
001
370
    50
100
AcDb2dPolyline
 66
     1
 10
0.0
 20
0.0
 30
0.0
  0
VERTEX
  5
19E
330
19C
100
AcDbEntity
  8
001
370
    50
100
AcDbVertex
100
AcDb2dVertex
 10
89.677811
 20
33.534677
 30
0.0
  0
VERTEX
  5
19F
330
19C
100
AcDbEntity
  8
001
370
    50
100
AcDbVertex
100
AcDb2dVertex
 10
89.667574
 20
33.536583
 30
0.0
  0
VERTEX
  5
1A0
330
19C
100
AcDbEntity
  8
001
370
    50
100
AcDbVertex
100
AcDb2dVertex
 10
89.65747
 20
33.538919
 30
0.0
  0
VERTEX
  5
1A1
330
19C
100
AcDbEntity
  8
001
370
    50
100
AcDbVertex
100
AcDb2dVertex
 10
89.629605
 20
33.549709
 30
0.0
  0
VERTEX
  5
1A2
330
19C
100
AcDbEntity
  8
001
370
    50
100
AcDbVertex
100
AcDb2dVertex
 10
89.60311
 20
33.564229
 30
0.0
  0
VERTEX
  5
1A3
330
19C
100
AcDbEntity
  8
001
370
    50
100
AcDbVertex
100
AcDb2dVertex
 10
89.568219
 20
33.585106
 30
0.0
  0
VERTEX
  5
1A4
330
19C
100
AcDbEntity
  8
001
370
    50
100
AcDbVertex
100
AcDb2dVertex
 10
89.533917
 20
33.606548
 30
0.0
  0
VERTEX
  5
1A5
330
19C
100
AcDbEntity
  8
001
370
    50
100
AcDbVertex
100
AcDb2dVertex
 10
89.488401
 20
33.636114
 30
0.0
  0
VERTEX
  5
1A6
330
19C
100
AcDbEntity
  8
001
370
    50
100
AcDbVertex
100
AcDb2dVertex
 10
89.443126
 20
33.666204
 30
0.0
  0
VERTEX
  5
1A7
330
19C
100
AcDbEntity
  8
001
370
    50
100
AcDbVertex
100
AcDb2dVertex
 10
89.386675
 20
33.703825
 30
0.0
  0
VERTEX
  5
1A8
330
19C
100
AcDbEntity
  8
001
370
    50
100
AcDbVertex
100
AcDb2dVertex
 10
89.330183
 20
33.741323
 30
0.0
  0
VERTEX
  5
1A9
330
19C
100
AcDbEntity
  8
001
370
    50
100
AcDbVertex
100
AcDb2dVertex
 10
89.262498
 20
33.785878
 30
0.0
  0
VERTEX
  5
1AA
330
19C
100
AcDbEntity
  8
001
370
    50
100
AcDbVertex
100
AcDb2dVertex
 10
89.194535
 20
33.830028
 30
0.0
  0
VERTEX
  5
1AB
330
19C
100
AcDbEntity
  8
001
370
    50
100
AcDbVertex
100
AcDb2dVertex
 10
89.114921
 20
33.880791
 30
0.0
  0
VERTEX
  5
1AC
330
19C
100
AcDbEntity
  8
001
370
    50
100
AcDbVertex
100
AcDb2dVertex
 10
89.034821
 20
33.930775
 30
0.0
  0
VERTEX
  5
1AD
330
19C
100
AcDbEntity
  8
001
370
    50
100
AcDbVertex
100
AcDb2dVertex
 10
88.943522
 20
33.986408
 30
0.0
  0
VERTEX
  5
1AE
330
19C
100
AcDbEntity
  8
001
370
    50
100
AcDbVertex
100
AcDb2dVertex
 10
88.851592
 20
34.040996
 30
0.0
  0
VERTEX
  5
1AF
330
19C
100
AcDbEntity
  8
001
370
    50
100
AcDbVertex
100
AcDb2dVertex
 10
88.749503
 20
34.099954
 30
0.0
  0
VERTEX
  5
1B0
330
19C
100
AcDbEntity
  8
001
370
    50
100
AcDbVertex
100
AcDb2dVertex
 10
88.646663
 20
34.15759
 30
0.0
  0
VERTEX
  5
1B1
330
19C
100
AcDbEntity
  8
001
370
    50
100
AcDbVertex
100
AcDb2dVertex
 10
88.534694
 20
34.218343
 30
0.0
  0
VERTEX
  5
1B2
330
19C
100
AcDbEntity
  8
001
370
    50
100
AcDbVertex
100
AcDb2dVertex
 10
88.421852
 20
34.277461
 30
0.0
  0
VERTEX
  5
1B3
330
19C
100
AcDbEntity
  8
001
370
    50
100
AcDbVertex
100
AcDb2dVertex
 10
88.259008
 20
34.359099
 30
0.0
  0
VERTEX
  5
1B4
330
19C
100
AcDbEntity
  8
001
370
    50
100
AcDbVertex
100
AcDb2dVertex
 10
88.094524
 20
34.437387
 30
0.0
  0
VERTEX
  5
1B5
330
19C
100
AcDbEntity
  8
001
370
    50
100
AcDbVertex
100
AcDb2dVertex
 10
87.916678
 20
34.517604
 30
0.0
  0
VERTEX
  5
1B6
330
19C
100
AcDbEntity
  8
001
370
    50
100
AcDbVertex
100
AcDb2dVertex
 10
87.737184
 20
34.594061
 30
0.0
  0
VERTEX
  5
1B7
330
19C
100
AcDbEntity
  8
001
370
    50
100
AcDbVertex
100
AcDb2dVertex
 10
87.54726
 20
34.670152
 30
0.0
  0
VERTEX
  5
1B8
330
19C
100
AcDbEntity
  8
001
370
    50
100
AcDbVertex
100
AcDb2dVertex
 10
87.355666
 20
34.741928
 30
0.0
  0
VERTEX
  5
1B9
330
19C
100
AcDbEntity
  8
001
370
    50
100
AcDbVertex
100
AcDb2dVertex
 10
87.183537
 20
34.802173
 30
0.0
  0
VERTEX
  5
1BA
330
19C
100
AcDbEntity
  8
001
370
    50
100
AcDbVertex
100
AcDb2dVertex
 10
87.010222
 20
34.858919
 30
0.0
  0
VERTEX
  5
1BB
330
19C
100
AcDbEntity
  8
001
370
    50
100
AcDbVertex
100
AcDb2dVertex
 10
86.830959
 20
34.913637
 30
0.0
  0
VERTEX
  5
1BC
330
19C
100
AcDbEntity
  8
001
370
    50
100
AcDbVertex
100
AcDb2dVertex
 10
86.650622
 20
34.964706
 30
0.0
  0
VERTEX
  5
1BD
330
19C
100
AcDbEntity
  8
001
370
    50
100
AcDbVertex
100
AcDb2dVertex
 10
86.465748
 20
35.013
 30
0.0
  0
VERTEX
  5
1BE
330
19C
100
AcDbEntity
  8
001
370
    50
100
AcDbVertex
100
AcDb2dVertex
 10
86.27991
 20
35.057439
 30
0.0
  0
VERTEX
  5
1BF
330
19C
100
AcDbEntity
  8
001
370
    50
100
AcDbVertex
100
AcDb2dVertex
 10
86.090945
 20
35.098417
 30
0.0
  0
VERTEX
  5
1C0
330
19C
100
AcDbEntity
  8
001
370
    50
100
AcDbVertex
100
AcDb2dVertex
 10
85.901132
 20
35.135267
 30
0.0
  0
VERTEX
  5
1C1
330
19C
100
AcDbEntity
  8
001
370
    50
100
AcDbVertex
100
AcDb2dVertex
 10
85.674359
 20
35.173597
 30
0.0
  0
VERTEX
  5
1C2
330
19C
100
AcDbEntity
  8
001
370
    50
100
AcDbVertex
100
AcDb2dVertex
 10
85.446659
 20
35.205992
 30
0.0
  0
VERTEX
  5
1C3
330
19C
100
AcDbEntity
  8
001
370
    50
100
AcDbVertex
100
AcDb2dVertex
 10
85.215619
 20
35.232789
 30
0.0
  0
VERTEX
  5
1C4
330
19C
100
AcDbEntity
  8
001
370
    50
100
AcDbVertex
100
AcDb2dVertex
 10
84.983967
 20
35.253626
 30
0.0
  0
VERTEX
  5
1C5
330
19C
100
AcDbEntity
  8
001
370
    50
100
AcDbVertex
100
AcDb2dVertex
 10
84.750752
 20
35.268569
 30
0.0
  0
VERTEX
  5
1C6
330
19C
100
AcDbEntity
  8
001
370
    50
100
AcDbVertex
100
AcDb2dVertex
 10
84.517227
 20
35.277454
 30
0.0
  0
VERTEX
  5
1C7
330
19C
100
AcDbEntity
  8
001
370
    50
100
AcDbVertex
100
AcDb2dVertex
 10
84.283911
 20
35.280208
 30
0.0
  0
VERTEX
  5
1C8
330
19C
100
AcDbEntity
  8
001
370
    50
100
AcDbVertex
100
AcDb2dVertex
 10
84.050608
 20
35.276756
 30
0.0
  0
VERTEX
  5
1C9
330
19C
100
AcDbEntity
  8
001
370
    50
100
AcDbVertex
100
AcDb2dVertex
 10
83.842332
 20
35.268366
 30
0.0
  0
VERTEX
  5
1CA
330
19C
100
AcDbEntity
  8
001
370
    50
100
AcDbVertex
100
AcDb2dVertex
 10
83.634319
 20
35.255028
 30
0.0
  0
VERTEX
  5
1CB
330
19C
100
AcDbEntity
  8
001
370
    50
100
AcDbVertex
100
AcDb2dVertex
 10
83.42702
 20
35.236896
 30
0.0
  0
VERTEX
  5
1CC
330
19C
100
AcDbEntity
  8
001
370
    50
100
AcDbVertex
100
AcDb2dVertex
 10
83.220158
 20
35.214202
 30
0.0
  0
VERTEX
  5
1CD
330
19C
100
AcDbEntity
  8
001
370
    50
100
AcDbVertex
100
AcDb2dVertex
 10
83.015175
 20
35.187254
 30
0.0
  0
VERTEX
  5
1CE
330
19C
100
AcDbEntity
  8
001
370
    50
100
AcDbVertex
100
AcDb2dVertex
 10
82.810932
 20
35.155365
 30
0.0
  0
VERTEX
  5
1CF
330
19C
100
AcDbEntity
  8
001
370
    50
100
AcDbVertex
100
AcDb2dVertex
 10
82.609946
 20
35.118868
 30
0.0
  0
VERTEX
  5
1D0
330
19C
100
AcDbEntity
  8
001
370
    50
100
AcDbVertex
100
AcDb2dVertex
 10
82.409447
 20
35.079606
 30
0.0
  0
SEQEND
  5
19D
330
19C
100
AcDbEntity
  8
001
370
    50
  0
LINE
  5
1D1
330
1F
100
AcDbEntity
  8
001
370
    50
100
AcDbLine
 10
90.820728
 20
46.134677
 30
0.0
 11
64.020728
 21
46.134677
 31
0.0
  0
LINE
  5
1D2
330
1F
100
AcDbEntity
  8
001
370
    50
100
AcDbLine
 10
89.674932
 20
33.534677
 30
0.0
 11
90.820728
 21
33.534677
 31
0.0
  0
LINE
  5
1D3
330
1F
100
AcDbEntity
  8
001
370
    50
100
AcDbLine
 10
69.004447
 20
33.569125
 30
0.0
 11
68.83622
 21
33.564585
 31
0.0
  0
LINE
  5
1D4
330
1F
100
AcDbEntity
  8
001
370
    50
100
AcDbLine
 10
69.387447
 20
33.581562
 30
0.0
 11
69.004447
 21
33.569125
 31
0.0
  0
LINE
  5
1D5
330
1F
100
AcDbEntity
  8
001
370
    50
100
AcDbLine
 10
69.770447
 20
33.595903
 30
0.0
 11
69.387447
 21
33.581562
 31
0.0
  0
LINE
  5
1D6
330
1F
100
AcDbEntity
  8
001
370
    50
100
AcDbLine
 10
70.153447
 20
33.612145
 30
0.0
 11
69.770447
 21
33.595903
 31
0.0
  0
LINE
  5
1D7
330
1F
100
AcDbEntity
  8
001
370
    50
100
AcDbLine
 10
70.536447
 20
33.630282
 30
0.0
 11
70.153447
 21
33.612145
 31
0.0
  0
LINE
  5
1D8
330
1F
100
AcDbEntity
  8
001
370
    50
100
AcDbLine
 10
70.919447
 20
33.650309
 30
0.0
 11
70.536447
 21
33.630282
 31
0.0
  0
LINE
  5
1D9
330
1F
100
AcDbEntity
  8
001
370
    50
100
AcDbLine
 10
71.302447
 20
33.67222
 30
0.0
 11
70.919447
 21
33.650309
 31
0.0
  0
LINE
  5
1DA
330
1F
100
AcDbEntity
  8
001
370
    50
100
AcDbLine
 10
71.685447
 20
33.696008
 30
0.0
 11
71.302447
 21
33.67222
 31
0.0
  0
LINE
  5
1DB
330
1F
100
AcDbEntity
  8
001
370
    50
100
AcDbLine
 10
72.068447
 20
33.721666
 30
0.0
 11
71.685447
 21
33.696008
 31
0.0
  0
LINE
  5
1DC
330
1F
100
AcDbEntity
  8
001
370
    50
100
AcDbLine
 10
72.451447
 20
33.749186
 30
0.0
 11
72.068447
 21
33.721666
 31
0.0
  0
LINE
  5
1DD
330
1F
100
AcDbEntity
  8
001
370
    50
100
AcDbLine
 10
72.834447
 20
33.77856
 30
0.0
 11
72.451447
 21
33.749186
 31
0.0
  0
LINE
  5
1DE
330
1F
100
AcDbEntity
  8
001
370
    50
100
AcDbLine
 10
73.217447
 20
33.809779
 30
0.0
 11
72.834447
 21
33.77856
 31
0.0
  0
LINE
  5
1DF
330
1F
100
AcDbEntity
  8
001
370
    50
100
AcDbLine
 10
73.600447
 20
33.842832
 30
0.0
 11
73.217447
 21
33.809779
 31
0.0
  0
LINE
  5
1E0
330
1F
100
AcDbEntity
  8
001
370
    50
100
AcDbLine
 10
73.983447
 20
33.877711
 30
0.0
 11
73.600447
 21
33.842832
 31
0.0
  0
LINE
  5
1E1
330
1F
100
AcDbEntity
  8
001
370
    50
100
AcDbLine
 10
74.366447
 20
33.914405
 30
0.0
 11
73.983447
 21
33.877711
 31
0.0
  0
LINE
  5
1E2
330
1F
100
AcDbEntity
  8
001
370
    50
100
AcDbLine
 10
74.749447
 20
33.952901
 30
0.0
 11
74.366447
 21
33.914405
 31
0.0
  0
LINE
  5
1E3
330
1F
100
AcDbEntity
  8
001
370
    50
100
AcDbLine
 10
75.132447
 20
33.99319
 30
0.0
 11
74.749447
 21
33.952901
 31
0.0
  0
LINE
  5
1E4
330
1F
100
AcDbEntity
  8
001
370
    50
100
AcDbLine
 10
75.515447
 20
34.035258
 30
0.0
 11
75.132447
 21
33.99319
 31
0.0
  0
LINE
  5
1E5
330
1F
100
AcDbEntity
  8
001
370
    50
100
AcDbLine
 10
75.898447
 20
34.079092
 30
0.0
 11
75.515447
 21
34.035258
 31
0.0
  0
LINE
  5
1E6
330
1F
100
AcDbEntity
  8
001
370
    50
100
AcDbLine
 10
76.281447
 20
34.12468
 30
0.0
 11
75.898447
 21
34.079092
 31
0.0
  0
LINE
  5
1E7
330
1F
100
AcDbEntity
  8
001
370
    50
100
AcDbLine
 10
76.664447
 20
34.172007
 30
0.0
 11
76.281447
 21
34.12468
 31
0.0
  0
LINE
  5
1E8
330
1F
100
AcDbEntity
  8
001
370
    50
100
AcDbLine
 10
77.047447
 20
34.221059
 30
0.0
 11
76.664447
 21
34.172007
 31
0.0
  0
LINE
  5
1E9
330
1F
100
AcDbEntity
  8
001
370
    50
100
AcDbLine
 10
77.430447
 20
34.27182
 30
0.0
 11
77.047447
 21
34.221059
 31
0.0
  0
LINE
  5
1EA
330
1F
100
AcDbEntity
  8
001
370
    50
100
AcDbLine
 10
77.813447
 20
34.324277
 30
0.0
 11
77.430447
 21
34.27182
 31
0.0
  0
LINE
  5
1EB
330
1F
100
AcDbEntity
  8
001
370
    50
100
AcDbLine
 10
78.196447
 20
34.378411
 30
0.0
 11
77.813447
 21
34.324277
 31
0.0
  0
LINE
  5
1EC
330
1F
100
AcDbEntity
  8
001
370
    50
100
AcDbLine
 10
78.579447
 20
34.434208
 30
0.0
 11
78.196447
 21
34.378411
 31
0.0
  0
LINE
  5
1ED
330
1F
100
AcDbEntity
  8
001
370
    50
100
AcDbLine
 10
78.962447
 20
34.49165
 30
0.0
 11
78.579447
 21
34.434208
 31
0.0
  0
LINE
  5
1EE
330
1F
100
AcDbEntity
  8
001
370
    50
100
AcDbLine
 10
79.345447
 20
34.55072
 30
0.0
 11
78.962447
 21
34.49165
 31
0.0
  0
LINE
  5
1EF
330
1F
100
AcDbEntity
  8
001
370
    50
100
AcDbLine
 10
79.728447
 20
34.611399
 30
0.0
 11
79.345447
 21
34.55072
 31
0.0
  0
LINE
  5
1F0
330
1F
100
AcDbEntity
  8
001
370
    50
100
AcDbLine
 10
80.111447
 20
34.673669
 30
0.0
 11
79.728447
 21
34.611399
 31
0.0
  0
LINE
  5
1F1
330
1F
100
AcDbEntity
  8
001
370
    50
100
AcDbLine
 10
80.494447
 20
34.737511
 30
0.0
 11
80.111447
 21
34.673669
 31
0.0
  0
LINE
  5
1F2
330
1F
100
AcDbEntity
  8
001
370
    50
100
AcDbLine
 10
80.877447
 20
34.802906
 30
0.0
 11
80.494447
 21
34.737511
 31
0.0
  0
LINE
  5
1F3
330
1F
100
AcDbEntity
  8
001
370
    50
100
AcDbLine
 10
81.260447
 20
34.869833
 30
0.0
 11
80.877447
 21
34.802906
 31
0.0
  0
LINE
  5
1F4
330
1F
100
AcDbEntity
  8
001
370
    50
100
AcDbLine
 10
81.643447
 20
34.938273
 30
0.0
 11
81.260447
 21
34.869833
 31
0.0
  0
LINE
  5
1F5
330
1F
100
AcDbEntity
  8
001
370
    50
100
AcDbLine
 10
82.026447
 20
35.008204
 30
0.0
 11
81.643447
 21
34.938273
 31
0.0
  0
LINE
  5
1F6
330
1F
100
AcDbEntity
  8
001
370
    50
100
AcDbLine
 10
82.409447
 20
35.079606
 30
0.0
 11
82.026447
 21
35.008204
 31
0.0
  0
POLYLINE
  5
1F7
330
1F
100
AcDbEntity
  8
001
370
    50
100
AcDb2dPolyline
 66
     1
 10
0.0
 20
0.0
 30
0.0
  0
VERTEX
  5
1F9
330
1F7
100
AcDbEntity
  8
001
370
    50
100
AcDbVertex
100
AcDb2dVertex
 10
89.435471
 20
34.390215
 30
0.0
  0
VERTEX
  5
1FA
330
1F7
100
AcDbEntity
  8
001
370
    50
100
AcDbVertex
100
AcDb2dVertex
 10
89.472403
 20
34.276194
 30
0.0
  0
VERTEX
  5
1FB
330
1F7
100
AcDbEntity
  8
001
370
    50
100
AcDbVertex
100
AcDb2dVertex
 10
89.509975
 20
34.162386
 30
0.0
  0
VERTEX
  5
1FC
330
1F7
100
AcDbEntity
  8
001
370
    50
100
AcDbVertex
100
AcDb2dVertex
 10
89.543176
 20
34.06473
 30
0.0
  0
VERTEX
  5
1FD
330
1F7
100
AcDbEntity
  8
001
370
    50
100
AcDbVertex
100
AcDb2dVertex
 10
89.576928
 20
33.967263
 30
0.0
  0
VERTEX
  5
1FE
330
1F7
100
AcDbEntity
  8
001
370
    50
100
AcDbVertex
100
AcDb2dVertex
 10
89.604902
 20
33.886981
 30
0.0
  0
VERTEX
  5
1FF
330
1F7
100
AcDbEntity
  8
001
370
    50
100
AcDbVertex
100
AcDb2dVertex
 10
89.632892
 20
33.806697
 30
0.0
  0
VERTEX
  5
200
330
1F7
100
AcDbEntity
  8
001
370
    50
100
AcDbVertex
100
AcDb2dVertex
 10
89.654225
 20
33.7448
 30
0.0
  0
VERTEX
  5
201
330
1F7
100
AcDbEntity
  8
001
370
    50
100
AcDbVertex
100
AcDb2dVertex
 10
89.674431
 20
33.68254
 30
0.0
  0
VERTEX
  5
202
330
1F7
100
AcDbEntity
  8
001
370
    50
100
AcDbVertex
100
AcDb2dVertex
 10
89.680349
 20
33.663021
 30
0.0
  0
VERTEX
  5
203
330
1F7
100
AcDbEntity
  8
001
370
    50
100
AcDbVertex
100
AcDb2dVertex
 10
89.686159
 20
33.643467
 30
0.0
  0
SEQEND
  5
1F8
330
1F7
100
AcDbEntity
  8
001
370
    50
  0
POLYLINE
  5
204
330
1F
100
AcDbEntity
  8
001
370
    50
100
AcDb2dPolyline
 66
     1
 10
0.0
 20
0.0
 30
0.0
  0
VERTEX
  5
206
330
204
100
AcDbEntity
  8
001
370
    50
100
AcDbVertex
100
AcDb2dVertex
 10
84.938978
 20
38.087909
 30
0.0
  0
VERTEX
  5
207
330
204
100
AcDbEntity
  8
001
370
    50
100
AcDbVertex
100
AcDb2dVertex
 10
85.144219
 20
38.033225
 30
0.0
  0
VERTEX
  5
208
330
204
100
AcDbEntity
  8
001
370
    50
100
AcDbVertex
100
AcDb2dVertex
 10
85.348139
 20
37.974134
 30
0.0
  0
VERTEX
  5
209
330
204
100
AcDbEntity
  8
001
370
    50
100
AcDbVertex
100
AcDb2dVertex
 10
85.549679
 20
37.907202
 30
0.0
  0
VERTEX
  5
20A
330
204
100
AcDbEntity
  8
001
370
    50
100
AcDbVertex
100
AcDb2dVertex
 10
85.74871
 20
37.832926
 30
0.0
  0
VERTEX
  5
20B
330
204
100
AcDbEntity
  8
001
370
    50
100
AcDbVertex
100
AcDb2dVertex
 10
85.944592
 20
37.752806
 30
0.0
  0
VERTEX
  5
20C
330
204
100
AcDbEntity
  8
001
370
    50
100
AcDbVertex
100
AcDb2dVertex
 10
86.137872
 20
37.666679
 30
0.0
  0
VERTEX
  5
20D
330
204
100
AcDbEntity
  8
001
370
    50
100
AcDbVertex
100
AcDb2dVertex
 10
86.32682
 20
37.575184
 30
0.0
  0
VERTEX
  5
20E
330
204
100
AcDbEntity
  8
001
370
    50
100
AcDbVertex
100
AcDb2dVertex
 10
86.512808
 20
37.477785
 30
0.0
  0
VERTEX
  5
20F
330
204
100
AcDbEntity
  8
001
370
    50
100
AcDbVertex
100
AcDb2dVertex
 10
86.724729
 20
37.357621
 30
0.0
  0
VERTEX
  5
210
330
204
100
AcDbEntity
  8
001
370
    50
100
AcDbVertex
100
AcDb2dVertex
 10
86.932335
 20
37.23014
 30
0.0
  0
VERTEX
  5
211
330
204
100
AcDbEntity
  8
001
370
    50
100
AcDbVertex
100
AcDb2dVertex
 10
87.133674
 20
37.096968
 30
0.0
  0
VERTEX
  5
212
330
204
100
AcDbEntity
  8
001
370
    50
100
AcDbVertex
100
AcDb2dVertex
 10
87.330541
 20
36.957273
 30
0.0
  0
VERTEX
  5
213
330
204
100
AcDbEntity
  8
001
370
    50
100
AcDbVertex
100
AcDb2dVertex
 10
87.519378
 20
36.814004
 30
0.0
  0
VERTEX
  5
214
330
204
100
AcDbEntity
  8
001
370
    50
100
AcDbVertex
100
AcDb2dVertex
 10
87.703613
 20
36.664862
 30
0.0
  0
VERTEX
  5
215
330
204
100
AcDbEntity
  8
001
370
    50
100
AcDbVertex
100
AcDb2dVertex
 10
87.878072
 20
36.51441
 30
0.0
  0
VERTEX
  5
216
330
204
100
AcDbEntity
  8
001
370
    50
100
AcDbVertex
100
AcDb2dVertex
 10
88.047738
 20
36.358587
 30
0.0
  0
VERTEX
  5
217
330
204
100
AcDbEntity
  8
001
370
    50
100
AcDbVertex
100
AcDb2dVertex
 10
88.1745
 20
36.235427
 30
0.0
  0
VERTEX
  5
218
330
204
100
AcDbEntity
  8
001
370
    50
100
AcDbVertex
100
AcDb2dVertex
 10
88.298211
 20
36.109205
 30
0.0
  0
VERTEX
  5
219
330
204
100
AcDbEntity
  8
001
370
    50
100
AcDbVertex
100
AcDb2dVertex
 10
88.415468
 20
35.983643
 30
0.0
  0
VERTEX
  5
21A
330
204
100
AcDbEntity
  8
001
370
    50
100
AcDbVertex
100
AcDb2dVertex
 10
88.529664
 20
35.85529
 30
0.0
  0
VERTEX
  5
21B
330
204
100
AcDbEntity
  8
001
370
    50
100
AcDbVertex
100
AcDb2dVertex
 10
88.63645
 20
35.729268
 30
0.0
  0
VERTEX
  5
21C
330
204
100
AcDbEntity
  8
001
370
    50
100
AcDbVertex
100
AcDb2dVertex
 10
88.740105
 20
35.600663
 30
0.0
  0
VERTEX
  5
21D
330
204
100
AcDbEntity
  8
001
370
    50
100
AcDbVertex
100
AcDb2dVertex
 10
88.835445
 20
35.476117
 30
0.0
  0
VERTEX
  5
21E
330
204
100
AcDbEntity
  8
001
370
    50
100
AcDbVertex
100
AcDb2dVertex
 10
88.92754
 20
35.349146
 30
0.0
  0
VERTEX
  5
21F
330
204
100
AcDbEntity
  8
001
370
    50
100
AcDbVertex
100
AcDb2dVertex
 10
89.010535
 20
35.228022
 30
0.0
  0
VERTEX
  5
220
330
204
100
AcDbEntity
  8
001
370
    50
100
AcDbVertex
100
AcDb2dVertex
 10
89.089976
 20
35.104561
 30
0.0
  0
VERTEX
  5
221
330
204
100
AcDbEntity
  8
001
370
    50
100
AcDbVertex
100
AcDb2dVertex
 10
89.165181
 20
34.979081
 30
0.0
  0
VERTEX
  5
222
330
204
100
AcDbEntity
  8
001
370
    50
100
AcDbVertex
100
AcDb2dVertex
 10
89.236277
 20
34.851169
 30
0.0
  0
VERTEX
  5
223
330
204
100
AcDbEntity
  8
001
370
    50
100
AcDbVertex
100
AcDb2dVertex
 10
89.296977
 20
34.732593
 30
0.0
  0
VERTEX
  5
224
330
204
100
AcDbEntity
  8
001
370
    50
100
AcDbVertex
100
AcDb2dVertex
 10
89.35206
 20
34.611428
 30
0.0
  0
VERTEX
  5
225
330
204
100
AcDbEntity
  8
001
370
    50
100
AcDbVertex
100
AcDb2dVertex
 10
89.395296
 20
34.501452
 30
0.0
  0
VERTEX
  5
226
330
204
100
AcDbEntity
  8
001
370
    50
100
AcDbVertex
100
AcDb2dVertex
 10
89.435471
 20
34.390215
 30
0.0
  0
SEQEND
  5
205
330
204
100
AcDbEntity
  8
001
370
    50
  0
LINE
  5
227
330
1F
100
AcDbEntity
  8
001
370
    50
100
AcDbLine
 10
84.555978
 20
38.193815
 30
0.0
 11
84.938978
 21
38.087909
 31
0.0
  0
LINE
  5
228
330
1F
100
AcDbEntity
  8
001
370
    50
100
AcDbLine
 10
84.172978
 20
38.30022
 30
0.0
 11
84.555978
 21
38.193815
 31
0.0
  0
LINE
  5
229
330
1F
100
AcDbEntity
  8
001
370
    50
100
AcDbLine
 10
83.789978
 20
38.407093
 30
0.0
 11
84.172978
 21
38.30022
 31
0.0
  0
LINE
  5
22A
330
1F
100
AcDbEntity
  8
001
370
    50
100
AcDbLine
 10
83.406978
 20
38.5144
 30
0.0
 11
83.789978
 21
38.407093
 31
0.0
  0
LINE
  5
22B
330
1F
100
AcDbEntity
  8
001
370
    50
100
AcDbLine
 10
83.023978
 20
38.62211
 30
0.0
 11
83.406978
 21
38.5144
 31
0.0
  0
LINE
  5
22C
330
1F
100
AcDbEntity
  8
001
370
    50
100
AcDbLine
 10
82.640978
 20
38.730189
 30
0.0
 11
83.023978
 21
38.62211
 31
0.0
  0
LINE
  5
22D
330
1F
100
AcDbEntity
  8
001
370
    50
100
AcDbLine
 10
82.257978
 20
38.838605
 30
0.0
 11
82.640978
 21
38.730189
 31
0.0
  0
LINE
  5
22E
330
1F
100
AcDbEntity
  8
001
370
    50
100
AcDbLine
 10
81.874978
 20
38.947323
 30
0.0
 11
82.257978
 21
38.838605
 31
0.0
  0
LINE
  5
22F
330
1F
100
AcDbEntity
  8
001
370
    50
100
AcDbLine
 10
81.491978
 20
39.056313
 30
0.0
 11
81.874978
 21
38.947323
 31
0.0
  0
LINE
  5
230
330
1F
100
AcDbEntity
  8
001
370
    50
100
AcDbLine
 10
81.108978
 20
39.165539
 30
0.0
 11
81.491978
 21
39.056313
 31
0.0
  0
LINE
  5
231
330
1F
100
AcDbEntity
  8
001
370
    50
100
AcDbLine
 10
80.725978
 20
39.274969
 30
0.0
 11
81.108978
 21
39.165539
 31
0.0
  0
LINE
  5
232
330
1F
100
AcDbEntity
  8
001
370
    50
100
AcDbLine
 10
80.342978
 20
39.38457
 30
0.0
 11
80.725978
 21
39.274969
 31
0.0
  0
LINE
  5
233
330
1F
100
AcDbEntity
  8
001
370
    50
100
AcDbLine
 10
79.959978
 20
39.494308
 30
0.0
 11
80.342978
 21
39.38457
 31
0.0
  0
LINE
  5
234
330
1F
100
AcDbEntity
  8
001
370
    50
100
AcDbLine
 10
79.576978
 20
39.604149
 30
0.0
 11
79.959978
 21
39.494308
 31
0.0
  0
LINE
  5
235
330
1F
100
AcDbEntity
  8
001
370
    50
100
AcDbLine
 10
79.193978
 20
39.714061
 30
0.0
 11
79.576978
 21
39.604149
 31
0.0
  0
LINE
  5
236
330
1F
100
AcDbEntity
  8
001
370
    50
100
AcDbLine
 10
78.810978
 20
39.824009
 30
0.0
 11
79.193978
 21
39.714061
 31
0.0
  0
LINE
  5
237
330
1F
100
AcDbEntity
  8
001
370
    50
100
AcDbLine
 10
78.427978
 20
39.933961
 30
0.0
 11
78.810978
 21
39.824009
 31
0.0
  0
LINE
  5
238
330
1F
100
AcDbEntity
  8
001
370
    50
100
AcDbLine
 10
78.044978
 20
40.043882
 30
0.0
 11
78.427978
 21
39.933961
 31
0.0
  0
LINE
  5
239
330
1F
100
AcDbEntity
  8
001
370
    50
100
AcDbLine
 10
77.661978
 20
40.15374
 30
0.0
 11
78.044978
 21
40.043882
 31
0.0
  0
LINE
  5
23A
330
1F
100
AcDbEntity
  8
001
370
    50
100
AcDbLine
 10
77.278978
 20
40.2635
 30
0.0
 11
77.661978
 21
40.15374
 31
0.0
  0
LINE
  5
23B
330
1F
100
AcDbEntity
  8
001
370
    50
100
AcDbLine
 10
76.895978
 20
40.37313
 30
0.0
 11
77.278978
 21
40.2635
 31
0.0
  0
LINE
  5
23C
330
1F
100
AcDbEntity
  8
001
370
    50
100
AcDbLine
 10
76.512978
 20
40.482596
 30
0.0
 11
76.895978
 21
40.37313
 31
0.0
  0
LINE
  5
23D
330
1F
100
AcDbEntity
  8
001
370
    50
100
AcDbLine
 10
76.129978
 20
40.591864
 30
0.0
 11
76.512978
 21
40.482596
 31
0.0
  0
POLYLINE
  5
23E
330
1F
100
AcDbEntity
  8
001
370
    50
100
AcDb2dPolyline
 66
     1
 10
0.0
 20
0.0
 30
0.0
  0
VERTEX
  5
240
330
23E
100
AcDbEntity
  8
001
370
    50
100
AcDbVertex
100
AcDb2dVertex
 10
75.746978
 20
40.700902
 30
0.0
  0
VERTEX
  5
241
330
23E
100
AcDbEntity
  8
001
370
    50
100
AcDbVertex
100
AcDb2dVertex
 10
75.802433
 20
40.686782
 30
0.0
  0
VERTEX
  5
242
330
23E
100
AcDbEntity
  8
001
370
    50
100
AcDbVertex
100
AcDb2dVertex
 10
75.857776
 20
40.672256
 30
0.0
  0
VERTEX
  5
243
330
23E
100
AcDbEntity
  8
001
370
    50
100
AcDbVertex
100
AcDb2dVertex
 10
75.994223
 20
40.633309
 30
0.0
  0
VERTEX
  5
244
330
23E
100
AcDbEntity
  8
001
370
    50
100
AcDbVertex
100
AcDb2dVertex
 10
76.129978
 20
40.591864
 30
0.0
  0
SEQEND
  5
23F
330
23E
100
AcDbEntity
  8
001
370
    50
  0
LINE
  5
245
330
1F
100
AcDbEntity
  8
001
370
    50
100
AcDbLine
 10
75.363978
 20
40.809676
 30
0.0
 11
75.746978
 21
40.700902
 31
0.0
  0
LINE
  5
246
330
1F
100
AcDbEntity
  8
001
370
    50
100
AcDbLine
 10
74.980978
 20
40.918153
 30
0.0
 11
75.363978
 21
40.809676
 31
0.0
  0
LINE
  5
247
330
1F
100
AcDbEntity
  8
001
370
    50
100
AcDbLine
 10
74.597978
 20
41.0263
 30
0.0
 11
74.980978
 21
40.918153
 31
0.0
  0
LINE
  5
248
330
1F
100
AcDbEntity
  8
001
370
    50
100
AcDbLine
 10
74.214978
 20
41.134084
 30
0.0
 11
74.597978
 21
41.0263
 31
0.0
  0
LINE
  5
249
330
1F
100
AcDbEntity
  8
001
370
    50
100
AcDbLine
 10
73.831978
 20
41.241472
 30
0.0
 11
74.214978
 21
41.134084
 31
0.0
  0
LINE
  5
24A
330
1F
100
AcDbEntity
  8
001
370
    50
100
AcDbLine
 10
73.448978
 20
41.348432
 30
0.0
 11
73.831978
 21
41.241472
 31
0.0
  0
LINE
  5
24B
330
1F
100
AcDbEntity
  8
001
370
    50
100
AcDbLine
 10
73.065978
 20
41.45493
 30
0.0
 11
73.448978
 21
41.348432
 31
0.0
  0
LINE
  5
24C
330
1F
100
AcDbEntity
  8
001
370
    50
100
AcDbLine
 10
72.682978
 20
41.560935
 30
0.0
 11
73.065978
 21
41.45493
 31
0.0
  0
LINE
  5
24D
330
1F
100
AcDbEntity
  8
001
370
    50
100
AcDbLine
 10
72.299978
 20
41.666414
 30
0.0
 11
72.682978
 21
41.560935
 31
0.0
  0
LINE
  5
24E
330
1F
100
AcDbEntity
  8
001
370
    50
100
AcDbLine
 10
71.916978
 20
41.771335
 30
0.0
 11
72.299978
 21
41.666414
 31
0.0
  0
LINE
  5
24F
330
1F
100
AcDbEntity
  8
001
370
    50
100
AcDbLine
 10
71.533978
 20
41.875667
 30
0.0
 11
71.671564
 21
41.841335
 31
0.0
  0
LINE
  5
250
330
1F
100
AcDbEntity
  8
001
370
    50
100
AcDbLine
 10
71.150978
 20
41.979376
 30
0.0
 11
71.533978
 21
41.875667
 31
0.0
  0
LINE
  5
251
330
1F
100
AcDbEntity
  8
001
370
    50
100
AcDbLine
 10
70.767978
 20
42.082432
 30
0.0
 11
71.150978
 21
41.979376
 31
0.0
  0
LINE
  5
252
330
1F
100
AcDbEntity
  8
001
370
    50
100
AcDbLine
 10
70.384978
 20
42.184804
 30
0.0
 11
70.767978
 21
42.082432
 31
0.0
  0
LINE
  5
253
330
1F
100
AcDbEntity
  8
001
370
    50
100
AcDbLine
 10
70.001978
 20
42.28646
 30
0.0
 11
70.384978
 21
42.184804
 31
0.0
  0
LINE
  5
254
330
1F
100
AcDbEntity
  8
001
370
    50
100
AcDbLine
 10
69.618978
 20
42.387368
 30
0.0
 11
70.001978
 21
42.28646
 31
0.0
  0
LINE
  5
255
330
1F
100
AcDbEntity
  8
001
370
    50
100
AcDbLine
 10
69.235978
 20
42.4875
 30
0.0
 11
69.618978
 21
42.387368
 31
0.0
  0
LINE
  5
256
330
1F
100
AcDbEntity
  8
001
370
    50
100
AcDbLine
 10
68.852978
 20
42.586823
 30
0.0
 11
69.235978
 21
42.4875
 31
0.0
  0
LINE
  5
257
330
1F
100
AcDbEntity
  8
001
370
    50
100
AcDbLine
 10
68.469978
 20
42.685308
 30
0.0
 11
68.852978
 21
42.586823
 31
0.0
  0
LINE
  5
258
330
1F
100
AcDbEntity
  8
001
370
    50
100
AcDbLine
 10
68.086978
 20
42.782924
 30
0.0
 11
68.469978
 21
42.685308
 31
0.0
  0
LINE
  5
259
330
1F
100
AcDbEntity
  8
001
370
    50
100
AcDbLine
 10
67.703978
 20
42.879643
 30
0.0
 11
68.086978
 21
42.782924
 31
0.0
  0
LINE
  5
25A
330
1F
100
AcDbEntity
  8
001
370
    50
100
AcDbLine
 10
67.320978
 20
42.975434
 30
0.0
 11
67.703978
 21
42.879643
 31
0.0
  0
LINE
  5
25B
330
1F
100
AcDbEntity
  8
001
370
    50
100
AcDbLine
 10
66.937978
 20
43.070268
 30
0.0
 11
67.320978
 21
42.975434
 31
0.0
  0
LINE
  5
25C
330
1F
100
AcDbEntity
  8
001
370
    50
100
AcDbLine
 10
66.554978
 20
43.164117
 30
0.0
 11
66.937978
 21
43.070268
 31
0.0
  0
POLYLINE
  5
25D
330
1F
100
AcDbEntity
  8
001
370
    50
100
AcDb2dPolyline
 66
     1
 10
0.0
 20
0.0
 30
0.0
  0
VERTEX
  5
25F
330
25D
100
AcDbEntity
  8
001
370
    50
100
AcDbVertex
100
AcDb2dVertex
 10
66.171978
 20
43.256951
 30
0.0
  0
VERTEX
  5
260
330
25D
100
AcDbEntity
  8
001
370
    50
100
AcDbVertex
100
AcDb2dVertex
 10
66.284946
 20
43.231884
 30
0.0
  0
VERTEX
  5
261
330
25D
100
AcDbEntity
  8
001
370
    50
100
AcDbVertex
100
AcDb2dVertex
 10
66.397542
 20
43.205296
 30
0.0
  0
VERTEX
  5
262
330
25D
100
AcDbEntity
  8
001
370
    50
100
AcDbVertex
100
AcDb2dVertex
 10
66.476352
 20
43.185082
 30
0.0
  0
VERTEX
  5
263
330
25D
100
AcDbEntity
  8
001
370
    50
100
AcDbVertex
100
AcDb2dVertex
 10
66.554978
 20
43.164117
 30
0.0
  0
SEQEND
  5
25E
330
25D
100
AcDbEntity
  8
001
370
    50
  0
POLYLINE
  5
264
330
1F
100
AcDbEntity
  8
001
370
    50
100
AcDb2dPolyline
 66
     1
 10
0.0
 20
0.0
 30
0.0
  0
VERTEX
  5
266
330
264
100
AcDbEntity
  8
001
370
    50
100
AcDbVertex
100
AcDb2dVertex
 10
65.788978
 20
43.348743
 30
0.0
  0
VERTEX
  5
267
330
264
100
AcDbEntity
  8
001
370
    50
100
AcDbVertex
100
AcDb2dVertex
 10
65.863463
 20
43.332697
 30
0.0
  0
VERTEX
  5
268
330
264
100
AcDbEntity
  8
001
370
    50
100
AcDbVertex
100
AcDb2dVertex
 10
65.937794
 20
43.315997
 30
0.0
  0
VERTEX
  5
269
330
264
100
AcDbEntity
  8
001
370
    50
100
AcDbVertex
100
AcDb2dVertex
 10
66.05508
 20
43.287296
 30
0.0
  0
VERTEX
  5
26A
330
264
100
AcDbEntity
  8
001
370
    50
100
AcDbVertex
100
AcDb2dVertex
 10
66.171978
 20
43.256951
 30
0.0
  0
SEQEND
  5
265
330
264
100
AcDbEntity
  8
001
370
    50
  0
LINE
  5
26B
330
1F
100
AcDbEntity
  8
001
370
    50
100
AcDbLine
 10
65.405978
 20
43.439465
 30
0.0
 11
65.788978
 21
43.348743
 31
0.0
  0
LINE
  5
26C
330
1F
100
AcDbEntity
  8
001
370
    50
100
AcDbLine
 10
65.022978
 20
43.529088
 30
0.0
 11
65.405978
 21
43.439465
 31
0.0
  0
LINE
  5
26D
330
1F
100
AcDbEntity
  8
001
370
    50
100
AcDbLine
 10
64.639978
 20
43.617586
 30
0.0
 11
65.022978
 21
43.529088
 31
0.0
  0
LINE
  5
26E
330
1F
100
AcDbEntity
  8
001
370
    50
100
AcDbLine
 10
64.256978
 20
43.704932
 30
0.0
 11
64.639978
 21
43.617586
 31
0.0
  0
LINE
  5
26F
330
1F
100
AcDbEntity
  8
001
370
    50
100
AcDbLine
 10
64.020728
 20
43.760833
 30
0.0
 11
64.256978
 21
43.704932
 31
0.0
  0
POLYLINE
  5
270
330
1F
100
AcDbEntity
  8
001
  6
DASHED
370
    50
100
AcDb2dPolyline
 66
     1
 10
0.0
 20
0.0
 30
0.0
  0
VERTEX
  5
272
330
270
100
AcDbEntity
  8
001
  6
DASHED
370
    50
100
AcDbVertex
100
AcDb2dVertex
 10
81.891748
 20
38.947259
 30
0.0
  0
VERTEX
  5
273
330
270
100
AcDbEntity
  8
001
  6
DASHED
370
    50
100
AcDbVertex
100
AcDb2dVertex
 10
81.890135
 20
38.945136
 30
0.0
  0
VERTEX
  5
274
330
270
100
AcDbEntity
  8
001
  6
DASHED
370
    50
100
AcDbVertex
100
AcDb2dVertex
 10
81.88778
 20
38.942031
 30
0.0
  0
VERTEX
  5
275
330
270
100
AcDbEntity
  8
001
  6
DASHED
370
    50
100
AcDbVertex
100
AcDb2dVertex
 10
81.885422
 20
38.938913
 30
0.0
  0
VERTEX
  5
276
330
270
100
AcDbEntity
  8
001
  6
DASHED
370
    50
100
AcDbVertex
100
AcDb2dVertex
 10
81.883811
 20
38.936778
 30
0.0
  0
SEQEND
  5
271
330
270
100
AcDbEntity
  8
001
  6
DASHED
370
    50
  0
POLYLINE
  5
277
330
1F
100
AcDbEntity
  8
001
370
    50
100
AcDb2dPolyline
 66
     1
 10
0.0
 20
0.0
 30
0.0
  0
VERTEX
  5
279
330
277
100
AcDbEntity
  8
001
370
    50
100
AcDbVertex
100
AcDb2dVertex
 10
71.916978
 20
41.771335
 30
0.0
  0
VERTEX
  5
27A
330
277
100
AcDbEntity
  8
001
370
    50
100
AcDbVertex
100
AcDb2dVertex
 10
71.914453
 20
41.772115
 30
0.0
  0
VERTEX
  5
27B
330
277
100
AcDbEntity
  8
001
370
    50
100
AcDbVertex
100
AcDb2dVertex
 10
71.910744
 20
41.77319
 30
0.0
  0
VERTEX
  5
27C
330
277
100
AcDbEntity
  8
001
370
    50
100
AcDbVertex
100
AcDb2dVertex
 10
71.907011
 20
41.774173
 30
0.0
  0
VERTEX
  5
27D
330
277
100
AcDbEntity
  8
001
370
    50
100
AcDbVertex
100
AcDb2dVertex
 10
71.904445
 20
41.7748
 30
0.0
  0
SEQEND
  5
278
330
277
100
AcDbEntity
  8
001
370
    50
  0
LINE
  5
27E
330
1F
100
AcDbEntity
  8
001
370
    50
100
AcDbLine
 10
71.671564
 20
41.841335
 30
0.0
 11
71.916978
 21
41.771335
 31
0.0
  0
POLYLINE
  5
27F
330
1F
100
AcDbEntity
  8
001
370
    50
100
AcDb2dPolyline
 66
     1
 10
0.0
 20
0.0
 30
0.0
  0
VERTEX
  5
281
330
27F
100
AcDbEntity
  8
001
370
    50
100
AcDbVertex
100
AcDb2dVertex
 10
69.242992
 20
37.62124
 30
0.0
  0
VERTEX
  5
282
330
27F
100
AcDbEntity
  8
001
370
    50
100
AcDbVertex
100
AcDb2dVertex
 10
69.242505
 20
37.616965
 30
0.0
  0
VERTEX
  5
283
330
27F
100
AcDbEntity
  8
001
370
    50
100
AcDbVertex
100
AcDb2dVertex
 10
69.241795
 20
37.610716
 30
0.0
  0
VERTEX
  5
284
330
27F
100
AcDbEntity
  8
001
370
    50
100
AcDbVertex
100
AcDb2dVertex
 10
69.241088
 20
37.604465
 30
0.0
  0
VERTEX
  5
285
330
27F
100
AcDbEntity
  8
001
370
    50
100
AcDbVertex
100
AcDb2dVertex
 10
69.240606
 20
37.600188
 30
0.0
  0
SEQEND
  5
280
330
27F
100
AcDbEntity
  8
001
370
    50
  0
POLYLINE
  5
286
330
1F
100
AcDbEntity
  8
001
370
    50
100
AcDb2dPolyline
 66
     1
 10
0.0
 20
0.0
 30
0.0
  0
VERTEX
  5
288
330
286
100
AcDbEntity
  8
001
370
    50
100
AcDbVertex
100
AcDb2dVertex
 10
69.242992
 20
37.62124
 30
0.0
  0
VERTEX
  5
289
330
286
100
AcDbEntity
  8
001
370
    50
100
AcDbVertex
100
AcDb2dVertex
 10
69.299017
 20
37.689966
 30
0.0
  0
VERTEX
  5
28A
330
286
100
AcDbEntity
  8
001
370
    50
100
AcDbVertex
100
AcDb2dVertex
 10
69.352152
 20
37.760784
 30
0.0
  0
VERTEX
  5
28B
330
286
100
AcDbEntity
  8
001
370
    50
100
AcDbVertex
100
AcDb2dVertex
 10
69.399586
 20
37.834479
 30
0.0
  0
VERTEX
  5
28C
330
286
100
AcDbEntity
  8
001
370
    50
100
AcDbVertex
100
AcDb2dVertex
 10
69.441815
 20
37.9114
 30
0.0
  0
VERTEX
  5
28D
330
286
100
AcDbEntity
  8
001
370
    50
100
AcDbVertex
100
AcDb2dVertex
 10
69.486552
 20
38.008109
 30
0.0
  0
VERTEX
  5
28E
330
286
100
AcDbEntity
  8
001
370
    50
100
AcDbVertex
100
AcDb2dVertex
 10
69.523828
 20
38.107882
 30
0.0
  0
VERTEX
  5
28F
330
286
100
AcDbEntity
  8
001
370
    50
100
AcDbVertex
100
AcDb2dVertex
 10
69.552763
 20
38.208431
 30
0.0
  0
VERTEX
  5
290
330
286
100
AcDbEntity
  8
001
370
    50
100
AcDbVertex
100
AcDb2dVertex
 10
69.573785
 20
38.310944
 30
0.0
  0
VERTEX
  5
291
330
286
100
AcDbEntity
  8
001
370
    50
100
AcDbVertex
100
AcDb2dVertex
 10
69.586958
 20
38.418753
 30
0.0
  0
VERTEX
  5
292
330
286
100
AcDbEntity
  8
001
370
    50
100
AcDbVertex
100
AcDb2dVertex
 10
69.591114
 20
38.527272
 30
0.0
  0
VERTEX
  5
293
330
286
100
AcDbEntity
  8
001
370
    50
100
AcDbVertex
100
AcDb2dVertex
 10
69.586282
 20
38.633765
 30
0.0
  0
VERTEX
  5
294
330
286
100
AcDbEntity
  8
001
370
    50
100
AcDbVertex
100
AcDb2dVertex
 10
69.57268
 20
38.739523
 30
0.0
  0
VERTEX
  5
295
330
286
100
AcDbEntity
  8
001
370
    50
100
AcDbVertex
100
AcDb2dVertex
 10
69.558426
 20
38.810359
 30
0.0
  0
VERTEX
  5
296
330
286
100
AcDbEntity
  8
001
370
    50
100
AcDbVertex
100
AcDb2dVertex
 10
69.539572
 20
38.880018
 30
0.0
  0
VERTEX
  5
297
330
286
100
AcDbEntity
  8
001
370
    50
100
AcDbVertex
100
AcDb2dVertex
 10
69.516245
 20
38.947639
 30
0.0
  0
VERTEX
  5
298
330
286
100
AcDbEntity
  8
001
370
    50
100
AcDbVertex
100
AcDb2dVertex
 10
69.490348
 20
39.014422
 30
0.0
  0
SEQEND
  5
287
330
286
100
AcDbEntity
  8
001
370
    50
  0
POLYLINE
  5
299
330
1F
100
AcDbEntity
  8
001
370
    50
100
AcDb2dPolyline
 66
     1
 10
0.0
 20
0.0
 30
0.0
  0
VERTEX
  5
29B
330
299
100
AcDbEntity
  8
001
370
    50
100
AcDbVertex
100
AcDb2dVertex
 10
68.88753
 20
39.59471
 30
0.0
  0
VERTEX
  5
29C
330
299
100
AcDbEntity
  8
001
370
    50
100
AcDbVertex
100
AcDb2dVertex
 10
68.799495
 20
39.624632
 30
0.0
  0
VERTEX
  5
29D
330
299
100
AcDbEntity
  8
001
370
    50
100
AcDbVertex
100
AcDb2dVertex
 10
68.710255
 20
39.649382
 30
0.0
  0
VERTEX
  5
29E
330
299
100
AcDbEntity
  8
001
370
    50
100
AcDbVertex
100
AcDb2dVertex
 10
68.633366
 20
39.663565
 30
0.0
  0
VERTEX
  5
29F
330
299
100
AcDbEntity
  8
001
370
    50
100
AcDbVertex
100
AcDb2dVertex
 10
68.55562
 20
39.674063
 30
0.0
  0
SEQEND
  5
29A
330
299
100
AcDbEntity
  8
001
370
    50
  0
LINE
  5
2A0
330
1F
100
AcDbEntity
  8
001
370
    50
100
AcDbLine
 10
68.55562
 20
39.674063
 30
0.0
 11
68.434061
 21
39.679726
 31
0.0
  0
POLYLINE
  5
2A1
330
1F
100
AcDbEntity
  8
001
370
    50
100
AcDb2dPolyline
 66
     1
 10
0.0
 20
0.0
 30
0.0
  0
VERTEX
  5
2A3
330
2A1
100
AcDbEntity
  8
001
370
    50
100
AcDbVertex
100
AcDb2dVertex
 10
68.155968
 20
39.65009
 30
0.0
  0
VERTEX
  5
2A4
330
2A1
100
AcDbEntity
  8
001
370
    50
100
AcDbVertex
100
AcDb2dVertex
 10
68.11146
 20
39.639573
 30
0.0
  0
VERTEX
  5
2A5
330
2A1
100
AcDbEntity
  8
001
370
    50
100
AcDbVertex
100
AcDb2dVertex
 10
68.067161
 20
39.628223
 30
0.0
  0
VERTEX
  5
2A6
330
2A1
100
AcDbEntity
  8
001
370
    50
100
AcDbVertex
100
AcDb2dVertex
 10
68.002401
 20
39.608582
 30
0.0
  0
VERTEX
  5
2A7
330
2A1
100
AcDbEntity
  8
001
370
    50
100
AcDbVertex
100
AcDb2dVertex
 10
67.938874
 20
39.585283
 30
0.0
  0
VERTEX
  5
2A8
330
2A1
100
AcDbEntity
  8
001
370
    50
100
AcDbVertex
100
AcDb2dVertex
 10
67.876417
 20
39.558483
 30
0.0
  0
VERTEX
  5
2A9
330
2A1
100
AcDbEntity
  8
001
370
    50
100
AcDbVertex
100
AcDb2dVertex
 10
67.814745
 20
39.529829
 30
0.0
  0
SEQEND
  5
2A2
330
2A1
100
AcDbEntity
  8
001
370
    50
  0
POLYLINE
  5
2AA
330
1F
100
AcDbEntity
  8
001
370
    50
100
AcDb2dPolyline
 66
     1
 10
0.0
 20
0.0
 30
0.0
  0
VERTEX
  5
2AC
330
2AA
100
AcDbEntity
  8
001
370
    50
100
AcDbVertex
100
AcDb2dVertex
 10
67.719649
 20
39.525135
 30
0.0
  0
VERTEX
  5
2AD
330
2AA
100
AcDbEntity
  8
001
370
    50
100
AcDbVertex
100
AcDb2dVertex
 10
67.738969
 20
39.526047
 30
0.0
  0
VERTEX
  5
2AE
330
2AA
100
AcDbEntity
  8
001
370
    50
100
AcDbVertex
100
AcDb2dVertex
 10
67.767203
 20
39.527416
 30
0.0
  0
VERTEX
  5
2AF
330
2AA
100
AcDbEntity
  8
001
370
    50
100
AcDbVertex
100
AcDb2dVertex
 10
67.795432
 20
39.528835
 30
0.0
  0
VERTEX
  5
2B0
330
2AA
100
AcDbEntity
  8
001
370
    50
100
AcDbVertex
100
AcDb2dVertex
 10
67.814745
 20
39.529829
 30
0.0
  0
SEQEND
  5
2AB
330
2AA
100
AcDbEntity
  8
001
370
    50
  0
POLYLINE
  5
2B1
330
1F
100
AcDbEntity
  8
001
370
    50
100
AcDb2dPolyline
 66
     1
 10
0.0
 20
0.0
 30
0.0
  0
VERTEX
  5
2B3
330
2B1
100
AcDbEntity
  8
001
370
    50
100
AcDbVertex
100
AcDb2dVertex
 10
67.321756
 20
39.50255
 30
0.0
  0
VERTEX
  5
2B4
330
2B1
100
AcDbEntity
  8
001
370
    50
100
AcDbVertex
100
AcDb2dVertex
 10
67.402685
 20
39.506435
 30
0.0
  0
VERTEX
  5
2B5
330
2B1
100
AcDbEntity
  8
001
370
    50
100
AcDbVertex
100
AcDb2dVertex
 10
67.520933
 20
39.512722
 30
0.0
  0
VERTEX
  5
2B6
330
2B1
100
AcDbEntity
  8
001
370
    50
100
AcDbVertex
100
AcDb2dVertex
 10
67.638936
 20
39.519845
 30
0.0
  0
VERTEX
  5
2B7
330
2B1
100
AcDbEntity
  8
001
370
    50
100
AcDbVertex
100
AcDb2dVertex
 10
67.719649
 20
39.525135
 30
0.0
  0
SEQEND
  5
2B2
330
2B1
100
AcDbEntity
  8
001
370
    50
  0
POLYLINE
  5
2B8
330
1F
100
AcDbEntity
  8
001
370
    50
100
AcDb2dPolyline
 66
     1
 10
0.0
 20
0.0
 30
0.0
  0
VERTEX
  5
2BA
330
2B8
100
AcDbEntity
  8
001
370
    50
100
AcDbVertex
100
AcDb2dVertex
 10
66.924347
 20
39.480543
 30
0.0
  0
VERTEX
  5
2BB
330
2B8
100
AcDbEntity
  8
001
370
    50
100
AcDbVertex
100
AcDb2dVertex
 10
67.005165
 20
39.484327
 30
0.0
  0
VERTEX
  5
2BC
330
2B8
100
AcDbEntity
  8
001
370
    50
100
AcDbVertex
100
AcDb2dVertex
 10
67.123252
 20
39.490452
 30
0.0
  0
VERTEX
  5
2BD
330
2B8
100
AcDbEntity
  8
001
370
    50
100
AcDbVertex
100
AcDb2dVertex
 10
67.241128
 20
39.497394
 30
0.0
  0
VERTEX
  5
2BE
330
2B8
100
AcDbEntity
  8
001
370
    50
100
AcDbVertex
100
AcDb2dVertex
 10
67.321756
 20
39.50255
 30
0.0
  0
SEQEND
  5
2B9
330
2B8
100
AcDbEntity
  8
001
370
    50
  0
POLYLINE
  5
2BF
330
1F
100
AcDbEntity
  8
001
370
    50
100
AcDb2dPolyline
 66
     1
 10
0.0
 20
0.0
 30
0.0
  0
VERTEX
  5
2C1
330
2BF
100
AcDbEntity
  8
001
370
    50
100
AcDbVertex
100
AcDb2dVertex
 10
66.527372
 20
39.459076
 30
0.0
  0
VERTEX
  5
2C2
330
2BF
100
AcDbEntity
  8
001
370
    50
100
AcDbVertex
100
AcDb2dVertex
 10
66.608091
 20
39.462766
 30
0.0
  0
VERTEX
  5
2C3
330
2BF
100
AcDbEntity
  8
001
370
    50
100
AcDbVertex
100
AcDb2dVertex
 10
66.726034
 20
39.468739
 30
0.0
  0
VERTEX
  5
2C4
330
2BF
100
AcDbEntity
  8
001
370
    50
100
AcDbVertex
100
AcDb2dVertex
 10
66.843796
 20
39.475512
 30
0.0
  0
VERTEX
  5
2C5
330
2BF
100
AcDbEntity
  8
001
370
    50
100
AcDbVertex
100
AcDb2dVertex
 10
66.924347
 20
39.480543
 30
0.0
  0
SEQEND
  5
2C0
330
2BF
100
AcDbEntity
  8
001
370
    50
  0
POLYLINE
  5
2C6
330
1F
100
AcDbEntity
  8
001
370
    50
100
AcDb2dPolyline
 66
     1
 10
0.0
 20
0.0
 30
0.0
  0
VERTEX
  5
2C8
330
2C6
100
AcDbEntity
  8
001
370
    50
100
AcDbVertex
100
AcDb2dVertex
 10
66.13079
 20
39.438115
 30
0.0
  0
VERTEX
  5
2C9
330
2C6
100
AcDbEntity
  8
001
370
    50
100
AcDbVertex
100
AcDb2dVertex
 10
66.211419
 20
39.441716
 30
0.0
  0
VERTEX
  5
2CA
330
2C6
100
AcDbEntity
  8
001
370
    50
100
AcDbVertex
100
AcDb2dVertex
 10
66.329232
 20
39.447546
 30
0.0
  0
VERTEX
  5
2CB
330
2C6
100
AcDbEntity
  8
001
370
    50
100
AcDbVertex
100
AcDb2dVertex
 10
66.446891
 20
39.454162
 30
0.0
  0
VERTEX
  5
2CC
330
2C6
100
AcDbEntity
  8
001
370
    50
100
AcDbVertex
100
AcDb2dVertex
 10
66.527372
 20
39.459076
 30
0.0
  0
SEQEND
  5
2C7
330
2C6
100
AcDbEntity
  8
001
370
    50
  0
POLYLINE
  5
2CD
330
1F
100
AcDbEntity
  8
001
370
    50
100
AcDb2dPolyline
 66
     1
 10
0.0
 20
0.0
 30
0.0
  0
VERTEX
  5
2CF
330
2CD
100
AcDbEntity
  8
001
370
    50
100
AcDbVertex
100
AcDb2dVertex
 10
65.734561
 20
39.417628
 30
0.0
  0
VERTEX
  5
2D0
330
2CD
100
AcDbEntity
  8
001
370
    50
100
AcDbVertex
100
AcDb2dVertex
 10
65.815109
 20
39.421145
 30
0.0
  0
VERTEX
  5
2D1
330
2CD
100
AcDbEntity
  8
001
370
    50
100
AcDbVertex
100
AcDb2dVertex
 10
65.932806
 20
39.426842
 30
0.0
  0
VERTEX
  5
2D2
330
2CD
100
AcDbEntity
  8
001
370
    50
100
AcDbVertex
100
AcDb2dVertex
 10
66.050371
 20
39.433309
 30
0.0
  0
VERTEX
  5
2D3
330
2CD
100
AcDbEntity
  8
001
370
    50
100
AcDbVertex
100
AcDb2dVertex
 10
66.13079
 20
39.438115
 30
0.0
  0
SEQEND
  5
2CE
330
2CD
100
AcDbEntity
  8
001
370
    50
  0
LINE
  5
2D4
330
1F
100
AcDbEntity
  8
001
370
    50
100
AcDbLine
 10
65.44313
 20
39.402089
 30
0.0
 11
65.33747
 21
39.39413
 31
0.0
  0
POLYLINE
  5
2D5
330
1F
100
AcDbEntity
  8
001
370
    50
100
AcDb2dPolyline
 66
     1
 10
0.0
 20
0.0
 30
0.0
  0
VERTEX
  5
2D7
330
2D5
100
AcDbEntity
  8
001
370
    50
100
AcDbVertex
100
AcDb2dVertex
 10
65.44313
 20
39.402089
 30
0.0
  0
VERTEX
  5
2D8
330
2D5
100
AcDbEntity
  8
001
370
    50
100
AcDbVertex
100
AcDb2dVertex
 10
65.502366
 20
39.404903
 30
0.0
  0
VERTEX
  5
2D9
330
2D5
100
AcDbEntity
  8
001
370
    50
100
AcDbVertex
100
AcDb2dVertex
 10
65.588928
 20
39.409312
 30
0.0
  0
VERTEX
  5
2DA
330
2D5
100
AcDbEntity
  8
001
370
    50
100
AcDbVertex
100
AcDb2dVertex
 10
65.675405
 20
39.414129
 30
0.0
  0
VERTEX
  5
2DB
330
2D5
100
AcDbEntity
  8
001
370
    50
100
AcDbVertex
100
AcDb2dVertex
 10
65.734561
 20
39.417628
 30
0.0
  0
SEQEND
  5
2D6
330
2D5
100
AcDbEntity
  8
001
370
    50
  0
POLYLINE
  5
2DC
330
1F
100
AcDbEntity
  8
001
370
    50
100
AcDb2dPolyline
 66
     1
 10
0.0
 20
0.0
 30
0.0
  0
VERTEX
  5
2DE
330
2DC
100
AcDbEntity
  8
001
370
    50
100
AcDbVertex
100
AcDb2dVertex
 10
65.33747
 20
39.39413
 30
0.0
  0
VERTEX
  5
2DF
330
2DC
100
AcDbEntity
  8
001
370
    50
100
AcDbVertex
100
AcDb2dVertex
 10
65.236181
 20
39.377781
 30
0.0
  0
VERTEX
  5
2E0
330
2DC
100
AcDbEntity
  8
001
370
    50
100
AcDbVertex
100
AcDb2dVertex
 10
65.135614
 20
39.357935
 30
0.0
  0
VERTEX
  5
2E1
330
2DC
100
AcDbEntity
  8
001
370
    50
100
AcDbVertex
100
AcDb2dVertex
 10
65.035204
 20
39.331485
 30
0.0
  0
VERTEX
  5
2E2
330
2DC
100
AcDbEntity
  8
001
370
    50
100
AcDbVertex
100
AcDb2dVertex
 10
64.93657
 20
39.298921
 30
0.0
  0
VERTEX
  5
2E3
330
2DC
100
AcDbEntity
  8
001
370
    50
100
AcDbVertex
100
AcDb2dVertex
 10
64.924999
 20
39.294707
 30
0.0
  0
VERTEX
  5
2E4
330
2DC
100
AcDbEntity
  8
001
370
    50
100
AcDbVertex
100
AcDb2dVertex
 10
64.913442
 20
39.290458
 30
0.0
  0
SEQEND
  5
2DD
330
2DC
100
AcDbEntity
  8
001
370
    50
  0
POLYLINE
  5
2E5
330
1F
100
AcDbEntity
  8
001
370
    50
100
AcDb2dPolyline
 66
     1
 10
0.0
 20
0.0
 30
0.0
  0
VERTEX
  5
2E7
330
2E5
100
AcDbEntity
  8
001
370
    50
100
AcDbVertex
100
AcDb2dVertex
 10
64.913442
 20
39.290458
 30
0.0
  0
VERTEX
  5
2E8
330
2E5
100
AcDbEntity
  8
001
370
    50
100
AcDbVertex
100
AcDb2dVertex
 10
64.788265
 20
39.235421
 30
0.0
  0
VERTEX
  5
2E9
330
2E5
100
AcDbEntity
  8
001
370
    50
100
AcDbVertex
100
AcDb2dVertex
 10
64.666743
 20
39.173923
 30
0.0
  0
VERTEX
  5
2EA
330
2E5
100
AcDbEntity
  8
001
370
    50
100
AcDbVertex
100
AcDb2dVertex
 10
64.548729
 20
39.099868
 30
0.0
  0
VERTEX
  5
2EB
330
2E5
100
AcDbEntity
  8
001
370
    50
100
AcDbVertex
100
AcDb2dVertex
 10
64.43454
 20
39.019051
 30
0.0
  0
SEQEND
  5
2E6
330
2E5
100
AcDbEntity
  8
001
370
    50
  0
POLYLINE
  5
2EC
330
1F
100
AcDbEntity
  8
001
370
    50
100
AcDb2dPolyline
 66
     1
 10
0.0
 20
0.0
 30
0.0
  0
VERTEX
  5
2EE
330
2EC
100
AcDbEntity
  8
001
370
    50
100
AcDbVertex
100
AcDb2dVertex
 10
64.43454
 20
39.019051
 30
0.0
  0
VERTEX
  5
2EF
330
2EC
100
AcDbEntity
  8
001
370
    50
100
AcDbVertex
100
AcDb2dVertex
 10
64.387678
 20
38.98038
 30
0.0
  0
VERTEX
  5
2F0
330
2EC
100
AcDbEntity
  8
001
370
    50
100
AcDbVertex
100
AcDb2dVertex
 10
64.341814
 20
38.940608
 30
0.0
  0
VERTEX
  5
2F1
330
2EC
100
AcDbEntity
  8
001
370
    50
100
AcDbVertex
100
AcDb2dVertex
 10
64.293207
 20
38.894664
 30
0.0
  0
VERTEX
  5
2F2
330
2EC
100
AcDbEntity
  8
001
370
    50
100
AcDbVertex
100
AcDb2dVertex
 10
64.245811
 20
38.847382
 30
0.0
  0
SEQEND
  5
2ED
330
2EC
100
AcDbEntity
  8
001
370
    50
  0
POLYLINE
  5
2F3
330
1F
100
AcDbEntity
  8
001
370
    50
100
AcDb2dPolyline
 66
     1
 10
0.0
 20
0.0
 30
0.0
  0
VERTEX
  5
2F5
330
2F3
100
AcDbEntity
  8
001
370
    50
100
AcDbVertex
100
AcDb2dVertex
 10
63.882862
 20
38.47322
 30
0.0
  0
VERTEX
  5
2F6
330
2F3
100
AcDbEntity
  8
001
370
    50
100
AcDbVertex
100
AcDb2dVertex
 10
63.957081
 20
38.548989
 30
0.0
  0
VERTEX
  5
2F7
330
2F3
100
AcDbEntity
  8
001
370
    50
100
AcDbVertex
100
AcDb2dVertex
 10
64.065235
 20
38.66004
 30
0.0
  0
VERTEX
  5
2F8
330
2F3
100
AcDbEntity
  8
001
370
    50
100
AcDbVertex
100
AcDb2dVertex
 10
64.172582
 20
38.771149
 30
0.0
  0
VERTEX
  5
2F9
330
2F3
100
AcDbEntity
  8
001
370
    50
100
AcDbVertex
100
AcDb2dVertex
 10
64.245811
 20
38.847382
 30
0.0
  0
SEQEND
  5
2F4
330
2F3
100
AcDbEntity
  8
001
370
    50
  0
POLYLINE
  5
2FA
330
1F
100
AcDbEntity
  8
001
370
    50
100
AcDb2dPolyline
 66
     1
 10
0.0
 20
0.0
 30
0.0
  0
VERTEX
  5
2FC
330
2FA
100
AcDbEntity
  8
001
370
    50
100
AcDbVertex
100
AcDb2dVertex
 10
63.869798
 20
38.472908
 30
0.0
  0
VERTEX
  5
2FD
330
2FA
100
AcDbEntity
  8
001
370
    50
100
AcDbVertex
100
AcDb2dVertex
 10
63.872452
 20
38.472971
 30
0.0
  0
VERTEX
  5
2FE
330
2FA
100
AcDbEntity
  8
001
370
    50
100
AcDbVertex
100
AcDb2dVertex
 10
63.87633
 20
38.473063
 30
0.0
  0
VERTEX
  5
2FF
330
2FA
100
AcDbEntity
  8
001
370
    50
100
AcDbVertex
100
AcDb2dVertex
 10
63.880208
 20
38.473156
 30
0.0
  0
VERTEX
  5
300
330
2FA
100
AcDbEntity
  8
001
370
    50
100
AcDbVertex
100
AcDb2dVertex
 10
63.882862
 20
38.47322
 30
0.0
  0
SEQEND
  5
2FB
330
2FA
100
AcDbEntity
  8
001
370
    50
  0
LINE
  5
301
330
1F
100
AcDbEntity
  8
001
370
    50
100
AcDbLine
 10
63.942583
 20
43.038064
 30
0.0
 11
64.020728
 21
43.074049
 31
0.0
  0
LINE
  5
302
330
1F
100
AcDbEntity
  8
001
370
    50
100
AcDbLine
 10
64.020728
 20
44.677701
 30
0.0
 11
63.220728
 21
43.834677
 31
0.0
  0
POLYLINE
  5
303
330
1F
100
AcDbEntity
  8
001
370
    50
100
AcDb2dPolyline
 66
     1
 10
0.0
 20
0.0
 30
0.0
  0
VERTEX
  5
305
330
303
100
AcDbEntity
  8
001
370
    50
100
AcDbVertex
100
AcDb2dVertex
 10
63.428231
 20
42.776402
 30
0.0
  0
VERTEX
  5
306
330
303
100
AcDbEntity
  8
001
370
    50
100
AcDbVertex
100
AcDb2dVertex
 10
63.556489
 20
42.848195
 30
0.0
  0
VERTEX
  5
307
330
303
100
AcDbEntity
  8
001
370
    50
100
AcDbVertex
100
AcDb2dVertex
 10
63.686226
 20
42.917077
 30
0.0
  0
VERTEX
  5
308
330
303
100
AcDbEntity
  8
001
370
    50
100
AcDbVertex
100
AcDb2dVertex
 10
63.813716
 20
42.978926
 30
0.0
  0
VERTEX
  5
309
330
303
100
AcDbEntity
  8
001
370
    50
100
AcDbVertex
100
AcDb2dVertex
 10
63.942583
 20
43.038064
 30
0.0
  0
SEQEND
  5
304
330
303
100
AcDbEntity
  8
001
370
    50
  0
LINE
  5
30A
330
1F
100
AcDbEntity
  8
001
370
    50
100
AcDbLine
 10
63.220728
 20
42.657404
 30
0.0
 11
63.428231
 21
42.776402
 31
0.0
  0
POLYLINE
  5
30B
330
1F
100
AcDbEntity
  8
001
370
    50
100
AcDb2dPolyline
 66
     1
 10
0.0
 20
0.0
 30
0.0
  0
VERTEX
  5
30D
330
30B
100
AcDbEntity
  8
001
370
    50
100
AcDbVertex
100
AcDb2dVertex
 10
89.686159
 20
33.643467
 30
0.0
  0
VERTEX
  5
30E
330
30B
100
AcDbEntity
  8
001
370
    50
100
AcDbVertex
100
AcDb2dVertex
 10
89.690459
 20
33.626687
 30
0.0
  0
VERTEX
  5
30F
330
30B
100
AcDbEntity
  8
001
370
    50
100
AcDbVertex
100
AcDb2dVertex
 10
89.694761
 20
33.61
 30
0.0
  0
VERTEX
  5
310
330
30B
100
AcDbEntity
  8
001
370
    50
100
AcDbVertex
100
AcDb2dVertex
 10
89.700015
 20
33.586592
 30
0.0
  0
VERTEX
  5
311
330
30B
100
AcDbEntity
  8
001
370
    50
100
AcDbVertex
100
AcDb2dVertex
 10
89.700544
 20
33.561852
 30
0.0
  0
VERTEX
  5
312
330
30B
100
AcDbEntity
  8
001
370
    50
100
AcDbVertex
100
AcDb2dVertex
 10
89.697018
 20
33.548078
 30
0.0
  0
VERTEX
  5
313
330
30B
100
AcDbEntity
  8
001
370
    50
100
AcDbVertex
100
AcDb2dVertex
 10
89.689031
 20
33.538143
 30
0.0
  0
VERTEX
  5
314
330
30B
100
AcDbEntity
  8
001
370
    50
100
AcDbVertex
100
AcDb2dVertex
 10
89.683725
 20
33.535984
 30
0.0
  0
VERTEX
  5
315
330
30B
100
AcDbEntity
  8
001
370
    50
100
AcDbVertex
100
AcDb2dVertex
 10
89.677811
 20
33.534677
 30
0.0
  0
SEQEND
  5
30C
330
30B
100
AcDbEntity
  8
001
370
    50
  0
POLYLINE
  5
316
330
1F
100
AcDbEntity
  8
001
370
    50
100
AcDb2dPolyline
 66
     1
 10
0.0
 20
0.0
 30
0.0
  0
VERTEX
  5
318
330
316
100
AcDbEntity
  8
001
370
    50
100
AcDbVertex
100
AcDb2dVertex
 10
68.434061
 20
39.679726
 30
0.0
  0
VERTEX
  5
319
330
316
100
AcDbEntity
  8
001
370
    50
100
AcDbVertex
100
AcDb2dVertex
 10
68.385761
 20
39.678592
 30
0.0
  0
VERTEX
  5
31A
330
316
100
AcDbEntity
  8
001
370
    50
100
AcDbVertex
100
AcDb2dVertex
 10
68.337578
 20
39.676147
 30
0.0
  0
VERTEX
  5
31B
330
316
100
AcDbEntity
  8
001
370
    50
100
AcDbVertex
100
AcDb2dVertex
 10
68.24656
 20
39.665484
 30
0.0
  0
VERTEX
  5
31C
330
316
100
AcDbEntity
  8
001
370
    50
100
AcDbVertex
100
AcDb2dVertex
 10
68.155968
 20
39.65009
 30
0.0
  0
SEQEND
  5
317
330
316
100
AcDbEntity
  8
001
370
    50
  0
LINE
  5
31D
330
1F
100
AcDbEntity
  8
001
370
    50
100
AcDbLine
 10
64.020728
 20
43.074049
 30
0.0
 11
64.020728
 21
46.134677
 31
0.0
  0
ARC
  5
31E
330
1F
100
AcDbEntity
  8
001
370
    50
100
AcDbCircle
 10
68.487859
 20
38.576266
 30
0.0
 40
1.094059004492959
100
AcDbArc
 50
23.598756
 51
68.575961
  0
POLYLINE
  5
31F
330
1F
100
AcDbEntity
  8
001
370
    50
100
AcDb2dPolyline
 66
     1
 10
0.0
 20
0.0
 30
0.0
  0
VERTEX
  5
321
330
31F
100
AcDbEntity
  8
001
370
    50
100
AcDbVertex
100
AcDb2dVertex
 10
69.240606
 20
37.600188
 30
0.0
  0
VERTEX
  5
322
330
31F
100
AcDbEntity
  8
001
370
    50
100
AcDbVertex
100
AcDb2dVertex
 10
69.171817
 20
36.974847
 30
0.0
  0
VERTEX
  5
323
330
31F
100
AcDbEntity
  8
001
370
    50
100
AcDbVertex
100
AcDb2dVertex
 10
69.074257
 20
36.052671
 30
0.0
  0
SEQEND
  5
320
330
31F
100
AcDbEntity
  8
001
370
    50
  0
POLYLINE
  5
324
330
1F
100
AcDbEntity
  8
001
370
    50
100
AcDb2dPolyline
 66
     1
 10
0.0
 20
0.0
 30
0.0
  0
VERTEX
  5
326
330
324
100
AcDbEntity
  8
001
370
    50
100
AcDbVertex
100
AcDb2dVertex
 10
68.855765
 20
33.783015
 30
0.0
  0
VERTEX
  5
327
330
324
100
AcDbEntity
  8
001
370
    50
100
AcDbVertex
100
AcDb2dVertex
 10
68.845025
 20
33.663461
 30
0.0
  0
VERTEX
  5
328
330
324
100
AcDbEntity
  8
001
370
    50
100
AcDbVertex
100
AcDb2dVertex
 10
68.83622
 20
33.564585
 30
0.0
  0
SEQEND
  5
325
330
324
100
AcDbEntity
  8
001
370
    50
  0
POLYLINE
  5
329
330
1F
100
AcDbEntity
  8
001
370
    50
100
AcDb2dPolyline
 66
     1
 10
0.0
 20
0.0
 30
0.0
  0
VERTEX
  5
32B
330
329
100
AcDbEntity
  8
001
370
    50
100
AcDbVertex
100
AcDb2dVertex
 10
68.374127
 20
33.742067
 30
0.0
  0
VERTEX
  5
32C
330
329
100
AcDbEntity
  8
001
370
    50
100
AcDbVertex
100
AcDb2dVertex
 10
68.400603
 20
33.727464
 30
0.0
  0
VERTEX
  5
32D
330
329
100
AcDbEntity
  8
001
370
    50
100
AcDbVertex
100
AcDb2dVertex
 10
68.427444
 20
33.713353
 30
0.0
  0
VERTEX
  5
32E
330
329
100
AcDbEntity
  8
001
370
    50
100
AcDbVertex
100
AcDb2dVertex
 10
68.665523
 20
33.613653
 30
0.0
  0
VERTEX
  5
32F
330
329
100
AcDbEntity
  8
001
370
    50
100
AcDbVertex
100
AcDb2dVertex
 10
68.83622
 20
33.564585
 30
0.0
  0
SEQEND
  5
32A
330
329
100
AcDbEntity
  8
001
370
    50
  0
POLYLINE
  5
330
330
1F
100
AcDbEntity
  8
001
370
    50
100
AcDb2dPolyline
 66
     1
 10
0.0
 20
0.0
 30
0.0
  0
VERTEX
  5
332
330
330
100
AcDbEntity
  8
001
370
    50
100
AcDbVertex
100
AcDb2dVertex
 10
68.32571
 20
37.246056
 30
0.0
  0
VERTEX
  5
333
330
330
100
AcDbEntity
  8
001
370
    50
100
AcDbVertex
100
AcDb2dVertex
 10
68.40748
 20
37.2625
 30
0.0
  0
VERTEX
  5
334
330
330
100
AcDbEntity
  8
001
370
    50
100
AcDbVertex
100
AcDb2dVertex
 10
68.486351
 20
37.279751
 30
0.0
  0
VERTEX
  5
335
330
330
100
AcDbEntity
  8
001
370
    50
100
AcDbVertex
100
AcDb2dVertex
 10
68.695753
 20
37.338261
 30
0.0
  0
VERTEX
  5
336
330
330
100
AcDbEntity
  8
001
370
    50
100
AcDbVertex
100
AcDb2dVertex
 10
68.897206
 20
37.423459
 30
0.0
  0
VERTEX
  5
337
330
330
100
AcDbEntity
  8
001
370
    50
100
AcDbVertex
100
AcDb2dVertex
 10
69.099477
 20
37.532197
 30
0.0
  0
VERTEX
  5
338
330
330
100
AcDbEntity
  8
001
370
    50
100
AcDbVertex
100
AcDb2dVertex
 10
69.242992
 20
37.62124
 30
0.0
  0
SEQEND
  5
331
330
330
100
AcDbEntity
  8
001
370
    50
  0
POLYLINE
  5
339
330
1F
100
AcDbEntity
  8
001
370
    50
100
AcDb2dPolyline
 66
     1
 10
0.0
 20
0.0
 30
0.0
  0
VERTEX
  5
33B
330
339
100
AcDbEntity
  8
001
370
    50
100
AcDbVertex
100
AcDb2dVertex
 10
68.29813
 20
37.275239
 30
0.0
  0
VERTEX
  5
33C
330
339
100
AcDbEntity
  8
001
370
    50
100
AcDbVertex
100
AcDb2dVertex
 10
68.378064
 20
37.312324
 30
0.0
  0
VERTEX
  5
33D
330
339
100
AcDbEntity
  8
001
370
    50
100
AcDbVertex
100
AcDb2dVertex
 10
68.451446
 20
37.354458
 30
0.0
  0
VERTEX
  5
33E
330
339
100
AcDbEntity
  8
001
370
    50
100
AcDbVertex
100
AcDb2dVertex
 10
68.544034
 20
37.41678
 30
0.0
  0
VERTEX
  5
33F
330
339
100
AcDbEntity
  8
001
370
    50
100
AcDbVertex
100
AcDb2dVertex
 10
68.633053
 20
37.487863
 30
0.0
  0
VERTEX
  5
340
330
339
100
AcDbEntity
  8
001
370
    50
100
AcDbVertex
100
AcDb2dVertex
 10
68.714531
 20
37.566714
 30
0.0
  0
VERTEX
  5
341
330
339
100
AcDbEntity
  8
001
370
    50
100
AcDbVertex
100
AcDb2dVertex
 10
68.787827
 20
37.652495
 30
0.0
  0
VERTEX
  5
342
330
339
100
AcDbEntity
  8
001
370
    50
100
AcDbVertex
100
AcDb2dVertex
 10
68.853453
 20
37.744898
 30
0.0
  0
VERTEX
  5
343
330
339
100
AcDbEntity
  8
001
370
    50
100
AcDbVertex
100
AcDb2dVertex
 10
68.910637
 20
37.842896
 30
0.0
  0
VERTEX
  5
344
330
339
100
AcDbEntity
  8
001
370
    50
100
AcDbVertex
100
AcDb2dVertex
 10
68.95878
 20
37.945872
 30
0.0
  0
VERTEX
  5
345
330
339
100
AcDbEntity
  8
001
370
    50
100
AcDbVertex
100
AcDb2dVertex
 10
68.99741
 20
38.052753
 30
0.0
  0
VERTEX
  5
346
330
339
100
AcDbEntity
  8
001
370
    50
100
AcDbVertex
100
AcDb2dVertex
 10
69.026331
 20
38.162854
 30
0.0
  0
VERTEX
  5
347
330
339
100
AcDbEntity
  8
001
370
    50
100
AcDbVertex
100
AcDb2dVertex
 10
69.04527
 20
38.275108
 30
0.0
  0
VERTEX
  5
348
330
339
100
AcDbEntity
  8
001
370
    50
100
AcDbVertex
100
AcDb2dVertex
 10
69.054061
 20
38.388684
 30
0.0
  0
VERTEX
  5
349
330
339
100
AcDbEntity
  8
001
370
    50
100
AcDbVertex
100
AcDb2dVertex
 10
69.052631
 20
38.50259
 30
0.0
  0
VERTEX
  5
34A
330
339
100
AcDbEntity
  8
001
370
    50
100
AcDbVertex
100
AcDb2dVertex
 10
69.040988
 20
38.615874
 30
0.0
  0
VERTEX
  5
34B
330
339
100
AcDbEntity
  8
001
370
    50
100
AcDbVertex
100
AcDb2dVertex
 10
69.019248
 20
38.727655
 30
0.0
  0
VERTEX
  5
34C
330
339
100
AcDbEntity
  8
001
370
    50
100
AcDbVertex
100
AcDb2dVertex
 10
68.987608
 20
38.836888
 30
0.0
  0
VERTEX
  5
34D
330
339
100
AcDbEntity
  8
001
370
    50
100
AcDbVertex
100
AcDb2dVertex
 10
68.946227
 20
38.942843
 30
0.0
  0
VERTEX
  5
34E
330
339
100
AcDbEntity
  8
001
370
    50
100
AcDbVertex
100
AcDb2dVertex
 10
68.895499
 20
39.044446
 30
0.0
  0
VERTEX
  5
34F
330
339
100
AcDbEntity
  8
001
370
    50
100
AcDbVertex
100
AcDb2dVertex
 10
68.83599
 20
39.141019
 30
0.0
  0
VERTEX
  5
350
330
339
100
AcDbEntity
  8
001
370
    50
100
AcDbVertex
100
AcDb2dVertex
 10
68.768397
 20
39.231502
 30
0.0
  0
VERTEX
  5
351
330
339
100
AcDbEntity
  8
001
370
    50
100
AcDbVertex
100
AcDb2dVertex
 10
68.692193
 20
39.315613
 30
0.0
  0
VERTEX
  5
352
330
339
100
AcDbEntity
  8
001
370
    50
100
AcDbVertex
100
AcDb2dVertex
 10
68.607962
 20
39.392475
 30
0.0
  0
VERTEX
  5
353
330
339
100
AcDbEntity
  8
001
370
    50
100
AcDbVertex
100
AcDb2dVertex
 10
68.519601
 20
39.460835
 30
0.0
  0
VERTEX
  5
354
330
339
100
AcDbEntity
  8
001
370
    50
100
AcDbVertex
100
AcDb2dVertex
 10
68.42898
 20
39.51971
 30
0.0
  0
VERTEX
  5
355
330
339
100
AcDbEntity
  8
001
370
    50
100
AcDbVertex
100
AcDb2dVertex
 10
68.323937
 20
39.571872
 30
0.0
  0
VERTEX
  5
356
330
339
100
AcDbEntity
  8
001
370
    50
100
AcDbVertex
100
AcDb2dVertex
 10
68.202165
 20
39.617588
 30
0.0
  0
VERTEX
  5
357
330
339
100
AcDbEntity
  8
001
370
    50
100
AcDbVertex
100
AcDb2dVertex
 10
68.11169
 20
39.645042
 30
0.0
  0
SEQEND
  5
33A
330
339
100
AcDbEntity
  8
001
370
    50
  0
POLYLINE
  5
358
330
1F
100
AcDbEntity
  8
001
370
    50
100
AcDb2dPolyline
 66
     1
 10
0.0
 20
0.0
 30
0.0
  0
VERTEX
  5
35A
330
358
100
AcDbEntity
  8
001
370
    50
100
AcDbVertex
100
AcDb2dVertex
 10
63.722884
 20
38.467385
 30
0.0
  0
VERTEX
  5
35B
330
358
100
AcDbEntity
  8
001
370
    50
100
AcDbVertex
100
AcDb2dVertex
 10
63.81041
 20
38.47057
 30
0.0
  0
VERTEX
  5
35C
330
358
100
AcDbEntity
  8
001
370
    50
100
AcDbVertex
100
AcDb2dVertex
 10
63.869798
 20
38.472908
 30
0.0
  0
SEQEND
  5
359
330
358
100
AcDbEntity
  8
001
370
    50
  0
LINE
  5
35D
330
1F
100
AcDbEntity
  8
001
370
    50
100
AcDbLine
 10
63.882862
 20
38.47322
 30
0.0
 11
63.881391
 21
38.467385
 31
0.0
  0
LINE
  5
35E
330
1F
100
AcDbEntity
  8
001
370
    50
100
AcDbLine
 10
63.220728
 20
38.467385
 30
0.0
 11
63.220728
 21
43.834677
 31
0.0
  0
POLYLINE
  5
35F
330
1F
100
AcDbEntity
  8
001
370
    50
100
AcDb2dPolyline
 66
     1
 10
0.0
 20
0.0
 30
0.0
  0
VERTEX
  5
361
330
35F
100
AcDbEntity
  8
001
370
    50
100
AcDbVertex
100
AcDb2dVertex
 10
64.950374
 20
38.641739
 30
0.0
  0
VERTEX
  5
362
330
35F
100
AcDbEntity
  8
001
370
    50
100
AcDbVertex
100
AcDb2dVertex
 10
64.871456
 20
38.637314
 30
0.0
  0
VERTEX
  5
363
330
35F
100
AcDbEntity
  8
001
370
    50
100
AcDbVertex
100
AcDb2dVertex
 10
64.763224
 20
38.623516
 30
0.0
  0
VERTEX
  5
364
330
35F
100
AcDbEntity
  8
001
370
    50
100
AcDbVertex
100
AcDb2dVertex
 10
64.666991
 20
38.600144
 30
0.0
  0
VERTEX
  5
365
330
35F
100
AcDbEntity
  8
001
370
    50
100
AcDbVertex
100
AcDb2dVertex
 10
64.582894
 20
38.56951
 30
0.0
  0
VERTEX
  5
366
330
35F
100
AcDbEntity
  8
001
370
    50
100
AcDbVertex
100
AcDb2dVertex
 10
64.501235
 20
38.532421
 30
0.0
  0
VERTEX
  5
367
330
35F
100
AcDbEntity
  8
001
370
    50
100
AcDbVertex
100
AcDb2dVertex
 10
64.415957
 20
38.48169
 30
0.0
  0
VERTEX
  5
368
330
35F
100
AcDbEntity
  8
001
370
    50
100
AcDbVertex
100
AcDb2dVertex
 10
64.405805
 20
38.474659
 30
0.0
  0
VERTEX
  5
369
330
35F
100
AcDbEntity
  8
001
370
    50
100
AcDbVertex
100
AcDb2dVertex
 10
64.39559
 20
38.467385
 30
0.0
  0
SEQEND
  5
360
330
35F
100
AcDbEntity
  8
001
370
    50
  0
POLYLINE
  5
36A
330
1F
100
AcDbEntity
  8
001
370
    50
100
AcDb2dPolyline
 66
     1
 10
0.0
 20
0.0
 30
0.0
  0
VERTEX
  5
36C
330
36A
100
AcDbEntity
  8
001
370
    50
100
AcDbVertex
100
AcDb2dVertex
 10
67.814745
 20
39.529829
 30
0.0
  0
VERTEX
  5
36D
330
36A
100
AcDbEntity
  8
001
370
    50
100
AcDbVertex
100
AcDb2dVertex
 10
67.701503
 20
39.479609
 30
0.0
  0
VERTEX
  5
36E
330
36A
100
AcDbEntity
  8
001
370
    50
100
AcDbVertex
100
AcDb2dVertex
 10
67.548205
 20
39.404922
 30
0.0
  0
VERTEX
  5
36F
330
36A
100
AcDbEntity
  8
001
370
    50
100
AcDbVertex
100
AcDb2dVertex
 10
67.434386
 20
39.342438
 30
0.0
  0
VERTEX
  5
370
330
36A
100
AcDbEntity
  8
001
370
    50
100
AcDbVertex
100
AcDb2dVertex
 10
67.333436
 20
39.279726
 30
0.0
  0
SEQEND
  5
36B
330
36A
100
AcDbEntity
  8
001
370
    50
  0
LINE
  5
371
330
1F
100
AcDbEntity
  8
001
  6
CENTER
370
     9
100
AcDbLine
 10
62.366815
 20
39.834677
 30
0.0
 11
173.577705
 21
39.834677
 31
0.0
  0
LINE
  5
372
330
1F
100
AcDbEntity
  8
001
370
    50
100
AcDbLine
 10
170.820728
 20
39.834677
 30
0.0
 11
173.418804
 21
41.334677
 31
0.0
  0
LINE
  5
373
330
1F
100
AcDbEntity
  8
001
370
    50
100
AcDbLine
 10
170.820728
 20
39.834677
 30
0.0
 11
173.418804
 21
38.334677
 31
0.0
  0
ARC
  5
374
330
1F
100
AcDbEntity
  8
001
370
    50
100
AcDbCircle
 10
65.951343
 20
36.797442
 30
0.0
 40
0.175
100
AcDbArc
 50
14.653061
 51
165.346939
  0
ARC
  5
375
330
1F
100
AcDbEntity
  8
001
370
    50
100
AcDbCircle
 10
65.475341
 20
36.921902
 30
0.0
 40
0.3170045884846417
100
AcDbArc
 50
254.653061
 51
345.346939
  0
ARC
  5
376
330
1F
100
AcDbEntity
  8
001
370
    50
100
AcDbCircle
 10
65.345126
 20
36.447442
 30
0.0
 40
0.175
100
AcDbArc
 50
74.653061
 51
225.346939
  0
ARC
  5
377
330
1F
100
AcDbEntity
  8
001
370
    50
100
AcDbCircle
 10
64.999339
 20
36.097442
 30
0.0
 40
0.3170045884846417
100
AcDbArc
 50
314.653061
 51
45.346939
  0
ARC
  5
378
330
1F
100
AcDbEntity
  8
001
370
    50
100
AcDbCircle
 10
65.345126
 20
35.747442
 30
0.0
 40
0.175
100
AcDbArc
 50
134.653061
 51
285.346939
  0
ARC
  5
379
330
1F
100
AcDbEntity
  8
001
370
    50
100
AcDbCircle
 10
65.475341
 20
35.272982
 30
0.0
 40
0.3170045884846417
100
AcDbArc
 50
14.653061
 51
105.346939
  0
ARC
  5
37A
330
1F
100
AcDbEntity
  8
001
370
    50
100
AcDbCircle
 10
65.951343
 20
35.397442
 30
0.0
 40
0.175
100
AcDbArc
 50
194.653061
 51
345.346939
  0
ARC
  5
37B
330
1F
100
AcDbEntity
  8
001
370
    50
100
AcDbCircle
 10
66.427346
 20
35.272982
 30
0.0
 40
0.3170045884846417
100
AcDbArc
 50
74.653061
 51
165.346939
  0
ARC
  5
37C
330
1F
100
AcDbEntity
  8
001
370
    50
100
AcDbCircle
 10
66.557561
 20
35.747442
 30
0.0
 40
0.175
100
AcDbArc
 50
254.653061
 51
45.346939
  0
ARC
  5
37D
330
1F
100
AcDbEntity
  8
001
370
    50
100
AcDbCircle
 10
66.903348
 20
36.097442
 30
0.0
 40
0.3170045884846417
100
AcDbArc
 50
134.653061
 51
225.346939
  0
ARC
  5
37E
330
1F
100
AcDbEntity
  8
001
370
    50
100
AcDbCircle
 10
66.557561
 20
36.447442
 30
0.0
 40
0.175
100
AcDbArc
 50
314.653061
 51
105.346939
  0
ARC
  5
37F
330
1F
100
AcDbEntity
  8
001
370
    50
100
AcDbCircle
 10
66.427346
 20
36.921902
 30
0.0
 40
0.3170045884846417
100
AcDbArc
 50
194.653061
 51
285.346939
  0
CIRCLE
  5
380
330
1F
100
AcDbEntity
  8
001
370
    50
100
AcDbCircle
 10
65.951343
 20
36.097442
 30
0.0
 40
1.35
  0
LINE
  5
381
330
1F
100
AcDbEntity
  8
001
370
    50
100
AcDbLine
 10
63.620728
 20
34.834678
 30
0.0
 11
62.820728
 21
35.634677
 31
0.0
  0
ARC
  5
382
330
1F
100
AcDbEntity
  8
001
370
    50
100
AcDbCircle
 10
64.020728
 20
33.234677
 30
0.0
 40
0.4
100
AcDbArc
 50
180.0
 51
270.0
  0
ENDSEC
  0
SECTION
  2
OBJECTS
  0
DICTIONARY
  5
C
330
0
100
AcDbDictionary
281
     1
  3
ACAD_GROUP
350
D
  3
ACAD_LAYOUT
350
1A
  3
ACAD_MLEADERSTYLE
350
386
  3
ACAD_MLINESTYLE
350
17
  3
ACAD_PLOTSETTINGS
350
19
  3
ACAD_PLOTSTYLENAME
350
E
  3
ACAD_SCALELIST
350
3B
  3
ACAD_TABLESTYLE
350
385
  3
ACAD_VISUALSTYLE
350
2A
  3
AcDbVariableDictionary
350
383
  0
DICTIONARY
  5
D
102
{ACAD_REACTORS
330
C
102
}
330
C
100
AcDbDictionary
281
     1
  0
DICTIONARY
  5
1A
102
{ACAD_REACTORS
330
C
102
}
330
C
100
AcDbDictionary
281
     1
  3
Layout1
350
1E
  3
Layout2
350
26
  3
Model
350
22
  0
DICTIONARY
  5
386
102
{ACAD_REACTORS
330
C
102
}
330
C
100
AcDbDictionary
281
     1
  0
DICTIONARY
  5
17
102
{ACAD_REACTORS
330
C
102
}
330
C
100
AcDbDictionary
281
     1
  3
Standard
350
18
  0
DICTIONARY
  5
19
102
{ACAD_REACTORS
330
C
102
}
330
C
100
AcDbDictionary
281
     1
  0
ACDBDICTIONARYWDFLT
  5
E
102
{ACAD_REACTORS
330
C
102
}
330
C
100
AcDbDictionary
281
     1
  3
Normal
350
F
100
AcDbDictionaryWithDefault
340
F
  0
DICTIONARY
  5
3B
102
{ACAD_REACTORS
330
C
102
}
330
C
100
AcDbDictionary
281
     1
  3
A0
350
3C
  3
A1
350
3D
  3
A2
350
3E
  3
A3
350
3F
  3
A4
350
40
  3
A5
350
41
  3
A6
350
42
  3
A7
350
43
  3
A8
350
44
  3
A9
350
45
  3
B0
350
46
  3
B1
350
47
  3
B2
350
48
  3
B3
350
49
  3
B4
350
4A
  3
B5
350
4B
  3
B6
350
4C
  3
B7
350
4D
  3
B8
350
4E
  3
B9
350
4F
  3
C0
350
50
  3
C1
350
51
  3
C2
350
52
  3
C3
350
53
  3
C4
350
54
  3
C5
350
55
  3
C6
350
56
  3
C7
350
57
  3
C8
350
58
  3
C9
350
59
  3
D0
350
5A
  3
D1
350
5B
  3
D2
350
5C
  0
DICTIONARY
  5
385
102
{ACAD_REACTORS
330
C
102
}
330
C
100
AcDbDictionary
281
     1
  0
DICTIONARY
  5
2A
102
{ACAD_REACTORS
330
C
102
}
330
C
100
AcDbDictionary
281
     1
  3
2dWireframe
350
2F
  3
3D Hidden
350
31
  3
3dWireframe
350
30
  3
Basic
350
32
  3
Brighten
350
36
  3
ColorChange
350
3A
  3
Conceptual
350
34
  3
Dim
350
35
  3
Facepattern
350
39
  3
Flat
350
2B
  3
FlatWithEdges
350
2C
  3
Gouraud
350
2D
  3
GouraudWithEdges
350
2E
  3
Linepattern
350
38
  3
Realistic
350
33
  3
Thicken
350
37
  0
DICTIONARY
  5
383
102
{ACAD_REACTORS
330
C
102
}
330
C
100
AcDbDictionary
281
     1
  3
CANNOSCALE
350
384
  3
PSOLHEIGHT
350
388
  3
PSOLWIDTH
350
387
  0
LAYOUT
  5
1E
102
{ACAD_REACTORS
330
1A
102
}
330
1A
100
AcDbPlotSettings
  1

  2
none_device
  4

  6

 40
0.0
 41
0.0
 42
0.0
 43
0.0
 44
0.0
 45
0.0
 46
0.0
 47
0.0
 48
0.0
 49
0.0
140
0.0
141
0.0
142
1.0
143
1.0
 70
   688
 72
     0
 73
     0
 74
     5
  7

 75
    16
147
1.0
148
0.0
149
0.0
100
AcDbLayout
  1
Layout1
 70
     1
 71
     1
 10
0.0
 20
0.0
 11
12.0
 21
9.0
 12
0.0
 22
0.0
 32
0.0
 14
1.000000E+20
 24
1.000000E+20
 34
0.0
 15
-1.000000E+20
 25
-1.000000E+20
 35
0.0
146
0.0
 13
0.0
 23
0.0
 33
0.0
 16
1.0
 26
0.0
 36
0.0
 17
0.0
 27
1.0
 37
0.0
 76
     0
330
1B
  0
LAYOUT
  5
26
102
{ACAD_REACTORS
330
1A
102
}
330
1A
100
AcDbPlotSettings
  1

  2
none_device
  4

  6

 40
0.0
 41
0.0
 42
0.0
 43
0.0
 44
0.0
 45
0.0
 46
0.0
 47
0.0
 48
0.0
 49
0.0
140
0.0
141
0.0
142
1.0
143
1.0
 70
   688
 72
     0
 73
     0
 74
     5
  7

 75
    16
147
1.0
148
0.0
149
0.0
100
AcDbLayout
  1
Layout2
 70
     1
 71
     2
 10
0.0
 20
0.0
 11
0.0
 21
0.0
 12
0.0
 22
0.0
 32
0.0
 14
0.0
 24
0.0
 34
0.0
 15
0.0
 25
0.0
 35
0.0
146
0.0
 13
0.0
 23
0.0
 33
0.0
 16
1.0
 26
0.0
 36
0.0
 17
0.0
 27
1.0
 37
0.0
 76
     0
330
23
  0
LAYOUT
  5
22
102
{ACAD_REACTORS
330
1A
102
}
330
1A
100
AcDbPlotSettings
  1

  2
none_device
  4

  6

 40
0.0
 41
0.0
 42
0.0
 43
0.0
 44
0.0
 45
0.0
 46
0.0
 47
0.0
 48
0.0
 49
0.0
140
0.0
141
0.0
142
1.0
143
1.0
 70
  1712
 72
     0
 73
     0
 74
     0
  7

 75
     0
147
1.0
148
0.0
149
0.0
100
AcDbLayout
  1
Model
 70
     1
 71
     0
 10
0.0
 20
0.0
 11
12.0
 21
9.0
 12
0.0
 22
0.0
 32
0.0
 14
13.134689
 24
-2.249619
 34
0.0
 15
223.134689
 25
90.143753
 35
0.0
146
0.0
 13
0.0
 23
0.0
 33
0.0
 16
1.0
 26
0.0
 36
0.0
 17
0.0
 27
1.0
 37
0.0
 76
     0
330
1F
331
29
  0
MLINESTYLE
  5
18
102
{ACAD_REACTORS
330
17
102
}
330
17
100
AcDbMlineStyle
  2
Standard
 70
     0
  3

 62
   256
 51
90.0
 52
90.0
 71
     2
 49
0.5
 62
   256
  6
BYLAYER
 49
-0.5
 62
   256
  6
BYLAYER
  0
ACDBPLACEHOLDER
  5
F
102
{ACAD_REACTORS
330
E
102
}
330
E
  0
SCALE
  5
3C
102
{ACAD_REACTORS
330
3B
102
}
330
3B
100
AcDbScale
 70
     0
300
1:1
140
1.0
141
1.0
290
     1
  0
SCALE
  5
3D
102
{ACAD_REACTORS
330
3B
102
}
330
3B
100
AcDbScale
 70
     0
300
1:2
140
1.0
141
2.0
290
     0
  0
SCALE
  5
3E
102
{ACAD_REACTORS
330
3B
102
}
330
3B
100
AcDbScale
 70
     0
300
1:4
140
1.0
141
4.0
290
     0
  0
SCALE
  5
3F
102
{ACAD_REACTORS
330
3B
102
}
330
3B
100
AcDbScale
 70
     0
300
1:5
140
1.0
141
5.0
290
     0
  0
SCALE
  5
40
102
{ACAD_REACTORS
330
3B
102
}
330
3B
100
AcDbScale
 70
     0
300
1:8
140
1.0
141
8.0
290
     0
  0
SCALE
  5
41
102
{ACAD_REACTORS
330
3B
102
}
330
3B
100
AcDbScale
 70
     0
300
1:10
140
1.0
141
10.0
290
     0
  0
SCALE
  5
42
102
{ACAD_REACTORS
330
3B
102
}
330
3B
100
AcDbScale
 70
     0
300
1:16
140
1.0
141
16.0
290
     0
  0
SCALE
  5
43
102
{ACAD_REACTORS
330
3B
102
}
330
3B
100
AcDbScale
 70
     0
300
1:20
140
1.0
141
20.0
290
     0
  0
SCALE
  5
44
102
{ACAD_REACTORS
330
3B
102
}
330
3B
100
AcDbScale
 70
     0
300
1:30
140
1.0
141
30.0
290
     0
  0
SCALE
  5
45
102
{ACAD_REACTORS
330
3B
102
}
330
3B
100
AcDbScale
 70
     0
300
1:40
140
1.0
141
40.0
290
     0
  0
SCALE
  5
46
102
{ACAD_REACTORS
330
3B
102
}
330
3B
100
AcDbScale
 70
     0
300
1:50
140
1.0
141
50.0
290
     0
  0
SCALE
  5
47
102
{ACAD_REACTORS
330
3B
102
}
330
3B
100
AcDbScale
 70
     0
300
1:100
140
1.0
141
100.0
290
     0
  0
SCALE
  5
48
102
{ACAD_REACTORS
330
3B
102
}
330
3B
100
AcDbScale
 70
     0
300
2:1
140
2.0
141
1.0
290
     0
  0
SCALE
  5
49
102
{ACAD_REACTORS
330
3B
102
}
330
3B
100
AcDbScale
 70
     0
300
4:1
140
4.0
141
1.0
290
     0
  0
SCALE
  5
4A
102
{ACAD_REACTORS
330
3B
102
}
330
3B
100
AcDbScale
 70
     0
300
8:1
140
8.0
141
1.0
290
     0
  0
SCALE
  5
4B
102
{ACAD_REACTORS
330
3B
102
}
330
3B
100
AcDbScale
 70
     0
300
10:1
140
10.0
141
1.0
290
     0
  0
SCALE
  5
4C
102
{ACAD_REACTORS
330
3B
102
}
330
3B
100
AcDbScale
 70
     0
300
100:1
140
100.0
141
1.0
290
     0
  0
SCALE
  5
4D
102
{ACAD_REACTORS
330
3B
102
}
330
3B
100
AcDbScale
 70
     0
300
1/128" = 1'-0"
140
0.007812
141
12.0
290
     0
  0
SCALE
  5
4E
102
{ACAD_REACTORS
330
3B
102
}
330
3B
100
AcDbScale
 70
     0
300
1/64" = 1'-0"
140
0.015625
141
12.0
290
     0
  0
SCALE
  5
4F
102
{ACAD_REACTORS
330
3B
102
}
330
3B
100
AcDbScale
 70
     0
300
1/32" = 1'-0"
140
0.03125
141
12.0
290
     0
  0
SCALE
  5
50
102
{ACAD_REACTORS
330
3B
102
}
330
3B
100
AcDbScale
 70
     0
300
1/16" = 1'-0"
140
0.0625
141
12.0
290
     0
  0
SCALE
  5
51
102
{ACAD_REACTORS
330
3B
102
}
330
3B
100
AcDbScale
 70
     0
300
3/32" = 1'-0"
140
0.09375
141
12.0
290
     0
  0
SCALE
  5
52
102
{ACAD_REACTORS
330
3B
102
}
330
3B
100
AcDbScale
 70
     0
300
1/8" = 1'-0"
140
0.125
141
12.0
290
     0
  0
SCALE
  5
53
102
{ACAD_REACTORS
330
3B
102
}
330
3B
100
AcDbScale
 70
     0
300
3/16" = 1'-0"
140
0.1875
141
12.0
290
     0
  0
SCALE
  5
54
102
{ACAD_REACTORS
330
3B
102
}
330
3B
100
AcDbScale
 70
     0
300
1/4" = 1'-0"
140
0.25
141
12.0
290
     0
  0
SCALE
  5
55
102
{ACAD_REACTORS
330
3B
102
}
330
3B
100
AcDbScale
 70
     0
300
3/8" = 1'-0"
140
0.375
141
12.0
290
     0
  0
SCALE
  5
56
102
{ACAD_REACTORS
330
3B
102
}
330
3B
100
AcDbScale
 70
     0
300
1/2" = 1'-0"
140
0.5
141
12.0
290
     0
  0
SCALE
  5
57
102
{ACAD_REACTORS
330
3B
102
}
330
3B
100
AcDbScale
 70
     0
300
3/4" = 1'-0"
140
0.75
141
12.0
290
     0
  0
SCALE
  5
58
102
{ACAD_REACTORS
330
3B
102
}
330
3B
100
AcDbScale
 70
     0
300
1" = 1'-0"
140
1.0
141
12.0
290
     0
  0
SCALE
  5
59
102
{ACAD_REACTORS
330
3B
102
}
330
3B
100
AcDbScale
 70
     0
300
1-1/2" = 1'-0"
140
1.5
141
12.0
290
     0
  0
SCALE
  5
5A
102
{ACAD_REACTORS
330
3B
102
}
330
3B
100
AcDbScale
 70
     0
300
3" = 1'-0"
140
3.0
141
12.0
290
     0
  0
SCALE
  5
5B
102
{ACAD_REACTORS
330
3B
102
}
330
3B
100
AcDbScale
 70
     0
300
6" = 1'-0"
140
6.0
141
12.0
290
     0
  0
SCALE
  5
5C
102
{ACAD_REACTORS
330
3B
102
}
330
3B
100
AcDbScale
 70
     0
300
1'-0" = 1'-0"
140
12.0
141
12.0
290
     0
  0
VISUALSTYLE
  5
2F
102
{ACAD_REACTORS
330
2A
102
}
330
2A
100
AcDbVisualStyle
  2
2dWireframe
 70
     4
 71
     0
 72
     2
 73
     0
 90
        0
 40
-0.6
 41
-30.0
 62
     5
 63
     7
 74
     1
 91
        4
 64
     7
 65
   257
 75
     1
175
     1
 42
1.0
 92
        0
 66
   257
 43
1.0
 76
     1
 77
     6
 78
     2
 67
     7
 79
     5
170
     0
171
     0
290
     0
174
     0
 93
        1
 44
0.0
173
     0
291
     0
 45
0.0
1001
ACAD
1000
AcDbSavedByObjectVersion
1070
     0
  0
VISUALSTYLE
  5
31
102
{ACAD_REACTORS
330
2A
102
}
330
2A
100
AcDbVisualStyle
  2
3D Hidden
 70
     6
 71
     1
 72
     2
 73
     2
 90
        0
 40
-0.6
 41
-30.0
 62
     5
 63
     7
 74
     2
 91
        2
 64
     7
 65
   257
 75
     2
175
     1
 42
40.0
 92
        0
 66
   257
 43
1.0
 76
     1
 77
     6
 78
     2
 67
     7
 79
     3
170
     0
171
     0
290
     0
174
     0
 93
        1
 44
0.0
173
     0
291
     0
 45
0.0
1001
ACAD
1000
AcDbSavedByObjectVersion
1070
     0
  0
VISUALSTYLE
  5
30
102
{ACAD_REACTORS
330
2A
102
}
330
2A
100
AcDbVisualStyle
  2
3dWireframe
 70
     5
 71
     0
 72
     2
 73
     0
 90
        0
 40
-0.6
 41
-30.0
 62
     5
 63
     7
 74
     1
 91
        4
 64
     7
 65
   257
 75
     1
175
     1
 42
1.0
 92
        0
 66
   257
 43
1.0
 76
     1
 77
     6
 78
     2
 67
     7
 79
     5
170
     0
171
     0
290
     0
174
     0
 93
        1
 44
0.0
173
     0
291
     0
 45
0.0
1001
ACAD
1000
AcDbSavedByObjectVersion
1070
     0
  0
VISUALSTYLE
  5
32
102
{ACAD_REACTORS
330
2A
102
}
330
2A
100
AcDbVisualStyle
  2
Basic
 70
     7
 71
     1
 72
     0
 73
     1
 90
        0
 40
-0.6
 41
-30.0
 62
     5
 63
     7
 74
     0
 91
        4
 64
     7
 65
   257
 75
     1
175
     1
 42
1.0
 92
        8
 66
     7
 43
1.0
 76
     1
 77
     6
 78
     2
 67
     7
 79
     5
170
     0
171
     0
290
     0
174
     0
 93
        1
 44
0.0
173
     0
291
     1
 45
0.0
1001
ACAD
1000
AcDbSavedByObjectVersion
1070
     0
  0
VISUALSTYLE
  5
36
102
{ACAD_REACTORS
330
2A
102
}
330
2A
100
AcDbVisualStyle
  2
Brighten
 70
    12
 71
     2
 72
     2
 73
     0
 90
        0
 40
-0.6
 41
-30.0
 62
     5
 63
     7
 74
     1
 91
        4
 64
     7
 65
   257
 75
     1
175
     1
 42
1.0
 92
        8
 66
     7
 43
1.0
 76
     1
 77
     6
 78
     2
 67
     7
 79
     5
170
     0
171
     0
290
     0
174
     0
 93
        1
 44
50.0
173
     0
291
     1
 45
0.0
1001
ACAD
1000
AcDbSavedByObjectVersion
1070
     0
  0
VISUALSTYLE
  5
3A
102
{ACAD_REACTORS
330
2A
102
}
330
2A
100
AcDbVisualStyle
  2
ColorChange
 70
    16
 71
     2
 72
     2
 73
     3
 90
        0
 40
-0.6
 41
-30.0
 62
     5
 63
     8
 74
     1
 91
        4
 64
     7
 65
   257
 75
     1
175
     1
 42
1.0
 92
        8
 66
     8
 43
1.0
 76
     1
 77
     6
 78
     2
 67
     7
 79
     5
170
     0
171
     0
290
     0
174
     0
 93
        1
 44
0.0
173
     0
291
     1
 45
0.0
1001
ACAD
1000
AcDbSavedByObjectVersion
1070
     0
  0
VISUALSTYLE
  5
34
102
{ACAD_REACTORS
330
2A
102
}
330
2A
100
AcDbVisualStyle
  2
Conceptual
 70
     9
 71
     3
 72
     2
 73
     0
 90
        0
 40
-0.6
 41
-30.0
 62
     5
 63
     7
 74
     2
 91
        2
 64
     7
 65
   257
 75
     1
175
     1
 42
40.0
 92
        8
 66
     7
 43
1.0
 76
     1
 77
     6
 78
     2
 67
     7
 79
     3
170
     0
171
     0
290
     0
174
     0
 93
        1
 44
0.0
173
     0
291
     0
 45
0.0
1001
ACAD
1000
AcDbSavedByObjectVersion
1070
     0
  0
VISUALSTYLE
  5
35
102
{ACAD_REACTORS
330
2A
102
}
330
2A
100
AcDbVisualStyle
  2
Dim
 70
    11
 71
     2
 72
     2
 73
     0
 90
        0
 40
-0.6
 41
-30.0
 62
     5
 63
     7
 74
     1
 91
        4
 64
     7
 65
   257
 75
     1
175
     1
 42
1.0
 92
        8
 66
     7
 43
1.0
 76
     1
 77
     6
 78
     2
 67
     7
 79
     5
170
     0
171
     0
290
     0
174
     0
 93
        1
 44
-50.0
173
     0
291
     1
 45
0.0
1001
ACAD
1000
AcDbSavedByObjectVersion
1070
     0
  0
VISUALSTYLE
  5
39
102
{ACAD_REACTORS
330
2A
102
}
330
2A
100
AcDbVisualStyle
  2
Facepattern
 70
    15
 71
     2
 72
     2
 73
     0
 90
        0
 40
-0.6
 41
-30.0
 62
     5
 63
     7
 74
     1
 91
        4
 64
     7
 65
   257
 75
     1
175
     1
 42
1.0
 92
        8
 66
     7
 43
1.0
 76
     1
 77
     6
 78
     2
 67
     7
 79
     5
170
     0
171
     0
290
     0
174
     0
 93
        1
 44
0.0
173
     0
291
     1
 45
0.0
1001
ACAD
1000
AcDbSavedByObjectVersion
1070
     0
  0
VISUALSTYLE
  5
2B
102
{ACAD_REACTORS
330
2A
102
}
330
2A
100
AcDbVisualStyle
  2
Flat
 70
     0
 71
     2
 72
     1
 73
     1
 90
        2
 40
-0.6
 41
30.0
 62
     5
 63
     7
 74
     0
 91
        4
 64
     7
 65
   257
 75
     1
175
     1
 42
1.0
 92
        8
 66
     7
 43
1.0
 76
     1
 77
     6
 78
     2
 67
     7
 79
     5
170
     0
171
     0
290
     0
174
     0
 93
       13
 44
0.0
173
     0
291
     1
 45
0.0
1001
ACAD
1000
AcDbSavedByObjectVersion
1070
     0
  0
VISUALSTYLE
  5
2C
102
{ACAD_REACTORS
330
2A
102
}
330
2A
100
AcDbVisualStyle
  2
FlatWithEdges
 70
     1
 71
     2
 72
     1
 73
     1
 90
        2
 40
-0.6
 41
30.0
 62
     5
 63
     7
 74
     1
 91
        4
 64
     7
 65
   257
 75
     1
175
     1
 42
1.0
 92
        0
 66
   257
 43
1.0
 76
     1
 77
     6
 78
     2
 67
     7
 79
     5
170
     0
171
     0
290
     0
174
     0
 93
       13
 44
0.0
173
     0
291
     1
 45
0.0
1001
ACAD
1000
AcDbSavedByObjectVersion
1070
     0
  0
VISUALSTYLE
  5
2D
102
{ACAD_REACTORS
330
2A
102
}
330
2A
100
AcDbVisualStyle
  2
Gouraud
 70
     2
 71
     2
 72
     2
 73
     1
 90
        2
 40
-0.6
 41
30.0
 62
     5
 63
     7
 74
     0
 91
        4
 64
     7
 65
   257
 75
     1
175
     1
 42
1.0
 92
        0
 66
     7
 43
1.0
 76
     1
 77
     6
 78
     2
 67
     7
 79
     5
170
     0
171
     0
290
     0
174
     0
 93
       13
 44
0.0
173
     0
291
     1
 45
0.0
1001
ACAD
1000
AcDbSavedByObjectVersion
1070
     0
  0
VISUALSTYLE
  5
2E
102
{ACAD_REACTORS
330
2A
102
}
330
2A
100
AcDbVisualStyle
  2
GouraudWithEdges
 70
     3
 71
     2
 72
     2
 73
     1
 90
        2
 40
-0.6
 41
30.0
 62
     5
 63
     7
 74
     1
 91
        4
 64
     7
 65
   257
 75
     1
175
     1
 42
1.0
 92
        0
 66
   257
 43
1.0
 76
     1
 77
     6
 78
     2
 67
     7
 79
     5
170
     0
171
     0
290
     0
174
     0
 93
       13
 44
0.0
173
     0
291
     1
 45
0.0
1001
ACAD
1000
AcDbSavedByObjectVersion
1070
     0
  0
VISUALSTYLE
  5
38
102
{ACAD_REACTORS
330
2A
102
}
330
2A
100
AcDbVisualStyle
  2
Linepattern
 70
    14
 71
     2
 72
     2
 73
     0
 90
        0
 40
-0.6
 41
-30.0
 62
     5
 63
     7
 74
     1
 91
        4
 64
     7
 65
   257
 75
     7
175
     7
 42
1.0
 92
        8
 66
     7
 43
1.0
 76
     1
 77
     6
 78
     2
 67
     7
 79
     5
170
     0
171
     0
290
     0
174
     0
 93
        1
 44
0.0
173
     0
291
     1
 45
0.0
1001
ACAD
1000
AcDbSavedByObjectVersion
1070
     0
  0
VISUALSTYLE
  5
33
102
{ACAD_REACTORS
330
2A
102
}
330
2A
100
AcDbVisualStyle
  2
Realistic
 70
     8
 71
     2
 72
     2
 73
     0
 90
        0
 40
-0.6
 41
-30.0
 62
     5
 63
     7
 74
     1
 91
        0
 64
     7
 65
   257
 75
     1
175
     1
 42
1.0
 92
        8
 66
     8
 43
1.0
 76
     1
 77
     6
 78
     2
 67
     7
 79
     5
170
     0
171
     0
290
     0
174
     0
 93
       13
 44
0.0
173
     0
291
     0
 45
0.0
1001
ACAD
1000
AcDbSavedByObjectVersion
1070
     0
  0
VISUALSTYLE
  5
37
102
{ACAD_REACTORS
330
2A
102
}
330
2A
100
AcDbVisualStyle
  2
Thicken
 70
    13
 71
     2
 72
     2
 73
     0
 90
        0
 40
-0.6
 41
-30.0
 62
     5
 63
     7
 74
     1
 91
        4
 64
     7
 65
   257
 75
     1
175
     1
 42
1.0
 92
       12
 66
     7
 43
1.0
 76
     1
 77
     6
 78
     2
 67
     7
 79
     5
170
     0
171
     0
290
     0
174
     0
 93
        1
 44
0.0
173
     0
291
     1
 45
0.0
1001
ACAD
1000
AcDbSavedByObjectVersion
1070
     0
  0
DICTIONARYVAR
  5
384
102
{ACAD_REACTORS
330
383
102
}
330
383
100
DictionaryVariables
280
     0
  1
1:1
  0
DICTIONARYVAR
  5
388
102
{ACAD_REACTORS
330
383
102
}
330
383
100
DictionaryVariables
280
     0
  1
80.000000
  0
DICTIONARYVAR
  5
387
102
{ACAD_REACTORS
330
383
102
}
330
383
100
DictionaryVariables
280
     0
  1
5.000000
  0
ENDSEC
  0
EOF
