  0
SECTION
  2
HEADER
  9
$ACADVER
  1
AC1015
  9
$ACADMAINTVER
 70
     6
  9
$DWGCODEPAGE
  3
ANSI_932
  9
$INSBASE
 10
0.0
 20
0.0
 30
0.0
  9
$EXTMIN
 10
-0.079285
 20
11.037979
 30
0.0
  9
$EXTMAX
 10
219.920715
 20
112.207176
 30
0.0
  9
$LIMMIN
 10
0.0
 20
0.0
  9
$LIMMAX
 10
12.0
 20
9.0
  9
$ORTHOMODE
 70
     0
  9
$REGENMODE
 70
     1
  9
$FILLMODE
 70
     1
  9
$QTEXTMODE
 70
     0
  9
$MIRRTEXT
 70
     1
  9
$LTSCALE
 40
2.421471
  9
$ATTMODE
 70
     1
  9
$TEXTSIZE
 40
3.2
  9
$TRACEWID
 40
1.0
  9
$TEXTSTYLE
  7
Standard
  9
$CLAYER
  8
0
  9
$CELTYPE
  6
ByLayer
  9
$CECOLOR
 62
   256
  9
$CELTSCALE
 40
1.0
  9
$DISPSILH
 70
     0
  9
$DIMSCALE
 40
1.0
  9
$DIMASZ
 40
2.5
  9
$DIMEXO
 40
0.625
  9
$DIMDLI
 40
3.75
  9
$DIMRND
 40
0.0
  9
$DIMDLE
 40
0.0
  9
$DIMEXE
 40
1.25
  9
$DIMTP
 40
0.0
  9
$DIMTM
 40
0.0
  9
$DIMTXT
 40
2.5
  9
$DIMCEN
 40
0.09
  9
$DIMTSZ
 40
0.0
  9
$DIMTOL
 70
     0
  9
$DIMLIM
 70
     0
  9
$DIMTIH
 70
     0
  9
$DIMTOH
 70
     0
  9
$DIMSE1
 70
     0
  9
$DIMSE2
 70
     0
  9
$DIMTAD
 70
     0
  9
$DIMZIN
 70
     8
  9
$DIMBLK
  1

  9
$DIMASO
 70
     1
  9
$DIMSHO
 70
     0
  9
$DIMPOST
  1

  9
$DIMAPOST
  1

  9
$DIMALT
 70
     0
  9
$DIMALTD
 70
     3
  9
$DIMALTF
 40
0.03937
  9
$DIMLFAC
 40
1.0
  9
$DIMTOFL
 70
     1
  9
$DIMTVP
 40
0.0
  9
$DIMTIX
 70
     0
  9
$DIMSOXD
 70
     0
  9
$DIMSAH
 70
     0
  9
$DIMBLK1
  1

  9
$DIMBLK2
  1

  9
$DIMSTYLE
  2
ISO-25
  9
$DIMCLRD
 70
     0
  9
$DIMCLRE
 70
     0
  9
$DIMCLRT
 70
     0
  9
$DIMTFAC
 40
1.0
  9
$DIMGAP
 40
0.625
  9
$DIMJUST
 70
     0
  9
$DIMSD1
 70
     0
  9
$DIMSD2
 70
     0
  9
$DIMTOLJ
 70
     0
  9
$DIMTZIN
 70
     8
  9
$DIMALTZ
 70
     0
  9
$DIMALTTZ
 70
     0
  9
$DIMUPT
 70
     0
  9
$DIMDEC
 70
     2
  9
$DIMTDEC
 70
     2
  9
$DIMALTU
 70
     2
  9
$DIMALTTD
 70
     3
  9
$DIMTXSTY
  7
Standard
  9
$DIMAUNIT
 70
     0
  9
$DIMADEC
 70
     0
  9
$DIMALTRND
 40
0.0
  9
$DIMAZIN
 70
     0
  9
$DIMDSEP
 70
    44
  9
$DIMATFIT
 70
     3
  9
$DIMFRAC
 70
     0
  9
$DIMLDRBLK
  1

  9
$DIMLUNIT
 70
     2
  9
$DIMLWD
 70
    -2
  9
$DIMLWE
 70
    -2
  9
$DIMTMOVE
 70
     0
  9
$LUNITS
 70
     2
  9
$LUPREC
 70
     4
  9
$SKETCHINC
 40
1.0
  9
$FILLETRAD
 40
0.0
  9
$AUNITS
 70
     0
  9
$AUPREC
 70
     0
  9
$MENU
  1
.
  9
$ELEVATION
 40
0.0
  9
$PELEVATION
 40
0.0
  9
$THICKNESS
 40
0.0
  9
$LIMCHECK
 70
     0
  9
$CHAMFERA
 40
10.0
  9
$CHAMFERB
 40
10.0
  9
$CHAMFERC
 40
20.0
  9
$CHAMFERD
 40
0.0
  9
$SKPOLY
 70
     0
  9
$TDCREATE
 40
2454798.696551643
  9
$TDUCREATE
 40
2454798.321551643
  9
$TDUPDATE
 40
2454798.696551655
  9
$TDUUPDATE
 40
2454798.321551655
  9
$TDINDWG
 40
0.0000000116
  9
$TDUSRTIMER
 40
0.0000000116
  9
$USRTIMER
 70
     1
  9
$ANGBASE
 50
0.0
  9
$ANGDIR
 70
     0
  9
$PDMODE
 70
     0
  9
$PDSIZE
 40
0.0
  9
$PLINEWID
 40
0.0
  9
$SPLFRAME
 70
     0
  9
$SPLINETYPE
 70
     6
  9
$SPLINESEGS
 70
     8
  9
$HANDSEED
  5
38C
  9
$SURFTAB1
 70
     6
  9
$SURFTAB2
 70
     6
  9
$SURFTYPE
 70
     6
  9
$SURFU
 70
     6
  9
$SURFV
 70
     6
  9
$UCSBASE
  2

  9
$UCSNAME
  2

  9
$UCSORG
 10
0.0
 20
0.0
 30
0.0
  9
$UCSXDIR
 10
1.0
 20
0.0
 30
0.0
  9
$UCSYDIR
 10
0.0
 20
1.0
 30
0.0
  9
$UCSORTHOREF
  2

  9
$UCSORTHOVIEW
 70
     0
  9
$UCSORGTOP
 10
0.0
 20
0.0
 30
0.0
  9
$UCSORGBOTTOM
 10
0.0
 20
0.0
 30
0.0
  9
$UCSORGLEFT
 10
0.0
 20
0.0
 30
0.0
  9
$UCSORGRIGHT
 10
0.0
 20
0.0
 30
0.0
  9
$UCSORGFRONT
 10
0.0
 20
0.0
 30
0.0
  9
$UCSORGBACK
 10
0.0
 20
0.0
 30
0.0
  9
$PUCSBASE
  2

  9
$PUCSNAME
  2

  9
$PUCSORG
 10
0.0
 20
0.0
 30
0.0
  9
$PUCSXDIR
 10
1.0
 20
0.0
 30
0.0
  9
$PUCSYDIR
 10
0.0
 20
1.0
 30
0.0
  9
$PUCSORTHOREF
  2

  9
$PUCSORTHOVIEW
 70
     0
  9
$PUCSORGTOP
 10
0.0
 20
0.0
 30
0.0
  9
$PUCSORGBOTTOM
 10
0.0
 20
0.0
 30
0.0
  9
$PUCSORGLEFT
 10
0.0
 20
0.0
 30
0.0
  9
$PUCSORGRIGHT
 10
0.0
 20
0.0
 30
0.0
  9
$PUCSORGFRONT
 10
0.0
 20
0.0
 30
0.0
  9
$PUCSORGBACK
 10
0.0
 20
0.0
 30
0.0
  9
$USERI1
 70
     0
  9
$USERI2
 70
     0
  9
$USERI3
 70
     0
  9
$USERI4
 70
     0
  9
$USERI5
 70
     0
  9
$USERR1
 40
0.0
  9
$USERR2
 40
0.0
  9
$USERR3
 40
0.0
  9
$USERR4
 40
0.0
  9
$USERR5
 40
0.0
  9
$WORLDVIEW
 70
     1
  9
$SHADEDGE
 70
     3
  9
$SHADEDIF
 70
    70
  9
$TILEMODE
 70
     1
  9
$MAXACTVP
 70
    64
  9
$PINSBASE
 10
0.0
 20
0.0
 30
0.0
  9
$PLIMCHECK
 70
     0
  9
$PEXTMIN
 10
1.000000E+20
 20
1.000000E+20
 30
0.0
  9
$PEXTMAX
 10
-1.000000E+20
 20
-1.000000E+20
 30
0.0
  9
$PLIMMIN
 10
0.0
 20
0.0
  9
$PLIMMAX
 10
12.0
 20
9.0
  9
$UNITMODE
 70
     0
  9
$VISRETAIN
 70
     1
  9
$PLINEGEN
 70
     0
  9
$PSLTSCALE
 70
     1
  9
$TREEDEPTH
 70
  3020
  9
$CMLSTYLE
  2
Standard
  9
$CMLJUST
 70
     0
  9
$CMLSCALE
 40
20.0
  9
$PROXYGRAPHICS
 70
     1
  9
$MEASUREMENT
 70
     1
  9
$CELWEIGHT
370
    -1
  9
$ENDCAPS
280
     0
  9
$JOINSTYLE
280
     0
  9
$LWDISPLAY
290
     0
  9
$INSUNITS
 70
     4
  9
$HYPERLINKBASE
  1

  9
$STYLESHEET
  1

  9
$XEDIT
290
     1
  9
$CEPSNTYPE
380
     0
  9
$PSTYLEMODE
290
     1
  9
$FINGERPRINTGUID
  2
{6D85B0AB-6027-4131-881B-3C1185CCDF10}
  9
$VERSIONGUID
  2
{FAEB1C32-E019-11D5-929B-00C0DF256EC4}
  9
$EXTNAMES
290
     1
  9
$PSVPSCALE
 40
0.0
  9
$OLESTARTUP
290
     0
  0
ENDSEC
  0
SECTION
  2
CLASSES
  0
CLASS
  1
ACDBDICTIONARYWDFLT
  2
AcDbDictionaryWithDefault
  3
ObjectDBX Classes
 90
        0
280
     0
281
     0
  0
CLASS
  1
VISUALSTYLE
  2
AcDbVisualStyle
  3
ObjectDBX Classes
 90
     4095
280
     0
281
     0
  0
CLASS
  1
SCALE
  2
AcDbScale
  3
ObjectDBX Classes
 90
     1153
280
     0
281
     0
  0
CLASS
  1
DICTIONARYVAR
  2
AcDbDictionaryVar
  3
ObjectDBX Classes
 90
        0
280
     0
281
     0
  0
CLASS
  1
ACDBPLACEHOLDER
  2
AcDbPlaceHolder
  3
ObjectDBX Classes
 90
        0
280
     0
281
     0
  0
CLASS
  1
LAYOUT
  2
AcDbLayout
  3
ObjectDBX Classes
 90
        0
280
     0
281
     0
  0
ENDSEC
  0
SECTION
  2
TABLES
  0
TABLE
  2
VPORT
  5
8
330
0
100
AcDbSymbolTable
 70
     1
  0
VPORT
  5
29
330
8
100
AcDbSymbolTableRecord
100
AcDbViewportTableRecord
  2
*Active
 70
     0
 10
0.0
 20
0.0
 11
1.0
 21
1.0
 12
109.920715
 22
61.622578
 13
0.0
 23
0.0
 14
1.0
 24
1.0
 15
0.0
 25
0.0
 16
0.0
 26
0.0
 36
1.0
 17
0.0
 27
0.0
 37
0.0
 40
131.379162
 41
1.691288
 42
50.0
 43
0.0
 44
0.0
 50
0.0
 51
0.0
 71
     0
 72
   100
 73
     1
 74
     3
 75
     0
 76
     0
 77
     0
 78
     0
281
     0
 65
     1
110
0.0
120
0.0
130
0.0
111
1.0
121
0.0
131
0.0
112
0.0
122
1.0
132
0.0
 79
     0
146
0.0
  0
ENDTAB
  0
TABLE
  2
LTYPE
  5
5
330
0
100
AcDbSymbolTable
 70
     5
  0
LTYPE
  5
14
330
5
100
AcDbSymbolTableRecord
100
AcDbLinetypeTableRecord
  2
ByBlock
 70
     0
  3

 72
    65
 73
     0
 40
0.0
  0
LTYPE
  5
15
330
5
100
AcDbSymbolTableRecord
100
AcDbLinetypeTableRecord
  2
ByLayer
 70
     0
  3

 72
    65
 73
     0
 40
0.0
  0
LTYPE
  5
16
330
5
100
AcDbSymbolTableRecord
100
AcDbLinetypeTableRecord
  2
Continuous
 70
     0
  3
Solid line
 72
    65
 73
     0
 40
0.0
  0
LTYPE
  5
5D
330
5
100
AcDbSymbolTableRecord
100
AcDbLinetypeTableRecord
  2
DASHED
 70
     0
  3
DASHED
 72
    83
 73
     2
 40
0.75
 49
0.5
 74
     0
 49
-0.25
 74
     0
  0
LTYPE
  5
5E
330
5
100
AcDbSymbolTableRecord
100
AcDbLinetypeTableRecord
  2
HIDDEN
 70
     0
  3
HIDDEN
 72
    83
 73
     2
 40
0.375
 49
0.25
 74
     0
 49
-0.125
 74
     0
  0
LTYPE
  5
5F
330
5
100
AcDbSymbolTableRecord
100
AcDbLinetypeTableRecord
  2
CENTER
 70
     0
  3
CENTER
 72
    83
 73
     4
 40
2.0
 49
1.25
 74
     0
 49
-0.25
 74
     0
 49
0.25
 74
     0
 49
-0.25
 74
     0
  0
LTYPE
  5
60
330
5
100
AcDbSymbolTableRecord
100
AcDbLinetypeTableRecord
  2
PHANTOM
 70
     0
  3
PHANTOM
 72
    83
 73
     6
 40
2.5
 49
1.25
 74
     0
 49
-0.25
 74
     0
 49
0.25
 74
     0
 49
-0.25
 74
     0
 49
0.25
 74
     0
 49
-0.25
 74
     0
  0
ENDTAB
  0
TABLE
  2
LAYER
  5
2
330
0
100
AcDbSymbolTable
 70
     2
  0
LAYER
  5
10
330
2
100
AcDbSymbolTableRecord
100
AcDbLayerTableRecord
  2
0
 70
     0
 62
     7
  6
Continuous
370
    -3
390
F
  0
LAYER
  5
61
330
2
100
AcDbSymbolTableRecord
100
AcDbLayerTableRecord
  2
001
 70
     0
 62
     7
  6
Continuous
370
    -3
390
F
  0
ENDTAB
  0
TABLE
  2
STYLE
  5
3
330
0
100
AcDbSymbolTable
 70
     2
  0
STYLE
  5
11
330
3
100
AcDbSymbolTableRecord
100
AcDbTextStyleTableRecord
  2
Standard
 70
     0
 40
0.0
 41
1.0
 50
0.0
 71
     0
 42
0.2
  3
TXT
  4
BIGFONT
  0
STYLE
  5
62
330
3
100
AcDbSymbolTableRecord
100
AcDbTextStyleTableRecord
  2
TATEGAKI
 70
     4
 40
1.0
 41
1.0
 50
0.0
 71
     0
 42
0.2
  3
TXT
  4
BIGFONT
  0
ENDTAB
  0
TABLE
  2
VIEW
  5
6
330
0
100
AcDbSymbolTable
 70
     0
  0
ENDTAB
  0
TABLE
  2
UCS
  5
7
330
0
100
AcDbSymbolTable
 70
     0
  0
ENDTAB
  0
TABLE
  2
APPID
  5
9
330
0
100
AcDbSymbolTable
 70
     1
  0
APPID
  5
12
330
9
100
AcDbSymbolTableRecord
100
AcDbRegAppTableRecord
  2
ACAD
 70
     0
  0
ENDTAB
  0
TABLE
  2
DIMSTYLE
  5
A
330
0
100
AcDbSymbolTable
 70
     2
100
AcDbDimStyleTable
  0
DIMSTYLE
105
27
330
A
100
AcDbSymbolTableRecord
100
AcDbDimStyleTableRecord
  2
ISO-25
 70
     0
 41
2.5
 42
0.625
 43
3.75
 44
1.25
 73
     0
 74
     0
 77
     1
 78
     8
140
2.5
141
2.5
143
0.03937
147
0.625
171
     3
172
     1
271
     2
272
     2
274
     3
278
    44
283
     0
284
     8
340
11
  0
DIMSTYLE
105
63
102
{ACAD_REACTORS
330
DE
330
F7
330
F8
330
F9
330
FA
330
FB
102
}
330
A
100
AcDbSymbolTableRecord
100
AcDbDimStyleTableRecord
  2
Standard
 70
     0
 41
1.5
 42
0.0
 44
2.75
 73
     0
 74
     0
 77
     1
 78
     8
 79
     2
140
4.0
146
0.8
147
1.0
172
     1
179
     1
271
     1
340
11
  0
ENDTAB
  0
TABLE
  2
BLOCK_RECORD
  5
1
330
0
100
AcDbSymbolTable
 70
     7
  0
BLOCK_RECORD
  5
1F
330
1
100
AcDbSymbolTableRecord
100
AcDbBlockTableRecord
  2
*Model_Space
340
22
  0
BLOCK_RECORD
  5
1B
330
1
100
AcDbSymbolTableRecord
100
AcDbBlockTableRecord
  2
*Paper_Space
340
1E
  0
BLOCK_RECORD
  5
23
330
1
100
AcDbSymbolTableRecord
100
AcDbBlockTableRecord
  2
*Paper_Space0
340
26
  0
BLOCK_RECORD
  5
64
330
1
100
AcDbSymbolTableRecord
100
AcDbBlockTableRecord
  2
*D1
340
0
  0
BLOCK_RECORD
  5
7A
330
1
100
AcDbSymbolTableRecord
100
AcDbBlockTableRecord
  2
*D2
340
0
  0
BLOCK_RECORD
  5
8E
330
1
100
AcDbSymbolTableRecord
100
AcDbBlockTableRecord
  2
*D3
340
0
  0
BLOCK_RECORD
  5
A2
330
1
100
AcDbSymbolTableRecord
100
AcDbBlockTableRecord
  2
*D4
340
0
  0
BLOCK_RECORD
  5
B6
330
1
100
AcDbSymbolTableRecord
100
AcDbBlockTableRecord
  2
*D5
340
0
  0
BLOCK_RECORD
  5
CA
330
1
100
AcDbSymbolTableRecord
100
AcDbBlockTableRecord
  2
*D6
340
0
  0
ENDTAB
  0
ENDSEC
  0
SECTION
  2
BLOCKS
  0
BLOCK
  5
20
330
1F
100
AcDbEntity
  8
0
100
AcDbBlockBegin
  2
*Model_Space
 70
     0
 10
0.0
 20
0.0
 30
0.0
  3
*Model_Space
  1

  0
ENDBLK
  5
21
330
1F
100
AcDbEntity
  8
0
100
AcDbBlockEnd
  0
BLOCK
  5
1C
330
1B
100
AcDbEntity
 67
     1
  8
0
100
AcDbBlockBegin
  2
*Paper_Space
 70
     0
 10
0.0
 20
0.0
 30
0.0
  3
*Paper_Space
  1

  0
ENDBLK
  5
1D
330
1B
100
AcDbEntity
 67
     1
  8
0
100
AcDbBlockEnd
  0
BLOCK
  5
24
330
23
100
AcDbEntity
  8
0
100
AcDbBlockBegin
  2
*Paper_Space0
 70
     0
 10
0.0
 20
0.0
 30
0.0
  3
*Paper_Space0
  1

  0
ENDBLK
  5
25
330
23
100
AcDbEntity
  8
0
100
AcDbBlockEnd
  0
BLOCK
  5
65
330
64
100
AcDbEntity
  8
0
100
AcDbBlockBegin
  2
*D1
 70
     1
 10
0.0
 20
0.0
 30
0.0
  3
*D1
  1

  0
LINE
  5
67
330
64
100
AcDbEntity
  8
001
370
     9
100
AcDbLine
 10
41.924543
 20
51.754738
 30
0.0
 11
41.924543
 21
35.411695
 31
0.0
  0
LINE
  5
68
330
64
100
AcDbEntity
  8
001
370
     9
100
AcDbLine
 10
40.624542
 20
56.754738
 30
0.0
 11
40.624542
 21
35.411695
 31
0.0
  0
LINE
  5
69
330
64
100
AcDbEntity
  8
001
370
     9
100
AcDbLine
 10
41.924543
 20
38.161695
 30
0.0
 11
40.624542
 21
38.161695
 31
0.0
  0
POLYLINE
  5
6A
330
64
100
AcDbEntity
  8
001
370
     9
100
AcDb2dPolyline
 66
     1
 10
0.0
 20
0.0
 30
0.0
  0
VERTEX
  5
6C
330
6A
100
AcDbEntity
  8
001
370
     9
100
AcDbVertex
100
AcDb2dVertex
 10
43.424543
 20
37.759771
 30
0.0
  0
VERTEX
  5
6D
330
6A
100
AcDbEntity
  8
001
370
     9
100
AcDbVertex
100
AcDb2dVertex
 10
41.924543
 20
38.161695
 30
0.0
  0
VERTEX
  5
6E
330
6A
100
AcDbEntity
  8
001
370
     9
100
AcDbVertex
100
AcDb2dVertex
 10
43.424543
 20
38.563619
 30
0.0
  0
SEQEND
  5
6B
330
6A
100
AcDbEntity
  8
001
370
     9
  0
POLYLINE
  5
6F
330
64
100
AcDbEntity
  8
001
370
     9
100
AcDb2dPolyline
 66
     1
 10
0.0
 20
0.0
 30
0.0
  0
VERTEX
  5
71
330
6F
100
AcDbEntity
  8
001
370
     9
100
AcDbVertex
100
AcDb2dVertex
 10
39.124542
 20
38.563619
 30
0.0
  0
VERTEX
  5
72
330
6F
100
AcDbEntity
  8
001
370
     9
100
AcDbVertex
100
AcDb2dVertex
 10
40.624542
 20
38.161695
 30
0.0
  0
VERTEX
  5
73
330
6F
100
AcDbEntity
  8
001
370
     9
100
AcDbVertex
100
AcDb2dVertex
 10
39.124542
 20
37.759771
 30
0.0
  0
SEQEND
  5
70
330
6F
100
AcDbEntity
  8
001
370
     9
  0
TEXT
  5
74
330
64
100
AcDbEntity
  8
001
370
    30
100
AcDbText
 10
25.124542
 20
39.161695
 30
0.0
 40
4.0
  1
１．３
 41
0.833333
100
AcDbText
  0
POINT
  5
75
330
64
100
AcDbEntity
  8
001
370
     9
100
AcDbPoint
 10
41.924543
 20
51.754738
 30
0.0
  0
POINT
  5
76
330
64
100
AcDbEntity
  8
001
370
     9
100
AcDbPoint
 10
40.624542
 20
56.754738
 30
0.0
  0
POINT
  5
77
330
64
100
AcDbEntity
  8
001
370
     9
100
AcDbPoint
 10
40.624542
 20
38.161695
 30
0.0
  0
LINE
  5
78
330
64
100
AcDbEntity
  8
001
370
     9
100
AcDbLine
 10
41.924543
 20
38.161695
 30
0.0
 11
44.424543
 21
38.161695
 31
0.0
  0
LINE
  5
79
330
64
100
AcDbEntity
  8
001
370
     9
100
AcDbLine
 10
40.624542
 20
38.161695
 30
0.0
 11
22.124542
 21
38.161695
 31
0.0
  0
ENDBLK
  5
66
330
64
100
AcDbEntity
  8
0
100
AcDbBlockEnd
  0
BLOCK
  5
7B
330
7A
100
AcDbEntity
  8
0
100
AcDbBlockBegin
  2
*D2
 70
     1
 10
0.0
 20
0.0
 30
0.0
  3
*D2
  1

  0
LINE
  5
7D
330
7A
100
AcDbEntity
  8
001
370
     9
100
AcDbLine
 10
41.924543
 20
55.454738
 30
0.0
 11
64.059667
 21
33.319614
 31
0.0
  0
ARC
  5
7E
330
7A
100
AcDbEntity
  8
001
370
     9
100
AcDbCircle
 10
30.424542
 20
66.954738
 30
0.0
 40
44.81724947443941
100
AcDbArc
 50
315.0
 51
0.0
  0
POLYLINE
  5
7F
330
7A
100
AcDbEntity
  8
001
370
     9
100
AcDb2dPolyline
 66
     1
 10
0.0
 20
0.0
 30
0.0
  0
VERTEX
  5
81
330
7F
100
AcDbEntity
  8
001
370
     9
100
AcDbVertex
100
AcDb2dVertex
 10
74.814824
 20
65.461674
 30
0.0
  0
VERTEX
  5
82
330
7F
100
AcDbEntity
  8
001
370
     9
100
AcDbVertex
100
AcDb2dVertex
 10
75.241792
 20
66.954738
 30
0.0
  0
VERTEX
  5
83
330
7F
100
AcDbEntity
  8
001
370
     9
100
AcDbVertex
100
AcDb2dVertex
 10
75.618559
 20
65.448223
 30
0.0
  0
SEQEND
  5
80
330
7F
100
AcDbEntity
  8
001
370
     9
  0
POLYLINE
  5
84
330
7A
100
AcDbEntity
  8
001
370
     9
100
AcDb2dPolyline
 66
     1
 10
0.0
 20
0.0
 30
0.0
  0
VERTEX
  5
86
330
84
100
AcDbEntity
  8
001
370
     9
100
AcDbVertex
100
AcDb2dVertex
 10
63.446805
 20
36.06301
 30
0.0
  0
VERTEX
  5
87
330
84
100
AcDbEntity
  8
001
370
     9
100
AcDbVertex
100
AcDb2dVertex
 10
62.115123
 20
35.264157
 30
0.0
  0
VERTEX
  5
88
330
84
100
AcDbEntity
  8
001
370
     9
100
AcDbVertex
100
AcDb2dVertex
 10
62.868967
 20
36.621825
 30
0.0
  0
SEQEND
  5
85
330
84
100
AcDbEntity
  8
001
370
     9
  0
TEXT
  5
89
330
7A
100
AcDbEntity
  8
001
370
    30
100
AcDbText
 10
66.452239
 20
41.304076
 30
0.0
 40
4.0
  1
４５%%d
 50
62.347401
 41
0.978261
100
AcDbText
  0
POINT
  5
8A
330
7A
100
AcDbEntity
  8
001
370
     9
100
AcDbPoint
 10
38.431519
 20
66.954738
 30
0.0
  0
POINT
  5
8B
330
7A
100
AcDbEntity
  8
001
370
     9
100
AcDbPoint
 10
30.424542
 20
66.954738
 30
0.0
  0
POINT
  5
8C
330
7A
100
AcDbEntity
  8
001
370
     9
100
AcDbPoint
 10
30.424542
 20
66.954738
 30
0.0
  0
POINT
  5
8D
330
7A
100
AcDbEntity
  8
001
370
     9
100
AcDbPoint
 10
41.924543
 20
55.454738
 30
0.0
  0
ENDBLK
  5
7C
330
7A
100
AcDbEntity
  8
0
100
AcDbBlockEnd
  0
BLOCK
  5
8F
330
8E
100
AcDbEntity
  8
0
100
AcDbBlockBegin
  2
*D3
 70
     1
 10
0.0
 20
0.0
 30
0.0
  3
*D3
  1

  0
LINE
  5
91
330
8E
100
AcDbEntity
  8
001
370
     9
100
AcDbLine
 10
104.624542
 20
52.004738
 30
0.0
 11
104.624542
 21
23.629833
 31
0.0
  0
LINE
  5
92
330
8E
100
AcDbEntity
  8
001
370
     9
100
AcDbLine
 10
40.624542
 20
56.754738
 30
0.0
 11
40.624542
 21
23.629833
 31
0.0
  0
LINE
  5
93
330
8E
100
AcDbEntity
  8
001
370
     9
100
AcDbLine
 10
104.624542
 20
26.379833
 30
0.0
 11
40.624542
 21
26.379833
 31
0.0
  0
POLYLINE
  5
94
330
8E
100
AcDbEntity
  8
001
370
     9
100
AcDb2dPolyline
 66
     1
 10
0.0
 20
0.0
 30
0.0
  0
VERTEX
  5
96
330
94
100
AcDbEntity
  8
001
370
     9
100
AcDbVertex
100
AcDb2dVertex
 10
103.124542
 20
26.781756
 30
0.0
  0
VERTEX
  5
97
330
94
100
AcDbEntity
  8
001
370
     9
100
AcDbVertex
100
AcDb2dVertex
 10
104.624542
 20
26.379833
 30
0.0
  0
VERTEX
  5
98
330
94
100
AcDbEntity
  8
001
370
     9
100
AcDbVertex
100
AcDb2dVertex
 10
103.124542
 20
25.977909
 30
0.0
  0
SEQEND
  5
95
330
94
100
AcDbEntity
  8
001
370
     9
  0
POLYLINE
  5
99
330
8E
100
AcDbEntity
  8
001
370
     9
100
AcDb2dPolyline
 66
     1
 10
0.0
 20
0.0
 30
0.0
  0
VERTEX
  5
9B
330
99
100
AcDbEntity
  8
001
370
     9
100
AcDbVertex
100
AcDb2dVertex
 10
42.124542
 20
25.977909
 30
0.0
  0
VERTEX
  5
9C
330
99
100
AcDbEntity
  8
001
370
     9
100
AcDbVertex
100
AcDb2dVertex
 10
40.624542
 20
26.379833
 30
0.0
  0
VERTEX
  5
9D
330
99
100
AcDbEntity
  8
001
370
     9
100
AcDbVertex
100
AcDb2dVertex
 10
42.124542
 20
26.781756
 30
0.0
  0
SEQEND
  5
9A
330
99
100
AcDbEntity
  8
001
370
     9
  0
TEXT
  5
9E
330
8E
100
AcDbEntity
  8
001
370
    30
100
AcDbText
 10
68.624542
 20
27.379833
 30
0.0
 40
4.0
  1
６４
 41
0.833333
100
AcDbText
  0
POINT
  5
9F
330
8E
100
AcDbEntity
  8
001
370
     9
100
AcDbPoint
 10
104.624542
 20
52.004738
 30
0.0
  0
POINT
  5
A0
330
8E
100
AcDbEntity
  8
001
370
     9
100
AcDbPoint
 10
40.624542
 20
56.754738
 30
0.0
  0
POINT
  5
A1
330
8E
100
AcDbEntity
  8
001
370
     9
100
AcDbPoint
 10
40.624542
 20
26.379833
 30
0.0
  0
ENDBLK
  5
90
330
8E
100
AcDbEntity
  8
0
100
AcDbBlockEnd
  0
BLOCK
  5
A3
330
A2
100
AcDbEntity
  8
0
100
AcDbBlockBegin
  2
*D4
 70
     1
 10
0.0
 20
0.0
 30
0.0
  3
*D4
  1

  0
LINE
  5
A5
330
A2
100
AcDbEntity
  8
001
370
     9
100
AcDbLine
 10
184.624542
 20
58.954738
 30
0.0
 11
184.624542
 21
23.629833
 31
0.0
  0
LINE
  5
A6
330
A2
100
AcDbEntity
  8
001
370
     9
100
AcDbLine
 10
104.624542
 20
52.004738
 30
0.0
 11
104.624542
 21
23.629833
 31
0.0
  0
LINE
  5
A7
330
A2
100
AcDbEntity
  8
001
370
     9
100
AcDbLine
 10
184.624542
 20
26.379833
 30
0.0
 11
104.624542
 21
26.379833
 31
0.0
  0
POLYLINE
  5
A8
330
A2
100
AcDbEntity
  8
001
370
     9
100
AcDb2dPolyline
 66
     1
 10
0.0
 20
0.0
 30
0.0
  0
VERTEX
  5
AA
330
A8
100
AcDbEntity
  8
001
370
     9
100
AcDbVertex
100
AcDb2dVertex
 10
183.124542
 20
26.781756
 30
0.0
  0
VERTEX
  5
AB
330
A8
100
AcDbEntity
  8
001
370
     9
100
AcDbVertex
100
AcDb2dVertex
 10
184.624542
 20
26.379833
 30
0.0
  0
VERTEX
  5
AC
330
A8
100
AcDbEntity
  8
001
370
     9
100
AcDbVertex
100
AcDb2dVertex
 10
183.124542
 20
25.977909
 30
0.0
  0
SEQEND
  5
A9
330
A8
100
AcDbEntity
  8
001
370
     9
  0
POLYLINE
  5
AD
330
A2
100
AcDbEntity
  8
001
370
     9
100
AcDb2dPolyline
 66
     1
 10
0.0
 20
0.0
 30
0.0
  0
VERTEX
  5
AF
330
AD
100
AcDbEntity
  8
001
370
     9
100
AcDbVertex
100
AcDb2dVertex
 10
106.124542
 20
25.977909
 30
0.0
  0
VERTEX
  5
B0
330
AD
100
AcDbEntity
  8
001
370
     9
100
AcDbVertex
100
AcDb2dVertex
 10
104.624542
 20
26.379833
 30
0.0
  0
VERTEX
  5
B1
330
AD
100
AcDbEntity
  8
001
370
     9
100
AcDbVertex
100
AcDb2dVertex
 10
106.124542
 20
26.781756
 30
0.0
  0
SEQEND
  5
AE
330
AD
100
AcDbEntity
  8
001
370
     9
  0
TEXT
  5
B2
330
A2
100
AcDbEntity
  8
001
370
    30
100
AcDbText
 10
140.624542
 20
27.379833
 30
0.0
 40
4.0
  1
８０
 41
0.833333
100
AcDbText
  0
POINT
  5
B3
330
A2
100
AcDbEntity
  8
001
370
     9
100
AcDbPoint
 10
184.624542
 20
58.954738
 30
0.0
  0
POINT
  5
B4
330
A2
100
AcDbEntity
  8
001
370
     9
100
AcDbPoint
 10
104.624542
 20
52.004738
 30
0.0
  0
POINT
  5
B5
330
A2
100
AcDbEntity
  8
001
370
     9
100
AcDbPoint
 10
104.624542
 20
26.379833
 30
0.0
  0
ENDBLK
  5
A4
330
A2
100
AcDbEntity
  8
0
100
AcDbBlockEnd
  0
BLOCK
  5
B7
330
B6
100
AcDbEntity
  8
0
100
AcDbBlockBegin
  2
*D5
 70
     1
 10
0.0
 20
0.0
 30
0.0
  3
*D5
  1

  0
LINE
  5
B9
330
B6
100
AcDbEntity
  8
001
370
     9
100
AcDbLine
 10
40.624542
 20
56.754738
 30
0.0
 11
40.624542
 21
11.03798
 31
0.0
  0
LINE
  5
BA
330
B6
100
AcDbEntity
  8
001
370
     9
100
AcDbLine
 10
184.624542
 20
58.954738
 30
0.0
 11
184.624542
 21
11.03798
 31
0.0
  0
LINE
  5
BB
330
B6
100
AcDbEntity
  8
001
370
     9
100
AcDbLine
 10
40.624542
 20
13.78798
 30
0.0
 11
184.624542
 21
13.78798
 31
0.0
  0
POLYLINE
  5
BC
330
B6
100
AcDbEntity
  8
001
370
     9
100
AcDb2dPolyline
 66
     1
 10
0.0
 20
0.0
 30
0.0
  0
VERTEX
  5
BE
330
BC
100
AcDbEntity
  8
001
370
     9
100
AcDbVertex
100
AcDb2dVertex
 10
42.124542
 20
13.386056
 30
0.0
  0
VERTEX
  5
BF
330
BC
100
AcDbEntity
  8
001
370
     9
100
AcDbVertex
100
AcDb2dVertex
 10
40.624542
 20
13.78798
 30
0.0
  0
VERTEX
  5
C0
330
BC
100
AcDbEntity
  8
001
370
     9
100
AcDbVertex
100
AcDb2dVertex
 10
42.124542
 20
14.189903
 30
0.0
  0
SEQEND
  5
BD
330
BC
100
AcDbEntity
  8
001
370
     9
  0
POLYLINE
  5
C1
330
B6
100
AcDbEntity
  8
001
370
     9
100
AcDb2dPolyline
 66
     1
 10
0.0
 20
0.0
 30
0.0
  0
VERTEX
  5
C3
330
C1
100
AcDbEntity
  8
001
370
     9
100
AcDbVertex
100
AcDb2dVertex
 10
183.124542
 20
14.189903
 30
0.0
  0
VERTEX
  5
C4
330
C1
100
AcDbEntity
  8
001
370
     9
100
AcDbVertex
100
AcDb2dVertex
 10
184.624542
 20
13.78798
 30
0.0
  0
VERTEX
  5
C5
330
C1
100
AcDbEntity
  8
001
370
     9
100
AcDbVertex
100
AcDb2dVertex
 10
183.124542
 20
13.386056
 30
0.0
  0
SEQEND
  5
C2
330
C1
100
AcDbEntity
  8
001
370
     9
  0
TEXT
  5
C6
330
B6
100
AcDbEntity
  8
001
370
    30
100
AcDbText
 10
106.624542
 20
14.78798
 30
0.0
 40
4.0
  1
１４４
 41
0.833333
100
AcDbText
  0
POINT
  5
C7
330
B6
100
AcDbEntity
  8
001
370
     9
100
AcDbPoint
 10
40.624542
 20
56.754738
 30
0.0
  0
POINT
  5
C8
330
B6
100
AcDbEntity
  8
001
370
     9
100
AcDbPoint
 10
184.624542
 20
58.954738
 30
0.0
  0
POINT
  5
C9
330
B6
100
AcDbEntity
  8
001
370
     9
100
AcDbPoint
 10
184.624542
 20
13.78798
 30
0.0
  0
ENDBLK
  5
B8
330
B6
100
AcDbEntity
  8
0
100
AcDbBlockEnd
  0
BLOCK
  5
CB
330
CA
100
AcDbEntity
  8
0
100
AcDbBlockBegin
  2
*D6
 70
     1
 10
0.0
 20
0.0
 30
0.0
  3
*D6
  1

  0
LINE
  5
CD
330
CA
100
AcDbEntity
  8
001
370
     9
100
AcDbLine
 10
176.624542
 20
50.954738
 30
0.0
 11
206.249942
 21
50.954738
 31
0.0
  0
LINE
  5
CE
330
CA
100
AcDbEntity
  8
001
370
     9
100
AcDbLine
 10
176.624542
 20
82.954738
 30
0.0
 11
206.249942
 21
82.954738
 31
0.0
  0
LINE
  5
CF
330
CA
100
AcDbEntity
  8
001
370
     9
100
AcDbLine
 10
203.499942
 20
50.954738
 30
0.0
 11
203.499942
 21
82.954738
 31
0.0
  0
POLYLINE
  5
D0
330
CA
100
AcDbEntity
  8
001
370
     9
100
AcDb2dPolyline
 66
     1
 10
0.0
 20
0.0
 30
0.0
  0
VERTEX
  5
D2
330
D0
100
AcDbEntity
  8
001
370
     9
100
AcDbVertex
100
AcDb2dVertex
 10
203.901866
 20
52.454738
 30
0.0
  0
VERTEX
  5
D3
330
D0
100
AcDbEntity
  8
001
370
     9
100
AcDbVertex
100
AcDb2dVertex
 10
203.499942
 20
50.954738
 30
0.0
  0
VERTEX
  5
D4
330
D0
100
AcDbEntity
  8
001
370
     9
100
AcDbVertex
100
AcDb2dVertex
 10
203.098018
 20
52.454738
 30
0.0
  0
SEQEND
  5
D1
330
D0
100
AcDbEntity
  8
001
370
     9
  0
POLYLINE
  5
D5
330
CA
100
AcDbEntity
  8
001
370
     9
100
AcDb2dPolyline
 66
     1
 10
0.0
 20
0.0
 30
0.0
  0
VERTEX
  5
D7
330
D5
100
AcDbEntity
  8
001
370
     9
100
AcDbVertex
100
AcDb2dVertex
 10
203.098018
 20
81.454738
 30
0.0
  0
VERTEX
  5
D8
330
D5
100
AcDbEntity
  8
001
370
     9
100
AcDbVertex
100
AcDb2dVertex
 10
203.499942
 20
82.954738
 30
0.0
  0
VERTEX
  5
D9
330
D5
100
AcDbEntity
  8
001
370
     9
100
AcDbVertex
100
AcDb2dVertex
 10
203.901866
 20
81.454738
 30
0.0
  0
SEQEND
  5
D6
330
D5
100
AcDbEntity
  8
001
370
     9
  0
TEXT
  5
DA
330
CA
100
AcDbEntity
  8
001
370
    30
100
AcDbText
 10
202.499942
 20
60.954738
 30
0.0
 40
4.0
  1
%%c３２
 50
90.000003
 41
0.882353
100
AcDbText
  0
POINT
  5
DB
330
CA
100
AcDbEntity
  8
001
370
     9
100
AcDbPoint
 10
176.624542
 20
50.954738
 30
0.0
  0
POINT
  5
DC
330
CA
100
AcDbEntity
  8
001
370
     9
100
AcDbPoint
 10
176.624542
 20
82.954738
 30
0.0
  0
POINT
  5
DD
330
CA
100
AcDbEntity
  8
001
370
     9
100
AcDbPoint
 10
203.499942
 20
82.954738
 30
0.0
  0
ENDBLK
  5
CC
330
CA
100
AcDbEntity
  8
0
100
AcDbBlockEnd
  0
ENDSEC
  0
SECTION
  2
ENTITIES
  0
DIMENSION
  5
DE
330
1F
100
AcDbEntity
  8
001
370
     9
100
AcDbDimension
  2
*D1
 10
40.624542
 20
38.161695
 30
0.0
 11
31.124542
 21
41.161695
 31
0.0
 70
   160
 71
     5
 42
-1.0
  3
Standard
100
AcDbAlignedDimension
 13
41.924543
 23
51.754738
 33
0.0
 14
40.624542
 24
56.754738
 34
0.0
 50
180.0
100
AcDbRotatedDimension
  0
TEXT
  5
DF
330
1F
100
AcDbEntity
  8
001
370
    30
100
AcDbText
 10
8.946436
 20
60.954738
 30
0.0
 40
4.0
  1
%%c３２
 50
90.000003
 41
0.882353
100
AcDbText
  0
POLYLINE
  5
E0
330
1F
100
AcDbEntity
  8
001
370
     9
100
AcDb2dPolyline
 66
     1
 10
0.0
 20
0.0
 30
0.0
  0
VERTEX
  5
E2
330
E0
100
AcDbEntity
  8
001
370
     9
100
AcDbVertex
100
AcDb2dVertex
 10
10.34836
 20
52.454738
 30
0.0
  0
VERTEX
  5
E3
330
E0
100
AcDbEntity
  8
001
370
     9
100
AcDbVertex
100
AcDb2dVertex
 10
9.946436
 20
50.954738
 30
0.0
  0
VERTEX
  5
E4
330
E0
100
AcDbEntity
  8
001
370
     9
100
AcDbVertex
100
AcDb2dVertex
 10
9.544512
 20
52.454738
 30
0.0
  0
SEQEND
  5
E1
330
E0
100
AcDbEntity
  8
001
370
     9
  0
LINE
  5
E5
330
1F
100
AcDbEntity
  8
001
370
     9
100
AcDbLine
 10
9.946436
 20
50.954738
 30
0.0
 11
9.946436
 21
82.954738
 31
0.0
  0
POLYLINE
  5
E6
330
1F
100
AcDbEntity
  8
001
370
     9
100
AcDb2dPolyline
 66
     1
 10
0.0
 20
0.0
 30
0.0
  0
VERTEX
  5
E8
330
E6
100
AcDbEntity
  8
001
370
     9
100
AcDbVertex
100
AcDb2dVertex
 10
42.70648
 20
50.954738
 30
0.0
  0
VERTEX
  5
E9
330
E6
100
AcDbEntity
  8
001
370
     9
100
AcDbVertex
100
AcDb2dVertex
 10
9.946436
 20
50.954738
 30
0.0
  0
VERTEX
  5
EA
330
E6
100
AcDbEntity
  8
001
370
     9
100
AcDbVertex
100
AcDb2dVertex
 10
7.196436
 20
50.954738
 30
0.0
  0
SEQEND
  5
E7
330
E6
100
AcDbEntity
  8
001
370
     9
  0
TEXT
  5
EB
330
1F
100
AcDbEntity
  8
001
370
    30
100
AcDbText
 10
21.885175
 20
56.954738
 30
0.0
 40
4.0
  1
%%c２０．４
 50
90.000003
 41
0.862069
100
AcDbText
  0
POLYLINE
  5
EC
330
1F
100
AcDbEntity
  8
001
370
     9
100
AcDb2dPolyline
 66
     1
 10
0.0
 20
0.0
 30
0.0
  0
VERTEX
  5
EE
330
EC
100
AcDbEntity
  8
001
370
     9
100
AcDbVertex
100
AcDb2dVertex
 10
22.483252
 20
55.254738
 30
0.0
  0
VERTEX
  5
EF
330
EC
100
AcDbEntity
  8
001
370
     9
100
AcDbVertex
100
AcDb2dVertex
 10
22.885175
 20
56.754738
 30
0.0
  0
VERTEX
  5
F0
330
EC
100
AcDbEntity
  8
001
370
     9
100
AcDbVertex
100
AcDb2dVertex
 10
23.287099
 20
55.254738
 30
0.0
  0
SEQEND
  5
ED
330
EC
100
AcDbEntity
  8
001
370
     9
  0
LINE
  5
F1
330
1F
100
AcDbEntity
  8
001
370
     9
100
AcDbLine
 10
22.885175
 20
54.254738
 30
0.0
 11
22.885175
 21
79.654738
 31
0.0
  0
POLYLINE
  5
F2
330
1F
100
AcDbEntity
  8
001
370
     9
100
AcDb2dPolyline
 66
     1
 10
0.0
 20
0.0
 30
0.0
  0
VERTEX
  5
F4
330
F2
100
AcDbEntity
  8
001
370
     9
100
AcDbVertex
100
AcDb2dVertex
 10
40.624542
 20
56.754738
 30
0.0
  0
VERTEX
  5
F5
330
F2
100
AcDbEntity
  8
001
370
     9
100
AcDbVertex
100
AcDb2dVertex
 10
22.885175
 20
56.754738
 30
0.0
  0
VERTEX
  5
F6
330
F2
100
AcDbEntity
  8
001
370
     9
100
AcDbVertex
100
AcDb2dVertex
 10
20.135175
 20
56.754738
 30
0.0
  0
SEQEND
  5
F3
330
F2
100
AcDbEntity
  8
001
370
     9
  0
DIMENSION
  5
F7
330
1F
100
AcDbEntity
  8
001
370
     9
100
AcDbDimension
  2
*D2
 10
30.424542
 20
66.954738
 30
0.0
 11
67.465339
 21
47.546963
 31
0.0
 70
    34
 71
     5
 42
-1.0
  3
Standard
100
AcDb2LineAngularDimension
 13
38.431519
 23
66.954738
 33
0.0
 14
30.424542
 24
66.954738
 34
0.0
 15
41.924543
 25
55.454738
 35
0.0
 16
71.830282
 26
49.803919
 36
0.0
  0
DIMENSION
  5
F8
330
1F
100
AcDbEntity
  8
001
370
     9
100
AcDbDimension
  2
*D3
 10
40.624542
 20
26.379833
 30
0.0
 11
72.624542
 21
29.379833
 31
0.0
 70
   160
 71
     5
 42
-1.0
  3
Standard
100
AcDbAlignedDimension
 13
104.624542
 23
52.004738
 33
0.0
 14
40.624542
 24
56.754738
 34
0.0
 50
180.0
100
AcDbRotatedDimension
  0
DIMENSION
  5
F9
330
1F
100
AcDbEntity
  8
001
370
     9
100
AcDbDimension
  2
*D4
 10
104.624542
 20
26.379833
 30
0.0
 11
144.624542
 21
29.379833
 31
0.0
 70
   160
 71
     5
 42
-1.0
  3
Standard
100
AcDbAlignedDimension
 13
184.624542
 23
58.954738
 33
0.0
 14
104.624542
 24
52.004738
 34
0.0
 50
180.0
100
AcDbRotatedDimension
  0
DIMENSION
  5
FA
330
1F
100
AcDbEntity
  8
001
370
     9
100
AcDbDimension
  2
*D5
 10
184.624542
 20
13.78798
 30
0.0
 11
112.624542
 21
16.78798
 31
0.0
 70
   160
 71
     5
 42
-1.0
  3
Standard
100
AcDbAlignedDimension
 13
40.624542
 23
56.754738
 33
0.0
 14
184.624542
 24
58.954738
 34
0.0
100
AcDbRotatedDimension
  0
DIMENSION
  5
FB
330
1F
100
AcDbEntity
  8
001
370
     9
100
AcDbDimension
  2
*D6
 10
203.499942
 20
82.954738
 30
0.0
 11
200.499941
 21
66.954738
 31
0.0
 70
   160
 71
     5
 42
-1.0
  3
Standard
100
AcDbAlignedDimension
 13
176.624542
 23
50.954738
 33
0.0
 14
176.624542
 24
82.954738
 34
0.0
 50
90.0
100
AcDbRotatedDimension
  0
TEXT
  5
FC
330
1F
100
AcDbEntity
  8
001
370
    30
100
AcDbText
 10
-0.079283
 20
102.207175
 30
0.0
 40
10.0
  1
バーディーカット　ＢＣ３２－３２ＸＳ－Ｍ２０
 41
0.833333
100
AcDbText
  0
POLYLINE
  5
FD
330
1F
100
AcDbEntity
  8
001
370
    50
100
AcDb2dPolyline
 66
     1
 10
0.0
 20
0.0
 30
0.0
  0
VERTEX
  5
FF
330
FD
100
AcDbEntity
  8
001
370
    50
100
AcDbVertex
100
AcDb2dVertex
 10
46.878072
 20
61.188547
 30
0.0
  0
VERTEX
  5
100
330
FD
100
AcDbEntity
  8
001
370
    50
100
AcDbVertex
100
AcDb2dVertex
 10
46.607325
 20
61.174262
 30
0.0
  0
VERTEX
  5
101
330
FD
100
AcDbEntity
  8
001
370
    50
100
AcDbVertex
100
AcDb2dVertex
 10
46.236784
 20
61.131576
 30
0.0
  0
VERTEX
  5
102
330
FD
100
AcDbEntity
  8
001
370
    50
100
AcDbVertex
100
AcDb2dVertex
 10
45.908415
 20
61.060735
 30
0.0
  0
VERTEX
  5
103
330
FD
100
AcDbEntity
  8
001
370
    50
100
AcDbVertex
100
AcDb2dVertex
 10
45.614981
 20
60.962394
 30
0.0
  0
VERTEX
  5
104
330
FD
100
AcDbEntity
  8
001
370
    50
100
AcDbVertex
100
AcDb2dVertex
 10
45.320872
 20
60.837102
 30
0.0
  0
VERTEX
  5
105
330
FD
100
AcDbEntity
  8
001
370
    50
100
AcDbVertex
100
AcDb2dVertex
 10
45.031557
 20
60.686142
 30
0.0
  0
VERTEX
  5
106
330
FD
100
AcDbEntity
  8
001
370
    50
100
AcDbVertex
100
AcDb2dVertex
 10
44.758685
 20
60.510312
 30
0.0
  0
VERTEX
  5
107
330
FD
100
AcDbEntity
  8
001
370
    50
100
AcDbVertex
100
AcDb2dVertex
 10
44.504238
 20
60.311214
 30
0.0
  0
VERTEX
  5
108
330
FD
100
AcDbEntity
  8
001
370
    50
100
AcDbVertex
100
AcDb2dVertex
 10
44.266827
 20
60.089772
 30
0.0
  0
VERTEX
  5
109
330
FD
100
AcDbEntity
  8
001
370
    50
100
AcDbVertex
100
AcDb2dVertex
 10
44.049047
 20
59.849
 30
0.0
  0
VERTEX
  5
10A
330
FD
100
AcDbEntity
  8
001
370
    50
100
AcDbVertex
100
AcDb2dVertex
 10
43.85274
 20
59.590278
 30
0.0
  0
VERTEX
  5
10B
330
FD
100
AcDbEntity
  8
001
370
    50
100
AcDbVertex
100
AcDb2dVertex
 10
43.679815
 20
59.313547
 30
0.0
  0
VERTEX
  5
10C
330
FD
100
AcDbEntity
  8
001
370
    50
100
AcDbVertex
100
AcDb2dVertex
 10
43.531009
 20
59.0195
 30
0.0
  0
VERTEX
  5
10D
330
FD
100
AcDbEntity
  8
001
370
    50
100
AcDbVertex
100
AcDb2dVertex
 10
43.407759
 20
58.721122
 30
0.0
  0
VERTEX
  5
10E
330
FD
100
AcDbEntity
  8
001
370
    50
100
AcDbVertex
100
AcDb2dVertex
 10
43.310855
 20
58.422903
 30
0.0
  0
VERTEX
  5
10F
330
FD
100
AcDbEntity
  8
001
370
    50
100
AcDbVertex
100
AcDb2dVertex
 10
43.241148
 20
58.089728
 30
0.0
  0
VERTEX
  5
110
330
FD
100
AcDbEntity
  8
001
370
    50
100
AcDbVertex
100
AcDb2dVertex
 10
43.199101
 20
57.713426
 30
0.0
  0
VERTEX
  5
111
330
FD
100
AcDbEntity
  8
001
370
    50
100
AcDbVertex
100
AcDb2dVertex
 10
43.185043
 20
57.438547
 30
0.0
  0
SEQEND
  5
FE
330
FD
100
AcDbEntity
  8
001
370
    50
  0
POLYLINE
  5
112
330
1F
100
AcDbEntity
  8
001
370
    50
100
AcDb2dPolyline
 66
     1
 10
0.0
 20
0.0
 30
0.0
  0
VERTEX
  5
114
330
112
100
AcDbEntity
  8
001
370
    50
100
AcDbVertex
100
AcDb2dVertex
 10
41.40648
 20
62.468492
 30
0.0
  0
VERTEX
  5
115
330
112
100
AcDbEntity
  8
001
370
    50
100
AcDbVertex
100
AcDb2dVertex
 10
41.342016
 20
62.464665
 30
0.0
  0
VERTEX
  5
116
330
112
100
AcDbEntity
  8
001
370
    50
100
AcDbVertex
100
AcDb2dVertex
 10
41.253931
 20
62.453235
 30
0.0
  0
VERTEX
  5
117
330
112
100
AcDbEntity
  8
001
370
    50
100
AcDbVertex
100
AcDb2dVertex
 10
41.176193
 20
62.434285
 30
0.0
  0
VERTEX
  5
118
330
112
100
AcDbEntity
  8
001
370
    50
100
AcDbVertex
100
AcDb2dVertex
 10
41.107245
 20
62.408052
 30
0.0
  0
VERTEX
  5
119
330
112
100
AcDbEntity
  8
001
370
    50
100
AcDbVertex
100
AcDb2dVertex
 10
41.038716
 20
62.374728
 30
0.0
  0
VERTEX
  5
11A
330
112
100
AcDbEntity
  8
001
370
    50
100
AcDbVertex
100
AcDb2dVertex
 10
40.972059
 20
62.334679
 30
0.0
  0
VERTEX
  5
11B
330
112
100
AcDbEntity
  8
001
370
    50
100
AcDbVertex
100
AcDb2dVertex
 10
40.910145
 20
62.28816
 30
0.0
  0
VERTEX
  5
11C
330
112
100
AcDbEntity
  8
001
370
    50
100
AcDbVertex
100
AcDb2dVertex
 10
40.853566
 20
62.235935
 30
0.0
  0
VERTEX
  5
11D
330
112
100
AcDbEntity
  8
001
370
    50
100
AcDbVertex
100
AcDb2dVertex
 10
40.802064
 20
62.17839
 30
0.0
  0
VERTEX
  5
11E
330
112
100
AcDbEntity
  8
001
370
    50
100
AcDbVertex
100
AcDb2dVertex
 10
40.756323
 20
62.115615
 30
0.0
  0
VERTEX
  5
11F
330
112
100
AcDbEntity
  8
001
370
    50
100
AcDbVertex
100
AcDb2dVertex
 10
40.716836
 20
62.047854
 30
0.0
  0
VERTEX
  5
120
330
112
100
AcDbEntity
  8
001
370
    50
100
AcDbVertex
100
AcDb2dVertex
 10
40.684064
 20
61.978343
 30
0.0
  0
VERTEX
  5
121
330
112
100
AcDbEntity
  8
001
370
    50
100
AcDbVertex
100
AcDb2dVertex
 10
40.65821
 20
61.908255
 30
0.0
  0
VERTEX
  5
122
330
112
100
AcDbEntity
  8
001
370
    50
100
AcDbVertex
100
AcDb2dVertex
 10
40.639567
 20
61.829394
 30
0.0
  0
VERTEX
  5
123
330
112
100
AcDbEntity
  8
001
370
    50
100
AcDbVertex
100
AcDb2dVertex
 10
40.628308
 20
61.739936
 30
0.0
  0
VERTEX
  5
124
330
112
100
AcDbEntity
  8
001
370
    50
100
AcDbVertex
100
AcDb2dVertex
 10
40.624542
 20
61.674492
 30
0.0
  0
SEQEND
  5
113
330
112
100
AcDbEntity
  8
001
370
    50
  0
LINE
  5
125
330
1F
100
AcDbEntity
  8
001
370
    50
100
AcDbLine
 10
45.059552
 20
62.468492
 30
0.0
 11
41.40648
 21
62.468492
 31
0.0
  0
LINE
  5
126
330
1F
100
AcDbEntity
  8
001
370
    50
100
AcDbLine
 10
46.399644
 20
63.788547
 30
0.0
 11
45.059552
 21
62.468492
 31
0.0
  0
LINE
  5
127
330
1F
100
AcDbEntity
  8
001
370
    50
100
AcDbLine
 10
51.049663
 20
63.788547
 30
0.0
 11
46.399644
 21
63.788547
 31
0.0
  0
POLYLINE
  5
128
330
1F
100
AcDbEntity
  8
001
370
    50
100
AcDb2dPolyline
 66
     1
 10
0.0
 20
0.0
 30
0.0
  0
VERTEX
  5
12A
330
128
100
AcDbEntity
  8
001
370
    50
100
AcDbVertex
100
AcDb2dVertex
 10
51.8316
 20
62.994547
 30
0.0
  0
VERTEX
  5
12B
330
128
100
AcDbEntity
  8
001
370
    50
100
AcDbVertex
100
AcDb2dVertex
 10
51.828624
 20
63.052748
 30
0.0
  0
VERTEX
  5
12C
330
128
100
AcDbEntity
  8
001
370
    50
100
AcDbVertex
100
AcDb2dVertex
 10
51.819721
 20
63.132424
 30
0.0
  0
VERTEX
  5
12D
330
128
100
AcDbEntity
  8
001
370
    50
100
AcDbVertex
100
AcDb2dVertex
 10
51.804962
 20
63.202968
 30
0.0
  0
VERTEX
  5
12E
330
128
100
AcDbEntity
  8
001
370
    50
100
AcDbVertex
100
AcDb2dVertex
 10
51.784444
 20
63.266111
 30
0.0
  0
VERTEX
  5
12F
330
128
100
AcDbEntity
  8
001
370
    50
100
AcDbVertex
100
AcDb2dVertex
 10
51.758348
 20
63.329287
 30
0.0
  0
VERTEX
  5
130
330
128
100
AcDbEntity
  8
001
370
    50
100
AcDbVertex
100
AcDb2dVertex
 10
51.726841
 20
63.391547
 30
0.0
  0
VERTEX
  5
131
330
128
100
AcDbEntity
  8
001
370
    50
100
AcDbVertex
100
AcDb2dVertex
 10
51.690227
 20
63.45014
 30
0.0
  0
VERTEX
  5
132
330
128
100
AcDbEntity
  8
001
370
    50
100
AcDbVertex
100
AcDb2dVertex
 10
51.648662
 20
63.50492
 30
0.0
  0
VERTEX
  5
133
330
128
100
AcDbEntity
  8
001
370
    50
100
AcDbVertex
100
AcDb2dVertex
 10
51.602551
 20
63.5559
 30
0.0
  0
VERTEX
  5
134
330
128
100
AcDbEntity
  8
001
370
    50
100
AcDbVertex
100
AcDb2dVertex
 10
51.552283
 20
63.602786
 30
0.0
  0
VERTEX
  5
135
330
128
100
AcDbEntity
  8
001
370
    50
100
AcDbVertex
100
AcDb2dVertex
 10
51.498408
 20
63.644942
 30
0.0
  0
VERTEX
  5
136
330
128
100
AcDbEntity
  8
001
370
    50
100
AcDbVertex
100
AcDb2dVertex
 10
51.440632
 20
63.682171
 30
0.0
  0
VERTEX
  5
137
330
128
100
AcDbEntity
  8
001
370
    50
100
AcDbVertex
100
AcDb2dVertex
 10
51.379374
 20
63.714134
 30
0.0
  0
VERTEX
  5
138
330
128
100
AcDbEntity
  8
001
370
    50
100
AcDbVertex
100
AcDb2dVertex
 10
51.317101
 20
63.740663
 30
0.0
  0
VERTEX
  5
139
330
128
100
AcDbEntity
  8
001
370
    50
100
AcDbVertex
100
AcDb2dVertex
 10
51.254972
 20
63.761485
 30
0.0
  0
VERTEX
  5
13A
330
128
100
AcDbEntity
  8
001
370
    50
100
AcDbVertex
100
AcDb2dVertex
 10
51.185445
 20
63.776484
 30
0.0
  0
VERTEX
  5
13B
330
128
100
AcDbEntity
  8
001
370
    50
100
AcDbVertex
100
AcDb2dVertex
 10
51.106989
 20
63.785522
 30
0.0
  0
VERTEX
  5
13C
330
128
100
AcDbEntity
  8
001
370
    50
100
AcDbVertex
100
AcDb2dVertex
 10
51.049663
 20
63.788547
 30
0.0
  0
SEQEND
  5
129
330
128
100
AcDbEntity
  8
001
370
    50
  0
LINE
  5
13D
330
1F
100
AcDbEntity
  8
001
370
    50
100
AcDbLine
 10
51.8316
 20
59.28512
 30
0.0
 11
51.8316
 21
62.994547
 31
0.0
  0
LINE
  5
13E
330
1F
100
AcDbEntity
  8
001
370
    50
100
AcDbLine
 10
53.131601
 20
57.924355
 30
0.0
 11
51.8316
 21
59.28512
 31
0.0
  0
LINE
  5
13F
330
1F
100
AcDbEntity
  8
001
370
    50
100
AcDbLine
 10
53.131601
 20
53.202602
 30
0.0
 11
53.131601
 21
57.924355
 31
0.0
  0
POLYLINE
  5
140
330
1F
100
AcDbEntity
  8
001
370
    50
100
AcDb2dPolyline
 66
     1
 10
0.0
 20
0.0
 30
0.0
  0
VERTEX
  5
142
330
140
100
AcDbEntity
  8
001
370
    50
100
AcDbVertex
100
AcDb2dVertex
 10
52.349663
 20
52.408602
 30
0.0
  0
VERTEX
  5
143
330
140
100
AcDbEntity
  8
001
370
    50
100
AcDbVertex
100
AcDb2dVertex
 10
52.40699
 20
52.411626
 30
0.0
  0
VERTEX
  5
144
330
140
100
AcDbEntity
  8
001
370
    50
100
AcDbVertex
100
AcDb2dVertex
 10
52.485445
 20
52.420665
 30
0.0
  0
VERTEX
  5
145
330
140
100
AcDbEntity
  8
001
370
    50
100
AcDbVertex
100
AcDb2dVertex
 10
52.554972
 20
52.435664
 30
0.0
  0
VERTEX
  5
146
330
140
100
AcDbEntity
  8
001
370
    50
100
AcDbVertex
100
AcDb2dVertex
 10
52.617102
 20
52.456486
 30
0.0
  0
VERTEX
  5
147
330
140
100
AcDbEntity
  8
001
370
    50
100
AcDbVertex
100
AcDb2dVertex
 10
52.679374
 20
52.483014
 30
0.0
  0
VERTEX
  5
148
330
140
100
AcDbEntity
  8
001
370
    50
100
AcDbVertex
100
AcDb2dVertex
 10
52.740632
 20
52.514978
 30
0.0
  0
VERTEX
  5
149
330
140
100
AcDbEntity
  8
001
370
    50
100
AcDbVertex
100
AcDb2dVertex
 10
52.798408
 20
52.552207
 30
0.0
  0
VERTEX
  5
14A
330
140
100
AcDbEntity
  8
001
370
    50
100
AcDbVertex
100
AcDb2dVertex
 10
52.852283
 20
52.594363
 30
0.0
  0
VERTEX
  5
14B
330
140
100
AcDbEntity
  8
001
370
    50
100
AcDbVertex
100
AcDb2dVertex
 10
52.902551
 20
52.641249
 30
0.0
  0
VERTEX
  5
14C
330
140
100
AcDbEntity
  8
001
370
    50
100
AcDbVertex
100
AcDb2dVertex
 10
52.948662
 20
52.692229
 30
0.0
  0
VERTEX
  5
14D
330
140
100
AcDbEntity
  8
001
370
    50
100
AcDbVertex
100
AcDb2dVertex
 10
52.990227
 20
52.747009
 30
0.0
  0
VERTEX
  5
14E
330
140
100
AcDbEntity
  8
001
370
    50
100
AcDbVertex
100
AcDb2dVertex
 10
53.026841
 20
52.805602
 30
0.0
  0
VERTEX
  5
14F
330
140
100
AcDbEntity
  8
001
370
    50
100
AcDbVertex
100
AcDb2dVertex
 10
53.058348
 20
52.867861
 30
0.0
  0
VERTEX
  5
150
330
140
100
AcDbEntity
  8
001
370
    50
100
AcDbVertex
100
AcDb2dVertex
 10
53.084444
 20
52.931038
 30
0.0
  0
VERTEX
  5
151
330
140
100
AcDbEntity
  8
001
370
    50
100
AcDbVertex
100
AcDb2dVertex
 10
53.104962
 20
52.994181
 30
0.0
  0
VERTEX
  5
152
330
140
100
AcDbEntity
  8
001
370
    50
100
AcDbVertex
100
AcDb2dVertex
 10
53.119721
 20
53.064725
 30
0.0
  0
VERTEX
  5
153
330
140
100
AcDbEntity
  8
001
370
    50
100
AcDbVertex
100
AcDb2dVertex
 10
53.128624
 20
53.144401
 30
0.0
  0
VERTEX
  5
154
330
140
100
AcDbEntity
  8
001
370
    50
100
AcDbVertex
100
AcDb2dVertex
 10
53.131601
 20
53.202602
 30
0.0
  0
SEQEND
  5
141
330
140
100
AcDbEntity
  8
001
370
    50
  0
LINE
  5
155
330
1F
100
AcDbEntity
  8
001
370
    50
100
AcDbLine
 10
48.696591
 20
52.408602
 30
0.0
 11
52.349663
 21
52.408602
 31
0.0
  0
LINE
  5
156
330
1F
100
AcDbEntity
  8
001
370
    50
100
AcDbLine
 10
47.22066
 20
50.954738
 30
0.0
 11
48.696591
 21
52.408602
 31
0.0
  0
LINE
  5
157
330
1F
100
AcDbEntity
  8
001
370
    50
100
AcDbLine
 10
42.724543
 20
50.954738
 30
0.0
 11
47.22066
 21
50.954738
 31
0.0
  0
LINE
  5
158
330
1F
100
AcDbEntity
  8
001
370
    50
100
AcDbLine
 10
41.924543
 20
51.754738
 30
0.0
 11
41.924543
 21
55.454738
 31
0.0
  0
POLYLINE
  5
159
330
1F
100
AcDbEntity
  8
001
370
    50
100
AcDb2dPolyline
 66
     1
 10
0.0
 20
0.0
 30
0.0
  0
VERTEX
  5
15B
330
159
100
AcDbEntity
  8
001
370
    50
100
AcDbVertex
100
AcDb2dVertex
 10
43.185043
 20
57.438547
 30
0.0
  0
VERTEX
  5
15C
330
159
100
AcDbEntity
  8
001
370
    50
100
AcDbVertex
100
AcDb2dVertex
 10
43.202829
 20
57.129458
 30
0.0
  0
VERTEX
  5
15D
330
159
100
AcDbEntity
  8
001
370
    50
100
AcDbVertex
100
AcDb2dVertex
 10
43.256003
 20
56.706958
 30
0.0
  0
VERTEX
  5
15E
330
159
100
AcDbEntity
  8
001
370
    50
100
AcDbVertex
100
AcDb2dVertex
 10
43.344054
 20
56.334502
 30
0.0
  0
VERTEX
  5
15F
330
159
100
AcDbEntity
  8
001
370
    50
100
AcDbVertex
100
AcDb2dVertex
 10
43.466158
 20
56.003484
 30
0.0
  0
VERTEX
  5
160
330
159
100
AcDbEntity
  8
001
370
    50
100
AcDbVertex
100
AcDb2dVertex
 10
43.620936
 20
55.675189
 30
0.0
  0
VERTEX
  5
161
330
159
100
AcDbEntity
  8
001
370
    50
100
AcDbVertex
100
AcDb2dVertex
 10
43.80743
 20
55.355159
 30
0.0
  0
VERTEX
  5
162
330
159
100
AcDbEntity
  8
001
370
    50
100
AcDbVertex
100
AcDb2dVertex
 10
44.023465
 20
55.058675
 30
0.0
  0
VERTEX
  5
163
330
159
100
AcDbEntity
  8
001
370
    50
100
AcDbVertex
100
AcDb2dVertex
 10
44.266706
 20
54.786896
 30
0.0
  0
VERTEX
  5
164
330
159
100
AcDbEntity
  8
001
370
    50
100
AcDbVertex
100
AcDb2dVertex
 10
44.533924
 20
54.540238
 30
0.0
  0
VERTEX
  5
165
330
159
100
AcDbEntity
  8
001
370
    50
100
AcDbVertex
100
AcDb2dVertex
 10
44.826335
 20
54.320536
 30
0.0
  0
VERTEX
  5
166
330
159
100
AcDbEntity
  8
001
370
    50
100
AcDbVertex
100
AcDb2dVertex
 10
45.141152
 20
54.131386
 30
0.0
  0
VERTEX
  5
167
330
159
100
AcDbEntity
  8
001
370
    50
100
AcDbVertex
100
AcDb2dVertex
 10
45.464811
 20
53.973999
 30
0.0
  0
VERTEX
  5
168
330
159
100
AcDbEntity
  8
001
370
    50
100
AcDbVertex
100
AcDb2dVertex
 10
45.790444
 20
53.850102
 30
0.0
  0
VERTEX
  5
169
330
159
100
AcDbEntity
  8
001
370
    50
100
AcDbVertex
100
AcDb2dVertex
 10
46.157597
 20
53.760602
 30
0.0
  0
VERTEX
  5
16A
330
159
100
AcDbEntity
  8
001
370
    50
100
AcDbVertex
100
AcDb2dVertex
 10
46.573616
 20
53.706622
 30
0.0
  0
VERTEX
  5
16B
330
159
100
AcDbEntity
  8
001
370
    50
100
AcDbVertex
100
AcDb2dVertex
 10
46.878072
 20
53.688547
 30
0.0
  0
SEQEND
  5
15A
330
159
100
AcDbEntity
  8
001
370
    50
  0
POLYLINE
  5
16C
330
1F
100
AcDbEntity
  8
001
370
    50
100
AcDb2dPolyline
 66
     1
 10
0.0
 20
0.0
 30
0.0
  0
VERTEX
  5
16E
330
16C
100
AcDbEntity
  8
001
370
    50
100
AcDbVertex
100
AcDb2dVertex
 10
46.878072
 20
53.688547
 30
0.0
  0
VERTEX
  5
16F
330
16C
100
AcDbEntity
  8
001
370
    50
100
AcDbVertex
100
AcDb2dVertex
 10
47.148819
 20
53.70283
 30
0.0
  0
VERTEX
  5
170
330
16C
100
AcDbEntity
  8
001
370
    50
100
AcDbVertex
100
AcDb2dVertex
 10
47.519359
 20
53.745518
 30
0.0
  0
VERTEX
  5
171
330
16C
100
AcDbEntity
  8
001
370
    50
100
AcDbVertex
100
AcDb2dVertex
 10
47.847729
 20
53.816363
 30
0.0
  0
VERTEX
  5
172
330
16C
100
AcDbEntity
  8
001
370
    50
100
AcDbVertex
100
AcDb2dVertex
 10
48.141162
 20
53.9147
 30
0.0
  0
VERTEX
  5
173
330
16C
100
AcDbEntity
  8
001
370
    50
100
AcDbVertex
100
AcDb2dVertex
 10
48.435271
 20
54.039973
 30
0.0
  0
VERTEX
  5
174
330
16C
100
AcDbEntity
  8
001
370
    50
100
AcDbVertex
100
AcDb2dVertex
 10
48.724586
 20
54.190952
 30
0.0
  0
VERTEX
  5
175
330
16C
100
AcDbEntity
  8
001
370
    50
100
AcDbVertex
100
AcDb2dVertex
 10
48.997458
 20
54.366852
 30
0.0
  0
VERTEX
  5
176
330
16C
100
AcDbEntity
  8
001
370
    50
100
AcDbVertex
100
AcDb2dVertex
 10
49.251905
 20
54.56588
 30
0.0
  0
VERTEX
  5
177
330
16C
100
AcDbEntity
  8
001
370
    50
100
AcDbVertex
100
AcDb2dVertex
 10
49.489316
 20
54.787057
 30
0.0
  0
VERTEX
  5
178
330
16C
100
AcDbEntity
  8
001
370
    50
100
AcDbVertex
100
AcDb2dVertex
 10
49.707096
 20
55.028093
 30
0.0
  0
VERTEX
  5
179
330
16C
100
AcDbEntity
  8
001
370
    50
100
AcDbVertex
100
AcDb2dVertex
 10
49.903404
 20
55.287807
 30
0.0
  0
VERTEX
  5
17A
330
16C
100
AcDbEntity
  8
001
370
    50
100
AcDbVertex
100
AcDb2dVertex
 10
50.076329
 20
55.563547
 30
0.0
  0
VERTEX
  5
17B
330
16C
100
AcDbEntity
  8
001
370
    50
100
AcDbVertex
100
AcDb2dVertex
 10
50.225135
 20
55.853882
 30
0.0
  0
VERTEX
  5
17C
330
16C
100
AcDbEntity
  8
001
370
    50
100
AcDbVertex
100
AcDb2dVertex
 10
50.348384
 20
56.155971
 30
0.0
  0
VERTEX
  5
17D
330
16C
100
AcDbEntity
  8
001
370
    50
100
AcDbVertex
100
AcDb2dVertex
 10
50.445289
 20
56.468081
 30
0.0
  0
VERTEX
  5
17E
330
16C
100
AcDbEntity
  8
001
370
    50
100
AcDbVertex
100
AcDb2dVertex
 10
50.514995
 20
56.787366
 30
0.0
  0
VERTEX
  5
17F
330
16C
100
AcDbEntity
  8
001
370
    50
100
AcDbVertex
100
AcDb2dVertex
 10
50.557042
 20
57.111751
 30
0.0
  0
VERTEX
  5
180
330
16C
100
AcDbEntity
  8
001
370
    50
100
AcDbVertex
100
AcDb2dVertex
 10
50.571101
 20
57.438547
 30
0.0
  0
VERTEX
  5
181
330
16C
100
AcDbEntity
  8
001
370
    50
100
AcDbVertex
100
AcDb2dVertex
 10
50.557042
 20
57.765343
 30
0.0
  0
VERTEX
  5
182
330
16C
100
AcDbEntity
  8
001
370
    50
100
AcDbVertex
100
AcDb2dVertex
 10
50.514995
 20
58.089728
 30
0.0
  0
VERTEX
  5
183
330
16C
100
AcDbEntity
  8
001
370
    50
100
AcDbVertex
100
AcDb2dVertex
 10
50.445289
 20
58.409012
 30
0.0
  0
VERTEX
  5
184
330
16C
100
AcDbEntity
  8
001
370
    50
100
AcDbVertex
100
AcDb2dVertex
 10
50.348384
 20
58.721122
 30
0.0
  0
VERTEX
  5
185
330
16C
100
AcDbEntity
  8
001
370
    50
100
AcDbVertex
100
AcDb2dVertex
 10
50.225135
 20
59.023212
 30
0.0
  0
VERTEX
  5
186
330
16C
100
AcDbEntity
  8
001
370
    50
100
AcDbVertex
100
AcDb2dVertex
 10
50.076329
 20
59.313547
 30
0.0
  0
VERTEX
  5
187
330
16C
100
AcDbEntity
  8
001
370
    50
100
AcDbVertex
100
AcDb2dVertex
 10
49.903404
 20
59.589287
 30
0.0
  0
VERTEX
  5
188
330
16C
100
AcDbEntity
  8
001
370
    50
100
AcDbVertex
100
AcDb2dVertex
 10
49.707096
 20
59.849
 30
0.0
  0
VERTEX
  5
189
330
16C
100
AcDbEntity
  8
001
370
    50
100
AcDbVertex
100
AcDb2dVertex
 10
49.489316
 20
60.090037
 30
0.0
  0
VERTEX
  5
18A
330
16C
100
AcDbEntity
  8
001
370
    50
100
AcDbVertex
100
AcDb2dVertex
 10
49.251905
 20
60.311214
 30
0.0
  0
VERTEX
  5
18B
330
16C
100
AcDbEntity
  8
001
370
    50
100
AcDbVertex
100
AcDb2dVertex
 10
48.997458
 20
60.510241
 30
0.0
  0
VERTEX
  5
18C
330
16C
100
AcDbEntity
  8
001
370
    50
100
AcDbVertex
100
AcDb2dVertex
 10
48.724586
 20
60.686142
 30
0.0
  0
VERTEX
  5
18D
330
16C
100
AcDbEntity
  8
001
370
    50
100
AcDbVertex
100
AcDb2dVertex
 10
48.435271
 20
60.837121
 30
0.0
  0
VERTEX
  5
18E
330
16C
100
AcDbEntity
  8
001
370
    50
100
AcDbVertex
100
AcDb2dVertex
 10
48.141162
 20
60.962394
 30
0.0
  0
VERTEX
  5
18F
330
16C
100
AcDbEntity
  8
001
370
    50
100
AcDbVertex
100
AcDb2dVertex
 10
47.847729
 20
61.06073
 30
0.0
  0
VERTEX
  5
190
330
16C
100
AcDbEntity
  8
001
370
    50
100
AcDbVertex
100
AcDb2dVertex
 10
47.519359
 20
61.131576
 30
0.0
  0
VERTEX
  5
191
330
16C
100
AcDbEntity
  8
001
370
    50
100
AcDbVertex
100
AcDb2dVertex
 10
47.148819
 20
61.174263
 30
0.0
  0
VERTEX
  5
192
330
16C
100
AcDbEntity
  8
001
370
    50
100
AcDbVertex
100
AcDb2dVertex
 10
46.878072
 20
61.188547
 30
0.0
  0
SEQEND
  5
16D
330
16C
100
AcDbEntity
  8
001
370
    50
  0
LINE
  5
193
330
1F
100
AcDbEntity
  8
001
370
    50
100
AcDbLine
 10
105.674542
 20
82.954738
 30
0.0
 11
105.674542
 21
50.954738
 31
0.0
  0
LINE
  5
194
330
1F
100
AcDbEntity
  8
001
370
    50
100
AcDbLine
 10
104.624542
 20
81.904738
 30
0.0
 11
104.624542
 21
52.004738
 31
0.0
  0
LINE
  5
195
330
1F
100
AcDbEntity
  8
001
370
    50
100
AcDbLine
 10
105.674542
 20
82.954738
 30
0.0
 11
104.624542
 21
81.904738
 31
0.0
  0
LINE
  5
196
330
1F
100
AcDbEntity
  8
001
370
    50
100
AcDbLine
 10
104.624542
 20
52.004738
 30
0.0
 11
105.674542
 21
50.954738
 31
0.0
  0
LINE
  5
197
330
1F
100
AcDbEntity
  8
001
370
    50
100
AcDbLine
 10
176.624542
 20
82.954738
 30
0.0
 11
105.674542
 21
82.954738
 31
0.0
  0
LINE
  5
198
330
1F
100
AcDbEntity
  8
001
370
    50
100
AcDbLine
 10
105.674542
 20
50.954738
 30
0.0
 11
176.624542
 21
50.954738
 31
0.0
  0
ARC
  5
199
330
1F
100
AcDbEntity
  8
001
370
    50
100
AcDbCircle
 10
176.624542
 20
74.954738
 30
0.0
 40
7.99999999999998
100
AcDbArc
 50
0.0
 51
90.0
  0
ARC
  5
19A
330
1F
100
AcDbEntity
  8
001
370
    50
100
AcDbCircle
 10
176.624542
 20
58.954738
 30
0.0
 40
7.99999999999998
100
AcDbArc
 50
270.0
 51
0.0
  0
LINE
  5
19B
330
1F
100
AcDbEntity
  8
001
370
    50
100
AcDbLine
 10
184.624542
 20
74.954738
 30
0.0
 11
184.624542
 21
58.954738
 31
0.0
  0
LINE
  5
19C
330
1F
100
AcDbEntity
  8
001
370
    50
100
AcDbLine
 10
76.020361
 20
67.170085
 30
0.0
 11
76.929361
 21
66.909165
 31
0.0
  0
LINE
  5
19D
330
1F
100
AcDbEntity
  8
001
370
    50
100
AcDbLine
 10
77.838361
 20
66.64826
 30
0.0
 11
78.747361
 21
66.387448
 31
0.0
  0
POLYLINE
  5
19E
330
1F
100
AcDbEntity
  8
001
370
    50
100
AcDb2dPolyline
 66
     1
 10
0.0
 20
0.0
 30
0.0
  0
VERTEX
  5
1A0
330
19E
100
AcDbEntity
  8
001
370
    50
100
AcDbVertex
100
AcDb2dVertex
 10
101.301933
 20
52.008413
 30
0.0
  0
VERTEX
  5
1A1
330
19E
100
AcDbEntity
  8
001
370
    50
100
AcDbVertex
100
AcDb2dVertex
 10
101.283101
 20
52.022884
 30
0.0
  0
VERTEX
  5
1A2
330
19E
100
AcDbEntity
  8
001
370
    50
100
AcDbVertex
100
AcDb2dVertex
 10
101.264471
 20
52.0376
 30
0.0
  0
VERTEX
  5
1A3
330
19E
100
AcDbEntity
  8
001
370
    50
100
AcDbVertex
100
AcDb2dVertex
 10
101.21938
 20
52.076081
 30
0.0
  0
VERTEX
  5
1A4
330
19E
100
AcDbEntity
  8
001
370
    50
100
AcDbVertex
100
AcDb2dVertex
 10
101.1753
 20
52.115784
 30
0.0
  0
VERTEX
  5
1A5
330
19E
100
AcDbEntity
  8
001
370
    50
100
AcDbVertex
100
AcDb2dVertex
 10
101.105838
 20
52.177202
 30
0.0
  0
VERTEX
  5
1A6
330
19E
100
AcDbEntity
  8
001
370
    50
100
AcDbVertex
100
AcDb2dVertex
 10
101.035593
 20
52.237689
 30
0.0
  0
VERTEX
  5
1A7
330
19E
100
AcDbEntity
  8
001
370
    50
100
AcDbVertex
100
AcDb2dVertex
 10
100.938623
 20
52.319832
 30
0.0
  0
VERTEX
  5
1A8
330
19E
100
AcDbEntity
  8
001
370
    50
100
AcDbVertex
100
AcDb2dVertex
 10
100.840799
 20
52.400966
 30
0.0
  0
VERTEX
  5
1A9
330
19E
100
AcDbEntity
  8
001
370
    50
100
AcDbVertex
100
AcDb2dVertex
 10
100.71293
 20
52.503885
 30
0.0
  0
VERTEX
  5
1AA
330
19E
100
AcDbEntity
  8
001
370
    50
100
AcDbVertex
100
AcDb2dVertex
 10
100.583461
 20
52.60479
 30
0.0
  0
VERTEX
  5
1AB
330
19E
100
AcDbEntity
  8
001
370
    50
100
AcDbVertex
100
AcDb2dVertex
 10
100.423993
 20
52.725149
 30
0.0
  0
VERTEX
  5
1AC
330
19E
100
AcDbEntity
  8
001
370
    50
100
AcDbVertex
100
AcDb2dVertex
 10
100.262614
 20
52.842935
 30
0.0
  0
VERTEX
  5
1AD
330
19E
100
AcDbEntity
  8
001
370
    50
100
AcDbVertex
100
AcDb2dVertex
 10
100.072528
 20
52.976912
 30
0.0
  0
VERTEX
  5
1AE
330
19E
100
AcDbEntity
  8
001
370
    50
100
AcDbVertex
100
AcDb2dVertex
 10
99.880176
 20
53.107618
 30
0.0
  0
VERTEX
  5
1AF
330
19E
100
AcDbEntity
  8
001
370
    50
100
AcDbVertex
100
AcDb2dVertex
 10
99.660421
 20
53.251363
 30
0.0
  0
VERTEX
  5
1B0
330
19E
100
AcDbEntity
  8
001
370
    50
100
AcDbVertex
100
AcDb2dVertex
 10
99.43807
 20
53.391059
 30
0.0
  0
VERTEX
  5
1B1
330
19E
100
AcDbEntity
  8
001
370
    50
100
AcDbVertex
100
AcDb2dVertex
 10
99.214693
 20
53.525896
 30
0.0
  0
VERTEX
  5
1B2
330
19E
100
AcDbEntity
  8
001
370
    50
100
AcDbVertex
100
AcDb2dVertex
 10
98.989059
 20
53.656925
 30
0.0
  0
VERTEX
  5
1B3
330
19E
100
AcDbEntity
  8
001
370
    50
100
AcDbVertex
100
AcDb2dVertex
 10
98.742712
 20
53.794529
 30
0.0
  0
VERTEX
  5
1B4
330
19E
100
AcDbEntity
  8
001
370
    50
100
AcDbVertex
100
AcDb2dVertex
 10
98.494092
 20
53.927985
 30
0.0
  0
VERTEX
  5
1B5
330
19E
100
AcDbEntity
  8
001
370
    50
100
AcDbVertex
100
AcDb2dVertex
 10
98.227384
 20
54.065428
 30
0.0
  0
VERTEX
  5
1B6
330
19E
100
AcDbEntity
  8
001
370
    50
100
AcDbVertex
100
AcDb2dVertex
 10
97.958361
 20
54.198285
 30
0.0
  0
VERTEX
  5
1B7
330
19E
100
AcDbEntity
  8
001
370
    50
100
AcDbVertex
100
AcDb2dVertex
 10
97.673894
 20
54.332645
 30
0.0
  0
VERTEX
  5
1B8
330
19E
100
AcDbEntity
  8
001
370
    50
100
AcDbVertex
100
AcDb2dVertex
 10
97.387059
 20
54.461872
 30
0.0
  0
VERTEX
  5
1B9
330
19E
100
AcDbEntity
  8
001
370
    50
100
AcDbVertex
100
AcDb2dVertex
 10
97.065936
 20
54.599272
 30
0.0
  0
VERTEX
  5
1BA
330
19E
100
AcDbEntity
  8
001
370
    50
100
AcDbVertex
100
AcDb2dVertex
 10
96.742195
 20
54.730393
 30
0.0
  0
VERTEX
  5
1BB
330
19E
100
AcDbEntity
  8
001
370
    50
100
AcDbVertex
100
AcDb2dVertex
 10
96.403515
 20
54.860032
 30
0.0
  0
VERTEX
  5
1BC
330
19E
100
AcDbEntity
  8
001
370
    50
100
AcDbVertex
100
AcDb2dVertex
 10
96.062396
 20
54.983108
 30
0.0
  0
VERTEX
  5
1BD
330
19E
100
AcDbEntity
  8
001
370
    50
100
AcDbVertex
100
AcDb2dVertex
 10
95.709223
 20
55.102847
 30
0.0
  0
VERTEX
  5
1BE
330
19E
100
AcDbEntity
  8
001
370
    50
100
AcDbVertex
100
AcDb2dVertex
 10
95.353763
 20
55.215614
 30
0.0
  0
VERTEX
  5
1BF
330
19E
100
AcDbEntity
  8
001
370
    50
100
AcDbVertex
100
AcDb2dVertex
 10
94.989147
 20
55.323313
 30
0.0
  0
VERTEX
  5
1C0
330
19E
100
AcDbEntity
  8
001
370
    50
100
AcDbVertex
100
AcDb2dVertex
 10
94.622396
 20
55.423506
 30
0.0
  0
VERTEX
  5
1C1
330
19E
100
AcDbEntity
  8
001
370
    50
100
AcDbVertex
100
AcDb2dVertex
 10
94.186651
 20
55.531994
 30
0.0
  0
VERTEX
  5
1C2
330
19E
100
AcDbEntity
  8
001
370
    50
100
AcDbVertex
100
AcDb2dVertex
 10
93.748397
 20
55.629896
 30
0.0
  0
VERTEX
  5
1C3
330
19E
100
AcDbEntity
  8
001
370
    50
100
AcDbVertex
100
AcDb2dVertex
 10
93.300147
 20
55.718792
 30
0.0
  0
VERTEX
  5
1C4
330
19E
100
AcDbEntity
  8
001
370
    50
100
AcDbVertex
100
AcDb2dVertex
 10
92.849892
 20
55.796899
 30
0.0
  0
VERTEX
  5
1C5
330
19E
100
AcDbEntity
  8
001
370
    50
100
AcDbVertex
100
AcDb2dVertex
 10
92.393114
 20
55.864863
 30
0.0
  0
VERTEX
  5
1C6
330
19E
100
AcDbEntity
  8
001
370
    50
100
AcDbVertex
100
AcDb2dVertex
 10
91.934816
 20
55.921707
 30
0.0
  0
VERTEX
  5
1C7
330
19E
100
AcDbEntity
  8
001
370
    50
100
AcDbVertex
100
AcDb2dVertex
 10
91.473462
 20
55.967435
 30
0.0
  0
VERTEX
  5
1C8
330
19E
100
AcDbEntity
  8
001
370
    50
100
AcDbVertex
100
AcDb2dVertex
 10
91.011104
 20
56.001515
 30
0.0
  0
VERTEX
  5
1C9
330
19E
100
AcDbEntity
  8
001
370
    50
100
AcDbVertex
100
AcDb2dVertex
 10
90.492328
 20
56.025603
 30
0.0
  0
VERTEX
  5
1CA
330
19E
100
AcDbEntity
  8
001
370
    50
100
AcDbVertex
100
AcDb2dVertex
 10
89.973063
 20
56.035058
 30
0.0
  0
VERTEX
  5
1CB
330
19E
100
AcDbEntity
  8
001
370
    50
100
AcDbVertex
100
AcDb2dVertex
 10
89.45184
 20
56.030169
 30
0.0
  0
VERTEX
  5
1CC
330
19E
100
AcDbEntity
  8
001
370
    50
100
AcDbVertex
100
AcDb2dVertex
 10
88.930967
 20
56.010988
 30
0.0
  0
VERTEX
  5
1CD
330
19E
100
AcDbEntity
  8
001
370
    50
100
AcDbVertex
100
AcDb2dVertex
 10
88.412472
 20
55.977783
 30
0.0
  0
VERTEX
  5
1CE
330
19E
100
AcDbEntity
  8
001
370
    50
100
AcDbVertex
100
AcDb2dVertex
 10
87.894984
 20
55.930966
 30
0.0
  0
VERTEX
  5
1CF
330
19E
100
AcDbEntity
  8
001
370
    50
100
AcDbVertex
100
AcDb2dVertex
 10
87.384095
 20
55.871296
 30
0.0
  0
VERTEX
  5
1D0
330
19E
100
AcDbEntity
  8
001
370
    50
100
AcDbVertex
100
AcDb2dVertex
 10
86.875286
 20
55.79665
 30
0.0
  0
VERTEX
  5
1D1
330
19E
100
AcDbEntity
  8
001
370
    50
100
AcDbVertex
100
AcDb2dVertex
 10
86.372769
 20
55.707379
 30
0.0
  0
VERTEX
  5
1D2
330
19E
100
AcDbEntity
  8
001
370
    50
100
AcDbVertex
100
AcDb2dVertex
 10
85.871692
 20
55.609668
 30
0.0
  0
SEQEND
  5
19F
330
19E
100
AcDbEntity
  8
001
370
    50
  0
LINE
  5
1D3
330
1F
100
AcDbEntity
  8
001
370
    50
100
AcDbLine
 10
104.624542
 20
81.904738
 30
0.0
 11
42.424542
 21
81.904738
 31
0.0
  0
LINE
  5
1D4
330
1F
100
AcDbEntity
  8
001
370
    50
100
AcDbLine
 10
101.307268
 20
52.004738
 30
0.0
 11
104.624542
 21
52.004738
 31
0.0
  0
LINE
  5
1D5
330
1F
100
AcDbEntity
  8
001
370
    50
100
AcDbLine
 10
53.147692
 20
52.05364
 30
0.0
 11
52.717224
 21
52.044818
 31
0.0
  0
POLYLINE
  5
1D6
330
1F
100
AcDbEntity
  8
001
370
    50
100
AcDb2dPolyline
 66
     1
 10
0.0
 20
0.0
 30
0.0
  0
VERTEX
  5
1D8
330
1D6
100
AcDbEntity
  8
001
370
    50
100
AcDbVertex
100
AcDb2dVertex
 10
54.056692
 20
52.076996
 30
0.0
  0
VERTEX
  5
1D9
330
1D6
100
AcDbEntity
  8
001
370
    50
100
AcDbVertex
100
AcDb2dVertex
 10
53.917
 20
52.07354
 30
0.0
  0
VERTEX
  5
1DA
330
1D6
100
AcDbEntity
  8
001
370
    50
100
AcDbVertex
100
AcDb2dVertex
 10
53.77731
 20
52.070046
 30
0.0
  0
VERTEX
  5
1DB
330
1D6
100
AcDbEntity
  8
001
370
    50
100
AcDbVertex
100
AcDb2dVertex
 10
53.462498
 20
52.06194
 30
0.0
  0
VERTEX
  5
1DC
330
1D6
100
AcDbEntity
  8
001
370
    50
100
AcDbVertex
100
AcDb2dVertex
 10
53.147692
 20
52.05364
 30
0.0
  0
SEQEND
  5
1D7
330
1D6
100
AcDbEntity
  8
001
370
    50
  0
LINE
  5
1DD
330
1F
100
AcDbEntity
  8
001
370
    50
100
AcDbLine
 10
54.965692
 20
52.104884
 30
0.0
 11
54.056692
 21
52.076996
 31
0.0
  0
POLYLINE
  5
1DE
330
1F
100
AcDbEntity
  8
001
370
    50
100
AcDb2dPolyline
 66
     1
 10
0.0
 20
0.0
 30
0.0
  0
VERTEX
  5
1E0
330
1DE
100
AcDbEntity
  8
001
370
    50
100
AcDbVertex
100
AcDb2dVertex
 10
55.874692
 20
52.137295
 30
0.0
  0
VERTEX
  5
1E1
330
1DE
100
AcDbEntity
  8
001
370
    50
100
AcDbVertex
100
AcDb2dVertex
 10
55.515817
 20
52.124912
 30
0.0
  0
VERTEX
  5
1E2
330
1DE
100
AcDbEntity
  8
001
370
    50
100
AcDbVertex
100
AcDb2dVertex
 10
55.15696
 20
52.112047
 30
0.0
  0
VERTEX
  5
1E3
330
1DE
100
AcDbEntity
  8
001
370
    50
100
AcDbVertex
100
AcDb2dVertex
 10
55.061325
 20
52.108483
 30
0.0
  0
VERTEX
  5
1E4
330
1DE
100
AcDbEntity
  8
001
370
    50
100
AcDbVertex
100
AcDb2dVertex
 10
54.965692
 20
52.104884
 30
0.0
  0
SEQEND
  5
1DF
330
1DE
100
AcDbEntity
  8
001
370
    50
  0
LINE
  5
1E5
330
1F
100
AcDbEntity
  8
001
370
    50
100
AcDbLine
 10
56.783692
 20
52.17422
 30
0.0
 11
55.874692
 21
52.137295
 31
0.0
  0
LINE
  5
1E6
330
1F
100
AcDbEntity
  8
001
370
    50
100
AcDbLine
 10
57.692692
 20
52.215647
 30
0.0
 11
56.783692
 21
52.17422
 31
0.0
  0
LINE
  5
1E7
330
1F
100
AcDbEntity
  8
001
370
    50
100
AcDbLine
 10
58.601692
 20
52.261563
 30
0.0
 11
57.692692
 21
52.215647
 31
0.0
  0
LINE
  5
1E8
330
1F
100
AcDbEntity
  8
001
370
    50
100
AcDbLine
 10
59.510692
 20
52.311955
 30
0.0
 11
58.601692
 21
52.261563
 31
0.0
  0
LINE
  5
1E9
330
1F
100
AcDbEntity
  8
001
370
    50
100
AcDbLine
 10
60.419692
 20
52.366808
 30
0.0
 11
59.510692
 21
52.311955
 31
0.0
  0
LINE
  5
1EA
330
1F
100
AcDbEntity
  8
001
370
    50
100
AcDbLine
 10
61.328692
 20
52.426104
 30
0.0
 11
60.419692
 21
52.366808
 31
0.0
  0
LINE
  5
1EB
330
1F
100
AcDbEntity
  8
001
370
    50
100
AcDbLine
 10
62.237692
 20
52.489826
 30
0.0
 11
61.328692
 21
52.426104
 31
0.0
  0
LINE
  5
1EC
330
1F
100
AcDbEntity
  8
001
370
    50
100
AcDbLine
 10
63.146692
 20
52.557954
 30
0.0
 11
62.237692
 21
52.489826
 31
0.0
  0
LINE
  5
1ED
330
1F
100
AcDbEntity
  8
001
370
    50
100
AcDbLine
 10
64.055692
 20
52.630467
 30
0.0
 11
63.146692
 21
52.557954
 31
0.0
  0
LINE
  5
1EE
330
1F
100
AcDbEntity
  8
001
370
    50
100
AcDbLine
 10
64.964692
 20
52.707344
 30
0.0
 11
64.055692
 21
52.630467
 31
0.0
  0
LINE
  5
1EF
330
1F
100
AcDbEntity
  8
001
370
    50
100
AcDbLine
 10
65.873692
 20
52.78856
 30
0.0
 11
64.964692
 21
52.707344
 31
0.0
  0
LINE
  5
1F0
330
1F
100
AcDbEntity
  8
001
370
    50
100
AcDbLine
 10
66.782692
 20
52.874092
 30
0.0
 11
65.873692
 21
52.78856
 31
0.0
  0
LINE
  5
1F1
330
1F
100
AcDbEntity
  8
001
370
    50
100
AcDbLine
 10
67.691692
 20
52.963913
 30
0.0
 11
66.782692
 21
52.874092
 31
0.0
  0
LINE
  5
1F2
330
1F
100
AcDbEntity
  8
001
370
    50
100
AcDbLine
 10
68.600692
 20
53.057995
 30
0.0
 11
67.691692
 21
52.963913
 31
0.0
  0
LINE
  5
1F3
330
1F
100
AcDbEntity
  8
001
370
    50
100
AcDbLine
 10
69.509692
 20
53.156311
 30
0.0
 11
68.600692
 21
53.057995
 31
0.0
  0
LINE
  5
1F4
330
1F
100
AcDbEntity
  8
001
370
    50
100
AcDbLine
 10
70.418692
 20
53.25883
 30
0.0
 11
69.509692
 21
53.156311
 31
0.0
  0
LINE
  5
1F5
330
1F
100
AcDbEntity
  8
001
370
    50
100
AcDbLine
 10
71.327692
 20
53.365521
 30
0.0
 11
70.418692
 21
53.25883
 31
0.0
  0
LINE
  5
1F6
330
1F
100
AcDbEntity
  8
001
370
    50
100
AcDbLine
 10
72.236692
 20
53.476351
 30
0.0
 11
71.327692
 21
53.365521
 31
0.0
  0
LINE
  5
1F7
330
1F
100
AcDbEntity
  8
001
370
    50
100
AcDbLine
 10
73.145692
 20
53.591286
 30
0.0
 11
72.236692
 21
53.476351
 31
0.0
  0
LINE
  5
1F8
330
1F
100
AcDbEntity
  8
001
370
    50
100
AcDbLine
 10
74.054692
 20
53.710293
 30
0.0
 11
73.145692
 21
53.591286
 31
0.0
  0
LINE
  5
1F9
330
1F
100
AcDbEntity
  8
001
370
    50
100
AcDbLine
 10
74.963692
 20
53.833333
 30
0.0
 11
74.054692
 21
53.710293
 31
0.0
  0
LINE
  5
1FA
330
1F
100
AcDbEntity
  8
001
370
    50
100
AcDbLine
 10
75.872692
 20
53.960371
 30
0.0
 11
74.963692
 21
53.833333
 31
0.0
  0
LINE
  5
1FB
330
1F
100
AcDbEntity
  8
001
370
    50
100
AcDbLine
 10
76.781692
 20
54.091367
 30
0.0
 11
75.872692
 21
53.960371
 31
0.0
  0
LINE
  5
1FC
330
1F
100
AcDbEntity
  8
001
370
    50
100
AcDbLine
 10
77.690692
 20
54.226281
 30
0.0
 11
76.781692
 21
54.091367
 31
0.0
  0
LINE
  5
1FD
330
1F
100
AcDbEntity
  8
001
370
    50
100
AcDbLine
 10
78.599692
 20
54.365072
 30
0.0
 11
77.690692
 21
54.226281
 31
0.0
  0
LINE
  5
1FE
330
1F
100
AcDbEntity
  8
001
370
    50
100
AcDbLine
 10
79.508692
 20
54.507699
 30
0.0
 11
78.599692
 21
54.365072
 31
0.0
  0
LINE
  5
1FF
330
1F
100
AcDbEntity
  8
001
370
    50
100
AcDbLine
 10
80.417692
 20
54.654117
 30
0.0
 11
79.508692
 21
54.507699
 31
0.0
  0
LINE
  5
200
330
1F
100
AcDbEntity
  8
001
370
    50
100
AcDbLine
 10
81.326692
 20
54.804281
 30
0.0
 11
80.417692
 21
54.654117
 31
0.0
  0
LINE
  5
201
330
1F
100
AcDbEntity
  8
001
370
    50
100
AcDbLine
 10
82.235692
 20
54.958147
 30
0.0
 11
81.326692
 21
54.804281
 31
0.0
  0
LINE
  5
202
330
1F
100
AcDbEntity
  8
001
370
    50
100
AcDbLine
 10
83.144692
 20
55.115667
 30
0.0
 11
82.235692
 21
54.958147
 31
0.0
  0
LINE
  5
203
330
1F
100
AcDbEntity
  8
001
370
    50
100
AcDbLine
 10
84.053692
 20
55.276794
 30
0.0
 11
83.144692
 21
55.115667
 31
0.0
  0
LINE
  5
204
330
1F
100
AcDbEntity
  8
001
370
    50
100
AcDbLine
 10
84.962692
 20
55.441477
 30
0.0
 11
84.053692
 21
55.276794
 31
0.0
  0
LINE
  5
205
330
1F
100
AcDbEntity
  8
001
370
    50
100
AcDbLine
 10
85.871692
 20
55.609668
 30
0.0
 11
84.962692
 21
55.441477
 31
0.0
  0
POLYLINE
  5
206
330
1F
100
AcDbEntity
  8
001
370
    50
100
AcDb2dPolyline
 66
     1
 10
0.0
 20
0.0
 30
0.0
  0
VERTEX
  5
208
330
206
100
AcDbEntity
  8
001
370
    50
100
AcDbVertex
100
AcDb2dVertex
 10
100.170893
 20
54.69183
 30
0.0
  0
VERTEX
  5
209
330
206
100
AcDbEntity
  8
001
370
    50
100
AcDbVertex
100
AcDb2dVertex
 10
100.259402
 20
54.420819
 30
0.0
  0
VERTEX
  5
20A
330
206
100
AcDbEntity
  8
001
370
    50
100
AcDbVertex
100
AcDb2dVertex
 10
100.350807
 20
54.150801
 30
0.0
  0
VERTEX
  5
20B
330
206
100
AcDbEntity
  8
001
370
    50
100
AcDbVertex
100
AcDb2dVertex
 10
100.438331
 20
53.907088
 30
0.0
  0
VERTEX
  5
20C
330
206
100
AcDbEntity
  8
001
370
    50
100
AcDbVertex
100
AcDb2dVertex
 10
100.530128
 20
53.664932
 30
0.0
  0
VERTEX
  5
20D
330
206
100
AcDbEntity
  8
001
370
    50
100
AcDbVertex
100
AcDb2dVertex
 10
100.615311
 20
53.45027
 30
0.0
  0
VERTEX
  5
20E
330
206
100
AcDbEntity
  8
001
370
    50
100
AcDbVertex
100
AcDb2dVertex
 10
100.703879
 20
53.236991
 30
0.0
  0
VERTEX
  5
20F
330
206
100
AcDbEntity
  8
001
370
    50
100
AcDbVertex
100
AcDb2dVertex
 10
100.78398
 20
53.052704
 30
0.0
  0
VERTEX
  5
210
330
206
100
AcDbEntity
  8
001
370
    50
100
AcDbVertex
100
AcDb2dVertex
 10
100.86708
 20
52.869747
 30
0.0
  0
VERTEX
  5
211
330
206
100
AcDbEntity
  8
001
370
    50
100
AcDbVertex
100
AcDb2dVertex
 10
100.939452
 20
52.717149
 30
0.0
  0
VERTEX
  5
212
330
206
100
AcDbEntity
  8
001
370
    50
100
AcDbVertex
100
AcDb2dVertex
 10
101.014754
 20
52.565968
 30
0.0
  0
VERTEX
  5
213
330
206
100
AcDbEntity
  8
001
370
    50
100
AcDbVertex
100
AcDb2dVertex
 10
101.080503
 20
52.440332
 30
0.0
  0
VERTEX
  5
214
330
206
100
AcDbEntity
  8
001
370
    50
100
AcDbVertex
100
AcDb2dVertex
 10
101.147749
 20
52.315552
 30
0.0
  0
VERTEX
  5
215
330
206
100
AcDbEntity
  8
001
370
    50
100
AcDbVertex
100
AcDb2dVertex
 10
101.196903
 20
52.226042
 30
0.0
  0
VERTEX
  5
216
330
206
100
AcDbEntity
  8
001
370
    50
100
AcDbVertex
100
AcDb2dVertex
 10
101.248
 20
52.13744
 30
0.0
  0
VERTEX
  5
217
330
206
100
AcDbEntity
  8
001
370
    50
100
AcDbVertex
100
AcDb2dVertex
 10
101.278307
 20
52.086347
 30
0.0
  0
VERTEX
  5
218
330
206
100
AcDbEntity
  8
001
370
    50
100
AcDbVertex
100
AcDb2dVertex
 10
101.304855
 20
52.033472
 30
0.0
  0
VERTEX
  5
219
330
206
100
AcDbEntity
  8
001
370
    50
100
AcDbVertex
100
AcDb2dVertex
 10
101.308904
 20
52.023534
 30
0.0
  0
VERTEX
  5
21A
330
206
100
AcDbEntity
  8
001
370
    50
100
AcDbVertex
100
AcDb2dVertex
 10
101.31281
 20
52.013529
 30
0.0
  0
SEQEND
  5
207
330
206
100
AcDbEntity
  8
001
370
    50
  0
POLYLINE
  5
21B
330
1F
100
AcDbEntity
  8
001
370
    50
100
AcDb2dPolyline
 66
     1
 10
0.0
 20
0.0
 30
0.0
  0
VERTEX
  5
21D
330
21B
100
AcDbEntity
  8
001
370
    50
100
AcDbVertex
100
AcDb2dVertex
 10
90.564361
 20
63.041391
 30
0.0
  0
VERTEX
  5
21E
330
21B
100
AcDbEntity
  8
001
370
    50
100
AcDbVertex
100
AcDb2dVertex
 10
91.010308
 20
62.923912
 30
0.0
  0
VERTEX
  5
21F
330
21B
100
AcDbEntity
  8
001
370
    50
100
AcDbVertex
100
AcDb2dVertex
 10
91.453116
 20
62.795977
 30
0.0
  0
VERTEX
  5
220
330
21B
100
AcDbEntity
  8
001
370
    50
100
AcDbVertex
100
AcDb2dVertex
 10
91.890507
 20
62.64936
 30
0.0
  0
VERTEX
  5
221
330
21B
100
AcDbEntity
  8
001
370
    50
100
AcDbVertex
100
AcDb2dVertex
 10
92.321897
 20
62.485376
 30
0.0
  0
VERTEX
  5
222
330
21B
100
AcDbEntity
  8
001
370
    50
100
AcDbVertex
100
AcDb2dVertex
 10
92.746025
 20
62.307547
 30
0.0
  0
VERTEX
  5
223
330
21B
100
AcDbEntity
  8
001
370
    50
100
AcDbVertex
100
AcDb2dVertex
 10
93.163868
 20
62.115623
 30
0.0
  0
VERTEX
  5
224
330
21B
100
AcDbEntity
  8
001
370
    50
100
AcDbVertex
100
AcDb2dVertex
 10
93.571608
 20
61.911063
 30
0.0
  0
VERTEX
  5
225
330
21B
100
AcDbEntity
  8
001
370
    50
100
AcDbVertex
100
AcDb2dVertex
 10
93.97219
 20
61.692753
 30
0.0
  0
VERTEX
  5
226
330
21B
100
AcDbEntity
  8
001
370
    50
100
AcDbVertex
100
AcDb2dVertex
 10
94.397901
 20
61.441219
 30
0.0
  0
VERTEX
  5
227
330
21B
100
AcDbEntity
  8
001
370
    50
100
AcDbVertex
100
AcDb2dVertex
 10
94.814551
 20
61.174943
 30
0.0
  0
VERTEX
  5
228
330
21B
100
AcDbEntity
  8
001
370
    50
100
AcDbVertex
100
AcDb2dVertex
 10
95.21889
 20
60.896869
 30
0.0
  0
VERTEX
  5
229
330
21B
100
AcDbEntity
  8
001
370
    50
100
AcDbVertex
100
AcDb2dVertex
 10
95.613883
 20
60.605676
 30
0.0
  0
VERTEX
  5
22A
330
21B
100
AcDbEntity
  8
001
370
    50
100
AcDbVertex
100
AcDb2dVertex
 10
95.993696
 20
60.306491
 30
0.0
  0
VERTEX
  5
22B
330
21B
100
AcDbEntity
  8
001
370
    50
100
AcDbVertex
100
AcDb2dVertex
 10
96.36393
 20
59.995529
 30
0.0
  0
VERTEX
  5
22C
330
21B
100
AcDbEntity
  8
001
370
    50
100
AcDbVertex
100
AcDb2dVertex
 10
96.716119
 20
59.680648
 30
0.0
  0
VERTEX
  5
22D
330
21B
100
AcDbEntity
  8
001
370
    50
100
AcDbVertex
100
AcDb2dVertex
 10
97.058433
 20
59.355079
 30
0.0
  0
VERTEX
  5
22E
330
21B
100
AcDbEntity
  8
001
370
    50
100
AcDbVertex
100
AcDb2dVertex
 10
97.32881
 20
59.083044
 30
0.0
  0
VERTEX
  5
22F
330
21B
100
AcDbEntity
  8
001
370
    50
100
AcDbVertex
100
AcDb2dVertex
 10
97.592277
 20
58.804316
 30
0.0
  0
VERTEX
  5
230
330
21B
100
AcDbEntity
  8
001
370
    50
100
AcDbVertex
100
AcDb2dVertex
 10
97.843052
 20
58.525555
 30
0.0
  0
VERTEX
  5
231
330
21B
100
AcDbEntity
  8
001
370
    50
100
AcDbVertex
100
AcDb2dVertex
 10
98.086921
 20
58.240733
 30
0.0
  0
VERTEX
  5
232
330
21B
100
AcDbEntity
  8
001
370
    50
100
AcDbVertex
100
AcDb2dVertex
 10
98.316538
 20
57.95893
 30
0.0
  0
VERTEX
  5
233
330
21B
100
AcDbEntity
  8
001
370
    50
100
AcDbVertex
100
AcDb2dVertex
 10
98.539177
 20
57.671583
 30
0.0
  0
VERTEX
  5
234
330
21B
100
AcDbEntity
  8
001
370
    50
100
AcDbVertex
100
AcDb2dVertex
 10
98.746109
 20
57.390423
 30
0.0
  0
VERTEX
  5
235
330
21B
100
AcDbEntity
  8
001
370
    50
100
AcDbVertex
100
AcDb2dVertex
 10
98.94586
 20
57.104121
 30
0.0
  0
VERTEX
  5
236
330
21B
100
AcDbEntity
  8
001
370
    50
100
AcDbVertex
100
AcDb2dVertex
 10
99.128556
 20
56.827256
 30
0.0
  0
VERTEX
  5
237
330
21B
100
AcDbEntity
  8
001
370
    50
100
AcDbVertex
100
AcDb2dVertex
 10
99.303783
 20
56.545603
 30
0.0
  0
VERTEX
  5
238
330
21B
100
AcDbEntity
  8
001
370
    50
100
AcDbVertex
100
AcDb2dVertex
 10
99.445741
 20
56.303515
 30
0.0
  0
VERTEX
  5
239
330
21B
100
AcDbEntity
  8
001
370
    50
100
AcDbVertex
100
AcDb2dVertex
 10
99.5814
 20
56.057865
 30
0.0
  0
VERTEX
  5
23A
330
21B
100
AcDbEntity
  8
001
370
    50
100
AcDbVertex
100
AcDb2dVertex
 10
99.703595
 20
55.821971
 30
0.0
  0
VERTEX
  5
23B
330
21B
100
AcDbEntity
  8
001
370
    50
100
AcDbVertex
100
AcDb2dVertex
 10
99.81956
 20
55.582903
 30
0.0
  0
VERTEX
  5
23C
330
21B
100
AcDbEntity
  8
001
370
    50
100
AcDbVertex
100
AcDb2dVertex
 10
99.922067
 20
55.356037
 30
0.0
  0
VERTEX
  5
23D
330
21B
100
AcDbEntity
  8
001
370
    50
100
AcDbVertex
100
AcDb2dVertex
 10
100.01661
 20
55.125847
 30
0.0
  0
VERTEX
  5
23E
330
21B
100
AcDbEntity
  8
001
370
    50
100
AcDbVertex
100
AcDb2dVertex
 10
100.095974
 20
54.909682
 30
0.0
  0
VERTEX
  5
23F
330
21B
100
AcDbEntity
  8
001
370
    50
100
AcDbVertex
100
AcDb2dVertex
 10
100.170893
 20
54.69183
 30
0.0
  0
SEQEND
  5
21C
330
21B
100
AcDbEntity
  8
001
370
    50
  0
LINE
  5
240
330
1F
100
AcDbEntity
  8
001
370
    50
100
AcDbLine
 10
89.655361
 20
63.293804
 30
0.0
 11
90.564361
 21
63.041391
 31
0.0
  0
LINE
  5
241
330
1F
100
AcDbEntity
  8
001
370
    50
100
AcDbLine
 10
88.746361
 20
63.547331
 30
0.0
 11
89.655361
 21
63.293804
 31
0.0
  0
LINE
  5
242
330
1F
100
AcDbEntity
  8
001
370
    50
100
AcDbLine
 10
87.837361
 20
63.801896
 30
0.0
 11
88.746361
 21
63.547331
 31
0.0
  0
LINE
  5
243
330
1F
100
AcDbEntity
  8
001
370
    50
100
AcDbLine
 10
86.928361
 20
64.057421
 30
0.0
 11
87.837361
 21
63.801896
 31
0.0
  0
LINE
  5
244
330
1F
100
AcDbEntity
  8
001
370
    50
100
AcDbLine
 10
86.019361
 20
64.31383
 30
0.0
 11
86.928361
 21
64.057421
 31
0.0
  0
LINE
  5
245
330
1F
100
AcDbEntity
  8
001
370
    50
100
AcDbLine
 10
85.110361
 20
64.571042
 30
0.0
 11
86.019361
 21
64.31383
 31
0.0
  0
LINE
  5
246
330
1F
100
AcDbEntity
  8
001
370
    50
100
AcDbLine
 10
84.201361
 20
64.828981
 30
0.0
 11
85.110361
 21
64.571042
 31
0.0
  0
LINE
  5
247
330
1F
100
AcDbEntity
  8
001
370
    50
100
AcDbLine
 10
83.292361
 20
65.087567
 30
0.0
 11
84.201361
 21
64.828981
 31
0.0
  0
LINE
  5
248
330
1F
100
AcDbEntity
  8
001
370
    50
100
AcDbLine
 10
82.383361
 20
65.346722
 30
0.0
 11
83.292361
 21
65.087567
 31
0.0
  0
LINE
  5
249
330
1F
100
AcDbEntity
  8
001
370
    50
100
AcDbLine
 10
81.474361
 20
65.606366
 30
0.0
 11
82.383361
 21
65.346722
 31
0.0
  0
LINE
  5
24A
330
1F
100
AcDbEntity
  8
001
370
    50
100
AcDbLine
 10
80.565361
 20
65.866422
 30
0.0
 11
81.474361
 21
65.606366
 31
0.0
  0
LINE
  5
24B
330
1F
100
AcDbEntity
  8
001
370
    50
100
AcDbLine
 10
79.656361
 20
66.126809
 30
0.0
 11
80.565361
 21
65.866422
 31
0.0
  0
LINE
  5
24C
330
1F
100
AcDbEntity
  8
001
370
    50
100
AcDbLine
 10
78.747361
 20
66.387448
 30
0.0
 11
79.656361
 21
66.126809
 31
0.0
  0
LINE
  5
24D
330
1F
100
AcDbEntity
  8
001
370
    50
100
AcDbLine
 10
76.929361
 20
66.909165
 30
0.0
 11
77.838361
 21
66.64826
 31
0.0
  0
LINE
  5
24E
330
1F
100
AcDbEntity
  8
001
370
    50
100
AcDbLine
 10
75.111361
 20
67.430938
 30
0.0
 11
76.020361
 21
67.170085
 31
0.0
  0
LINE
  5
24F
330
1F
100
AcDbEntity
  8
001
370
    50
100
AcDbLine
 10
74.202361
 20
67.691647
 30
0.0
 11
75.111361
 21
67.430938
 31
0.0
  0
LINE
  5
250
330
1F
100
AcDbEntity
  8
001
370
    50
100
AcDbLine
 10
73.293361
 20
67.952131
 30
0.0
 11
74.202361
 21
67.691647
 31
0.0
  0
LINE
  5
251
330
1F
100
AcDbEntity
  8
001
370
    50
100
AcDbLine
 10
72.384361
 20
68.212311
 30
0.0
 11
73.293361
 21
67.952131
 31
0.0
  0
LINE
  5
252
330
1F
100
AcDbEntity
  8
001
370
    50
100
AcDbLine
 10
71.475361
 20
68.472108
 30
0.0
 11
72.384361
 21
68.212311
 31
0.0
  0
LINE
  5
253
330
1F
100
AcDbEntity
  8
001
370
    50
100
AcDbLine
 10
70.566361
 20
68.731443
 30
0.0
 11
71.475361
 21
68.472108
 31
0.0
  0
LINE
  5
254
330
1F
100
AcDbEntity
  8
001
370
    50
100
AcDbLine
 10
69.657361
 20
68.990237
 30
0.0
 11
70.566361
 21
68.731443
 31
0.0
  0
LINE
  5
255
330
1F
100
AcDbEntity
  8
001
370
    50
100
AcDbLine
 10
68.748361
 20
69.248411
 30
0.0
 11
69.657361
 21
68.990237
 31
0.0
  0
LINE
  5
256
330
1F
100
AcDbEntity
  8
001
370
    50
100
AcDbLine
 10
67.839361
 20
69.505886
 30
0.0
 11
68.748361
 21
69.248411
 31
0.0
  0
LINE
  5
257
330
1F
100
AcDbEntity
  8
001
370
    50
100
AcDbLine
 10
66.930361
 20
69.762584
 30
0.0
 11
67.839361
 21
69.505886
 31
0.0
  0
LINE
  5
258
330
1F
100
AcDbEntity
  8
001
370
    50
100
AcDbLine
 10
66.021361
 20
70.018427
 30
0.0
 11
66.930361
 21
69.762584
 31
0.0
  0
LINE
  5
259
330
1F
100
AcDbEntity
  8
001
370
    50
100
AcDbLine
 10
65.112361
 20
70.273336
 30
0.0
 11
66.021361
 21
70.018427
 31
0.0
  0
LINE
  5
25A
330
1F
100
AcDbEntity
  8
001
370
    50
100
AcDbLine
 10
64.203361
 20
70.527235
 30
0.0
 11
65.112361
 21
70.273336
 31
0.0
  0
LINE
  5
25B
330
1F
100
AcDbEntity
  8
001
370
    50
100
AcDbLine
 10
63.294361
 20
70.780045
 30
0.0
 11
64.203361
 21
70.527235
 31
0.0
  0
LINE
  5
25C
330
1F
100
AcDbEntity
  8
001
370
    50
100
AcDbLine
 10
62.385361
 20
71.03169
 30
0.0
 11
63.294361
 21
70.780045
 31
0.0
  0
LINE
  5
25D
330
1F
100
AcDbEntity
  8
001
370
    50
100
AcDbLine
 10
61.476361
 20
71.282093
 30
0.0
 11
62.385361
 21
71.03169
 31
0.0
  0
LINE
  5
25E
330
1F
100
AcDbEntity
  8
001
370
    50
100
AcDbLine
 10
60.567361
 20
71.531178
 30
0.0
 11
61.476361
 21
71.282093
 31
0.0
  0
LINE
  5
25F
330
1F
100
AcDbEntity
  8
001
370
    50
100
AcDbLine
 10
59.658361
 20
71.77887
 30
0.0
 11
60.567361
 21
71.531178
 31
0.0
  0
LINE
  5
260
330
1F
100
AcDbEntity
  8
001
370
    50
100
AcDbLine
 10
58.749361
 20
72.025091
 30
0.0
 11
59.658361
 21
71.77887
 31
0.0
  0
LINE
  5
261
330
1F
100
AcDbEntity
  8
001
370
    50
100
AcDbLine
 10
57.840361
 20
72.269768
 30
0.0
 11
58.749361
 21
72.025091
 31
0.0
  0
LINE
  5
262
330
1F
100
AcDbEntity
  8
001
370
    50
100
AcDbLine
 10
56.931361
 20
72.512826
 30
0.0
 11
57.840361
 21
72.269768
 31
0.0
  0
LINE
  5
263
330
1F
100
AcDbEntity
  8
001
370
    50
100
AcDbLine
 10
56.022361
 20
72.754191
 30
0.0
 11
56.931361
 21
72.512826
 31
0.0
  0
LINE
  5
264
330
1F
100
AcDbEntity
  8
001
370
    50
100
AcDbLine
 10
55.113361
 20
72.99379
 30
0.0
 11
56.022361
 21
72.754191
 31
0.0
  0
LINE
  5
265
330
1F
100
AcDbEntity
  8
001
370
    50
100
AcDbLine
 10
54.204361
 20
73.231549
 30
0.0
 11
55.113361
 21
72.99379
 31
0.0
  0
LINE
  5
266
330
1F
100
AcDbEntity
  8
001
370
    50
100
AcDbLine
 10
53.295361
 20
73.467396
 30
0.0
 11
54.204361
 21
73.231549
 31
0.0
  0
LINE
  5
267
330
1F
100
AcDbEntity
  8
001
370
    50
100
AcDbLine
 10
52.386361
 20
73.701259
 30
0.0
 11
53.295361
 21
73.467396
 31
0.0
  0
LINE
  5
268
330
1F
100
AcDbEntity
  8
001
370
    50
100
AcDbLine
 10
51.477361
 20
73.933067
 30
0.0
 11
52.386361
 21
73.701259
 31
0.0
  0
LINE
  5
269
330
1F
100
AcDbEntity
  8
001
370
    50
100
AcDbLine
 10
50.568361
 20
74.162749
 30
0.0
 11
51.477361
 21
73.933067
 31
0.0
  0
LINE
  5
26A
330
1F
100
AcDbEntity
  8
001
370
    50
100
AcDbLine
 10
49.659361
 20
74.390236
 30
0.0
 11
50.568361
 21
74.162749
 31
0.0
  0
LINE
  5
26B
330
1F
100
AcDbEntity
  8
001
370
    50
100
AcDbLine
 10
48.750361
 20
74.615458
 30
0.0
 11
49.659361
 21
74.390236
 31
0.0
  0
LINE
  5
26C
330
1F
100
AcDbEntity
  8
001
370
    50
100
AcDbLine
 10
47.841361
 20
74.838346
 30
0.0
 11
48.750361
 21
74.615458
 31
0.0
  0
LINE
  5
26D
330
1F
100
AcDbEntity
  8
001
370
    50
100
AcDbLine
 10
46.932361
 20
75.058833
 30
0.0
 11
47.841361
 21
74.838346
 31
0.0
  0
LINE
  5
26E
330
1F
100
AcDbEntity
  8
001
370
    50
100
AcDbLine
 10
46.023361
 20
75.276852
 30
0.0
 11
46.932361
 21
75.058833
 31
0.0
  0
LINE
  5
26F
330
1F
100
AcDbEntity
  8
001
370
    50
100
AcDbLine
 10
45.114361
 20
75.492335
 30
0.0
 11
46.023361
 21
75.276852
 31
0.0
  0
LINE
  5
270
330
1F
100
AcDbEntity
  8
001
370
    50
100
AcDbLine
 10
44.205361
 20
75.705218
 30
0.0
 11
45.114361
 21
75.492335
 31
0.0
  0
LINE
  5
271
330
1F
100
AcDbEntity
  8
001
370
    50
100
AcDbLine
 10
43.296361
 20
75.915435
 30
0.0
 11
44.205361
 21
75.705218
 31
0.0
  0
LINE
  5
272
330
1F
100
AcDbEntity
  8
001
370
    50
100
AcDbLine
 10
42.424542
 20
76.115714
 30
0.0
 11
43.296361
 21
75.915435
 31
0.0
  0
POLYLINE
  5
273
330
1F
100
AcDbEntity
  8
001
370
    50
100
AcDb2dPolyline
 66
     1
 10
0.0
 20
0.0
 30
0.0
  0
VERTEX
  5
275
330
273
100
AcDbEntity
  8
001
370
    50
100
AcDbVertex
100
AcDb2dVertex
 10
51.742454
 20
52.347812
 30
0.0
  0
VERTEX
  5
276
330
273
100
AcDbEntity
  8
001
370
    50
100
AcDbVertex
100
AcDb2dVertex
 10
51.936773
 20
52.263803
 30
0.0
  0
VERTEX
  5
277
330
273
100
AcDbEntity
  8
001
370
    50
100
AcDbVertex
100
AcDb2dVertex
 10
52.22734
 20
52.15935
 30
0.0
  0
VERTEX
  5
278
330
273
100
AcDbEntity
  8
001
370
    50
100
AcDbVertex
100
AcDb2dVertex
 10
52.516244
 20
52.083769
 30
0.0
  0
VERTEX
  5
279
330
273
100
AcDbEntity
  8
001
370
    50
100
AcDbVertex
100
AcDb2dVertex
 10
52.717224
 20
52.044818
 30
0.0
  0
SEQEND
  5
274
330
273
100
AcDbEntity
  8
001
370
    50
  0
POLYLINE
  5
27A
330
1F
100
AcDbEntity
  8
001
370
    50
100
AcDb2dPolyline
 66
     1
 10
0.0
 20
0.0
 30
0.0
  0
VERTEX
  5
27C
330
27A
100
AcDbEntity
  8
001
370
    50
100
AcDbVertex
100
AcDb2dVertex
 10
54.247424
 20
62.960581
 30
0.0
  0
VERTEX
  5
27D
330
27A
100
AcDbEntity
  8
001
370
    50
100
AcDbVertex
100
AcDb2dVertex
 10
54.20016
 20
63.126654
 30
0.0
  0
VERTEX
  5
27E
330
27A
100
AcDbEntity
  8
001
370
    50
100
AcDbVertex
100
AcDb2dVertex
 10
54.144486
 20
63.289429
 30
0.0
  0
VERTEX
  5
27F
330
27A
100
AcDbEntity
  8
001
370
    50
100
AcDbVertex
100
AcDb2dVertex
 10
54.073877
 20
63.448556
 30
0.0
  0
VERTEX
  5
280
330
27A
100
AcDbEntity
  8
001
370
    50
100
AcDbVertex
100
AcDb2dVertex
 10
53.994656
 20
63.604305
 30
0.0
  0
SEQEND
  5
27B
330
27A
100
AcDbEntity
  8
001
370
    50
  0
LINE
  5
281
330
1F
100
AcDbEntity
  8
001
370
    50
100
AcDbLine
 10
53.508438
 20
64.198918
 30
0.0
 11
53.29932
 21
64.36346
 31
0.0
  0
POLYLINE
  5
282
330
1F
100
AcDbEntity
  8
001
370
    50
100
AcDb2dPolyline
 66
     1
 10
0.0
 20
0.0
 30
0.0
  0
VERTEX
  5
284
330
282
100
AcDbEntity
  8
001
370
    50
100
AcDbVertex
100
AcDb2dVertex
 10
53.994656
 20
63.604305
 30
0.0
  0
VERTEX
  5
285
330
282
100
AcDbEntity
  8
001
370
    50
100
AcDbVertex
100
AcDb2dVertex
 10
53.919966
 20
63.723218
 30
0.0
  0
VERTEX
  5
286
330
282
100
AcDbEntity
  8
001
370
    50
100
AcDbVertex
100
AcDb2dVertex
 10
53.840277
 20
63.838544
 30
0.0
  0
VERTEX
  5
287
330
282
100
AcDbEntity
  8
001
370
    50
100
AcDbVertex
100
AcDb2dVertex
 10
53.809677
 20
63.878436
 30
0.0
  0
VERTEX
  5
288
330
282
100
AcDbEntity
  8
001
370
    50
100
AcDbVertex
100
AcDb2dVertex
 10
53.778434
 20
63.917866
 30
0.0
  0
SEQEND
  5
283
330
282
100
AcDbEntity
  8
001
370
    50
  0
POLYLINE
  5
289
330
1F
100
AcDbEntity
  8
001
370
    50
100
AcDb2dPolyline
 66
     1
 10
0.0
 20
0.0
 30
0.0
  0
VERTEX
  5
28B
330
289
100
AcDbEntity
  8
001
370
    50
100
AcDbVertex
100
AcDb2dVertex
 10
53.29932
 20
64.36346
 30
0.0
  0
VERTEX
  5
28C
330
289
100
AcDbEntity
  8
001
370
    50
100
AcDbVertex
100
AcDb2dVertex
 10
53.147519
 20
64.456751
 30
0.0
  0
VERTEX
  5
28D
330
289
100
AcDbEntity
  8
001
370
    50
100
AcDbVertex
100
AcDb2dVertex
 10
52.991848
 20
64.542907
 30
0.0
  0
VERTEX
  5
28E
330
289
100
AcDbEntity
  8
001
370
    50
100
AcDbVertex
100
AcDb2dVertex
 10
52.825389
 20
64.617626
 30
0.0
  0
VERTEX
  5
28F
330
289
100
AcDbEntity
  8
001
370
    50
100
AcDbVertex
100
AcDb2dVertex
 10
52.65298
 20
64.677633
 30
0.0
  0
VERTEX
  5
290
330
289
100
AcDbEntity
  8
001
370
    50
100
AcDbVertex
100
AcDb2dVertex
 10
52.571096
 20
64.700941
 30
0.0
  0
VERTEX
  5
291
330
289
100
AcDbEntity
  8
001
370
    50
100
AcDbVertex
100
AcDb2dVertex
 10
52.4888
 20
64.722675
 30
0.0
  0
SEQEND
  5
28A
330
289
100
AcDbEntity
  8
001
370
    50
  0
POLYLINE
  5
292
330
1F
100
AcDbEntity
  8
001
370
    50
100
AcDb2dPolyline
 66
     1
 10
0.0
 20
0.0
 30
0.0
  0
VERTEX
  5
294
330
292
100
AcDbEntity
  8
001
370
    50
100
AcDbVertex
100
AcDb2dVertex
 10
52.4888
 20
64.722675
 30
0.0
  0
VERTEX
  5
295
330
292
100
AcDbEntity
  8
001
370
    50
100
AcDbVertex
100
AcDb2dVertex
 10
52.337884
 20
64.751851
 30
0.0
  0
VERTEX
  5
296
330
292
100
AcDbEntity
  8
001
370
    50
100
AcDbVertex
100
AcDb2dVertex
 10
52.186193
 20
64.774061
 30
0.0
  0
VERTEX
  5
297
330
292
100
AcDbEntity
  8
001
370
    50
100
AcDbVertex
100
AcDb2dVertex
 10
52.051167
 20
64.78402
 30
0.0
  0
VERTEX
  5
298
330
292
100
AcDbEntity
  8
001
370
    50
100
AcDbVertex
100
AcDb2dVertex
 10
51.915537
 20
64.788547
 30
0.0
  0
SEQEND
  5
293
330
292
100
AcDbEntity
  8
001
370
    50
  0
POLYLINE
  5
299
330
1F
100
AcDbEntity
  8
001
370
    50
100
AcDb2dPolyline
 66
     1
 10
0.0
 20
0.0
 30
0.0
  0
VERTEX
  5
29B
330
299
100
AcDbEntity
  8
001
370
    50
100
AcDbVertex
100
AcDb2dVertex
 10
51.585013
 20
64.766984
 30
0.0
  0
VERTEX
  5
29C
330
299
100
AcDbEntity
  8
001
370
    50
100
AcDbVertex
100
AcDb2dVertex
 10
51.448231
 20
64.744307
 30
0.0
  0
VERTEX
  5
29D
330
299
100
AcDbEntity
  8
001
370
    50
100
AcDbVertex
100
AcDb2dVertex
 10
51.312453
 20
64.717047
 30
0.0
  0
VERTEX
  5
29E
330
299
100
AcDbEntity
  8
001
370
    50
100
AcDbVertex
100
AcDb2dVertex
 10
51.177079
 20
64.681223
 30
0.0
  0
VERTEX
  5
29F
330
299
100
AcDbEntity
  8
001
370
    50
100
AcDbVertex
100
AcDb2dVertex
 10
51.043813
 20
64.637694
 30
0.0
  0
VERTEX
  5
2A0
330
299
100
AcDbEntity
  8
001
370
    50
100
AcDbVertex
100
AcDb2dVertex
 10
50.920323
 20
64.590678
 30
0.0
  0
VERTEX
  5
2A1
330
299
100
AcDbEntity
  8
001
370
    50
100
AcDbVertex
100
AcDb2dVertex
 10
50.799677
 20
64.537146
 30
0.0
  0
VERTEX
  5
2A2
330
299
100
AcDbEntity
  8
001
370
    50
100
AcDbVertex
100
AcDb2dVertex
 10
50.681203
 20
64.476164
 30
0.0
  0
VERTEX
  5
2A3
330
299
100
AcDbEntity
  8
001
370
    50
100
AcDbVertex
100
AcDb2dVertex
 10
50.564651
 20
64.411278
 30
0.0
  0
SEQEND
  5
29A
330
299
100
AcDbEntity
  8
001
370
    50
  0
POLYLINE
  5
2A4
330
1F
100
AcDbEntity
  8
001
370
    50
100
AcDb2dPolyline
 66
     1
 10
0.0
 20
0.0
 30
0.0
  0
VERTEX
  5
2A6
330
2A4
100
AcDbEntity
  8
001
370
    50
100
AcDbVertex
100
AcDb2dVertex
 10
49.54663
 20
64.055639
 30
0.0
  0
VERTEX
  5
2A7
330
2A4
100
AcDbEntity
  8
001
370
    50
100
AcDbVertex
100
AcDb2dVertex
 10
49.662111
 20
64.058706
 30
0.0
  0
VERTEX
  5
2A8
330
2A4
100
AcDbEntity
  8
001
370
    50
100
AcDbVertex
100
AcDb2dVertex
 10
49.830876
 20
64.063693
 30
0.0
  0
VERTEX
  5
2A9
330
2A4
100
AcDbEntity
  8
001
370
    50
100
AcDbVertex
100
AcDb2dVertex
 10
49.999856
 20
64.069392
 30
0.0
  0
VERTEX
  5
2AA
330
2A4
100
AcDbEntity
  8
001
370
    50
100
AcDbVertex
100
AcDb2dVertex
 10
50.115463
 20
64.073636
 30
0.0
  0
SEQEND
  5
2A5
330
2A4
100
AcDbEntity
  8
001
370
    50
  0
POLYLINE
  5
2AB
330
1F
100
AcDbEntity
  8
001
370
    50
100
AcDb2dPolyline
 66
     1
 10
0.0
 20
0.0
 30
0.0
  0
VERTEX
  5
2AD
330
2AB
100
AcDbEntity
  8
001
370
    50
100
AcDbVertex
100
AcDb2dVertex
 10
50.564651
 20
64.411278
 30
0.0
  0
VERTEX
  5
2AE
330
2AB
100
AcDbEntity
  8
001
370
    50
100
AcDbVertex
100
AcDb2dVertex
 10
50.521008
 20
64.384537
 30
0.0
  0
VERTEX
  5
2AF
330
2AB
100
AcDbEntity
  8
001
370
    50
100
AcDbVertex
100
AcDb2dVertex
 10
50.477793
 20
64.357184
 30
0.0
  0
VERTEX
  5
2B0
330
2AB
100
AcDbEntity
  8
001
370
    50
100
AcDbVertex
100
AcDb2dVertex
 10
50.2923
 20
64.221595
 30
0.0
  0
VERTEX
  5
2B1
330
2AB
100
AcDbEntity
  8
001
370
    50
100
AcDbVertex
100
AcDb2dVertex
 10
50.115463
 20
64.073636
 30
0.0
  0
SEQEND
  5
2AC
330
2AB
100
AcDbEntity
  8
001
370
    50
  0
POLYLINE
  5
2B2
330
1F
100
AcDbEntity
  8
001
370
    50
100
AcDb2dPolyline
 66
     1
 10
0.0
 20
0.0
 30
0.0
  0
VERTEX
  5
2B4
330
2B2
100
AcDbEntity
  8
001
370
    50
100
AcDbVertex
100
AcDb2dVertex
 10
48.621208
 20
64.023038
 30
0.0
  0
VERTEX
  5
2B5
330
2B2
100
AcDbEntity
  8
001
370
    50
100
AcDbVertex
100
AcDb2dVertex
 10
48.809075
 20
64.028123
 30
0.0
  0
VERTEX
  5
2B6
330
2B2
100
AcDbEntity
  8
001
370
    50
100
AcDbVertex
100
AcDb2dVertex
 10
49.083608
 20
64.036874
 30
0.0
  0
VERTEX
  5
2B7
330
2B2
100
AcDbEntity
  8
001
370
    50
100
AcDbVertex
100
AcDb2dVertex
 10
49.358548
 20
64.04748
 30
0.0
  0
VERTEX
  5
2B8
330
2B2
100
AcDbEntity
  8
001
370
    50
100
AcDbVertex
100
AcDb2dVertex
 10
49.54663
 20
64.055639
 30
0.0
  0
SEQEND
  5
2B3
330
2B2
100
AcDbEntity
  8
001
370
    50
  0
POLYLINE
  5
2B9
330
1F
100
AcDbEntity
  8
001
370
    50
100
AcDb2dPolyline
 66
     1
 10
0.0
 20
0.0
 30
0.0
  0
VERTEX
  5
2BB
330
2B9
100
AcDbEntity
  8
001
370
    50
100
AcDbVertex
100
AcDb2dVertex
 10
47.69581
 20
63.990935
 30
0.0
  0
VERTEX
  5
2BC
330
2B9
100
AcDbEntity
  8
001
370
    50
100
AcDbVertex
100
AcDb2dVertex
 10
47.883665
 20
63.995935
 30
0.0
  0
VERTEX
  5
2BD
330
2B9
100
AcDbEntity
  8
001
370
    50
100
AcDbVertex
100
AcDb2dVertex
 10
48.158182
 20
64.004548
 30
0.0
  0
VERTEX
  5
2BE
330
2B9
100
AcDbEntity
  8
001
370
    50
100
AcDbVertex
100
AcDb2dVertex
 10
48.433124
 20
64.014996
 30
0.0
  0
VERTEX
  5
2BF
330
2B9
100
AcDbEntity
  8
001
370
    50
100
AcDbVertex
100
AcDb2dVertex
 10
48.621208
 20
64.023038
 30
0.0
  0
SEQEND
  5
2BA
330
2B9
100
AcDbEntity
  8
001
370
    50
  0
POLYLINE
  5
2C0
330
1F
100
AcDbEntity
  8
001
370
    50
100
AcDb2dPolyline
 66
     1
 10
0.0
 20
0.0
 30
0.0
  0
VERTEX
  5
2C2
330
2C0
100
AcDbEntity
  8
001
370
    50
100
AcDbVertex
100
AcDb2dVertex
 10
46.770418
 20
63.959325
 30
0.0
  0
VERTEX
  5
2C3
330
2C0
100
AcDbEntity
  8
001
370
    50
100
AcDbVertex
100
AcDb2dVertex
 10
46.958265
 20
63.964239
 30
0.0
  0
VERTEX
  5
2C4
330
2C0
100
AcDbEntity
  8
001
370
    50
100
AcDbVertex
100
AcDb2dVertex
 10
47.232771
 20
63.972715
 30
0.0
  0
VERTEX
  5
2C5
330
2C0
100
AcDbEntity
  8
001
370
    50
100
AcDbVertex
100
AcDb2dVertex
 10
47.50772
 20
63.983008
 30
0.0
  0
VERTEX
  5
2C6
330
2C0
100
AcDbEntity
  8
001
370
    50
100
AcDbVertex
100
AcDb2dVertex
 10
47.69581
 20
63.990935
 30
0.0
  0
SEQEND
  5
2C1
330
2C0
100
AcDbEntity
  8
001
370
    50
  0
POLYLINE
  5
2C7
330
1F
100
AcDbEntity
  8
001
370
    50
100
AcDb2dPolyline
 66
     1
 10
0.0
 20
0.0
 30
0.0
  0
VERTEX
  5
2C9
330
2C7
100
AcDbEntity
  8
001
370
    50
100
AcDbVertex
100
AcDb2dVertex
 10
46.045225
 20
63.93332
 30
0.0
  0
VERTEX
  5
2CA
330
2C7
100
AcDbEntity
  8
001
370
    50
100
AcDbVertex
100
AcDb2dVertex
 10
46.192471
 20
63.937687
 30
0.0
  0
VERTEX
  5
2CB
330
2C7
100
AcDbEntity
  8
001
370
    50
100
AcDbVertex
100
AcDb2dVertex
 10
46.40765
 20
63.944855
 30
0.0
  0
VERTEX
  5
2CC
330
2C7
100
AcDbEntity
  8
001
370
    50
100
AcDbVertex
100
AcDb2dVertex
 10
46.623056
 20
63.953127
 30
0.0
  0
VERTEX
  5
2CD
330
2C7
100
AcDbEntity
  8
001
370
    50
100
AcDbVertex
100
AcDb2dVertex
 10
46.770418
 20
63.959325
 30
0.0
  0
SEQEND
  5
2C8
330
2C7
100
AcDbEntity
  8
001
370
    50
  0
LINE
  5
2CE
330
1F
100
AcDbEntity
  8
001
370
    50
100
AcDbLine
 10
46.045225
 20
63.93332
 30
0.0
 11
45.843032
 21
63.921086
 31
0.0
  0
POLYLINE
  5
2CF
330
1F
100
AcDbEntity
  8
001
370
    50
100
AcDb2dPolyline
 66
     1
 10
0.0
 20
0.0
 30
0.0
  0
VERTEX
  5
2D1
330
2CF
100
AcDbEntity
  8
001
370
    50
100
AcDbVertex
100
AcDb2dVertex
 10
45.843032
 20
63.921086
 30
0.0
  0
VERTEX
  5
2D2
330
2CF
100
AcDbEntity
  8
001
370
    50
100
AcDbVertex
100
AcDb2dVertex
 10
45.654236
 20
63.891923
 30
0.0
  0
VERTEX
  5
2D3
330
2CF
100
AcDbEntity
  8
001
370
    50
100
AcDbVertex
100
AcDb2dVertex
 10
45.466783
 20
63.855919
 30
0.0
  0
VERTEX
  5
2D4
330
2CF
100
AcDbEntity
  8
001
370
    50
100
AcDbVertex
100
AcDb2dVertex
 10
45.279285
 20
63.806665
 30
0.0
  0
VERTEX
  5
2D5
330
2CF
100
AcDbEntity
  8
001
370
    50
100
AcDbVertex
100
AcDb2dVertex
 10
45.095804
 20
63.743994
 30
0.0
  0
VERTEX
  5
2D6
330
2CF
100
AcDbEntity
  8
001
370
    50
100
AcDbVertex
100
AcDb2dVertex
 10
44.971448
 20
63.693544
 30
0.0
  0
VERTEX
  5
2D7
330
2CF
100
AcDbEntity
  8
001
370
    50
100
AcDbVertex
100
AcDb2dVertex
 10
44.848354
 20
63.640038
 30
0.0
  0
SEQEND
  5
2D0
330
2CF
100
AcDbEntity
  8
001
370
    50
  0
POLYLINE
  5
2D8
330
1F
100
AcDbEntity
  8
001
370
    50
100
AcDb2dPolyline
 66
     1
 10
0.0
 20
0.0
 30
0.0
  0
VERTEX
  5
2DA
330
2D8
100
AcDbEntity
  8
001
370
    50
100
AcDbVertex
100
AcDb2dVertex
 10
44.848354
 20
63.640038
 30
0.0
  0
VERTEX
  5
2DB
330
2D8
100
AcDbEntity
  8
001
370
    50
100
AcDbVertex
100
AcDb2dVertex
 10
44.668513
 20
63.543662
 30
0.0
  0
VERTEX
  5
2DC
330
2D8
100
AcDbEntity
  8
001
370
    50
100
AcDbVertex
100
AcDb2dVertex
 10
44.494107
 20
63.439017
 30
0.0
  0
VERTEX
  5
2DD
330
2D8
100
AcDbEntity
  8
001
370
    50
100
AcDbVertex
100
AcDb2dVertex
 10
44.325955
 20
63.318402
 30
0.0
  0
VERTEX
  5
2DE
330
2D8
100
AcDbEntity
  8
001
370
    50
100
AcDbVertex
100
AcDb2dVertex
 10
44.16343
 20
63.189227
 30
0.0
  0
SEQEND
  5
2D9
330
2D8
100
AcDbEntity
  8
001
370
    50
  0
POLYLINE
  5
2DF
330
1F
100
AcDbEntity
  8
001
370
    50
100
AcDb2dPolyline
 66
     1
 10
0.0
 20
0.0
 30
0.0
  0
VERTEX
  5
2E1
330
2DF
100
AcDbEntity
  8
001
370
    50
100
AcDbVertex
100
AcDb2dVertex
 10
41.610432
 20
74.170586
 30
0.0
  0
VERTEX
  5
2E2
330
2DF
100
AcDbEntity
  8
001
370
    50
100
AcDbVertex
100
AcDb2dVertex
 10
41.813869
 20
74.273932
 30
0.0
  0
VERTEX
  5
2E3
330
2DF
100
AcDbEntity
  8
001
370
    50
100
AcDbVertex
100
AcDb2dVertex
 10
42.019055
 20
74.373538
 30
0.0
  0
VERTEX
  5
2E4
330
2DF
100
AcDbEntity
  8
001
370
    50
100
AcDbVertex
100
AcDb2dVertex
 10
42.220975
 20
74.464244
 30
0.0
  0
VERTEX
  5
2E5
330
2DF
100
AcDbEntity
  8
001
370
    50
100
AcDbVertex
100
AcDb2dVertex
 10
42.424542
 20
74.551427
 30
0.0
  0
SEQEND
  5
2E0
330
2DF
100
AcDbEntity
  8
001
370
    50
  0
LINE
  5
2E6
330
1F
100
AcDbEntity
  8
001
370
    50
100
AcDbLine
 10
101.31281
 20
52.013529
 30
0.0
 11
101.310919
 21
52.004738
 31
0.0
  0
LINE
  5
2E7
330
1F
100
AcDbEntity
  8
001
370
    50
100
AcDbLine
 10
42.424542
 20
77.984265
 30
0.0
 11
41.124542
 21
76.604738
 31
0.0
  0
LINE
  5
2E8
330
1F
100
AcDbEntity
  8
001
370
    50
100
AcDbLine
 10
41.124542
 20
73.920023
 30
0.0
 11
41.610432
 21
74.170586
 31
0.0
  0
POLYLINE
  5
2E9
330
1F
100
AcDbEntity
  8
001
370
    50
100
AcDb2dPolyline
 66
     1
 10
0.0
 20
0.0
 30
0.0
  0
VERTEX
  5
2EB
330
2E9
100
AcDbEntity
  8
001
370
    50
100
AcDbVertex
100
AcDb2dVertex
 10
41.124542
 20
62.461333
 30
0.0
  0
VERTEX
  5
2EC
330
2E9
100
AcDbEntity
  8
001
370
    50
100
AcDbVertex
100
AcDb2dVertex
 10
41.290643
 20
62.464324
 30
0.0
  0
VERTEX
  5
2ED
330
2E9
100
AcDbEntity
  8
001
370
    50
100
AcDbVertex
100
AcDb2dVertex
 10
41.533385
 20
62.469632
 30
0.0
  0
VERTEX
  5
2EE
330
2E9
100
AcDbEntity
  8
001
370
    50
100
AcDbVertex
100
AcDb2dVertex
 10
41.776447
 20
62.476253
 30
0.0
  0
VERTEX
  5
2EF
330
2E9
100
AcDbEntity
  8
001
370
    50
100
AcDbVertex
100
AcDb2dVertex
 10
41.942735
 20
62.481424
 30
0.0
  0
SEQEND
  5
2EA
330
2E9
100
AcDbEntity
  8
001
370
    50
  0
POLYLINE
  5
2F0
330
1F
100
AcDbEntity
  8
001
370
    50
100
AcDb2dPolyline
 66
     1
 10
0.0
 20
0.0
 30
0.0
  0
VERTEX
  5
2F2
330
2F0
100
AcDbEntity
  8
001
370
    50
100
AcDbVertex
100
AcDb2dVertex
 10
41.942735
 20
62.481424
 30
0.0
  0
VERTEX
  5
2F3
330
2F0
100
AcDbEntity
  8
001
370
    50
100
AcDbVertex
100
AcDb2dVertex
 10
42.128009
 20
62.484503
 30
0.0
  0
VERTEX
  5
2F4
330
2F0
100
AcDbEntity
  8
001
370
    50
100
AcDbVertex
100
AcDb2dVertex
 10
42.398769
 20
62.490173
 30
0.0
  0
VERTEX
  5
2F5
330
2F0
100
AcDbEntity
  8
001
370
    50
100
AcDbVertex
100
AcDb2dVertex
 10
42.669923
 20
62.497484
 30
0.0
  0
VERTEX
  5
2F6
330
2F0
100
AcDbEntity
  8
001
370
    50
100
AcDbVertex
100
AcDb2dVertex
 10
42.855427
 20
62.503287
 30
0.0
  0
SEQEND
  5
2F1
330
2F0
100
AcDbEntity
  8
001
370
    50
  0
POLYLINE
  5
2F7
330
1F
100
AcDbEntity
  8
001
370
    50
100
AcDb2dPolyline
 66
     1
 10
0.0
 20
0.0
 30
0.0
  0
VERTEX
  5
2F9
330
2F7
100
AcDbEntity
  8
001
370
    50
100
AcDbVertex
100
AcDb2dVertex
 10
42.855427
 20
62.503287
 30
0.0
  0
VERTEX
  5
2FA
330
2F7
100
AcDbEntity
  8
001
370
    50
100
AcDbVertex
100
AcDb2dVertex
 10
42.983311
 20
62.505369
 30
0.0
  0
VERTEX
  5
2FB
330
2F7
100
AcDbEntity
  8
001
370
    50
100
AcDbVertex
100
AcDb2dVertex
 10
43.170207
 20
62.508972
 30
0.0
  0
VERTEX
  5
2FC
330
2F7
100
AcDbEntity
  8
001
370
    50
100
AcDbVertex
100
AcDb2dVertex
 10
43.357322
 20
62.51336
 30
0.0
  0
VERTEX
  5
2FD
330
2F7
100
AcDbEntity
  8
001
370
    50
100
AcDbVertex
100
AcDb2dVertex
 10
43.485339
 20
62.516747
 30
0.0
  0
SEQEND
  5
2F8
330
2F7
100
AcDbEntity
  8
001
370
    50
  0
LINE
  5
2FE
330
1F
100
AcDbEntity
  8
001
370
    50
100
AcDbLine
 10
44.16343
 20
63.189227
 30
0.0
 11
43.994152
 21
63.031036
 31
0.0
  0
POLYLINE
  5
2FF
330
1F
100
AcDbEntity
  8
001
370
    50
100
AcDb2dPolyline
 66
     1
 10
0.0
 20
0.0
 30
0.0
  0
VERTEX
  5
301
330
2FF
100
AcDbEntity
  8
001
370
    50
100
AcDbVertex
100
AcDb2dVertex
 10
43.485339
 20
62.516747
 30
0.0
  0
VERTEX
  5
302
330
2FF
100
AcDbEntity
  8
001
370
    50
100
AcDbVertex
100
AcDb2dVertex
 10
43.547045
 20
62.579151
 30
0.0
  0
VERTEX
  5
303
330
2FF
100
AcDbEntity
  8
001
370
    50
100
AcDbVertex
100
AcDb2dVertex
 10
43.637163
 20
62.670423
 30
0.0
  0
VERTEX
  5
304
330
2FF
100
AcDbEntity
  8
001
370
    50
100
AcDbVertex
100
AcDb2dVertex
 10
43.727357
 20
62.76196
 30
0.0
  0
VERTEX
  5
305
330
2FF
100
AcDbEntity
  8
001
370
    50
100
AcDbVertex
100
AcDb2dVertex
 10
43.789023
 20
62.824636
 30
0.0
  0
SEQEND
  5
300
330
2FF
100
AcDbEntity
  8
001
370
    50
  0
POLYLINE
  5
306
330
1F
100
AcDbEntity
  8
001
370
    50
100
AcDb2dPolyline
 66
     1
 10
0.0
 20
0.0
 30
0.0
  0
VERTEX
  5
308
330
306
100
AcDbEntity
  8
001
370
    50
100
AcDbVertex
100
AcDb2dVertex
 10
43.789023
 20
62.824636
 30
0.0
  0
VERTEX
  5
309
330
306
100
AcDbEntity
  8
001
370
    50
100
AcDbVertex
100
AcDb2dVertex
 10
43.83069
 20
62.866489
 30
0.0
  0
VERTEX
  5
30A
330
306
100
AcDbEntity
  8
001
370
    50
100
AcDbVertex
100
AcDb2dVertex
 10
43.891557
 20
62.92769
 30
0.0
  0
VERTEX
  5
30B
330
306
100
AcDbEntity
  8
001
370
    50
100
AcDbVertex
100
AcDb2dVertex
 10
43.952485
 20
62.989039
 30
0.0
  0
VERTEX
  5
30C
330
306
100
AcDbEntity
  8
001
370
    50
100
AcDbVertex
100
AcDb2dVertex
 10
43.994152
 20
63.031036
 30
0.0
  0
SEQEND
  5
307
330
306
100
AcDbEntity
  8
001
370
    50
  0
POLYLINE
  5
30D
330
1F
100
AcDbEntity
  8
001
370
    50
100
AcDb2dPolyline
 66
     1
 10
0.0
 20
0.0
 30
0.0
  0
VERTEX
  5
30F
330
30D
100
AcDbEntity
  8
001
370
    50
100
AcDbVertex
100
AcDb2dVertex
 10
51.915537
 20
64.788547
 30
0.0
  0
VERTEX
  5
310
330
30D
100
AcDbEntity
  8
001
370
    50
100
AcDbVertex
100
AcDb2dVertex
 10
51.895058
 20
64.788442
 30
0.0
  0
VERTEX
  5
311
330
30D
100
AcDbEntity
  8
001
370
    50
100
AcDbVertex
100
AcDb2dVertex
 10
51.874584
 20
64.788215
 30
0.0
  0
VERTEX
  5
312
330
30D
100
AcDbEntity
  8
001
370
    50
100
AcDbVertex
100
AcDb2dVertex
 10
51.729672
 20
64.780701
 30
0.0
  0
VERTEX
  5
313
330
30D
100
AcDbEntity
  8
001
370
    50
100
AcDbVertex
100
AcDb2dVertex
 10
51.585013
 20
64.766984
 30
0.0
  0
SEQEND
  5
30E
330
30D
100
AcDbEntity
  8
001
370
    50
  0
POLYLINE
  5
314
330
1F
100
AcDbEntity
  8
001
370
    50
100
AcDb2dPolyline
 66
     1
 10
0.0
 20
0.0
 30
0.0
  0
VERTEX
  5
316
330
314
100
AcDbEntity
  8
001
370
    50
100
AcDbVertex
100
AcDb2dVertex
 10
53.652755
 20
60.665508
 30
0.0
  0
VERTEX
  5
317
330
314
100
AcDbEntity
  8
001
370
    50
100
AcDbVertex
100
AcDb2dVertex
 10
53.696855
 20
60.717397
 30
0.0
  0
VERTEX
  5
318
330
314
100
AcDbEntity
  8
001
370
    50
100
AcDbVertex
100
AcDb2dVertex
 10
53.740187
 20
60.769919
 30
0.0
  0
VERTEX
  5
319
330
314
100
AcDbEntity
  8
001
370
    50
100
AcDbVertex
100
AcDb2dVertex
 10
53.861642
 20
60.934753
 30
0.0
  0
VERTEX
  5
31A
330
314
100
AcDbEntity
  8
001
370
    50
100
AcDbVertex
100
AcDb2dVertex
 10
53.969619
 20
61.108939
 30
0.0
  0
VERTEX
  5
31B
330
314
100
AcDbEntity
  8
001
370
    50
100
AcDbVertex
100
AcDb2dVertex
 10
54.063742
 20
61.289507
 30
0.0
  0
VERTEX
  5
31C
330
314
100
AcDbEntity
  8
001
370
    50
100
AcDbVertex
100
AcDb2dVertex
 10
54.14389
 20
61.47661
 30
0.0
  0
VERTEX
  5
31D
330
314
100
AcDbEntity
  8
001
370
    50
100
AcDbVertex
100
AcDb2dVertex
 10
54.212126
 20
61.679779
 30
0.0
  0
VERTEX
  5
31E
330
314
100
AcDbEntity
  8
001
370
    50
100
AcDbVertex
100
AcDb2dVertex
 10
54.263251
 20
61.887934
 30
0.0
  0
VERTEX
  5
31F
330
314
100
AcDbEntity
  8
001
370
    50
100
AcDbVertex
100
AcDb2dVertex
 10
54.296754
 20
62.098406
 30
0.0
  0
VERTEX
  5
320
330
314
100
AcDbEntity
  8
001
370
    50
100
AcDbVertex
100
AcDb2dVertex
 10
54.312912
 20
62.310984
 30
0.0
  0
VERTEX
  5
321
330
314
100
AcDbEntity
  8
001
370
    50
100
AcDbVertex
100
AcDb2dVertex
 10
54.313274
 20
62.474927
 30
0.0
  0
VERTEX
  5
322
330
314
100
AcDbEntity
  8
001
370
    50
100
AcDbVertex
100
AcDb2dVertex
 10
54.301701
 20
62.638231
 30
0.0
  0
VERTEX
  5
323
330
314
100
AcDbEntity
  8
001
370
    50
100
AcDbVertex
100
AcDb2dVertex
 10
54.27796
 20
62.799843
 30
0.0
  0
VERTEX
  5
324
330
314
100
AcDbEntity
  8
001
370
    50
100
AcDbVertex
100
AcDb2dVertex
 10
54.247424
 20
62.960581
 30
0.0
  0
SEQEND
  5
315
330
314
100
AcDbEntity
  8
001
370
    50
  0
LINE
  5
325
330
1F
100
AcDbEntity
  8
001
370
    50
100
AcDbLine
 10
53.418659
 20
60.433366
 30
0.0
 11
53.645617
 21
60.657537
 31
0.0
  0
LINE
  5
326
330
1F
100
AcDbEntity
  8
001
370
    50
100
AcDbLine
 10
53.508438
 20
64.198918
 30
0.0
 11
53.778434
 21
63.917866
 31
0.0
  0
LINE
  5
327
330
1F
100
AcDbEntity
  8
001
370
    50
100
AcDbLine
 10
41.124542
 20
62.415405
 30
0.0
 11
41.124542
 21
76.604738
 31
0.0
  0
LINE
  5
328
330
1F
100
AcDbEntity
  8
001
370
    50
100
AcDbLine
 10
43.485339
 20
62.516747
 30
0.0
 11
43.473329
 21
62.468492
 31
0.0
  0
POLYLINE
  5
329
330
1F
100
AcDbEntity
  8
001
370
    50
100
AcDb2dPolyline
 66
     1
 10
0.0
 20
0.0
 30
0.0
  0
VERTEX
  5
32B
330
329
100
AcDbEntity
  8
001
370
    50
100
AcDbVertex
100
AcDb2dVertex
 10
45.400069
 20
62.937808
 30
0.0
  0
VERTEX
  5
32C
330
329
100
AcDbEntity
  8
001
370
    50
100
AcDbVertex
100
AcDb2dVertex
 10
45.241118
 20
62.928832
 30
0.0
  0
VERTEX
  5
32D
330
329
100
AcDbEntity
  8
001
370
    50
100
AcDbVertex
100
AcDb2dVertex
 10
45.023152
 20
62.900846
 30
0.0
  0
VERTEX
  5
32E
330
329
100
AcDbEntity
  8
001
370
    50
100
AcDbVertex
100
AcDb2dVertex
 10
44.82941
 20
62.853448
 30
0.0
  0
VERTEX
  5
32F
330
329
100
AcDbEntity
  8
001
370
    50
100
AcDbVertex
100
AcDb2dVertex
 10
44.660167
 20
62.791325
 30
0.0
  0
VERTEX
  5
330
330
329
100
AcDbEntity
  8
001
370
    50
100
AcDbVertex
100
AcDb2dVertex
 10
44.495907
 20
62.71612
 30
0.0
  0
VERTEX
  5
331
330
329
100
AcDbEntity
  8
001
370
    50
100
AcDbVertex
100
AcDb2dVertex
 10
44.324531
 20
62.613293
 30
0.0
  0
VERTEX
  5
332
330
329
100
AcDbEntity
  8
001
370
    50
100
AcDbVertex
100
AcDb2dVertex
 10
44.227027
 20
62.541795
 30
0.0
  0
VERTEX
  5
333
330
329
100
AcDbEntity
  8
001
370
    50
100
AcDbVertex
100
AcDb2dVertex
 10
44.135903
 20
62.468492
 30
0.0
  0
SEQEND
  5
32A
330
329
100
AcDbEntity
  8
001
370
    50
  0
LINE
  5
334
330
1F
100
AcDbEntity
  8
001
370
    50
100
AcDbLine
 10
45.535992
 20
62.937808
 30
0.0
 11
45.400069
 21
62.937808
 31
0.0
  0
POLYLINE
  5
335
330
1F
100
AcDbEntity
  8
001
370
    50
100
AcDb2dPolyline
 66
     1
 10
0.0
 20
0.0
 30
0.0
  0
VERTEX
  5
337
330
335
100
AcDbEntity
  8
001
370
    50
100
AcDbVertex
100
AcDb2dVertex
 10
50.115463
 20
64.073636
 30
0.0
  0
VERTEX
  5
338
330
335
100
AcDbEntity
  8
001
370
    50
100
AcDbVertex
100
AcDb2dVertex
 10
49.935546
 20
63.957689
 30
0.0
  0
VERTEX
  5
339
330
335
100
AcDbEntity
  8
001
370
    50
100
AcDbVertex
100
AcDb2dVertex
 10
49.687214
 20
63.788547
 30
0.0
  0
SEQEND
  5
336
330
335
100
AcDbEntity
  8
001
370
    50
  0
POLYLINE
  5
33A
330
1F
100
AcDbEntity
  8
001
370
    50
100
AcDb2dPolyline
 66
     1
 10
0.0
 20
0.0
 30
0.0
  0
VERTEX
  5
33C
330
33A
100
AcDbEntity
  8
001
370
    50
100
AcDbVertex
100
AcDb2dVertex
 10
51.8316
 20
59.902265
 30
0.0
  0
VERTEX
  5
33D
330
33A
100
AcDbEntity
  8
001
370
    50
100
AcDbVertex
100
AcDb2dVertex
 10
51.989944
 20
59.959687
 30
0.0
  0
VERTEX
  5
33E
330
33A
100
AcDbEntity
  8
001
370
    50
100
AcDbVertex
100
AcDb2dVertex
 10
52.161672
 20
60.031449
 30
0.0
  0
VERTEX
  5
33F
330
33A
100
AcDbEntity
  8
001
370
    50
100
AcDbVertex
100
AcDb2dVertex
 10
52.36837
 20
60.140914
 30
0.0
  0
VERTEX
  5
340
330
33A
100
AcDbEntity
  8
001
370
    50
100
AcDbVertex
100
AcDb2dVertex
 10
52.546016
 20
60.262928
 30
0.0
  0
VERTEX
  5
341
330
33A
100
AcDbEntity
  8
001
370
    50
100
AcDbVertex
100
AcDb2dVertex
 10
52.718725
 20
60.403688
 30
0.0
  0
VERTEX
  5
342
330
33A
100
AcDbEntity
  8
001
370
    50
100
AcDbVertex
100
AcDb2dVertex
 10
52.882824
 20
60.561138
 30
0.0
  0
VERTEX
  5
343
330
33A
100
AcDbEntity
  8
001
370
    50
100
AcDbVertex
100
AcDb2dVertex
 10
53.03062
 20
60.73258
 30
0.0
  0
VERTEX
  5
344
330
33A
100
AcDbEntity
  8
001
370
    50
100
AcDbVertex
100
AcDb2dVertex
 10
53.161001
 20
60.916254
 30
0.0
  0
VERTEX
  5
345
330
33A
100
AcDbEntity
  8
001
370
    50
100
AcDbVertex
100
AcDb2dVertex
 10
53.275029
 20
61.111628
 30
0.0
  0
VERTEX
  5
346
330
33A
100
AcDbEntity
  8
001
370
    50
100
AcDbVertex
100
AcDb2dVertex
 10
53.371382
 20
61.316578
 30
0.0
  0
VERTEX
  5
347
330
33A
100
AcDbEntity
  8
001
370
    50
100
AcDbVertex
100
AcDb2dVertex
 10
53.448959
 20
61.529719
 30
0.0
  0
VERTEX
  5
348
330
33A
100
AcDbEntity
  8
001
370
    50
100
AcDbVertex
100
AcDb2dVertex
 10
53.507037
 20
61.748922
 30
0.0
  0
VERTEX
  5
349
330
33A
100
AcDbEntity
  8
001
370
    50
100
AcDbVertex
100
AcDb2dVertex
 10
53.54533
 20
61.972715
 30
0.0
  0
VERTEX
  5
34A
330
33A
100
AcDbEntity
  8
001
370
    50
100
AcDbVertex
100
AcDb2dVertex
 10
53.563497
 20
62.199043
 30
0.0
  0
VERTEX
  5
34B
330
33A
100
AcDbEntity
  8
001
370
    50
100
AcDbVertex
100
AcDb2dVertex
 10
53.561345
 20
62.426128
 30
0.0
  0
VERTEX
  5
34C
330
33A
100
AcDbEntity
  8
001
370
    50
100
AcDbVertex
100
AcDb2dVertex
 10
53.538902
 20
62.652112
 30
0.0
  0
VERTEX
  5
34D
330
33A
100
AcDbEntity
  8
001
370
    50
100
AcDbVertex
100
AcDb2dVertex
 10
53.496354
 20
62.87501
 30
0.0
  0
VERTEX
  5
34E
330
33A
100
AcDbEntity
  8
001
370
    50
100
AcDbVertex
100
AcDb2dVertex
 10
53.434062
 20
63.093204
 30
0.0
  0
VERTEX
  5
34F
330
33A
100
AcDbEntity
  8
001
370
    50
100
AcDbVertex
100
AcDb2dVertex
 10
53.352619
 20
63.304574
 30
0.0
  0
VERTEX
  5
350
330
33A
100
AcDbEntity
  8
001
370
    50
100
AcDbVertex
100
AcDb2dVertex
 10
53.252431
 20
63.507789
 30
0.0
  0
VERTEX
  5
351
330
33A
100
AcDbEntity
  8
001
370
    50
100
AcDbVertex
100
AcDb2dVertex
 10
53.134487
 20
63.70073
 30
0.0
  0
VERTEX
  5
352
330
33A
100
AcDbEntity
  8
001
370
    50
100
AcDbVertex
100
AcDb2dVertex
 10
52.999993
 20
63.882207
 30
0.0
  0
VERTEX
  5
353
330
33A
100
AcDbEntity
  8
001
370
    50
100
AcDbVertex
100
AcDb2dVertex
 10
52.850523
 20
64.050213
 30
0.0
  0
VERTEX
  5
354
330
33A
100
AcDbEntity
  8
001
370
    50
100
AcDbVertex
100
AcDb2dVertex
 10
52.685063
 20
64.204125
 30
0.0
  0
VERTEX
  5
355
330
33A
100
AcDbEntity
  8
001
370
    50
100
AcDbVertex
100
AcDb2dVertex
 10
52.504913
 20
64.342311
 30
0.0
  0
VERTEX
  5
356
330
33A
100
AcDbEntity
  8
001
370
    50
100
AcDbVertex
100
AcDb2dVertex
 10
52.318017
 20
64.462938
 30
0.0
  0
VERTEX
  5
357
330
33A
100
AcDbEntity
  8
001
370
    50
100
AcDbVertex
100
AcDb2dVertex
 10
52.128214
 20
64.564396
 30
0.0
  0
VERTEX
  5
358
330
33A
100
AcDbEntity
  8
001
370
    50
100
AcDbVertex
100
AcDb2dVertex
 10
51.910946
 20
64.650119
 30
0.0
  0
VERTEX
  5
359
330
33A
100
AcDbEntity
  8
001
370
    50
100
AcDbVertex
100
AcDb2dVertex
 10
51.661496
 20
64.720281
 30
0.0
  0
VERTEX
  5
35A
330
33A
100
AcDbEntity
  8
001
370
    50
100
AcDbVertex
100
AcDb2dVertex
 10
51.47726
 20
64.759502
 30
0.0
  0
SEQEND
  5
33B
330
33A
100
AcDbEntity
  8
001
370
    50
  0
POLYLINE
  5
35B
330
1F
100
AcDbEntity
  8
001
370
    50
100
AcDb2dPolyline
 66
     1
 10
0.0
 20
0.0
 30
0.0
  0
VERTEX
  5
35D
330
35B
100
AcDbEntity
  8
001
370
    50
100
AcDbVertex
100
AcDb2dVertex
 10
51.8316
 20
59.889894
 30
0.0
  0
VERTEX
  5
35E
330
35B
100
AcDbEntity
  8
001
370
    50
100
AcDbVertex
100
AcDb2dVertex
 10
52.18767
 20
59.965526
 30
0.0
  0
VERTEX
  5
35F
330
35B
100
AcDbEntity
  8
001
370
    50
100
AcDbVertex
100
AcDb2dVertex
 10
52.634657
 20
60.093008
 30
0.0
  0
VERTEX
  5
360
330
35B
100
AcDbEntity
  8
001
370
    50
100
AcDbVertex
100
AcDb2dVertex
 10
53.106275
 20
60.279985
 30
0.0
  0
VERTEX
  5
361
330
35B
100
AcDbEntity
  8
001
370
    50
100
AcDbVertex
100
AcDb2dVertex
 10
53.418659
 20
60.433366
 30
0.0
  0
SEQEND
  5
35C
330
35B
100
AcDbEntity
  8
001
370
    50
  0
POLYLINE
  5
362
330
1F
100
AcDbEntity
  8
001
370
    50
100
AcDb2dPolyline
 66
     1
 10
0.0
 20
0.0
 30
0.0
  0
VERTEX
  5
364
330
362
100
AcDbEntity
  8
001
370
    50
100
AcDbVertex
100
AcDb2dVertex
 10
53.418659
 20
60.433366
 30
0.0
  0
VERTEX
  5
365
330
362
100
AcDbEntity
  8
001
370
    50
100
AcDbVertex
100
AcDb2dVertex
 10
53.299874
 20
59.144132
 30
0.0
  0
VERTEX
  5
366
330
362
100
AcDbEntity
  8
001
370
    50
100
AcDbVertex
100
AcDb2dVertex
 10
53.131601
 20
57.243233
 30
0.0
  0
SEQEND
  5
363
330
362
100
AcDbEntity
  8
001
370
    50
  0
POLYLINE
  5
367
330
1F
100
AcDbEntity
  8
001
370
    50
100
AcDb2dPolyline
 66
     1
 10
0.0
 20
0.0
 30
0.0
  0
VERTEX
  5
369
330
367
100
AcDbEntity
  8
001
370
    50
100
AcDbVertex
100
AcDb2dVertex
 10
52.752689
 20
52.522122
 30
0.0
  0
VERTEX
  5
36A
330
367
100
AcDbEntity
  8
001
370
    50
100
AcDbVertex
100
AcDb2dVertex
 10
52.73314
 20
52.260156
 30
0.0
  0
VERTEX
  5
36B
330
367
100
AcDbEntity
  8
001
370
    50
100
AcDbVertex
100
AcDb2dVertex
 10
52.717224
 20
52.044818
 30
0.0
  0
SEQEND
  5
368
330
367
100
AcDbEntity
  8
001
370
    50
  0
LINE
  5
36C
330
1F
100
AcDbEntity
  8
001
370
    50
100
AcDbLine
 10
51.742454
 20
52.347812
 30
0.0
 11
51.742454
 21
52.408602
 31
0.0
  0
POLYLINE
  5
36D
330
1F
100
AcDbEntity
  8
001
370
    50
100
AcDb2dPolyline
 66
     1
 10
0.0
 20
0.0
 30
0.0
  0
VERTEX
  5
36F
330
36D
100
AcDbEntity
  8
001
370
    50
100
AcDbVertex
100
AcDb2dVertex
 10
48.521186
 20
52.23582
 30
0.0
  0
VERTEX
  5
370
330
36D
100
AcDbEntity
  8
001
370
    50
100
AcDbVertex
100
AcDb2dVertex
 10
50.439114
 20
52.300062
 30
0.0
  0
VERTEX
  5
371
330
36D
100
AcDbEntity
  8
001
370
    50
100
AcDbVertex
100
AcDb2dVertex
 10
51.742454
 20
52.347812
 30
0.0
  0
SEQEND
  5
36E
330
36D
100
AcDbEntity
  8
001
370
    50
  0
LINE
  5
372
330
1F
100
AcDbEntity
  8
001
370
    50
100
AcDbLine
 10
42.424542
 20
74.551427
 30
0.0
 11
42.424542
 21
81.904738
 31
0.0
  0
LINE
  5
373
330
1F
100
AcDbEntity
  8
001
370
    50
100
AcDbLine
 10
184.624542
 20
66.954738
 30
0.0
 11
188.088644
 21
68.954738
 31
0.0
  0
LINE
  5
374
330
1F
100
AcDbEntity
  8
001
370
    50
100
AcDbLine
 10
184.624542
 20
66.954738
 30
0.0
 11
188.088644
 21
64.954738
 31
0.0
  0
LINE
  5
375
330
1F
100
AcDbEntity
  8
001
  6
CENTER
370
     9
100
AcDbLine
 10
38.431519
 20
66.954738
 30
0.0
 11
187.762342
 21
66.954738
 31
0.0
  0
ARC
  5
376
330
1F
100
AcDbEntity
  8
001
370
    50
100
AcDbCircle
 10
46.824115
 20
58.940578
 30
0.0
 40
0.3950000000000001
100
AcDbArc
 50
13.633617
 51
166.366383
  0
ARC
  5
377
330
1F
100
AcDbEntity
  8
001
370
    50
100
AcDbCircle
 10
45.76336
 20
59.197861
 30
0.0
 40
0.6965113125890092
100
AcDbArc
 50
253.633617
 51
346.366383
  0
ARC
  5
378
330
1F
100
AcDbEntity
  8
001
370
    50
100
AcDbCircle
 10
45.455795
 20
58.150578
 30
0.0
 40
0.3950000000000001
100
AcDbArc
 50
73.633617
 51
226.366383
  0
ARC
  5
379
330
1F
100
AcDbEntity
  8
001
370
    50
100
AcDbCircle
 10
44.702604
 20
57.360578
 30
0.0
 40
0.6965113125890092
100
AcDbArc
 50
313.633617
 51
46.366383
  0
ARC
  5
37A
330
1F
100
AcDbEntity
  8
001
370
    50
100
AcDbCircle
 10
45.455795
 20
56.570578
 30
0.0
 40
0.3950000000000001
100
AcDbArc
 50
133.633617
 51
286.366383
  0
ARC
  5
37B
330
1F
100
AcDbEntity
  8
001
370
    50
100
AcDbCircle
 10
45.76336
 20
55.523296
 30
0.0
 40
0.6965113125890092
100
AcDbArc
 50
13.633617
 51
106.366383
  0
ARC
  5
37C
330
1F
100
AcDbEntity
  8
001
370
    50
100
AcDbCircle
 10
46.824115
 20
55.780578
 30
0.0
 40
0.3950000000000001
100
AcDbArc
 50
193.633617
 51
346.366383
  0
ARC
  5
37D
330
1F
100
AcDbEntity
  8
001
370
    50
100
AcDbCircle
 10
47.884871
 20
55.523296
 30
0.0
 40
0.6965113125890092
100
AcDbArc
 50
73.633617
 51
166.366383
  0
ARC
  5
37E
330
1F
100
AcDbEntity
  8
001
370
    50
100
AcDbCircle
 10
48.192435
 20
56.570578
 30
0.0
 40
0.3950000000000001
100
AcDbArc
 50
253.633617
 51
46.366383
  0
ARC
  5
37F
330
1F
100
AcDbEntity
  8
001
370
    50
100
AcDbCircle
 10
48.945627
 20
57.360578
 30
0.0
 40
0.6965113125890092
100
AcDbArc
 50
133.633617
 51
226.366383
  0
ARC
  5
380
330
1F
100
AcDbEntity
  8
001
370
    50
100
AcDbCircle
 10
48.192435
 20
58.150578
 30
0.0
 40
0.3950000000000001
100
AcDbArc
 50
313.633617
 51
106.366383
  0
ARC
  5
381
330
1F
100
AcDbEntity
  8
001
370
    50
100
AcDbCircle
 10
47.884871
 20
59.197861
 30
0.0
 40
0.6965113125890092
100
AcDbArc
 50
193.633617
 51
286.366383
  0
CIRCLE
  5
382
330
1F
100
AcDbEntity
  8
001
370
    50
100
AcDbCircle
 10
46.824115
 20
57.360578
 30
0.0
 40
3.1
  0
LINE
  5
383
330
1F
100
AcDbEntity
  8
001
370
    50
100
AcDbLine
 10
40.624542
 20
61.674492
 30
0.0
 11
40.624542
 21
56.754738
 31
0.0
  0
LINE
  5
384
330
1F
100
AcDbEntity
  8
001
370
    50
100
AcDbLine
 10
41.924543
 20
55.454738
 30
0.0
 11
40.624542
 21
56.754738
 31
0.0
  0
ARC
  5
385
330
1F
100
AcDbEntity
  8
001
370
    50
100
AcDbCircle
 10
42.724543
 20
51.754738
 30
0.0
 40
0.8
100
AcDbArc
 50
180.0
 51
270.0
  0
ENDSEC
  0
SECTION
  2
OBJECTS
  0
DICTIONARY
  5
C
330
0
100
AcDbDictionary
281
     1
  3
ACAD_GROUP
350
D
  3
ACAD_LAYOUT
350
1A
  3
ACAD_MLEADERSTYLE
350
389
  3
ACAD_MLINESTYLE
350
17
  3
ACAD_PLOTSETTINGS
350
19
  3
ACAD_PLOTSTYLENAME
350
E
  3
ACAD_SCALELIST
350
3B
  3
ACAD_TABLESTYLE
350
388
  3
ACAD_VISUALSTYLE
350
2A
  3
AcDbVariableDictionary
350
386
  0
DICTIONARY
  5
D
102
{ACAD_REACTORS
330
C
102
}
330
C
100
AcDbDictionary
281
     1
  0
DICTIONARY
  5
1A
102
{ACAD_REACTORS
330
C
102
}
330
C
100
AcDbDictionary
281
     1
  3
Layout1
350
1E
  3
Layout2
350
26
  3
Model
350
22
  0
DICTIONARY
  5
389
102
{ACAD_REACTORS
330
C
102
}
330
C
100
AcDbDictionary
281
     1
  0
DICTIONARY
  5
17
102
{ACAD_REACTORS
330
C
102
}
330
C
100
AcDbDictionary
281
     1
  3
Standard
350
18
  0
DICTIONARY
  5
19
102
{ACAD_REACTORS
330
C
102
}
330
C
100
AcDbDictionary
281
     1
  0
ACDBDICTIONARYWDFLT
  5
E
102
{ACAD_REACTORS
330
C
102
}
330
C
100
AcDbDictionary
281
     1
  3
Normal
350
F
100
AcDbDictionaryWithDefault
340
F
  0
DICTIONARY
  5
3B
102
{ACAD_REACTORS
330
C
102
}
330
C
100
AcDbDictionary
281
     1
  3
A0
350
3C
  3
A1
350
3D
  3
A2
350
3E
  3
A3
350
3F
  3
A4
350
40
  3
A5
350
41
  3
A6
350
42
  3
A7
350
43
  3
A8
350
44
  3
A9
350
45
  3
B0
350
46
  3
B1
350
47
  3
B2
350
48
  3
B3
350
49
  3
B4
350
4A
  3
B5
350
4B
  3
B6
350
4C
  3
B7
350
4D
  3
B8
350
4E
  3
B9
350
4F
  3
C0
350
50
  3
C1
350
51
  3
C2
350
52
  3
C3
350
53
  3
C4
350
54
  3
C5
350
55
  3
C6
350
56
  3
C7
350
57
  3
C8
350
58
  3
C9
350
59
  3
D0
350
5A
  3
D1
350
5B
  3
D2
350
5C
  0
DICTIONARY
  5
388
102
{ACAD_REACTORS
330
C
102
}
330
C
100
AcDbDictionary
281
     1
  0
DICTIONARY
  5
2A
102
{ACAD_REACTORS
330
C
102
}
330
C
100
AcDbDictionary
281
     1
  3
2dWireframe
350
2F
  3
3D Hidden
350
31
  3
3dWireframe
350
30
  3
Basic
350
32
  3
Brighten
350
36
  3
ColorChange
350
3A
  3
Conceptual
350
34
  3
Dim
350
35
  3
Facepattern
350
39
  3
Flat
350
2B
  3
FlatWithEdges
350
2C
  3
Gouraud
350
2D
  3
GouraudWithEdges
350
2E
  3
Linepattern
350
38
  3
Realistic
350
33
  3
Thicken
350
37
  0
DICTIONARY
  5
386
102
{ACAD_REACTORS
330
C
102
}
330
C
100
AcDbDictionary
281
     1
  3
CANNOSCALE
350
387
  3
PSOLHEIGHT
350
38B
  3
PSOLWIDTH
350
38A
  0
LAYOUT
  5
1E
102
{ACAD_REACTORS
330
1A
102
}
330
1A
100
AcDbPlotSettings
  1

  2
none_device
  4

  6

 40
0.0
 41
0.0
 42
0.0
 43
0.0
 44
0.0
 45
0.0
 46
0.0
 47
0.0
 48
0.0
 49
0.0
140
0.0
141
0.0
142
1.0
143
1.0
 70
   688
 72
     0
 73
     0
 74
     5
  7

 75
    16
147
1.0
148
0.0
149
0.0
100
AcDbLayout
  1
Layout1
 70
     1
 71
     1
 10
0.0
 20
0.0
 11
12.0
 21
9.0
 12
0.0
 22
0.0
 32
0.0
 14
1.000000E+20
 24
1.000000E+20
 34
0.0
 15
-1.000000E+20
 25
-1.000000E+20
 35
0.0
146
0.0
 13
0.0
 23
0.0
 33
0.0
 16
1.0
 26
0.0
 36
0.0
 17
0.0
 27
1.0
 37
0.0
 76
     0
330
1B
  0
LAYOUT
  5
26
102
{ACAD_REACTORS
330
1A
102
}
330
1A
100
AcDbPlotSettings
  1

  2
none_device
  4

  6

 40
0.0
 41
0.0
 42
0.0
 43
0.0
 44
0.0
 45
0.0
 46
0.0
 47
0.0
 48
0.0
 49
0.0
140
0.0
141
0.0
142
1.0
143
1.0
 70
   688
 72
     0
 73
     0
 74
     5
  7

 75
    16
147
1.0
148
0.0
149
0.0
100
AcDbLayout
  1
Layout2
 70
     1
 71
     2
 10
0.0
 20
0.0
 11
0.0
 21
0.0
 12
0.0
 22
0.0
 32
0.0
 14
0.0
 24
0.0
 34
0.0
 15
0.0
 25
0.0
 35
0.0
146
0.0
 13
0.0
 23
0.0
 33
0.0
 16
1.0
 26
0.0
 36
0.0
 17
0.0
 27
1.0
 37
0.0
 76
     0
330
23
  0
LAYOUT
  5
22
102
{ACAD_REACTORS
330
1A
102
}
330
1A
100
AcDbPlotSettings
  1

  2
none_device
  4

  6

 40
0.0
 41
0.0
 42
0.0
 43
0.0
 44
0.0
 45
0.0
 46
0.0
 47
0.0
 48
0.0
 49
0.0
140
0.0
141
0.0
142
1.0
143
1.0
 70
  1712
 72
     0
 73
     0
 74
     0
  7

 75
     0
147
1.0
148
0.0
149
0.0
100
AcDbLayout
  1
Model
 70
     1
 71
     0
 10
0.0
 20
0.0
 11
12.0
 21
9.0
 12
0.0
 22
0.0
 32
0.0
 14
-0.079285
 24
11.037979
 34
0.0
 15
219.920715
 25
112.207176
 35
0.0
146
0.0
 13
0.0
 23
0.0
 33
0.0
 16
1.0
 26
0.0
 36
0.0
 17
0.0
 27
1.0
 37
0.0
 76
     0
330
1F
331
29
  0
MLINESTYLE
  5
18
102
{ACAD_REACTORS
330
17
102
}
330
17
100
AcDbMlineStyle
  2
Standard
 70
     0
  3

 62
   256
 51
90.0
 52
90.0
 71
     2
 49
0.5
 62
   256
  6
BYLAYER
 49
-0.5
 62
   256
  6
BYLAYER
  0
ACDBPLACEHOLDER
  5
F
102
{ACAD_REACTORS
330
E
102
}
330
E
  0
SCALE
  5
3C
102
{ACAD_REACTORS
330
3B
102
}
330
3B
100
AcDbScale
 70
     0
300
1:1
140
1.0
141
1.0
290
     1
  0
SCALE
  5
3D
102
{ACAD_REACTORS
330
3B
102
}
330
3B
100
AcDbScale
 70
     0
300
1:2
140
1.0
141
2.0
290
     0
  0
SCALE
  5
3E
102
{ACAD_REACTORS
330
3B
102
}
330
3B
100
AcDbScale
 70
     0
300
1:4
140
1.0
141
4.0
290
     0
  0
SCALE
  5
3F
102
{ACAD_REACTORS
330
3B
102
}
330
3B
100
AcDbScale
 70
     0
300
1:5
140
1.0
141
5.0
290
     0
  0
SCALE
  5
40
102
{ACAD_REACTORS
330
3B
102
}
330
3B
100
AcDbScale
 70
     0
300
1:8
140
1.0
141
8.0
290
     0
  0
SCALE
  5
41
102
{ACAD_REACTORS
330
3B
102
}
330
3B
100
AcDbScale
 70
     0
300
1:10
140
1.0
141
10.0
290
     0
  0
SCALE
  5
42
102
{ACAD_REACTORS
330
3B
102
}
330
3B
100
AcDbScale
 70
     0
300
1:16
140
1.0
141
16.0
290
     0
  0
SCALE
  5
43
102
{ACAD_REACTORS
330
3B
102
}
330
3B
100
AcDbScale
 70
     0
300
1:20
140
1.0
141
20.0
290
     0
  0
SCALE
  5
44
102
{ACAD_REACTORS
330
3B
102
}
330
3B
100
AcDbScale
 70
     0
300
1:30
140
1.0
141
30.0
290
     0
  0
SCALE
  5
45
102
{ACAD_REACTORS
330
3B
102
}
330
3B
100
AcDbScale
 70
     0
300
1:40
140
1.0
141
40.0
290
     0
  0
SCALE
  5
46
102
{ACAD_REACTORS
330
3B
102
}
330
3B
100
AcDbScale
 70
     0
300
1:50
140
1.0
141
50.0
290
     0
  0
SCALE
  5
47
102
{ACAD_REACTORS
330
3B
102
}
330
3B
100
AcDbScale
 70
     0
300
1:100
140
1.0
141
100.0
290
     0
  0
SCALE
  5
48
102
{ACAD_REACTORS
330
3B
102
}
330
3B
100
AcDbScale
 70
     0
300
2:1
140
2.0
141
1.0
290
     0
  0
SCALE
  5
49
102
{ACAD_REACTORS
330
3B
102
}
330
3B
100
AcDbScale
 70
     0
300
4:1
140
4.0
141
1.0
290
     0
  0
SCALE
  5
4A
102
{ACAD_REACTORS
330
3B
102
}
330
3B
100
AcDbScale
 70
     0
300
8:1
140
8.0
141
1.0
290
     0
  0
SCALE
  5
4B
102
{ACAD_REACTORS
330
3B
102
}
330
3B
100
AcDbScale
 70
     0
300
10:1
140
10.0
141
1.0
290
     0
  0
SCALE
  5
4C
102
{ACAD_REACTORS
330
3B
102
}
330
3B
100
AcDbScale
 70
     0
300
100:1
140
100.0
141
1.0
290
     0
  0
SCALE
  5
4D
102
{ACAD_REACTORS
330
3B
102
}
330
3B
100
AcDbScale
 70
     0
300
1/128" = 1'-0"
140
0.007812
141
12.0
290
     0
  0
SCALE
  5
4E
102
{ACAD_REACTORS
330
3B
102
}
330
3B
100
AcDbScale
 70
     0
300
1/64" = 1'-0"
140
0.015625
141
12.0
290
     0
  0
SCALE
  5
4F
102
{ACAD_REACTORS
330
3B
102
}
330
3B
100
AcDbScale
 70
     0
300
1/32" = 1'-0"
140
0.03125
141
12.0
290
     0
  0
SCALE
  5
50
102
{ACAD_REACTORS
330
3B
102
}
330
3B
100
AcDbScale
 70
     0
300
1/16" = 1'-0"
140
0.0625
141
12.0
290
     0
  0
SCALE
  5
51
102
{ACAD_REACTORS
330
3B
102
}
330
3B
100
AcDbScale
 70
     0
300
3/32" = 1'-0"
140
0.09375
141
12.0
290
     0
  0
SCALE
  5
52
102
{ACAD_REACTORS
330
3B
102
}
330
3B
100
AcDbScale
 70
     0
300
1/8" = 1'-0"
140
0.125
141
12.0
290
     0
  0
SCALE
  5
53
102
{ACAD_REACTORS
330
3B
102
}
330
3B
100
AcDbScale
 70
     0
300
3/16" = 1'-0"
140
0.1875
141
12.0
290
     0
  0
SCALE
  5
54
102
{ACAD_REACTORS
330
3B
102
}
330
3B
100
AcDbScale
 70
     0
300
1/4" = 1'-0"
140
0.25
141
12.0
290
     0
  0
SCALE
  5
55
102
{ACAD_REACTORS
330
3B
102
}
330
3B
100
AcDbScale
 70
     0
300
3/8" = 1'-0"
140
0.375
141
12.0
290
     0
  0
SCALE
  5
56
102
{ACAD_REACTORS
330
3B
102
}
330
3B
100
AcDbScale
 70
     0
300
1/2" = 1'-0"
140
0.5
141
12.0
290
     0
  0
SCALE
  5
57
102
{ACAD_REACTORS
330
3B
102
}
330
3B
100
AcDbScale
 70
     0
300
3/4" = 1'-0"
140
0.75
141
12.0
290
     0
  0
SCALE
  5
58
102
{ACAD_REACTORS
330
3B
102
}
330
3B
100
AcDbScale
 70
     0
300
1" = 1'-0"
140
1.0
141
12.0
290
     0
  0
SCALE
  5
59
102
{ACAD_REACTORS
330
3B
102
}
330
3B
100
AcDbScale
 70
     0
300
1-1/2" = 1'-0"
140
1.5
141
12.0
290
     0
  0
SCALE
  5
5A
102
{ACAD_REACTORS
330
3B
102
}
330
3B
100
AcDbScale
 70
     0
300
3" = 1'-0"
140
3.0
141
12.0
290
     0
  0
SCALE
  5
5B
102
{ACAD_REACTORS
330
3B
102
}
330
3B
100
AcDbScale
 70
     0
300
6" = 1'-0"
140
6.0
141
12.0
290
     0
  0
SCALE
  5
5C
102
{ACAD_REACTORS
330
3B
102
}
330
3B
100
AcDbScale
 70
     0
300
1'-0" = 1'-0"
140
12.0
141
12.0
290
     0
  0
VISUALSTYLE
  5
2F
102
{ACAD_REACTORS
330
2A
102
}
330
2A
100
AcDbVisualStyle
  2
2dWireframe
 70
     4
 71
     0
 72
     2
 73
     0
 90
        0
 40
-0.6
 41
-30.0
 62
     5
 63
     7
 74
     1
 91
        4
 64
     7
 65
   257
 75
     1
175
     1
 42
1.0
 92
        0
 66
   257
 43
1.0
 76
     1
 77
     6
 78
     2
 67
     7
 79
     5
170
     0
171
     0
290
     0
174
     0
 93
        1
 44
0.0
173
     0
291
     0
 45
0.0
1001
ACAD
1000
AcDbSavedByObjectVersion
1070
     0
  0
VISUALSTYLE
  5
31
102
{ACAD_REACTORS
330
2A
102
}
330
2A
100
AcDbVisualStyle
  2
3D Hidden
 70
     6
 71
     1
 72
     2
 73
     2
 90
        0
 40
-0.6
 41
-30.0
 62
     5
 63
     7
 74
     2
 91
        2
 64
     7
 65
   257
 75
     2
175
     1
 42
40.0
 92
        0
 66
   257
 43
1.0
 76
     1
 77
     6
 78
     2
 67
     7
 79
     3
170
     0
171
     0
290
     0
174
     0
 93
        1
 44
0.0
173
     0
291
     0
 45
0.0
1001
ACAD
1000
AcDbSavedByObjectVersion
1070
     0
  0
VISUALSTYLE
  5
30
102
{ACAD_REACTORS
330
2A
102
}
330
2A
100
AcDbVisualStyle
  2
3dWireframe
 70
     5
 71
     0
 72
     2
 73
     0
 90
        0
 40
-0.6
 41
-30.0
 62
     5
 63
     7
 74
     1
 91
        4
 64
     7
 65
   257
 75
     1
175
     1
 42
1.0
 92
        0
 66
   257
 43
1.0
 76
     1
 77
     6
 78
     2
 67
     7
 79
     5
170
     0
171
     0
290
     0
174
     0
 93
        1
 44
0.0
173
     0
291
     0
 45
0.0
1001
ACAD
1000
AcDbSavedByObjectVersion
1070
     0
  0
VISUALSTYLE
  5
32
102
{ACAD_REACTORS
330
2A
102
}
330
2A
100
AcDbVisualStyle
  2
Basic
 70
     7
 71
     1
 72
     0
 73
     1
 90
        0
 40
-0.6
 41
-30.0
 62
     5
 63
     7
 74
     0
 91
        4
 64
     7
 65
   257
 75
     1
175
     1
 42
1.0
 92
        8
 66
     7
 43
1.0
 76
     1
 77
     6
 78
     2
 67
     7
 79
     5
170
     0
171
     0
290
     0
174
     0
 93
        1
 44
0.0
173
     0
291
     1
 45
0.0
1001
ACAD
1000
AcDbSavedByObjectVersion
1070
     0
  0
VISUALSTYLE
  5
36
102
{ACAD_REACTORS
330
2A
102
}
330
2A
100
AcDbVisualStyle
  2
Brighten
 70
    12
 71
     2
 72
     2
 73
     0
 90
        0
 40
-0.6
 41
-30.0
 62
     5
 63
     7
 74
     1
 91
        4
 64
     7
 65
   257
 75
     1
175
     1
 42
1.0
 92
        8
 66
     7
 43
1.0
 76
     1
 77
     6
 78
     2
 67
     7
 79
     5
170
     0
171
     0
290
     0
174
     0
 93
        1
 44
50.0
173
     0
291
     1
 45
0.0
1001
ACAD
1000
AcDbSavedByObjectVersion
1070
     0
  0
VISUALSTYLE
  5
3A
102
{ACAD_REACTORS
330
2A
102
}
330
2A
100
AcDbVisualStyle
  2
ColorChange
 70
    16
 71
     2
 72
     2
 73
     3
 90
        0
 40
-0.6
 41
-30.0
 62
     5
 63
     8
 74
     1
 91
        4
 64
     7
 65
   257
 75
     1
175
     1
 42
1.0
 92
        8
 66
     8
 43
1.0
 76
     1
 77
     6
 78
     2
 67
     7
 79
     5
170
     0
171
     0
290
     0
174
     0
 93
        1
 44
0.0
173
     0
291
     1
 45
0.0
1001
ACAD
1000
AcDbSavedByObjectVersion
1070
     0
  0
VISUALSTYLE
  5
34
102
{ACAD_REACTORS
330
2A
102
}
330
2A
100
AcDbVisualStyle
  2
Conceptual
 70
     9
 71
     3
 72
     2
 73
     0
 90
        0
 40
-0.6
 41
-30.0
 62
     5
 63
     7
 74
     2
 91
        2
 64
     7
 65
   257
 75
     1
175
     1
 42
40.0
 92
        8
 66
     7
 43
1.0
 76
     1
 77
     6
 78
     2
 67
     7
 79
     3
170
     0
171
     0
290
     0
174
     0
 93
        1
 44
0.0
173
     0
291
     0
 45
0.0
1001
ACAD
1000
AcDbSavedByObjectVersion
1070
     0
  0
VISUALSTYLE
  5
35
102
{ACAD_REACTORS
330
2A
102
}
330
2A
100
AcDbVisualStyle
  2
Dim
 70
    11
 71
     2
 72
     2
 73
     0
 90
        0
 40
-0.6
 41
-30.0
 62
     5
 63
     7
 74
     1
 91
        4
 64
     7
 65
   257
 75
     1
175
     1
 42
1.0
 92
        8
 66
     7
 43
1.0
 76
     1
 77
     6
 78
     2
 67
     7
 79
     5
170
     0
171
     0
290
     0
174
     0
 93
        1
 44
-50.0
173
     0
291
     1
 45
0.0
1001
ACAD
1000
AcDbSavedByObjectVersion
1070
     0
  0
VISUALSTYLE
  5
39
102
{ACAD_REACTORS
330
2A
102
}
330
2A
100
AcDbVisualStyle
  2
Facepattern
 70
    15
 71
     2
 72
     2
 73
     0
 90
        0
 40
-0.6
 41
-30.0
 62
     5
 63
     7
 74
     1
 91
        4
 64
     7
 65
   257
 75
     1
175
     1
 42
1.0
 92
        8
 66
     7
 43
1.0
 76
     1
 77
     6
 78
     2
 67
     7
 79
     5
170
     0
171
     0
290
     0
174
     0
 93
        1
 44
0.0
173
     0
291
     1
 45
0.0
1001
ACAD
1000
AcDbSavedByObjectVersion
1070
     0
  0
VISUALSTYLE
  5
2B
102
{ACAD_REACTORS
330
2A
102
}
330
2A
100
AcDbVisualStyle
  2
Flat
 70
     0
 71
     2
 72
     1
 73
     1
 90
        2
 40
-0.6
 41
30.0
 62
     5
 63
     7
 74
     0
 91
        4
 64
     7
 65
   257
 75
     1
175
     1
 42
1.0
 92
        8
 66
     7
 43
1.0
 76
     1
 77
     6
 78
     2
 67
     7
 79
     5
170
     0
171
     0
290
     0
174
     0
 93
       13
 44
0.0
173
     0
291
     1
 45
0.0
1001
ACAD
1000
AcDbSavedByObjectVersion
1070
     0
  0
VISUALSTYLE
  5
2C
102
{ACAD_REACTORS
330
2A
102
}
330
2A
100
AcDbVisualStyle
  2
FlatWithEdges
 70
     1
 71
     2
 72
     1
 73
     1
 90
        2
 40
-0.6
 41
30.0
 62
     5
 63
     7
 74
     1
 91
        4
 64
     7
 65
   257
 75
     1
175
     1
 42
1.0
 92
        0
 66
   257
 43
1.0
 76
     1
 77
     6
 78
     2
 67
     7
 79
     5
170
     0
171
     0
290
     0
174
     0
 93
       13
 44
0.0
173
     0
291
     1
 45
0.0
1001
ACAD
1000
AcDbSavedByObjectVersion
1070
     0
  0
VISUALSTYLE
  5
2D
102
{ACAD_REACTORS
330
2A
102
}
330
2A
100
AcDbVisualStyle
  2
Gouraud
 70
     2
 71
     2
 72
     2
 73
     1
 90
        2
 40
-0.6
 41
30.0
 62
     5
 63
     7
 74
     0
 91
        4
 64
     7
 65
   257
 75
     1
175
     1
 42
1.0
 92
        0
 66
     7
 43
1.0
 76
     1
 77
     6
 78
     2
 67
     7
 79
     5
170
     0
171
     0
290
     0
174
     0
 93
       13
 44
0.0
173
     0
291
     1
 45
0.0
1001
ACAD
1000
AcDbSavedByObjectVersion
1070
     0
  0
VISUALSTYLE
  5
2E
102
{ACAD_REACTORS
330
2A
102
}
330
2A
100
AcDbVisualStyle
  2
GouraudWithEdges
 70
     3
 71
     2
 72
     2
 73
     1
 90
        2
 40
-0.6
 41
30.0
 62
     5
 63
     7
 74
     1
 91
        4
 64
     7
 65
   257
 75
     1
175
     1
 42
1.0
 92
        0
 66
   257
 43
1.0
 76
     1
 77
     6
 78
     2
 67
     7
 79
     5
170
     0
171
     0
290
     0
174
     0
 93
       13
 44
0.0
173
     0
291
     1
 45
0.0
1001
ACAD
1000
AcDbSavedByObjectVersion
1070
     0
  0
VISUALSTYLE
  5
38
102
{ACAD_REACTORS
330
2A
102
}
330
2A
100
AcDbVisualStyle
  2
Linepattern
 70
    14
 71
     2
 72
     2
 73
     0
 90
        0
 40
-0.6
 41
-30.0
 62
     5
 63
     7
 74
     1
 91
        4
 64
     7
 65
   257
 75
     7
175
     7
 42
1.0
 92
        8
 66
     7
 43
1.0
 76
     1
 77
     6
 78
     2
 67
     7
 79
     5
170
     0
171
     0
290
     0
174
     0
 93
        1
 44
0.0
173
     0
291
     1
 45
0.0
1001
ACAD
1000
AcDbSavedByObjectVersion
1070
     0
  0
VISUALSTYLE
  5
33
102
{ACAD_REACTORS
330
2A
102
}
330
2A
100
AcDbVisualStyle
  2
Realistic
 70
     8
 71
     2
 72
     2
 73
     0
 90
        0
 40
-0.6
 41
-30.0
 62
     5
 63
     7
 74
     1
 91
        0
 64
     7
 65
   257
 75
     1
175
     1
 42
1.0
 92
        8
 66
     8
 43
1.0
 76
     1
 77
     6
 78
     2
 67
     7
 79
     5
170
     0
171
     0
290
     0
174
     0
 93
       13
 44
0.0
173
     0
291
     0
 45
0.0
1001
ACAD
1000
AcDbSavedByObjectVersion
1070
     0
  0
VISUALSTYLE
  5
37
102
{ACAD_REACTORS
330
2A
102
}
330
2A
100
AcDbVisualStyle
  2
Thicken
 70
    13
 71
     2
 72
     2
 73
     0
 90
        0
 40
-0.6
 41
-30.0
 62
     5
 63
     7
 74
     1
 91
        4
 64
     7
 65
   257
 75
     1
175
     1
 42
1.0
 92
       12
 66
     7
 43
1.0
 76
     1
 77
     6
 78
     2
 67
     7
 79
     5
170
     0
171
     0
290
     0
174
     0
 93
        1
 44
0.0
173
     0
291
     1
 45
0.0
1001
ACAD
1000
AcDbSavedByObjectVersion
1070
     0
  0
DICTIONARYVAR
  5
387
102
{ACAD_REACTORS
330
386
102
}
330
386
100
DictionaryVariables
280
     0
  1
1:1
  0
DICTIONARYVAR
  5
38B
102
{ACAD_REACTORS
330
386
102
}
330
386
100
DictionaryVariables
280
     0
  1
80.000000
  0
DICTIONARYVAR
  5
38A
102
{ACAD_REACTORS
330
386
102
}
330
386
100
DictionaryVariables
280
     0
  1
5.000000
  0
ENDSEC
  0
EOF
