  0
SECTION
  2
HEADER
  9
$ACADVER
  1
AC1015
  9
$ACADMAINTVER
 70
     6
  9
$DWGCODEPAGE
  3
ANSI_932
  9
$INSBASE
 10
0.0
 20
0.0
 30
0.0
  9
$EXTMIN
 10
25.800774
 20
-17.377594
 30
0.0
  9
$EXTMAX
 10
257.435394
 20
119.455841
 30
0.0
  9
$LIMMIN
 10
0.0
 20
0.0
  9
$LIMMAX
 10
12.0
 20
9.0
  9
$ORTHOMODE
 70
     0
  9
$REGENMODE
 70
     1
  9
$FILLMODE
 70
     1
  9
$QTEXTMODE
 70
     0
  9
$MIRRTEXT
 70
     1
  9
$LTSCALE
 40
2.690316
  9
$ATTMODE
 70
     1
  9
$TEXTSIZE
 40
3.2
  9
$TRACEWID
 40
1.0
  9
$TEXTSTYLE
  7
Standard
  9
$CLAYER
  8
0
  9
$CELTYPE
  6
ByLayer
  9
$CECOLOR
 62
   256
  9
$CELTSCALE
 40
1.0
  9
$DISPSILH
 70
     0
  9
$DIMSCALE
 40
1.0
  9
$DIMASZ
 40
2.5
  9
$DIMEXO
 40
0.625
  9
$DIMDLI
 40
3.75
  9
$DIMRND
 40
0.0
  9
$DIMDLE
 40
0.0
  9
$DIMEXE
 40
1.25
  9
$DIMTP
 40
0.0
  9
$DIMTM
 40
0.0
  9
$DIMTXT
 40
2.5
  9
$DIMCEN
 40
0.09
  9
$DIMTSZ
 40
0.0
  9
$DIMTOL
 70
     0
  9
$DIMLIM
 70
     0
  9
$DIMTIH
 70
     0
  9
$DIMTOH
 70
     0
  9
$DIMSE1
 70
     0
  9
$DIMSE2
 70
     0
  9
$DIMTAD
 70
     0
  9
$DIMZIN
 70
     8
  9
$DIMBLK
  1

  9
$DIMASO
 70
     1
  9
$DIMSHO
 70
     0
  9
$DIMPOST
  1

  9
$DIMAPOST
  1

  9
$DIMALT
 70
     0
  9
$DIMALTD
 70
     3
  9
$DIMALTF
 40
0.03937
  9
$DIMLFAC
 40
1.0
  9
$DIMTOFL
 70
     1
  9
$DIMTVP
 40
0.0
  9
$DIMTIX
 70
     0
  9
$DIMSOXD
 70
     0
  9
$DIMSAH
 70
     0
  9
$DIMBLK1
  1

  9
$DIMBLK2
  1

  9
$DIMSTYLE
  2
ISO-25
  9
$DIMCLRD
 70
     0
  9
$DIMCLRE
 70
     0
  9
$DIMCLRT
 70
     0
  9
$DIMTFAC
 40
1.0
  9
$DIMGAP
 40
0.625
  9
$DIMJUST
 70
     0
  9
$DIMSD1
 70
     0
  9
$DIMSD2
 70
     0
  9
$DIMTOLJ
 70
     0
  9
$DIMTZIN
 70
     8
  9
$DIMALTZ
 70
     0
  9
$DIMALTTZ
 70
     0
  9
$DIMUPT
 70
     0
  9
$DIMDEC
 70
     2
  9
$DIMTDEC
 70
     2
  9
$DIMALTU
 70
     2
  9
$DIMALTTD
 70
     3
  9
$DIMTXSTY
  7
Standard
  9
$DIMAUNIT
 70
     0
  9
$DIMADEC
 70
     0
  9
$DIMALTRND
 40
0.0
  9
$DIMAZIN
 70
     0
  9
$DIMDSEP
 70
    44
  9
$DIMATFIT
 70
     3
  9
$DIMFRAC
 70
     0
  9
$DIMLDRBLK
  1

  9
$DIMLUNIT
 70
     2
  9
$DIMLWD
 70
    -2
  9
$DIMLWE
 70
    -2
  9
$DIMTMOVE
 70
     0
  9
$LUNITS
 70
     2
  9
$LUPREC
 70
     4
  9
$SKETCHINC
 40
1.0
  9
$FILLETRAD
 40
0.0
  9
$AUNITS
 70
     0
  9
$AUPREC
 70
     0
  9
$MENU
  1
.
  9
$ELEVATION
 40
0.0
  9
$PELEVATION
 40
0.0
  9
$THICKNESS
 40
0.0
  9
$LIMCHECK
 70
     0
  9
$CHAMFERA
 40
10.0
  9
$CHAMFERB
 40
10.0
  9
$CHAMFERC
 40
20.0
  9
$CHAMFERD
 40
0.0
  9
$SKPOLY
 70
     0
  9
$TDCREATE
 40
2454798.571929063
  9
$TDUCREATE
 40
2454798.196929063
  9
$TDUPDATE
 40
2454798.571929074
  9
$TDUUPDATE
 40
2454798.196929074
  9
$TDINDWG
 40
0.0000000116
  9
$TDUSRTIMER
 40
0.0000000116
  9
$USRTIMER
 70
     1
  9
$ANGBASE
 50
0.0
  9
$ANGDIR
 70
     0
  9
$PDMODE
 70
     0
  9
$PDSIZE
 40
0.0
  9
$PLINEWID
 40
0.0
  9
$SPLFRAME
 70
     0
  9
$SPLINETYPE
 70
     6
  9
$SPLINESEGS
 70
     8
  9
$HANDSEED
  5
655
  9
$SURFTAB1
 70
     6
  9
$SURFTAB2
 70
     6
  9
$SURFTYPE
 70
     6
  9
$SURFU
 70
     6
  9
$SURFV
 70
     6
  9
$UCSBASE
  2

  9
$UCSNAME
  2

  9
$UCSORG
 10
0.0
 20
0.0
 30
0.0
  9
$UCSXDIR
 10
1.0
 20
0.0
 30
0.0
  9
$UCSYDIR
 10
0.0
 20
1.0
 30
0.0
  9
$UCSORTHOREF
  2

  9
$UCSORTHOVIEW
 70
     0
  9
$UCSORGTOP
 10
0.0
 20
0.0
 30
0.0
  9
$UCSORGBOTTOM
 10
0.0
 20
0.0
 30
0.0
  9
$UCSORGLEFT
 10
0.0
 20
0.0
 30
0.0
  9
$UCSORGRIGHT
 10
0.0
 20
0.0
 30
0.0
  9
$UCSORGFRONT
 10
0.0
 20
0.0
 30
0.0
  9
$UCSORGBACK
 10
0.0
 20
0.0
 30
0.0
  9
$PUCSBASE
  2

  9
$PUCSNAME
  2

  9
$PUCSORG
 10
0.0
 20
0.0
 30
0.0
  9
$PUCSXDIR
 10
1.0
 20
0.0
 30
0.0
  9
$PUCSYDIR
 10
0.0
 20
1.0
 30
0.0
  9
$PUCSORTHOREF
  2

  9
$PUCSORTHOVIEW
 70
     0
  9
$PUCSORGTOP
 10
0.0
 20
0.0
 30
0.0
  9
$PUCSORGBOTTOM
 10
0.0
 20
0.0
 30
0.0
  9
$PUCSORGLEFT
 10
0.0
 20
0.0
 30
0.0
  9
$PUCSORGRIGHT
 10
0.0
 20
0.0
 30
0.0
  9
$PUCSORGFRONT
 10
0.0
 20
0.0
 30
0.0
  9
$PUCSORGBACK
 10
0.0
 20
0.0
 30
0.0
  9
$USERI1
 70
     0
  9
$USERI2
 70
     0
  9
$USERI3
 70
     0
  9
$USERI4
 70
     0
  9
$USERI5
 70
     0
  9
$USERR1
 40
0.0
  9
$USERR2
 40
0.0
  9
$USERR3
 40
0.0
  9
$USERR4
 40
0.0
  9
$USERR5
 40
0.0
  9
$WORLDVIEW
 70
     1
  9
$SHADEDGE
 70
     3
  9
$SHADEDIF
 70
    70
  9
$TILEMODE
 70
     1
  9
$MAXACTVP
 70
    64
  9
$PINSBASE
 10
0.0
 20
0.0
 30
0.0
  9
$PLIMCHECK
 70
     0
  9
$PEXTMIN
 10
1.000000E+20
 20
1.000000E+20
 30
0.0
  9
$PEXTMAX
 10
-1.000000E+20
 20
-1.000000E+20
 30
0.0
  9
$PLIMMIN
 10
0.0
 20
0.0
  9
$PLIMMAX
 10
12.0
 20
9.0
  9
$UNITMODE
 70
     0
  9
$VISRETAIN
 70
     1
  9
$PLINEGEN
 70
     0
  9
$PSLTSCALE
 70
     1
  9
$TREEDEPTH
 70
  3020
  9
$CMLSTYLE
  2
Standard
  9
$CMLJUST
 70
     0
  9
$CMLSCALE
 40
20.0
  9
$PROXYGRAPHICS
 70
     1
  9
$MEASUREMENT
 70
     1
  9
$CELWEIGHT
370
    -1
  9
$ENDCAPS
280
     0
  9
$JOINSTYLE
280
     0
  9
$LWDISPLAY
290
     0
  9
$INSUNITS
 70
     4
  9
$HYPERLINKBASE
  1

  9
$STYLESHEET
  1

  9
$XEDIT
290
     1
  9
$CEPSNTYPE
380
     0
  9
$PSTYLEMODE
290
     1
  9
$FINGERPRINTGUID
  2
{0CCB67AD-5C41-4138-9899-D9815B4C65C8}
  9
$VERSIONGUID
  2
{FAEB1C32-E019-11D5-929B-00C0DF256EC4}
  9
$EXTNAMES
290
     1
  9
$PSVPSCALE
 40
0.0
  9
$OLESTARTUP
290
     0
  0
ENDSEC
  0
SECTION
  2
CLASSES
  0
CLASS
  1
ACDBDICTIONARYWDFLT
  2
AcDbDictionaryWithDefault
  3
ObjectDBX Classes
 90
        0
280
     0
281
     0
  0
CLASS
  1
VISUALSTYLE
  2
AcDbVisualStyle
  3
ObjectDBX Classes
 90
     4095
280
     0
281
     0
  0
CLASS
  1
SCALE
  2
AcDbScale
  3
ObjectDBX Classes
 90
     1153
280
     0
281
     0
  0
CLASS
  1
DICTIONARYVAR
  2
AcDbDictionaryVar
  3
ObjectDBX Classes
 90
        0
280
     0
281
     0
  0
CLASS
  1
ACDBPLACEHOLDER
  2
AcDbPlaceHolder
  3
ObjectDBX Classes
 90
        0
280
     0
281
     0
  0
CLASS
  1
LAYOUT
  2
AcDbLayout
  3
ObjectDBX Classes
 90
        0
280
     0
281
     0
  0
ENDSEC
  0
SECTION
  2
TABLES
  0
TABLE
  2
VPORT
  5
8
330
0
100
AcDbSymbolTable
 70
     1
  0
VPORT
  5
29
330
8
100
AcDbSymbolTableRecord
100
AcDbViewportTableRecord
  2
*Active
 70
     0
 10
0.0
 20
0.0
 11
1.0
 21
1.0
 12
141.618084
 22
51.039124
 13
0.0
 23
0.0
 14
1.0
 24
1.0
 15
0.0
 25
0.0
 16
0.0
 26
0.0
 36
1.0
 17
0.0
 27
0.0
 37
0.0
 40
138.327102
 41
1.691288
 42
50.0
 43
0.0
 44
0.0
 50
0.0
 51
0.0
 71
     0
 72
   100
 73
     1
 74
     3
 75
     0
 76
     0
 77
     0
 78
     0
281
     0
 65
     1
110
0.0
120
0.0
130
0.0
111
1.0
121
0.0
131
0.0
112
0.0
122
1.0
132
0.0
 79
     0
146
0.0
  0
ENDTAB
  0
TABLE
  2
LTYPE
  5
5
330
0
100
AcDbSymbolTable
 70
     5
  0
LTYPE
  5
14
330
5
100
AcDbSymbolTableRecord
100
AcDbLinetypeTableRecord
  2
ByBlock
 70
     0
  3

 72
    65
 73
     0
 40
0.0
  0
LTYPE
  5
15
330
5
100
AcDbSymbolTableRecord
100
AcDbLinetypeTableRecord
  2
ByLayer
 70
     0
  3

 72
    65
 73
     0
 40
0.0
  0
LTYPE
  5
16
330
5
100
AcDbSymbolTableRecord
100
AcDbLinetypeTableRecord
  2
Continuous
 70
     0
  3
Solid line
 72
    65
 73
     0
 40
0.0
  0
LTYPE
  5
5D
330
5
100
AcDbSymbolTableRecord
100
AcDbLinetypeTableRecord
  2
DASHED
 70
     0
  3
DASHED
 72
    83
 73
     2
 40
0.75
 49
0.5
 74
     0
 49
-0.25
 74
     0
  0
LTYPE
  5
5E
330
5
100
AcDbSymbolTableRecord
100
AcDbLinetypeTableRecord
  2
HIDDEN
 70
     0
  3
HIDDEN
 72
    83
 73
     2
 40
0.375
 49
0.25
 74
     0
 49
-0.125
 74
     0
  0
LTYPE
  5
5F
330
5
100
AcDbSymbolTableRecord
100
AcDbLinetypeTableRecord
  2
CENTER
 70
     0
  3
CENTER
 72
    83
 73
     4
 40
2.0
 49
1.25
 74
     0
 49
-0.25
 74
     0
 49
0.25
 74
     0
 49
-0.25
 74
     0
  0
LTYPE
  5
60
330
5
100
AcDbSymbolTableRecord
100
AcDbLinetypeTableRecord
  2
PHANTOM
 70
     0
  3
PHANTOM
 72
    83
 73
     6
 40
2.5
 49
1.25
 74
     0
 49
-0.25
 74
     0
 49
0.25
 74
     0
 49
-0.25
 74
     0
 49
0.25
 74
     0
 49
-0.25
 74
     0
  0
ENDTAB
  0
TABLE
  2
LAYER
  5
2
330
0
100
AcDbSymbolTable
 70
     2
  0
LAYER
  5
10
330
2
100
AcDbSymbolTableRecord
100
AcDbLayerTableRecord
  2
0
 70
     0
 62
     7
  6
Continuous
370
    -3
390
F
  0
LAYER
  5
61
330
2
100
AcDbSymbolTableRecord
100
AcDbLayerTableRecord
  2
001
 70
     0
 62
     7
  6
Continuous
370
    -3
390
F
  0
ENDTAB
  0
TABLE
  2
STYLE
  5
3
330
0
100
AcDbSymbolTable
 70
     2
  0
STYLE
  5
11
330
3
100
AcDbSymbolTableRecord
100
AcDbTextStyleTableRecord
  2
Standard
 70
     0
 40
0.0
 41
1.0
 50
0.0
 71
     0
 42
0.2
  3
TXT
  4
BIGFONT
  0
STYLE
  5
62
330
3
100
AcDbSymbolTableRecord
100
AcDbTextStyleTableRecord
  2
TATEGAKI
 70
     4
 40
1.0
 41
1.0
 50
0.0
 71
     0
 42
0.2
  3
TXT
  4
BIGFONT
  0
ENDTAB
  0
TABLE
  2
VIEW
  5
6
330
0
100
AcDbSymbolTable
 70
     0
  0
ENDTAB
  0
TABLE
  2
UCS
  5
7
330
0
100
AcDbSymbolTable
 70
     0
  0
ENDTAB
  0
TABLE
  2
APPID
  5
9
330
0
100
AcDbSymbolTable
 70
     1
  0
APPID
  5
12
330
9
100
AcDbSymbolTableRecord
100
AcDbRegAppTableRecord
  2
ACAD
 70
     0
  0
ENDTAB
  0
TABLE
  2
DIMSTYLE
  5
A
330
0
100
AcDbSymbolTable
 70
     2
100
AcDbDimStyleTable
  0
DIMSTYLE
105
27
330
A
100
AcDbSymbolTableRecord
100
AcDbDimStyleTableRecord
  2
ISO-25
 70
     0
 41
2.5
 42
0.625
 43
3.75
 44
1.25
 73
     0
 74
     0
 77
     1
 78
     8
140
2.5
141
2.5
143
0.03937
147
0.625
171
     3
172
     1
271
     2
272
     2
274
     3
278
    44
283
     0
284
     8
340
11
  0
DIMSTYLE
105
63
102
{ACAD_REACTORS
330
16C
330
16D
330
17C
330
17D
330
17E
330
17F
330
180
330
181
330
182
330
183
330
184
330
185
330
186
102
}
330
A
100
AcDbSymbolTableRecord
100
AcDbDimStyleTableRecord
  2
Standard
 70
     0
 41
1.5
 42
0.0
 44
2.75
 73
     0
 74
     0
 77
     1
 78
     8
 79
     2
140
4.0
146
0.8
147
1.0
172
     1
179
     1
271
     1
340
11
  0
ENDTAB
  0
TABLE
  2
BLOCK_RECORD
  5
1
330
0
100
AcDbSymbolTable
 70
    14
  0
BLOCK_RECORD
  5
1F
330
1
100
AcDbSymbolTableRecord
100
AcDbBlockTableRecord
  2
*Model_Space
340
22
  0
BLOCK_RECORD
  5
1B
330
1
100
AcDbSymbolTableRecord
100
AcDbBlockTableRecord
  2
*Paper_Space
340
1E
  0
BLOCK_RECORD
  5
23
330
1
100
AcDbSymbolTableRecord
100
AcDbBlockTableRecord
  2
*Paper_Space0
340
26
  0
BLOCK_RECORD
  5
64
330
1
100
AcDbSymbolTableRecord
100
AcDbBlockTableRecord
  2
*D1
340
0
  0
BLOCK_RECORD
  5
78
330
1
100
AcDbSymbolTableRecord
100
AcDbBlockTableRecord
  2
*D2
340
0
  0
BLOCK_RECORD
  5
8C
330
1
100
AcDbSymbolTableRecord
100
AcDbBlockTableRecord
  2
*D3
340
0
  0
BLOCK_RECORD
  5
A0
330
1
100
AcDbSymbolTableRecord
100
AcDbBlockTableRecord
  2
*D4
340
0
  0
BLOCK_RECORD
  5
B4
330
1
100
AcDbSymbolTableRecord
100
AcDbBlockTableRecord
  2
*D5
340
0
  0
BLOCK_RECORD
  5
C8
330
1
100
AcDbSymbolTableRecord
100
AcDbBlockTableRecord
  2
*D6
340
0
  0
BLOCK_RECORD
  5
DC
330
1
100
AcDbSymbolTableRecord
100
AcDbBlockTableRecord
  2
*D7
340
0
  0
BLOCK_RECORD
  5
F2
330
1
100
AcDbSymbolTableRecord
100
AcDbBlockTableRecord
  2
*D8
340
0
  0
BLOCK_RECORD
  5
108
330
1
100
AcDbSymbolTableRecord
100
AcDbBlockTableRecord
  2
*D9
340
0
  0
BLOCK_RECORD
  5
11C
330
1
100
AcDbSymbolTableRecord
100
AcDbBlockTableRecord
  2
*D10
340
0
  0
BLOCK_RECORD
  5
130
330
1
100
AcDbSymbolTableRecord
100
AcDbBlockTableRecord
  2
*D11
340
0
  0
BLOCK_RECORD
  5
144
330
1
100
AcDbSymbolTableRecord
100
AcDbBlockTableRecord
  2
*D12
340
0
  0
BLOCK_RECORD
  5
158
330
1
100
AcDbSymbolTableRecord
100
AcDbBlockTableRecord
  2
*D13
340
0
  0
ENDTAB
  0
ENDSEC
  0
SECTION
  2
BLOCKS
  0
BLOCK
  5
20
330
1F
100
AcDbEntity
  8
0
100
AcDbBlockBegin
  2
*Model_Space
 70
     0
 10
0.0
 20
0.0
 30
0.0
  3
*Model_Space
  1

  0
ENDBLK
  5
21
330
1F
100
AcDbEntity
  8
0
100
AcDbBlockEnd
  0
BLOCK
  5
1C
330
1B
100
AcDbEntity
 67
     1
  8
0
100
AcDbBlockBegin
  2
*Paper_Space
 70
     0
 10
0.0
 20
0.0
 30
0.0
  3
*Paper_Space
  1

  0
ENDBLK
  5
1D
330
1B
100
AcDbEntity
 67
     1
  8
0
100
AcDbBlockEnd
  0
BLOCK
  5
24
330
23
100
AcDbEntity
  8
0
100
AcDbBlockBegin
  2
*Paper_Space0
 70
     0
 10
0.0
 20
0.0
 30
0.0
  3
*Paper_Space0
  1

  0
ENDBLK
  5
25
330
23
100
AcDbEntity
  8
0
100
AcDbBlockEnd
  0
BLOCK
  5
65
330
64
100
AcDbEntity
  8
0
100
AcDbBlockBegin
  2
*D1
 70
     1
 10
0.0
 20
0.0
 30
0.0
  3
*D1
  1

  0
LINE
  5
67
330
64
100
AcDbEntity
  8
001
370
     9
100
AcDbLine
 10
54.80077
 20
-4.9015
 30
0.0
 11
54.80077
 21
-13.22913
 31
0.0
  0
LINE
  5
68
330
64
100
AcDbEntity
  8
001
370
     9
100
AcDbLine
 10
36.80077
 20
-4.9015
 30
0.0
 11
36.80077
 21
-13.22913
 31
0.0
  0
LINE
  5
69
330
64
100
AcDbEntity
  8
001
370
     9
100
AcDbLine
 10
54.80077
 20
-11.657702
 30
0.0
 11
36.80077
 21
-11.657702
 31
0.0
  0
POLYLINE
  5
6A
330
64
100
AcDbEntity
  8
001
370
     9
100
AcDb2dPolyline
 66
     1
 10
0.0
 20
0.0
 30
0.0
  0
VERTEX
  5
6C
330
6A
100
AcDbEntity
  8
001
370
     9
100
AcDbVertex
100
AcDb2dVertex
 10
53.943628
 20
-11.428031
 30
0.0
  0
VERTEX
  5
6D
330
6A
100
AcDbEntity
  8
001
370
     9
100
AcDbVertex
100
AcDb2dVertex
 10
54.80077
 20
-11.657702
 30
0.0
  0
VERTEX
  5
6E
330
6A
100
AcDbEntity
  8
001
370
     9
100
AcDbVertex
100
AcDb2dVertex
 10
53.943628
 20
-11.887372
 30
0.0
  0
SEQEND
  5
6B
330
6A
100
AcDbEntity
  8
001
370
     9
  0
POLYLINE
  5
6F
330
64
100
AcDbEntity
  8
001
370
     9
100
AcDb2dPolyline
 66
     1
 10
0.0
 20
0.0
 30
0.0
  0
VERTEX
  5
71
330
6F
100
AcDbEntity
  8
001
370
     9
100
AcDbVertex
100
AcDb2dVertex
 10
37.657913
 20
-11.887372
 30
0.0
  0
VERTEX
  5
72
330
6F
100
AcDbEntity
  8
001
370
     9
100
AcDbVertex
100
AcDb2dVertex
 10
36.80077
 20
-11.657702
 30
0.0
  0
VERTEX
  5
73
330
6F
100
AcDbEntity
  8
001
370
     9
100
AcDbVertex
100
AcDb2dVertex
 10
37.657913
 20
-11.428031
 30
0.0
  0
SEQEND
  5
70
330
6F
100
AcDbEntity
  8
001
370
     9
  0
TEXT
  5
74
330
64
100
AcDbEntity
  8
001
370
    30
100
AcDbText
 10
42.372199
 20
-11.086273
 30
0.0
 40
2.285714
  1
%%c１８
 41
0.882353
100
AcDbText
  0
POINT
  5
75
330
64
100
AcDbEntity
  8
001
370
     9
100
AcDbPoint
 10
54.80077
 20
-4.9015
 30
0.0
  0
POINT
  5
76
330
64
100
AcDbEntity
  8
001
370
     9
100
AcDbPoint
 10
36.80077
 20
-4.9015
 30
0.0
  0
POINT
  5
77
330
64
100
AcDbEntity
  8
001
370
     9
100
AcDbPoint
 10
36.80077
 20
-11.657702
 30
0.0
  0
ENDBLK
  5
66
330
64
100
AcDbEntity
  8
0
100
AcDbBlockEnd
  0
BLOCK
  5
79
330
78
100
AcDbEntity
  8
0
100
AcDbBlockBegin
  2
*D2
 70
     1
 10
0.0
 20
0.0
 30
0.0
  3
*D2
  1

  0
LINE
  5
7B
330
78
100
AcDbEntity
  8
001
370
     9
100
AcDbLine
 10
65.80077
 20
22.0985
 30
0.0
 11
68.87916
 21
22.0985
 31
0.0
  0
LINE
  5
7C
330
78
100
AcDbEntity
  8
001
370
     9
100
AcDbLine
 10
58.80077
 20
4.5985
 30
0.0
 11
68.87916
 21
4.5985
 31
0.0
  0
LINE
  5
7D
330
78
100
AcDbEntity
  8
001
370
     9
100
AcDbLine
 10
67.307732
 20
22.0985
 30
0.0
 11
67.307732
 21
4.5985
 31
0.0
  0
POLYLINE
  5
7E
330
78
100
AcDbEntity
  8
001
370
     9
100
AcDb2dPolyline
 66
     1
 10
0.0
 20
0.0
 30
0.0
  0
VERTEX
  5
80
330
7E
100
AcDbEntity
  8
001
370
     9
100
AcDbVertex
100
AcDb2dVertex
 10
67.078061
 20
21.241357
 30
0.0
  0
VERTEX
  5
81
330
7E
100
AcDbEntity
  8
001
370
     9
100
AcDbVertex
100
AcDb2dVertex
 10
67.307732
 20
22.0985
 30
0.0
  0
VERTEX
  5
82
330
7E
100
AcDbEntity
  8
001
370
     9
100
AcDbVertex
100
AcDb2dVertex
 10
67.537403
 20
21.241357
 30
0.0
  0
SEQEND
  5
7F
330
7E
100
AcDbEntity
  8
001
370
     9
  0
POLYLINE
  5
83
330
78
100
AcDbEntity
  8
001
370
     9
100
AcDb2dPolyline
 66
     1
 10
0.0
 20
0.0
 30
0.0
  0
VERTEX
  5
85
330
83
100
AcDbEntity
  8
001
370
     9
100
AcDbVertex
100
AcDb2dVertex
 10
67.537403
 20
5.455643
 30
0.0
  0
VERTEX
  5
86
330
83
100
AcDbEntity
  8
001
370
     9
100
AcDbVertex
100
AcDb2dVertex
 10
67.307732
 20
4.5985
 30
0.0
  0
VERTEX
  5
87
330
83
100
AcDbEntity
  8
001
370
     9
100
AcDbVertex
100
AcDb2dVertex
 10
67.078061
 20
5.455643
 30
0.0
  0
SEQEND
  5
84
330
83
100
AcDbEntity
  8
001
370
     9
  0
TEXT
  5
88
330
78
100
AcDbEntity
  8
001
370
    30
100
AcDbText
 10
66.736303
 20
8.777072
 30
0.0
 40
2.285714
  1
１７．５
 50
90.000003
 41
0.833333
100
AcDbText
  0
POINT
  5
89
330
78
100
AcDbEntity
  8
001
370
     9
100
AcDbPoint
 10
65.80077
 20
22.0985
 30
0.0
  0
POINT
  5
8A
330
78
100
AcDbEntity
  8
001
370
     9
100
AcDbPoint
 10
58.80077
 20
4.5985
 30
0.0
  0
POINT
  5
8B
330
78
100
AcDbEntity
  8
001
370
     9
100
AcDbPoint
 10
67.307732
 20
4.5985
 30
0.0
  0
ENDBLK
  5
7A
330
78
100
AcDbEntity
  8
0
100
AcDbBlockEnd
  0
BLOCK
  5
8D
330
8C
100
AcDbEntity
  8
0
100
AcDbBlockBegin
  2
*D3
 70
     1
 10
0.0
 20
0.0
 30
0.0
  3
*D3
  1

  0
LINE
  5
8F
330
8C
100
AcDbEntity
  8
001
370
     9
100
AcDbLine
 10
32.80077
 20
21.0985
 30
0.0
 11
32.80077
 21
34.571652
 31
0.0
  0
LINE
  5
90
330
8C
100
AcDbEntity
  8
001
370
     9
100
AcDbLine
 10
58.80077
 20
21.0985
 30
0.0
 11
58.80077
 21
34.571652
 31
0.0
  0
LINE
  5
91
330
8C
100
AcDbEntity
  8
001
370
     9
100
AcDbLine
 10
32.80077
 20
33.000223
 30
0.0
 11
58.80077
 21
33.000223
 31
0.0
  0
POLYLINE
  5
92
330
8C
100
AcDbEntity
  8
001
370
     9
100
AcDb2dPolyline
 66
     1
 10
0.0
 20
0.0
 30
0.0
  0
VERTEX
  5
94
330
92
100
AcDbEntity
  8
001
370
     9
100
AcDbVertex
100
AcDb2dVertex
 10
33.657913
 20
32.770553
 30
0.0
  0
VERTEX
  5
95
330
92
100
AcDbEntity
  8
001
370
     9
100
AcDbVertex
100
AcDb2dVertex
 10
32.80077
 20
33.000223
 30
0.0
  0
VERTEX
  5
96
330
92
100
AcDbEntity
  8
001
370
     9
100
AcDbVertex
100
AcDb2dVertex
 10
33.657913
 20
33.229894
 30
0.0
  0
SEQEND
  5
93
330
92
100
AcDbEntity
  8
001
370
     9
  0
POLYLINE
  5
97
330
8C
100
AcDbEntity
  8
001
370
     9
100
AcDb2dPolyline
 66
     1
 10
0.0
 20
0.0
 30
0.0
  0
VERTEX
  5
99
330
97
100
AcDbEntity
  8
001
370
     9
100
AcDbVertex
100
AcDb2dVertex
 10
57.943628
 20
33.229894
 30
0.0
  0
VERTEX
  5
9A
330
97
100
AcDbEntity
  8
001
370
     9
100
AcDbVertex
100
AcDb2dVertex
 10
58.80077
 20
33.000223
 30
0.0
  0
VERTEX
  5
9B
330
97
100
AcDbEntity
  8
001
370
     9
100
AcDbVertex
100
AcDb2dVertex
 10
57.943628
 20
32.770553
 30
0.0
  0
SEQEND
  5
98
330
97
100
AcDbEntity
  8
001
370
     9
  0
TEXT
  5
9C
330
8C
100
AcDbEntity
  8
001
370
    30
100
AcDbText
 10
41.904427
 20
33.571652
 30
0.0
 40
2.285714
  1
%%c２６
 41
0.882353
100
AcDbText
  0
POINT
  5
9D
330
8C
100
AcDbEntity
  8
001
370
     9
100
AcDbPoint
 10
32.80077
 20
21.0985
 30
0.0
  0
POINT
  5
9E
330
8C
100
AcDbEntity
  8
001
370
     9
100
AcDbPoint
 10
58.80077
 20
21.0985
 30
0.0
  0
POINT
  5
9F
330
8C
100
AcDbEntity
  8
001
370
     9
100
AcDbPoint
 10
58.80077
 20
33.000223
 30
0.0
  0
ENDBLK
  5
8E
330
8C
100
AcDbEntity
  8
0
100
AcDbBlockEnd
  0
BLOCK
  5
A1
330
A0
100
AcDbEntity
  8
0
100
AcDbBlockBegin
  2
*D4
 70
     1
 10
0.0
 20
0.0
 30
0.0
  3
*D4
  1

  0
LINE
  5
A3
330
A0
100
AcDbEntity
  8
001
370
     9
100
AcDbLine
 10
96.392417
 20
54.475331
 30
0.0
 11
73.239925
 21
54.475331
 31
0.0
  0
LINE
  5
A4
330
A0
100
AcDbEntity
  8
001
370
     9
100
AcDbLine
 10
96.392417
 20
80.475331
 30
0.0
 11
73.239925
 21
80.475331
 31
0.0
  0
LINE
  5
A5
330
A0
100
AcDbEntity
  8
001
370
     9
100
AcDbLine
 10
75.989925
 20
54.475331
 30
0.0
 11
75.989925
 21
80.475331
 31
0.0
  0
POLYLINE
  5
A6
330
A0
100
AcDbEntity
  8
001
370
     9
100
AcDb2dPolyline
 66
     1
 10
0.0
 20
0.0
 30
0.0
  0
VERTEX
  5
A8
330
A6
100
AcDbEntity
  8
001
370
     9
100
AcDbVertex
100
AcDb2dVertex
 10
76.391848
 20
55.975331
 30
0.0
  0
VERTEX
  5
A9
330
A6
100
AcDbEntity
  8
001
370
     9
100
AcDbVertex
100
AcDb2dVertex
 10
75.989925
 20
54.475331
 30
0.0
  0
VERTEX
  5
AA
330
A6
100
AcDbEntity
  8
001
370
     9
100
AcDbVertex
100
AcDb2dVertex
 10
75.588001
 20
55.975331
 30
0.0
  0
SEQEND
  5
A7
330
A6
100
AcDbEntity
  8
001
370
     9
  0
POLYLINE
  5
AB
330
A0
100
AcDbEntity
  8
001
370
     9
100
AcDb2dPolyline
 66
     1
 10
0.0
 20
0.0
 30
0.0
  0
VERTEX
  5
AD
330
AB
100
AcDbEntity
  8
001
370
     9
100
AcDbVertex
100
AcDb2dVertex
 10
75.588001
 20
78.975331
 30
0.0
  0
VERTEX
  5
AE
330
AB
100
AcDbEntity
  8
001
370
     9
100
AcDbVertex
100
AcDb2dVertex
 10
75.989925
 20
80.475331
 30
0.0
  0
VERTEX
  5
AF
330
AB
100
AcDbEntity
  8
001
370
     9
100
AcDbVertex
100
AcDb2dVertex
 10
76.391848
 20
78.975331
 30
0.0
  0
SEQEND
  5
AC
330
AB
100
AcDbEntity
  8
001
370
     9
  0
TEXT
  5
B0
330
A0
100
AcDbEntity
  8
001
370
    30
100
AcDbText
 10
74.989925
 20
61.475331
 30
0.0
 40
4.0
  1
%%c２６
 50
90.000003
 41
0.882353
100
AcDbText
  0
POINT
  5
B1
330
A0
100
AcDbEntity
  8
001
370
     9
100
AcDbPoint
 10
96.392417
 20
54.475331
 30
0.0
  0
POINT
  5
B2
330
A0
100
AcDbEntity
  8
001
370
     9
100
AcDbPoint
 10
96.392417
 20
80.475331
 30
0.0
  0
POINT
  5
B3
330
A0
100
AcDbEntity
  8
001
370
     9
100
AcDbPoint
 10
75.989925
 20
80.475331
 30
0.0
  0
ENDBLK
  5
A2
330
A0
100
AcDbEntity
  8
0
100
AcDbBlockEnd
  0
BLOCK
  5
B5
330
B4
100
AcDbEntity
  8
0
100
AcDbBlockBegin
  2
*D5
 70
     1
 10
0.0
 20
0.0
 30
0.0
  3
*D5
  1

  0
LINE
  5
B7
330
B4
100
AcDbEntity
  8
001
370
     9
100
AcDbLine
 10
114.642417
 20
82.225331
 30
0.0
 11
61.21411
 21
82.225331
 31
0.0
  0
LINE
  5
B8
330
B4
100
AcDbEntity
  8
001
370
     9
100
AcDbLine
 10
114.642417
 20
52.725331
 30
0.0
 11
61.21411
 21
52.725331
 31
0.0
  0
LINE
  5
B9
330
B4
100
AcDbEntity
  8
001
370
     9
100
AcDbLine
 10
63.96411
 20
82.225331
 30
0.0
 11
63.96411
 21
52.725331
 31
0.0
  0
POLYLINE
  5
BA
330
B4
100
AcDbEntity
  8
001
370
     9
100
AcDb2dPolyline
 66
     1
 10
0.0
 20
0.0
 30
0.0
  0
VERTEX
  5
BC
330
BA
100
AcDbEntity
  8
001
370
     9
100
AcDbVertex
100
AcDb2dVertex
 10
63.562187
 20
80.725331
 30
0.0
  0
VERTEX
  5
BD
330
BA
100
AcDbEntity
  8
001
370
     9
100
AcDbVertex
100
AcDb2dVertex
 10
63.96411
 20
82.225331
 30
0.0
  0
VERTEX
  5
BE
330
BA
100
AcDbEntity
  8
001
370
     9
100
AcDbVertex
100
AcDb2dVertex
 10
64.366034
 20
80.725331
 30
0.0
  0
SEQEND
  5
BB
330
BA
100
AcDbEntity
  8
001
370
     9
  0
POLYLINE
  5
BF
330
B4
100
AcDbEntity
  8
001
370
     9
100
AcDb2dPolyline
 66
     1
 10
0.0
 20
0.0
 30
0.0
  0
VERTEX
  5
C1
330
BF
100
AcDbEntity
  8
001
370
     9
100
AcDbVertex
100
AcDb2dVertex
 10
64.366034
 20
54.225331
 30
0.0
  0
VERTEX
  5
C2
330
BF
100
AcDbEntity
  8
001
370
     9
100
AcDbVertex
100
AcDb2dVertex
 10
63.96411
 20
52.725331
 30
0.0
  0
VERTEX
  5
C3
330
BF
100
AcDbEntity
  8
001
370
     9
100
AcDbVertex
100
AcDb2dVertex
 10
63.562187
 20
54.225331
 30
0.0
  0
SEQEND
  5
C0
330
BF
100
AcDbEntity
  8
001
370
     9
  0
TEXT
  5
C4
330
B4
100
AcDbEntity
  8
001
370
    30
100
AcDbText
 10
62.96411
 20
57.475331
 30
0.0
 40
4.0
  1
%%c２９．５
 50
90.000003
 41
0.862069
100
AcDbText
  0
POINT
  5
C5
330
B4
100
AcDbEntity
  8
001
370
     9
100
AcDbPoint
 10
114.642417
 20
82.225331
 30
0.0
  0
POINT
  5
C6
330
B4
100
AcDbEntity
  8
001
370
     9
100
AcDbPoint
 10
114.642417
 20
52.725331
 30
0.0
  0
POINT
  5
C7
330
B4
100
AcDbEntity
  8
001
370
     9
100
AcDbPoint
 10
63.96411
 20
52.725331
 30
0.0
  0
ENDBLK
  5
B6
330
B4
100
AcDbEntity
  8
0
100
AcDbBlockEnd
  0
BLOCK
  5
C9
330
C8
100
AcDbEntity
  8
0
100
AcDbBlockBegin
  2
*D6
 70
     1
 10
0.0
 20
0.0
 30
0.0
  3
*D6
  1

  0
LINE
  5
CB
330
C8
100
AcDbEntity
  8
001
370
     9
100
AcDbLine
 10
115.573292
 20
84.355331
 30
0.0
 11
49.499309
 21
84.355331
 31
0.0
  0
LINE
  5
CC
330
C8
100
AcDbEntity
  8
001
370
     9
100
AcDbLine
 10
115.573292
 20
50.595331
 30
0.0
 11
49.499309
 21
50.595331
 31
0.0
  0
LINE
  5
CD
330
C8
100
AcDbEntity
  8
001
370
     9
100
AcDbLine
 10
52.249309
 20
84.355331
 30
0.0
 11
52.249309
 21
50.595331
 31
0.0
  0
POLYLINE
  5
CE
330
C8
100
AcDbEntity
  8
001
370
     9
100
AcDb2dPolyline
 66
     1
 10
0.0
 20
0.0
 30
0.0
  0
VERTEX
  5
D0
330
CE
100
AcDbEntity
  8
001
370
     9
100
AcDbVertex
100
AcDb2dVertex
 10
51.847385
 20
82.855331
 30
0.0
  0
VERTEX
  5
D1
330
CE
100
AcDbEntity
  8
001
370
     9
100
AcDbVertex
100
AcDb2dVertex
 10
52.249309
 20
84.355331
 30
0.0
  0
VERTEX
  5
D2
330
CE
100
AcDbEntity
  8
001
370
     9
100
AcDbVertex
100
AcDb2dVertex
 10
52.651233
 20
82.855331
 30
0.0
  0
SEQEND
  5
CF
330
CE
100
AcDbEntity
  8
001
370
     9
  0
POLYLINE
  5
D3
330
C8
100
AcDbEntity
  8
001
370
     9
100
AcDb2dPolyline
 66
     1
 10
0.0
 20
0.0
 30
0.0
  0
VERTEX
  5
D5
330
D3
100
AcDbEntity
  8
001
370
     9
100
AcDbVertex
100
AcDb2dVertex
 10
52.651233
 20
52.095331
 30
0.0
  0
VERTEX
  5
D6
330
D3
100
AcDbEntity
  8
001
370
     9
100
AcDbVertex
100
AcDb2dVertex
 10
52.249309
 20
50.595331
 30
0.0
  0
VERTEX
  5
D7
330
D3
100
AcDbEntity
  8
001
370
     9
100
AcDbVertex
100
AcDb2dVertex
 10
51.847385
 20
52.095331
 30
0.0
  0
SEQEND
  5
D4
330
D3
100
AcDbEntity
  8
001
370
     9
  0
TEXT
  5
D8
330
C8
100
AcDbEntity
  8
001
370
    30
100
AcDbText
 10
51.249309
 20
57.475331
 30
0.0
 40
4.0
  1
%%c３３．８
 50
90.000003
 41
0.862069
100
AcDbText
  0
POINT
  5
D9
330
C8
100
AcDbEntity
  8
001
370
     9
100
AcDbPoint
 10
115.573292
 20
84.355331
 30
0.0
  0
POINT
  5
DA
330
C8
100
AcDbEntity
  8
001
370
     9
100
AcDbPoint
 10
115.573292
 20
50.595331
 30
0.0
  0
POINT
  5
DB
330
C8
100
AcDbEntity
  8
001
370
     9
100
AcDbPoint
 10
52.249309
 20
50.595331
 30
0.0
  0
ENDBLK
  5
CA
330
C8
100
AcDbEntity
  8
0
100
AcDbBlockEnd
  0
BLOCK
  5
DD
330
DC
100
AcDbEntity
  8
0
100
AcDbBlockBegin
  2
*D7
 70
     1
 10
0.0
 20
0.0
 30
0.0
  3
*D7
  1

  0
LINE
  5
DF
330
DC
100
AcDbEntity
  8
001
370
     9
100
AcDbLine
 10
96.392417
 20
55.269331
 30
0.0
 11
96.392417
 21
31.254706
 31
0.0
  0
LINE
  5
E0
330
DC
100
AcDbEntity
  8
001
370
     9
100
AcDbLine
 10
95.392416
 20
58.975331
 30
0.0
 11
95.392416
 21
31.254706
 31
0.0
  0
LINE
  5
E1
330
DC
100
AcDbEntity
  8
001
370
     9
100
AcDbLine
 10
96.392417
 20
34.004706
 30
0.0
 11
95.392416
 21
34.004706
 31
0.0
  0
POLYLINE
  5
E2
330
DC
100
AcDbEntity
  8
001
370
     9
100
AcDb2dPolyline
 66
     1
 10
0.0
 20
0.0
 30
0.0
  0
VERTEX
  5
E4
330
E2
100
AcDbEntity
  8
001
370
     9
100
AcDbVertex
100
AcDb2dVertex
 10
97.892417
 20
33.602782
 30
0.0
  0
VERTEX
  5
E5
330
E2
100
AcDbEntity
  8
001
370
     9
100
AcDbVertex
100
AcDb2dVertex
 10
96.392417
 20
34.004706
 30
0.0
  0
VERTEX
  5
E6
330
E2
100
AcDbEntity
  8
001
370
     9
100
AcDbVertex
100
AcDb2dVertex
 10
97.892417
 20
34.40663
 30
0.0
  0
SEQEND
  5
E3
330
E2
100
AcDbEntity
  8
001
370
     9
  0
POLYLINE
  5
E7
330
DC
100
AcDbEntity
  8
001
370
     9
100
AcDb2dPolyline
 66
     1
 10
0.0
 20
0.0
 30
0.0
  0
VERTEX
  5
E9
330
E7
100
AcDbEntity
  8
001
370
     9
100
AcDbVertex
100
AcDb2dVertex
 10
93.892416
 20
34.40663
 30
0.0
  0
VERTEX
  5
EA
330
E7
100
AcDbEntity
  8
001
370
     9
100
AcDbVertex
100
AcDb2dVertex
 10
95.392416
 20
34.004706
 30
0.0
  0
VERTEX
  5
EB
330
E7
100
AcDbEntity
  8
001
370
     9
100
AcDbVertex
100
AcDb2dVertex
 10
93.892416
 20
33.602782
 30
0.0
  0
SEQEND
  5
E8
330
E7
100
AcDbEntity
  8
001
370
     9
  0
TEXT
  5
EC
330
DC
100
AcDbEntity
  8
001
370
    30
100
AcDbText
 10
87.892416
 20
35.004706
 30
0.0
 40
4.0
  1
１
 41
0.833333
100
AcDbText
  0
POINT
  5
ED
330
DC
100
AcDbEntity
  8
001
370
     9
100
AcDbPoint
 10
96.392417
 20
55.269331
 30
0.0
  0
POINT
  5
EE
330
DC
100
AcDbEntity
  8
001
370
     9
100
AcDbPoint
 10
95.392416
 20
58.975331
 30
0.0
  0
POINT
  5
EF
330
DC
100
AcDbEntity
  8
001
370
     9
100
AcDbPoint
 10
95.392416
 20
34.004706
 30
0.0
  0
LINE
  5
F0
330
DC
100
AcDbEntity
  8
001
370
     9
100
AcDbLine
 10
96.392417
 20
34.004706
 30
0.0
 11
98.892417
 21
34.004706
 31
0.0
  0
LINE
  5
F1
330
DC
100
AcDbEntity
  8
001
370
     9
100
AcDbLine
 10
95.392416
 20
34.004706
 30
0.0
 11
84.892416
 21
34.004706
 31
0.0
  0
ENDBLK
  5
DE
330
DC
100
AcDbEntity
  8
0
100
AcDbBlockEnd
  0
BLOCK
  5
F3
330
F2
100
AcDbEntity
  8
0
100
AcDbBlockBegin
  2
*D8
 70
     1
 10
0.0
 20
0.0
 30
0.0
  3
*D8
  1

  0
LINE
  5
F5
330
F2
100
AcDbEntity
  8
001
370
     9
100
AcDbLine
 10
113.892417
 20
47.475331
 30
0.0
 11
113.892417
 21
31.254706
 31
0.0
  0
LINE
  5
F6
330
F2
100
AcDbEntity
  8
001
370
     9
100
AcDbLine
 10
96.392417
 20
55.269331
 30
0.0
 11
96.392417
 21
31.254706
 31
0.0
  0
LINE
  5
F7
330
F2
100
AcDbEntity
  8
001
370
     9
100
AcDbLine
 10
113.892417
 20
34.004706
 30
0.0
 11
96.392417
 21
34.004706
 31
0.0
  0
POLYLINE
  5
F8
330
F2
100
AcDbEntity
  8
001
370
     9
100
AcDb2dPolyline
 66
     1
 10
0.0
 20
0.0
 30
0.0
  0
VERTEX
  5
FA
330
F8
100
AcDbEntity
  8
001
370
     9
100
AcDbVertex
100
AcDb2dVertex
 10
115.392417
 20
33.602782
 30
0.0
  0
VERTEX
  5
FB
330
F8
100
AcDbEntity
  8
001
370
     9
100
AcDbVertex
100
AcDb2dVertex
 10
113.892417
 20
34.004706
 30
0.0
  0
VERTEX
  5
FC
330
F8
100
AcDbEntity
  8
001
370
     9
100
AcDbVertex
100
AcDb2dVertex
 10
115.392417
 20
34.40663
 30
0.0
  0
SEQEND
  5
F9
330
F8
100
AcDbEntity
  8
001
370
     9
  0
POLYLINE
  5
FD
330
F2
100
AcDbEntity
  8
001
370
     9
100
AcDb2dPolyline
 66
     1
 10
0.0
 20
0.0
 30
0.0
  0
VERTEX
  5
FF
330
FD
100
AcDbEntity
  8
001
370
     9
100
AcDbVertex
100
AcDb2dVertex
 10
94.892417
 20
34.40663
 30
0.0
  0
VERTEX
  5
100
330
FD
100
AcDbEntity
  8
001
370
     9
100
AcDbVertex
100
AcDb2dVertex
 10
96.392417
 20
34.004706
 30
0.0
  0
VERTEX
  5
101
330
FD
100
AcDbEntity
  8
001
370
     9
100
AcDbVertex
100
AcDb2dVertex
 10
94.892417
 20
33.602782
 30
0.0
  0
SEQEND
  5
FE
330
FD
100
AcDbEntity
  8
001
370
     9
  0
TEXT
  5
102
330
F2
100
AcDbEntity
  8
001
370
    30
100
AcDbText
 10
97.142417
 20
35.004706
 30
0.0
 40
4.0
  1
１７．５
 41
0.833333
100
AcDbText
  0
POINT
  5
103
330
F2
100
AcDbEntity
  8
001
370
     9
100
AcDbPoint
 10
113.892417
 20
47.475331
 30
0.0
  0
POINT
  5
104
330
F2
100
AcDbEntity
  8
001
370
     9
100
AcDbPoint
 10
96.392417
 20
55.269331
 30
0.0
  0
POINT
  5
105
330
F2
100
AcDbEntity
  8
001
370
     9
100
AcDbPoint
 10
96.392417
 20
34.004706
 30
0.0
  0
LINE
  5
106
330
F2
100
AcDbEntity
  8
001
370
     9
100
AcDbLine
 10
113.892417
 20
34.004706
 30
0.0
 11
116.392417
 21
34.004706
 31
0.0
  0
LINE
  5
107
330
F2
100
AcDbEntity
  8
001
370
     9
100
AcDbLine
 10
96.392417
 20
34.004706
 30
0.0
 11
93.892417
 21
34.004706
 31
0.0
  0
ENDBLK
  5
F4
330
F2
100
AcDbEntity
  8
0
100
AcDbBlockEnd
  0
BLOCK
  5
109
330
108
100
AcDbEntity
  8
0
100
AcDbBlockBegin
  2
*D9
 70
     1
 10
0.0
 20
0.0
 30
0.0
  3
*D9
  1

  0
LINE
  5
10B
330
108
100
AcDbEntity
  8
001
370
     9
100
AcDbLine
 10
147.392416
 20
51.375331
 30
0.0
 11
147.392416
 21
20.531985
 31
0.0
  0
LINE
  5
10C
330
108
100
AcDbEntity
  8
001
370
     9
100
AcDbLine
 10
95.392416
 20
58.975331
 30
0.0
 11
95.392416
 21
20.531985
 31
0.0
  0
LINE
  5
10D
330
108
100
AcDbEntity
  8
001
370
     9
100
AcDbLine
 10
147.392416
 20
23.281985
 30
0.0
 11
95.392416
 21
23.281985
 31
0.0
  0
POLYLINE
  5
10E
330
108
100
AcDbEntity
  8
001
370
     9
100
AcDb2dPolyline
 66
     1
 10
0.0
 20
0.0
 30
0.0
  0
VERTEX
  5
110
330
10E
100
AcDbEntity
  8
001
370
     9
100
AcDbVertex
100
AcDb2dVertex
 10
145.892416
 20
23.683909
 30
0.0
  0
VERTEX
  5
111
330
10E
100
AcDbEntity
  8
001
370
     9
100
AcDbVertex
100
AcDb2dVertex
 10
147.392416
 20
23.281985
 30
0.0
  0
VERTEX
  5
112
330
10E
100
AcDbEntity
  8
001
370
     9
100
AcDbVertex
100
AcDb2dVertex
 10
145.892416
 20
22.880061
 30
0.0
  0
SEQEND
  5
10F
330
10E
100
AcDbEntity
  8
001
370
     9
  0
POLYLINE
  5
113
330
108
100
AcDbEntity
  8
001
370
     9
100
AcDb2dPolyline
 66
     1
 10
0.0
 20
0.0
 30
0.0
  0
VERTEX
  5
115
330
113
100
AcDbEntity
  8
001
370
     9
100
AcDbVertex
100
AcDb2dVertex
 10
96.892416
 20
22.880061
 30
0.0
  0
VERTEX
  5
116
330
113
100
AcDbEntity
  8
001
370
     9
100
AcDbVertex
100
AcDb2dVertex
 10
95.392416
 20
23.281985
 30
0.0
  0
VERTEX
  5
117
330
113
100
AcDbEntity
  8
001
370
     9
100
AcDbVertex
100
AcDb2dVertex
 10
96.892416
 20
23.683909
 30
0.0
  0
SEQEND
  5
114
330
113
100
AcDbEntity
  8
001
370
     9
  0
TEXT
  5
118
330
108
100
AcDbEntity
  8
001
370
    30
100
AcDbText
 10
117.392416
 20
24.281985
 30
0.0
 40
4.0
  1
５２
 41
0.833333
100
AcDbText
  0
POINT
  5
119
330
108
100
AcDbEntity
  8
001
370
     9
100
AcDbPoint
 10
147.392416
 20
51.375331
 30
0.0
  0
POINT
  5
11A
330
108
100
AcDbEntity
  8
001
370
     9
100
AcDbPoint
 10
95.392416
 20
58.975331
 30
0.0
  0
POINT
  5
11B
330
108
100
AcDbEntity
  8
001
370
     9
100
AcDbPoint
 10
95.392416
 20
23.281985
 30
0.0
  0
ENDBLK
  5
10A
330
108
100
AcDbEntity
  8
0
100
AcDbBlockEnd
  0
BLOCK
  5
11D
330
11C
100
AcDbEntity
  8
0
100
AcDbBlockBegin
  2
*D10
 70
     1
 10
0.0
 20
0.0
 30
0.0
  3
*D10
  1

  0
LINE
  5
11F
330
11C
100
AcDbEntity
  8
001
370
     9
100
AcDbLine
 10
227.392416
 20
59.475331
 30
0.0
 11
227.392416
 21
20.531985
 31
0.0
  0
LINE
  5
120
330
11C
100
AcDbEntity
  8
001
370
     9
100
AcDbLine
 10
147.392416
 20
51.375331
 30
0.0
 11
147.392416
 21
20.531985
 31
0.0
  0
LINE
  5
121
330
11C
100
AcDbEntity
  8
001
370
     9
100
AcDbLine
 10
227.392416
 20
23.281985
 30
0.0
 11
147.392416
 21
23.281985
 31
0.0
  0
POLYLINE
  5
122
330
11C
100
AcDbEntity
  8
001
370
     9
100
AcDb2dPolyline
 66
     1
 10
0.0
 20
0.0
 30
0.0
  0
VERTEX
  5
124
330
122
100
AcDbEntity
  8
001
370
     9
100
AcDbVertex
100
AcDb2dVertex
 10
225.892416
 20
23.683909
 30
0.0
  0
VERTEX
  5
125
330
122
100
AcDbEntity
  8
001
370
     9
100
AcDbVertex
100
AcDb2dVertex
 10
227.392416
 20
23.281985
 30
0.0
  0
VERTEX
  5
126
330
122
100
AcDbEntity
  8
001
370
     9
100
AcDbVertex
100
AcDb2dVertex
 10
225.892416
 20
22.880061
 30
0.0
  0
SEQEND
  5
123
330
122
100
AcDbEntity
  8
001
370
     9
  0
POLYLINE
  5
127
330
11C
100
AcDbEntity
  8
001
370
     9
100
AcDb2dPolyline
 66
     1
 10
0.0
 20
0.0
 30
0.0
  0
VERTEX
  5
129
330
127
100
AcDbEntity
  8
001
370
     9
100
AcDbVertex
100
AcDb2dVertex
 10
148.892416
 20
22.880061
 30
0.0
  0
VERTEX
  5
12A
330
127
100
AcDbEntity
  8
001
370
     9
100
AcDbVertex
100
AcDb2dVertex
 10
147.392416
 20
23.281985
 30
0.0
  0
VERTEX
  5
12B
330
127
100
AcDbEntity
  8
001
370
     9
100
AcDbVertex
100
AcDb2dVertex
 10
148.892416
 20
23.683909
 30
0.0
  0
SEQEND
  5
128
330
127
100
AcDbEntity
  8
001
370
     9
  0
TEXT
  5
12C
330
11C
100
AcDbEntity
  8
001
370
    30
100
AcDbText
 10
183.392416
 20
24.281985
 30
0.0
 40
4.0
  1
８０
 41
0.833333
100
AcDbText
  0
POINT
  5
12D
330
11C
100
AcDbEntity
  8
001
370
     9
100
AcDbPoint
 10
227.392416
 20
59.475331
 30
0.0
  0
POINT
  5
12E
330
11C
100
AcDbEntity
  8
001
370
     9
100
AcDbPoint
 10
147.392416
 20
51.375331
 30
0.0
  0
POINT
  5
12F
330
11C
100
AcDbEntity
  8
001
370
     9
100
AcDbPoint
 10
147.392416
 20
23.281985
 30
0.0
  0
ENDBLK
  5
11E
330
11C
100
AcDbEntity
  8
0
100
AcDbBlockEnd
  0
BLOCK
  5
131
330
130
100
AcDbEntity
  8
0
100
AcDbBlockBegin
  2
*D11
 70
     1
 10
0.0
 20
0.0
 30
0.0
  3
*D11
  1

  0
LINE
  5
133
330
130
100
AcDbEntity
  8
001
370
     9
100
AcDbLine
 10
96.392417
 20
57.975331
 30
0.0
 11
132.002743
 21
22.365004
 31
0.0
  0
ARC
  5
134
330
130
100
AcDbEntity
  8
001
370
     9
100
AcDbCircle
 10
86.892417
 20
67.475331
 30
0.0
 40
61.04563594739361
100
AcDbArc
 50
315.0
 51
0.0
  0
POLYLINE
  5
135
330
130
100
AcDbEntity
  8
001
370
     9
100
AcDb2dPolyline
 66
     1
 10
0.0
 20
0.0
 30
0.0
  0
VERTEX
  5
137
330
135
100
AcDbEntity
  8
001
370
     9
100
AcDbVertex
100
AcDb2dVertex
 10
147.517731
 20
65.980382
 30
0.0
  0
VERTEX
  5
138
330
135
100
AcDbEntity
  8
001
370
     9
100
AcDbVertex
100
AcDb2dVertex
 10
147.938053
 20
67.475331
 30
0.0
  0
VERTEX
  5
139
330
135
100
AcDbEntity
  8
001
370
     9
100
AcDbVertex
100
AcDb2dVertex
 10
148.321518
 20
65.970506
 30
0.0
  0
SEQEND
  5
136
330
135
100
AcDbEntity
  8
001
370
     9
  0
POLYLINE
  5
13A
330
130
100
AcDbEntity
  8
001
370
     9
100
AcDb2dPolyline
 66
     1
 10
0.0
 20
0.0
 30
0.0
  0
VERTEX
  5
13C
330
13A
100
AcDbEntity
  8
001
370
     9
100
AcDbVertex
100
AcDb2dVertex
 10
131.393422
 20
25.102469
 30
0.0
  0
VERTEX
  5
13D
330
13A
100
AcDbEntity
  8
001
370
     9
100
AcDbVertex
100
AcDb2dVertex
 10
130.0582
 20
24.309548
 30
0.0
  0
VERTEX
  5
13E
330
13A
100
AcDbEntity
  8
001
370
     9
100
AcDbVertex
100
AcDb2dVertex
 10
130.818076
 20
25.663849
 30
0.0
  0
SEQEND
  5
13B
330
13A
100
AcDbEntity
  8
001
370
     9
  0
TEXT
  5
13F
330
130
100
AcDbEntity
  8
001
370
    30
100
AcDbText
 10
140.07125
 20
38.953584
 30
0.0
 40
4.0
  1
４５%%d
 50
67.5
 41
0.978261
100
AcDbText
  0
POINT
  5
140
330
130
100
AcDbEntity
  8
001
370
     9
100
AcDbPoint
 10
94.35952
 20
67.475331
 30
0.0
  0
POINT
  5
141
330
130
100
AcDbEntity
  8
001
370
     9
100
AcDbPoint
 10
86.892417
 20
67.475331
 30
0.0
  0
POINT
  5
142
330
130
100
AcDbEntity
  8
001
370
     9
100
AcDbPoint
 10
86.892417
 20
67.475331
 30
0.0
  0
POINT
  5
143
330
130
100
AcDbEntity
  8
001
370
     9
100
AcDbPoint
 10
96.392417
 20
57.975331
 30
0.0
  0
ENDBLK
  5
132
330
130
100
AcDbEntity
  8
0
100
AcDbBlockEnd
  0
BLOCK
  5
145
330
144
100
AcDbEntity
  8
0
100
AcDbBlockBegin
  2
*D12
 70
     1
 10
0.0
 20
0.0
 30
0.0
  3
*D12
  1

  0
LINE
  5
147
330
144
100
AcDbEntity
  8
001
370
     9
100
AcDbLine
 10
113.892417
 20
53.475331
 30
0.0
 11
131.372288
 21
35.995459
 31
0.0
  0
ARC
  5
148
330
144
100
AcDbEntity
  8
001
370
     9
100
AcDbCircle
 10
99.892417
 20
67.475331
 30
0.0
 40
41.7692613405317
100
AcDbArc
 50
315.0
 51
0.0
  0
POLYLINE
  5
149
330
144
100
AcDbEntity
  8
001
370
     9
100
AcDb2dPolyline
 66
     1
 10
0.0
 20
0.0
 30
0.0
  0
VERTEX
  5
14B
330
149
100
AcDbEntity
  8
001
370
     9
100
AcDbVertex
100
AcDb2dVertex
 10
141.232887
 20
65.982789
 30
0.0
  0
VERTEX
  5
14C
330
149
100
AcDbEntity
  8
001
370
     9
100
AcDbVertex
100
AcDb2dVertex
 10
141.661678
 20
67.475331
 30
0.0
  0
VERTEX
  5
14D
330
149
100
AcDbEntity
  8
001
370
     9
100
AcDbVertex
100
AcDb2dVertex
 10
142.036605
 20
65.968356
 30
0.0
  0
SEQEND
  5
14A
330
149
100
AcDbEntity
  8
001
370
     9
  0
POLYLINE
  5
14E
330
144
100
AcDbEntity
  8
001
370
     9
100
AcDb2dPolyline
 66
     1
 10
0.0
 20
0.0
 30
0.0
  0
VERTEX
  5
150
330
14E
100
AcDbEntity
  8
001
370
     9
100
AcDbVertex
100
AcDb2dVertex
 10
130.75845
 20
38.740482
 30
0.0
  0
VERTEX
  5
151
330
14E
100
AcDbEntity
  8
001
370
     9
100
AcDbVertex
100
AcDb2dVertex
 10
129.427745
 20
37.940003
 30
0.0
  0
VERTEX
  5
152
330
14E
100
AcDbEntity
  8
001
370
     9
100
AcDbVertex
100
AcDb2dVertex
 10
130.17993
 20
39.29859
 30
0.0
  0
SEQEND
  5
14F
330
14E
100
AcDbEntity
  8
001
370
     9
  0
TEXT
  5
153
330
144
100
AcDbEntity
  8
001
370
    30
100
AcDbText
 10
131.057374
 20
40.514654
 30
0.0
 40
4.0
  1
４５%%d
 50
57.509155
 41
0.978261
100
AcDbText
  0
POINT
  5
154
330
144
100
AcDbEntity
  8
001
370
     9
100
AcDbPoint
 10
94.35952
 20
67.475331
 30
0.0
  0
POINT
  5
155
330
144
100
AcDbEntity
  8
001
370
     9
100
AcDbPoint
 10
99.892417
 20
67.475331
 30
0.0
  0
POINT
  5
156
330
144
100
AcDbEntity
  8
001
370
     9
100
AcDbPoint
 10
99.892417
 20
67.475331
 30
0.0
  0
POINT
  5
157
330
144
100
AcDbEntity
  8
001
370
     9
100
AcDbPoint
 10
113.892417
 20
53.475331
 30
0.0
  0
ENDBLK
  5
146
330
144
100
AcDbEntity
  8
0
100
AcDbBlockEnd
  0
BLOCK
  5
159
330
158
100
AcDbEntity
  8
0
100
AcDbBlockBegin
  2
*D13
 70
     1
 10
0.0
 20
0.0
 30
0.0
  3
*D13
  1

  0
LINE
  5
15B
330
158
100
AcDbEntity
  8
001
370
     9
100
AcDbLine
 10
219.392416
 20
51.475331
 30
0.0
 11
257.435403
 21
51.475331
 31
0.0
  0
LINE
  5
15C
330
158
100
AcDbEntity
  8
001
370
     9
100
AcDbLine
 10
219.392416
 20
83.475331
 30
0.0
 11
257.435403
 21
83.475331
 31
0.0
  0
LINE
  5
15D
330
158
100
AcDbEntity
  8
001
370
     9
100
AcDbLine
 10
254.685403
 20
51.475331
 30
0.0
 11
254.685403
 21
83.475331
 31
0.0
  0
POLYLINE
  5
15E
330
158
100
AcDbEntity
  8
001
370
     9
100
AcDb2dPolyline
 66
     1
 10
0.0
 20
0.0
 30
0.0
  0
VERTEX
  5
160
330
15E
100
AcDbEntity
  8
001
370
     9
100
AcDbVertex
100
AcDb2dVertex
 10
255.087327
 20
52.975331
 30
0.0
  0
VERTEX
  5
161
330
15E
100
AcDbEntity
  8
001
370
     9
100
AcDbVertex
100
AcDb2dVertex
 10
254.685403
 20
51.475331
 30
0.0
  0
VERTEX
  5
162
330
15E
100
AcDbEntity
  8
001
370
     9
100
AcDbVertex
100
AcDb2dVertex
 10
254.283479
 20
52.975331
 30
0.0
  0
SEQEND
  5
15F
330
15E
100
AcDbEntity
  8
001
370
     9
  0
POLYLINE
  5
163
330
158
100
AcDbEntity
  8
001
370
     9
100
AcDb2dPolyline
 66
     1
 10
0.0
 20
0.0
 30
0.0
  0
VERTEX
  5
165
330
163
100
AcDbEntity
  8
001
370
     9
100
AcDbVertex
100
AcDb2dVertex
 10
254.283479
 20
81.975331
 30
0.0
  0
VERTEX
  5
166
330
163
100
AcDbEntity
  8
001
370
     9
100
AcDbVertex
100
AcDb2dVertex
 10
254.685403
 20
83.475331
 30
0.0
  0
VERTEX
  5
167
330
163
100
AcDbEntity
  8
001
370
     9
100
AcDbVertex
100
AcDb2dVertex
 10
255.087327
 20
81.975331
 30
0.0
  0
SEQEND
  5
164
330
163
100
AcDbEntity
  8
001
370
     9
  0
TEXT
  5
168
330
158
100
AcDbEntity
  8
001
370
    30
100
AcDbText
 10
253.685403
 20
61.475331
 30
0.0
 40
4.0
  1
%%c３２
 50
90.000003
 41
0.882353
100
AcDbText
  0
POINT
  5
169
330
158
100
AcDbEntity
  8
001
370
     9
100
AcDbPoint
 10
219.392416
 20
51.475331
 30
0.0
  0
POINT
  5
16A
330
158
100
AcDbEntity
  8
001
370
     9
100
AcDbPoint
 10
219.392416
 20
83.475331
 30
0.0
  0
POINT
  5
16B
330
158
100
AcDbEntity
  8
001
370
     9
100
AcDbPoint
 10
254.685403
 20
83.475331
 30
0.0
  0
ENDBLK
  5
15A
330
158
100
AcDbEntity
  8
0
100
AcDbBlockEnd
  0
ENDSEC
  0
SECTION
  2
ENTITIES
  0
DIMENSION
  5
16C
330
1F
100
AcDbEntity
  8
001
370
     9
100
AcDbDimension
  2
*D1
 10
36.80077
 20
-11.657702
 30
0.0
 11
45.800771
 21
-9.943416
 31
0.0
 70
   160
 71
     5
 42
-1.0
  3
Standard
100
AcDbAlignedDimension
 13
54.80077
 23
-4.9015
 33
0.0
 14
36.80077
 24
-4.9015
 34
0.0
 50
180.0
100
AcDbRotatedDimension
  0
DIMENSION
  5
16D
330
1F
100
AcDbEntity
  8
001
370
     9
100
AcDbDimension
  2
*D2
 10
67.307732
 20
4.5985
 30
0.0
 11
65.593446
 21
13.3485
 31
0.0
 70
   160
 71
     5
 42
-1.0
  3
Standard
100
AcDbAlignedDimension
 13
65.80077
 23
22.0985
 33
0.0
 14
58.80077
 24
4.5985
 34
0.0
 50
270.0
100
AcDbRotatedDimension
  0
TEXT
  5
16E
330
1F
100
AcDbEntity
  8
001
370
    30
100
AcDbText
 10
41.069593
 20
19.1378
 30
0.0
 40
2.285714
  1
Ｃ０．５
 50
314.999992
 41
0.833333
100
AcDbText
  0
POLYLINE
  5
16F
330
1F
100
AcDbEntity
  8
001
370
     9
100
AcDb2dPolyline
 66
     1
 10
0.0
 20
0.0
 30
0.0
  0
VERTEX
  5
171
330
16F
100
AcDbEntity
  8
001
370
     9
100
AcDbVertex
100
AcDb2dVertex
 10
54.607081
 20
5.116994
 30
0.0
  0
VERTEX
  5
172
330
16F
100
AcDbEntity
  8
001
370
     9
100
AcDbVertex
100
AcDb2dVertex
 10
55.05077
 20
4.3485
 30
0.0
  0
VERTEX
  5
173
330
16F
100
AcDbEntity
  8
001
370
     9
100
AcDbVertex
100
AcDb2dVertex
 10
54.282277
 20
4.79219
 30
0.0
  0
SEQEND
  5
170
330
16F
100
AcDbEntity
  8
001
370
     9
  0
LINE
  5
174
330
1F
100
AcDbEntity
  8
001
370
     9
100
AcDbLine
 10
55.05077
 20
4.3485
 30
0.0
 11
39.453349
 21
19.945922
 31
0.0
  0
TEXT
  5
175
330
1F
100
AcDbEntity
  8
001
370
    30
100
AcDbText
 10
53.902124
 20
27.805269
 30
0.0
 40
2.285714
  1
Ｃ１
 50
314.999992
 41
0.833333
100
AcDbText
  0
POLYLINE
  5
176
330
1F
100
AcDbEntity
  8
001
370
     9
100
AcDb2dPolyline
 66
     1
 10
0.0
 20
0.0
 30
0.0
  0
VERTEX
  5
178
330
176
100
AcDbEntity
  8
001
370
     9
100
AcDbVertex
100
AcDb2dVertex
 10
58.857081
 20
22.366994
 30
0.0
  0
VERTEX
  5
179
330
176
100
AcDbEntity
  8
001
370
     9
100
AcDbVertex
100
AcDb2dVertex
 10
59.30077
 20
21.5985
 30
0.0
  0
VERTEX
  5
17A
330
176
100
AcDbEntity
  8
001
370
     9
100
AcDbVertex
100
AcDb2dVertex
 10
58.532277
 20
22.04219
 30
0.0
  0
SEQEND
  5
177
330
176
100
AcDbEntity
  8
001
370
     9
  0
LINE
  5
17B
330
1F
100
AcDbEntity
  8
001
370
     9
100
AcDbLine
 10
59.30077
 20
21.5985
 30
0.0
 11
52.28588
 21
28.613391
 31
0.0
  0
DIMENSION
  5
17C
330
1F
100
AcDbEntity
  8
001
370
     9
100
AcDbDimension
  2
*D3
 10
58.80077
 20
33.000223
 30
0.0
 11
45.332999
 21
34.714509
 31
0.0
 70
   160
 71
     5
 42
-1.0
  3
Standard
100
AcDbAlignedDimension
 13
32.80077
 23
21.0985
 33
0.0
 14
58.80077
 24
21.0985
 34
0.0
100
AcDbRotatedDimension
  0
DIMENSION
  5
17D
330
1F
100
AcDbEntity
  8
001
370
     9
100
AcDbDimension
  2
*D4
 10
75.989925
 20
80.475331
 30
0.0
 11
72.989924
 21
67.475331
 31
0.0
 70
   160
 71
     5
 42
-1.0
  3
Standard
100
AcDbAlignedDimension
 13
96.392417
 23
54.475331
 33
0.0
 14
96.392417
 24
80.475331
 34
0.0
 50
90.0
100
AcDbRotatedDimension
  0
DIMENSION
  5
17E
330
1F
100
AcDbEntity
  8
001
370
     9
100
AcDbDimension
  2
*D5
 10
63.96411
 20
52.725331
 30
0.0
 11
60.96411
 21
67.475331
 31
0.0
 70
   160
 71
     5
 42
-1.0
  3
Standard
100
AcDbAlignedDimension
 13
114.642417
 23
82.225331
 33
0.0
 14
114.642417
 24
52.725331
 34
0.0
 50
270.0
100
AcDbRotatedDimension
  0
DIMENSION
  5
17F
330
1F
100
AcDbEntity
  8
001
370
     9
100
AcDbDimension
  2
*D6
 10
52.249309
 20
50.595331
 30
0.0
 11
49.249308
 21
67.475331
 31
0.0
 70
   160
 71
     5
 42
-1.0
  3
Standard
100
AcDbAlignedDimension
 13
115.573292
 23
84.355331
 33
0.0
 14
115.573292
 24
50.595331
 34
0.0
 50
270.0
100
AcDbRotatedDimension
  0
DIMENSION
  5
180
330
1F
100
AcDbEntity
  8
001
370
     9
100
AcDbDimension
  2
*D7
 10
95.392416
 20
34.004706
 30
0.0
 11
89.892416
 21
37.004706
 31
0.0
 70
   160
 71
     5
 42
-1.0
  3
Standard
100
AcDbAlignedDimension
 13
96.392417
 23
55.269331
 33
0.0
 14
95.392416
 24
58.975331
 34
0.0
 50
180.0
100
AcDbRotatedDimension
  0
DIMENSION
  5
181
330
1F
100
AcDbEntity
  8
001
370
     9
100
AcDbDimension
  2
*D8
 10
96.392417
 20
34.004706
 30
0.0
 11
105.142417
 21
37.004706
 31
0.0
 70
   160
 71
     5
 42
-1.0
  3
Standard
100
AcDbAlignedDimension
 13
113.892417
 23
47.475331
 33
0.0
 14
96.392417
 24
55.269331
 34
0.0
 50
180.0
100
AcDbRotatedDimension
  0
DIMENSION
  5
182
330
1F
100
AcDbEntity
  8
001
370
     9
100
AcDbDimension
  2
*D9
 10
95.392416
 20
23.281985
 30
0.0
 11
121.392416
 21
26.281985
 31
0.0
 70
   160
 71
     5
 42
-1.0
  3
Standard
100
AcDbAlignedDimension
 13
147.392416
 23
51.375331
 33
0.0
 14
95.392416
 24
58.975331
 34
0.0
 50
180.0
100
AcDbRotatedDimension
  0
DIMENSION
  5
183
330
1F
100
AcDbEntity
  8
001
370
     9
100
AcDbDimension
  2
*D10
 10
147.392416
 20
23.281985
 30
0.0
 11
187.392416
 21
26.281985
 31
0.0
 70
   160
 71
     5
 42
-1.0
  3
Standard
100
AcDbAlignedDimension
 13
227.392416
 23
59.475331
 33
0.0
 14
147.392416
 24
51.375331
 34
0.0
 50
180.0
100
AcDbRotatedDimension
  0
DIMENSION
  5
184
330
1F
100
AcDbEntity
  8
001
370
     9
100
AcDbDimension
  2
*D11
 10
86.892417
 20
67.475331
 30
0.0
 11
140.519592
 21
45.262228
 31
0.0
 70
    34
 71
     5
 42
-1.0
  3
Standard
100
AcDb2LineAngularDimension
 13
94.35952
 23
67.475331
 33
0.0
 14
86.892417
 24
67.475331
 34
0.0
 15
96.392417
 25
57.975331
 35
0.0
 16
143.29123
 26
44.114177
 36
0.0
  0
DIMENSION
  5
185
330
1F
100
AcDbEntity
  8
001
370
     9
100
AcDbDimension
  2
*D12
 10
99.892417
 20
67.475331
 30
0.0
 11
132.593409
 21
46.649848
 31
0.0
 70
    34
 71
     5
 42
-1.0
  3
Standard
100
AcDb2LineAngularDimension
 13
94.35952
 23
67.475331
 33
0.0
 14
99.892417
 24
67.475331
 34
0.0
 15
113.892417
 25
53.475331
 35
0.0
 16
138.482182
 26
51.490926
 36
0.0
  0
DIMENSION
  5
186
330
1F
100
AcDbEntity
  8
001
370
     9
100
AcDbDimension
  2
*D13
 10
254.685403
 20
83.475331
 30
0.0
 11
251.685403
 21
67.475331
 31
0.0
 70
   160
 71
     5
 42
-1.0
  3
Standard
100
AcDbAlignedDimension
 13
219.392416
 23
51.475331
 33
0.0
 14
219.392416
 24
83.475331
 34
0.0
 50
90.0
100
AcDbRotatedDimension
  0
TEXT
  5
187
330
1F
100
AcDbEntity
  8
001
370
    30
100
AcDbText
 10
27.307579
 20
109.45584
 30
0.0
 40
10.0
  1
イーグルカット　ＥＣ３２－２６ＸＳ－Ｍ１６
 41
0.833333
100
AcDbText
  0
LINE
  5
188
330
1F
100
AcDbEntity
  8
001
370
     9
100
AcDbLine
 10
51.395989
 20
-17.377598
 30
0.0
 11
41.409956
 21
-17.377598
 31
0.0
  0
CIRCLE
  5
189
330
1F
100
AcDbEntity
  8
001
370
    50
100
AcDbCircle
 10
100.062455
 20
59.348341
 30
0.0
 40
2.5
  0
LINE
  5
18A
330
1F
100
AcDbEntity
  8
001
370
    50
100
AcDbLine
 10
100.639806
 20
60.348341
 30
0.0
 11
100.322263
 21
60.898341
 31
0.0
  0
LINE
  5
18B
330
1F
100
AcDbEntity
  8
001
370
    50
100
AcDbLine
 10
99.485105
 20
60.348341
 30
0.0
 11
99.802648
 21
60.898341
 31
0.0
  0
ARC
  5
18C
330
1F
100
AcDbEntity
  8
001
370
    50
100
AcDbCircle
 10
100.062455
 20
60.748341
 30
0.0
 40
0.3
100
AcDbArc
 50
30.0
 51
150.0
  0
LINE
  5
18D
330
1F
100
AcDbEntity
  8
001
370
    50
100
AcDbLine
 10
99.485105
 20
60.348341
 30
0.0
 11
98.85002
 21
60.348341
 31
0.0
  0
LINE
  5
18E
330
1F
100
AcDbEntity
  8
001
370
    50
100
AcDbLine
 10
98.907755
 20
59.348341
 30
0.0
 11
98.590212
 21
59.898341
 31
0.0
  0
ARC
  5
18F
330
1F
100
AcDbEntity
  8
001
370
    50
100
AcDbCircle
 10
98.85002
 20
60.048341
 30
0.0
 40
0.3
100
AcDbArc
 50
90.0
 51
210.0
  0
LINE
  5
190
330
1F
100
AcDbEntity
  8
001
370
    50
100
AcDbLine
 10
98.907755
 20
59.348341
 30
0.0
 11
98.590212
 21
58.798341
 31
0.0
  0
LINE
  5
191
330
1F
100
AcDbEntity
  8
001
370
    50
100
AcDbLine
 10
99.485105
 20
58.348341
 30
0.0
 11
98.85002
 21
58.348341
 31
0.0
  0
ARC
  5
192
330
1F
100
AcDbEntity
  8
001
370
    50
100
AcDbCircle
 10
98.85002
 20
58.648341
 30
0.0
 40
0.3
100
AcDbArc
 50
150.0
 51
270.0
  0
LINE
  5
193
330
1F
100
AcDbEntity
  8
001
370
    50
100
AcDbLine
 10
99.485105
 20
58.348341
 30
0.0
 11
99.802648
 21
57.798341
 31
0.0
  0
LINE
  5
194
330
1F
100
AcDbEntity
  8
001
370
    50
100
AcDbLine
 10
100.639806
 20
58.348341
 30
0.0
 11
100.322263
 21
57.798341
 31
0.0
  0
ARC
  5
195
330
1F
100
AcDbEntity
  8
001
370
    50
100
AcDbCircle
 10
100.062455
 20
57.948341
 30
0.0
 40
0.3
100
AcDbArc
 50
210.0
 51
330.0
  0
LINE
  5
196
330
1F
100
AcDbEntity
  8
001
370
    50
100
AcDbLine
 10
100.639806
 20
58.348341
 30
0.0
 11
101.274891
 21
58.348341
 31
0.0
  0
LINE
  5
197
330
1F
100
AcDbEntity
  8
001
370
    50
100
AcDbLine
 10
101.217156
 20
59.348341
 30
0.0
 11
101.534698
 21
58.798341
 31
0.0
  0
ARC
  5
198
330
1F
100
AcDbEntity
  8
001
370
    50
100
AcDbCircle
 10
101.274891
 20
58.648341
 30
0.0
 40
0.3
100
AcDbArc
 50
270.0
 51
30.0
  0
LINE
  5
199
330
1F
100
AcDbEntity
  8
001
370
    50
100
AcDbLine
 10
101.217156
 20
59.348341
 30
0.0
 11
101.534698
 21
59.898341
 31
0.0
  0
LINE
  5
19A
330
1F
100
AcDbEntity
  8
001
370
    50
100
AcDbLine
 10
100.639806
 20
60.348341
 30
0.0
 11
101.274891
 21
60.348341
 31
0.0
  0
ARC
  5
19B
330
1F
100
AcDbEntity
  8
001
370
    50
100
AcDbCircle
 10
101.274891
 20
60.048341
 30
0.0
 40
0.3
100
AcDbArc
 50
330.0
 51
90.0
  0
LINE
  5
19C
330
1F
100
AcDbEntity
  8
001
370
    50
100
AcDbLine
 10
25.80077
 20
22.0985
 30
0.0
 11
65.80077
 21
22.0985
 31
0.0
  0
LINE
  5
19D
330
1F
100
AcDbEntity
  8
001
370
    50
100
AcDbLine
 10
58.80077
 20
21.0985
 30
0.0
 11
58.80077
 21
4.5985
 31
0.0
  0
LINE
  5
19E
330
1F
100
AcDbEntity
  8
001
370
    50
100
AcDbLine
 10
32.80077
 20
21.0985
 30
0.0
 11
32.80077
 21
4.5985
 31
0.0
  0
LINE
  5
19F
330
1F
100
AcDbEntity
  8
001
370
    50
100
AcDbLine
 10
32.80077
 20
4.5985
 30
0.0
 11
58.80077
 21
4.5985
 31
0.0
  0
LINE
  5
1A0
330
1F
100
AcDbEntity
  8
001
370
    50
100
AcDbLine
 10
65.80077
 20
-4.9015
 30
0.0
 11
25.80077
 21
-4.9015
 31
0.0
  0
LINE
  5
1A1
330
1F
100
AcDbEntity
  8
001
370
    50
100
AcDbLine
 10
54.80077
 20
4.0985
 30
0.0
 11
55.30077
 21
4.5985
 31
0.0
  0
LINE
  5
1A2
330
1F
100
AcDbEntity
  8
001
370
    50
100
AcDbLine
 10
36.80077
 20
4.0985
 30
0.0
 11
36.30077
 21
4.5985
 31
0.0
  0
LINE
  5
1A3
330
1F
100
AcDbEntity
  8
001
370
    50
100
AcDbLine
 10
32.80077
 20
21.0985
 30
0.0
 11
31.80077
 21
22.0985
 31
0.0
  0
LINE
  5
1A4
330
1F
100
AcDbEntity
  8
001
370
    50
100
AcDbLine
 10
54.80077
 20
4.0985
 30
0.0
 11
54.80077
 21
-4.9015
 31
0.0
  0
LINE
  5
1A5
330
1F
100
AcDbEntity
  8
001
370
    50
100
AcDbLine
 10
36.80077
 20
4.0985
 30
0.0
 11
36.80077
 21
-4.9015
 31
0.0
  0
LINE
  5
1A6
330
1F
100
AcDbEntity
  8
001
  6
CENTER
370
     9
100
AcDbLine
 10
45.80077
 20
24.48406
 30
0.0
 11
45.80077
 21
-7.422799
 31
0.0
  0
LINE
  5
1A7
330
1F
100
AcDbEntity
  8
001
370
    50
100
AcDbLine
 10
32.80077
 20
21.0985
 30
0.0
 11
58.80077
 21
21.0985
 31
0.0
  0
LINE
  5
1A8
330
1F
100
AcDbEntity
  8
001
370
    50
100
AcDbLine
 10
36.80077
 20
4.0985
 30
0.0
 11
54.80077
 21
4.0985
 31
0.0
  0
LINE
  5
1A9
330
1F
100
AcDbEntity
  8
001
370
    50
100
AcDbLine
 10
58.80077
 20
21.0985
 30
0.0
 11
59.80077
 21
22.0985
 31
0.0
  0
POLYLINE
  5
1AA
330
1F
100
AcDbEntity
  8
001
370
    50
100
AcDb2dPolyline
 66
     1
 10
0.0
 20
0.0
 30
0.0
  0
VERTEX
  5
1AC
330
1AA
100
AcDbEntity
  8
001
370
    50
100
AcDbVertex
100
AcDb2dVertex
 10
100.082563
 20
62.342237
 30
0.0
  0
VERTEX
  5
1AD
330
1AA
100
AcDbEntity
  8
001
370
    50
100
AcDbVertex
100
AcDb2dVertex
 10
99.865966
 20
62.330809
 30
0.0
  0
VERTEX
  5
1AE
330
1AA
100
AcDbEntity
  8
001
370
    50
100
AcDbVertex
100
AcDb2dVertex
 10
99.569533
 20
62.29666
 30
0.0
  0
VERTEX
  5
1AF
330
1AA
100
AcDbEntity
  8
001
370
    50
100
AcDbVertex
100
AcDb2dVertex
 10
99.306838
 20
62.239988
 30
0.0
  0
VERTEX
  5
1B0
330
1AA
100
AcDbEntity
  8
001
370
    50
100
AcDbVertex
100
AcDb2dVertex
 10
99.072091
 20
62.161315
 30
0.0
  0
VERTEX
  5
1B1
330
1AA
100
AcDbEntity
  8
001
370
    50
100
AcDbVertex
100
AcDb2dVertex
 10
98.836804
 20
62.061081
 30
0.0
  0
VERTEX
  5
1B2
330
1AA
100
AcDbEntity
  8
001
370
    50
100
AcDbVertex
100
AcDb2dVertex
 10
98.605352
 20
61.940313
 30
0.0
  0
VERTEX
  5
1B3
330
1AA
100
AcDbEntity
  8
001
370
    50
100
AcDbVertex
100
AcDb2dVertex
 10
98.387054
 20
61.799649
 30
0.0
  0
VERTEX
  5
1B4
330
1AA
100
AcDbEntity
  8
001
370
    50
100
AcDbVertex
100
AcDb2dVertex
 10
98.183497
 20
61.64037
 30
0.0
  0
VERTEX
  5
1B5
330
1AA
100
AcDbEntity
  8
001
370
    50
100
AcDbVertex
100
AcDb2dVertex
 10
97.993568
 20
61.463217
 30
0.0
  0
VERTEX
  5
1B6
330
1AA
100
AcDbEntity
  8
001
370
    50
100
AcDbVertex
100
AcDb2dVertex
 10
97.819344
 20
61.2706
 30
0.0
  0
VERTEX
  5
1B7
330
1AA
100
AcDbEntity
  8
001
370
    50
100
AcDbVertex
100
AcDb2dVertex
 10
97.662298
 20
61.063622
 30
0.0
  0
VERTEX
  5
1B8
330
1AA
100
AcDbEntity
  8
001
370
    50
100
AcDbVertex
100
AcDb2dVertex
 10
97.523958
 20
60.842237
 30
0.0
  0
VERTEX
  5
1B9
330
1AA
100
AcDbEntity
  8
001
370
    50
100
AcDbVertex
100
AcDb2dVertex
 10
97.404913
 20
60.606999
 30
0.0
  0
VERTEX
  5
1BA
330
1AA
100
AcDbEntity
  8
001
370
    50
100
AcDbVertex
100
AcDb2dVertex
 10
97.306313
 20
60.368297
 30
0.0
  0
VERTEX
  5
1BB
330
1AA
100
AcDbEntity
  8
001
370
    50
100
AcDbVertex
100
AcDb2dVertex
 10
97.22879
 20
60.129722
 30
0.0
  0
VERTEX
  5
1BC
330
1AA
100
AcDbEntity
  8
001
370
    50
100
AcDbVertex
100
AcDb2dVertex
 10
97.173024
 20
59.863181
 30
0.0
  0
VERTEX
  5
1BD
330
1AA
100
AcDbEntity
  8
001
370
    50
100
AcDbVertex
100
AcDb2dVertex
 10
97.139387
 20
59.56214
 30
0.0
  0
VERTEX
  5
1BE
330
1AA
100
AcDbEntity
  8
001
370
    50
100
AcDbVertex
100
AcDb2dVertex
 10
97.12814
 20
59.342237
 30
0.0
  0
SEQEND
  5
1AB
330
1AA
100
AcDbEntity
  8
001
370
    50
  0
LINE
  5
1BF
330
1F
100
AcDbEntity
  8
001
370
    50
100
AcDbLine
 10
99.852604
 20
64.104737
 30
0.0
 11
98.827508
 21
63.08931
 31
0.0
  0
LINE
  5
1C0
330
1F
100
AcDbEntity
  8
001
370
    50
100
AcDbLine
 10
102.990772
 20
64.104737
 30
0.0
 11
99.852604
 21
64.104737
 31
0.0
  0
POLYLINE
  5
1C1
330
1F
100
AcDbEntity
  8
001
370
    50
100
AcDb2dPolyline
 66
     1
 10
0.0
 20
0.0
 30
0.0
  0
VERTEX
  5
1C3
330
1C1
100
AcDbEntity
  8
001
370
    50
100
AcDbVertex
100
AcDb2dVertex
 10
103.77271
 20
63.310737
 30
0.0
  0
VERTEX
  5
1C4
330
1C1
100
AcDbEntity
  8
001
370
    50
100
AcDbVertex
100
AcDb2dVertex
 10
103.769733
 20
63.368938
 30
0.0
  0
VERTEX
  5
1C5
330
1C1
100
AcDbEntity
  8
001
370
    50
100
AcDbVertex
100
AcDb2dVertex
 10
103.76083
 20
63.448613
 30
0.0
  0
VERTEX
  5
1C6
330
1C1
100
AcDbEntity
  8
001
370
    50
100
AcDbVertex
100
AcDb2dVertex
 10
103.746071
 20
63.519158
 30
0.0
  0
VERTEX
  5
1C7
330
1C1
100
AcDbEntity
  8
001
370
    50
100
AcDbVertex
100
AcDb2dVertex
 10
103.725553
 20
63.582301
 30
0.0
  0
VERTEX
  5
1C8
330
1C1
100
AcDbEntity
  8
001
370
    50
100
AcDbVertex
100
AcDb2dVertex
 10
103.699457
 20
63.645477
 30
0.0
  0
VERTEX
  5
1C9
330
1C1
100
AcDbEntity
  8
001
370
    50
100
AcDbVertex
100
AcDb2dVertex
 10
103.66795
 20
63.707737
 30
0.0
  0
VERTEX
  5
1CA
330
1C1
100
AcDbEntity
  8
001
370
    50
100
AcDbVertex
100
AcDb2dVertex
 10
103.631336
 20
63.76633
 30
0.0
  0
VERTEX
  5
1CB
330
1C1
100
AcDbEntity
  8
001
370
    50
100
AcDbVertex
100
AcDb2dVertex
 10
103.589771
 20
63.82111
 30
0.0
  0
VERTEX
  5
1CC
330
1C1
100
AcDbEntity
  8
001
370
    50
100
AcDbVertex
100
AcDb2dVertex
 10
103.54366
 20
63.87209
 30
0.0
  0
VERTEX
  5
1CD
330
1C1
100
AcDbEntity
  8
001
370
    50
100
AcDbVertex
100
AcDb2dVertex
 10
103.493392
 20
63.918976
 30
0.0
  0
VERTEX
  5
1CE
330
1C1
100
AcDbEntity
  8
001
370
    50
100
AcDbVertex
100
AcDb2dVertex
 10
103.439517
 20
63.961132
 30
0.0
  0
VERTEX
  5
1CF
330
1C1
100
AcDbEntity
  8
001
370
    50
100
AcDbVertex
100
AcDb2dVertex
 10
103.381741
 20
63.998361
 30
0.0
  0
VERTEX
  5
1D0
330
1C1
100
AcDbEntity
  8
001
370
    50
100
AcDbVertex
100
AcDb2dVertex
 10
103.320483
 20
64.030324
 30
0.0
  0
VERTEX
  5
1D1
330
1C1
100
AcDbEntity
  8
001
370
    50
100
AcDbVertex
100
AcDb2dVertex
 10
103.258211
 20
64.056853
 30
0.0
  0
VERTEX
  5
1D2
330
1C1
100
AcDbEntity
  8
001
370
    50
100
AcDbVertex
100
AcDb2dVertex
 10
103.196081
 20
64.077675
 30
0.0
  0
VERTEX
  5
1D3
330
1C1
100
AcDbEntity
  8
001
370
    50
100
AcDbVertex
100
AcDb2dVertex
 10
103.126554
 20
64.092674
 30
0.0
  0
VERTEX
  5
1D4
330
1C1
100
AcDbEntity
  8
001
370
    50
100
AcDbVertex
100
AcDb2dVertex
 10
103.048098
 20
64.101712
 30
0.0
  0
VERTEX
  5
1D5
330
1C1
100
AcDbEntity
  8
001
370
    50
100
AcDbVertex
100
AcDb2dVertex
 10
102.990772
 20
64.104737
 30
0.0
  0
SEQEND
  5
1C2
330
1C1
100
AcDbEntity
  8
001
370
    50
  0
LINE
  5
1D6
330
1F
100
AcDbEntity
  8
001
370
    50
100
AcDbLine
 10
103.77271
 20
60.616653
 30
0.0
 11
103.77271
 21
63.310737
 31
0.0
  0
LINE
  5
1D7
330
1F
100
AcDbEntity
  8
001
370
    50
100
AcDbLine
 10
104.77271
 20
59.575743
 30
0.0
 11
103.77271
 21
60.616653
 31
0.0
  0
LINE
  5
1D8
330
1F
100
AcDbEntity
  8
001
370
    50
100
AcDbLine
 10
104.77271
 20
56.389164
 30
0.0
 11
104.77271
 21
59.575743
 31
0.0
  0
POLYLINE
  5
1D9
330
1F
100
AcDbEntity
  8
001
370
    50
100
AcDb2dPolyline
 66
     1
 10
0.0
 20
0.0
 30
0.0
  0
VERTEX
  5
1DB
330
1D9
100
AcDbEntity
  8
001
370
    50
100
AcDbVertex
100
AcDb2dVertex
 10
103.990773
 20
55.595164
 30
0.0
  0
VERTEX
  5
1DC
330
1D9
100
AcDbEntity
  8
001
370
    50
100
AcDbVertex
100
AcDb2dVertex
 10
104.048099
 20
55.598188
 30
0.0
  0
VERTEX
  5
1DD
330
1D9
100
AcDbEntity
  8
001
370
    50
100
AcDbVertex
100
AcDb2dVertex
 10
104.126555
 20
55.607226
 30
0.0
  0
VERTEX
  5
1DE
330
1D9
100
AcDbEntity
  8
001
370
    50
100
AcDbVertex
100
AcDb2dVertex
 10
104.196081
 20
55.622226
 30
0.0
  0
VERTEX
  5
1DF
330
1D9
100
AcDbEntity
  8
001
370
    50
100
AcDbVertex
100
AcDb2dVertex
 10
104.258211
 20
55.643048
 30
0.0
  0
VERTEX
  5
1E0
330
1D9
100
AcDbEntity
  8
001
370
    50
100
AcDbVertex
100
AcDb2dVertex
 10
104.320484
 20
55.669576
 30
0.0
  0
VERTEX
  5
1E1
330
1D9
100
AcDbEntity
  8
001
370
    50
100
AcDbVertex
100
AcDb2dVertex
 10
104.381741
 20
55.70154
 30
0.0
  0
VERTEX
  5
1E2
330
1D9
100
AcDbEntity
  8
001
370
    50
100
AcDbVertex
100
AcDb2dVertex
 10
104.439518
 20
55.738769
 30
0.0
  0
VERTEX
  5
1E3
330
1D9
100
AcDbEntity
  8
001
370
    50
100
AcDbVertex
100
AcDb2dVertex
 10
104.493392
 20
55.780924
 30
0.0
  0
VERTEX
  5
1E4
330
1D9
100
AcDbEntity
  8
001
370
    50
100
AcDbVertex
100
AcDb2dVertex
 10
104.54366
 20
55.827811
 30
0.0
  0
VERTEX
  5
1E5
330
1D9
100
AcDbEntity
  8
001
370
    50
100
AcDbVertex
100
AcDb2dVertex
 10
104.589771
 20
55.87879
 30
0.0
  0
VERTEX
  5
1E6
330
1D9
100
AcDbEntity
  8
001
370
    50
100
AcDbVertex
100
AcDb2dVertex
 10
104.631336
 20
55.933571
 30
0.0
  0
VERTEX
  5
1E7
330
1D9
100
AcDbEntity
  8
001
370
    50
100
AcDbVertex
100
AcDb2dVertex
 10
104.66795
 20
55.992164
 30
0.0
  0
VERTEX
  5
1E8
330
1D9
100
AcDbEntity
  8
001
370
    50
100
AcDbVertex
100
AcDb2dVertex
 10
104.699458
 20
56.054423
 30
0.0
  0
VERTEX
  5
1E9
330
1D9
100
AcDbEntity
  8
001
370
    50
100
AcDbVertex
100
AcDb2dVertex
 10
104.725553
 20
56.1176
 30
0.0
  0
VERTEX
  5
1EA
330
1D9
100
AcDbEntity
  8
001
370
    50
100
AcDbVertex
100
AcDb2dVertex
 10
104.746071
 20
56.180743
 30
0.0
  0
VERTEX
  5
1EB
330
1D9
100
AcDbEntity
  8
001
370
    50
100
AcDbVertex
100
AcDb2dVertex
 10
104.760831
 20
56.251287
 30
0.0
  0
VERTEX
  5
1EC
330
1D9
100
AcDbEntity
  8
001
370
    50
100
AcDbVertex
100
AcDb2dVertex
 10
104.769733
 20
56.330963
 30
0.0
  0
VERTEX
  5
1ED
330
1D9
100
AcDbEntity
  8
001
370
    50
100
AcDbVertex
100
AcDb2dVertex
 10
104.77271
 20
56.389164
 30
0.0
  0
SEQEND
  5
1DA
330
1D9
100
AcDbEntity
  8
001
370
    50
  0
LINE
  5
1EE
330
1F
100
AcDbEntity
  8
001
370
    50
100
AcDbLine
 10
101.337618
 20
55.595164
 30
0.0
 11
103.990773
 21
55.595164
 31
0.0
  0
LINE
  5
1EF
330
1F
100
AcDbEntity
  8
001
370
    50
100
AcDbLine
 10
100.207122
 20
54.475331
 30
0.0
 11
101.337618
 21
55.595164
 31
0.0
  0
LINE
  5
1F0
330
1F
100
AcDbEntity
  8
001
370
    50
100
AcDbLine
 10
100.207122
 20
54.475331
 30
0.0
 11
97.174354
 21
54.475331
 31
0.0
  0
POLYLINE
  5
1F1
330
1F
100
AcDbEntity
  8
001
370
    50
100
AcDb2dPolyline
 66
     1
 10
0.0
 20
0.0
 30
0.0
  0
VERTEX
  5
1F3
330
1F1
100
AcDbEntity
  8
001
370
    50
100
AcDbVertex
100
AcDb2dVertex
 10
96.392417
 20
55.269331
 30
0.0
  0
VERTEX
  5
1F4
330
1F1
100
AcDbEntity
  8
001
370
    50
100
AcDbVertex
100
AcDb2dVertex
 10
96.396182
 20
55.203886
 30
0.0
  0
VERTEX
  5
1F5
330
1F1
100
AcDbEntity
  8
001
370
    50
100
AcDbVertex
100
AcDb2dVertex
 10
96.407441
 20
55.114429
 30
0.0
  0
VERTEX
  5
1F6
330
1F1
100
AcDbEntity
  8
001
370
    50
100
AcDbVertex
100
AcDb2dVertex
 10
96.426085
 20
55.035568
 30
0.0
  0
VERTEX
  5
1F7
330
1F1
100
AcDbEntity
  8
001
370
    50
100
AcDbVertex
100
AcDb2dVertex
 10
96.451938
 20
54.96548
 30
0.0
  0
VERTEX
  5
1F8
330
1F1
100
AcDbEntity
  8
001
370
    50
100
AcDbVertex
100
AcDb2dVertex
 10
96.48471
 20
54.895969
 30
0.0
  0
VERTEX
  5
1F9
330
1F1
100
AcDbEntity
  8
001
370
    50
100
AcDbVertex
100
AcDb2dVertex
 10
96.524197
 20
54.828208
 30
0.0
  0
VERTEX
  5
1FA
330
1F1
100
AcDbEntity
  8
001
370
    50
100
AcDbVertex
100
AcDb2dVertex
 10
96.569939
 20
54.765433
 30
0.0
  0
VERTEX
  5
1FB
330
1F1
100
AcDbEntity
  8
001
370
    50
100
AcDbVertex
100
AcDb2dVertex
 10
96.621441
 20
54.707888
 30
0.0
  0
VERTEX
  5
1FC
330
1F1
100
AcDbEntity
  8
001
370
    50
100
AcDbVertex
100
AcDb2dVertex
 10
96.67802
 20
54.655662
 30
0.0
  0
VERTEX
  5
1FD
330
1F1
100
AcDbEntity
  8
001
370
    50
100
AcDbVertex
100
AcDb2dVertex
 10
96.739933
 20
54.609144
 30
0.0
  0
VERTEX
  5
1FE
330
1F1
100
AcDbEntity
  8
001
370
    50
100
AcDbVertex
100
AcDb2dVertex
 10
96.80659
 20
54.569094
 30
0.0
  0
VERTEX
  5
1FF
330
1F1
100
AcDbEntity
  8
001
370
    50
100
AcDbVertex
100
AcDb2dVertex
 10
96.875119
 20
54.53577
 30
0.0
  0
VERTEX
  5
200
330
1F1
100
AcDbEntity
  8
001
370
    50
100
AcDbVertex
100
AcDb2dVertex
 10
96.944067
 20
54.509537
 30
0.0
  0
VERTEX
  5
201
330
1F1
100
AcDbEntity
  8
001
370
    50
100
AcDbVertex
100
AcDb2dVertex
 10
97.021806
 20
54.490587
 30
0.0
  0
VERTEX
  5
202
330
1F1
100
AcDbEntity
  8
001
370
    50
100
AcDbVertex
100
AcDb2dVertex
 10
97.109891
 20
54.479158
 30
0.0
  0
VERTEX
  5
203
330
1F1
100
AcDbEntity
  8
001
370
    50
100
AcDbVertex
100
AcDb2dVertex
 10
97.174354
 20
54.475331
 30
0.0
  0
SEQEND
  5
1F2
330
1F1
100
AcDbEntity
  8
001
370
    50
  0
LINE
  5
204
330
1F
100
AcDbEntity
  8
001
370
    50
100
AcDbLine
 10
96.392417
 20
57.975331
 30
0.0
 11
96.392417
 21
55.269331
 31
0.0
  0
LINE
  5
205
330
1F
100
AcDbEntity
  8
001
370
    50
100
AcDbLine
 10
95.392416
 20
58.975331
 30
0.0
 11
95.392416
 21
62.29531
 31
0.0
  0
POLYLINE
  5
206
330
1F
100
AcDbEntity
  8
001
370
    50
100
AcDb2dPolyline
 66
     1
 10
0.0
 20
0.0
 30
0.0
  0
VERTEX
  5
208
330
206
100
AcDbEntity
  8
001
370
    50
100
AcDbVertex
100
AcDb2dVertex
 10
96.174354
 20
63.08931
 30
0.0
  0
VERTEX
  5
209
330
206
100
AcDbEntity
  8
001
370
    50
100
AcDbVertex
100
AcDb2dVertex
 10
96.117027
 20
63.086285
 30
0.0
  0
VERTEX
  5
20A
330
206
100
AcDbEntity
  8
001
370
    50
100
AcDbVertex
100
AcDb2dVertex
 10
96.038572
 20
63.077247
 30
0.0
  0
VERTEX
  5
20B
330
206
100
AcDbEntity
  8
001
370
    50
100
AcDbVertex
100
AcDb2dVertex
 10
95.969045
 20
63.062248
 30
0.0
  0
VERTEX
  5
20C
330
206
100
AcDbEntity
  8
001
370
    50
100
AcDbVertex
100
AcDb2dVertex
 10
95.906915
 20
63.041426
 30
0.0
  0
VERTEX
  5
20D
330
206
100
AcDbEntity
  8
001
370
    50
100
AcDbVertex
100
AcDb2dVertex
 10
95.844643
 20
63.014897
 30
0.0
  0
VERTEX
  5
20E
330
206
100
AcDbEntity
  8
001
370
    50
100
AcDbVertex
100
AcDb2dVertex
 10
95.783385
 20
62.982934
 30
0.0
  0
VERTEX
  5
20F
330
206
100
AcDbEntity
  8
001
370
    50
100
AcDbVertex
100
AcDb2dVertex
 10
95.725609
 20
62.945705
 30
0.0
  0
VERTEX
  5
210
330
206
100
AcDbEntity
  8
001
370
    50
100
AcDbVertex
100
AcDb2dVertex
 10
95.671734
 20
62.903549
 30
0.0
  0
VERTEX
  5
211
330
206
100
AcDbEntity
  8
001
370
    50
100
AcDbVertex
100
AcDb2dVertex
 10
95.621466
 20
62.856663
 30
0.0
  0
VERTEX
  5
212
330
206
100
AcDbEntity
  8
001
370
    50
100
AcDbVertex
100
AcDb2dVertex
 10
95.575355
 20
62.805683
 30
0.0
  0
VERTEX
  5
213
330
206
100
AcDbEntity
  8
001
370
    50
100
AcDbVertex
100
AcDb2dVertex
 10
95.53379
 20
62.750903
 30
0.0
  0
VERTEX
  5
214
330
206
100
AcDbEntity
  8
001
370
    50
100
AcDbVertex
100
AcDb2dVertex
 10
95.497176
 20
62.69231
 30
0.0
  0
VERTEX
  5
215
330
206
100
AcDbEntity
  8
001
370
    50
100
AcDbVertex
100
AcDb2dVertex
 10
95.465669
 20
62.63005
 30
0.0
  0
VERTEX
  5
216
330
206
100
AcDbEntity
  8
001
370
    50
100
AcDbVertex
100
AcDb2dVertex
 10
95.439573
 20
62.566874
 30
0.0
  0
VERTEX
  5
217
330
206
100
AcDbEntity
  8
001
370
    50
100
AcDbVertex
100
AcDb2dVertex
 10
95.419055
 20
62.503731
 30
0.0
  0
VERTEX
  5
218
330
206
100
AcDbEntity
  8
001
370
    50
100
AcDbVertex
100
AcDb2dVertex
 10
95.404296
 20
62.433186
 30
0.0
  0
VERTEX
  5
219
330
206
100
AcDbEntity
  8
001
370
    50
100
AcDbVertex
100
AcDb2dVertex
 10
95.395393
 20
62.353511
 30
0.0
  0
VERTEX
  5
21A
330
206
100
AcDbEntity
  8
001
370
    50
100
AcDbVertex
100
AcDb2dVertex
 10
95.392416
 20
62.29531
 30
0.0
  0
SEQEND
  5
207
330
206
100
AcDbEntity
  8
001
370
    50
  0
LINE
  5
21B
330
1F
100
AcDbEntity
  8
001
370
    50
100
AcDbLine
 10
98.827508
 20
63.08931
 30
0.0
 11
96.174354
 21
63.08931
 31
0.0
  0
POLYLINE
  5
21C
330
1F
100
AcDbEntity
  8
001
370
    50
100
AcDb2dPolyline
 66
     1
 10
0.0
 20
0.0
 30
0.0
  0
VERTEX
  5
21E
330
21C
100
AcDbEntity
  8
001
370
    50
100
AcDbVertex
100
AcDb2dVertex
 10
97.12814
 20
59.342237
 30
0.0
  0
VERTEX
  5
21F
330
21C
100
AcDbEntity
  8
001
370
    50
100
AcDbVertex
100
AcDb2dVertex
 10
97.142369
 20
59.094966
 30
0.0
  0
VERTEX
  5
220
330
21C
100
AcDbEntity
  8
001
370
    50
100
AcDbVertex
100
AcDb2dVertex
 10
97.184908
 20
58.756966
 30
0.0
  0
VERTEX
  5
221
330
21C
100
AcDbEntity
  8
001
370
    50
100
AcDbVertex
100
AcDb2dVertex
 10
97.255349
 20
58.459001
 30
0.0
  0
VERTEX
  5
222
330
21C
100
AcDbEntity
  8
001
370
    50
100
AcDbVertex
100
AcDb2dVertex
 10
97.353032
 20
58.194186
 30
0.0
  0
VERTEX
  5
223
330
21C
100
AcDbEntity
  8
001
370
    50
100
AcDbVertex
100
AcDb2dVertex
 10
97.476855
 20
57.93155
 30
0.0
  0
VERTEX
  5
224
330
21C
100
AcDbEntity
  8
001
370
    50
100
AcDbVertex
100
AcDb2dVertex
 10
97.62605
 20
57.675526
 30
0.0
  0
VERTEX
  5
225
330
21C
100
AcDbEntity
  8
001
370
    50
100
AcDbVertex
100
AcDb2dVertex
 10
97.798878
 20
57.43834
 30
0.0
  0
VERTEX
  5
226
330
21C
100
AcDbEntity
  8
001
370
    50
100
AcDbVertex
100
AcDb2dVertex
 10
97.99347
 20
57.220916
 30
0.0
  0
VERTEX
  5
227
330
21C
100
AcDbEntity
  8
001
370
    50
100
AcDbVertex
100
AcDb2dVertex
 10
98.207245
 20
57.02359
 30
0.0
  0
VERTEX
  5
228
330
21C
100
AcDbEntity
  8
001
370
    50
100
AcDbVertex
100
AcDb2dVertex
 10
98.441174
 20
56.847828
 30
0.0
  0
VERTEX
  5
229
330
21C
100
AcDbEntity
  8
001
370
    50
100
AcDbVertex
100
AcDb2dVertex
 10
98.693027
 20
56.696508
 30
0.0
  0
VERTEX
  5
22A
330
21C
100
AcDbEntity
  8
001
370
    50
100
AcDbVertex
100
AcDb2dVertex
 10
98.951954
 20
56.570598
 30
0.0
  0
VERTEX
  5
22B
330
21C
100
AcDbEntity
  8
001
370
    50
100
AcDbVertex
100
AcDb2dVertex
 10
99.212461
 20
56.471481
 30
0.0
  0
VERTEX
  5
22C
330
21C
100
AcDbEntity
  8
001
370
    50
100
AcDbVertex
100
AcDb2dVertex
 10
99.506184
 20
56.399881
 30
0.0
  0
VERTEX
  5
22D
330
21C
100
AcDbEntity
  8
001
370
    50
100
AcDbVertex
100
AcDb2dVertex
 10
99.838999
 20
56.356697
 30
0.0
  0
VERTEX
  5
22E
330
21C
100
AcDbEntity
  8
001
370
    50
100
AcDbVertex
100
AcDb2dVertex
 10
100.082563
 20
56.342237
 30
0.0
  0
SEQEND
  5
21D
330
21C
100
AcDbEntity
  8
001
370
    50
  0
POLYLINE
  5
22F
330
1F
100
AcDbEntity
  8
001
370
    50
100
AcDb2dPolyline
 66
     1
 10
0.0
 20
0.0
 30
0.0
  0
VERTEX
  5
231
330
22F
100
AcDbEntity
  8
001
370
    50
100
AcDbVertex
100
AcDb2dVertex
 10
100.082563
 20
56.342237
 30
0.0
  0
VERTEX
  5
232
330
22F
100
AcDbEntity
  8
001
370
    50
100
AcDbVertex
100
AcDb2dVertex
 10
100.311855
 20
56.355048
 30
0.0
  0
VERTEX
  5
233
330
22F
100
AcDbEntity
  8
001
370
    50
100
AcDbVertex
100
AcDb2dVertex
 10
100.625437
 20
56.393317
 30
0.0
  0
VERTEX
  5
234
330
22F
100
AcDbEntity
  8
001
370
    50
100
AcDbVertex
100
AcDb2dVertex
 10
100.902808
 20
56.456798
 30
0.0
  0
VERTEX
  5
235
330
22F
100
AcDbEntity
  8
001
370
    50
100
AcDbVertex
100
AcDb2dVertex
 10
101.149824
 20
56.54482
 30
0.0
  0
VERTEX
  5
236
330
22F
100
AcDbEntity
  8
001
370
    50
100
AcDbVertex
100
AcDb2dVertex
 10
101.396471
 20
56.656826
 30
0.0
  0
VERTEX
  5
237
330
22F
100
AcDbEntity
  8
001
370
    50
100
AcDbVertex
100
AcDb2dVertex
 10
101.637867
 20
56.791585
 30
0.0
  0
VERTEX
  5
238
330
22F
100
AcDbEntity
  8
001
370
    50
100
AcDbVertex
100
AcDb2dVertex
 10
101.863984
 20
56.948306
 30
0.0
  0
VERTEX
  5
239
330
22F
100
AcDbEntity
  8
001
370
    50
100
AcDbVertex
100
AcDb2dVertex
 10
102.072945
 20
57.12521
 30
0.0
  0
VERTEX
  5
23A
330
22F
100
AcDbEntity
  8
001
370
    50
100
AcDbVertex
100
AcDb2dVertex
 10
102.265804
 20
57.321299
 30
0.0
  0
VERTEX
  5
23B
330
22F
100
AcDbEntity
  8
001
370
    50
100
AcDbVertex
100
AcDb2dVertex
 10
102.440244
 20
57.534333
 30
0.0
  0
VERTEX
  5
23C
330
22F
100
AcDbEntity
  8
001
370
    50
100
AcDbVertex
100
AcDb2dVertex
 10
102.594608
 20
57.763092
 30
0.0
  0
VERTEX
  5
23D
330
22F
100
AcDbEntity
  8
001
370
    50
100
AcDbVertex
100
AcDb2dVertex
 10
102.727254
 20
58.005022
 30
0.0
  0
VERTEX
  5
23E
330
22F
100
AcDbEntity
  8
001
370
    50
100
AcDbVertex
100
AcDb2dVertex
 10
102.837503
 20
58.258636
 30
0.0
  0
VERTEX
  5
23F
330
22F
100
AcDbEntity
  8
001
370
    50
100
AcDbVertex
100
AcDb2dVertex
 10
102.924203
 20
58.521248
 30
0.0
  0
VERTEX
  5
240
330
22F
100
AcDbEntity
  8
001
370
    50
100
AcDbVertex
100
AcDb2dVertex
 10
102.986691
 20
58.791058
 30
0.0
  0
VERTEX
  5
241
330
22F
100
AcDbEntity
  8
001
370
    50
100
AcDbVertex
100
AcDb2dVertex
 10
103.024383
 20
59.065432
 30
0.0
  0
VERTEX
  5
242
330
22F
100
AcDbEntity
  8
001
370
    50
100
AcDbVertex
100
AcDb2dVertex
 10
103.036976
 20
59.342237
 30
0.0
  0
VERTEX
  5
243
330
22F
100
AcDbEntity
  8
001
370
    50
100
AcDbVertex
100
AcDb2dVertex
 10
103.024383
 20
59.619042
 30
0.0
  0
VERTEX
  5
244
330
22F
100
AcDbEntity
  8
001
370
    50
100
AcDbVertex
100
AcDb2dVertex
 10
102.986691
 20
59.893415
 30
0.0
  0
VERTEX
  5
245
330
22F
100
AcDbEntity
  8
001
370
    50
100
AcDbVertex
100
AcDb2dVertex
 10
102.924203
 20
60.163226
 30
0.0
  0
VERTEX
  5
246
330
22F
100
AcDbEntity
  8
001
370
    50
100
AcDbVertex
100
AcDb2dVertex
 10
102.837503
 20
60.425837
 30
0.0
  0
VERTEX
  5
247
330
22F
100
AcDbEntity
  8
001
370
    50
100
AcDbVertex
100
AcDb2dVertex
 10
102.727254
 20
60.679452
 30
0.0
  0
VERTEX
  5
248
330
22F
100
AcDbEntity
  8
001
370
    50
100
AcDbVertex
100
AcDb2dVertex
 10
102.594608
 20
60.921381
 30
0.0
  0
VERTEX
  5
249
330
22F
100
AcDbEntity
  8
001
370
    50
100
AcDbVertex
100
AcDb2dVertex
 10
102.440244
 20
61.15014
 30
0.0
  0
VERTEX
  5
24A
330
22F
100
AcDbEntity
  8
001
370
    50
100
AcDbVertex
100
AcDb2dVertex
 10
102.265804
 20
61.363174
 30
0.0
  0
VERTEX
  5
24B
330
22F
100
AcDbEntity
  8
001
370
    50
100
AcDbVertex
100
AcDb2dVertex
 10
102.072945
 20
61.559263
 30
0.0
  0
VERTEX
  5
24C
330
22F
100
AcDbEntity
  8
001
370
    50
100
AcDbVertex
100
AcDb2dVertex
 10
101.863984
 20
61.736167
 30
0.0
  0
VERTEX
  5
24D
330
22F
100
AcDbEntity
  8
001
370
    50
100
AcDbVertex
100
AcDb2dVertex
 10
101.637867
 20
61.892888
 30
0.0
  0
VERTEX
  5
24E
330
22F
100
AcDbEntity
  8
001
370
    50
100
AcDbVertex
100
AcDb2dVertex
 10
101.396471
 20
62.027648
 30
0.0
  0
VERTEX
  5
24F
330
22F
100
AcDbEntity
  8
001
370
    50
100
AcDbVertex
100
AcDb2dVertex
 10
101.149824
 20
62.139653
 30
0.0
  0
VERTEX
  5
250
330
22F
100
AcDbEntity
  8
001
370
    50
100
AcDbVertex
100
AcDb2dVertex
 10
100.902808
 20
62.227675
 30
0.0
  0
VERTEX
  5
251
330
22F
100
AcDbEntity
  8
001
370
    50
100
AcDbVertex
100
AcDb2dVertex
 10
100.625437
 20
62.291156
 30
0.0
  0
VERTEX
  5
252
330
22F
100
AcDbEntity
  8
001
370
    50
100
AcDbVertex
100
AcDb2dVertex
 10
100.311856
 20
62.329426
 30
0.0
  0
VERTEX
  5
253
330
22F
100
AcDbEntity
  8
001
370
    50
100
AcDbVertex
100
AcDb2dVertex
 10
100.082563
 20
62.342237
 30
0.0
  0
SEQEND
  5
230
330
22F
100
AcDbEntity
  8
001
370
    50
  0
LINE
  5
254
330
1F
100
AcDbEntity
  8
001
370
    50
100
AcDbLine
 10
147.392416
 20
83.575331
 30
0.0
 11
147.392416
 21
51.375331
 31
0.0
  0
LINE
  5
255
330
1F
100
AcDbEntity
  8
001
370
    50
100
AcDbLine
 10
147.392416
 20
83.575331
 30
0.0
 11
116.803456
 21
83.575331
 31
0.0
  0
LINE
  5
256
330
1F
100
AcDbEntity
  8
001
370
    50
100
AcDbLine
 10
146.104756
 20
51.375331
 30
0.0
 11
147.392416
 21
51.375331
 31
0.0
  0
POLYLINE
  5
257
330
1F
100
AcDbEntity
  8
001
370
    50
100
AcDb2dPolyline
 66
     1
 10
0.0
 20
0.0
 30
0.0
  0
VERTEX
  5
259
330
257
100
AcDbEntity
  8
001
370
    50
100
AcDbVertex
100
AcDb2dVertex
 10
143.747047
 20
53.423225
 30
0.0
  0
VERTEX
  5
25A
330
257
100
AcDbEntity
  8
001
370
    50
100
AcDbVertex
100
AcDb2dVertex
 10
143.872304
 20
53.199452
 30
0.0
  0
VERTEX
  5
25B
330
257
100
AcDbEntity
  8
001
370
    50
100
AcDbVertex
100
AcDb2dVertex
 10
144.003905
 20
52.979564
 30
0.0
  0
VERTEX
  5
25C
330
257
100
AcDbEntity
  8
001
370
    50
100
AcDbVertex
100
AcDb2dVertex
 10
144.136827
 20
52.780958
 30
0.0
  0
VERTEX
  5
25D
330
257
100
AcDbEntity
  8
001
370
    50
100
AcDbVertex
100
AcDb2dVertex
 10
144.2795
 20
52.589087
 30
0.0
  0
VERTEX
  5
25E
330
257
100
AcDbEntity
  8
001
370
    50
100
AcDbVertex
100
AcDb2dVertex
 10
144.419598
 20
52.417429
 30
0.0
  0
VERTEX
  5
25F
330
257
100
AcDbEntity
  8
001
370
    50
100
AcDbVertex
100
AcDb2dVertex
 10
144.567585
 20
52.252593
 30
0.0
  0
VERTEX
  5
260
330
257
100
AcDbEntity
  8
001
370
    50
100
AcDbVertex
100
AcDb2dVertex
 10
144.72373
 20
52.095871
 30
0.0
  0
VERTEX
  5
261
330
257
100
AcDbEntity
  8
001
370
    50
100
AcDbVertex
100
AcDb2dVertex
 10
144.888374
 20
51.948085
 30
0.0
  0
VERTEX
  5
262
330
257
100
AcDbEntity
  8
001
370
    50
100
AcDbVertex
100
AcDb2dVertex
 10
145.045374
 20
51.822578
 30
0.0
  0
VERTEX
  5
263
330
257
100
AcDbEntity
  8
001
370
    50
100
AcDbVertex
100
AcDb2dVertex
 10
145.20964
 20
51.706735
 30
0.0
  0
VERTEX
  5
264
330
257
100
AcDbEntity
  8
001
370
    50
100
AcDbVertex
100
AcDb2dVertex
 10
145.362406
 20
51.612916
 30
0.0
  0
VERTEX
  5
265
330
257
100
AcDbEntity
  8
001
370
    50
100
AcDbVertex
100
AcDb2dVertex
 10
145.52126
 20
51.529972
 30
0.0
  0
VERTEX
  5
266
330
257
100
AcDbEntity
  8
001
370
    50
100
AcDbVertex
100
AcDb2dVertex
 10
145.664748
 20
51.468393
 30
0.0
  0
VERTEX
  5
267
330
257
100
AcDbEntity
  8
001
370
    50
100
AcDbVertex
100
AcDb2dVertex
 10
145.813111
 20
51.419229
 30
0.0
  0
VERTEX
  5
268
330
257
100
AcDbEntity
  8
001
370
    50
100
AcDbVertex
100
AcDb2dVertex
 10
145.942999
 20
51.389674
 30
0.0
  0
VERTEX
  5
269
330
257
100
AcDbEntity
  8
001
370
    50
100
AcDbVertex
100
AcDb2dVertex
 10
146.075069
 20
51.375934
 30
0.0
  0
VERTEX
  5
26A
330
257
100
AcDbEntity
  8
001
370
    50
100
AcDbVertex
100
AcDb2dVertex
 10
146.090975
 20
51.375558
 30
0.0
  0
VERTEX
  5
26B
330
257
100
AcDbEntity
  8
001
370
    50
100
AcDbVertex
100
AcDb2dVertex
 10
146.106886
 20
51.375331
 30
0.0
  0
SEQEND
  5
258
330
257
100
AcDbEntity
  8
001
370
    50
  0
POLYLINE
  5
26C
330
1F
100
AcDbEntity
  8
001
370
    50
100
AcDb2dPolyline
 66
     1
 10
0.0
 20
0.0
 30
0.0
  0
VERTEX
  5
26E
330
26C
100
AcDbEntity
  8
001
370
    50
100
AcDbVertex
100
AcDb2dVertex
 10
137.371687
 20
58.344961
 30
0.0
  0
VERTEX
  5
26F
330
26C
100
AcDbEntity
  8
001
370
    50
100
AcDbVertex
100
AcDb2dVertex
 10
137.704084
 20
58.246116
 30
0.0
  0
VERTEX
  5
270
330
26C
100
AcDbEntity
  8
001
370
    50
100
AcDbVertex
100
AcDb2dVertex
 10
138.034011
 20
58.139853
 30
0.0
  0
VERTEX
  5
271
330
26C
100
AcDbEntity
  8
001
370
    50
100
AcDbVertex
100
AcDb2dVertex
 10
138.355473
 20
58.02193
 30
0.0
  0
VERTEX
  5
272
330
26C
100
AcDbEntity
  8
001
370
    50
100
AcDbVertex
100
AcDb2dVertex
 10
138.672332
 20
57.891783
 30
0.0
  0
VERTEX
  5
273
330
26C
100
AcDbEntity
  8
001
370
    50
100
AcDbVertex
100
AcDb2dVertex
 10
139.056641
 20
57.71723
 30
0.0
  0
VERTEX
  5
274
330
26C
100
AcDbEntity
  8
001
370
    50
100
AcDbVertex
100
AcDb2dVertex
 10
139.433686
 20
57.527632
 30
0.0
  0
VERTEX
  5
275
330
26C
100
AcDbEntity
  8
001
370
    50
100
AcDbVertex
100
AcDb2dVertex
 10
139.794827
 20
57.327896
 30
0.0
  0
VERTEX
  5
276
330
26C
100
AcDbEntity
  8
001
370
    50
100
AcDbVertex
100
AcDb2dVertex
 10
140.148186
 20
57.114649
 30
0.0
  0
VERTEX
  5
277
330
26C
100
AcDbEntity
  8
001
370
    50
100
AcDbVertex
100
AcDb2dVertex
 10
140.482283
 20
56.896202
 30
0.0
  0
VERTEX
  5
278
330
26C
100
AcDbEntity
  8
001
370
    50
100
AcDbVertex
100
AcDb2dVertex
 10
140.808456
 20
56.666127
 30
0.0
  0
VERTEX
  5
279
330
26C
100
AcDbEntity
  8
001
370
    50
100
AcDbVertex
100
AcDb2dVertex
 10
141.07084
 20
56.468156
 30
0.0
  0
VERTEX
  5
27A
330
26C
100
AcDbEntity
  8
001
370
    50
100
AcDbVertex
100
AcDb2dVertex
 10
141.327461
 20
56.262775
 30
0.0
  0
VERTEX
  5
27B
330
26C
100
AcDbEntity
  8
001
370
    50
100
AcDbVertex
100
AcDb2dVertex
 10
141.569607
 20
56.057721
 30
0.0
  0
VERTEX
  5
27C
330
26C
100
AcDbEntity
  8
001
370
    50
100
AcDbVertex
100
AcDb2dVertex
 10
141.806088
 20
55.846161
 30
0.0
  0
VERTEX
  5
27D
330
26C
100
AcDbEntity
  8
001
370
    50
100
AcDbVertex
100
AcDb2dVertex
 10
142.026885
 20
55.637747
 30
0.0
  0
VERTEX
  5
27E
330
26C
100
AcDbEntity
  8
001
370
    50
100
AcDbVertex
100
AcDb2dVertex
 10
142.242068
 20
55.423547
 30
0.0
  0
VERTEX
  5
27F
330
26C
100
AcDbEntity
  8
001
370
    50
100
AcDbVertex
100
AcDb2dVertex
 10
142.440378
 20
55.21545
 30
0.0
  0
VERTEX
  5
280
330
26C
100
AcDbEntity
  8
001
370
    50
100
AcDbVertex
100
AcDb2dVertex
 10
142.633133
 20
55.002194
 30
0.0
  0
VERTEX
  5
281
330
26C
100
AcDbEntity
  8
001
370
    50
100
AcDbVertex
100
AcDb2dVertex
 10
142.808712
 20
54.797287
 30
0.0
  0
VERTEX
  5
282
330
26C
100
AcDbEntity
  8
001
370
    50
100
AcDbVertex
100
AcDb2dVertex
 10
142.978649
 20
54.587701
 30
0.0
  0
VERTEX
  5
283
330
26C
100
AcDbEntity
  8
001
370
    50
100
AcDbVertex
100
AcDb2dVertex
 10
143.132214
 20
54.387219
 30
0.0
  0
VERTEX
  5
284
330
26C
100
AcDbEntity
  8
001
370
    50
100
AcDbVertex
100
AcDb2dVertex
 10
143.280337
 20
54.182632
 30
0.0
  0
VERTEX
  5
285
330
26C
100
AcDbEntity
  8
001
370
    50
100
AcDbVertex
100
AcDb2dVertex
 10
143.412011
 20
53.989794
 30
0.0
  0
VERTEX
  5
286
330
26C
100
AcDbEntity
  8
001
370
    50
100
AcDbVertex
100
AcDb2dVertex
 10
143.536901
 20
53.792601
 30
0.0
  0
VERTEX
  5
287
330
26C
100
AcDbEntity
  8
001
370
    50
100
AcDbVertex
100
AcDb2dVertex
 10
143.643809
 20
53.609008
 30
0.0
  0
VERTEX
  5
288
330
26C
100
AcDbEntity
  8
001
370
    50
100
AcDbVertex
100
AcDb2dVertex
 10
143.747047
 20
53.423225
 30
0.0
  0
SEQEND
  5
26D
330
26C
100
AcDbEntity
  8
001
370
    50
  0
LINE
  5
289
330
1F
100
AcDbEntity
  8
001
370
    50
100
AcDbLine
 10
136.638687
 20
58.577783
 30
0.0
 11
137.371687
 21
58.344961
 31
0.0
  0
LINE
  5
28A
330
1F
100
AcDbEntity
  8
001
370
    50
100
AcDbLine
 10
135.905687
 20
58.813315
 30
0.0
 11
136.638687
 21
58.577783
 31
0.0
  0
LINE
  5
28B
330
1F
100
AcDbEntity
  8
001
370
    50
100
AcDbLine
 10
135.172687
 20
59.051486
 30
0.0
 11
135.905687
 21
58.813315
 31
0.0
  0
LINE
  5
28C
330
1F
100
AcDbEntity
  8
001
370
    50
100
AcDbLine
 10
134.439687
 20
59.292222
 30
0.0
 11
135.172687
 21
59.051486
 31
0.0
  0
LINE
  5
28D
330
1F
100
AcDbEntity
  8
001
370
    50
100
AcDbLine
 10
133.706687
 20
59.535452
 30
0.0
 11
134.439687
 21
59.292222
 31
0.0
  0
LINE
  5
28E
330
1F
100
AcDbEntity
  8
001
370
    50
100
AcDbLine
 10
132.973687
 20
59.7811
 30
0.0
 11
133.706687
 21
59.535452
 31
0.0
  0
LINE
  5
28F
330
1F
100
AcDbEntity
  8
001
370
    50
100
AcDbLine
 10
132.240687
 20
60.029091
 30
0.0
 11
132.973687
 21
59.7811
 31
0.0
  0
LINE
  5
290
330
1F
100
AcDbEntity
  8
001
370
    50
100
AcDbLine
 10
131.507687
 20
60.279351
 30
0.0
 11
132.240687
 21
60.029091
 31
0.0
  0
LINE
  5
291
330
1F
100
AcDbEntity
  8
001
370
    50
100
AcDbLine
 10
130.774687
 20
60.531803
 30
0.0
 11
131.507687
 21
60.279351
 31
0.0
  0
LINE
  5
292
330
1F
100
AcDbEntity
  8
001
370
    50
100
AcDbLine
 10
130.041687
 20
60.78637
 30
0.0
 11
130.774687
 21
60.531803
 31
0.0
  0
LINE
  5
293
330
1F
100
AcDbEntity
  8
001
370
    50
100
AcDbLine
 10
129.308687
 20
61.042974
 30
0.0
 11
130.041687
 21
60.78637
 31
0.0
  0
LINE
  5
294
330
1F
100
AcDbEntity
  8
001
370
    50
100
AcDbLine
 10
128.575687
 20
61.301538
 30
0.0
 11
129.308687
 21
61.042974
 31
0.0
  0
LINE
  5
295
330
1F
100
AcDbEntity
  8
001
370
    50
100
AcDbLine
 10
127.842687
 20
61.561982
 30
0.0
 11
128.575687
 21
61.301538
 31
0.0
  0
LINE
  5
296
330
1F
100
AcDbEntity
  8
001
370
    50
100
AcDbLine
 10
127.109687
 20
61.824228
 30
0.0
 11
127.842687
 21
61.561982
 31
0.0
  0
LINE
  5
297
330
1F
100
AcDbEntity
  8
001
370
    50
100
AcDbLine
 10
126.376687
 20
62.088195
 30
0.0
 11
127.109687
 21
61.824228
 31
0.0
  0
LINE
  5
298
330
1F
100
AcDbEntity
  8
001
370
    50
100
AcDbLine
 10
125.643687
 20
62.353802
 30
0.0
 11
126.376687
 21
62.088195
 31
0.0
  0
LINE
  5
299
330
1F
100
AcDbEntity
  8
001
370
    50
100
AcDbLine
 10
124.910687
 20
62.62097
 30
0.0
 11
125.643687
 21
62.353802
 31
0.0
  0
LINE
  5
29A
330
1F
100
AcDbEntity
  8
001
370
    50
100
AcDbLine
 10
124.177687
 20
62.889617
 30
0.0
 11
124.910687
 21
62.62097
 31
0.0
  0
LINE
  5
29B
330
1F
100
AcDbEntity
  8
001
370
    50
100
AcDbLine
 10
123.444687
 20
63.159661
 30
0.0
 11
124.177687
 21
62.889617
 31
0.0
  0
LINE
  5
29C
330
1F
100
AcDbEntity
  8
001
370
    50
100
AcDbLine
 10
122.711687
 20
63.431019
 30
0.0
 11
123.444687
 21
63.159661
 31
0.0
  0
LINE
  5
29D
330
1F
100
AcDbEntity
  8
001
370
    50
100
AcDbLine
 10
121.978687
 20
63.703609
 30
0.0
 11
122.711687
 21
63.431019
 31
0.0
  0
LINE
  5
29E
330
1F
100
AcDbEntity
  8
001
370
    50
100
AcDbLine
 10
121.245687
 20
63.977348
 30
0.0
 11
121.978687
 21
63.703609
 31
0.0
  0
LINE
  5
29F
330
1F
100
AcDbEntity
  8
001
370
    50
100
AcDbLine
 10
120.512687
 20
64.252152
 30
0.0
 11
121.245687
 21
63.977348
 31
0.0
  0
LINE
  5
2A0
330
1F
100
AcDbEntity
  8
001
370
    50
100
AcDbLine
 10
119.779687
 20
64.527939
 30
0.0
 11
120.512687
 21
64.252152
 31
0.0
  0
POLYLINE
  5
2A1
330
1F
100
AcDbEntity
  8
001
370
    50
100
AcDb2dPolyline
 66
     1
 10
0.0
 20
0.0
 30
0.0
  0
VERTEX
  5
2A3
330
2A1
100
AcDbEntity
  8
001
370
    50
100
AcDbVertex
100
AcDb2dVertex
 10
119.046687
 20
64.804623
 30
0.0
  0
VERTEX
  5
2A4
330
2A1
100
AcDbEntity
  8
001
370
    50
100
AcDbVertex
100
AcDb2dVertex
 10
119.195832
 20
64.754346
 30
0.0
  0
VERTEX
  5
2A5
330
2A1
100
AcDbEntity
  8
001
370
    50
100
AcDbVertex
100
AcDb2dVertex
 10
119.344187
 20
64.701947
 30
0.0
  0
VERTEX
  5
2A6
330
2A1
100
AcDbEntity
  8
001
370
    50
100
AcDbVertex
100
AcDb2dVertex
 10
119.562814
 20
64.6173
 30
0.0
  0
VERTEX
  5
2A7
330
2A1
100
AcDbEntity
  8
001
370
    50
100
AcDbVertex
100
AcDb2dVertex
 10
119.779687
 20
64.527939
 30
0.0
  0
SEQEND
  5
2A2
330
2A1
100
AcDbEntity
  8
001
370
    50
  0
LINE
  5
2A8
330
1F
100
AcDbEntity
  8
001
370
    50
100
AcDbLine
 10
118.313687
 20
65.08212
 30
0.0
 11
119.046687
 21
64.804623
 31
0.0
  0
LINE
  5
2A9
330
1F
100
AcDbEntity
  8
001
370
    50
100
AcDbLine
 10
117.580687
 20
65.360347
 30
0.0
 11
118.313687
 21
65.08212
 31
0.0
  0
LINE
  5
2AA
330
1F
100
AcDbEntity
  8
001
370
    50
100
AcDbLine
 10
116.847687
 20
65.639218
 30
0.0
 11
117.580687
 21
65.360347
 31
0.0
  0
LINE
  5
2AB
330
1F
100
AcDbEntity
  8
001
370
    50
100
AcDbLine
 10
116.803456
 20
65.658401
 30
0.0
 11
116.847687
 21
65.639218
 31
0.0
  0
LINE
  5
2AC
330
1F
100
AcDbEntity
  8
001
370
    50
100
AcDbLine
 10
116.803456
 20
83.575331
 30
0.0
 11
112.892416
 21
79.525331
 31
0.0
  0
POLYLINE
  5
2AD
330
1F
100
AcDbEntity
  8
001
370
    50
100
AcDb2dPolyline
 66
     1
 10
0.0
 20
0.0
 30
0.0
  0
VERTEX
  5
2AF
330
2AD
100
AcDbEntity
  8
001
370
    50
100
AcDbVertex
100
AcDb2dVertex
 10
116.127466
 20
66.565348
 30
0.0
  0
VERTEX
  5
2B0
330
2AD
100
AcDbEntity
  8
001
370
    50
100
AcDbVertex
100
AcDb2dVertex
 10
116.301376
 20
66.34775
 30
0.0
  0
VERTEX
  5
2B1
330
2AD
100
AcDbEntity
  8
001
370
    50
100
AcDbVertex
100
AcDb2dVertex
 10
116.471269
 20
66.127155
 30
0.0
  0
VERTEX
  5
2B2
330
2AD
100
AcDbEntity
  8
001
370
    50
100
AcDbVertex
100
AcDb2dVertex
 10
116.6395
 20
65.894372
 30
0.0
  0
VERTEX
  5
2B3
330
2AD
100
AcDbEntity
  8
001
370
    50
100
AcDbVertex
100
AcDb2dVertex
 10
116.803456
 20
65.658401
 30
0.0
  0
SEQEND
  5
2AE
330
2AD
100
AcDbEntity
  8
001
370
    50
  0
POLYLINE
  5
2B4
330
1F
100
AcDbEntity
  8
001
370
    50
100
AcDb2dPolyline
 66
     1
 10
0.0
 20
0.0
 30
0.0
  0
VERTEX
  5
2B6
330
2B4
100
AcDbEntity
  8
001
370
    50
100
AcDbVertex
100
AcDb2dVertex
 10
115.382833
 20
67.43834
 30
0.0
  0
VERTEX
  5
2B7
330
2B4
100
AcDbEntity
  8
001
370
    50
100
AcDbVertex
100
AcDb2dVertex
 10
115.574327
 20
67.231391
 30
0.0
  0
VERTEX
  5
2B8
330
2B4
100
AcDbEntity
  8
001
370
    50
100
AcDbVertex
100
AcDb2dVertex
 10
115.761217
 20
67.02051
 30
0.0
  0
VERTEX
  5
2B9
330
2B4
100
AcDbEntity
  8
001
370
    50
100
AcDbVertex
100
AcDb2dVertex
 10
115.946814
 20
66.79504
 30
0.0
  0
VERTEX
  5
2BA
330
2B4
100
AcDbEntity
  8
001
370
    50
100
AcDbVertex
100
AcDb2dVertex
 10
116.127466
 20
66.565348
 30
0.0
  0
SEQEND
  5
2B5
330
2B4
100
AcDbEntity
  8
001
370
    50
  0
POLYLINE
  5
2BB
330
1F
100
AcDbEntity
  8
001
370
    50
100
AcDb2dPolyline
 66
     1
 10
0.0
 20
0.0
 30
0.0
  0
VERTEX
  5
2BD
330
2BB
100
AcDbEntity
  8
001
370
    50
100
AcDbVertex
100
AcDb2dVertex
 10
114.612746
 20
68.207944
 30
0.0
  0
VERTEX
  5
2BE
330
2BB
100
AcDbEntity
  8
001
370
    50
100
AcDbVertex
100
AcDb2dVertex
 10
114.844855
 20
67.994616
 30
0.0
  0
VERTEX
  5
2BF
330
2BB
100
AcDbEntity
  8
001
370
    50
100
AcDbVertex
100
AcDb2dVertex
 10
115.070599
 20
67.774985
 30
0.0
  0
VERTEX
  5
2C0
330
2BB
100
AcDbEntity
  8
001
370
    50
100
AcDbVertex
100
AcDb2dVertex
 10
115.228405
 20
67.608336
 30
0.0
  0
VERTEX
  5
2C1
330
2BB
100
AcDbEntity
  8
001
370
    50
100
AcDbVertex
100
AcDb2dVertex
 10
115.382833
 20
67.43834
 30
0.0
  0
SEQEND
  5
2BC
330
2BB
100
AcDbEntity
  8
001
370
    50
  0
POLYLINE
  5
2C2
330
1F
100
AcDbEntity
  8
001
370
    50
100
AcDb2dPolyline
 66
     1
 10
0.0
 20
0.0
 30
0.0
  0
VERTEX
  5
2C4
330
2C2
100
AcDbEntity
  8
001
370
    50
100
AcDbVertex
100
AcDb2dVertex
 10
113.81773
 20
68.868635
 30
0.0
  0
VERTEX
  5
2C5
330
2C2
100
AcDbEntity
  8
001
370
    50
100
AcDbVertex
100
AcDb2dVertex
 10
114.021265
 20
68.716547
 30
0.0
  0
VERTEX
  5
2C6
330
2C2
100
AcDbEntity
  8
001
370
    50
100
AcDbVertex
100
AcDb2dVertex
 10
114.22035
 20
68.559096
 30
0.0
  0
VERTEX
  5
2C7
330
2C2
100
AcDbEntity
  8
001
370
    50
100
AcDbVertex
100
AcDb2dVertex
 10
114.41894
 20
68.386403
 30
0.0
  0
VERTEX
  5
2C8
330
2C2
100
AcDbEntity
  8
001
370
    50
100
AcDbVertex
100
AcDb2dVertex
 10
114.612746
 20
68.207944
 30
0.0
  0
SEQEND
  5
2C3
330
2C2
100
AcDbEntity
  8
001
370
    50
  0
POLYLINE
  5
2C9
330
1F
100
AcDbEntity
  8
001
370
    50
100
AcDb2dPolyline
 66
     1
 10
0.0
 20
0.0
 30
0.0
  0
VERTEX
  5
2CB
330
2C9
100
AcDbEntity
  8
001
370
    50
100
AcDbVertex
100
AcDb2dVertex
 10
112.998292
 20
69.415331
 30
0.0
  0
VERTEX
  5
2CC
330
2C9
100
AcDbEntity
  8
001
370
    50
100
AcDbVertex
100
AcDb2dVertex
 10
113.207534
 20
69.292573
 30
0.0
  0
VERTEX
  5
2CD
330
2C9
100
AcDbEntity
  8
001
370
    50
100
AcDbVertex
100
AcDb2dVertex
 10
113.412641
 20
69.163607
 30
0.0
  0
VERTEX
  5
2CE
330
2C9
100
AcDbEntity
  8
001
370
    50
100
AcDbVertex
100
AcDb2dVertex
 10
113.617394
 20
69.019437
 30
0.0
  0
VERTEX
  5
2CF
330
2C9
100
AcDbEntity
  8
001
370
    50
100
AcDbVertex
100
AcDb2dVertex
 10
113.81773
 20
68.868635
 30
0.0
  0
SEQEND
  5
2CA
330
2C9
100
AcDbEntity
  8
001
370
    50
  0
LINE
  5
2D0
330
1F
100
AcDbEntity
  8
001
370
    50
100
AcDbLine
 10
112.892416
 20
69.479949
 30
0.0
 11
112.998292
 21
69.415331
 31
0.0
  0
LINE
  5
2D1
330
1F
100
AcDbEntity
  8
001
370
    50
100
AcDbLine
 10
150.392416
 20
83.475331
 30
0.0
 11
219.392416
 21
83.475331
 31
0.0
  0
LINE
  5
2D2
330
1F
100
AcDbEntity
  8
001
370
    50
100
AcDbLine
 10
150.392416
 20
51.475331
 30
0.0
 11
219.392416
 21
51.475331
 31
0.0
  0
ARC
  5
2D3
330
1F
100
AcDbEntity
  8
001
370
    50
100
AcDbCircle
 10
219.392416
 20
75.475331
 30
0.0
 40
8.000000000000007
100
AcDbArc
 50
0.0
 51
90.0
  0
ARC
  5
2D4
330
1F
100
AcDbEntity
  8
001
370
    50
100
AcDbCircle
 10
219.392416
 20
59.475331
 30
0.0
 40
8.000000000000007
100
AcDbArc
 50
270.0
 51
0.0
  0
LINE
  5
2D5
330
1F
100
AcDbEntity
  8
001
370
    50
100
AcDbLine
 10
227.392416
 20
75.475331
 30
0.0
 11
227.392416
 21
59.475331
 31
0.0
  0
POLYLINE
  5
2D6
330
1F
100
AcDbEntity
  8
001
  6
DASHED
370
    50
100
AcDb2dPolyline
 66
     1
 10
0.0
 20
0.0
 30
0.0
  0
VERTEX
  5
2D8
330
2D6
100
AcDbEntity
  8
001
  6
DASHED
370
    50
100
AcDbVertex
100
AcDb2dVertex
 10
112.881983
 20
69.492767
 30
0.0
  0
VERTEX
  5
2D9
330
2D6
100
AcDbEntity
  8
001
  6
DASHED
370
    50
100
AcDbVertex
100
AcDb2dVertex
 10
112.881221
 20
69.492067
 30
0.0
  0
VERTEX
  5
2DA
330
2D6
100
AcDbEntity
  8
001
  6
DASHED
370
    50
100
AcDbVertex
100
AcDb2dVertex
 10
112.880109
 20
69.491043
 30
0.0
  0
VERTEX
  5
2DB
330
2D6
100
AcDbEntity
  8
001
  6
DASHED
370
    50
100
AcDbVertex
100
AcDb2dVertex
 10
112.878996
 20
69.490015
 30
0.0
  0
VERTEX
  5
2DC
330
2D6
100
AcDbEntity
  8
001
  6
DASHED
370
    50
100
AcDbVertex
100
AcDb2dVertex
 10
112.878235
 20
69.489311
 30
0.0
  0
SEQEND
  5
2D7
330
2D6
100
AcDbEntity
  8
001
  6
DASHED
370
    50
  0
LINE
  5
2DD
330
1F
100
AcDbEntity
  8
001
370
    50
100
AcDbLine
 10
112.252582
 20
69.657206
 30
0.0
 11
112.892416
 21
69.479949
 31
0.0
  0
LINE
  5
2DE
330
1F
100
AcDbEntity
  8
001
370
    50
100
AcDbLine
 10
112.892416
 20
79.525331
 30
0.0
 11
96.892416
 21
79.525331
 31
0.0
  0
LINE
  5
2DF
330
1F
100
AcDbEntity
  8
001
370
    50
100
AcDbLine
 10
111.519582
 20
69.863699
 30
0.0
 11
112.252582
 21
69.657206
 31
0.0
  0
LINE
  5
2E0
330
1F
100
AcDbEntity
  8
001
370
    50
100
AcDbLine
 10
110.786582
 20
70.069465
 30
0.0
 11
111.519582
 21
69.863699
 31
0.0
  0
LINE
  5
2E1
330
1F
100
AcDbEntity
  8
001
370
    50
100
AcDbLine
 10
110.053582
 20
70.27444
 30
0.0
 11
110.786582
 21
70.069465
 31
0.0
  0
LINE
  5
2E2
330
1F
100
AcDbEntity
  8
001
370
    50
100
AcDbLine
 10
109.320582
 20
70.478563
 30
0.0
 11
110.053582
 21
70.27444
 31
0.0
  0
LINE
  5
2E3
330
1F
100
AcDbEntity
  8
001
370
    50
100
AcDbLine
 10
108.587582
 20
70.681771
 30
0.0
 11
109.320582
 21
70.478563
 31
0.0
  0
LINE
  5
2E4
330
1F
100
AcDbEntity
  8
001
370
    50
100
AcDbLine
 10
107.854582
 20
70.884002
 30
0.0
 11
108.587582
 21
70.681771
 31
0.0
  0
LINE
  5
2E5
330
1F
100
AcDbEntity
  8
001
370
    50
100
AcDbLine
 10
107.121582
 20
71.085195
 30
0.0
 11
107.854582
 21
70.884002
 31
0.0
  0
LINE
  5
2E6
330
1F
100
AcDbEntity
  8
001
370
    50
100
AcDbLine
 10
106.388582
 20
71.285288
 30
0.0
 11
107.121582
 21
71.085195
 31
0.0
  0
LINE
  5
2E7
330
1F
100
AcDbEntity
  8
001
370
    50
100
AcDbLine
 10
105.655582
 20
71.48422
 30
0.0
 11
106.388582
 21
71.285288
 31
0.0
  0
LINE
  5
2E8
330
1F
100
AcDbEntity
  8
001
370
    50
100
AcDbLine
 10
104.922582
 20
71.681932
 30
0.0
 11
105.655582
 21
71.48422
 31
0.0
  0
LINE
  5
2E9
330
1F
100
AcDbEntity
  8
001
370
    50
100
AcDbLine
 10
104.189582
 20
71.878362
 30
0.0
 11
104.922582
 21
71.681932
 31
0.0
  0
LINE
  5
2EA
330
1F
100
AcDbEntity
  8
001
370
    50
100
AcDbLine
 10
103.456582
 20
72.073451
 30
0.0
 11
104.189582
 21
71.878362
 31
0.0
  0
LINE
  5
2EB
330
1F
100
AcDbEntity
  8
001
370
    50
100
AcDbLine
 10
102.723582
 20
72.267139
 30
0.0
 11
103.456582
 21
72.073451
 31
0.0
  0
LINE
  5
2EC
330
1F
100
AcDbEntity
  8
001
370
    50
100
AcDbLine
 10
101.990582
 20
72.459368
 30
0.0
 11
102.404942
 21
72.358108
 31
0.0
  0
LINE
  5
2ED
330
1F
100
AcDbEntity
  8
001
370
    50
100
AcDbLine
 10
101.257582
 20
72.650079
 30
0.0
 11
101.990582
 21
72.459368
 31
0.0
  0
LINE
  5
2EE
330
1F
100
AcDbEntity
  8
001
370
    50
100
AcDbLine
 10
100.524582
 20
72.839213
 30
0.0
 11
101.257582
 21
72.650079
 31
0.0
  0
LINE
  5
2EF
330
1F
100
AcDbEntity
  8
001
370
    50
100
AcDbLine
 10
99.791582
 20
73.026713
 30
0.0
 11
100.524582
 21
72.839213
 31
0.0
  0
LINE
  5
2F0
330
1F
100
AcDbEntity
  8
001
370
    50
100
AcDbLine
 10
99.058582
 20
73.212522
 30
0.0
 11
99.791582
 21
73.026713
 31
0.0
  0
LINE
  5
2F1
330
1F
100
AcDbEntity
  8
001
370
    50
100
AcDbLine
 10
98.325582
 20
73.396584
 30
0.0
 11
99.058582
 21
73.212522
 31
0.0
  0
LINE
  5
2F2
330
1F
100
AcDbEntity
  8
001
370
    50
100
AcDbLine
 10
97.592582
 20
73.578842
 30
0.0
 11
98.325582
 21
73.396584
 31
0.0
  0
LINE
  5
2F3
330
1F
100
AcDbEntity
  8
001
370
    50
100
AcDbLine
 10
96.892416
 20
73.752365
 30
0.0
 11
97.592582
 21
73.578842
 31
0.0
  0
POLYLINE
  5
2F4
330
1F
100
AcDbEntity
  8
001
370
    50
100
AcDb2dPolyline
 66
     1
 10
0.0
 20
0.0
 30
0.0
  0
VERTEX
  5
2F6
330
2F4
100
AcDbEntity
  8
001
370
    50
100
AcDbVertex
100
AcDb2dVertex
 10
105.770804
 20
63.168719
 30
0.0
  0
VERTEX
  5
2F7
330
2F4
100
AcDbEntity
  8
001
370
    50
100
AcDbVertex
100
AcDb2dVertex
 10
105.753995
 20
63.336049
 30
0.0
  0
VERTEX
  5
2F8
330
2F4
100
AcDbEntity
  8
001
370
    50
100
AcDbVertex
100
AcDb2dVertex
 10
105.728353
 20
63.501789
 30
0.0
  0
VERTEX
  5
2F9
330
2F4
100
AcDbEntity
  8
001
370
    50
100
AcDbVertex
100
AcDb2dVertex
 10
105.686111
 20
63.667444
 30
0.0
  0
VERTEX
  5
2FA
330
2F4
100
AcDbEntity
  8
001
370
    50
100
AcDbVertex
100
AcDb2dVertex
 10
105.628739
 20
63.828925
 30
0.0
  0
VERTEX
  5
2FB
330
2F4
100
AcDbEntity
  8
001
370
    50
100
AcDbVertex
100
AcDb2dVertex
 10
105.578809
 20
63.943296
 30
0.0
  0
VERTEX
  5
2FC
330
2F4
100
AcDbEntity
  8
001
370
    50
100
AcDbVertex
100
AcDb2dVertex
 10
105.521223
 20
64.053701
 30
0.0
  0
VERTEX
  5
2FD
330
2F4
100
AcDbEntity
  8
001
370
    50
100
AcDbVertex
100
AcDb2dVertex
 10
105.454935
 20
64.160541
 30
0.0
  0
VERTEX
  5
2FE
330
2F4
100
AcDbEntity
  8
001
370
    50
100
AcDbVertex
100
AcDb2dVertex
 10
105.384068
 20
64.264701
 30
0.0
  0
SEQEND
  5
2F5
330
2F4
100
AcDbEntity
  8
001
370
    50
  0
POLYLINE
  5
2FF
330
1F
100
AcDbEntity
  8
001
370
    50
100
AcDb2dPolyline
 66
     1
 10
0.0
 20
0.0
 30
0.0
  0
VERTEX
  5
301
330
2FF
100
AcDbEntity
  8
001
370
    50
100
AcDbVertex
100
AcDb2dVertex
 10
105.384068
 20
64.264701
 30
0.0
  0
VERTEX
  5
302
330
2FF
100
AcDbEntity
  8
001
370
    50
100
AcDbVertex
100
AcDb2dVertex
 10
105.297129
 20
64.367667
 30
0.0
  0
VERTEX
  5
303
330
2FF
100
AcDbEntity
  8
001
370
    50
100
AcDbVertex
100
AcDb2dVertex
 10
105.205917
 20
64.466667
 30
0.0
  0
VERTEX
  5
304
330
2FF
100
AcDbEntity
  8
001
370
    50
100
AcDbVertex
100
AcDb2dVertex
 10
105.112886
 20
64.553257
 30
0.0
  0
VERTEX
  5
305
330
2FF
100
AcDbEntity
  8
001
370
    50
100
AcDbVertex
100
AcDb2dVertex
 10
105.013137
 20
64.632017
 30
0.0
  0
VERTEX
  5
306
330
2FF
100
AcDbEntity
  8
001
370
    50
100
AcDbVertex
100
AcDb2dVertex
 10
104.905862
 20
64.704284
 30
0.0
  0
VERTEX
  5
307
330
2FF
100
AcDbEntity
  8
001
370
    50
100
AcDbVertex
100
AcDb2dVertex
 10
104.795559
 20
64.772084
 30
0.0
  0
SEQEND
  5
300
330
2FF
100
AcDbEntity
  8
001
370
    50
  0
POLYLINE
  5
308
330
1F
100
AcDbEntity
  8
001
370
    50
100
AcDb2dPolyline
 66
     1
 10
0.0
 20
0.0
 30
0.0
  0
VERTEX
  5
30A
330
308
100
AcDbEntity
  8
001
370
    50
100
AcDbVertex
100
AcDb2dVertex
 10
104.795559
 20
64.772084
 30
0.0
  0
VERTEX
  5
30B
330
308
100
AcDbEntity
  8
001
370
    50
100
AcDbVertex
100
AcDb2dVertex
 10
104.658643
 20
64.836784
 30
0.0
  0
VERTEX
  5
30C
330
308
100
AcDbEntity
  8
001
370
    50
100
AcDbVertex
100
AcDb2dVertex
 10
104.518971
 20
64.894615
 30
0.0
  0
VERTEX
  5
30D
330
308
100
AcDbEntity
  8
001
370
    50
100
AcDbVertex
100
AcDb2dVertex
 10
104.370349
 20
64.941104
 30
0.0
  0
VERTEX
  5
30E
330
308
100
AcDbEntity
  8
001
370
    50
100
AcDbVertex
100
AcDb2dVertex
 10
104.218018
 20
64.973945
 30
0.0
  0
VERTEX
  5
30F
330
308
100
AcDbEntity
  8
001
370
    50
100
AcDbVertex
100
AcDb2dVertex
 10
104.17003
 20
64.981644
 30
0.0
  0
VERTEX
  5
310
330
308
100
AcDbEntity
  8
001
370
    50
100
AcDbVertex
100
AcDb2dVertex
 10
104.121965
 20
64.98872
 30
0.0
  0
SEQEND
  5
309
330
308
100
AcDbEntity
  8
001
370
    50
  0
POLYLINE
  5
311
330
1F
100
AcDbEntity
  8
001
370
    50
100
AcDb2dPolyline
 66
     1
 10
0.0
 20
0.0
 30
0.0
  0
VERTEX
  5
313
330
311
100
AcDbEntity
  8
001
370
    50
100
AcDbVertex
100
AcDb2dVertex
 10
104.121965
 20
64.98872
 30
0.0
  0
VERTEX
  5
314
330
311
100
AcDbEntity
  8
001
370
    50
100
AcDbVertex
100
AcDb2dVertex
 10
104.000409
 20
64.999461
 30
0.0
  0
VERTEX
  5
315
330
311
100
AcDbEntity
  8
001
370
    50
100
AcDbVertex
100
AcDb2dVertex
 10
103.878665
 20
65.004707
 30
0.0
  0
VERTEX
  5
316
330
311
100
AcDbEntity
  8
001
370
    50
100
AcDbVertex
100
AcDb2dVertex
 10
103.873134
 20
65.004727
 30
0.0
  0
VERTEX
  5
317
330
311
100
AcDbEntity
  8
001
370
    50
100
AcDbVertex
100
AcDb2dVertex
 10
103.867603
 20
65.004737
 30
0.0
  0
SEQEND
  5
312
330
311
100
AcDbEntity
  8
001
370
    50
  0
POLYLINE
  5
318
330
1F
100
AcDbEntity
  8
001
370
    50
100
AcDb2dPolyline
 66
     1
 10
0.0
 20
0.0
 30
0.0
  0
VERTEX
  5
31A
330
318
100
AcDbEntity
  8
001
370
    50
100
AcDbVertex
100
AcDb2dVertex
 10
103.370065
 20
64.943365
 30
0.0
  0
VERTEX
  5
31B
330
318
100
AcDbEntity
  8
001
370
    50
100
AcDbVertex
100
AcDb2dVertex
 10
103.184107
 20
64.884757
 30
0.0
  0
VERTEX
  5
31C
330
318
100
AcDbEntity
  8
001
370
    50
100
AcDbVertex
100
AcDb2dVertex
 10
103.002221
 20
64.815752
 30
0.0
  0
VERTEX
  5
31D
330
318
100
AcDbEntity
  8
001
370
    50
100
AcDbVertex
100
AcDb2dVertex
 10
102.869851
 20
64.751264
 30
0.0
  0
VERTEX
  5
31E
330
318
100
AcDbEntity
  8
001
370
    50
100
AcDbVertex
100
AcDb2dVertex
 10
102.743361
 20
64.67581
 30
0.0
  0
VERTEX
  5
31F
330
318
100
AcDbEntity
  8
001
370
    50
100
AcDbVertex
100
AcDb2dVertex
 10
102.620954
 20
64.589298
 30
0.0
  0
VERTEX
  5
320
330
318
100
AcDbEntity
  8
001
370
    50
100
AcDbVertex
100
AcDb2dVertex
 10
102.502236
 20
64.497568
 30
0.0
  0
SEQEND
  5
319
330
318
100
AcDbEntity
  8
001
370
    50
  0
POLYLINE
  5
321
330
1F
100
AcDbEntity
  8
001
370
    50
100
AcDb2dPolyline
 66
     1
 10
0.0
 20
0.0
 30
0.0
  0
VERTEX
  5
323
330
321
100
AcDbEntity
  8
001
370
    50
100
AcDbVertex
100
AcDb2dVertex
 10
101.695975
 20
64.256301
 30
0.0
  0
VERTEX
  5
324
330
321
100
AcDbEntity
  8
001
370
    50
100
AcDbVertex
100
AcDb2dVertex
 10
101.813298
 20
64.258735
 30
0.0
  0
VERTEX
  5
325
330
321
100
AcDbEntity
  8
001
370
    50
100
AcDbVertex
100
AcDb2dVertex
 10
101.984753
 20
64.262949
 30
0.0
  0
VERTEX
  5
326
330
321
100
AcDbEntity
  8
001
370
    50
100
AcDbVertex
100
AcDb2dVertex
 10
102.156583
 20
64.268089
 30
0.0
  0
VERTEX
  5
327
330
321
100
AcDbEntity
  8
001
370
    50
100
AcDbVertex
100
AcDb2dVertex
 10
102.274137
 20
64.272056
 30
0.0
  0
SEQEND
  5
322
330
321
100
AcDbEntity
  8
001
370
    50
  0
LINE
  5
328
330
1F
100
AcDbEntity
  8
001
370
    50
100
AcDbLine
 10
102.502236
 20
64.497568
 30
0.0
 11
102.274137
 21
64.272056
 31
0.0
  0
POLYLINE
  5
329
330
1F
100
AcDbEntity
  8
001
370
    50
100
AcDb2dPolyline
 66
     1
 10
0.0
 20
0.0
 30
0.0
  0
VERTEX
  5
32B
330
329
100
AcDbEntity
  8
001
370
    50
100
AcDbVertex
100
AcDb2dVertex
 10
100.952034
 20
64.234533
 30
0.0
  0
VERTEX
  5
32C
330
329
100
AcDbEntity
  8
001
370
    50
100
AcDbVertex
100
AcDb2dVertex
 10
101.102982
 20
64.237702
 30
0.0
  0
VERTEX
  5
32D
330
329
100
AcDbEntity
  8
001
370
    50
100
AcDbVertex
100
AcDb2dVertex
 10
101.32357
 20
64.243407
 30
0.0
  0
VERTEX
  5
32E
330
329
100
AcDbEntity
  8
001
370
    50
100
AcDbVertex
100
AcDb2dVertex
 10
101.5447
 20
64.250626
 30
0.0
  0
VERTEX
  5
32F
330
329
100
AcDbEntity
  8
001
370
    50
100
AcDbVertex
100
AcDb2dVertex
 10
101.695975
 20
64.256301
 30
0.0
  0
SEQEND
  5
32A
330
329
100
AcDbEntity
  8
001
370
    50
  0
POLYLINE
  5
330
330
1F
100
AcDbEntity
  8
001
370
    50
100
AcDb2dPolyline
 66
     1
 10
0.0
 20
0.0
 30
0.0
  0
VERTEX
  5
332
330
330
100
AcDbEntity
  8
001
370
    50
100
AcDbVertex
100
AcDb2dVertex
 10
100.207994
 20
64.213066
 30
0.0
  0
VERTEX
  5
333
330
330
100
AcDbEntity
  8
001
370
    50
100
AcDbVertex
100
AcDb2dVertex
 10
100.358959
 20
64.216186
 30
0.0
  0
VERTEX
  5
334
330
330
100
AcDbEntity
  8
001
370
    50
100
AcDbVertex
100
AcDb2dVertex
 10
100.579572
 20
64.221809
 30
0.0
  0
VERTEX
  5
335
330
330
100
AcDbEntity
  8
001
370
    50
100
AcDbVertex
100
AcDb2dVertex
 10
100.800735
 20
64.228932
 30
0.0
  0
VERTEX
  5
336
330
330
100
AcDbEntity
  8
001
370
    50
100
AcDbVertex
100
AcDb2dVertex
 10
100.952034
 20
64.234533
 30
0.0
  0
SEQEND
  5
331
330
330
100
AcDbEntity
  8
001
370
    50
  0
POLYLINE
  5
337
330
1F
100
AcDbEntity
  8
001
370
    50
100
AcDb2dPolyline
 66
     1
 10
0.0
 20
0.0
 30
0.0
  0
VERTEX
  5
339
330
337
100
AcDbEntity
  8
001
370
    50
100
AcDbVertex
100
AcDb2dVertex
 10
99.561921
 20
64.193793
 30
0.0
  0
VERTEX
  5
33A
330
337
100
AcDbEntity
  8
001
370
    50
100
AcDbVertex
100
AcDb2dVertex
 10
99.693038
 20
64.196782
 30
0.0
  0
VERTEX
  5
33B
330
337
100
AcDbEntity
  8
001
370
    50
100
AcDbVertex
100
AcDb2dVertex
 10
99.884649
 20
64.201945
 30
0.0
  0
VERTEX
  5
33C
330
337
100
AcDbEntity
  8
001
370
    50
100
AcDbVertex
100
AcDb2dVertex
 10
100.076646
 20
64.208225
 30
0.0
  0
VERTEX
  5
33D
330
337
100
AcDbEntity
  8
001
370
    50
100
AcDbVertex
100
AcDb2dVertex
 10
100.207994
 20
64.213066
 30
0.0
  0
SEQEND
  5
338
330
337
100
AcDbEntity
  8
001
370
    50
  0
LINE
  5
33E
330
1F
100
AcDbEntity
  8
001
370
    50
100
AcDbLine
 10
99.561921
 20
64.193793
 30
0.0
 11
99.463262
 21
64.18979
 31
0.0
  0
LINE
  5
33F
330
1F
100
AcDbEntity
  8
001
370
    50
100
AcDbLine
 10
102.404942
 20
72.358108
 30
0.0
 11
102.723582
 21
72.267139
 31
0.0
  0
POLYLINE
  5
340
330
1F
100
AcDbEntity
  8
001
370
    50
100
AcDb2dPolyline
 66
     1
 10
0.0
 20
0.0
 30
0.0
  0
VERTEX
  5
342
330
340
100
AcDbEntity
  8
001
370
    50
100
AcDbVertex
100
AcDb2dVertex
 10
99.463262
 20
64.18979
 30
0.0
  0
VERTEX
  5
343
330
340
100
AcDbEntity
  8
001
370
    50
100
AcDbVertex
100
AcDb2dVertex
 10
99.312756
 20
64.171459
 30
0.0
  0
VERTEX
  5
344
330
340
100
AcDbEntity
  8
001
370
    50
100
AcDbVertex
100
AcDb2dVertex
 10
99.16313
 20
64.147734
 30
0.0
  0
VERTEX
  5
345
330
340
100
AcDbEntity
  8
001
370
    50
100
AcDbVertex
100
AcDb2dVertex
 10
99.013197
 20
64.113656
 30
0.0
  0
VERTEX
  5
346
330
340
100
AcDbEntity
  8
001
370
    50
100
AcDbVertex
100
AcDb2dVertex
 10
98.866035
 20
64.069015
 30
0.0
  0
VERTEX
  5
347
330
340
100
AcDbEntity
  8
001
370
    50
100
AcDbVertex
100
AcDb2dVertex
 10
98.768251
 20
64.033414
 30
0.0
  0
VERTEX
  5
348
330
340
100
AcDbEntity
  8
001
370
    50
100
AcDbVertex
100
AcDb2dVertex
 10
98.671323
 20
63.995512
 30
0.0
  0
SEQEND
  5
341
330
340
100
AcDbEntity
  8
001
370
    50
  0
POLYLINE
  5
349
330
1F
100
AcDbEntity
  8
001
370
    50
100
AcDb2dPolyline
 66
     1
 10
0.0
 20
0.0
 30
0.0
  0
VERTEX
  5
34B
330
349
100
AcDbEntity
  8
001
370
    50
100
AcDbVertex
100
AcDb2dVertex
 10
97.750519
 20
63.318906
 30
0.0
  0
VERTEX
  5
34C
330
349
100
AcDbEntity
  8
001
370
    50
100
AcDbVertex
100
AcDb2dVertex
 10
97.778175
 20
63.346785
 30
0.0
  0
VERTEX
  5
34D
330
349
100
AcDbEntity
  8
001
370
    50
100
AcDbVertex
100
AcDb2dVertex
 10
97.818568
 20
63.387556
 30
0.0
  0
VERTEX
  5
34E
330
349
100
AcDbEntity
  8
001
370
    50
100
AcDbVertex
100
AcDb2dVertex
 10
97.858948
 20
63.428384
 30
0.0
  0
VERTEX
  5
34F
330
349
100
AcDbEntity
  8
001
370
    50
100
AcDbVertex
100
AcDb2dVertex
 10
97.886559
 20
63.456336
 30
0.0
  0
SEQEND
  5
34A
330
349
100
AcDbEntity
  8
001
370
    50
  0
LINE
  5
350
330
1F
100
AcDbEntity
  8
001
370
    50
100
AcDbLine
 10
97.750519
 20
63.318906
 30
0.0
 11
97.752086
 21
63.324889
 31
0.0
  0
POLYLINE
  5
351
330
1F
100
AcDbEntity
  8
001
370
    50
100
AcDb2dPolyline
 66
     1
 10
0.0
 20
0.0
 30
0.0
  0
VERTEX
  5
353
330
351
100
AcDbEntity
  8
001
370
    50
100
AcDbVertex
100
AcDb2dVertex
 10
98.671323
 20
63.995512
 30
0.0
  0
VERTEX
  5
354
330
351
100
AcDbEntity
  8
001
370
    50
100
AcDbVertex
100
AcDb2dVertex
 10
98.517947
 20
63.919371
 30
0.0
  0
VERTEX
  5
355
330
351
100
AcDbEntity
  8
001
370
    50
100
AcDbVertex
100
AcDb2dVertex
 10
98.36792
 20
63.83717
 30
0.0
  0
VERTEX
  5
356
330
351
100
AcDbEntity
  8
001
370
    50
100
AcDbVertex
100
AcDb2dVertex
 10
98.221621
 20
63.742177
 30
0.0
  0
VERTEX
  5
357
330
351
100
AcDbEntity
  8
001
370
    50
100
AcDbVertex
100
AcDb2dVertex
 10
98.083482
 20
63.635631
 30
0.0
  0
VERTEX
  5
358
330
351
100
AcDbEntity
  8
001
370
    50
100
AcDbVertex
100
AcDb2dVertex
 10
97.983654
 20
63.54752
 30
0.0
  0
VERTEX
  5
359
330
351
100
AcDbEntity
  8
001
370
    50
100
AcDbVertex
100
AcDb2dVertex
 10
97.886559
 20
63.456336
 30
0.0
  0
SEQEND
  5
352
330
351
100
AcDbEntity
  8
001
370
    50
  0
LINE
  5
35A
330
1F
100
AcDbEntity
  8
001
370
    50
100
AcDbLine
 10
96.305197
 20
72.742545
 30
0.0
 11
96.892416
 21
72.932213
 31
0.0
  0
LINE
  5
35B
330
1F
100
AcDbEntity
  8
001
370
    50
100
AcDbLine
 10
96.892416
 20
76.679111
 30
0.0
 11
95.892416
 21
75.625331
 31
0.0
  0
LINE
  5
35C
330
1F
100
AcDbEntity
  8
001
370
    50
100
AcDbLine
 10
95.892416
 20
72.589824
 30
0.0
 11
96.305197
 21
72.742545
 31
0.0
  0
POLYLINE
  5
35D
330
1F
100
AcDbEntity
  8
001
370
    50
100
AcDb2dPolyline
 66
     1
 10
0.0
 20
0.0
 30
0.0
  0
VERTEX
  5
35F
330
35D
100
AcDbEntity
  8
001
370
    50
100
AcDbVertex
100
AcDb2dVertex
 10
96.986537
 20
63.0969
 30
0.0
  0
VERTEX
  5
360
330
35D
100
AcDbEntity
  8
001
370
    50
100
AcDbVertex
100
AcDb2dVertex
 10
97.099101
 20
63.09817
 30
0.0
  0
VERTEX
  5
361
330
35D
100
AcDbEntity
  8
001
370
    50
100
AcDbVertex
100
AcDb2dVertex
 10
97.263609
 20
63.10057
 30
0.0
  0
VERTEX
  5
362
330
35D
100
AcDbEntity
  8
001
370
    50
100
AcDbVertex
100
AcDb2dVertex
 10
97.428404
 20
63.103735
 30
0.0
  0
VERTEX
  5
363
330
35D
100
AcDbEntity
  8
001
370
    50
100
AcDbVertex
100
AcDb2dVertex
 10
97.541152
 20
63.106273
 30
0.0
  0
SEQEND
  5
35E
330
35D
100
AcDbEntity
  8
001
370
    50
  0
POLYLINE
  5
364
330
1F
100
AcDbEntity
  8
001
370
    50
100
AcDb2dPolyline
 66
     1
 10
0.0
 20
0.0
 30
0.0
  0
VERTEX
  5
366
330
364
100
AcDbEntity
  8
001
370
    50
100
AcDbVertex
100
AcDb2dVertex
 10
97.541152
 20
63.106273
 30
0.0
  0
VERTEX
  5
367
330
364
100
AcDbEntity
  8
001
370
    50
100
AcDbVertex
100
AcDb2dVertex
 10
97.583687
 20
63.149379
 30
0.0
  0
VERTEX
  5
368
330
364
100
AcDbEntity
  8
001
370
    50
100
AcDbVertex
100
AcDb2dVertex
 10
97.645814
 20
63.212419
 30
0.0
  0
VERTEX
  5
369
330
364
100
AcDbEntity
  8
001
370
    50
100
AcDbVertex
100
AcDb2dVertex
 10
97.707999
 20
63.27563
 30
0.0
  0
VERTEX
  5
36A
330
364
100
AcDbEntity
  8
001
370
    50
100
AcDbVertex
100
AcDb2dVertex
 10
97.750519
 20
63.318906
 30
0.0
  0
SEQEND
  5
365
330
364
100
AcDbEntity
  8
001
370
    50
  0
POLYLINE
  5
36B
330
1F
100
AcDbEntity
  8
001
370
    50
100
AcDb2dPolyline
 66
     1
 10
0.0
 20
0.0
 30
0.0
  0
VERTEX
  5
36D
330
36B
100
AcDbEntity
  8
001
370
    50
100
AcDbVertex
100
AcDb2dVertex
 10
103.867603
 20
65.004737
 30
0.0
  0
VERTEX
  5
36E
330
36B
100
AcDbEntity
  8
001
370
    50
100
AcDbVertex
100
AcDb2dVertex
 10
103.74918
 20
65.000418
 30
0.0
  0
VERTEX
  5
36F
330
36B
100
AcDbEntity
  8
001
370
    50
100
AcDbVertex
100
AcDb2dVertex
 10
103.631366
 20
64.991021
 30
0.0
  0
VERTEX
  5
370
330
36B
100
AcDbEntity
  8
001
370
    50
100
AcDbVertex
100
AcDb2dVertex
 10
103.500332
 20
64.970392
 30
0.0
  0
VERTEX
  5
371
330
36B
100
AcDbEntity
  8
001
370
    50
100
AcDbVertex
100
AcDb2dVertex
 10
103.370065
 20
64.943365
 30
0.0
  0
SEQEND
  5
36C
330
36B
100
AcDbEntity
  8
001
370
    50
  0
POLYLINE
  5
372
330
1F
100
AcDbEntity
  8
001
370
    50
100
AcDb2dPolyline
 66
     1
 10
0.0
 20
0.0
 30
0.0
  0
VERTEX
  5
374
330
372
100
AcDbEntity
  8
001
370
    50
100
AcDbVertex
100
AcDb2dVertex
 10
104.949619
 20
61.427665
 30
0.0
  0
VERTEX
  5
375
330
372
100
AcDbEntity
  8
001
370
    50
100
AcDbVertex
100
AcDb2dVertex
 10
105.109588
 20
61.569488
 30
0.0
  0
VERTEX
  5
376
330
372
100
AcDbEntity
  8
001
370
    50
100
AcDbVertex
100
AcDb2dVertex
 10
105.259374
 20
61.720853
 30
0.0
  0
VERTEX
  5
377
330
372
100
AcDbEntity
  8
001
370
    50
100
AcDbVertex
100
AcDb2dVertex
 10
105.361847
 20
61.84808
 30
0.0
  0
VERTEX
  5
378
330
372
100
AcDbEntity
  8
001
370
    50
100
AcDbVertex
100
AcDb2dVertex
 10
105.453448
 20
61.983803
 30
0.0
  0
VERTEX
  5
379
330
372
100
AcDbEntity
  8
001
370
    50
100
AcDbVertex
100
AcDb2dVertex
 10
105.534486
 20
62.124994
 30
0.0
  0
VERTEX
  5
37A
330
372
100
AcDbEntity
  8
001
370
    50
100
AcDbVertex
100
AcDb2dVertex
 10
105.604608
 20
62.271688
 30
0.0
  0
VERTEX
  5
37B
330
372
100
AcDbEntity
  8
001
370
    50
100
AcDbVertex
100
AcDb2dVertex
 10
105.665445
 20
62.431249
 30
0.0
  0
VERTEX
  5
37C
330
372
100
AcDbEntity
  8
001
370
    50
100
AcDbVertex
100
AcDb2dVertex
 10
105.713258
 20
62.595401
 30
0.0
  0
VERTEX
  5
37D
330
372
100
AcDbEntity
  8
001
370
    50
100
AcDbVertex
100
AcDb2dVertex
 10
105.747774
 20
62.762061
 30
0.0
  0
VERTEX
  5
37E
330
372
100
AcDbEntity
  8
001
370
    50
100
AcDbVertex
100
AcDb2dVertex
 10
105.76714
 20
62.930836
 30
0.0
  0
VERTEX
  5
37F
330
372
100
AcDbEntity
  8
001
370
    50
100
AcDbVertex
100
AcDb2dVertex
 10
105.771151
 20
63.049667
 30
0.0
  0
VERTEX
  5
380
330
372
100
AcDbEntity
  8
001
370
    50
100
AcDbVertex
100
AcDb2dVertex
 10
105.770804
 20
63.168719
 30
0.0
  0
SEQEND
  5
373
330
372
100
AcDbEntity
  8
001
370
    50
  0
LINE
  5
381
330
1F
100
AcDbEntity
  8
001
370
    50
100
AcDbLine
 10
104.890644
 20
61.384277
 30
0.0
 11
104.949619
 21
61.427665
 31
0.0
  0
LINE
  5
382
330
1F
100
AcDbEntity
  8
001
370
    50
100
AcDbLine
 10
96.892416
 20
72.932213
 30
0.0
 11
96.892416
 21
79.525331
 31
0.0
  0
LINE
  5
383
330
1F
100
AcDbEntity
  8
001
370
    50
100
AcDbLine
 10
95.892416
 20
63.035717
 30
0.0
 11
95.892416
 21
75.625331
 31
0.0
  0
POLYLINE
  5
384
330
1F
100
AcDbEntity
  8
001
370
    50
100
AcDb2dPolyline
 66
     1
 10
0.0
 20
0.0
 30
0.0
  0
VERTEX
  5
386
330
384
100
AcDbEntity
  8
001
370
    50
100
AcDbVertex
100
AcDb2dVertex
 10
96.676761
 20
63.08931
 30
0.0
  0
VERTEX
  5
387
330
384
100
AcDbEntity
  8
001
370
    50
100
AcDbVertex
100
AcDb2dVertex
 10
96.861289
 20
63.093563
 30
0.0
  0
VERTEX
  5
388
330
384
100
AcDbEntity
  8
001
370
    50
100
AcDbVertex
100
AcDb2dVertex
 10
96.986537
 20
63.0969
 30
0.0
  0
SEQEND
  5
385
330
384
100
AcDbEntity
  8
001
370
    50
  0
POLYLINE
  5
389
330
1F
100
AcDbEntity
  8
001
370
    50
100
AcDb2dPolyline
 66
     1
 10
0.0
 20
0.0
 30
0.0
  0
VERTEX
  5
38B
330
389
100
AcDbEntity
  8
001
370
    50
100
AcDbVertex
100
AcDb2dVertex
 10
95.892416
 20
63.074508
 30
0.0
  0
VERTEX
  5
38C
330
389
100
AcDbEntity
  8
001
370
    50
100
AcDbVertex
100
AcDb2dVertex
 10
95.95242
 20
63.075697
 30
0.0
  0
VERTEX
  5
38D
330
389
100
AcDbEntity
  8
001
370
    50
100
AcDbVertex
100
AcDb2dVertex
 10
96.040837
 20
63.0776
 30
0.0
  0
SEQEND
  5
38A
330
389
100
AcDbEntity
  8
001
370
    50
  0
LINE
  5
38E
330
1F
100
AcDbEntity
  8
001
370
    50
100
AcDbLine
 10
97.541152
 20
63.106273
 30
0.0
 11
97.536957
 21
63.08931
 31
0.0
  0
POLYLINE
  5
38F
330
1F
100
AcDbEntity
  8
001
370
    50
100
AcDb2dPolyline
 66
     1
 10
0.0
 20
0.0
 30
0.0
  0
VERTEX
  5
391
330
38F
100
AcDbEntity
  8
001
370
    50
100
AcDbVertex
100
AcDb2dVertex
 10
98.952874
 20
63.253998
 30
0.0
  0
VERTEX
  5
392
330
38F
100
AcDbEntity
  8
001
370
    50
100
AcDbVertex
100
AcDb2dVertex
 10
98.83323
 20
63.247217
 30
0.0
  0
VERTEX
  5
393
330
38F
100
AcDbEntity
  8
001
370
    50
100
AcDbVertex
100
AcDb2dVertex
 10
98.669174
 20
63.226075
 30
0.0
  0
VERTEX
  5
394
330
38F
100
AcDbEntity
  8
001
370
    50
100
AcDbVertex
100
AcDb2dVertex
 10
98.523373
 20
63.190272
 30
0.0
  0
VERTEX
  5
395
330
38F
100
AcDbEntity
  8
001
370
    50
100
AcDbVertex
100
AcDb2dVertex
 10
98.396036
 20
63.143347
 30
0.0
  0
VERTEX
  5
396
330
38F
100
AcDbEntity
  8
001
370
    50
100
AcDbVertex
100
AcDb2dVertex
 10
98.337058
 20
63.11787
 30
0.0
  0
VERTEX
  5
397
330
38F
100
AcDbEntity
  8
001
370
    50
100
AcDbVertex
100
AcDb2dVertex
 10
98.277831
 20
63.08931
 30
0.0
  0
SEQEND
  5
390
330
38F
100
AcDbEntity
  8
001
370
    50
  0
LINE
  5
398
330
1F
100
AcDbEntity
  8
001
370
    50
100
AcDbLine
 10
98.993765
 20
63.253998
 30
0.0
 11
98.952874
 21
63.253998
 31
0.0
  0
POLYLINE
  5
399
330
1F
100
AcDbEntity
  8
001
370
    50
100
AcDb2dPolyline
 66
     1
 10
0.0
 20
0.0
 30
0.0
  0
VERTEX
  5
39B
330
399
100
AcDbEntity
  8
001
370
    50
100
AcDbVertex
100
AcDb2dVertex
 10
102.274137
 20
64.272056
 30
0.0
  0
VERTEX
  5
39C
330
399
100
AcDbEntity
  8
001
370
    50
100
AcDbVertex
100
AcDb2dVertex
 10
102.180921
 20
64.204717
 30
0.0
  0
VERTEX
  5
39D
330
399
100
AcDbEntity
  8
001
370
    50
100
AcDbVertex
100
AcDb2dVertex
 10
102.048638
 20
64.104737
 30
0.0
  0
SEQEND
  5
39A
330
399
100
AcDbEntity
  8
001
370
    50
  0
POLYLINE
  5
39E
330
1F
100
AcDbEntity
  8
001
370
    50
100
AcDb2dPolyline
 66
     1
 10
0.0
 20
0.0
 30
0.0
  0
VERTEX
  5
3A0
330
39E
100
AcDbEntity
  8
001
370
    50
100
AcDbVertex
100
AcDb2dVertex
 10
103.77271
 20
61.110373
 30
0.0
  0
VERTEX
  5
3A1
330
39E
100
AcDbEntity
  8
001
370
    50
100
AcDbVertex
100
AcDb2dVertex
 10
103.917318
 20
61.165843
 30
0.0
  0
VERTEX
  5
3A2
330
39E
100
AcDbEntity
  8
001
370
    50
100
AcDbVertex
100
AcDb2dVertex
 10
104.048414
 20
61.231169
 30
0.0
  0
VERTEX
  5
3A3
330
39E
100
AcDbEntity
  8
001
370
    50
100
AcDbVertex
100
AcDb2dVertex
 10
104.197945
 20
61.320024
 30
0.0
  0
VERTEX
  5
3A4
330
39E
100
AcDbEntity
  8
001
370
    50
100
AcDbVertex
100
AcDb2dVertex
 10
104.342902
 20
61.422556
 30
0.0
  0
VERTEX
  5
3A5
330
39E
100
AcDbEntity
  8
001
370
    50
100
AcDbVertex
100
AcDb2dVertex
 10
104.477064
 20
61.537542
 30
0.0
  0
VERTEX
  5
3A6
330
39E
100
AcDbEntity
  8
001
370
    50
100
AcDbVertex
100
AcDb2dVertex
 10
104.599423
 20
61.663802
 30
0.0
  0
VERTEX
  5
3A7
330
39E
100
AcDbEntity
  8
001
370
    50
100
AcDbVertex
100
AcDb2dVertex
 10
104.710787
 20
61.800878
 30
0.0
  0
VERTEX
  5
3A8
330
39E
100
AcDbEntity
  8
001
370
    50
100
AcDbVertex
100
AcDb2dVertex
 10
104.809895
 20
61.947303
 30
0.0
  0
VERTEX
  5
3A9
330
39E
100
AcDbEntity
  8
001
370
    50
100
AcDbVertex
100
AcDb2dVertex
 10
104.895804
 20
62.102245
 30
0.0
  0
VERTEX
  5
3AA
330
39E
100
AcDbEntity
  8
001
370
    50
100
AcDbVertex
100
AcDb2dVertex
 10
104.967684
 20
62.264127
 30
0.0
  0
VERTEX
  5
3AB
330
39E
100
AcDbEntity
  8
001
370
    50
100
AcDbVertex
100
AcDb2dVertex
 10
105.025204
 20
62.432009
 30
0.0
  0
VERTEX
  5
3AC
330
39E
100
AcDbEntity
  8
001
370
    50
100
AcDbVertex
100
AcDb2dVertex
 10
105.06782
 20
62.604288
 30
0.0
  0
VERTEX
  5
3AD
330
39E
100
AcDbEntity
  8
001
370
    50
100
AcDbVertex
100
AcDb2dVertex
 10
105.095207
 20
62.779818
 30
0.0
  0
VERTEX
  5
3AE
330
39E
100
AcDbEntity
  8
001
370
    50
100
AcDbVertex
100
AcDb2dVertex
 10
105.107145
 20
62.957069
 30
0.0
  0
VERTEX
  5
3AF
330
39E
100
AcDbEntity
  8
001
370
    50
100
AcDbVertex
100
AcDb2dVertex
 10
105.103538
 20
63.134707
 30
0.0
  0
VERTEX
  5
3B0
330
39E
100
AcDbEntity
  8
001
370
    50
100
AcDbVertex
100
AcDb2dVertex
 10
105.08442
 20
63.311351
 30
0.0
  0
VERTEX
  5
3B1
330
39E
100
AcDbEntity
  8
001
370
    50
100
AcDbVertex
100
AcDb2dVertex
 10
105.049936
 20
63.485506
 30
0.0
  0
VERTEX
  5
3B2
330
39E
100
AcDbEntity
  8
001
370
    50
100
AcDbVertex
100
AcDb2dVertex
 10
105.000363
 20
63.655972
 30
0.0
  0
VERTEX
  5
3B3
330
39E
100
AcDbEntity
  8
001
370
    50
100
AcDbVertex
100
AcDb2dVertex
 10
104.936159
 20
63.821154
 30
0.0
  0
VERTEX
  5
3B4
330
39E
100
AcDbEntity
  8
001
370
    50
100
AcDbVertex
100
AcDb2dVertex
 10
104.857622
 20
63.98007
 30
0.0
  0
VERTEX
  5
3B5
330
39E
100
AcDbEntity
  8
001
370
    50
100
AcDbVertex
100
AcDb2dVertex
 10
104.765496
 20
64.131129
 30
0.0
  0
VERTEX
  5
3B6
330
39E
100
AcDbEntity
  8
001
370
    50
100
AcDbVertex
100
AcDb2dVertex
 10
104.660694
 20
64.273434
 30
0.0
  0
VERTEX
  5
3B7
330
39E
100
AcDbEntity
  8
001
370
    50
100
AcDbVertex
100
AcDb2dVertex
 10
104.544399
 20
64.405472
 30
0.0
  0
VERTEX
  5
3B8
330
39E
100
AcDbEntity
  8
001
370
    50
100
AcDbVertex
100
AcDb2dVertex
 10
104.415785
 20
64.526819
 30
0.0
  0
VERTEX
  5
3B9
330
39E
100
AcDbEntity
  8
001
370
    50
100
AcDbVertex
100
AcDb2dVertex
 10
104.275807
 20
64.636247
 30
0.0
  0
VERTEX
  5
3BA
330
39E
100
AcDbEntity
  8
001
370
    50
100
AcDbVertex
100
AcDb2dVertex
 10
104.130614
 20
64.732239
 30
0.0
  0
VERTEX
  5
3BB
330
39E
100
AcDbEntity
  8
001
370
    50
100
AcDbVertex
100
AcDb2dVertex
 10
103.983137
 20
64.813527
 30
0.0
  0
VERTEX
  5
3BC
330
39E
100
AcDbEntity
  8
001
370
    50
100
AcDbVertex
100
AcDb2dVertex
 10
103.814166
 20
64.883222
 30
0.0
  0
VERTEX
  5
3BD
330
39E
100
AcDbEntity
  8
001
370
    50
100
AcDbVertex
100
AcDb2dVertex
 10
103.619965
 20
64.94157
 30
0.0
  0
VERTEX
  5
3BE
330
39E
100
AcDbEntity
  8
001
370
    50
100
AcDbVertex
100
AcDb2dVertex
 10
103.476414
 20
64.97501
 30
0.0
  0
SEQEND
  5
39F
330
39E
100
AcDbEntity
  8
001
370
    50
  0
POLYLINE
  5
3BF
330
1F
100
AcDbEntity
  8
001
370
    50
100
AcDb2dPolyline
 66
     1
 10
0.0
 20
0.0
 30
0.0
  0
VERTEX
  5
3C1
330
3BF
100
AcDbEntity
  8
001
370
    50
100
AcDbVertex
100
AcDb2dVertex
 10
103.77271
 20
61.065943
 30
0.0
  0
VERTEX
  5
3C2
330
3BF
100
AcDbEntity
  8
001
370
    50
100
AcDbVertex
100
AcDb2dVertex
 10
103.968987
 20
61.099596
 30
0.0
  0
VERTEX
  5
3C3
330
3BF
100
AcDbEntity
  8
001
370
    50
100
AcDbVertex
100
AcDb2dVertex
 10
104.174539
 20
61.144164
 30
0.0
  0
VERTEX
  5
3C4
330
3BF
100
AcDbEntity
  8
001
370
    50
100
AcDbVertex
100
AcDb2dVertex
 10
104.603913
 20
61.273102
 30
0.0
  0
VERTEX
  5
3C5
330
3BF
100
AcDbEntity
  8
001
370
    50
100
AcDbVertex
100
AcDb2dVertex
 10
104.890644
 20
61.384277
 30
0.0
  0
SEQEND
  5
3C0
330
3BF
100
AcDbEntity
  8
001
370
    50
  0
POLYLINE
  5
3C6
330
1F
100
AcDbEntity
  8
001
370
    50
100
AcDb2dPolyline
 66
     1
 10
0.0
 20
0.0
 30
0.0
  0
VERTEX
  5
3C8
330
3C6
100
AcDbEntity
  8
001
370
    50
100
AcDbVertex
100
AcDb2dVertex
 10
104.890644
 20
61.384277
 30
0.0
  0
VERTEX
  5
3C9
330
3C6
100
AcDbEntity
  8
001
370
    50
100
AcDbVertex
100
AcDb2dVertex
 10
104.83024
 20
60.662183
 30
0.0
  0
VERTEX
  5
3CA
330
3C6
100
AcDbEntity
  8
001
370
    50
100
AcDbVertex
100
AcDb2dVertex
 10
104.744365
 20
59.605248
 30
0.0
  0
SEQEND
  5
3C7
330
3C6
100
AcDbEntity
  8
001
370
    50
  0
POLYLINE
  5
3CB
330
1F
100
AcDbEntity
  8
001
370
    50
100
AcDb2dPolyline
 66
     1
 10
0.0
 20
0.0
 30
0.0
  0
VERTEX
  5
3CD
330
3CB
100
AcDbEntity
  8
001
370
    50
100
AcDbVertex
100
AcDb2dVertex
 10
104.458477
 20
55.75273
 30
0.0
  0
VERTEX
  5
3CE
330
3CB
100
AcDbEntity
  8
001
370
    50
100
AcDbVertex
100
AcDb2dVertex
 10
104.447385
 20
55.591451
 30
0.0
  0
VERTEX
  5
3CF
330
3CB
100
AcDbEntity
  8
001
370
    50
100
AcDbVertex
100
AcDb2dVertex
 10
104.438203
 20
55.456876
 30
0.0
  0
SEQEND
  5
3CC
330
3CB
100
AcDbEntity
  8
001
370
    50
  0
POLYLINE
  5
3D0
330
1F
100
AcDbEntity
  8
001
370
    50
100
AcDb2dPolyline
 66
     1
 10
0.0
 20
0.0
 30
0.0
  0
VERTEX
  5
3D2
330
3D0
100
AcDbEntity
  8
001
370
    50
100
AcDbVertex
100
AcDb2dVertex
 10
103.90444
 20
55.595164
 30
0.0
  0
VERTEX
  5
3D3
330
3D0
100
AcDbEntity
  8
001
370
    50
100
AcDbVertex
100
AcDb2dVertex
 10
103.905532
 20
55.59477
 30
0.0
  0
VERTEX
  5
3D4
330
3D0
100
AcDbEntity
  8
001
370
    50
100
AcDbVertex
100
AcDb2dVertex
 10
103.906625
 20
55.594377
 30
0.0
  0
VERTEX
  5
3D5
330
3D0
100
AcDbEntity
  8
001
370
    50
100
AcDbVertex
100
AcDb2dVertex
 10
104.219091
 20
55.501907
 30
0.0
  0
VERTEX
  5
3D6
330
3D0
100
AcDbEntity
  8
001
370
    50
100
AcDbVertex
100
AcDb2dVertex
 10
104.438203
 20
55.456876
 30
0.0
  0
SEQEND
  5
3D1
330
3D0
100
AcDbEntity
  8
001
370
    50
  0
LINE
  5
3D7
330
1F
100
AcDbEntity
  8
001
370
    50
100
AcDbLine
 10
112.892416
 20
69.492767
 30
0.0
 11
112.892416
 21
79.525331
 31
0.0
  0
LINE
  5
3D8
330
1F
100
AcDbEntity
  8
001
370
    50
100
AcDbLine
 10
116.803456
 20
65.658401
 30
0.0
 11
116.803456
 21
83.575331
 31
0.0
  0
LINE
  5
3D9
330
1F
100
AcDbEntity
  8
001
  6
CENTER
370
     9
100
AcDbLine
 10
94.35952
 20
67.475331
 30
0.0
 11
231.142675
 21
67.475331
 31
0.0
  0
LINE
  5
3DA
330
1F
100
AcDbEntity
  8
001
370
    50
100
AcDbLine
 10
150.392416
 20
51.475331
 30
0.0
 11
150.392416
 21
83.475331
 31
0.0
  0
LINE
  5
3DB
330
1F
100
AcDbEntity
  8
001
370
    50
100
AcDbLine
 10
150.392416
 20
82.975331
 30
0.0
 11
147.392416
 21
82.975331
 31
0.0
  0
LINE
  5
3DC
330
1F
100
AcDbEntity
  8
001
370
    50
100
AcDbLine
 10
147.392416
 20
51.975331
 30
0.0
 11
150.392416
 21
51.975331
 31
0.0
  0
LINE
  5
3DD
330
1F
100
AcDbEntity
  8
001
370
    50
100
AcDbLine
 10
227.392416
 20
67.475331
 30
0.0
 11
230.856518
 21
69.475331
 31
0.0
  0
LINE
  5
3DE
330
1F
100
AcDbEntity
  8
001
370
    50
100
AcDbLine
 10
227.392416
 20
67.475331
 30
0.0
 11
230.856518
 21
65.475331
 31
0.0
  0
TEXT
  5
3DF
330
1F
100
AcDbEntity
  8
001
370
    30
100
AcDbText
 10
41.774812
 20
-17.089659
 30
0.0
 40
2.285714
  1
加工形状
 41
0.833333
100
AcDbText
  0
CIRCLE
  5
3E0
330
1F
100
AcDbEntity
  8
001
370
    50
100
AcDbCircle
 10
117.85833
 20
56.267124
 30
0.0
 40
2.5
  0
LINE
  5
3E1
330
1F
100
AcDbEntity
  8
001
370
    50
100
AcDbLine
 10
118.43568
 20
57.267124
 30
0.0
 11
118.118138
 21
57.817124
 31
0.0
  0
LINE
  5
3E2
330
1F
100
AcDbEntity
  8
001
370
    50
100
AcDbLine
 10
117.28098
 20
57.267124
 30
0.0
 11
117.598523
 21
57.817124
 31
0.0
  0
ARC
  5
3E3
330
1F
100
AcDbEntity
  8
001
370
    50
100
AcDbCircle
 10
117.85833
 20
57.667124
 30
0.0
 40
0.3
100
AcDbArc
 50
30.0
 51
150.0
  0
LINE
  5
3E4
330
1F
100
AcDbEntity
  8
001
370
    50
100
AcDbLine
 10
117.28098
 20
57.267124
 30
0.0
 11
116.645895
 21
57.267124
 31
0.0
  0
LINE
  5
3E5
330
1F
100
AcDbEntity
  8
001
370
    50
100
AcDbLine
 10
116.70363
 20
56.267124
 30
0.0
 11
116.386087
 21
56.817124
 31
0.0
  0
ARC
  5
3E6
330
1F
100
AcDbEntity
  8
001
370
    50
100
AcDbCircle
 10
116.645895
 20
56.967124
 30
0.0
 40
0.3
100
AcDbArc
 50
90.0
 51
210.0
  0
LINE
  5
3E7
330
1F
100
AcDbEntity
  8
001
370
    50
100
AcDbLine
 10
116.70363
 20
56.267124
 30
0.0
 11
116.386087
 21
55.717124
 31
0.0
  0
LINE
  5
3E8
330
1F
100
AcDbEntity
  8
001
370
    50
100
AcDbLine
 10
117.28098
 20
55.267124
 30
0.0
 11
116.645895
 21
55.267124
 31
0.0
  0
ARC
  5
3E9
330
1F
100
AcDbEntity
  8
001
370
    50
100
AcDbCircle
 10
116.645895
 20
55.567124
 30
0.0
 40
0.3
100
AcDbArc
 50
150.0
 51
270.0
  0
LINE
  5
3EA
330
1F
100
AcDbEntity
  8
001
370
    50
100
AcDbLine
 10
117.28098
 20
55.267124
 30
0.0
 11
117.598523
 21
54.717124
 31
0.0
  0
LINE
  5
3EB
330
1F
100
AcDbEntity
  8
001
370
    50
100
AcDbLine
 10
118.43568
 20
55.267124
 30
0.0
 11
118.118138
 21
54.717124
 31
0.0
  0
ARC
  5
3EC
330
1F
100
AcDbEntity
  8
001
370
    50
100
AcDbCircle
 10
117.85833
 20
54.867124
 30
0.0
 40
0.3
100
AcDbArc
 50
210.0
 51
330.0
  0
LINE
  5
3ED
330
1F
100
AcDbEntity
  8
001
370
    50
100
AcDbLine
 10
118.43568
 20
55.267124
 30
0.0
 11
119.070766
 21
55.267124
 31
0.0
  0
LINE
  5
3EE
330
1F
100
AcDbEntity
  8
001
370
    50
100
AcDbLine
 10
119.013031
 20
56.267124
 30
0.0
 11
119.330573
 21
55.717124
 31
0.0
  0
ARC
  5
3EF
330
1F
100
AcDbEntity
  8
001
370
    50
100
AcDbCircle
 10
119.070766
 20
55.567124
 30
0.0
 40
0.3
100
AcDbArc
 50
270.0
 51
30.0
  0
LINE
  5
3F0
330
1F
100
AcDbEntity
  8
001
370
    50
100
AcDbLine
 10
119.013031
 20
56.267124
 30
0.0
 11
119.330573
 21
56.817124
 31
0.0
  0
LINE
  5
3F1
330
1F
100
AcDbEntity
  8
001
370
    50
100
AcDbLine
 10
118.43568
 20
57.267124
 30
0.0
 11
119.070766
 21
57.267124
 31
0.0
  0
ARC
  5
3F2
330
1F
100
AcDbEntity
  8
001
370
    50
100
AcDbCircle
 10
119.070766
 20
56.967124
 30
0.0
 40
0.3
100
AcDbArc
 50
330.0
 51
90.0
  0
POLYLINE
  5
3F3
330
1F
100
AcDbEntity
  8
001
370
    50
100
AcDb2dPolyline
 66
     1
 10
0.0
 20
0.0
 30
0.0
  0
VERTEX
  5
3F5
330
3F3
100
AcDbEntity
  8
001
370
    50
100
AcDbVertex
100
AcDb2dVertex
 10
117.853709
 20
59.289583
 30
0.0
  0
VERTEX
  5
3F6
330
3F3
100
AcDbEntity
  8
001
370
    50
100
AcDbVertex
100
AcDb2dVertex
 10
117.637111
 20
59.278156
 30
0.0
  0
VERTEX
  5
3F7
330
3F3
100
AcDbEntity
  8
001
370
    50
100
AcDbVertex
100
AcDb2dVertex
 10
117.340679
 20
59.244007
 30
0.0
  0
VERTEX
  5
3F8
330
3F3
100
AcDbEntity
  8
001
370
    50
100
AcDbVertex
100
AcDb2dVertex
 10
117.077983
 20
59.187334
 30
0.0
  0
VERTEX
  5
3F9
330
3F3
100
AcDbEntity
  8
001
370
    50
100
AcDbVertex
100
AcDb2dVertex
 10
116.843236
 20
59.108661
 30
0.0
  0
VERTEX
  5
3FA
330
3F3
100
AcDbEntity
  8
001
370
    50
100
AcDbVertex
100
AcDb2dVertex
 10
116.607949
 20
59.008428
 30
0.0
  0
VERTEX
  5
3FB
330
3F3
100
AcDbEntity
  8
001
370
    50
100
AcDbVertex
100
AcDb2dVertex
 10
116.376497
 20
58.88766
 30
0.0
  0
VERTEX
  5
3FC
330
3F3
100
AcDbEntity
  8
001
370
    50
100
AcDbVertex
100
AcDb2dVertex
 10
116.158199
 20
58.746995
 30
0.0
  0
VERTEX
  5
3FD
330
3F3
100
AcDbEntity
  8
001
370
    50
100
AcDbVertex
100
AcDb2dVertex
 10
115.954642
 20
58.587717
 30
0.0
  0
VERTEX
  5
3FE
330
3F3
100
AcDbEntity
  8
001
370
    50
100
AcDbVertex
100
AcDb2dVertex
 10
115.764713
 20
58.410564
 30
0.0
  0
VERTEX
  5
3FF
330
3F3
100
AcDbEntity
  8
001
370
    50
100
AcDbVertex
100
AcDb2dVertex
 10
115.590489
 20
58.217946
 30
0.0
  0
VERTEX
  5
400
330
3F3
100
AcDbEntity
  8
001
370
    50
100
AcDbVertex
100
AcDb2dVertex
 10
115.433443
 20
58.010968
 30
0.0
  0
VERTEX
  5
401
330
3F3
100
AcDbEntity
  8
001
370
    50
100
AcDbVertex
100
AcDb2dVertex
 10
115.295103
 20
57.789583
 30
0.0
  0
VERTEX
  5
402
330
3F3
100
AcDbEntity
  8
001
370
    50
100
AcDbVertex
100
AcDb2dVertex
 10
115.176058
 20
57.554346
 30
0.0
  0
VERTEX
  5
403
330
3F3
100
AcDbEntity
  8
001
370
    50
100
AcDbVertex
100
AcDb2dVertex
 10
115.077459
 20
57.315644
 30
0.0
  0
VERTEX
  5
404
330
3F3
100
AcDbEntity
  8
001
370
    50
100
AcDbVertex
100
AcDb2dVertex
 10
114.999935
 20
57.077069
 30
0.0
  0
VERTEX
  5
405
330
3F3
100
AcDbEntity
  8
001
370
    50
100
AcDbVertex
100
AcDb2dVertex
 10
114.94417
 20
56.810528
 30
0.0
  0
VERTEX
  5
406
330
3F3
100
AcDbEntity
  8
001
370
    50
100
AcDbVertex
100
AcDb2dVertex
 10
114.910532
 20
56.509487
 30
0.0
  0
VERTEX
  5
407
330
3F3
100
AcDbEntity
  8
001
370
    50
100
AcDbVertex
100
AcDb2dVertex
 10
114.899285
 20
56.289583
 30
0.0
  0
SEQEND
  5
3F4
330
3F3
100
AcDbEntity
  8
001
370
    50
  0
POLYLINE
  5
408
330
1F
100
AcDbEntity
  8
001
370
    50
100
AcDb2dPolyline
 66
     1
 10
0.0
 20
0.0
 30
0.0
  0
VERTEX
  5
40A
330
408
100
AcDbEntity
  8
001
370
    50
100
AcDbVertex
100
AcDb2dVertex
 10
112.480524
 20
56.012616
 30
0.0
  0
VERTEX
  5
40B
330
408
100
AcDbEntity
  8
001
370
    50
100
AcDbVertex
100
AcDb2dVertex
 10
112.441983
 20
55.969386
 30
0.0
  0
VERTEX
  5
40C
330
408
100
AcDbEntity
  8
001
370
    50
100
AcDbVertex
100
AcDb2dVertex
 10
112.392675
 20
55.906795
 30
0.0
  0
VERTEX
  5
40D
330
408
100
AcDbEntity
  8
001
370
    50
100
AcDbVertex
100
AcDb2dVertex
 10
112.353806
 20
55.846335
 30
0.0
  0
VERTEX
  5
40E
330
408
100
AcDbEntity
  8
001
370
    50
100
AcDbVertex
100
AcDb2dVertex
 10
112.324257
 20
55.787091
 30
0.0
  0
VERTEX
  5
40F
330
408
100
AcDbEntity
  8
001
370
    50
100
AcDbVertex
100
AcDb2dVertex
 10
112.298559
 20
55.723687
 30
0.0
  0
VERTEX
  5
410
330
408
100
AcDbEntity
  8
001
370
    50
100
AcDbVertex
100
AcDb2dVertex
 10
112.277348
 20
55.657142
 30
0.0
  0
VERTEX
  5
411
330
408
100
AcDbEntity
  8
001
370
    50
100
AcDbVertex
100
AcDb2dVertex
 10
112.262272
 20
55.589395
 30
0.0
  0
VERTEX
  5
412
330
408
100
AcDbEntity
  8
001
370
    50
100
AcDbVertex
100
AcDb2dVertex
 10
112.253376
 20
55.520896
 30
0.0
  0
VERTEX
  5
413
330
408
100
AcDbEntity
  8
001
370
    50
100
AcDbVertex
100
AcDb2dVertex
 10
112.250327
 20
55.451701
 30
0.0
  0
VERTEX
  5
414
330
408
100
AcDbEntity
  8
001
370
    50
100
AcDbVertex
100
AcDb2dVertex
 10
112.253066
 20
55.382493
 30
0.0
  0
VERTEX
  5
415
330
408
100
AcDbEntity
  8
001
370
    50
100
AcDbVertex
100
AcDb2dVertex
 10
112.261657
 20
55.313954
 30
0.0
  0
VERTEX
  5
416
330
408
100
AcDbEntity
  8
001
370
    50
100
AcDbVertex
100
AcDb2dVertex
 10
112.27643
 20
55.246139
 30
0.0
  0
VERTEX
  5
417
330
408
100
AcDbEntity
  8
001
370
    50
100
AcDbVertex
100
AcDb2dVertex
 10
112.297343
 20
55.179497
 30
0.0
  0
VERTEX
  5
418
330
408
100
AcDbEntity
  8
001
370
    50
100
AcDbVertex
100
AcDb2dVertex
 10
112.322757
 20
55.115975
 30
0.0
  0
VERTEX
  5
419
330
408
100
AcDbEntity
  8
001
370
    50
100
AcDbVertex
100
AcDb2dVertex
 10
112.352042
 20
55.056595
 30
0.0
  0
VERTEX
  5
41A
330
408
100
AcDbEntity
  8
001
370
    50
100
AcDbVertex
100
AcDb2dVertex
 10
112.390639
 20
54.995958
 30
0.0
  0
VERTEX
  5
41B
330
408
100
AcDbEntity
  8
001
370
    50
100
AcDbVertex
100
AcDb2dVertex
 10
112.439668
 20
54.933139
 30
0.0
  0
VERTEX
  5
41C
330
408
100
AcDbEntity
  8
001
370
    50
100
AcDbVertex
100
AcDb2dVertex
 10
112.478015
 20
54.889733
 30
0.0
  0
SEQEND
  5
409
330
408
100
AcDbEntity
  8
001
370
    50
  0
LINE
  5
41D
330
1F
100
AcDbEntity
  8
001
370
    50
100
AcDbLine
 10
114.358893
 20
57.911327
 30
0.0
 11
112.480524
 21
56.012616
 31
0.0
  0
LINE
  5
41E
330
1F
100
AcDbEntity
  8
001
370
    50
100
AcDbLine
 10
114.358893
 20
57.911327
 30
0.0
 11
114.381833
 21
59.500073
 31
0.0
  0
LINE
  5
41F
330
1F
100
AcDbEntity
  8
001
370
    50
100
AcDbLine
 10
116.605882
 20
61.748206
 30
0.0
 11
114.381833
 21
59.500073
 31
0.0
  0
POLYLINE
  5
420
330
1F
100
AcDbEntity
  8
001
370
    50
100
AcDb2dPolyline
 66
     1
 10
0.0
 20
0.0
 30
0.0
  0
VERTEX
  5
422
330
420
100
AcDbEntity
  8
001
370
    50
100
AcDbVertex
100
AcDb2dVertex
 10
117.711706
 20
61.745659
 30
0.0
  0
VERTEX
  5
423
330
420
100
AcDbEntity
  8
001
370
    50
100
AcDbVertex
100
AcDb2dVertex
 10
117.669177
 20
61.78476
 30
0.0
  0
VERTEX
  5
424
330
420
100
AcDbEntity
  8
001
370
    50
100
AcDbVertex
100
AcDb2dVertex
 10
117.607493
 20
61.834863
 30
0.0
  0
VERTEX
  5
425
330
420
100
AcDbEntity
  8
001
370
    50
100
AcDbVertex
100
AcDb2dVertex
 10
117.548042
 20
61.874269
 30
0.0
  0
VERTEX
  5
426
330
420
100
AcDbEntity
  8
001
370
    50
100
AcDbVertex
100
AcDb2dVertex
 10
117.489608
 20
61.904336
 30
0.0
  0
VERTEX
  5
427
330
420
100
AcDbEntity
  8
001
370
    50
100
AcDbVertex
100
AcDb2dVertex
 10
117.427213
 20
61.930419
 30
0.0
  0
VERTEX
  5
428
330
420
100
AcDbEntity
  8
001
370
    50
100
AcDbVertex
100
AcDb2dVertex
 10
117.361633
 20
61.951968
 30
0.0
  0
VERTEX
  5
429
330
420
100
AcDbEntity
  8
001
370
    50
100
AcDbVertex
100
AcDb2dVertex
 10
117.294949
 20
61.967268
 30
0.0
  0
VERTEX
  5
42A
330
420
100
AcDbEntity
  8
001
370
    50
100
AcDbVertex
100
AcDb2dVertex
 10
117.227457
 20
61.976311
 30
0.0
  0
VERTEX
  5
42B
330
420
100
AcDbEntity
  8
001
370
    50
100
AcDbVertex
100
AcDb2dVertex
 10
117.159314
 20
61.979408
 30
0.0
  0
VERTEX
  5
42C
330
420
100
AcDbEntity
  8
001
370
    50
100
AcDbVertex
100
AcDb2dVertex
 10
117.091157
 20
61.976625
 30
0.0
  0
VERTEX
  5
42D
330
420
100
AcDbEntity
  8
001
370
    50
100
AcDbVertex
100
AcDb2dVertex
 10
117.023626
 20
61.967893
 30
0.0
  0
VERTEX
  5
42E
330
420
100
AcDbEntity
  8
001
370
    50
100
AcDbVertex
100
AcDb2dVertex
 10
116.956874
 20
61.952901
 30
0.0
  0
VERTEX
  5
42F
330
420
100
AcDbEntity
  8
001
370
    50
100
AcDbVertex
100
AcDb2dVertex
 10
116.891199
 20
61.931654
 30
0.0
  0
VERTEX
  5
430
330
420
100
AcDbEntity
  8
001
370
    50
100
AcDbVertex
100
AcDb2dVertex
 10
116.828687
 20
61.905859
 30
0.0
  0
VERTEX
  5
431
330
420
100
AcDbEntity
  8
001
370
    50
100
AcDbVertex
100
AcDb2dVertex
 10
116.77012
 20
61.876061
 30
0.0
  0
VERTEX
  5
432
330
420
100
AcDbEntity
  8
001
370
    50
100
AcDbVertex
100
AcDb2dVertex
 10
116.710493
 20
61.83693
 30
0.0
  0
VERTEX
  5
433
330
420
100
AcDbEntity
  8
001
370
    50
100
AcDbVertex
100
AcDb2dVertex
 10
116.648585
 20
61.787111
 30
0.0
  0
VERTEX
  5
434
330
420
100
AcDbEntity
  8
001
370
    50
100
AcDbVertex
100
AcDb2dVertex
 10
116.605882
 20
61.748206
 30
0.0
  0
SEQEND
  5
421
330
420
100
AcDbEntity
  8
001
370
    50
  0
LINE
  5
435
330
1F
100
AcDbEntity
  8
001
370
    50
100
AcDbLine
 10
119.583508
 20
59.836336
 30
0.0
 11
117.711706
 21
61.745659
 31
0.0
  0
LINE
  5
436
330
1F
100
AcDbEntity
  8
001
370
    50
100
AcDbLine
 10
121.015424
 20
59.815018
 30
0.0
 11
119.583508
 21
59.836336
 31
0.0
  0
LINE
  5
437
330
1F
100
AcDbEntity
  8
001
370
    50
100
AcDbLine
 10
123.229403
 20
57.55666
 30
0.0
 11
121.015424
 21
59.815018
 31
0.0
  0
POLYLINE
  5
438
330
1F
100
AcDbEntity
  8
001
370
    50
100
AcDb2dPolyline
 66
     1
 10
0.0
 20
0.0
 30
0.0
  0
VERTEX
  5
43A
330
438
100
AcDbEntity
  8
001
370
    50
100
AcDbVertex
100
AcDb2dVertex
 10
123.226894
 20
56.433777
 30
0.0
  0
VERTEX
  5
43B
330
438
100
AcDbEntity
  8
001
370
    50
100
AcDbVertex
100
AcDb2dVertex
 10
123.265434
 20
56.477006
 30
0.0
  0
VERTEX
  5
43C
330
438
100
AcDbEntity
  8
001
370
    50
100
AcDbVertex
100
AcDb2dVertex
 10
123.314743
 20
56.539598
 30
0.0
  0
VERTEX
  5
43D
330
438
100
AcDbEntity
  8
001
370
    50
100
AcDbVertex
100
AcDb2dVertex
 10
123.353611
 20
56.600057
 30
0.0
  0
VERTEX
  5
43E
330
438
100
AcDbEntity
  8
001
370
    50
100
AcDbVertex
100
AcDb2dVertex
 10
123.383161
 20
56.659301
 30
0.0
  0
VERTEX
  5
43F
330
438
100
AcDbEntity
  8
001
370
    50
100
AcDbVertex
100
AcDb2dVertex
 10
123.408859
 20
56.722706
 30
0.0
  0
VERTEX
  5
440
330
438
100
AcDbEntity
  8
001
370
    50
100
AcDbVertex
100
AcDb2dVertex
 10
123.430069
 20
56.78925
 30
0.0
  0
VERTEX
  5
441
330
438
100
AcDbEntity
  8
001
370
    50
100
AcDbVertex
100
AcDb2dVertex
 10
123.445145
 20
56.856997
 30
0.0
  0
VERTEX
  5
442
330
438
100
AcDbEntity
  8
001
370
    50
100
AcDbVertex
100
AcDb2dVertex
 10
123.454042
 20
56.925496
 30
0.0
  0
VERTEX
  5
443
330
438
100
AcDbEntity
  8
001
370
    50
100
AcDbVertex
100
AcDb2dVertex
 10
123.457091
 20
56.994691
 30
0.0
  0
VERTEX
  5
444
330
438
100
AcDbEntity
  8
001
370
    50
100
AcDbVertex
100
AcDb2dVertex
 10
123.454351
 20
57.063899
 30
0.0
  0
VERTEX
  5
445
330
438
100
AcDbEntity
  8
001
370
    50
100
AcDbVertex
100
AcDb2dVertex
 10
123.445761
 20
57.132438
 30
0.0
  0
VERTEX
  5
446
330
438
100
AcDbEntity
  8
001
370
    50
100
AcDbVertex
100
AcDb2dVertex
 10
123.430987
 20
57.200254
 30
0.0
  0
VERTEX
  5
447
330
438
100
AcDbEntity
  8
001
370
    50
100
AcDbVertex
100
AcDb2dVertex
 10
123.410075
 20
57.266896
 30
0.0
  0
VERTEX
  5
448
330
438
100
AcDbEntity
  8
001
370
    50
100
AcDbVertex
100
AcDb2dVertex
 10
123.384661
 20
57.330417
 30
0.0
  0
VERTEX
  5
449
330
438
100
AcDbEntity
  8
001
370
    50
100
AcDbVertex
100
AcDb2dVertex
 10
123.355376
 20
57.389798
 30
0.0
  0
VERTEX
  5
44A
330
438
100
AcDbEntity
  8
001
370
    50
100
AcDbVertex
100
AcDb2dVertex
 10
123.316778
 20
57.450435
 30
0.0
  0
VERTEX
  5
44B
330
438
100
AcDbEntity
  8
001
370
    50
100
AcDbVertex
100
AcDb2dVertex
 10
123.267749
 20
57.513253
 30
0.0
  0
VERTEX
  5
44C
330
438
100
AcDbEntity
  8
001
370
    50
100
AcDbVertex
100
AcDb2dVertex
 10
123.229403
 20
57.55666
 30
0.0
  0
SEQEND
  5
439
330
438
100
AcDbEntity
  8
001
370
    50
  0
LINE
  5
44D
330
1F
100
AcDbEntity
  8
001
370
    50
100
AcDbLine
 10
121.346579
 20
54.533099
 30
0.0
 11
123.226894
 21
56.433777
 31
0.0
  0
LINE
  5
44E
330
1F
100
AcDbEntity
  8
001
370
    50
100
AcDbLine
 10
121.325584
 20
53.079094
 30
0.0
 11
121.346579
 21
54.533099
 31
0.0
  0
LINE
  5
44F
330
1F
100
AcDbEntity
  8
001
370
    50
100
AcDbLine
 10
119.092493
 20
50.82182
 30
0.0
 11
121.325584
 21
53.079094
 31
0.0
  0
LINE
  5
450
330
1F
100
AcDbEntity
  8
001
370
    50
100
AcDbLine
 10
118.004751
 20
50.824288
 30
0.0
 11
116.141065
 21
52.725331
 31
0.0
  0
POLYLINE
  5
451
330
1F
100
AcDbEntity
  8
001
370
    50
100
AcDb2dPolyline
 66
     1
 10
0.0
 20
0.0
 30
0.0
  0
VERTEX
  5
453
330
451
100
AcDbEntity
  8
001
370
    50
100
AcDbVertex
100
AcDb2dVertex
 10
114.899285
 20
56.289583
 30
0.0
  0
VERTEX
  5
454
330
451
100
AcDbEntity
  8
001
370
    50
100
AcDbVertex
100
AcDb2dVertex
 10
114.913514
 20
56.042313
 30
0.0
  0
VERTEX
  5
455
330
451
100
AcDbEntity
  8
001
370
    50
100
AcDbVertex
100
AcDb2dVertex
 10
114.956054
 20
55.704312
 30
0.0
  0
VERTEX
  5
456
330
451
100
AcDbEntity
  8
001
370
    50
100
AcDbVertex
100
AcDb2dVertex
 10
115.026494
 20
55.406348
 30
0.0
  0
VERTEX
  5
457
330
451
100
AcDbEntity
  8
001
370
    50
100
AcDbVertex
100
AcDb2dVertex
 10
115.124178
 20
55.141533
 30
0.0
  0
VERTEX
  5
458
330
451
100
AcDbEntity
  8
001
370
    50
100
AcDbVertex
100
AcDb2dVertex
 10
115.248001
 20
54.878897
 30
0.0
  0
VERTEX
  5
459
330
451
100
AcDbEntity
  8
001
370
    50
100
AcDbVertex
100
AcDb2dVertex
 10
115.397196
 20
54.622873
 30
0.0
  0
VERTEX
  5
45A
330
451
100
AcDbEntity
  8
001
370
    50
100
AcDbVertex
100
AcDb2dVertex
 10
115.570024
 20
54.385686
 30
0.0
  0
VERTEX
  5
45B
330
451
100
AcDbEntity
  8
001
370
    50
100
AcDbVertex
100
AcDb2dVertex
 10
115.764616
 20
54.168263
 30
0.0
  0
VERTEX
  5
45C
330
451
100
AcDbEntity
  8
001
370
    50
100
AcDbVertex
100
AcDb2dVertex
 10
115.978391
 20
53.970936
 30
0.0
  0
VERTEX
  5
45D
330
451
100
AcDbEntity
  8
001
370
    50
100
AcDbVertex
100
AcDb2dVertex
 10
116.212319
 20
53.795175
 30
0.0
  0
VERTEX
  5
45E
330
451
100
AcDbEntity
  8
001
370
    50
100
AcDbVertex
100
AcDb2dVertex
 10
116.464173
 20
53.643854
 30
0.0
  0
VERTEX
  5
45F
330
451
100
AcDbEntity
  8
001
370
    50
100
AcDbVertex
100
AcDb2dVertex
 10
116.7231
 20
53.517945
 30
0.0
  0
VERTEX
  5
460
330
451
100
AcDbEntity
  8
001
370
    50
100
AcDbVertex
100
AcDb2dVertex
 10
116.983607
 20
53.418827
 30
0.0
  0
VERTEX
  5
461
330
451
100
AcDbEntity
  8
001
370
    50
100
AcDbVertex
100
AcDb2dVertex
 10
117.277329
 20
53.347228
 30
0.0
  0
VERTEX
  5
462
330
451
100
AcDbEntity
  8
001
370
    50
100
AcDbVertex
100
AcDb2dVertex
 10
117.610144
 20
53.304043
 30
0.0
  0
VERTEX
  5
463
330
451
100
AcDbEntity
  8
001
370
    50
100
AcDbVertex
100
AcDb2dVertex
 10
117.853709
 20
53.289583
 30
0.0
  0
SEQEND
  5
452
330
451
100
AcDbEntity
  8
001
370
    50
  0
POLYLINE
  5
464
330
1F
100
AcDbEntity
  8
001
370
    50
100
AcDb2dPolyline
 66
     1
 10
0.0
 20
0.0
 30
0.0
  0
VERTEX
  5
466
330
464
100
AcDbEntity
  8
001
370
    50
100
AcDbVertex
100
AcDb2dVertex
 10
117.853709
 20
53.289583
 30
0.0
  0
VERTEX
  5
467
330
464
100
AcDbEntity
  8
001
370
    50
100
AcDbVertex
100
AcDb2dVertex
 10
118.070306
 20
53.30101
 30
0.0
  0
VERTEX
  5
468
330
464
100
AcDbEntity
  8
001
370
    50
100
AcDbVertex
100
AcDb2dVertex
 10
118.366739
 20
53.33516
 30
0.0
  0
VERTEX
  5
469
330
464
100
AcDbEntity
  8
001
370
    50
100
AcDbVertex
100
AcDb2dVertex
 10
118.629434
 20
53.391837
 30
0.0
  0
VERTEX
  5
46A
330
464
100
AcDbEntity
  8
001
370
    50
100
AcDbVertex
100
AcDb2dVertex
 10
118.864181
 20
53.470506
 30
0.0
  0
VERTEX
  5
46B
330
464
100
AcDbEntity
  8
001
370
    50
100
AcDbVertex
100
AcDb2dVertex
 10
119.099468
 20
53.570724
 30
0.0
  0
VERTEX
  5
46C
330
464
100
AcDbEntity
  8
001
370
    50
100
AcDbVertex
100
AcDb2dVertex
 10
119.33092
 20
53.691507
 30
0.0
  0
VERTEX
  5
46D
330
464
100
AcDbEntity
  8
001
370
    50
100
AcDbVertex
100
AcDb2dVertex
 10
119.549218
 20
53.832228
 30
0.0
  0
VERTEX
  5
46E
330
464
100
AcDbEntity
  8
001
370
    50
100
AcDbVertex
100
AcDb2dVertex
 10
119.752775
 20
53.99145
 30
0.0
  0
VERTEX
  5
46F
330
464
100
AcDbEntity
  8
001
370
    50
100
AcDbVertex
100
AcDb2dVertex
 10
119.942704
 20
54.168391
 30
0.0
  0
VERTEX
  5
470
330
464
100
AcDbEntity
  8
001
370
    50
100
AcDbVertex
100
AcDb2dVertex
 10
120.116928
 20
54.361221
 30
0.0
  0
VERTEX
  5
471
330
464
100
AcDbEntity
  8
001
370
    50
100
AcDbVertex
100
AcDb2dVertex
 10
120.273974
 20
54.568991
 30
0.0
  0
VERTEX
  5
472
330
464
100
AcDbEntity
  8
001
370
    50
100
AcDbVertex
100
AcDb2dVertex
 10
120.412314
 20
54.789583
 30
0.0
  0
VERTEX
  5
473
330
464
100
AcDbEntity
  8
001
370
    50
100
AcDbVertex
100
AcDb2dVertex
 10
120.531359
 20
55.021851
 30
0.0
  0
VERTEX
  5
474
330
464
100
AcDbEntity
  8
001
370
    50
100
AcDbVertex
100
AcDb2dVertex
 10
120.629958
 20
55.263523
 30
0.0
  0
VERTEX
  5
475
330
464
100
AcDbEntity
  8
001
370
    50
100
AcDbVertex
100
AcDb2dVertex
 10
120.707482
 20
55.513211
 30
0.0
  0
VERTEX
  5
476
330
464
100
AcDbEntity
  8
001
370
    50
100
AcDbVertex
100
AcDb2dVertex
 10
120.763248
 20
55.768639
 30
0.0
  0
VERTEX
  5
477
330
464
100
AcDbEntity
  8
001
370
    50
100
AcDbVertex
100
AcDb2dVertex
 10
120.796885
 20
56.028146
 30
0.0
  0
VERTEX
  5
478
330
464
100
AcDbEntity
  8
001
370
    50
100
AcDbVertex
100
AcDb2dVertex
 10
120.808132
 20
56.289583
 30
0.0
  0
VERTEX
  5
479
330
464
100
AcDbEntity
  8
001
370
    50
100
AcDbVertex
100
AcDb2dVertex
 10
120.796885
 20
56.55102
 30
0.0
  0
VERTEX
  5
47A
330
464
100
AcDbEntity
  8
001
370
    50
100
AcDbVertex
100
AcDb2dVertex
 10
120.763248
 20
56.810528
 30
0.0
  0
VERTEX
  5
47B
330
464
100
AcDbEntity
  8
001
370
    50
100
AcDbVertex
100
AcDb2dVertex
 10
120.707482
 20
57.065956
 30
0.0
  0
VERTEX
  5
47C
330
464
100
AcDbEntity
  8
001
370
    50
100
AcDbVertex
100
AcDb2dVertex
 10
120.629958
 20
57.315644
 30
0.0
  0
VERTEX
  5
47D
330
464
100
AcDbEntity
  8
001
370
    50
100
AcDbVertex
100
AcDb2dVertex
 10
120.531359
 20
57.557316
 30
0.0
  0
VERTEX
  5
47E
330
464
100
AcDbEntity
  8
001
370
    50
100
AcDbVertex
100
AcDb2dVertex
 10
120.412314
 20
57.789583
 30
0.0
  0
VERTEX
  5
47F
330
464
100
AcDbEntity
  8
001
370
    50
100
AcDbVertex
100
AcDb2dVertex
 10
120.273974
 20
58.010175
 30
0.0
  0
VERTEX
  5
480
330
464
100
AcDbEntity
  8
001
370
    50
100
AcDbVertex
100
AcDb2dVertex
 10
120.116928
 20
58.217946
 30
0.0
  0
VERTEX
  5
481
330
464
100
AcDbEntity
  8
001
370
    50
100
AcDbVertex
100
AcDb2dVertex
 10
119.942704
 20
58.410776
 30
0.0
  0
VERTEX
  5
482
330
464
100
AcDbEntity
  8
001
370
    50
100
AcDbVertex
100
AcDb2dVertex
 10
119.752775
 20
58.587717
 30
0.0
  0
VERTEX
  5
483
330
464
100
AcDbEntity
  8
001
370
    50
100
AcDbVertex
100
AcDb2dVertex
 10
119.549218
 20
58.746939
 30
0.0
  0
VERTEX
  5
484
330
464
100
AcDbEntity
  8
001
370
    50
100
AcDbVertex
100
AcDb2dVertex
 10
119.33092
 20
58.88766
 30
0.0
  0
VERTEX
  5
485
330
464
100
AcDbEntity
  8
001
370
    50
100
AcDbVertex
100
AcDb2dVertex
 10
119.099468
 20
59.008443
 30
0.0
  0
VERTEX
  5
486
330
464
100
AcDbEntity
  8
001
370
    50
100
AcDbVertex
100
AcDb2dVertex
 10
118.864181
 20
59.108661
 30
0.0
  0
VERTEX
  5
487
330
464
100
AcDbEntity
  8
001
370
    50
100
AcDbVertex
100
AcDb2dVertex
 10
118.629434
 20
59.18733
 30
0.0
  0
VERTEX
  5
488
330
464
100
AcDbEntity
  8
001
370
    50
100
AcDbVertex
100
AcDb2dVertex
 10
118.366739
 20
59.244007
 30
0.0
  0
VERTEX
  5
489
330
464
100
AcDbEntity
  8
001
370
    50
100
AcDbVertex
100
AcDb2dVertex
 10
118.070306
 20
59.278157
 30
0.0
  0
VERTEX
  5
48A
330
464
100
AcDbEntity
  8
001
370
    50
100
AcDbVertex
100
AcDb2dVertex
 10
117.853709
 20
59.289583
 30
0.0
  0
SEQEND
  5
465
330
464
100
AcDbEntity
  8
001
370
    50
  0
POLYLINE
  5
48B
330
1F
100
AcDbEntity
  8
001
370
    50
100
AcDb2dPolyline
 66
     1
 10
0.0
 20
0.0
 30
0.0
  0
VERTEX
  5
48D
330
48B
100
AcDbEntity
  8
001
370
    50
100
AcDbVertex
100
AcDb2dVertex
 10
125.007668
 20
51.751134
 30
0.0
  0
VERTEX
  5
48E
330
48B
100
AcDbEntity
  8
001
370
    50
100
AcDbVertex
100
AcDb2dVertex
 10
124.772294
 20
51.733313
 30
0.0
  0
VERTEX
  5
48F
330
48B
100
AcDbEntity
  8
001
370
    50
100
AcDbVertex
100
AcDb2dVertex
 10
124.53697
 20
51.71486
 30
0.0
  0
VERTEX
  5
490
330
48B
100
AcDbEntity
  8
001
370
    50
100
AcDbVertex
100
AcDb2dVertex
 10
124.405811
 20
51.704115
 30
0.0
  0
VERTEX
  5
491
330
48B
100
AcDbEntity
  8
001
370
    50
100
AcDbVertex
100
AcDb2dVertex
 10
124.274668
 20
51.693174
 30
0.0
  0
SEQEND
  5
48C
330
48B
100
AcDbEntity
  8
001
370
    50
  0
POLYLINE
  5
492
330
1F
100
AcDbEntity
  8
001
370
    50
100
AcDb2dPolyline
 66
     1
 10
0.0
 20
0.0
 30
0.0
  0
VERTEX
  5
494
330
492
100
AcDbEntity
  8
001
370
    50
100
AcDbVertex
100
AcDb2dVertex
 10
125.740668
 20
51.813884
 30
0.0
  0
VERTEX
  5
495
330
492
100
AcDbEntity
  8
001
370
    50
100
AcDbVertex
100
AcDb2dVertex
 10
125.505288
 20
51.794631
 30
0.0
  0
VERTEX
  5
496
330
492
100
AcDbEntity
  8
001
370
    50
100
AcDbVertex
100
AcDb2dVertex
 10
125.26997
 20
51.774662
 30
0.0
  0
VERTEX
  5
497
330
492
100
AcDbEntity
  8
001
370
    50
100
AcDbVertex
100
AcDb2dVertex
 10
125.138809
 20
51.763009
 30
0.0
  0
VERTEX
  5
498
330
492
100
AcDbEntity
  8
001
370
    50
100
AcDbVertex
100
AcDb2dVertex
 10
125.007668
 20
51.751134
 30
0.0
  0
SEQEND
  5
493
330
492
100
AcDbEntity
  8
001
370
    50
  0
POLYLINE
  5
499
330
1F
100
AcDbEntity
  8
001
370
    50
100
AcDb2dPolyline
 66
     1
 10
0.0
 20
0.0
 30
0.0
  0
VERTEX
  5
49B
330
499
100
AcDbEntity
  8
001
370
    50
100
AcDbVertex
100
AcDb2dVertex
 10
123.864745
 20
51.823412
 30
0.0
  0
VERTEX
  5
49C
330
499
100
AcDbEntity
  8
001
370
    50
100
AcDbVertex
100
AcDb2dVertex
 10
123.923851
 20
51.793476
 30
0.0
  0
VERTEX
  5
49D
330
499
100
AcDbEntity
  8
001
370
    50
100
AcDbVertex
100
AcDb2dVertex
 10
124.010939
 20
51.751166
 30
0.0
  0
VERTEX
  5
49E
330
499
100
AcDbEntity
  8
001
370
    50
100
AcDbVertex
100
AcDb2dVertex
 10
124.097854
 20
51.711407
 30
0.0
  0
VERTEX
  5
49F
330
499
100
AcDbEntity
  8
001
370
    50
100
AcDbVertex
100
AcDb2dVertex
 10
124.157777
 20
51.685199
 30
0.0
  0
SEQEND
  5
49A
330
499
100
AcDbEntity
  8
001
370
    50
  0
LINE
  5
4A0
330
1F
100
AcDbEntity
  8
001
370
    50
100
AcDbLine
 10
124.274668
 20
51.693174
 30
0.0
 11
124.157777
 21
51.685199
 31
0.0
  0
LINE
  5
4A1
330
1F
100
AcDbEntity
  8
001
370
    50
100
AcDbLine
 10
119.092721
 20
63.067851
 30
0.0
 11
118.994673
 21
63.138993
 31
0.0
  0
POLYLINE
  5
4A2
330
1F
100
AcDbEntity
  8
001
370
    50
100
AcDb2dPolyline
 66
     1
 10
0.0
 20
0.0
 30
0.0
  0
VERTEX
  5
4A4
330
4A2
100
AcDbEntity
  8
001
370
    50
100
AcDbVertex
100
AcDb2dVertex
 10
118.921611
 20
63.185564
 30
0.0
  0
VERTEX
  5
4A5
330
4A2
100
AcDbEntity
  8
001
370
    50
100
AcDbVertex
100
AcDb2dVertex
 10
118.78278
 20
63.260522
 30
0.0
  0
VERTEX
  5
4A6
330
4A2
100
AcDbEntity
  8
001
370
    50
100
AcDbVertex
100
AcDb2dVertex
 10
118.640397
 20
63.32668
 30
0.0
  0
VERTEX
  5
4A7
330
4A2
100
AcDbEntity
  8
001
370
    50
100
AcDbVertex
100
AcDb2dVertex
 10
118.48838
 20
63.379252
 30
0.0
  0
VERTEX
  5
4A8
330
4A2
100
AcDbEntity
  8
001
370
    50
100
AcDbVertex
100
AcDb2dVertex
 10
118.332636
 20
63.422586
 30
0.0
  0
SEQEND
  5
4A3
330
4A2
100
AcDbEntity
  8
001
370
    50
  0
POLYLINE
  5
4A9
330
1F
100
AcDbEntity
  8
001
370
    50
100
AcDb2dPolyline
 66
     1
 10
0.0
 20
0.0
 30
0.0
  0
VERTEX
  5
4AB
330
4A9
100
AcDbEntity
  8
001
370
    50
100
AcDbVertex
100
AcDb2dVertex
 10
118.332636
 20
63.422586
 30
0.0
  0
VERTEX
  5
4AC
330
4A9
100
AcDbEntity
  8
001
370
    50
100
AcDbVertex
100
AcDb2dVertex
 10
118.268986
 20
63.435228
 30
0.0
  0
VERTEX
  5
4AD
330
4A9
100
AcDbEntity
  8
001
370
    50
100
AcDbVertex
100
AcDb2dVertex
 10
118.205131
 20
63.446302
 30
0.0
  0
VERTEX
  5
4AE
330
4A9
100
AcDbEntity
  8
001
370
    50
100
AcDbVertex
100
AcDb2dVertex
 10
118.056735
 20
63.461872
 30
0.0
  0
VERTEX
  5
4AF
330
4A9
100
AcDbEntity
  8
001
370
    50
100
AcDbVertex
100
AcDb2dVertex
 10
117.90725
 20
63.469125
 30
0.0
  0
SEQEND
  5
4AA
330
4A9
100
AcDbEntity
  8
001
370
    50
  0
POLYLINE
  5
4B0
330
1F
100
AcDbEntity
  8
001
370
    50
100
AcDb2dPolyline
 66
     1
 10
0.0
 20
0.0
 30
0.0
  0
VERTEX
  5
4B2
330
4B0
100
AcDbEntity
  8
001
370
    50
100
AcDbVertex
100
AcDb2dVertex
 10
117.602573
 20
63.446112
 30
0.0
  0
VERTEX
  5
4B3
330
4B0
100
AcDbEntity
  8
001
370
    50
100
AcDbVertex
100
AcDb2dVertex
 10
117.439274
 20
63.411736
 30
0.0
  0
VERTEX
  5
4B4
330
4B0
100
AcDbEntity
  8
001
370
    50
100
AcDbVertex
100
AcDb2dVertex
 10
117.278171
 20
63.369264
 30
0.0
  0
VERTEX
  5
4B5
330
4B0
100
AcDbEntity
  8
001
370
    50
100
AcDbVertex
100
AcDb2dVertex
 10
117.117038
 20
63.310342
 30
0.0
  0
VERTEX
  5
4B6
330
4B0
100
AcDbEntity
  8
001
370
    50
100
AcDbVertex
100
AcDb2dVertex
 10
116.962441
 20
63.235767
 30
0.0
  0
VERTEX
  5
4B7
330
4B0
100
AcDbEntity
  8
001
370
    50
100
AcDbVertex
100
AcDb2dVertex
 10
116.874893
 20
63.185468
 30
0.0
  0
VERTEX
  5
4B8
330
4B0
100
AcDbEntity
  8
001
370
    50
100
AcDbVertex
100
AcDb2dVertex
 10
116.788808
 20
63.132708
 30
0.0
  0
SEQEND
  5
4B1
330
4B0
100
AcDbEntity
  8
001
370
    50
  0
POLYLINE
  5
4B9
330
1F
100
AcDbEntity
  8
001
370
    50
100
AcDb2dPolyline
 66
     1
 10
0.0
 20
0.0
 30
0.0
  0
VERTEX
  5
4BB
330
4B9
100
AcDbEntity
  8
001
370
    50
100
AcDbVertex
100
AcDb2dVertex
 10
111.88079
 20
55.507957
 30
0.0
  0
VERTEX
  5
4BC
330
4B9
100
AcDbEntity
  8
001
370
    50
100
AcDbVertex
100
AcDb2dVertex
 10
111.908071
 20
55.478346
 30
0.0
  0
VERTEX
  5
4BD
330
4B9
100
AcDbEntity
  8
001
370
    50
100
AcDbVertex
100
AcDb2dVertex
 10
111.955654
 20
55.446005
 30
0.0
  0
VERTEX
  5
4BE
330
4B9
100
AcDbEntity
  8
001
370
    50
100
AcDbVertex
100
AcDb2dVertex
 10
112.021974
 20
55.427957
 30
0.0
  0
VERTEX
  5
4BF
330
4B9
100
AcDbEntity
  8
001
370
    50
100
AcDbVertex
100
AcDb2dVertex
 10
112.070441
 20
55.425331
 30
0.0
  0
SEQEND
  5
4BA
330
4B9
100
AcDbEntity
  8
001
370
    50
  0
POLYLINE
  5
4C0
330
1F
100
AcDbEntity
  8
001
370
    50
100
AcDb2dPolyline
 66
     1
 10
0.0
 20
0.0
 30
0.0
  0
VERTEX
  5
4C2
330
4C0
100
AcDbEntity
  8
001
370
    50
100
AcDbVertex
100
AcDb2dVertex
 10
111.88079
 20
55.507957
 30
0.0
  0
VERTEX
  5
4C3
330
4C0
100
AcDbEntity
  8
001
370
    50
100
AcDbVertex
100
AcDb2dVertex
 10
111.895969
 20
55.522987
 30
0.0
  0
VERTEX
  5
4C4
330
4C0
100
AcDbEntity
  8
001
370
    50
100
AcDbVertex
100
AcDb2dVertex
 10
111.918149
 20
55.54496
 30
0.0
  0
VERTEX
  5
4C5
330
4C0
100
AcDbEntity
  8
001
370
    50
100
AcDbVertex
100
AcDb2dVertex
 10
111.940355
 20
55.566974
 30
0.0
  0
VERTEX
  5
4C6
330
4C0
100
AcDbEntity
  8
001
370
    50
100
AcDbVertex
100
AcDb2dVertex
 10
111.955544
 20
55.58204
 30
0.0
  0
SEQEND
  5
4C1
330
4C0
100
AcDbEntity
  8
001
370
    50
  0
POLYLINE
  5
4C7
330
1F
100
AcDbEntity
  8
001
370
    50
100
AcDb2dPolyline
 66
     1
 10
0.0
 20
0.0
 30
0.0
  0
VERTEX
  5
4C9
330
4C7
100
AcDbEntity
  8
001
370
    50
100
AcDbVertex
100
AcDb2dVertex
 10
113.547922
 20
58.145445
 30
0.0
  0
VERTEX
  5
4CA
330
4C7
100
AcDbEntity
  8
001
370
    50
100
AcDbVertex
100
AcDb2dVertex
 10
113.520555
 20
58.015803
 30
0.0
  0
VERTEX
  5
4CB
330
4C7
100
AcDbEntity
  8
001
370
    50
100
AcDbVertex
100
AcDb2dVertex
 10
113.498827
 20
57.885431
 30
0.0
  0
VERTEX
  5
4CC
330
4C7
100
AcDbEntity
  8
001
370
    50
100
AcDbVertex
100
AcDb2dVertex
 10
113.48639
 20
57.751996
 30
0.0
  0
VERTEX
  5
4CD
330
4C7
100
AcDbEntity
  8
001
370
    50
100
AcDbVertex
100
AcDb2dVertex
 10
113.479751
 20
57.617811
 30
0.0
  0
SEQEND
  5
4C8
330
4C7
100
AcDbEntity
  8
001
370
    50
  0
POLYLINE
  5
4CE
330
1F
100
AcDbEntity
  8
001
370
    50
100
AcDb2dPolyline
 66
     1
 10
0.0
 20
0.0
 30
0.0
  0
VERTEX
  5
4D0
330
4CE
100
AcDbEntity
  8
001
370
    50
100
AcDbVertex
100
AcDb2dVertex
 10
114.13838
 20
59.198013
 30
0.0
  0
VERTEX
  5
4D1
330
4CE
100
AcDbEntity
  8
001
370
    50
100
AcDbVertex
100
AcDb2dVertex
 10
114.181831
 20
59.242276
 30
0.0
  0
VERTEX
  5
4D2
330
4CE
100
AcDbEntity
  8
001
370
    50
100
AcDbVertex
100
AcDb2dVertex
 10
114.245293
 20
59.307011
 30
0.0
  0
VERTEX
  5
4D3
330
4CE
100
AcDbEntity
  8
001
370
    50
100
AcDbVertex
100
AcDb2dVertex
 10
114.308886
 20
59.372002
 30
0.0
  0
VERTEX
  5
4D4
330
4CE
100
AcDbEntity
  8
001
370
    50
100
AcDbVertex
100
AcDb2dVertex
 10
114.352368
 20
59.416498
 30
0.0
  0
SEQEND
  5
4CF
330
4CE
100
AcDbEntity
  8
001
370
    50
  0
POLYLINE
  5
4D5
330
1F
100
AcDbEntity
  8
001
370
    50
100
AcDb2dPolyline
 66
     1
 10
0.0
 20
0.0
 30
0.0
  0
VERTEX
  5
4D7
330
4D5
100
AcDbEntity
  8
001
370
    50
100
AcDbVertex
100
AcDb2dVertex
 10
114.13838
 20
59.198013
 30
0.0
  0
VERTEX
  5
4D8
330
4D5
100
AcDbEntity
  8
001
370
    50
100
AcDbVertex
100
AcDb2dVertex
 10
114.019785
 20
59.063847
 30
0.0
  0
VERTEX
  5
4D9
330
4D5
100
AcDbEntity
  8
001
370
    50
100
AcDbVertex
100
AcDb2dVertex
 10
113.908283
 20
58.924273
 30
0.0
  0
VERTEX
  5
4DA
330
4D5
100
AcDbEntity
  8
001
370
    50
100
AcDbVertex
100
AcDb2dVertex
 10
113.80713
 20
58.771255
 30
0.0
  0
VERTEX
  5
4DB
330
4D5
100
AcDbEntity
  8
001
370
    50
100
AcDbVertex
100
AcDb2dVertex
 10
113.719206
 20
58.609852
 30
0.0
  0
VERTEX
  5
4DC
330
4D5
100
AcDbEntity
  8
001
370
    50
100
AcDbVertex
100
AcDb2dVertex
 10
113.667087
 20
58.498146
 30
0.0
  0
VERTEX
  5
4DD
330
4D5
100
AcDbEntity
  8
001
370
    50
100
AcDbVertex
100
AcDb2dVertex
 10
113.621568
 20
58.383812
 30
0.0
  0
VERTEX
  5
4DE
330
4D5
100
AcDbEntity
  8
001
370
    50
100
AcDbVertex
100
AcDb2dVertex
 10
113.58269
 20
58.265355
 30
0.0
  0
VERTEX
  5
4DF
330
4D5
100
AcDbEntity
  8
001
370
    50
100
AcDbVertex
100
AcDb2dVertex
 10
113.547922
 20
58.145445
 30
0.0
  0
SEQEND
  5
4D6
330
4D5
100
AcDbEntity
  8
001
370
    50
  0
POLYLINE
  5
4E0
330
1F
100
AcDbEntity
  8
001
370
    50
100
AcDb2dPolyline
 66
     1
 10
0.0
 20
0.0
 30
0.0
  0
VERTEX
  5
4E2
330
4E0
100
AcDbEntity
  8
001
370
    50
100
AcDbVertex
100
AcDb2dVertex
 10
114.174666
 20
58.64756
 30
0.0
  0
VERTEX
  5
4E3
330
4E0
100
AcDbEntity
  8
001
370
    50
100
AcDbVertex
100
AcDb2dVertex
 10
114.094554
 20
58.557002
 30
0.0
  0
VERTEX
  5
4E4
330
4E0
100
AcDbEntity
  8
001
370
    50
100
AcDbVertex
100
AcDb2dVertex
 10
113.993005
 20
58.424533
 30
0.0
  0
VERTEX
  5
4E5
330
4E0
100
AcDbEntity
  8
001
370
    50
100
AcDbVertex
100
AcDb2dVertex
 10
113.91452
 20
58.294663
 30
0.0
  0
VERTEX
  5
4E6
330
4E0
100
AcDbEntity
  8
001
370
    50
100
AcDbVertex
100
AcDb2dVertex
 10
113.856908
 20
58.170231
 30
0.0
  0
VERTEX
  5
4E7
330
4E0
100
AcDbEntity
  8
001
370
    50
100
AcDbVertex
100
AcDb2dVertex
 10
113.808817
 20
58.041511
 30
0.0
  0
VERTEX
  5
4E8
330
4E0
100
AcDbEntity
  8
001
370
    50
100
AcDbVertex
100
AcDb2dVertex
 10
113.771441
 20
57.894122
 30
0.0
  0
VERTEX
  5
4E9
330
4E0
100
AcDbEntity
  8
001
370
    50
100
AcDbVertex
100
AcDb2dVertex
 10
113.748208
 20
57.727833
 30
0.0
  0
VERTEX
  5
4EA
330
4E0
100
AcDbEntity
  8
001
370
    50
100
AcDbVertex
100
AcDb2dVertex
 10
113.739787
 20
57.606486
 30
0.0
  0
SEQEND
  5
4E1
330
4E0
100
AcDbEntity
  8
001
370
    50
  0
LINE
  5
4EB
330
1F
100
AcDbEntity
  8
001
370
    50
100
AcDbLine
 10
117.904369
 20
63.469127
 30
0.0
 11
117.602573
 21
63.446112
 31
0.0
  0
POLYLINE
  5
4EC
330
1F
100
AcDbEntity
  8
001
370
    50
100
AcDb2dPolyline
 66
     1
 10
0.0
 20
0.0
 30
0.0
  0
VERTEX
  5
4EE
330
4EC
100
AcDbEntity
  8
001
370
    50
100
AcDbVertex
100
AcDb2dVertex
 10
116.788808
 20
63.132708
 30
0.0
  0
VERTEX
  5
4EF
330
4EC
100
AcDbEntity
  8
001
370
    50
100
AcDbVertex
100
AcDb2dVertex
 10
116.665531
 20
63.042378
 30
0.0
  0
VERTEX
  5
4F0
330
4EC
100
AcDbEntity
  8
001
370
    50
100
AcDbVertex
100
AcDb2dVertex
 10
116.546952
 20
62.946464
 30
0.0
  0
VERTEX
  5
4F1
330
4EC
100
AcDbEntity
  8
001
370
    50
100
AcDbVertex
100
AcDb2dVertex
 10
116.434417
 20
62.838044
 30
0.0
  0
VERTEX
  5
4F2
330
4EC
100
AcDbEntity
  8
001
370
    50
100
AcDbVertex
100
AcDb2dVertex
 10
116.33131
 20
62.720274
 30
0.0
  0
VERTEX
  5
4F3
330
4EC
100
AcDbEntity
  8
001
370
    50
100
AcDbVertex
100
AcDb2dVertex
 10
116.23084
 20
62.585679
 30
0.0
  0
VERTEX
  5
4F4
330
4EC
100
AcDbEntity
  8
001
370
    50
100
AcDbVertex
100
AcDb2dVertex
 10
116.141602
 20
62.443472
 30
0.0
  0
VERTEX
  5
4F5
330
4EC
100
AcDbEntity
  8
001
370
    50
100
AcDbVertex
100
AcDb2dVertex
 10
116.062402
 20
62.28984
 30
0.0
  0
VERTEX
  5
4F6
330
4EC
100
AcDbEntity
  8
001
370
    50
100
AcDbVertex
100
AcDb2dVertex
 10
115.996926
 20
62.129987
 30
0.0
  0
VERTEX
  5
4F7
330
4EC
100
AcDbEntity
  8
001
370
    50
100
AcDbVertex
100
AcDb2dVertex
 10
115.990747
 20
62.112546
 30
0.0
  0
VERTEX
  5
4F8
330
4EC
100
AcDbEntity
  8
001
370
    50
100
AcDbVertex
100
AcDb2dVertex
 10
115.984653
 20
62.095077
 30
0.0
  0
SEQEND
  5
4ED
330
4EC
100
AcDbEntity
  8
001
370
    50
  0
LINE
  5
4F9
330
1F
100
AcDbEntity
  8
001
370
    50
100
AcDbLine
 10
118.994673
 20
63.138993
 30
0.0
 11
118.921611
 21
63.185564
 31
0.0
  0
POLYLINE
  5
4FA
330
1F
100
AcDbEntity
  8
001
370
    50
100
AcDb2dPolyline
 66
     1
 10
0.0
 20
0.0
 30
0.0
  0
VERTEX
  5
4FC
330
4FA
100
AcDbEntity
  8
001
370
    50
100
AcDbVertex
100
AcDb2dVertex
 10
119.668759
 20
62.337054
 30
0.0
  0
VERTEX
  5
4FD
330
4FA
100
AcDbEntity
  8
001
370
    50
100
AcDbVertex
100
AcDb2dVertex
 10
119.610097
 20
62.452253
 30
0.0
  0
VERTEX
  5
4FE
330
4FA
100
AcDbEntity
  8
001
370
    50
100
AcDbVertex
100
AcDb2dVertex
 10
119.547009
 20
62.565017
 30
0.0
  0
VERTEX
  5
4FF
330
4FA
100
AcDbEntity
  8
001
370
    50
100
AcDbVertex
100
AcDb2dVertex
 10
119.45317
 20
62.70414
 30
0.0
  0
VERTEX
  5
500
330
4FA
100
AcDbEntity
  8
001
370
    50
100
AcDbVertex
100
AcDb2dVertex
 10
119.345585
 20
62.832845
 30
0.0
  0
VERTEX
  5
501
330
4FA
100
AcDbEntity
  8
001
370
    50
100
AcDbVertex
100
AcDb2dVertex
 10
119.222497
 20
62.953703
 30
0.0
  0
VERTEX
  5
502
330
4FA
100
AcDbEntity
  8
001
370
    50
100
AcDbVertex
100
AcDb2dVertex
 10
119.092721
 20
63.067851
 30
0.0
  0
SEQEND
  5
4FB
330
4FA
100
AcDbEntity
  8
001
370
    50
  0
POLYLINE
  5
503
330
1F
100
AcDbEntity
  8
001
370
    50
100
AcDb2dPolyline
 66
     1
 10
0.0
 20
0.0
 30
0.0
  0
VERTEX
  5
505
330
503
100
AcDbEntity
  8
001
370
    50
100
AcDbVertex
100
AcDb2dVertex
 10
119.777899
 20
61.040983
 30
0.0
  0
VERTEX
  5
506
330
503
100
AcDbEntity
  8
001
370
    50
100
AcDbVertex
100
AcDb2dVertex
 10
119.808546
 20
61.201363
 30
0.0
  0
VERTEX
  5
507
330
503
100
AcDbEntity
  8
001
370
    50
100
AcDbVertex
100
AcDb2dVertex
 10
119.830931
 20
61.362658
 30
0.0
  0
VERTEX
  5
508
330
503
100
AcDbEntity
  8
001
370
    50
100
AcDbVertex
100
AcDb2dVertex
 10
119.838572
 20
61.530194
 30
0.0
  0
VERTEX
  5
509
330
503
100
AcDbEntity
  8
001
370
    50
100
AcDbVertex
100
AcDb2dVertex
 10
119.831345
 20
61.698227
 30
0.0
  0
VERTEX
  5
50A
330
503
100
AcDbEntity
  8
001
370
    50
100
AcDbVertex
100
AcDb2dVertex
 10
119.81035
 20
61.869219
 30
0.0
  0
VERTEX
  5
50B
330
503
100
AcDbEntity
  8
001
370
    50
100
AcDbVertex
100
AcDb2dVertex
 10
119.773724
 20
62.037034
 30
0.0
  0
VERTEX
  5
50C
330
503
100
AcDbEntity
  8
001
370
    50
100
AcDbVertex
100
AcDb2dVertex
 10
119.725184
 20
62.18819
 30
0.0
  0
VERTEX
  5
50D
330
503
100
AcDbEntity
  8
001
370
    50
100
AcDbVertex
100
AcDb2dVertex
 10
119.668759
 20
62.337054
 30
0.0
  0
SEQEND
  5
504
330
503
100
AcDbEntity
  8
001
370
    50
  0
POLYLINE
  5
50E
330
1F
100
AcDbEntity
  8
001
370
    50
100
AcDb2dPolyline
 66
     1
 10
0.0
 20
0.0
 30
0.0
  0
VERTEX
  5
510
330
50E
100
AcDbEntity
  8
001
370
    50
100
AcDbVertex
100
AcDb2dVertex
 10
119.777899
 20
61.040983
 30
0.0
  0
VERTEX
  5
511
330
50E
100
AcDbEntity
  8
001
370
    50
100
AcDbVertex
100
AcDb2dVertex
 10
119.880275
 20
60.925593
 30
0.0
  0
VERTEX
  5
512
330
50E
100
AcDbEntity
  8
001
370
    50
100
AcDbVertex
100
AcDb2dVertex
 10
120.030237
 20
60.757243
 30
0.0
  0
VERTEX
  5
513
330
50E
100
AcDbEntity
  8
001
370
    50
100
AcDbVertex
100
AcDb2dVertex
 10
120.179927
 20
60.590134
 30
0.0
  0
VERTEX
  5
514
330
50E
100
AcDbEntity
  8
001
370
    50
100
AcDbVertex
100
AcDb2dVertex
 10
120.282575
 20
60.476
 30
0.0
  0
SEQEND
  5
50F
330
50E
100
AcDbEntity
  8
001
370
    50
  0
POLYLINE
  5
515
330
1F
100
AcDbEntity
  8
001
370
    50
100
AcDb2dPolyline
 66
     1
 10
0.0
 20
0.0
 30
0.0
  0
VERTEX
  5
517
330
515
100
AcDbEntity
  8
001
370
    50
100
AcDbVertex
100
AcDb2dVertex
 10
123.716764
 20
56.37777
 30
0.0
  0
VERTEX
  5
518
330
515
100
AcDbEntity
  8
001
370
    50
100
AcDbVertex
100
AcDb2dVertex
 10
123.790005
 20
56.283823
 30
0.0
  0
VERTEX
  5
519
330
515
100
AcDbEntity
  8
001
370
    50
100
AcDbVertex
100
AcDb2dVertex
 10
123.897225
 20
56.146654
 30
0.0
  0
VERTEX
  5
51A
330
515
100
AcDbEntity
  8
001
370
    50
100
AcDbVertex
100
AcDb2dVertex
 10
124.00446
 20
56.00997
 30
0.0
  0
VERTEX
  5
51B
330
515
100
AcDbEntity
  8
001
370
    50
100
AcDbVertex
100
AcDb2dVertex
 10
124.077952
 20
55.916544
 30
0.0
  0
SEQEND
  5
516
330
515
100
AcDbEntity
  8
001
370
    50
  0
POLYLINE
  5
51C
330
1F
100
AcDbEntity
  8
001
370
    50
100
AcDb2dPolyline
 66
     1
 10
0.0
 20
0.0
 30
0.0
  0
VERTEX
  5
51E
330
51C
100
AcDbEntity
  8
001
370
    50
100
AcDbVertex
100
AcDb2dVertex
 10
124.398836
 20
55.29356
 30
0.0
  0
VERTEX
  5
51F
330
51C
100
AcDbEntity
  8
001
370
    50
100
AcDbVertex
100
AcDb2dVertex
 10
124.36408
 20
55.396117
 30
0.0
  0
VERTEX
  5
520
330
51C
100
AcDbEntity
  8
001
370
    50
100
AcDbVertex
100
AcDb2dVertex
 10
124.325845
 20
55.497367
 30
0.0
  0
VERTEX
  5
521
330
51C
100
AcDbEntity
  8
001
370
    50
100
AcDbVertex
100
AcDb2dVertex
 10
124.275389
 20
55.607881
 30
0.0
  0
VERTEX
  5
522
330
51C
100
AcDbEntity
  8
001
370
    50
100
AcDbVertex
100
AcDb2dVertex
 10
124.216473
 20
55.714105
 30
0.0
  0
VERTEX
  5
523
330
51C
100
AcDbEntity
  8
001
370
    50
100
AcDbVertex
100
AcDb2dVertex
 10
124.149296
 20
55.816676
 30
0.0
  0
VERTEX
  5
524
330
51C
100
AcDbEntity
  8
001
370
    50
100
AcDbVertex
100
AcDb2dVertex
 10
124.077952
 20
55.916544
 30
0.0
  0
SEQEND
  5
51D
330
51C
100
AcDbEntity
  8
001
370
    50
  0
POLYLINE
  5
525
330
1F
100
AcDbEntity
  8
001
370
    50
100
AcDb2dPolyline
 66
     1
 10
0.0
 20
0.0
 30
0.0
  0
VERTEX
  5
527
330
525
100
AcDbEntity
  8
001
370
    50
100
AcDbVertex
100
AcDb2dVertex
 10
124.460766
 20
54.521005
 30
0.0
  0
VERTEX
  5
528
330
525
100
AcDbEntity
  8
001
370
    50
100
AcDbVertex
100
AcDb2dVertex
 10
124.431587
 20
54.256915
 30
0.0
  0
VERTEX
  5
529
330
525
100
AcDbEntity
  8
001
370
    50
100
AcDbVertex
100
AcDb2dVertex
 10
124.389394
 20
53.870888
 30
0.0
  0
VERTEX
  5
52A
330
525
100
AcDbEntity
  8
001
370
    50
100
AcDbVertex
100
AcDb2dVertex
 10
124.347725
 20
53.483799
 30
0.0
  0
VERTEX
  5
52B
330
525
100
AcDbEntity
  8
001
370
    50
100
AcDbVertex
100
AcDb2dVertex
 10
124.319525
 20
53.218915
 30
0.0
  0
SEQEND
  5
526
330
525
100
AcDbEntity
  8
001
370
    50
  0
POLYLINE
  5
52C
330
1F
100
AcDbEntity
  8
001
370
    50
100
AcDb2dPolyline
 66
     1
 10
0.0
 20
0.0
 30
0.0
  0
VERTEX
  5
52E
330
52C
100
AcDbEntity
  8
001
370
    50
100
AcDbVertex
100
AcDb2dVertex
 10
124.460766
 20
54.521005
 30
0.0
  0
VERTEX
  5
52F
330
52C
100
AcDbEntity
  8
001
370
    50
100
AcDbVertex
100
AcDb2dVertex
 10
124.470978
 20
54.692425
 30
0.0
  0
VERTEX
  5
530
330
52C
100
AcDbEntity
  8
001
370
    50
100
AcDbVertex
100
AcDb2dVertex
 10
124.470361
 20
54.863106
 30
0.0
  0
VERTEX
  5
531
330
52C
100
AcDbEntity
  8
001
370
    50
100
AcDbVertex
100
AcDb2dVertex
 10
124.4434
 20
55.078935
 30
0.0
  0
VERTEX
  5
532
330
52C
100
AcDbEntity
  8
001
370
    50
100
AcDbVertex
100
AcDb2dVertex
 10
124.398836
 20
55.29356
 30
0.0
  0
SEQEND
  5
52D
330
52C
100
AcDbEntity
  8
001
370
    50
  0
POLYLINE
  5
533
330
1F
100
AcDbEntity
  8
001
370
    50
100
AcDb2dPolyline
 66
     1
 10
0.0
 20
0.0
 30
0.0
  0
VERTEX
  5
535
330
533
100
AcDbEntity
  8
001
370
    50
100
AcDbVertex
100
AcDb2dVertex
 10
123.864745
 20
54.521005
 30
0.0
  0
VERTEX
  5
536
330
533
100
AcDbEntity
  8
001
370
    50
100
AcDbVertex
100
AcDb2dVertex
 10
123.857901
 20
54.644051
 30
0.0
  0
VERTEX
  5
537
330
533
100
AcDbEntity
  8
001
370
    50
100
AcDbVertex
100
AcDb2dVertex
 10
123.836524
 20
54.812806
 30
0.0
  0
VERTEX
  5
538
330
533
100
AcDbEntity
  8
001
370
    50
100
AcDbVertex
100
AcDb2dVertex
 10
123.800363
 20
54.962549
 30
0.0
  0
VERTEX
  5
539
330
533
100
AcDbEntity
  8
001
370
    50
100
AcDbVertex
100
AcDb2dVertex
 10
123.75294
 20
55.093457
 30
0.0
  0
VERTEX
  5
53A
330
533
100
AcDbEntity
  8
001
370
    50
100
AcDbVertex
100
AcDb2dVertex
 10
123.6957
 20
55.220063
 30
0.0
  0
VERTEX
  5
53B
330
533
100
AcDbEntity
  8
001
370
    50
100
AcDbVertex
100
AcDb2dVertex
 10
123.617185
 20
55.352236
 30
0.0
  0
VERTEX
  5
53C
330
533
100
AcDbEntity
  8
001
370
    50
100
AcDbVertex
100
AcDb2dVertex
 10
123.515132
 20
55.487077
 30
0.0
  0
VERTEX
  5
53D
330
533
100
AcDbEntity
  8
001
370
    50
100
AcDbVertex
100
AcDb2dVertex
 10
123.434447
 20
55.579256
 30
0.0
  0
SEQEND
  5
534
330
533
100
AcDbEntity
  8
001
370
    50
  0
LINE
  5
53E
330
1F
100
AcDbEntity
  8
001
370
    50
100
AcDbLine
 10
123.864745
 20
51.823412
 30
0.0
 11
123.864745
 21
54.521005
 31
0.0
  0
POLYLINE
  5
53F
330
1F
100
AcDbEntity
  8
001
370
    50
100
AcDb2dPolyline
 66
     1
 10
0.0
 20
0.0
 30
0.0
  0
VERTEX
  5
541
330
53F
100
AcDbEntity
  8
001
370
    50
100
AcDbVertex
100
AcDb2dVertex
 10
124.319525
 20
53.218915
 30
0.0
  0
VERTEX
  5
542
330
53F
100
AcDbEntity
  8
001
370
    50
100
AcDbVertex
100
AcDb2dVertex
 10
124.28603
 20
52.908021
 30
0.0
  0
VERTEX
  5
543
330
53F
100
AcDbEntity
  8
001
370
    50
100
AcDbVertex
100
AcDb2dVertex
 10
124.237679
 20
52.453573
 30
0.0
  0
VERTEX
  5
544
330
53F
100
AcDbEntity
  8
001
370
    50
100
AcDbVertex
100
AcDb2dVertex
 10
124.189992
 20
51.997376
 30
0.0
  0
VERTEX
  5
545
330
53F
100
AcDbEntity
  8
001
370
    50
100
AcDbVertex
100
AcDb2dVertex
 10
124.157777
 20
51.685199
 30
0.0
  0
SEQEND
  5
540
330
53F
100
AcDbEntity
  8
001
370
    50
  0
POLYLINE
  5
546
330
1F
100
AcDbEntity
  8
001
370
    50
100
AcDb2dPolyline
 66
     1
 10
0.0
 20
0.0
 30
0.0
  0
VERTEX
  5
548
330
546
100
AcDbEntity
  8
001
370
    50
100
AcDbVertex
100
AcDb2dVertex
 10
117.644082
 20
63.440833
 30
0.0
  0
VERTEX
  5
549
330
546
100
AcDbEntity
  8
001
370
    50
100
AcDbVertex
100
AcDb2dVertex
 10
117.631701
 20
63.442924
 30
0.0
  0
VERTEX
  5
54A
330
546
100
AcDbEntity
  8
001
370
    50
100
AcDbVertex
100
AcDb2dVertex
 10
117.613586
 20
63.445848
 30
0.0
  0
VERTEX
  5
54B
330
546
100
AcDbEntity
  8
001
370
    50
100
AcDbVertex
100
AcDb2dVertex
 10
117.611193
 20
63.446221
 30
0.0
  0
VERTEX
  5
54C
330
546
100
AcDbEntity
  8
001
370
    50
100
AcDbVertex
100
AcDb2dVertex
 10
117.608811
 20
63.446587
 30
0.0
  0
SEQEND
  5
547
330
546
100
AcDbEntity
  8
001
370
    50
  0
POLYLINE
  5
54D
330
1F
100
AcDbEntity
  8
001
370
    50
100
AcDb2dPolyline
 66
     1
 10
0.0
 20
0.0
 30
0.0
  0
VERTEX
  5
54F
330
54D
100
AcDbEntity
  8
001
370
    50
100
AcDbVertex
100
AcDb2dVertex
 10
118.996822
 20
60.434783
 30
0.0
  0
VERTEX
  5
550
330
54D
100
AcDbEntity
  8
001
370
    50
100
AcDbVertex
100
AcDb2dVertex
 10
119.032274
 20
60.494657
 30
0.0
  0
VERTEX
  5
551
330
54D
100
AcDbEntity
  8
001
370
    50
100
AcDbVertex
100
AcDb2dVertex
 10
119.065536
 20
60.554495
 30
0.0
  0
VERTEX
  5
552
330
54D
100
AcDbEntity
  8
001
370
    50
100
AcDbVertex
100
AcDb2dVertex
 10
119.147142
 20
60.731643
 30
0.0
  0
VERTEX
  5
553
330
54D
100
AcDbEntity
  8
001
370
    50
100
AcDbVertex
100
AcDb2dVertex
 10
119.202869
 20
60.902517
 30
0.0
  0
VERTEX
  5
554
330
54D
100
AcDbEntity
  8
001
370
    50
100
AcDbVertex
100
AcDb2dVertex
 10
119.245553
 20
61.083144
 30
0.0
  0
VERTEX
  5
555
330
54D
100
AcDbEntity
  8
001
370
    50
100
AcDbVertex
100
AcDb2dVertex
 10
119.273823
 20
61.270451
 30
0.0
  0
VERTEX
  5
556
330
54D
100
AcDbEntity
  8
001
370
    50
100
AcDbVertex
100
AcDb2dVertex
 10
119.283881
 20
61.458315
 30
0.0
  0
VERTEX
  5
557
330
54D
100
AcDbEntity
  8
001
370
    50
100
AcDbVertex
100
AcDb2dVertex
 10
119.275903
 20
61.645366
 30
0.0
  0
VERTEX
  5
558
330
54D
100
AcDbEntity
  8
001
370
    50
100
AcDbVertex
100
AcDb2dVertex
 10
119.250896
 20
61.831155
 30
0.0
  0
VERTEX
  5
559
330
54D
100
AcDbEntity
  8
001
370
    50
100
AcDbVertex
100
AcDb2dVertex
 10
119.209037
 20
62.014089
 30
0.0
  0
VERTEX
  5
55A
330
54D
100
AcDbEntity
  8
001
370
    50
100
AcDbVertex
100
AcDb2dVertex
 10
119.150483
 20
62.191997
 30
0.0
  0
VERTEX
  5
55B
330
54D
100
AcDbEntity
  8
001
370
    50
100
AcDbVertex
100
AcDb2dVertex
 10
119.075575
 20
62.36366
 30
0.0
  0
VERTEX
  5
55C
330
54D
100
AcDbEntity
  8
001
370
    50
100
AcDbVertex
100
AcDb2dVertex
 10
118.985147
 20
62.5273
 30
0.0
  0
VERTEX
  5
55D
330
54D
100
AcDbEntity
  8
001
370
    50
100
AcDbVertex
100
AcDb2dVertex
 10
118.880206
 20
62.681797
 30
0.0
  0
VERTEX
  5
55E
330
54D
100
AcDbEntity
  8
001
370
    50
100
AcDbVertex
100
AcDb2dVertex
 10
118.762023
 20
62.825331
 30
0.0
  0
VERTEX
  5
55F
330
54D
100
AcDbEntity
  8
001
370
    50
100
AcDbVertex
100
AcDb2dVertex
 10
118.629797
 20
62.957318
 30
0.0
  0
VERTEX
  5
560
330
54D
100
AcDbEntity
  8
001
370
    50
100
AcDbVertex
100
AcDb2dVertex
 10
118.484639
 20
63.076282
 30
0.0
  0
VERTEX
  5
561
330
54D
100
AcDbEntity
  8
001
370
    50
100
AcDbVertex
100
AcDb2dVertex
 10
118.333147
 20
63.180542
 30
0.0
  0
VERTEX
  5
562
330
54D
100
AcDbEntity
  8
001
370
    50
100
AcDbVertex
100
AcDb2dVertex
 10
118.178558
 20
63.268615
 30
0.0
  0
VERTEX
  5
563
330
54D
100
AcDbEntity
  8
001
370
    50
100
AcDbVertex
100
AcDb2dVertex
 10
118.000681
 20
63.343624
 30
0.0
  0
VERTEX
  5
564
330
54D
100
AcDbEntity
  8
001
370
    50
100
AcDbVertex
100
AcDb2dVertex
 10
117.795736
 20
63.405706
 30
0.0
  0
VERTEX
  5
565
330
54D
100
AcDbEntity
  8
001
370
    50
100
AcDbVertex
100
AcDb2dVertex
 10
117.644082
 20
63.440833
 30
0.0
  0
SEQEND
  5
54E
330
54D
100
AcDbEntity
  8
001
370
    50
  0
POLYLINE
  5
566
330
1F
100
AcDbEntity
  8
001
370
    50
100
AcDb2dPolyline
 66
     1
 10
0.0
 20
0.0
 30
0.0
  0
VERTEX
  5
568
330
566
100
AcDbEntity
  8
001
370
    50
100
AcDbVertex
100
AcDb2dVertex
 10
119.061063
 20
60.369253
 30
0.0
  0
VERTEX
  5
569
330
566
100
AcDbEntity
  8
001
370
    50
100
AcDbVertex
100
AcDb2dVertex
 10
119.215548
 20
60.484123
 30
0.0
  0
VERTEX
  5
56A
330
566
100
AcDbEntity
  8
001
370
    50
100
AcDbVertex
100
AcDb2dVertex
 10
119.377613
 20
60.618648
 30
0.0
  0
VERTEX
  5
56B
330
566
100
AcDbEntity
  8
001
370
    50
100
AcDbVertex
100
AcDb2dVertex
 10
119.623363
 20
60.861369
 30
0.0
  0
VERTEX
  5
56C
330
566
100
AcDbEntity
  8
001
370
    50
100
AcDbVertex
100
AcDb2dVertex
 10
119.777899
 20
61.040983
 30
0.0
  0
SEQEND
  5
567
330
566
100
AcDbEntity
  8
001
370
    50
  0
POLYLINE
  5
56D
330
1F
100
AcDbEntity
  8
001
370
    50
100
AcDb2dPolyline
 66
     1
 10
0.0
 20
0.0
 30
0.0
  0
VERTEX
  5
56F
330
56D
100
AcDbEntity
  8
001
370
    50
100
AcDbVertex
100
AcDb2dVertex
 10
114.352368
 20
59.416498
 30
0.0
  0
VERTEX
  5
570
330
56D
100
AcDbEntity
  8
001
370
    50
100
AcDbVertex
100
AcDb2dVertex
 10
114.365643
 20
59.429909
 30
0.0
  0
VERTEX
  5
571
330
56D
100
AcDbEntity
  8
001
370
    50
100
AcDbVertex
100
AcDb2dVertex
 10
114.381045
 20
59.445479
 30
0.0
  0
SEQEND
  5
56E
330
56D
100
AcDbEntity
  8
001
370
    50
  0
POLYLINE
  5
572
330
1F
100
AcDbEntity
  8
001
370
    50
100
AcDb2dPolyline
 66
     1
 10
0.0
 20
0.0
 30
0.0
  0
VERTEX
  5
574
330
572
100
AcDbEntity
  8
001
370
    50
100
AcDbVertex
100
AcDb2dVertex
 10
115.984653
 20
62.095077
 30
0.0
  0
VERTEX
  5
575
330
572
100
AcDbEntity
  8
001
370
    50
100
AcDbVertex
100
AcDb2dVertex
 10
115.961395
 20
62.021228
 30
0.0
  0
VERTEX
  5
576
330
572
100
AcDbEntity
  8
001
370
    50
100
AcDbVertex
100
AcDb2dVertex
 10
115.939854
 20
61.946908
 30
0.0
  0
VERTEX
  5
577
330
572
100
AcDbEntity
  8
001
370
    50
100
AcDbVertex
100
AcDb2dVertex
 10
115.904156
 20
61.783757
 30
0.0
  0
VERTEX
  5
578
330
572
100
AcDbEntity
  8
001
370
    50
100
AcDbVertex
100
AcDb2dVertex
 10
115.88267
 20
61.61781
 30
0.0
  0
VERTEX
  5
579
330
572
100
AcDbEntity
  8
001
370
    50
100
AcDbVertex
100
AcDb2dVertex
 10
115.874273
 20
61.445988
 30
0.0
  0
VERTEX
  5
57A
330
572
100
AcDbEntity
  8
001
370
    50
100
AcDbVertex
100
AcDb2dVertex
 10
115.881547
 20
61.274493
 30
0.0
  0
VERTEX
  5
57B
330
572
100
AcDbEntity
  8
001
370
    50
100
AcDbVertex
100
AcDb2dVertex
 10
115.895547
 20
61.161364
 30
0.0
  0
VERTEX
  5
57C
330
572
100
AcDbEntity
  8
001
370
    50
100
AcDbVertex
100
AcDb2dVertex
 10
115.91386
 20
61.04869
 30
0.0
  0
SEQEND
  5
573
330
572
100
AcDbEntity
  8
001
370
    50
  0
LINE
  5
57D
330
1F
100
AcDbEntity
  8
001
370
    50
100
AcDbLine
 10
114.37241
 20
58.847445
 30
0.0
 11
114.174666
 21
58.64756
 31
0.0
  0
POLYLINE
  5
57E
330
1F
100
AcDbEntity
  8
001
370
    50
100
AcDb2dPolyline
 66
     1
 10
0.0
 20
0.0
 30
0.0
  0
VERTEX
  5
580
330
57E
100
AcDbEntity
  8
001
370
    50
100
AcDbVertex
100
AcDb2dVertex
 10
112.070441
 20
55.425331
 30
0.0
  0
VERTEX
  5
581
330
57E
100
AcDbEntity
  8
001
370
    50
100
AcDbVertex
100
AcDb2dVertex
 10
112.148085
 20
55.432915
 30
0.0
  0
VERTEX
  5
582
330
57E
100
AcDbEntity
  8
001
370
    50
100
AcDbVertex
100
AcDb2dVertex
 10
112.260245
 20
55.455305
 30
0.0
  0
SEQEND
  5
57F
330
57E
100
AcDbEntity
  8
001
370
    50
  0
POLYLINE
  5
583
330
1F
100
AcDbEntity
  8
001
370
    50
100
AcDb2dPolyline
 66
     1
 10
0.0
 20
0.0
 30
0.0
  0
VERTEX
  5
585
330
583
100
AcDbEntity
  8
001
370
    50
100
AcDbVertex
100
AcDb2dVertex
 10
119.934052
 20
51.672493
 30
0.0
  0
VERTEX
  5
586
330
583
100
AcDbEntity
  8
001
370
    50
100
AcDbVertex
100
AcDb2dVertex
 10
120.140756
 20
51.679612
 30
0.0
  0
VERTEX
  5
587
330
583
100
AcDbEntity
  8
001
370
    50
100
AcDbVertex
100
AcDb2dVertex
 10
120.348002
 20
51.686856
 30
0.0
  0
VERTEX
  5
588
330
583
100
AcDbEntity
  8
001
370
    50
100
AcDbVertex
100
AcDb2dVertex
 10
122.436173
 20
51.765149
 30
0.0
  0
VERTEX
  5
589
330
583
100
AcDbEntity
  8
001
370
    50
100
AcDbVertex
100
AcDb2dVertex
 10
123.864745
 20
51.823412
 30
0.0
  0
SEQEND
  5
584
330
583
100
AcDbEntity
  8
001
370
    50
  0
POLYLINE
  5
58A
330
1F
100
AcDbEntity
  8
001
370
    50
100
AcDb2dPolyline
 66
     1
 10
0.0
 20
0.0
 30
0.0
  0
VERTEX
  5
58C
330
58A
100
AcDbEntity
  8
001
370
    50
100
AcDbVertex
100
AcDb2dVertex
 10
116.803456
 20
51.574856
 30
0.0
  0
VERTEX
  5
58D
330
58A
100
AcDbEntity
  8
001
370
    50
100
AcDbVertex
100
AcDb2dVertex
 10
117.005986
 20
51.580599
 30
0.0
  0
VERTEX
  5
58E
330
58A
100
AcDbEntity
  8
001
370
    50
100
AcDbVertex
100
AcDb2dVertex
 10
117.256204
 20
51.587839
 30
0.0
  0
SEQEND
  5
58B
330
58A
100
AcDbEntity
  8
001
370
    50
  0
POLYLINE
  5
58F
330
1F
100
AcDbEntity
  8
001
370
    50
100
AcDb2dPolyline
 66
     1
 10
0.0
 20
0.0
 30
0.0
  0
VERTEX
  5
591
330
58F
100
AcDbEntity
  8
001
370
    50
100
AcDbVertex
100
AcDb2dVertex
 10
120.282575
 20
60.476
 30
0.0
  0
VERTEX
  5
592
330
58F
100
AcDbEntity
  8
001
370
    50
100
AcDbVertex
100
AcDb2dVertex
 10
120.421451
 20
60.315499
 30
0.0
  0
VERTEX
  5
593
330
58F
100
AcDbEntity
  8
001
370
    50
100
AcDbVertex
100
AcDb2dVertex
 10
120.625043
 20
60.081459
 30
0.0
  0
VERTEX
  5
594
330
58F
100
AcDbEntity
  8
001
370
    50
100
AcDbVertex
100
AcDb2dVertex
 10
120.746958
 20
59.942165
 30
0.0
  0
VERTEX
  5
595
330
58F
100
AcDbEntity
  8
001
370
    50
100
AcDbVertex
100
AcDb2dVertex
 10
120.856586
 20
59.817383
 30
0.0
  0
SEQEND
  5
590
330
58F
100
AcDbEntity
  8
001
370
    50
  0
POLYLINE
  5
596
330
1F
100
AcDbEntity
  8
001
370
    50
100
AcDb2dPolyline
 66
     1
 10
0.0
 20
0.0
 30
0.0
  0
VERTEX
  5
598
330
596
100
AcDbEntity
  8
001
370
    50
100
AcDbVertex
100
AcDb2dVertex
 10
123.41747
 20
56.747484
 30
0.0
  0
VERTEX
  5
599
330
596
100
AcDbEntity
  8
001
370
    50
100
AcDbVertex
100
AcDb2dVertex
 10
123.595509
 20
56.527166
 30
0.0
  0
VERTEX
  5
59A
330
596
100
AcDbEntity
  8
001
370
    50
100
AcDbVertex
100
AcDb2dVertex
 10
123.716764
 20
56.37777
 30
0.0
  0
SEQEND
  5
597
330
596
100
AcDbEntity
  8
001
370
    50
  0
LINE
  5
59B
330
1F
100
AcDbEntity
  8
001
370
    50
100
AcDbLine
 10
123.434447
 20
55.579256
 30
0.0
 11
122.910376
 21
56.113832
 31
0.0
  0
POLYLINE
  5
59C
330
1F
100
AcDbEntity
  8
001
370
    50
100
AcDb2dPolyline
 66
     1
 10
0.0
 20
0.0
 30
0.0
  0
VERTEX
  5
59E
330
59C
100
AcDbEntity
  8
001
370
    50
100
AcDbVertex
100
AcDb2dVertex
 10
146.420408
 20
51.375331
 30
0.0
  0
VERTEX
  5
59F
330
59C
100
AcDbEntity
  8
001
370
    50
100
AcDbVertex
100
AcDb2dVertex
 10
146.350574
 20
51.380531
 30
0.0
  0
VERTEX
  5
5A0
330
59C
100
AcDbEntity
  8
001
370
    50
100
AcDbVertex
100
AcDb2dVertex
 10
146.281053
 20
51.387976
 30
0.0
  0
VERTEX
  5
5A1
330
59C
100
AcDbEntity
  8
001
370
    50
100
AcDbVertex
100
AcDb2dVertex
 10
146.172597
 20
51.407414
 30
0.0
  0
VERTEX
  5
5A2
330
59C
100
AcDbEntity
  8
001
370
    50
100
AcDbVertex
100
AcDb2dVertex
 10
146.065199
 20
51.433097
 30
0.0
  0
VERTEX
  5
5A3
330
59C
100
AcDbEntity
  8
001
370
    50
100
AcDbVertex
100
AcDb2dVertex
 10
145.926569
 20
51.469488
 30
0.0
  0
VERTEX
  5
5A4
330
59C
100
AcDbEntity
  8
001
370
    50
100
AcDbVertex
100
AcDb2dVertex
 10
145.78863
 20
51.507907
 30
0.0
  0
VERTEX
  5
5A5
330
59C
100
AcDbEntity
  8
001
370
    50
100
AcDbVertex
100
AcDb2dVertex
 10
145.62087
 20
51.557097
 30
0.0
  0
VERTEX
  5
5A6
330
59C
100
AcDbEntity
  8
001
370
    50
100
AcDbVertex
100
AcDb2dVertex
 10
145.453519
 20
51.607847
 30
0.0
  0
VERTEX
  5
5A7
330
59C
100
AcDbEntity
  8
001
370
    50
100
AcDbVertex
100
AcDb2dVertex
 10
145.257738
 20
51.668004
 30
0.0
  0
VERTEX
  5
5A8
330
59C
100
AcDbEntity
  8
001
370
    50
100
AcDbVertex
100
AcDb2dVertex
 10
145.062037
 20
51.728359
 30
0.0
  0
VERTEX
  5
5A9
330
59C
100
AcDbEntity
  8
001
370
    50
100
AcDbVertex
100
AcDb2dVertex
 10
144.863399
 20
51.789402
 30
0.0
  0
VERTEX
  5
5AA
330
59C
100
AcDbEntity
  8
001
370
    50
100
AcDbVertex
100
AcDb2dVertex
 10
144.664598
 20
51.849929
 30
0.0
  0
VERTEX
  5
5AB
330
59C
100
AcDbEntity
  8
001
370
    50
100
AcDbVertex
100
AcDb2dVertex
 10
144.444792
 20
51.915849
 30
0.0
  0
VERTEX
  5
5AC
330
59C
100
AcDbEntity
  8
001
370
    50
100
AcDbVertex
100
AcDb2dVertex
 10
144.224647
 20
51.980626
 30
0.0
  0
VERTEX
  5
5AD
330
59C
100
AcDbEntity
  8
001
370
    50
100
AcDbVertex
100
AcDb2dVertex
 10
143.986048
 20
52.049253
 30
0.0
  0
VERTEX
  5
5AE
330
59C
100
AcDbEntity
  8
001
370
    50
100
AcDbVertex
100
AcDb2dVertex
 10
143.746974
 20
52.116204
 30
0.0
  0
VERTEX
  5
5AF
330
59C
100
AcDbEntity
  8
001
370
    50
100
AcDbVertex
100
AcDb2dVertex
 10
143.491975
 20
52.18544
 30
0.0
  0
VERTEX
  5
5B0
330
59C
100
AcDbEntity
  8
001
370
    50
100
AcDbVertex
100
AcDb2dVertex
 10
143.236372
 20
52.252417
 30
0.0
  0
VERTEX
  5
5B1
330
59C
100
AcDbEntity
  8
001
370
    50
100
AcDbVertex
100
AcDb2dVertex
 10
142.854922
 20
52.347597
 30
0.0
  0
VERTEX
  5
5B2
330
59C
100
AcDbEntity
  8
001
370
    50
100
AcDbVertex
100
AcDb2dVertex
 10
142.472149
 20
52.437325
 30
0.0
  0
VERTEX
  5
5B3
330
59C
100
AcDbEntity
  8
001
370
    50
100
AcDbVertex
100
AcDb2dVertex
 10
142.064449
 20
52.526523
 30
0.0
  0
VERTEX
  5
5B4
330
59C
100
AcDbEntity
  8
001
370
    50
100
AcDbVertex
100
AcDb2dVertex
 10
141.655399
 20
52.609325
 30
0.0
  0
VERTEX
  5
5B5
330
59C
100
AcDbEntity
  8
001
370
    50
100
AcDbVertex
100
AcDb2dVertex
 10
141.228081
 20
52.688515
 30
0.0
  0
VERTEX
  5
5B6
330
59C
100
AcDbEntity
  8
001
370
    50
100
AcDbVertex
100
AcDb2dVertex
 10
140.799437
 20
52.760155
 30
0.0
  0
VERTEX
  5
5B7
330
59C
100
AcDbEntity
  8
001
370
    50
100
AcDbVertex
100
AcDb2dVertex
 10
140.428103
 20
52.815707
 30
0.0
  0
VERTEX
  5
5B8
330
59C
100
AcDbEntity
  8
001
370
    50
100
AcDbVertex
100
AcDb2dVertex
 10
140.055937
 20
52.865386
 30
0.0
  0
VERTEX
  5
5B9
330
59C
100
AcDbEntity
  8
001
370
    50
100
AcDbVertex
100
AcDb2dVertex
 10
139.67445
 20
52.910192
 30
0.0
  0
VERTEX
  5
5BA
330
59C
100
AcDbEntity
  8
001
370
    50
100
AcDbVertex
100
AcDb2dVertex
 10
139.292299
 20
52.948928
 30
0.0
  0
VERTEX
  5
5BB
330
59C
100
AcDbEntity
  8
001
370
    50
100
AcDbVertex
100
AcDb2dVertex
 10
138.904221
 20
52.98199
 30
0.0
  0
VERTEX
  5
5BC
330
59C
100
AcDbEntity
  8
001
370
    50
100
AcDbVertex
100
AcDb2dVertex
 10
138.515656
 20
53.008708
 30
0.0
  0
VERTEX
  5
5BD
330
59C
100
AcDbEntity
  8
001
370
    50
100
AcDbVertex
100
AcDb2dVertex
 10
138.124544
 20
53.029054
 30
0.0
  0
VERTEX
  5
5BE
330
59C
100
AcDbEntity
  8
001
370
    50
100
AcDbVertex
100
AcDb2dVertex
 10
137.733141
 20
53.042654
 30
0.0
  0
VERTEX
  5
5BF
330
59C
100
AcDbEntity
  8
001
370
    50
100
AcDbVertex
100
AcDb2dVertex
 10
137.309473
 20
53.049595
 30
0.0
  0
VERTEX
  5
5C0
330
59C
100
AcDbEntity
  8
001
370
    50
100
AcDbVertex
100
AcDb2dVertex
 10
136.885745
 20
53.04861
 30
0.0
  0
VERTEX
  5
5C1
330
59C
100
AcDbEntity
  8
001
370
    50
100
AcDbVertex
100
AcDb2dVertex
 10
136.461352
 20
53.039903
 30
0.0
  0
VERTEX
  5
5C2
330
59C
100
AcDbEntity
  8
001
370
    50
100
AcDbVertex
100
AcDb2dVertex
 10
136.03718
 20
53.023645
 30
0.0
  0
VERTEX
  5
5C3
330
59C
100
AcDbEntity
  8
001
370
    50
100
AcDbVertex
100
AcDb2dVertex
 10
135.616331
 20
53.000149
 30
0.0
  0
VERTEX
  5
5C4
330
59C
100
AcDbEntity
  8
001
370
    50
100
AcDbVertex
100
AcDb2dVertex
 10
135.195964
 20
52.969268
 30
0.0
  0
VERTEX
  5
5C5
330
59C
100
AcDbEntity
  8
001
370
    50
100
AcDbVertex
100
AcDb2dVertex
 10
134.782945
 20
52.931634
 30
0.0
  0
VERTEX
  5
5C6
330
59C
100
AcDbEntity
  8
001
370
    50
100
AcDbVertex
100
AcDb2dVertex
 10
134.370618
 20
52.886987
 30
0.0
  0
VERTEX
  5
5C7
330
59C
100
AcDbEntity
  8
001
370
    50
100
AcDbVertex
100
AcDb2dVertex
 10
134.041523
 20
52.846303
 30
0.0
  0
VERTEX
  5
5C8
330
59C
100
AcDbEntity
  8
001
370
    50
100
AcDbVertex
100
AcDb2dVertex
 10
133.713072
 20
52.800825
 30
0.0
  0
VERTEX
  5
5C9
330
59C
100
AcDbEntity
  8
001
370
    50
100
AcDbVertex
100
AcDb2dVertex
 10
133.391681
 20
52.751626
 30
0.0
  0
VERTEX
  5
5CA
330
59C
100
AcDbEntity
  8
001
370
    50
100
AcDbVertex
100
AcDb2dVertex
 10
133.070668
 20
52.699901
 30
0.0
  0
SEQEND
  5
59D
330
59C
100
AcDbEntity
  8
001
370
    50
  0
POLYLINE
  5
5CB
330
1F
100
AcDbEntity
  8
001
370
    50
100
AcDb2dPolyline
 66
     1
 10
0.0
 20
0.0
 30
0.0
  0
VERTEX
  5
5CD
330
5CB
100
AcDbEntity
  8
001
370
    50
100
AcDbVertex
100
AcDb2dVertex
 10
128.672668
 20
52.112377
 30
0.0
  0
VERTEX
  5
5CE
330
5CB
100
AcDbEntity
  8
001
370
    50
100
AcDbVertex
100
AcDb2dVertex
 10
128.43726
 20
52.087457
 30
0.0
  0
VERTEX
  5
5CF
330
5CB
100
AcDbEntity
  8
001
370
    50
100
AcDbVertex
100
AcDb2dVertex
 10
128.20197
 20
52.061489
 30
0.0
  0
VERTEX
  5
5D0
330
5CB
100
AcDbEntity
  8
001
370
    50
100
AcDbVertex
100
AcDb2dVertex
 10
128.070801
 20
52.046245
 30
0.0
  0
VERTEX
  5
5D1
330
5CB
100
AcDbEntity
  8
001
370
    50
100
AcDbVertex
100
AcDb2dVertex
 10
127.939668
 20
52.030674
 30
0.0
  0
SEQEND
  5
5CC
330
5CB
100
AcDbEntity
  8
001
370
    50
  0
POLYLINE
  5
5D2
330
1F
100
AcDbEntity
  8
001
370
    50
100
AcDb2dPolyline
 66
     1
 10
0.0
 20
0.0
 30
0.0
  0
VERTEX
  5
5D4
330
5D2
100
AcDbEntity
  8
001
370
    50
100
AcDbVertex
100
AcDb2dVertex
 10
129.405668
 20
52.198761
 30
0.0
  0
VERTEX
  5
5D5
330
5D2
100
AcDbEntity
  8
001
370
    50
100
AcDbVertex
100
AcDb2dVertex
 10
129.170252
 20
52.172441
 30
0.0
  0
VERTEX
  5
5D6
330
5D2
100
AcDbEntity
  8
001
370
    50
100
AcDbVertex
100
AcDb2dVertex
 10
128.93497
 20
52.144992
 30
0.0
  0
VERTEX
  5
5D7
330
5D2
100
AcDbEntity
  8
001
370
    50
100
AcDbVertex
100
AcDb2dVertex
 10
128.803798
 20
52.128861
 30
0.0
  0
VERTEX
  5
5D8
330
5D2
100
AcDbEntity
  8
001
370
    50
100
AcDbVertex
100
AcDb2dVertex
 10
128.672668
 20
52.112377
 30
0.0
  0
SEQEND
  5
5D3
330
5D2
100
AcDbEntity
  8
001
370
    50
  0
POLYLINE
  5
5D9
330
1F
100
AcDbEntity
  8
001
370
    50
100
AcDb2dPolyline
 66
     1
 10
0.0
 20
0.0
 30
0.0
  0
VERTEX
  5
5DB
330
5D9
100
AcDbEntity
  8
001
370
    50
100
AcDbVertex
100
AcDb2dVertex
 10
130.138668
 20
52.289797
 30
0.0
  0
VERTEX
  5
5DC
330
5D9
100
AcDbEntity
  8
001
370
    50
100
AcDbVertex
100
AcDb2dVertex
 10
129.903243
 20
52.262086
 30
0.0
  0
VERTEX
  5
5DD
330
5D9
100
AcDbEntity
  8
001
370
    50
100
AcDbVertex
100
AcDb2dVertex
 10
129.66797
 20
52.233165
 30
0.0
  0
VERTEX
  5
5DE
330
5D9
100
AcDbEntity
  8
001
370
    50
100
AcDbVertex
100
AcDb2dVertex
 10
129.536795
 20
52.216151
 30
0.0
  0
VERTEX
  5
5DF
330
5D9
100
AcDbEntity
  8
001
370
    50
100
AcDbVertex
100
AcDb2dVertex
 10
129.405668
 20
52.198761
 30
0.0
  0
SEQEND
  5
5DA
330
5D9
100
AcDbEntity
  8
001
370
    50
  0
POLYLINE
  5
5E0
330
1F
100
AcDbEntity
  8
001
370
    50
100
AcDb2dPolyline
 66
     1
 10
0.0
 20
0.0
 30
0.0
  0
VERTEX
  5
5E2
330
5E0
100
AcDbEntity
  8
001
370
    50
100
AcDbVertex
100
AcDb2dVertex
 10
130.871668
 20
52.385459
 30
0.0
  0
VERTEX
  5
5E3
330
5E0
100
AcDbEntity
  8
001
370
    50
100
AcDbVertex
100
AcDb2dVertex
 10
130.636234
 20
52.356365
 30
0.0
  0
VERTEX
  5
5E4
330
5E0
100
AcDbEntity
  8
001
370
    50
100
AcDbVertex
100
AcDb2dVertex
 10
130.40097
 20
52.325981
 30
0.0
  0
VERTEX
  5
5E5
330
5E0
100
AcDbEntity
  8
001
370
    50
100
AcDbVertex
100
AcDb2dVertex
 10
130.269792
 20
52.30809
 30
0.0
  0
VERTEX
  5
5E6
330
5E0
100
AcDbEntity
  8
001
370
    50
100
AcDbVertex
100
AcDb2dVertex
 10
130.138668
 20
52.289797
 30
0.0
  0
SEQEND
  5
5E1
330
5E0
100
AcDbEntity
  8
001
370
    50
  0
LINE
  5
5E7
330
1F
100
AcDbEntity
  8
001
370
    50
100
AcDbLine
 10
131.604668
 20
52.485718
 30
0.0
 11
130.871668
 21
52.385459
 31
0.0
  0
LINE
  5
5E8
330
1F
100
AcDbEntity
  8
001
370
    50
100
AcDbLine
 10
132.337668
 20
52.590542
 30
0.0
 11
131.604668
 21
52.485718
 31
0.0
  0
LINE
  5
5E9
330
1F
100
AcDbEntity
  8
001
370
    50
100
AcDbLine
 10
133.070668
 20
52.699901
 30
0.0
 11
132.337668
 21
52.590542
 31
0.0
  0
POLYLINE
  5
5EA
330
1F
100
AcDbEntity
  8
001
370
    50
100
AcDb2dPolyline
 66
     1
 10
0.0
 20
0.0
 30
0.0
  0
VERTEX
  5
5EC
330
5EA
100
AcDbEntity
  8
001
370
    50
100
AcDbVertex
100
AcDb2dVertex
 10
125.740668
 20
51.813884
 30
0.0
  0
VERTEX
  5
5ED
330
5EA
100
AcDbEntity
  8
001
370
    50
100
AcDbVertex
100
AcDb2dVertex
 10
125.505288
 20
51.794631
 30
0.0
  0
VERTEX
  5
5EE
330
5EA
100
AcDbEntity
  8
001
370
    50
100
AcDbVertex
100
AcDb2dVertex
 10
125.26997
 20
51.774662
 30
0.0
  0
VERTEX
  5
5EF
330
5EA
100
AcDbEntity
  8
001
370
    50
100
AcDbVertex
100
AcDb2dVertex
 10
125.138809
 20
51.763009
 30
0.0
  0
VERTEX
  5
5F0
330
5EA
100
AcDbEntity
  8
001
370
    50
100
AcDbVertex
100
AcDb2dVertex
 10
125.007668
 20
51.751134
 30
0.0
  0
SEQEND
  5
5EB
330
5EA
100
AcDbEntity
  8
001
370
    50
  0
POLYLINE
  5
5F1
330
1F
100
AcDbEntity
  8
001
370
    50
100
AcDb2dPolyline
 66
     1
 10
0.0
 20
0.0
 30
0.0
  0
VERTEX
  5
5F3
330
5F1
100
AcDbEntity
  8
001
370
    50
100
AcDbVertex
100
AcDb2dVertex
 10
126.473668
 20
51.881405
 30
0.0
  0
VERTEX
  5
5F4
330
5F1
100
AcDbEntity
  8
001
370
    50
100
AcDbVertex
100
AcDb2dVertex
 10
126.238282
 20
51.860725
 30
0.0
  0
VERTEX
  5
5F5
330
5F1
100
AcDbEntity
  8
001
370
    50
100
AcDbVertex
100
AcDb2dVertex
 10
126.00297
 20
51.839246
 30
0.0
  0
VERTEX
  5
5F6
330
5F1
100
AcDbEntity
  8
001
370
    50
100
AcDbVertex
100
AcDb2dVertex
 10
125.871807
 20
51.826689
 30
0.0
  0
VERTEX
  5
5F7
330
5F1
100
AcDbEntity
  8
001
370
    50
100
AcDbVertex
100
AcDb2dVertex
 10
125.740668
 20
51.813884
 30
0.0
  0
SEQEND
  5
5F2
330
5F1
100
AcDbEntity
  8
001
370
    50
  0
POLYLINE
  5
5F8
330
1F
100
AcDbEntity
  8
001
370
    50
100
AcDb2dPolyline
 66
     1
 10
0.0
 20
0.0
 30
0.0
  0
VERTEX
  5
5FA
330
5F8
100
AcDbEntity
  8
001
370
    50
100
AcDbVertex
100
AcDb2dVertex
 10
127.206668
 20
51.953675
 30
0.0
  0
VERTEX
  5
5FB
330
5F8
100
AcDbEntity
  8
001
370
    50
100
AcDbVertex
100
AcDb2dVertex
 10
126.971275
 20
51.931575
 30
0.0
  0
VERTEX
  5
5FC
330
5F8
100
AcDbEntity
  8
001
370
    50
100
AcDbVertex
100
AcDb2dVertex
 10
126.73597
 20
51.908593
 30
0.0
  0
VERTEX
  5
5FD
330
5F8
100
AcDbEntity
  8
001
370
    50
100
AcDbVertex
100
AcDb2dVertex
 10
126.604805
 20
51.895136
 30
0.0
  0
VERTEX
  5
5FE
330
5F8
100
AcDbEntity
  8
001
370
    50
100
AcDbVertex
100
AcDb2dVertex
 10
126.473668
 20
51.881405
 30
0.0
  0
SEQEND
  5
5F9
330
5F8
100
AcDbEntity
  8
001
370
    50
  0
POLYLINE
  5
5FF
330
1F
100
AcDbEntity
  8
001
370
    50
100
AcDb2dPolyline
 66
     1
 10
0.0
 20
0.0
 30
0.0
  0
VERTEX
  5
601
330
5FF
100
AcDbEntity
  8
001
370
    50
100
AcDbVertex
100
AcDb2dVertex
 10
127.939668
 20
52.030674
 30
0.0
  0
VERTEX
  5
602
330
5FF
100
AcDbEntity
  8
001
370
    50
100
AcDbVertex
100
AcDb2dVertex
 10
127.704268
 20
52.00716
 30
0.0
  0
VERTEX
  5
603
330
5FF
100
AcDbEntity
  8
001
370
    50
100
AcDbVertex
100
AcDb2dVertex
 10
127.46897
 20
51.982681
 30
0.0
  0
VERTEX
  5
604
330
5FF
100
AcDbEntity
  8
001
370
    50
100
AcDbVertex
100
AcDb2dVertex
 10
127.337803
 20
51.968329
 30
0.0
  0
VERTEX
  5
605
330
5FF
100
AcDbEntity
  8
001
370
    50
100
AcDbVertex
100
AcDb2dVertex
 10
127.206668
 20
51.953675
 30
0.0
  0
SEQEND
  5
600
330
5FF
100
AcDbEntity
  8
001
370
    50
  0
POLYLINE
  5
606
330
1F
100
AcDbEntity
  8
001
370
    50
100
AcDb2dPolyline
 66
     1
 10
0.0
 20
0.0
 30
0.0
  0
VERTEX
  5
608
330
606
100
AcDbEntity
  8
001
370
    50
100
AcDbVertex
100
AcDb2dVertex
 10
128.672668
 20
52.112377
 30
0.0
  0
VERTEX
  5
609
330
606
100
AcDbEntity
  8
001
370
    50
100
AcDbVertex
100
AcDb2dVertex
 10
128.43726
 20
52.087457
 30
0.0
  0
VERTEX
  5
60A
330
606
100
AcDbEntity
  8
001
370
    50
100
AcDbVertex
100
AcDb2dVertex
 10
128.20197
 20
52.061489
 30
0.0
  0
VERTEX
  5
60B
330
606
100
AcDbEntity
  8
001
370
    50
100
AcDbVertex
100
AcDb2dVertex
 10
128.070801
 20
52.046245
 30
0.0
  0
VERTEX
  5
60C
330
606
100
AcDbEntity
  8
001
370
    50
100
AcDbVertex
100
AcDb2dVertex
 10
127.939668
 20
52.030674
 30
0.0
  0
SEQEND
  5
607
330
606
100
AcDbEntity
  8
001
370
    50
  0
POLYLINE
  5
60D
330
1F
100
AcDbEntity
  8
001
370
    50
100
AcDb2dPolyline
 66
     1
 10
0.0
 20
0.0
 30
0.0
  0
VERTEX
  5
60F
330
60D
100
AcDbEntity
  8
001
370
    50
100
AcDbVertex
100
AcDb2dVertex
 10
129.405668
 20
52.198761
 30
0.0
  0
VERTEX
  5
610
330
60D
100
AcDbEntity
  8
001
370
    50
100
AcDbVertex
100
AcDb2dVertex
 10
129.170252
 20
52.172441
 30
0.0
  0
VERTEX
  5
611
330
60D
100
AcDbEntity
  8
001
370
    50
100
AcDbVertex
100
AcDb2dVertex
 10
128.93497
 20
52.144992
 30
0.0
  0
VERTEX
  5
612
330
60D
100
AcDbEntity
  8
001
370
    50
100
AcDbVertex
100
AcDb2dVertex
 10
128.803798
 20
52.128861
 30
0.0
  0
VERTEX
  5
613
330
60D
100
AcDbEntity
  8
001
370
    50
100
AcDbVertex
100
AcDb2dVertex
 10
128.672668
 20
52.112377
 30
0.0
  0
SEQEND
  5
60E
330
60D
100
AcDbEntity
  8
001
370
    50
  0
POLYLINE
  5
614
330
1F
100
AcDbEntity
  8
001
370
    50
100
AcDb2dPolyline
 66
     1
 10
0.0
 20
0.0
 30
0.0
  0
VERTEX
  5
616
330
614
100
AcDbEntity
  8
001
370
    50
100
AcDbVertex
100
AcDb2dVertex
 10
130.138668
 20
52.289797
 30
0.0
  0
VERTEX
  5
617
330
614
100
AcDbEntity
  8
001
370
    50
100
AcDbVertex
100
AcDb2dVertex
 10
129.903243
 20
52.262086
 30
0.0
  0
VERTEX
  5
618
330
614
100
AcDbEntity
  8
001
370
    50
100
AcDbVertex
100
AcDb2dVertex
 10
129.66797
 20
52.233165
 30
0.0
  0
VERTEX
  5
619
330
614
100
AcDbEntity
  8
001
370
    50
100
AcDbVertex
100
AcDb2dVertex
 10
129.536795
 20
52.216151
 30
0.0
  0
VERTEX
  5
61A
330
614
100
AcDbEntity
  8
001
370
    50
100
AcDbVertex
100
AcDb2dVertex
 10
129.405668
 20
52.198761
 30
0.0
  0
SEQEND
  5
615
330
614
100
AcDbEntity
  8
001
370
    50
  0
POLYLINE
  5
61B
330
1F
100
AcDbEntity
  8
001
370
    50
100
AcDb2dPolyline
 66
     1
 10
0.0
 20
0.0
 30
0.0
  0
VERTEX
  5
61D
330
61B
100
AcDbEntity
  8
001
370
    50
100
AcDbVertex
100
AcDb2dVertex
 10
130.871668
 20
52.385459
 30
0.0
  0
VERTEX
  5
61E
330
61B
100
AcDbEntity
  8
001
370
    50
100
AcDbVertex
100
AcDb2dVertex
 10
130.636234
 20
52.356365
 30
0.0
  0
VERTEX
  5
61F
330
61B
100
AcDbEntity
  8
001
370
    50
100
AcDbVertex
100
AcDb2dVertex
 10
130.40097
 20
52.325981
 30
0.0
  0
VERTEX
  5
620
330
61B
100
AcDbEntity
  8
001
370
    50
100
AcDbVertex
100
AcDb2dVertex
 10
130.269792
 20
52.30809
 30
0.0
  0
VERTEX
  5
621
330
61B
100
AcDbEntity
  8
001
370
    50
100
AcDbVertex
100
AcDb2dVertex
 10
130.138668
 20
52.289797
 30
0.0
  0
SEQEND
  5
61C
330
61B
100
AcDbEntity
  8
001
370
    50
  0
LINE
  5
622
330
1F
100
AcDbEntity
  8
001
370
    50
100
AcDbLine
 10
131.604668
 20
52.485718
 30
0.0
 11
130.871668
 21
52.385459
 31
0.0
  0
LINE
  5
623
330
1F
100
AcDbEntity
  8
001
370
    50
100
AcDbLine
 10
132.337668
 20
52.590542
 30
0.0
 11
131.604668
 21
52.485718
 31
0.0
  0
LINE
  5
624
330
1F
100
AcDbEntity
  8
001
370
    50
100
AcDbLine
 10
133.070668
 20
52.699901
 30
0.0
 11
132.337668
 21
52.590542
 31
0.0
  0
LINE
  5
625
330
1F
100
AcDbEntity
  8
001
370
    50
100
AcDbLine
 10
111.88079
 20
55.507957
 30
0.0
 11
104.438203
 21
55.456876
 31
0.0
  0
LINE
  5
626
330
1F
100
AcDbEntity
  8
001
370
    50
100
AcDbLine
 10
101.166168
 20
55.425331
 30
0.0
 11
112.070441
 21
55.425331
 31
0.0
  0
LINE
  5
627
330
1F
100
AcDbEntity
  8
001
  6
PHANTOM
370
     9
100
AcDbLine
 10
113.892417
 20
81.475331
 30
0.0
 11
113.892417
 21
87.475331
 31
0.0
  0
LINE
  5
628
330
1F
100
AcDbEntity
  8
001
  6
PHANTOM
370
     9
100
AcDbLine
 10
112.892417
 20
80.475331
 30
0.0
 11
96.392417
 21
80.475331
 31
0.0
  0
LINE
  5
629
330
1F
100
AcDbEntity
  8
001
  6
PHANTOM
370
     9
100
AcDbLine
 10
96.392417
 20
76.975331
 30
0.0
 11
96.392417
 21
80.475331
 31
0.0
  0
LINE
  5
62A
330
1F
100
AcDbEntity
  8
001
  6
PHANTOM
370
     9
100
AcDbLine
 10
96.392417
 20
76.975331
 30
0.0
 11
95.892417
 21
76.475331
 31
0.0
  0
LINE
  5
62B
330
1F
100
AcDbEntity
  8
001
  6
PHANTOM
370
     9
100
AcDbLine
 10
114.642417
 20
82.225331
 30
0.0
 11
112.892417
 21
80.475331
 31
0.0
  0
LINE
  5
62C
330
1F
100
AcDbEntity
  8
001
  6
PHANTOM
370
     9
100
AcDbLine
 10
113.892417
 20
53.475331
 30
0.0
 11
113.892417
 21
47.475331
 31
0.0
  0
LINE
  5
62D
330
1F
100
AcDbEntity
  8
001
  6
PHANTOM
370
     9
100
AcDbLine
 10
112.892417
 20
54.475331
 30
0.0
 11
96.392417
 21
54.475331
 31
0.0
  0
LINE
  5
62E
330
1F
100
AcDbEntity
  8
001
  6
PHANTOM
370
     9
100
AcDbLine
 10
96.392417
 20
57.975331
 30
0.0
 11
96.392417
 21
54.475331
 31
0.0
  0
LINE
  5
62F
330
1F
100
AcDbEntity
  8
001
  6
PHANTOM
370
     9
100
AcDbLine
 10
96.392417
 20
57.975331
 30
0.0
 11
95.892417
 21
58.475331
 31
0.0
  0
LINE
  5
630
330
1F
100
AcDbEntity
  8
001
  6
PHANTOM
370
     9
100
AcDbLine
 10
113.892417
 20
53.475331
 30
0.0
 11
112.892417
 21
54.475331
 31
0.0
  0
LINE
  5
631
330
1F
100
AcDbEntity
  8
001
  6
PHANTOM
370
     9
100
AcDbLine
 10
95.892417
 20
76.475331
 30
0.0
 11
90.534921
 21
76.475331
 31
0.0
  0
LINE
  5
632
330
1F
100
AcDbEntity
  8
001
  6
PHANTOM
370
     9
100
AcDbLine
 10
95.892417
 20
58.475331
 30
0.0
 11
90.534921
 21
58.475331
 31
0.0
  0
LINE
  5
633
330
1F
100
AcDbEntity
  8
001
370
    50
100
AcDbLine
 10
96.392417
 20
57.975331
 30
0.0
 11
95.392416
 21
58.975331
 31
0.0
  0
LINE
  5
634
330
1F
100
AcDbEntity
  8
001
370
    50
100
AcDbLine
 10
113.739787
 20
57.606486
 30
0.0
 11
113.735084
 21
57.280762
 31
0.0
  0
POLYLINE
  5
635
330
1F
100
AcDbEntity
  8
001
370
    50
100
AcDb2dPolyline
 66
     1
 10
0.0
 20
0.0
 30
0.0
  0
VERTEX
  5
637
330
635
100
AcDbEntity
  8
001
370
    50
100
AcDbVertex
100
AcDb2dVertex
 10
113.472737
 20
57.080014
 30
0.0
  0
VERTEX
  5
638
330
635
100
AcDbEntity
  8
001
370
    50
100
AcDbVertex
100
AcDb2dVertex
 10
113.473191
 20
57.11464
 30
0.0
  0
VERTEX
  5
639
330
635
100
AcDbEntity
  8
001
370
    50
100
AcDbVertex
100
AcDb2dVertex
 10
113.473645
 20
57.149266
 30
0.0
  0
VERTEX
  5
63A
330
635
100
AcDbEntity
  8
001
370
    50
100
AcDbVertex
100
AcDb2dVertex
 10
113.474875
 20
57.243238
 30
0.0
  0
VERTEX
  5
63B
330
635
100
AcDbEntity
  8
001
370
    50
100
AcDbVertex
100
AcDb2dVertex
 10
113.476303
 20
57.352513
 30
0.0
  0
VERTEX
  5
63C
330
635
100
AcDbEntity
  8
001
370
    50
100
AcDbVertex
100
AcDb2dVertex
 10
113.478353
 20
57.510033
 30
0.0
  0
VERTEX
  5
63D
330
635
100
AcDbEntity
  8
001
370
    50
100
AcDbVertex
100
AcDb2dVertex
 10
113.479751
 20
57.617811
 30
0.0
  0
SEQEND
  5
636
330
635
100
AcDbEntity
  8
001
370
    50
  0
POLYLINE
  5
63E
330
1F
100
AcDbEntity
  8
001
370
    50
100
AcDb2dPolyline
 66
     1
 10
0.0
 20
0.0
 30
0.0
  0
VERTEX
  5
640
330
63E
100
AcDbEntity
  8
001
370
    50
100
AcDbVertex
100
AcDb2dVertex
 10
111.955544
 20
55.58204
 30
0.0
  0
VERTEX
  5
641
330
63E
100
AcDbEntity
  8
001
370
    50
100
AcDbVertex
100
AcDb2dVertex
 10
112.110974
 20
55.734323
 30
0.0
  0
VERTEX
  5
642
330
63E
100
AcDbEntity
  8
001
370
    50
100
AcDbVertex
100
AcDb2dVertex
 10
112.337554
 20
55.957487
 30
0.0
  0
VERTEX
  5
643
330
63E
100
AcDbEntity
  8
001
370
    50
100
AcDbVertex
100
AcDb2dVertex
 10
112.342358
 20
55.962236
 30
0.0
  0
VERTEX
  5
644
330
63E
100
AcDbEntity
  8
001
370
    50
100
AcDbVertex
100
AcDb2dVertex
 10
112.347161
 20
55.966985
 30
0.0
  0
VERTEX
  5
645
330
63E
100
AcDbEntity
  8
001
370
    50
100
AcDbVertex
100
AcDb2dVertex
 10
112.909949
 20
56.5235
 30
0.0
  0
VERTEX
  5
646
330
63E
100
AcDbEntity
  8
001
370
    50
100
AcDbVertex
100
AcDb2dVertex
 10
113.472737
 20
57.080014
 30
0.0
  0
SEQEND
  5
63F
330
63E
100
AcDbEntity
  8
001
370
    50
  0
LINE
  5
647
330
1F
100
AcDbEntity
  8
001
370
    50
100
AcDbLine
 10
113.472737
 20
57.080014
 30
0.0
 11
113.529875
 21
57.073331
 31
0.0
  0
LINE
  5
648
330
1F
100
AcDbEntity
  8
001
370
    50
100
AcDbLine
 10
116.141065
 20
52.725331
 30
0.0
 11
114.642417
 21
52.725331
 31
0.0
  0
LINE
  5
649
330
1F
100
AcDbEntity
  8
001
370
    50
100
AcDbLine
 10
116.803456
 20
51.574856
 30
0.0
 11
115.676131
 21
52.725331
 31
0.0
  0
LINE
  5
64A
330
1F
100
AcDbEntity
  8
001
370
    50
100
AcDbLine
 10
114.642417
 20
52.725331
 30
0.0
 11
112.478015
 21
54.889733
 31
0.0
  0
LINE
  5
64B
330
1F
100
AcDbEntity
  8
001
  6
PHANTOM
370
     9
100
AcDbLine
 10
114.642417
 20
82.225331
 30
0.0
 11
116.141065
 21
82.225331
 31
0.0
  0
ARC
  5
64C
330
1F
100
AcDbEntity
  8
001
370
    50
100
AcDbCircle
 10
118.549837
 20
51.358662
 30
0.0
 40
0.76333127577507
100
AcDbArc
 50
224.431471
 51
315.308559
  0
LINE
  5
64D
330
1F
100
AcDbEntity
  8
001
  6
CENTER
370
     9
100
AcDbLine
 10
115.573292
 20
50.595331
 30
0.0
 11
118.549837
 21
50.595331
 31
0.0
  0
LINE
  5
64E
330
1F
100
AcDbEntity
  8
001
  6
CENTER
370
     9
100
AcDbLine
 10
115.573292
 20
84.355331
 30
0.0
 11
118.549837
 21
84.355331
 31
0.0
  0
ENDSEC
  0
SECTION
  2
OBJECTS
  0
DICTIONARY
  5
C
330
0
100
AcDbDictionary
281
     1
  3
ACAD_GROUP
350
D
  3
ACAD_LAYOUT
350
1A
  3
ACAD_MLEADERSTYLE
350
652
  3
ACAD_MLINESTYLE
350
17
  3
ACAD_PLOTSETTINGS
350
19
  3
ACAD_PLOTSTYLENAME
350
E
  3
ACAD_SCALELIST
350
3B
  3
ACAD_TABLESTYLE
350
651
  3
ACAD_VISUALSTYLE
350
2A
  3
AcDbVariableDictionary
350
64F
  0
DICTIONARY
  5
D
102
{ACAD_REACTORS
330
C
102
}
330
C
100
AcDbDictionary
281
     1
  0
DICTIONARY
  5
1A
102
{ACAD_REACTORS
330
C
102
}
330
C
100
AcDbDictionary
281
     1
  3
Layout1
350
1E
  3
Layout2
350
26
  3
Model
350
22
  0
DICTIONARY
  5
652
102
{ACAD_REACTORS
330
C
102
}
330
C
100
AcDbDictionary
281
     1
  0
DICTIONARY
  5
17
102
{ACAD_REACTORS
330
C
102
}
330
C
100
AcDbDictionary
281
     1
  3
Standard
350
18
  0
DICTIONARY
  5
19
102
{ACAD_REACTORS
330
C
102
}
330
C
100
AcDbDictionary
281
     1
  0
ACDBDICTIONARYWDFLT
  5
E
102
{ACAD_REACTORS
330
C
102
}
330
C
100
AcDbDictionary
281
     1
  3
Normal
350
F
100
AcDbDictionaryWithDefault
340
F
  0
DICTIONARY
  5
3B
102
{ACAD_REACTORS
330
C
102
}
330
C
100
AcDbDictionary
281
     1
  3
A0
350
3C
  3
A1
350
3D
  3
A2
350
3E
  3
A3
350
3F
  3
A4
350
40
  3
A5
350
41
  3
A6
350
42
  3
A7
350
43
  3
A8
350
44
  3
A9
350
45
  3
B0
350
46
  3
B1
350
47
  3
B2
350
48
  3
B3
350
49
  3
B4
350
4A
  3
B5
350
4B
  3
B6
350
4C
  3
B7
350
4D
  3
B8
350
4E
  3
B9
350
4F
  3
C0
350
50
  3
C1
350
51
  3
C2
350
52
  3
C3
350
53
  3
C4
350
54
  3
C5
350
55
  3
C6
350
56
  3
C7
350
57
  3
C8
350
58
  3
C9
350
59
  3
D0
350
5A
  3
D1
350
5B
  3
D2
350
5C
  0
DICTIONARY
  5
651
102
{ACAD_REACTORS
330
C
102
}
330
C
100
AcDbDictionary
281
     1
  0
DICTIONARY
  5
2A
102
{ACAD_REACTORS
330
C
102
}
330
C
100
AcDbDictionary
281
     1
  3
2dWireframe
350
2F
  3
3D Hidden
350
31
  3
3dWireframe
350
30
  3
Basic
350
32
  3
Brighten
350
36
  3
ColorChange
350
3A
  3
Conceptual
350
34
  3
Dim
350
35
  3
Facepattern
350
39
  3
Flat
350
2B
  3
FlatWithEdges
350
2C
  3
Gouraud
350
2D
  3
GouraudWithEdges
350
2E
  3
Linepattern
350
38
  3
Realistic
350
33
  3
Thicken
350
37
  0
DICTIONARY
  5
64F
102
{ACAD_REACTORS
330
C
102
}
330
C
100
AcDbDictionary
281
     1
  3
CANNOSCALE
350
650
  3
PSOLHEIGHT
350
654
  3
PSOLWIDTH
350
653
  0
LAYOUT
  5
1E
102
{ACAD_REACTORS
330
1A
102
}
330
1A
100
AcDbPlotSettings
  1

  2
none_device
  4

  6

 40
0.0
 41
0.0
 42
0.0
 43
0.0
 44
0.0
 45
0.0
 46
0.0
 47
0.0
 48
0.0
 49
0.0
140
0.0
141
0.0
142
1.0
143
1.0
 70
   688
 72
     0
 73
     0
 74
     5
  7

 75
    16
147
1.0
148
0.0
149
0.0
100
AcDbLayout
  1
Layout1
 70
     1
 71
     1
 10
0.0
 20
0.0
 11
12.0
 21
9.0
 12
0.0
 22
0.0
 32
0.0
 14
1.000000E+20
 24
1.000000E+20
 34
0.0
 15
-1.000000E+20
 25
-1.000000E+20
 35
0.0
146
0.0
 13
0.0
 23
0.0
 33
0.0
 16
1.0
 26
0.0
 36
0.0
 17
0.0
 27
1.0
 37
0.0
 76
     0
330
1B
  0
LAYOUT
  5
26
102
{ACAD_REACTORS
330
1A
102
}
330
1A
100
AcDbPlotSettings
  1

  2
none_device
  4

  6

 40
0.0
 41
0.0
 42
0.0
 43
0.0
 44
0.0
 45
0.0
 46
0.0
 47
0.0
 48
0.0
 49
0.0
140
0.0
141
0.0
142
1.0
143
1.0
 70
   688
 72
     0
 73
     0
 74
     5
  7

 75
    16
147
1.0
148
0.0
149
0.0
100
AcDbLayout
  1
Layout2
 70
     1
 71
     2
 10
0.0
 20
0.0
 11
0.0
 21
0.0
 12
0.0
 22
0.0
 32
0.0
 14
0.0
 24
0.0
 34
0.0
 15
0.0
 25
0.0
 35
0.0
146
0.0
 13
0.0
 23
0.0
 33
0.0
 16
1.0
 26
0.0
 36
0.0
 17
0.0
 27
1.0
 37
0.0
 76
     0
330
23
  0
LAYOUT
  5
22
102
{ACAD_REACTORS
330
1A
102
}
330
1A
100
AcDbPlotSettings
  1

  2
none_device
  4

  6

 40
0.0
 41
0.0
 42
0.0
 43
0.0
 44
0.0
 45
0.0
 46
0.0
 47
0.0
 48
0.0
 49
0.0
140
0.0
141
0.0
142
1.0
143
1.0
 70
  1712
 72
     0
 73
     0
 74
     0
  7

 75
     0
147
1.0
148
0.0
149
0.0
100
AcDbLayout
  1
Model
 70
     1
 71
     0
 10
0.0
 20
0.0
 11
12.0
 21
9.0
 12
0.0
 22
0.0
 32
0.0
 14
25.800774
 24
-17.377594
 34
0.0
 15
257.435394
 25
119.455841
 35
0.0
146
0.0
 13
0.0
 23
0.0
 33
0.0
 16
1.0
 26
0.0
 36
0.0
 17
0.0
 27
1.0
 37
0.0
 76
     0
330
1F
331
29
  0
MLINESTYLE
  5
18
102
{ACAD_REACTORS
330
17
102
}
330
17
100
AcDbMlineStyle
  2
Standard
 70
     0
  3

 62
   256
 51
90.0
 52
90.0
 71
     2
 49
0.5
 62
   256
  6
BYLAYER
 49
-0.5
 62
   256
  6
BYLAYER
  0
ACDBPLACEHOLDER
  5
F
102
{ACAD_REACTORS
330
E
102
}
330
E
  0
SCALE
  5
3C
102
{ACAD_REACTORS
330
3B
102
}
330
3B
100
AcDbScale
 70
     0
300
1:1
140
1.0
141
1.0
290
     1
  0
SCALE
  5
3D
102
{ACAD_REACTORS
330
3B
102
}
330
3B
100
AcDbScale
 70
     0
300
1:2
140
1.0
141
2.0
290
     0
  0
SCALE
  5
3E
102
{ACAD_REACTORS
330
3B
102
}
330
3B
100
AcDbScale
 70
     0
300
1:4
140
1.0
141
4.0
290
     0
  0
SCALE
  5
3F
102
{ACAD_REACTORS
330
3B
102
}
330
3B
100
AcDbScale
 70
     0
300
1:5
140
1.0
141
5.0
290
     0
  0
SCALE
  5
40
102
{ACAD_REACTORS
330
3B
102
}
330
3B
100
AcDbScale
 70
     0
300
1:8
140
1.0
141
8.0
290
     0
  0
SCALE
  5
41
102
{ACAD_REACTORS
330
3B
102
}
330
3B
100
AcDbScale
 70
     0
300
1:10
140
1.0
141
10.0
290
     0
  0
SCALE
  5
42
102
{ACAD_REACTORS
330
3B
102
}
330
3B
100
AcDbScale
 70
     0
300
1:16
140
1.0
141
16.0
290
     0
  0
SCALE
  5
43
102
{ACAD_REACTORS
330
3B
102
}
330
3B
100
AcDbScale
 70
     0
300
1:20
140
1.0
141
20.0
290
     0
  0
SCALE
  5
44
102
{ACAD_REACTORS
330
3B
102
}
330
3B
100
AcDbScale
 70
     0
300
1:30
140
1.0
141
30.0
290
     0
  0
SCALE
  5
45
102
{ACAD_REACTORS
330
3B
102
}
330
3B
100
AcDbScale
 70
     0
300
1:40
140
1.0
141
40.0
290
     0
  0
SCALE
  5
46
102
{ACAD_REACTORS
330
3B
102
}
330
3B
100
AcDbScale
 70
     0
300
1:50
140
1.0
141
50.0
290
     0
  0
SCALE
  5
47
102
{ACAD_REACTORS
330
3B
102
}
330
3B
100
AcDbScale
 70
     0
300
1:100
140
1.0
141
100.0
290
     0
  0
SCALE
  5
48
102
{ACAD_REACTORS
330
3B
102
}
330
3B
100
AcDbScale
 70
     0
300
2:1
140
2.0
141
1.0
290
     0
  0
SCALE
  5
49
102
{ACAD_REACTORS
330
3B
102
}
330
3B
100
AcDbScale
 70
     0
300
4:1
140
4.0
141
1.0
290
     0
  0
SCALE
  5
4A
102
{ACAD_REACTORS
330
3B
102
}
330
3B
100
AcDbScale
 70
     0
300
8:1
140
8.0
141
1.0
290
     0
  0
SCALE
  5
4B
102
{ACAD_REACTORS
330
3B
102
}
330
3B
100
AcDbScale
 70
     0
300
10:1
140
10.0
141
1.0
290
     0
  0
SCALE
  5
4C
102
{ACAD_REACTORS
330
3B
102
}
330
3B
100
AcDbScale
 70
     0
300
100:1
140
100.0
141
1.0
290
     0
  0
SCALE
  5
4D
102
{ACAD_REACTORS
330
3B
102
}
330
3B
100
AcDbScale
 70
     0
300
1/128" = 1'-0"
140
0.007812
141
12.0
290
     0
  0
SCALE
  5
4E
102
{ACAD_REACTORS
330
3B
102
}
330
3B
100
AcDbScale
 70
     0
300
1/64" = 1'-0"
140
0.015625
141
12.0
290
     0
  0
SCALE
  5
4F
102
{ACAD_REACTORS
330
3B
102
}
330
3B
100
AcDbScale
 70
     0
300
1/32" = 1'-0"
140
0.03125
141
12.0
290
     0
  0
SCALE
  5
50
102
{ACAD_REACTORS
330
3B
102
}
330
3B
100
AcDbScale
 70
     0
300
1/16" = 1'-0"
140
0.0625
141
12.0
290
     0
  0
SCALE
  5
51
102
{ACAD_REACTORS
330
3B
102
}
330
3B
100
AcDbScale
 70
     0
300
3/32" = 1'-0"
140
0.09375
141
12.0
290
     0
  0
SCALE
  5
52
102
{ACAD_REACTORS
330
3B
102
}
330
3B
100
AcDbScale
 70
     0
300
1/8" = 1'-0"
140
0.125
141
12.0
290
     0
  0
SCALE
  5
53
102
{ACAD_REACTORS
330
3B
102
}
330
3B
100
AcDbScale
 70
     0
300
3/16" = 1'-0"
140
0.1875
141
12.0
290
     0
  0
SCALE
  5
54
102
{ACAD_REACTORS
330
3B
102
}
330
3B
100
AcDbScale
 70
     0
300
1/4" = 1'-0"
140
0.25
141
12.0
290
     0
  0
SCALE
  5
55
102
{ACAD_REACTORS
330
3B
102
}
330
3B
100
AcDbScale
 70
     0
300
3/8" = 1'-0"
140
0.375
141
12.0
290
     0
  0
SCALE
  5
56
102
{ACAD_REACTORS
330
3B
102
}
330
3B
100
AcDbScale
 70
     0
300
1/2" = 1'-0"
140
0.5
141
12.0
290
     0
  0
SCALE
  5
57
102
{ACAD_REACTORS
330
3B
102
}
330
3B
100
AcDbScale
 70
     0
300
3/4" = 1'-0"
140
0.75
141
12.0
290
     0
  0
SCALE
  5
58
102
{ACAD_REACTORS
330
3B
102
}
330
3B
100
AcDbScale
 70
     0
300
1" = 1'-0"
140
1.0
141
12.0
290
     0
  0
SCALE
  5
59
102
{ACAD_REACTORS
330
3B
102
}
330
3B
100
AcDbScale
 70
     0
300
1-1/2" = 1'-0"
140
1.5
141
12.0
290
     0
  0
SCALE
  5
5A
102
{ACAD_REACTORS
330
3B
102
}
330
3B
100
AcDbScale
 70
     0
300
3" = 1'-0"
140
3.0
141
12.0
290
     0
  0
SCALE
  5
5B
102
{ACAD_REACTORS
330
3B
102
}
330
3B
100
AcDbScale
 70
     0
300
6" = 1'-0"
140
6.0
141
12.0
290
     0
  0
SCALE
  5
5C
102
{ACAD_REACTORS
330
3B
102
}
330
3B
100
AcDbScale
 70
     0
300
1'-0" = 1'-0"
140
12.0
141
12.0
290
     0
  0
VISUALSTYLE
  5
2F
102
{ACAD_REACTORS
330
2A
102
}
330
2A
100
AcDbVisualStyle
  2
2dWireframe
 70
     4
 71
     0
 72
     2
 73
     0
 90
        0
 40
-0.6
 41
-30.0
 62
     5
 63
     7
 74
     1
 91
        4
 64
     7
 65
   257
 75
     1
175
     1
 42
1.0
 92
        0
 66
   257
 43
1.0
 76
     1
 77
     6
 78
     2
 67
     7
 79
     5
170
     0
171
     0
290
     0
174
     0
 93
        1
 44
0.0
173
     0
291
     0
 45
0.0
1001
ACAD
1000
AcDbSavedByObjectVersion
1070
     0
  0
VISUALSTYLE
  5
31
102
{ACAD_REACTORS
330
2A
102
}
330
2A
100
AcDbVisualStyle
  2
3D Hidden
 70
     6
 71
     1
 72
     2
 73
     2
 90
        0
 40
-0.6
 41
-30.0
 62
     5
 63
     7
 74
     2
 91
        2
 64
     7
 65
   257
 75
     2
175
     1
 42
40.0
 92
        0
 66
   257
 43
1.0
 76
     1
 77
     6
 78
     2
 67
     7
 79
     3
170
     0
171
     0
290
     0
174
     0
 93
        1
 44
0.0
173
     0
291
     0
 45
0.0
1001
ACAD
1000
AcDbSavedByObjectVersion
1070
     0
  0
VISUALSTYLE
  5
30
102
{ACAD_REACTORS
330
2A
102
}
330
2A
100
AcDbVisualStyle
  2
3dWireframe
 70
     5
 71
     0
 72
     2
 73
     0
 90
        0
 40
-0.6
 41
-30.0
 62
     5
 63
     7
 74
     1
 91
        4
 64
     7
 65
   257
 75
     1
175
     1
 42
1.0
 92
        0
 66
   257
 43
1.0
 76
     1
 77
     6
 78
     2
 67
     7
 79
     5
170
     0
171
     0
290
     0
174
     0
 93
        1
 44
0.0
173
     0
291
     0
 45
0.0
1001
ACAD
1000
AcDbSavedByObjectVersion
1070
     0
  0
VISUALSTYLE
  5
32
102
{ACAD_REACTORS
330
2A
102
}
330
2A
100
AcDbVisualStyle
  2
Basic
 70
     7
 71
     1
 72
     0
 73
     1
 90
        0
 40
-0.6
 41
-30.0
 62
     5
 63
     7
 74
     0
 91
        4
 64
     7
 65
   257
 75
     1
175
     1
 42
1.0
 92
        8
 66
     7
 43
1.0
 76
     1
 77
     6
 78
     2
 67
     7
 79
     5
170
     0
171
     0
290
     0
174
     0
 93
        1
 44
0.0
173
     0
291
     1
 45
0.0
1001
ACAD
1000
AcDbSavedByObjectVersion
1070
     0
  0
VISUALSTYLE
  5
36
102
{ACAD_REACTORS
330
2A
102
}
330
2A
100
AcDbVisualStyle
  2
Brighten
 70
    12
 71
     2
 72
     2
 73
     0
 90
        0
 40
-0.6
 41
-30.0
 62
     5
 63
     7
 74
     1
 91
        4
 64
     7
 65
   257
 75
     1
175
     1
 42
1.0
 92
        8
 66
     7
 43
1.0
 76
     1
 77
     6
 78
     2
 67
     7
 79
     5
170
     0
171
     0
290
     0
174
     0
 93
        1
 44
50.0
173
     0
291
     1
 45
0.0
1001
ACAD
1000
AcDbSavedByObjectVersion
1070
     0
  0
VISUALSTYLE
  5
3A
102
{ACAD_REACTORS
330
2A
102
}
330
2A
100
AcDbVisualStyle
  2
ColorChange
 70
    16
 71
     2
 72
     2
 73
     3
 90
        0
 40
-0.6
 41
-30.0
 62
     5
 63
     8
 74
     1
 91
        4
 64
     7
 65
   257
 75
     1
175
     1
 42
1.0
 92
        8
 66
     8
 43
1.0
 76
     1
 77
     6
 78
     2
 67
     7
 79
     5
170
     0
171
     0
290
     0
174
     0
 93
        1
 44
0.0
173
     0
291
     1
 45
0.0
1001
ACAD
1000
AcDbSavedByObjectVersion
1070
     0
  0
VISUALSTYLE
  5
34
102
{ACAD_REACTORS
330
2A
102
}
330
2A
100
AcDbVisualStyle
  2
Conceptual
 70
     9
 71
     3
 72
     2
 73
     0
 90
        0
 40
-0.6
 41
-30.0
 62
     5
 63
     7
 74
     2
 91
        2
 64
     7
 65
   257
 75
     1
175
     1
 42
40.0
 92
        8
 66
     7
 43
1.0
 76
     1
 77
     6
 78
     2
 67
     7
 79
     3
170
     0
171
     0
290
     0
174
     0
 93
        1
 44
0.0
173
     0
291
     0
 45
0.0
1001
ACAD
1000
AcDbSavedByObjectVersion
1070
     0
  0
VISUALSTYLE
  5
35
102
{ACAD_REACTORS
330
2A
102
}
330
2A
100
AcDbVisualStyle
  2
Dim
 70
    11
 71
     2
 72
     2
 73
     0
 90
        0
 40
-0.6
 41
-30.0
 62
     5
 63
     7
 74
     1
 91
        4
 64
     7
 65
   257
 75
     1
175
     1
 42
1.0
 92
        8
 66
     7
 43
1.0
 76
     1
 77
     6
 78
     2
 67
     7
 79
     5
170
     0
171
     0
290
     0
174
     0
 93
        1
 44
-50.0
173
     0
291
     1
 45
0.0
1001
ACAD
1000
AcDbSavedByObjectVersion
1070
     0
  0
VISUALSTYLE
  5
39
102
{ACAD_REACTORS
330
2A
102
}
330
2A
100
AcDbVisualStyle
  2
Facepattern
 70
    15
 71
     2
 72
     2
 73
     0
 90
        0
 40
-0.6
 41
-30.0
 62
     5
 63
     7
 74
     1
 91
        4
 64
     7
 65
   257
 75
     1
175
     1
 42
1.0
 92
        8
 66
     7
 43
1.0
 76
     1
 77
     6
 78
     2
 67
     7
 79
     5
170
     0
171
     0
290
     0
174
     0
 93
        1
 44
0.0
173
     0
291
     1
 45
0.0
1001
ACAD
1000
AcDbSavedByObjectVersion
1070
     0
  0
VISUALSTYLE
  5
2B
102
{ACAD_REACTORS
330
2A
102
}
330
2A
100
AcDbVisualStyle
  2
Flat
 70
     0
 71
     2
 72
     1
 73
     1
 90
        2
 40
-0.6
 41
30.0
 62
     5
 63
     7
 74
     0
 91
        4
 64
     7
 65
   257
 75
     1
175
     1
 42
1.0
 92
        8
 66
     7
 43
1.0
 76
     1
 77
     6
 78
     2
 67
     7
 79
     5
170
     0
171
     0
290
     0
174
     0
 93
       13
 44
0.0
173
     0
291
     1
 45
0.0
1001
ACAD
1000
AcDbSavedByObjectVersion
1070
     0
  0
VISUALSTYLE
  5
2C
102
{ACAD_REACTORS
330
2A
102
}
330
2A
100
AcDbVisualStyle
  2
FlatWithEdges
 70
     1
 71
     2
 72
     1
 73
     1
 90
        2
 40
-0.6
 41
30.0
 62
     5
 63
     7
 74
     1
 91
        4
 64
     7
 65
   257
 75
     1
175
     1
 42
1.0
 92
        0
 66
   257
 43
1.0
 76
     1
 77
     6
 78
     2
 67
     7
 79
     5
170
     0
171
     0
290
     0
174
     0
 93
       13
 44
0.0
173
     0
291
     1
 45
0.0
1001
ACAD
1000
AcDbSavedByObjectVersion
1070
     0
  0
VISUALSTYLE
  5
2D
102
{ACAD_REACTORS
330
2A
102
}
330
2A
100
AcDbVisualStyle
  2
Gouraud
 70
     2
 71
     2
 72
     2
 73
     1
 90
        2
 40
-0.6
 41
30.0
 62
     5
 63
     7
 74
     0
 91
        4
 64
     7
 65
   257
 75
     1
175
     1
 42
1.0
 92
        0
 66
     7
 43
1.0
 76
     1
 77
     6
 78
     2
 67
     7
 79
     5
170
     0
171
     0
290
     0
174
     0
 93
       13
 44
0.0
173
     0
291
     1
 45
0.0
1001
ACAD
1000
AcDbSavedByObjectVersion
1070
     0
  0
VISUALSTYLE
  5
2E
102
{ACAD_REACTORS
330
2A
102
}
330
2A
100
AcDbVisualStyle
  2
GouraudWithEdges
 70
     3
 71
     2
 72
     2
 73
     1
 90
        2
 40
-0.6
 41
30.0
 62
     5
 63
     7
 74
     1
 91
        4
 64
     7
 65
   257
 75
     1
175
     1
 42
1.0
 92
        0
 66
   257
 43
1.0
 76
     1
 77
     6
 78
     2
 67
     7
 79
     5
170
     0
171
     0
290
     0
174
     0
 93
       13
 44
0.0
173
     0
291
     1
 45
0.0
1001
ACAD
1000
AcDbSavedByObjectVersion
1070
     0
  0
VISUALSTYLE
  5
38
102
{ACAD_REACTORS
330
2A
102
}
330
2A
100
AcDbVisualStyle
  2
Linepattern
 70
    14
 71
     2
 72
     2
 73
     0
 90
        0
 40
-0.6
 41
-30.0
 62
     5
 63
     7
 74
     1
 91
        4
 64
     7
 65
   257
 75
     7
175
     7
 42
1.0
 92
        8
 66
     7
 43
1.0
 76
     1
 77
     6
 78
     2
 67
     7
 79
     5
170
     0
171
     0
290
     0
174
     0
 93
        1
 44
0.0
173
     0
291
     1
 45
0.0
1001
ACAD
1000
AcDbSavedByObjectVersion
1070
     0
  0
VISUALSTYLE
  5
33
102
{ACAD_REACTORS
330
2A
102
}
330
2A
100
AcDbVisualStyle
  2
Realistic
 70
     8
 71
     2
 72
     2
 73
     0
 90
        0
 40
-0.6
 41
-30.0
 62
     5
 63
     7
 74
     1
 91
        0
 64
     7
 65
   257
 75
     1
175
     1
 42
1.0
 92
        8
 66
     8
 43
1.0
 76
     1
 77
     6
 78
     2
 67
     7
 79
     5
170
     0
171
     0
290
     0
174
     0
 93
       13
 44
0.0
173
     0
291
     0
 45
0.0
1001
ACAD
1000
AcDbSavedByObjectVersion
1070
     0
  0
VISUALSTYLE
  5
37
102
{ACAD_REACTORS
330
2A
102
}
330
2A
100
AcDbVisualStyle
  2
Thicken
 70
    13
 71
     2
 72
     2
 73
     0
 90
        0
 40
-0.6
 41
-30.0
 62
     5
 63
     7
 74
     1
 91
        4
 64
     7
 65
   257
 75
     1
175
     1
 42
1.0
 92
       12
 66
     7
 43
1.0
 76
     1
 77
     6
 78
     2
 67
     7
 79
     5
170
     0
171
     0
290
     0
174
     0
 93
        1
 44
0.0
173
     0
291
     1
 45
0.0
1001
ACAD
1000
AcDbSavedByObjectVersion
1070
     0
  0
DICTIONARYVAR
  5
650
102
{ACAD_REACTORS
330
64F
102
}
330
64F
100
DictionaryVariables
280
     0
  1
1:1
  0
DICTIONARYVAR
  5
654
102
{ACAD_REACTORS
330
64F
102
}
330
64F
100
DictionaryVariables
280
     0
  1
80.000000
  0
DICTIONARYVAR
  5
653
102
{ACAD_REACTORS
330
64F
102
}
330
64F
100
DictionaryVariables
280
     0
  1
5.000000
  0
ENDSEC
  0
EOF
