  0
SECTION
  2
HEADER
  9
$ACADVER
  1
AC1015
  9
$ACADMAINTVER
 70
     6
  9
$DWGCODEPAGE
  3
ANSI_932
  9
$INSBASE
 10
0.0
 20
0.0
 30
0.0
  9
$EXTMIN
 10
28.600555
 20
26.636742
 30
0.0
  9
$EXTMAX
 10
339.666626
 20
233.986633
 30
0.0
  9
$LIMMIN
 10
0.0
 20
0.0
  9
$LIMMAX
 10
12.0
 20
9.0
  9
$ORTHOMODE
 70
     0
  9
$REGENMODE
 70
     1
  9
$FILLMODE
 70
     1
  9
$QTEXTMODE
 70
     0
  9
$MIRRTEXT
 70
     1
  9
$LTSCALE
 40
3.738396
  9
$ATTMODE
 70
     1
  9
$TEXTSIZE
 40
3.2
  9
$TRACEWID
 40
1.0
  9
$TEXTSTYLE
  7
Standard
  9
$CLAYER
  8
0
  9
$CELTYPE
  6
ByLayer
  9
$CECOLOR
 62
   256
  9
$CELTSCALE
 40
1.0
  9
$DISPSILH
 70
     0
  9
$DIMSCALE
 40
1.0
  9
$DIMASZ
 40
2.5
  9
$DIMEXO
 40
0.625
  9
$DIMDLI
 40
3.75
  9
$DIMRND
 40
0.0
  9
$DIMDLE
 40
0.0
  9
$DIMEXE
 40
1.25
  9
$DIMTP
 40
0.0
  9
$DIMTM
 40
0.0
  9
$DIMTXT
 40
2.5
  9
$DIMCEN
 40
0.09
  9
$DIMTSZ
 40
0.0
  9
$DIMTOL
 70
     0
  9
$DIMLIM
 70
     0
  9
$DIMTIH
 70
     0
  9
$DIMTOH
 70
     0
  9
$DIMSE1
 70
     0
  9
$DIMSE2
 70
     0
  9
$DIMTAD
 70
     0
  9
$DIMZIN
 70
     8
  9
$DIMBLK
  1

  9
$DIMASO
 70
     1
  9
$DIMSHO
 70
     0
  9
$DIMPOST
  1

  9
$DIMAPOST
  1

  9
$DIMALT
 70
     0
  9
$DIMALTD
 70
     3
  9
$DIMALTF
 40
0.03937
  9
$DIMLFAC
 40
1.0
  9
$DIMTOFL
 70
     1
  9
$DIMTVP
 40
0.0
  9
$DIMTIX
 70
     0
  9
$DIMSOXD
 70
     0
  9
$DIMSAH
 70
     0
  9
$DIMBLK1
  1

  9
$DIMBLK2
  1

  9
$DIMSTYLE
  2
ISO-25
  9
$DIMCLRD
 70
     0
  9
$DIMCLRE
 70
     0
  9
$DIMCLRT
 70
     0
  9
$DIMTFAC
 40
1.0
  9
$DIMGAP
 40
0.625
  9
$DIMJUST
 70
     0
  9
$DIMSD1
 70
     0
  9
$DIMSD2
 70
     0
  9
$DIMTOLJ
 70
     0
  9
$DIMTZIN
 70
     8
  9
$DIMALTZ
 70
     0
  9
$DIMALTTZ
 70
     0
  9
$DIMUPT
 70
     0
  9
$DIMDEC
 70
     2
  9
$DIMTDEC
 70
     2
  9
$DIMALTU
 70
     2
  9
$DIMALTTD
 70
     3
  9
$DIMTXSTY
  7
Standard
  9
$DIMAUNIT
 70
     0
  9
$DIMADEC
 70
     0
  9
$DIMALTRND
 40
0.0
  9
$DIMAZIN
 70
     0
  9
$DIMDSEP
 70
    44
  9
$DIMATFIT
 70
     3
  9
$DIMFRAC
 70
     0
  9
$DIMLDRBLK
  1

  9
$DIMLUNIT
 70
     2
  9
$DIMLWD
 70
    -2
  9
$DIMLWE
 70
    -2
  9
$DIMTMOVE
 70
     0
  9
$LUNITS
 70
     2
  9
$LUPREC
 70
     4
  9
$SKETCHINC
 40
1.0
  9
$FILLETRAD
 40
0.0
  9
$AUNITS
 70
     0
  9
$AUPREC
 70
     0
  9
$MENU
  1
.
  9
$ELEVATION
 40
0.0
  9
$PELEVATION
 40
0.0
  9
$THICKNESS
 40
0.0
  9
$LIMCHECK
 70
     0
  9
$CHAMFERA
 40
10.0
  9
$CHAMFERB
 40
10.0
  9
$CHAMFERC
 40
20.0
  9
$CHAMFERD
 40
0.0
  9
$SKPOLY
 70
     0
  9
$TDCREATE
 40
2454798.657181528
  9
$TDUCREATE
 40
2454798.282181528
  9
$TDUPDATE
 40
2454798.65718154
  9
$TDUUPDATE
 40
2454798.28218154
  9
$TDINDWG
 40
0.0000000116
  9
$TDUSRTIMER
 40
0.0000000116
  9
$USRTIMER
 70
     1
  9
$ANGBASE
 50
0.0
  9
$ANGDIR
 70
     0
  9
$PDMODE
 70
     0
  9
$PDSIZE
 40
0.0
  9
$PLINEWID
 40
0.0
  9
$SPLFRAME
 70
     0
  9
$SPLINETYPE
 70
     6
  9
$SPLINESEGS
 70
     8
  9
$HANDSEED
  5
6A3
  9
$SURFTAB1
 70
     6
  9
$SURFTAB2
 70
     6
  9
$SURFTYPE
 70
     6
  9
$SURFU
 70
     6
  9
$SURFV
 70
     6
  9
$UCSBASE
  2

  9
$UCSNAME
  2

  9
$UCSORG
 10
0.0
 20
0.0
 30
0.0
  9
$UCSXDIR
 10
1.0
 20
0.0
 30
0.0
  9
$UCSYDIR
 10
0.0
 20
1.0
 30
0.0
  9
$UCSORTHOREF
  2

  9
$UCSORTHOVIEW
 70
     0
  9
$UCSORGTOP
 10
0.0
 20
0.0
 30
0.0
  9
$UCSORGBOTTOM
 10
0.0
 20
0.0
 30
0.0
  9
$UCSORGLEFT
 10
0.0
 20
0.0
 30
0.0
  9
$UCSORGRIGHT
 10
0.0
 20
0.0
 30
0.0
  9
$UCSORGFRONT
 10
0.0
 20
0.0
 30
0.0
  9
$UCSORGBACK
 10
0.0
 20
0.0
 30
0.0
  9
$PUCSBASE
  2

  9
$PUCSNAME
  2

  9
$PUCSORG
 10
0.0
 20
0.0
 30
0.0
  9
$PUCSXDIR
 10
1.0
 20
0.0
 30
0.0
  9
$PUCSYDIR
 10
0.0
 20
1.0
 30
0.0
  9
$PUCSORTHOREF
  2

  9
$PUCSORTHOVIEW
 70
     0
  9
$PUCSORGTOP
 10
0.0
 20
0.0
 30
0.0
  9
$PUCSORGBOTTOM
 10
0.0
 20
0.0
 30
0.0
  9
$PUCSORGLEFT
 10
0.0
 20
0.0
 30
0.0
  9
$PUCSORGRIGHT
 10
0.0
 20
0.0
 30
0.0
  9
$PUCSORGFRONT
 10
0.0
 20
0.0
 30
0.0
  9
$PUCSORGBACK
 10
0.0
 20
0.0
 30
0.0
  9
$USERI1
 70
     0
  9
$USERI2
 70
     0
  9
$USERI3
 70
     0
  9
$USERI4
 70
     0
  9
$USERI5
 70
     0
  9
$USERR1
 40
0.0
  9
$USERR2
 40
0.0
  9
$USERR3
 40
0.0
  9
$USERR4
 40
0.0
  9
$USERR5
 40
0.0
  9
$WORLDVIEW
 70
     1
  9
$SHADEDGE
 70
     3
  9
$SHADEDIF
 70
    70
  9
$TILEMODE
 70
     1
  9
$MAXACTVP
 70
    64
  9
$PINSBASE
 10
0.0
 20
0.0
 30
0.0
  9
$PLIMCHECK
 70
     0
  9
$PEXTMIN
 10
1.000000E+20
 20
1.000000E+20
 30
0.0
  9
$PEXTMAX
 10
-1.000000E+20
 20
-1.000000E+20
 30
0.0
  9
$PLIMMIN
 10
0.0
 20
0.0
  9
$PLIMMAX
 10
12.0
 20
9.0
  9
$UNITMODE
 70
     0
  9
$VISRETAIN
 70
     1
  9
$PLINEGEN
 70
     0
  9
$PSLTSCALE
 70
     1
  9
$TREEDEPTH
 70
  3020
  9
$CMLSTYLE
  2
Standard
  9
$CMLJUST
 70
     0
  9
$CMLSCALE
 40
20.0
  9
$PROXYGRAPHICS
 70
     1
  9
$MEASUREMENT
 70
     1
  9
$CELWEIGHT
370
    -1
  9
$ENDCAPS
280
     0
  9
$JOINSTYLE
280
     0
  9
$LWDISPLAY
290
     0
  9
$INSUNITS
 70
     4
  9
$HYPERLINKBASE
  1

  9
$STYLESHEET
  1

  9
$XEDIT
290
     1
  9
$CEPSNTYPE
380
     0
  9
$PSTYLEMODE
290
     1
  9
$FINGERPRINTGUID
  2
{0FADD9EF-94ED-4007-A47D-FE185C62FB0A}
  9
$VERSIONGUID
  2
{FAEB1C32-E019-11D5-929B-00C0DF256EC4}
  9
$EXTNAMES
290
     1
  9
$PSVPSCALE
 40
0.0
  9
$OLESTARTUP
290
     0
  0
ENDSEC
  0
SECTION
  2
CLASSES
  0
CLASS
  1
ACDBDICTIONARYWDFLT
  2
AcDbDictionaryWithDefault
  3
ObjectDBX Classes
 90
        0
280
     0
281
     0
  0
CLASS
  1
VISUALSTYLE
  2
AcDbVisualStyle
  3
ObjectDBX Classes
 90
     4095
280
     0
281
     0
  0
CLASS
  1
SCALE
  2
AcDbScale
  3
ObjectDBX Classes
 90
     1153
280
     0
281
     0
  0
CLASS
  1
DICTIONARYVAR
  2
AcDbDictionaryVar
  3
ObjectDBX Classes
 90
        0
280
     0
281
     0
  0
CLASS
  1
ACDBPLACEHOLDER
  2
AcDbPlaceHolder
  3
ObjectDBX Classes
 90
        0
280
     0
281
     0
  0
CLASS
  1
LAYOUT
  2
AcDbLayout
  3
ObjectDBX Classes
 90
        0
280
     0
281
     0
  0
ENDSEC
  0
SECTION
  2
TABLES
  0
TABLE
  2
VPORT
  5
8
330
0
100
AcDbSymbolTable
 70
     1
  0
VPORT
  5
29
330
8
100
AcDbSymbolTableRecord
100
AcDbViewportTableRecord
  2
*Active
 70
     0
 10
0.0
 20
0.0
 11
1.0
 21
1.0
 12
184.133591
 22
130.311687
 13
0.0
 23
0.0
 14
1.0
 24
1.0
 15
0.0
 25
0.0
 16
0.0
 26
0.0
 36
1.0
 17
0.0
 27
0.0
 37
0.0
 40
209.423391
 41
1.691288
 42
50.0
 43
0.0
 44
0.0
 50
0.0
 51
0.0
 71
     0
 72
   100
 73
     1
 74
     3
 75
     0
 76
     0
 77
     0
 78
     0
281
     0
 65
     1
110
0.0
120
0.0
130
0.0
111
1.0
121
0.0
131
0.0
112
0.0
122
1.0
132
0.0
 79
     0
146
0.0
  0
ENDTAB
  0
TABLE
  2
LTYPE
  5
5
330
0
100
AcDbSymbolTable
 70
     5
  0
LTYPE
  5
14
330
5
100
AcDbSymbolTableRecord
100
AcDbLinetypeTableRecord
  2
ByBlock
 70
     0
  3

 72
    65
 73
     0
 40
0.0
  0
LTYPE
  5
15
330
5
100
AcDbSymbolTableRecord
100
AcDbLinetypeTableRecord
  2
ByLayer
 70
     0
  3

 72
    65
 73
     0
 40
0.0
  0
LTYPE
  5
16
330
5
100
AcDbSymbolTableRecord
100
AcDbLinetypeTableRecord
  2
Continuous
 70
     0
  3
Solid line
 72
    65
 73
     0
 40
0.0
  0
LTYPE
  5
5D
330
5
100
AcDbSymbolTableRecord
100
AcDbLinetypeTableRecord
  2
DASHED
 70
     0
  3
DASHED
 72
    83
 73
     2
 40
0.75
 49
0.5
 74
     0
 49
-0.25
 74
     0
  0
LTYPE
  5
5E
330
5
100
AcDbSymbolTableRecord
100
AcDbLinetypeTableRecord
  2
HIDDEN
 70
     0
  3
HIDDEN
 72
    83
 73
     2
 40
0.375
 49
0.25
 74
     0
 49
-0.125
 74
     0
  0
LTYPE
  5
5F
330
5
100
AcDbSymbolTableRecord
100
AcDbLinetypeTableRecord
  2
CENTER
 70
     0
  3
CENTER
 72
    83
 73
     4
 40
2.0
 49
1.25
 74
     0
 49
-0.25
 74
     0
 49
0.25
 74
     0
 49
-0.25
 74
     0
  0
LTYPE
  5
60
330
5
100
AcDbSymbolTableRecord
100
AcDbLinetypeTableRecord
  2
PHANTOM
 70
     0
  3
PHANTOM
 72
    83
 73
     6
 40
2.5
 49
1.25
 74
     0
 49
-0.25
 74
     0
 49
0.25
 74
     0
 49
-0.25
 74
     0
 49
0.25
 74
     0
 49
-0.25
 74
     0
  0
ENDTAB
  0
TABLE
  2
LAYER
  5
2
330
0
100
AcDbSymbolTable
 70
     2
  0
LAYER
  5
10
330
2
100
AcDbSymbolTableRecord
100
AcDbLayerTableRecord
  2
0
 70
     0
 62
     7
  6
Continuous
370
    -3
390
F
  0
LAYER
  5
61
330
2
100
AcDbSymbolTableRecord
100
AcDbLayerTableRecord
  2
001
 70
     0
 62
     7
  6
Continuous
370
    -3
390
F
  0
ENDTAB
  0
TABLE
  2
STYLE
  5
3
330
0
100
AcDbSymbolTable
 70
     2
  0
STYLE
  5
11
330
3
100
AcDbSymbolTableRecord
100
AcDbTextStyleTableRecord
  2
Standard
 70
     0
 40
0.0
 41
1.0
 50
0.0
 71
     0
 42
0.2
  3
TXT
  4
BIGFONT
  0
STYLE
  5
62
330
3
100
AcDbSymbolTableRecord
100
AcDbTextStyleTableRecord
  2
TATEGAKI
 70
     4
 40
1.0
 41
1.0
 50
0.0
 71
     0
 42
0.2
  3
TXT
  4
BIGFONT
  0
ENDTAB
  0
TABLE
  2
VIEW
  5
6
330
0
100
AcDbSymbolTable
 70
     0
  0
ENDTAB
  0
TABLE
  2
UCS
  5
7
330
0
100
AcDbSymbolTable
 70
     0
  0
ENDTAB
  0
TABLE
  2
APPID
  5
9
330
0
100
AcDbSymbolTable
 70
     1
  0
APPID
  5
12
330
9
100
AcDbSymbolTableRecord
100
AcDbRegAppTableRecord
  2
ACAD
 70
     0
  0
ENDTAB
  0
TABLE
  2
DIMSTYLE
  5
A
330
0
100
AcDbSymbolTable
 70
     2
100
AcDbDimStyleTable
  0
DIMSTYLE
105
27
330
A
100
AcDbSymbolTableRecord
100
AcDbDimStyleTableRecord
  2
ISO-25
 70
     0
 41
2.5
 42
0.625
 43
3.75
 44
1.25
 73
     0
 74
     0
 77
     1
 78
     8
140
2.5
141
2.5
143
0.03937
147
0.625
171
     3
172
     1
271
     2
272
     2
274
     3
278
    44
283
     0
284
     8
340
11
  0
DIMSTYLE
105
63
102
{ACAD_REACTORS
330
17E
330
17F
330
187
330
18F
330
190
330
191
330
192
330
193
330
194
330
195
330
196
330
197
330
198
330
199
102
}
330
A
100
AcDbSymbolTableRecord
100
AcDbDimStyleTableRecord
  2
Standard
 70
     0
 41
1.5
 42
0.0
 44
2.75
 73
     0
 74
     0
 77
     1
 78
     8
 79
     2
140
4.0
146
0.8
147
1.0
172
     1
179
     1
271
     1
340
11
  0
ENDTAB
  0
TABLE
  2
BLOCK_RECORD
  5
1
330
0
100
AcDbSymbolTable
 70
    15
  0
BLOCK_RECORD
  5
1F
330
1
100
AcDbSymbolTableRecord
100
AcDbBlockTableRecord
  2
*Model_Space
340
22
  0
BLOCK_RECORD
  5
1B
330
1
100
AcDbSymbolTableRecord
100
AcDbBlockTableRecord
  2
*Paper_Space
340
1E
  0
BLOCK_RECORD
  5
23
330
1
100
AcDbSymbolTableRecord
100
AcDbBlockTableRecord
  2
*Paper_Space0
340
26
  0
BLOCK_RECORD
  5
64
330
1
100
AcDbSymbolTableRecord
100
AcDbBlockTableRecord
  2
*D1
340
0
  0
BLOCK_RECORD
  5
78
330
1
100
AcDbSymbolTableRecord
100
AcDbBlockTableRecord
  2
*D2
340
0
  0
BLOCK_RECORD
  5
8C
330
1
100
AcDbSymbolTableRecord
100
AcDbBlockTableRecord
  2
*D3
340
0
  0
BLOCK_RECORD
  5
A0
330
1
100
AcDbSymbolTableRecord
100
AcDbBlockTableRecord
  2
*D4
340
0
  0
BLOCK_RECORD
  5
B4
330
1
100
AcDbSymbolTableRecord
100
AcDbBlockTableRecord
  2
*D5
340
0
  0
BLOCK_RECORD
  5
C8
330
1
100
AcDbSymbolTableRecord
100
AcDbBlockTableRecord
  2
*D6
340
0
  0
BLOCK_RECORD
  5
DC
330
1
100
AcDbSymbolTableRecord
100
AcDbBlockTableRecord
  2
*D7
340
0
  0
BLOCK_RECORD
  5
F2
330
1
100
AcDbSymbolTableRecord
100
AcDbBlockTableRecord
  2
*D8
340
0
  0
BLOCK_RECORD
  5
106
330
1
100
AcDbSymbolTableRecord
100
AcDbBlockTableRecord
  2
*D9
340
0
  0
BLOCK_RECORD
  5
11A
330
1
100
AcDbSymbolTableRecord
100
AcDbBlockTableRecord
  2
*D10
340
0
  0
BLOCK_RECORD
  5
12E
330
1
100
AcDbSymbolTableRecord
100
AcDbBlockTableRecord
  2
*D11
340
0
  0
BLOCK_RECORD
  5
142
330
1
100
AcDbSymbolTableRecord
100
AcDbBlockTableRecord
  2
*D12
340
0
  0
BLOCK_RECORD
  5
156
330
1
100
AcDbSymbolTableRecord
100
AcDbBlockTableRecord
  2
*D13
340
0
  0
BLOCK_RECORD
  5
16A
330
1
100
AcDbSymbolTableRecord
100
AcDbBlockTableRecord
  2
*D14
340
0
  0
ENDTAB
  0
ENDSEC
  0
SECTION
  2
BLOCKS
  0
BLOCK
  5
20
330
1F
100
AcDbEntity
  8
0
100
AcDbBlockBegin
  2
*Model_Space
 70
     0
 10
0.0
 20
0.0
 30
0.0
  3
*Model_Space
  1

  0
ENDBLK
  5
21
330
1F
100
AcDbEntity
  8
0
100
AcDbBlockEnd
  0
BLOCK
  5
1C
330
1B
100
AcDbEntity
 67
     1
  8
0
100
AcDbBlockBegin
  2
*Paper_Space
 70
     0
 10
0.0
 20
0.0
 30
0.0
  3
*Paper_Space
  1

  0
ENDBLK
  5
1D
330
1B
100
AcDbEntity
 67
     1
  8
0
100
AcDbBlockEnd
  0
BLOCK
  5
24
330
23
100
AcDbEntity
  8
0
100
AcDbBlockBegin
  2
*Paper_Space0
 70
     0
 10
0.0
 20
0.0
 30
0.0
  3
*Paper_Space0
  1

  0
ENDBLK
  5
25
330
23
100
AcDbEntity
  8
0
100
AcDbBlockEnd
  0
BLOCK
  5
65
330
64
100
AcDbEntity
  8
0
100
AcDbBlockBegin
  2
*D1
 70
     1
 10
0.0
 20
0.0
 30
0.0
  3
*D1
  1

  0
LINE
  5
67
330
64
100
AcDbEntity
  8
001
370
     9
100
AcDbLine
 10
76.100543
 20
49.022763
 30
0.0
 11
76.100543
 21
34.571542
 31
0.0
  0
LINE
  5
68
330
64
100
AcDbEntity
  8
001
370
     9
100
AcDbLine
 10
46.100543
 20
49.022763
 30
0.0
 11
46.100543
 21
34.571542
 31
0.0
  0
LINE
  5
69
330
64
100
AcDbEntity
  8
001
370
     9
100
AcDbLine
 10
76.100543
 20
37.321542
 30
0.0
 11
46.100543
 21
37.321542
 31
0.0
  0
POLYLINE
  5
6A
330
64
100
AcDbEntity
  8
001
370
     9
100
AcDb2dPolyline
 66
     1
 10
0.0
 20
0.0
 30
0.0
  0
VERTEX
  5
6C
330
6A
100
AcDbEntity
  8
001
370
     9
100
AcDbVertex
100
AcDb2dVertex
 10
74.600543
 20
37.723466
 30
0.0
  0
VERTEX
  5
6D
330
6A
100
AcDbEntity
  8
001
370
     9
100
AcDbVertex
100
AcDb2dVertex
 10
76.100543
 20
37.321542
 30
0.0
  0
VERTEX
  5
6E
330
6A
100
AcDbEntity
  8
001
370
     9
100
AcDbVertex
100
AcDb2dVertex
 10
74.600543
 20
36.919618
 30
0.0
  0
SEQEND
  5
6B
330
6A
100
AcDbEntity
  8
001
370
     9
  0
POLYLINE
  5
6F
330
64
100
AcDbEntity
  8
001
370
     9
100
AcDb2dPolyline
 66
     1
 10
0.0
 20
0.0
 30
0.0
  0
VERTEX
  5
71
330
6F
100
AcDbEntity
  8
001
370
     9
100
AcDbVertex
100
AcDb2dVertex
 10
47.600543
 20
36.919618
 30
0.0
  0
VERTEX
  5
72
330
6F
100
AcDbEntity
  8
001
370
     9
100
AcDbVertex
100
AcDb2dVertex
 10
46.100543
 20
37.321542
 30
0.0
  0
VERTEX
  5
73
330
6F
100
AcDbEntity
  8
001
370
     9
100
AcDbVertex
100
AcDb2dVertex
 10
47.600543
 20
37.723466
 30
0.0
  0
SEQEND
  5
70
330
6F
100
AcDbEntity
  8
001
370
     9
  0
TEXT
  5
74
330
64
100
AcDbEntity
  8
001
370
    30
100
AcDbText
 10
55.100543
 20
38.321542
 30
0.0
 40
4.0
  1
%%c３０
 41
0.882353
100
AcDbText
  0
POINT
  5
75
330
64
100
AcDbEntity
  8
001
370
     9
100
AcDbPoint
 10
76.100543
 20
49.022763
 30
0.0
  0
POINT
  5
76
330
64
100
AcDbEntity
  8
001
370
     9
100
AcDbPoint
 10
46.100543
 20
49.022763
 30
0.0
  0
POINT
  5
77
330
64
100
AcDbEntity
  8
001
370
     9
100
AcDbPoint
 10
46.100543
 20
37.321542
 30
0.0
  0
ENDBLK
  5
66
330
64
100
AcDbEntity
  8
0
100
AcDbBlockEnd
  0
BLOCK
  5
79
330
78
100
AcDbEntity
  8
0
100
AcDbBlockBegin
  2
*D2
 70
     1
 10
0.0
 20
0.0
 30
0.0
  3
*D2
  1

  0
LINE
  5
7B
330
78
100
AcDbEntity
  8
001
370
     9
100
AcDbLine
 10
93.600543
 20
94.022763
 30
0.0
 11
99.754364
 21
94.022763
 31
0.0
  0
LINE
  5
7C
330
78
100
AcDbEntity
  8
001
370
     9
100
AcDbLine
 10
82.600543
 20
65.022763
 30
0.0
 11
99.754364
 21
65.022763
 31
0.0
  0
LINE
  5
7D
330
78
100
AcDbEntity
  8
001
370
     9
100
AcDbLine
 10
97.004364
 20
94.022763
 30
0.0
 11
97.004364
 21
65.022763
 31
0.0
  0
POLYLINE
  5
7E
330
78
100
AcDbEntity
  8
001
370
     9
100
AcDb2dPolyline
 66
     1
 10
0.0
 20
0.0
 30
0.0
  0
VERTEX
  5
80
330
7E
100
AcDbEntity
  8
001
370
     9
100
AcDbVertex
100
AcDb2dVertex
 10
96.60244
 20
92.522763
 30
0.0
  0
VERTEX
  5
81
330
7E
100
AcDbEntity
  8
001
370
     9
100
AcDbVertex
100
AcDb2dVertex
 10
97.004364
 20
94.022763
 30
0.0
  0
VERTEX
  5
82
330
7E
100
AcDbEntity
  8
001
370
     9
100
AcDbVertex
100
AcDb2dVertex
 10
97.406288
 20
92.522763
 30
0.0
  0
SEQEND
  5
7F
330
7E
100
AcDbEntity
  8
001
370
     9
  0
POLYLINE
  5
83
330
78
100
AcDbEntity
  8
001
370
     9
100
AcDb2dPolyline
 66
     1
 10
0.0
 20
0.0
 30
0.0
  0
VERTEX
  5
85
330
83
100
AcDbEntity
  8
001
370
     9
100
AcDbVertex
100
AcDb2dVertex
 10
97.406288
 20
66.522763
 30
0.0
  0
VERTEX
  5
86
330
83
100
AcDbEntity
  8
001
370
     9
100
AcDbVertex
100
AcDb2dVertex
 10
97.004364
 20
65.022763
 30
0.0
  0
VERTEX
  5
87
330
83
100
AcDbEntity
  8
001
370
     9
100
AcDbVertex
100
AcDb2dVertex
 10
96.60244
 20
66.522763
 30
0.0
  0
SEQEND
  5
84
330
83
100
AcDbEntity
  8
001
370
     9
  0
TEXT
  5
88
330
78
100
AcDbEntity
  8
001
370
    30
100
AcDbText
 10
96.004364
 20
75.522763
 30
0.0
 40
4.0
  1
２９
 50
90.000003
 41
0.833333
100
AcDbText
  0
POINT
  5
89
330
78
100
AcDbEntity
  8
001
370
     9
100
AcDbPoint
 10
93.600543
 20
94.022763
 30
0.0
  0
POINT
  5
8A
330
78
100
AcDbEntity
  8
001
370
     9
100
AcDbPoint
 10
82.600543
 20
65.022763
 30
0.0
  0
POINT
  5
8B
330
78
100
AcDbEntity
  8
001
370
     9
100
AcDbPoint
 10
97.004364
 20
65.022763
 30
0.0
  0
ENDBLK
  5
7A
330
78
100
AcDbEntity
  8
0
100
AcDbBlockEnd
  0
BLOCK
  5
8D
330
8C
100
AcDbEntity
  8
0
100
AcDbBlockBegin
  2
*D3
 70
     1
 10
0.0
 20
0.0
 30
0.0
  3
*D3
  1

  0
LINE
  5
8F
330
8C
100
AcDbEntity
  8
001
370
     9
100
AcDbLine
 10
82.600543
 20
93.022763
 30
0.0
 11
82.600543
 21
115.352933
 31
0.0
  0
LINE
  5
90
330
8C
100
AcDbEntity
  8
001
370
     9
100
AcDbLine
 10
39.600543
 20
93.022763
 30
0.0
 11
39.600543
 21
115.352933
 31
0.0
  0
LINE
  5
91
330
8C
100
AcDbEntity
  8
001
370
     9
100
AcDbLine
 10
82.600543
 20
112.602933
 30
0.0
 11
39.600543
 21
112.602933
 31
0.0
  0
POLYLINE
  5
92
330
8C
100
AcDbEntity
  8
001
370
     9
100
AcDb2dPolyline
 66
     1
 10
0.0
 20
0.0
 30
0.0
  0
VERTEX
  5
94
330
92
100
AcDbEntity
  8
001
370
     9
100
AcDbVertex
100
AcDb2dVertex
 10
81.100543
 20
113.004857
 30
0.0
  0
VERTEX
  5
95
330
92
100
AcDbEntity
  8
001
370
     9
100
AcDbVertex
100
AcDb2dVertex
 10
82.600543
 20
112.602933
 30
0.0
  0
VERTEX
  5
96
330
92
100
AcDbEntity
  8
001
370
     9
100
AcDbVertex
100
AcDb2dVertex
 10
81.100543
 20
112.201009
 30
0.0
  0
SEQEND
  5
93
330
92
100
AcDbEntity
  8
001
370
     9
  0
POLYLINE
  5
97
330
8C
100
AcDbEntity
  8
001
370
     9
100
AcDb2dPolyline
 66
     1
 10
0.0
 20
0.0
 30
0.0
  0
VERTEX
  5
99
330
97
100
AcDbEntity
  8
001
370
     9
100
AcDbVertex
100
AcDb2dVertex
 10
41.100543
 20
112.201009
 30
0.0
  0
VERTEX
  5
9A
330
97
100
AcDbEntity
  8
001
370
     9
100
AcDbVertex
100
AcDb2dVertex
 10
39.600543
 20
112.602933
 30
0.0
  0
VERTEX
  5
9B
330
97
100
AcDbEntity
  8
001
370
     9
100
AcDbVertex
100
AcDb2dVertex
 10
41.100543
 20
113.004857
 30
0.0
  0
SEQEND
  5
98
330
97
100
AcDbEntity
  8
001
370
     9
  0
TEXT
  5
9C
330
8C
100
AcDbEntity
  8
001
370
    30
100
AcDbText
 10
56.326409
 20
113.602933
 30
0.0
 40
4.0
  1
%%c４３
 41
0.882353
100
AcDbText
  0
POINT
  5
9D
330
8C
100
AcDbEntity
  8
001
370
     9
100
AcDbPoint
 10
82.600543
 20
93.022763
 30
0.0
  0
POINT
  5
9E
330
8C
100
AcDbEntity
  8
001
370
     9
100
AcDbPoint
 10
39.600543
 20
93.022763
 30
0.0
  0
POINT
  5
9F
330
8C
100
AcDbEntity
  8
001
370
     9
100
AcDbPoint
 10
39.600543
 20
112.602933
 30
0.0
  0
ENDBLK
  5
8E
330
8C
100
AcDbEntity
  8
0
100
AcDbBlockEnd
  0
BLOCK
  5
A1
330
A0
100
AcDbEntity
  8
0
100
AcDbBlockBegin
  2
*D4
 70
     1
 10
0.0
 20
0.0
 30
0.0
  3
*D4
  1

  0
LINE
  5
A3
330
A0
100
AcDbEntity
  8
001
370
     9
100
AcDbLine
 10
298.290624
 20
163.227657
 30
0.0
 11
339.666637
 21
163.227657
 31
0.0
  0
LINE
  5
A4
330
A0
100
AcDbEntity
  8
001
370
     9
100
AcDbLine
 10
298.290624
 20
195.227657
 30
0.0
 11
339.666637
 21
195.227657
 31
0.0
  0
LINE
  5
A5
330
A0
100
AcDbEntity
  8
001
370
     9
100
AcDbLine
 10
336.916637
 20
163.227657
 30
0.0
 11
336.916637
 21
195.227657
 31
0.0
  0
POLYLINE
  5
A6
330
A0
100
AcDbEntity
  8
001
370
     9
100
AcDb2dPolyline
 66
     1
 10
0.0
 20
0.0
 30
0.0
  0
VERTEX
  5
A8
330
A6
100
AcDbEntity
  8
001
370
     9
100
AcDbVertex
100
AcDb2dVertex
 10
337.31856
 20
164.727657
 30
0.0
  0
VERTEX
  5
A9
330
A6
100
AcDbEntity
  8
001
370
     9
100
AcDbVertex
100
AcDb2dVertex
 10
336.916637
 20
163.227657
 30
0.0
  0
VERTEX
  5
AA
330
A6
100
AcDbEntity
  8
001
370
     9
100
AcDbVertex
100
AcDb2dVertex
 10
336.514713
 20
164.727657
 30
0.0
  0
SEQEND
  5
A7
330
A6
100
AcDbEntity
  8
001
370
     9
  0
POLYLINE
  5
AB
330
A0
100
AcDbEntity
  8
001
370
     9
100
AcDb2dPolyline
 66
     1
 10
0.0
 20
0.0
 30
0.0
  0
VERTEX
  5
AD
330
AB
100
AcDbEntity
  8
001
370
     9
100
AcDbVertex
100
AcDb2dVertex
 10
336.514713
 20
193.727657
 30
0.0
  0
VERTEX
  5
AE
330
AB
100
AcDbEntity
  8
001
370
     9
100
AcDbVertex
100
AcDb2dVertex
 10
336.916637
 20
195.227657
 30
0.0
  0
VERTEX
  5
AF
330
AB
100
AcDbEntity
  8
001
370
     9
100
AcDbVertex
100
AcDb2dVertex
 10
337.31856
 20
193.727657
 30
0.0
  0
SEQEND
  5
AC
330
AB
100
AcDbEntity
  8
001
370
     9
  0
TEXT
  5
B0
330
A0
100
AcDbEntity
  8
001
370
    30
100
AcDbText
 10
335.916637
 20
173.227657
 30
0.0
 40
4.0
  1
%%c３２
 50
90.000003
 41
0.882353
100
AcDbText
  0
POINT
  5
B1
330
A0
100
AcDbEntity
  8
001
370
     9
100
AcDbPoint
 10
298.290624
 20
163.227657
 30
0.0
  0
POINT
  5
B2
330
A0
100
AcDbEntity
  8
001
370
     9
100
AcDbPoint
 10
298.290624
 20
195.227657
 30
0.0
  0
POINT
  5
B3
330
A0
100
AcDbEntity
  8
001
370
     9
100
AcDbPoint
 10
336.916637
 20
195.227657
 30
0.0
  0
ENDBLK
  5
A2
330
A0
100
AcDbEntity
  8
0
100
AcDbBlockEnd
  0
BLOCK
  5
B5
330
B4
100
AcDbEntity
  8
0
100
AcDbBlockBegin
  2
*D5
 70
     1
 10
0.0
 20
0.0
 30
0.0
  3
*D5
  1

  0
LINE
  5
B7
330
B4
100
AcDbEntity
  8
001
370
     9
100
AcDbLine
 10
172.190625
 20
155.727657
 30
0.0
 11
196.261817
 21
131.656465
 31
0.0
  0
ARC
  5
B8
330
B4
100
AcDbEntity
  8
001
370
     9
100
AcDbCircle
 10
148.690625
 20
179.227657
 30
0.0
 40
64.52582515695921
100
AcDbArc
 50
315.0
 51
0.0
  0
POLYLINE
  5
B9
330
B4
100
AcDbEntity
  8
001
370
     9
100
AcDb2dPolyline
 66
     1
 10
0.0
 20
0.0
 30
0.0
  0
VERTEX
  5
BB
330
B9
100
AcDbEntity
  8
001
370
     9
100
AcDbVertex
100
AcDb2dVertex
 10
212.797119
 20
177.73243
 30
0.0
  0
VERTEX
  5
BC
330
B9
100
AcDbEntity
  8
001
370
     9
100
AcDbVertex
100
AcDb2dVertex
 10
213.21645
 20
179.227657
 30
0.0
  0
VERTEX
  5
BD
330
B9
100
AcDbEntity
  8
001
370
     9
100
AcDbVertex
100
AcDb2dVertex
 10
213.600912
 20
177.723087
 30
0.0
  0
SEQEND
  5
BA
330
B9
100
AcDbEntity
  8
001
370
     9
  0
POLYLINE
  5
BE
330
B4
100
AcDbEntity
  8
001
370
     9
100
AcDb2dPolyline
 66
     1
 10
0.0
 20
0.0
 30
0.0
  0
VERTEX
  5
C0
330
BE
100
AcDbEntity
  8
001
370
     9
100
AcDbVertex
100
AcDb2dVertex
 10
195.653021
 20
134.393045
 30
0.0
  0
VERTEX
  5
C1
330
BE
100
AcDbEntity
  8
001
370
     9
100
AcDbVertex
100
AcDb2dVertex
 10
194.317273
 20
133.601009
 30
0.0
  0
VERTEX
  5
C2
330
BE
100
AcDbEntity
  8
001
370
     9
100
AcDbVertex
100
AcDb2dVertex
 10
195.078047
 20
134.954806
 30
0.0
  0
SEQEND
  5
BF
330
BE
100
AcDbEntity
  8
001
370
     9
  0
TEXT
  5
C3
330
B4
100
AcDbEntity
  8
001
370
    30
100
AcDbText
 10
200.179939
 20
141.539716
 30
0.0
 40
4.0
  1
４５%%d
 50
59.193063
 41
0.978261
100
AcDbText
  0
POINT
  5
C4
330
B4
100
AcDbEntity
  8
001
370
     9
100
AcDbPoint
 10
210.46645
 20
179.227657
 30
0.0
  0
POINT
  5
C5
330
B4
100
AcDbEntity
  8
001
370
     9
100
AcDbPoint
 10
148.690625
 20
179.227657
 30
0.0
  0
POINT
  5
C6
330
B4
100
AcDbEntity
  8
001
370
     9
100
AcDbPoint
 10
148.690625
 20
179.227657
 30
0.0
  0
POINT
  5
C7
330
B4
100
AcDbEntity
  8
001
370
     9
100
AcDbPoint
 10
172.190625
 20
155.727657
 30
0.0
  0
ENDBLK
  5
B6
330
B4
100
AcDbEntity
  8
0
100
AcDbBlockEnd
  0
BLOCK
  5
C9
330
C8
100
AcDbEntity
  8
0
100
AcDbBlockBegin
  2
*D6
 70
     1
 10
0.0
 20
0.0
 30
0.0
  3
*D6
  1

  0
LINE
  5
CB
330
C8
100
AcDbEntity
  8
001
370
     9
100
AcDbLine
 10
142.190625
 20
163.227657
 30
0.0
 11
195.660379
 21
109.757903
 31
0.0
  0
ARC
  5
CC
330
C8
100
AcDbEntity
  8
001
370
     9
100
AcDbCircle
 10
126.190625
 20
179.227657
 30
0.0
 40
95.49506835570821
100
AcDbArc
 50
315.0
 51
0.0
  0
POLYLINE
  5
CD
330
C8
100
AcDbEntity
  8
001
370
     9
100
AcDb2dPolyline
 66
     1
 10
0.0
 20
0.0
 30
0.0
  0
VERTEX
  5
CF
330
CD
100
AcDbEntity
  8
001
370
     9
100
AcDbVertex
100
AcDb2dVertex
 10
221.272001
 20
177.73086
 30
0.0
  0
VERTEX
  5
D0
330
CD
100
AcDbEntity
  8
001
370
     9
100
AcDbVertex
100
AcDb2dVertex
 10
221.685693
 20
179.227657
 30
0.0
  0
VERTEX
  5
D1
330
CD
100
AcDbEntity
  8
001
370
     9
100
AcDbVertex
100
AcDb2dVertex
 10
222.075824
 20
177.724547
 30
0.0
  0
SEQEND
  5
CE
330
CD
100
AcDbEntity
  8
001
370
     9
  0
POLYLINE
  5
D2
330
C8
100
AcDbEntity
  8
001
370
     9
100
AcDb2dPolyline
 66
     1
 10
0.0
 20
0.0
 30
0.0
  0
VERTEX
  5
D4
330
D2
100
AcDbEntity
  8
001
370
     9
100
AcDbVertex
100
AcDb2dVertex
 10
195.054559
 20
112.489442
 30
0.0
  0
VERTEX
  5
D5
330
D2
100
AcDbEntity
  8
001
370
     9
100
AcDbVertex
100
AcDb2dVertex
 10
193.715835
 20
111.702447
 30
0.0
  0
VERTEX
  5
D6
330
D2
100
AcDbEntity
  8
001
370
     9
100
AcDbVertex
100
AcDb2dVertex
 10
194.481706
 20
113.053367
 30
0.0
  0
SEQEND
  5
D3
330
D2
100
AcDbEntity
  8
001
370
     9
  0
TEXT
  5
D7
330
C8
100
AcDbEntity
  8
001
370
    30
100
AcDbText
 10
211.196584
 20
137.522683
 30
0.0
 40
4.0
  1
４５%%d
 50
67.5
 41
0.978261
100
AcDbText
  0
POINT
  5
D8
330
C8
100
AcDbEntity
  8
001
370
     9
100
AcDbPoint
 10
218.935693
 20
179.227657
 30
0.0
  0
POINT
  5
D9
330
C8
100
AcDbEntity
  8
001
370
     9
100
AcDbPoint
 10
126.190625
 20
179.227657
 30
0.0
  0
POINT
  5
DA
330
C8
100
AcDbEntity
  8
001
370
     9
100
AcDbPoint
 10
126.190625
 20
179.227657
 30
0.0
  0
POINT
  5
DB
330
C8
100
AcDbEntity
  8
001
370
     9
100
AcDbPoint
 10
142.190625
 20
163.227657
 30
0.0
  0
ENDBLK
  5
CA
330
C8
100
AcDbEntity
  8
0
100
AcDbBlockEnd
  0
BLOCK
  5
DD
330
DC
100
AcDbEntity
  8
0
100
AcDbBlockBegin
  2
*D7
 70
     1
 10
0.0
 20
0.0
 30
0.0
  3
*D7
  1

  0
LINE
  5
DF
330
DC
100
AcDbEntity
  8
001
370
     9
100
AcDbLine
 10
142.190625
 20
158.521276
 30
0.0
 11
142.190625
 21
115.534175
 31
0.0
  0
LINE
  5
E0
330
DC
100
AcDbEntity
  8
001
370
     9
100
AcDbLine
 10
140.290624
 20
165.127658
 30
0.0
 11
140.290624
 21
115.534175
 31
0.0
  0
LINE
  5
E1
330
DC
100
AcDbEntity
  8
001
370
     9
100
AcDbLine
 10
142.190625
 20
118.284175
 30
0.0
 11
140.290624
 21
118.284175
 31
0.0
  0
POLYLINE
  5
E2
330
DC
100
AcDbEntity
  8
001
370
     9
100
AcDb2dPolyline
 66
     1
 10
0.0
 20
0.0
 30
0.0
  0
VERTEX
  5
E4
330
E2
100
AcDbEntity
  8
001
370
     9
100
AcDbVertex
100
AcDb2dVertex
 10
143.690625
 20
117.882251
 30
0.0
  0
VERTEX
  5
E5
330
E2
100
AcDbEntity
  8
001
370
     9
100
AcDbVertex
100
AcDb2dVertex
 10
142.190625
 20
118.284175
 30
0.0
  0
VERTEX
  5
E6
330
E2
100
AcDbEntity
  8
001
370
     9
100
AcDbVertex
100
AcDb2dVertex
 10
143.690625
 20
118.686099
 30
0.0
  0
SEQEND
  5
E3
330
E2
100
AcDbEntity
  8
001
370
     9
  0
POLYLINE
  5
E7
330
DC
100
AcDbEntity
  8
001
370
     9
100
AcDb2dPolyline
 66
     1
 10
0.0
 20
0.0
 30
0.0
  0
VERTEX
  5
E9
330
E7
100
AcDbEntity
  8
001
370
     9
100
AcDbVertex
100
AcDb2dVertex
 10
138.790624
 20
118.686099
 30
0.0
  0
VERTEX
  5
EA
330
E7
100
AcDbEntity
  8
001
370
     9
100
AcDbVertex
100
AcDb2dVertex
 10
140.290624
 20
118.284175
 30
0.0
  0
VERTEX
  5
EB
330
E7
100
AcDbEntity
  8
001
370
     9
100
AcDbVertex
100
AcDb2dVertex
 10
138.790624
 20
117.882251
 30
0.0
  0
SEQEND
  5
E8
330
E7
100
AcDbEntity
  8
001
370
     9
  0
TEXT
  5
EC
330
DC
100
AcDbEntity
  8
001
370
    30
100
AcDbText
 10
124.790624
 20
119.284175
 30
0.0
 40
4.0
  1
１．９
 41
0.833333
100
AcDbText
  0
POINT
  5
ED
330
DC
100
AcDbEntity
  8
001
370
     9
100
AcDbPoint
 10
142.190625
 20
158.521276
 30
0.0
  0
POINT
  5
EE
330
DC
100
AcDbEntity
  8
001
370
     9
100
AcDbPoint
 10
140.290624
 20
165.127658
 30
0.0
  0
POINT
  5
EF
330
DC
100
AcDbEntity
  8
001
370
     9
100
AcDbPoint
 10
140.290624
 20
118.284175
 30
0.0
  0
LINE
  5
F0
330
DC
100
AcDbEntity
  8
001
370
     9
100
AcDbLine
 10
142.190625
 20
118.284175
 30
0.0
 11
144.690625
 21
118.284175
 31
0.0
  0
LINE
  5
F1
330
DC
100
AcDbEntity
  8
001
370
     9
100
AcDbLine
 10
140.290624
 20
118.284175
 30
0.0
 11
121.790624
 21
118.284175
 31
0.0
  0
ENDBLK
  5
DE
330
DC
100
AcDbEntity
  8
0
100
AcDbBlockEnd
  0
BLOCK
  5
F3
330
F2
100
AcDbEntity
  8
0
100
AcDbBlockBegin
  2
*D8
 70
     1
 10
0.0
 20
0.0
 30
0.0
  3
*D8
  1

  0
LINE
  5
F5
330
F2
100
AcDbEntity
  8
001
370
     9
100
AcDbLine
 10
171.190625
 20
146.727657
 30
0.0
 11
171.190625
 21
115.534175
 31
0.0
  0
LINE
  5
F6
330
F2
100
AcDbEntity
  8
001
370
     9
100
AcDbLine
 10
142.190625
 20
158.521276
 30
0.0
 11
142.190625
 21
115.534175
 31
0.0
  0
LINE
  5
F7
330
F2
100
AcDbEntity
  8
001
370
     9
100
AcDbLine
 10
171.190625
 20
118.284175
 30
0.0
 11
142.190625
 21
118.284175
 31
0.0
  0
POLYLINE
  5
F8
330
F2
100
AcDbEntity
  8
001
370
     9
100
AcDb2dPolyline
 66
     1
 10
0.0
 20
0.0
 30
0.0
  0
VERTEX
  5
FA
330
F8
100
AcDbEntity
  8
001
370
     9
100
AcDbVertex
100
AcDb2dVertex
 10
169.690625
 20
118.686099
 30
0.0
  0
VERTEX
  5
FB
330
F8
100
AcDbEntity
  8
001
370
     9
100
AcDbVertex
100
AcDb2dVertex
 10
171.190625
 20
118.284175
 30
0.0
  0
VERTEX
  5
FC
330
F8
100
AcDbEntity
  8
001
370
     9
100
AcDbVertex
100
AcDb2dVertex
 10
169.690625
 20
117.882251
 30
0.0
  0
SEQEND
  5
F9
330
F8
100
AcDbEntity
  8
001
370
     9
  0
POLYLINE
  5
FD
330
F2
100
AcDbEntity
  8
001
370
     9
100
AcDb2dPolyline
 66
     1
 10
0.0
 20
0.0
 30
0.0
  0
VERTEX
  5
FF
330
FD
100
AcDbEntity
  8
001
370
     9
100
AcDbVertex
100
AcDb2dVertex
 10
143.690625
 20
117.882251
 30
0.0
  0
VERTEX
  5
100
330
FD
100
AcDbEntity
  8
001
370
     9
100
AcDbVertex
100
AcDb2dVertex
 10
142.190625
 20
118.284175
 30
0.0
  0
VERTEX
  5
101
330
FD
100
AcDbEntity
  8
001
370
     9
100
AcDbVertex
100
AcDb2dVertex
 10
143.690625
 20
118.686099
 30
0.0
  0
SEQEND
  5
FE
330
FD
100
AcDbEntity
  8
001
370
     9
  0
TEXT
  5
102
330
F2
100
AcDbEntity
  8
001
370
    30
100
AcDbText
 10
152.690625
 20
119.284175
 30
0.0
 40
4.0
  1
２９
 41
0.833333
100
AcDbText
  0
POINT
  5
103
330
F2
100
AcDbEntity
  8
001
370
     9
100
AcDbPoint
 10
171.190625
 20
146.727657
 30
0.0
  0
POINT
  5
104
330
F2
100
AcDbEntity
  8
001
370
     9
100
AcDbPoint
 10
142.190625
 20
158.521276
 30
0.0
  0
POINT
  5
105
330
F2
100
AcDbEntity
  8
001
370
     9
100
AcDbPoint
 10
142.190625
 20
118.284175
 30
0.0
  0
ENDBLK
  5
F4
330
F2
100
AcDbEntity
  8
0
100
AcDbBlockEnd
  0
BLOCK
  5
107
330
106
100
AcDbEntity
  8
0
100
AcDbBlockBegin
  2
*D9
 70
     1
 10
0.0
 20
0.0
 30
0.0
  3
*D9
  1

  0
LINE
  5
109
330
106
100
AcDbEntity
  8
001
370
     9
100
AcDbLine
 10
226.290624
 20
158.577657
 30
0.0
 11
226.290624
 21
101.232659
 31
0.0
  0
LINE
  5
10A
330
106
100
AcDbEntity
  8
001
370
     9
100
AcDbLine
 10
140.290624
 20
165.127658
 30
0.0
 11
140.290624
 21
101.232659
 31
0.0
  0
LINE
  5
10B
330
106
100
AcDbEntity
  8
001
370
     9
100
AcDbLine
 10
226.290624
 20
103.982659
 30
0.0
 11
140.290624
 21
103.982659
 31
0.0
  0
POLYLINE
  5
10C
330
106
100
AcDbEntity
  8
001
370
     9
100
AcDb2dPolyline
 66
     1
 10
0.0
 20
0.0
 30
0.0
  0
VERTEX
  5
10E
330
10C
100
AcDbEntity
  8
001
370
     9
100
AcDbVertex
100
AcDb2dVertex
 10
224.790624
 20
104.384582
 30
0.0
  0
VERTEX
  5
10F
330
10C
100
AcDbEntity
  8
001
370
     9
100
AcDbVertex
100
AcDb2dVertex
 10
226.290624
 20
103.982659
 30
0.0
  0
VERTEX
  5
110
330
10C
100
AcDbEntity
  8
001
370
     9
100
AcDbVertex
100
AcDb2dVertex
 10
224.790624
 20
103.580735
 30
0.0
  0
SEQEND
  5
10D
330
10C
100
AcDbEntity
  8
001
370
     9
  0
POLYLINE
  5
111
330
106
100
AcDbEntity
  8
001
370
     9
100
AcDb2dPolyline
 66
     1
 10
0.0
 20
0.0
 30
0.0
  0
VERTEX
  5
113
330
111
100
AcDbEntity
  8
001
370
     9
100
AcDbVertex
100
AcDb2dVertex
 10
141.790624
 20
103.580735
 30
0.0
  0
VERTEX
  5
114
330
111
100
AcDbEntity
  8
001
370
     9
100
AcDbVertex
100
AcDb2dVertex
 10
140.290624
 20
103.982659
 30
0.0
  0
VERTEX
  5
115
330
111
100
AcDbEntity
  8
001
370
     9
100
AcDbVertex
100
AcDb2dVertex
 10
141.790624
 20
104.384582
 30
0.0
  0
SEQEND
  5
112
330
111
100
AcDbEntity
  8
001
370
     9
  0
TEXT
  5
116
330
106
100
AcDbEntity
  8
001
370
    30
100
AcDbText
 10
179.290624
 20
104.982659
 30
0.0
 40
4.0
  1
８６
 41
0.833333
100
AcDbText
  0
POINT
  5
117
330
106
100
AcDbEntity
  8
001
370
     9
100
AcDbPoint
 10
226.290624
 20
158.577657
 30
0.0
  0
POINT
  5
118
330
106
100
AcDbEntity
  8
001
370
     9
100
AcDbPoint
 10
140.290624
 20
165.127658
 30
0.0
  0
POINT
  5
119
330
106
100
AcDbEntity
  8
001
370
     9
100
AcDbPoint
 10
140.290624
 20
103.982659
 30
0.0
  0
ENDBLK
  5
108
330
106
100
AcDbEntity
  8
0
100
AcDbBlockEnd
  0
BLOCK
  5
11B
330
11A
100
AcDbEntity
  8
0
100
AcDbBlockBegin
  2
*D10
 70
     1
 10
0.0
 20
0.0
 30
0.0
  3
*D10
  1

  0
LINE
  5
11D
330
11A
100
AcDbEntity
  8
001
370
     9
100
AcDbLine
 10
306.290624
 20
171.227657
 30
0.0
 11
306.290624
 21
101.232659
 31
0.0
  0
LINE
  5
11E
330
11A
100
AcDbEntity
  8
001
370
     9
100
AcDbLine
 10
226.290624
 20
158.577657
 30
0.0
 11
226.290624
 21
101.232659
 31
0.0
  0
LINE
  5
11F
330
11A
100
AcDbEntity
  8
001
370
     9
100
AcDbLine
 10
306.290624
 20
103.982659
 30
0.0
 11
226.290624
 21
103.982659
 31
0.0
  0
POLYLINE
  5
120
330
11A
100
AcDbEntity
  8
001
370
     9
100
AcDb2dPolyline
 66
     1
 10
0.0
 20
0.0
 30
0.0
  0
VERTEX
  5
122
330
120
100
AcDbEntity
  8
001
370
     9
100
AcDbVertex
100
AcDb2dVertex
 10
304.790624
 20
104.384582
 30
0.0
  0
VERTEX
  5
123
330
120
100
AcDbEntity
  8
001
370
     9
100
AcDbVertex
100
AcDb2dVertex
 10
306.290624
 20
103.982659
 30
0.0
  0
VERTEX
  5
124
330
120
100
AcDbEntity
  8
001
370
     9
100
AcDbVertex
100
AcDb2dVertex
 10
304.790624
 20
103.580735
 30
0.0
  0
SEQEND
  5
121
330
120
100
AcDbEntity
  8
001
370
     9
  0
POLYLINE
  5
125
330
11A
100
AcDbEntity
  8
001
370
     9
100
AcDb2dPolyline
 66
     1
 10
0.0
 20
0.0
 30
0.0
  0
VERTEX
  5
127
330
125
100
AcDbEntity
  8
001
370
     9
100
AcDbVertex
100
AcDb2dVertex
 10
227.790624
 20
103.580735
 30
0.0
  0
VERTEX
  5
128
330
125
100
AcDbEntity
  8
001
370
     9
100
AcDbVertex
100
AcDb2dVertex
 10
226.290624
 20
103.982659
 30
0.0
  0
VERTEX
  5
129
330
125
100
AcDbEntity
  8
001
370
     9
100
AcDbVertex
100
AcDb2dVertex
 10
227.790624
 20
104.384582
 30
0.0
  0
SEQEND
  5
126
330
125
100
AcDbEntity
  8
001
370
     9
  0
TEXT
  5
12A
330
11A
100
AcDbEntity
  8
001
370
    30
100
AcDbText
 10
262.290624
 20
104.982659
 30
0.0
 40
4.0
  1
８０
 41
0.833333
100
AcDbText
  0
POINT
  5
12B
330
11A
100
AcDbEntity
  8
001
370
     9
100
AcDbPoint
 10
306.290624
 20
171.227657
 30
0.0
  0
POINT
  5
12C
330
11A
100
AcDbEntity
  8
001
370
     9
100
AcDbPoint
 10
226.290624
 20
158.577657
 30
0.0
  0
POINT
  5
12D
330
11A
100
AcDbEntity
  8
001
370
     9
100
AcDbPoint
 10
226.290624
 20
103.982659
 30
0.0
  0
ENDBLK
  5
11C
330
11A
100
AcDbEntity
  8
0
100
AcDbBlockEnd
  0
BLOCK
  5
12F
330
12E
100
AcDbEntity
  8
0
100
AcDbBlockBegin
  2
*D11
 70
     1
 10
0.0
 20
0.0
 30
0.0
  3
*D11
  1

  0
LINE
  5
131
330
12E
100
AcDbEntity
  8
001
370
     9
100
AcDbLine
 10
140.290624
 20
165.127658
 30
0.0
 11
140.290624
 21
87.637388
 31
0.0
  0
LINE
  5
132
330
12E
100
AcDbEntity
  8
001
370
     9
100
AcDbLine
 10
306.290624
 20
171.227657
 30
0.0
 11
306.290624
 21
87.637388
 31
0.0
  0
LINE
  5
133
330
12E
100
AcDbEntity
  8
001
370
     9
100
AcDbLine
 10
140.290624
 20
90.387388
 30
0.0
 11
306.290624
 21
90.387388
 31
0.0
  0
POLYLINE
  5
134
330
12E
100
AcDbEntity
  8
001
370
     9
100
AcDb2dPolyline
 66
     1
 10
0.0
 20
0.0
 30
0.0
  0
VERTEX
  5
136
330
134
100
AcDbEntity
  8
001
370
     9
100
AcDbVertex
100
AcDb2dVertex
 10
141.790624
 20
89.985464
 30
0.0
  0
VERTEX
  5
137
330
134
100
AcDbEntity
  8
001
370
     9
100
AcDbVertex
100
AcDb2dVertex
 10
140.290624
 20
90.387388
 30
0.0
  0
VERTEX
  5
138
330
134
100
AcDbEntity
  8
001
370
     9
100
AcDbVertex
100
AcDb2dVertex
 10
141.790624
 20
90.789312
 30
0.0
  0
SEQEND
  5
135
330
134
100
AcDbEntity
  8
001
370
     9
  0
POLYLINE
  5
139
330
12E
100
AcDbEntity
  8
001
370
     9
100
AcDb2dPolyline
 66
     1
 10
0.0
 20
0.0
 30
0.0
  0
VERTEX
  5
13B
330
139
100
AcDbEntity
  8
001
370
     9
100
AcDbVertex
100
AcDb2dVertex
 10
304.790624
 20
90.789312
 30
0.0
  0
VERTEX
  5
13C
330
139
100
AcDbEntity
  8
001
370
     9
100
AcDbVertex
100
AcDb2dVertex
 10
306.290624
 20
90.387388
 30
0.0
  0
VERTEX
  5
13D
330
139
100
AcDbEntity
  8
001
370
     9
100
AcDbVertex
100
AcDb2dVertex
 10
304.790624
 20
89.985464
 30
0.0
  0
SEQEND
  5
13A
330
139
100
AcDbEntity
  8
001
370
     9
  0
TEXT
  5
13E
330
12E
100
AcDbEntity
  8
001
370
    30
100
AcDbText
 10
217.290624
 20
91.387388
 30
0.0
 40
4.0
  1
１６６
 41
0.833333
100
AcDbText
  0
POINT
  5
13F
330
12E
100
AcDbEntity
  8
001
370
     9
100
AcDbPoint
 10
140.290624
 20
165.127658
 30
0.0
  0
POINT
  5
140
330
12E
100
AcDbEntity
  8
001
370
     9
100
AcDbPoint
 10
306.290624
 20
171.227657
 30
0.0
  0
POINT
  5
141
330
12E
100
AcDbEntity
  8
001
370
     9
100
AcDbPoint
 10
306.290624
 20
90.387388
 30
0.0
  0
ENDBLK
  5
130
330
12E
100
AcDbEntity
  8
0
100
AcDbBlockEnd
  0
BLOCK
  5
143
330
142
100
AcDbEntity
  8
0
100
AcDbBlockBegin
  2
*D12
 70
     1
 10
0.0
 20
0.0
 30
0.0
  3
*D12
  1

  0
LINE
  5
145
330
142
100
AcDbEntity
  8
001
370
     9
100
AcDbLine
 10
142.190625
 20
200.727657
 30
0.0
 11
105.330804
 21
200.727657
 31
0.0
  0
LINE
  5
146
330
142
100
AcDbEntity
  8
001
370
     9
100
AcDbLine
 10
142.972562
 20
157.727657
 30
0.0
 11
105.330804
 21
157.727657
 31
0.0
  0
LINE
  5
147
330
142
100
AcDbEntity
  8
001
370
     9
100
AcDbLine
 10
108.080804
 20
200.727657
 30
0.0
 11
108.080804
 21
157.727657
 31
0.0
  0
POLYLINE
  5
148
330
142
100
AcDbEntity
  8
001
370
     9
100
AcDb2dPolyline
 66
     1
 10
0.0
 20
0.0
 30
0.0
  0
VERTEX
  5
14A
330
148
100
AcDbEntity
  8
001
370
     9
100
AcDbVertex
100
AcDb2dVertex
 10
107.678881
 20
199.227657
 30
0.0
  0
VERTEX
  5
14B
330
148
100
AcDbEntity
  8
001
370
     9
100
AcDbVertex
100
AcDb2dVertex
 10
108.080804
 20
200.727657
 30
0.0
  0
VERTEX
  5
14C
330
148
100
AcDbEntity
  8
001
370
     9
100
AcDbVertex
100
AcDb2dVertex
 10
108.482728
 20
199.227657
 30
0.0
  0
SEQEND
  5
149
330
148
100
AcDbEntity
  8
001
370
     9
  0
POLYLINE
  5
14D
330
142
100
AcDbEntity
  8
001
370
     9
100
AcDb2dPolyline
 66
     1
 10
0.0
 20
0.0
 30
0.0
  0
VERTEX
  5
14F
330
14D
100
AcDbEntity
  8
001
370
     9
100
AcDbVertex
100
AcDb2dVertex
 10
108.482728
 20
159.227657
 30
0.0
  0
VERTEX
  5
150
330
14D
100
AcDbEntity
  8
001
370
     9
100
AcDbVertex
100
AcDb2dVertex
 10
108.080804
 20
157.727657
 30
0.0
  0
VERTEX
  5
151
330
14D
100
AcDbEntity
  8
001
370
     9
100
AcDbVertex
100
AcDb2dVertex
 10
107.678881
 20
159.227657
 30
0.0
  0
SEQEND
  5
14E
330
14D
100
AcDbEntity
  8
001
370
     9
  0
TEXT
  5
152
330
142
100
AcDbEntity
  8
001
370
    30
100
AcDbText
 10
107.080804
 20
173.227657
 30
0.0
 40
4.0
  1
%%c４３
 50
90.000003
 41
0.882353
100
AcDbText
  0
POINT
  5
153
330
142
100
AcDbEntity
  8
001
370
     9
100
AcDbPoint
 10
142.190625
 20
200.727657
 30
0.0
  0
POINT
  5
154
330
142
100
AcDbEntity
  8
001
370
     9
100
AcDbPoint
 10
142.972562
 20
157.727657
 30
0.0
  0
POINT
  5
155
330
142
100
AcDbEntity
  8
001
370
     9
100
AcDbPoint
 10
108.080804
 20
157.727657
 30
0.0
  0
ENDBLK
  5
144
330
142
100
AcDbEntity
  8
0
100
AcDbBlockEnd
  0
BLOCK
  5
157
330
156
100
AcDbEntity
  8
0
100
AcDbBlockBegin
  2
*D13
 70
     1
 10
0.0
 20
0.0
 30
0.0
  3
*D13
  1

  0
LINE
  5
159
330
156
100
AcDbEntity
  8
001
370
     9
100
AcDbLine
 10
172.190625
 20
202.727657
 30
0.0
 11
90.180698
 21
202.727657
 31
0.0
  0
LINE
  5
15A
330
156
100
AcDbEntity
  8
001
370
     9
100
AcDbLine
 10
172.190625
 20
155.727657
 30
0.0
 11
90.180698
 21
155.727657
 31
0.0
  0
LINE
  5
15B
330
156
100
AcDbEntity
  8
001
370
     9
100
AcDbLine
 10
92.930698
 20
202.727657
 30
0.0
 11
92.930698
 21
155.727657
 31
0.0
  0
POLYLINE
  5
15C
330
156
100
AcDbEntity
  8
001
370
     9
100
AcDb2dPolyline
 66
     1
 10
0.0
 20
0.0
 30
0.0
  0
VERTEX
  5
15E
330
15C
100
AcDbEntity
  8
001
370
     9
100
AcDbVertex
100
AcDb2dVertex
 10
92.528775
 20
201.227657
 30
0.0
  0
VERTEX
  5
15F
330
15C
100
AcDbEntity
  8
001
370
     9
100
AcDbVertex
100
AcDb2dVertex
 10
92.930698
 20
202.727657
 30
0.0
  0
VERTEX
  5
160
330
15C
100
AcDbEntity
  8
001
370
     9
100
AcDbVertex
100
AcDb2dVertex
 10
93.332622
 20
201.227657
 30
0.0
  0
SEQEND
  5
15D
330
15C
100
AcDbEntity
  8
001
370
     9
  0
POLYLINE
  5
161
330
156
100
AcDbEntity
  8
001
370
     9
100
AcDb2dPolyline
 66
     1
 10
0.0
 20
0.0
 30
0.0
  0
VERTEX
  5
163
330
161
100
AcDbEntity
  8
001
370
     9
100
AcDbVertex
100
AcDb2dVertex
 10
93.332622
 20
157.227657
 30
0.0
  0
VERTEX
  5
164
330
161
100
AcDbEntity
  8
001
370
     9
100
AcDbVertex
100
AcDb2dVertex
 10
92.930698
 20
155.727657
 30
0.0
  0
VERTEX
  5
165
330
161
100
AcDbEntity
  8
001
370
     9
100
AcDbVertex
100
AcDb2dVertex
 10
92.528775
 20
157.227657
 30
0.0
  0
SEQEND
  5
162
330
161
100
AcDbEntity
  8
001
370
     9
  0
TEXT
  5
166
330
156
100
AcDbEntity
  8
001
370
    30
100
AcDbText
 10
91.930698
 20
173.227657
 30
0.0
 40
4.0
  1
%%c４７
 50
90.000003
 41
0.882353
100
AcDbText
  0
POINT
  5
167
330
156
100
AcDbEntity
  8
001
370
     9
100
AcDbPoint
 10
172.190625
 20
202.727657
 30
0.0
  0
POINT
  5
168
330
156
100
AcDbEntity
  8
001
370
     9
100
AcDbPoint
 10
172.190625
 20
155.727657
 30
0.0
  0
POINT
  5
169
330
156
100
AcDbEntity
  8
001
370
     9
100
AcDbPoint
 10
92.930698
 20
155.727657
 30
0.0
  0
ENDBLK
  5
158
330
156
100
AcDbEntity
  8
0
100
AcDbBlockEnd
  0
BLOCK
  5
16B
330
16A
100
AcDbEntity
  8
0
100
AcDbBlockBegin
  2
*D14
 70
     1
 10
0.0
 20
0.0
 30
0.0
  3
*D14
  1

  0
LINE
  5
16D
330
16A
100
AcDbEntity
  8
001
370
     9
100
AcDbLine
 10
166.672081
 20
206.297657
 30
0.0
 11
74.93844
 21
206.297657
 31
0.0
  0
LINE
  5
16E
330
16A
100
AcDbEntity
  8
001
370
     9
100
AcDbLine
 10
166.672081
 20
152.157657
 30
0.0
 11
74.93844
 21
152.157657
 31
0.0
  0
LINE
  5
16F
330
16A
100
AcDbEntity
  8
001
370
     9
100
AcDbLine
 10
77.68844
 20
206.297657
 30
0.0
 11
77.68844
 21
152.157657
 31
0.0
  0
POLYLINE
  5
170
330
16A
100
AcDbEntity
  8
001
370
     9
100
AcDb2dPolyline
 66
     1
 10
0.0
 20
0.0
 30
0.0
  0
VERTEX
  5
172
330
170
100
AcDbEntity
  8
001
370
     9
100
AcDbVertex
100
AcDb2dVertex
 10
77.286517
 20
204.797657
 30
0.0
  0
VERTEX
  5
173
330
170
100
AcDbEntity
  8
001
370
     9
100
AcDbVertex
100
AcDb2dVertex
 10
77.68844
 20
206.297657
 30
0.0
  0
VERTEX
  5
174
330
170
100
AcDbEntity
  8
001
370
     9
100
AcDbVertex
100
AcDb2dVertex
 10
78.090364
 20
204.797657
 30
0.0
  0
SEQEND
  5
171
330
170
100
AcDbEntity
  8
001
370
     9
  0
POLYLINE
  5
175
330
16A
100
AcDbEntity
  8
001
370
     9
100
AcDb2dPolyline
 66
     1
 10
0.0
 20
0.0
 30
0.0
  0
VERTEX
  5
177
330
175
100
AcDbEntity
  8
001
370
     9
100
AcDbVertex
100
AcDb2dVertex
 10
78.090364
 20
153.657657
 30
0.0
  0
VERTEX
  5
178
330
175
100
AcDbEntity
  8
001
370
     9
100
AcDbVertex
100
AcDb2dVertex
 10
77.68844
 20
152.157657
 30
0.0
  0
VERTEX
  5
179
330
175
100
AcDbEntity
  8
001
370
     9
100
AcDbVertex
100
AcDb2dVertex
 10
77.286517
 20
153.657657
 30
0.0
  0
SEQEND
  5
176
330
175
100
AcDbEntity
  8
001
370
     9
  0
TEXT
  5
17A
330
16A
100
AcDbEntity
  8
001
370
    30
100
AcDbText
 10
76.68844
 20
169.227657
 30
0.0
 40
4.0
  1
%%c５４．１
 50
90.000003
 41
0.862069
100
AcDbText
  0
POINT
  5
17B
330
16A
100
AcDbEntity
  8
001
370
     9
100
AcDbPoint
 10
166.672081
 20
206.297657
 30
0.0
  0
POINT
  5
17C
330
16A
100
AcDbEntity
  8
001
370
     9
100
AcDbPoint
 10
166.672081
 20
152.157657
 30
0.0
  0
POINT
  5
17D
330
16A
100
AcDbEntity
  8
001
370
     9
100
AcDbPoint
 10
77.68844
 20
152.157657
 30
0.0
  0
ENDBLK
  5
16C
330
16A
100
AcDbEntity
  8
0
100
AcDbBlockEnd
  0
ENDSEC
  0
SECTION
  2
ENTITIES
  0
DIMENSION
  5
17E
330
1F
100
AcDbEntity
  8
001
370
     9
100
AcDbDimension
  2
*D1
 10
46.100543
 20
37.321542
 30
0.0
 11
61.100543
 21
40.321542
 31
0.0
 70
   160
 71
     5
 42
-1.0
  3
Standard
100
AcDbAlignedDimension
 13
76.100543
 23
49.022763
 33
0.0
 14
46.100543
 24
49.022763
 34
0.0
 50
180.0
100
AcDbRotatedDimension
  0
DIMENSION
  5
17F
330
1F
100
AcDbEntity
  8
001
370
     9
100
AcDbDimension
  2
*D2
 10
97.004364
 20
65.022763
 30
0.0
 11
94.004364
 21
79.522763
 31
0.0
 70
   160
 71
     5
 42
-1.0
  3
Standard
100
AcDbAlignedDimension
 13
93.600543
 23
94.022763
 33
0.0
 14
82.600543
 24
65.022763
 34
0.0
 50
270.0
100
AcDbRotatedDimension
  0
TEXT
  5
180
330
1F
100
AcDbEntity
  8
001
370
    30
100
AcDbText
 10
69.175922
 20
73.361598
 30
0.0
 40
4.0
  1
Ｃ１
 50
314.999992
 41
0.833333
100
AcDbText
  0
POLYLINE
  5
181
330
1F
100
AcDbEntity
  8
001
370
     9
100
AcDb2dPolyline
 66
     1
 10
0.0
 20
0.0
 30
0.0
  0
VERTEX
  5
183
330
181
100
AcDbEntity
  8
001
370
     9
100
AcDbVertex
100
AcDb2dVertex
 10
75.824086
 20
65.867626
 30
0.0
  0
VERTEX
  5
184
330
181
100
AcDbEntity
  8
001
370
     9
100
AcDbVertex
100
AcDb2dVertex
 10
76.600543
 20
64.522763
 30
0.0
  0
VERTEX
  5
185
330
181
100
AcDbEntity
  8
001
370
     9
100
AcDbVertex
100
AcDb2dVertex
 10
75.25568
 20
65.29922
 30
0.0
  0
SEQEND
  5
182
330
181
100
AcDbEntity
  8
001
370
     9
  0
LINE
  5
186
330
1F
100
AcDbEntity
  8
001
370
     9
100
AcDbLine
 10
76.600543
 20
64.522763
 30
0.0
 11
66.347495
 21
74.775811
 31
0.0
  0
DIMENSION
  5
187
330
1F
100
AcDbEntity
  8
001
370
     9
100
AcDbDimension
  2
*D3
 10
39.600543
 20
112.602933
 30
0.0
 11
62.326409
 21
115.602933
 31
0.0
 70
   160
 71
     5
 42
-1.0
  3
Standard
100
AcDbAlignedDimension
 13
82.600543
 23
93.022763
 33
0.0
 14
39.600543
 24
93.022763
 34
0.0
 50
180.0
100
AcDbRotatedDimension
  0
TEXT
  5
188
330
1F
100
AcDbEntity
  8
001
370
    30
100
AcDbText
 10
74.156847
 20
103.880673
 30
0.0
 40
4.0
  1
Ｃ１
 50
314.999992
 41
0.833333
100
AcDbText
  0
POLYLINE
  5
189
330
1F
100
AcDbEntity
  8
001
370
     9
100
AcDb2dPolyline
 66
     1
 10
0.0
 20
0.0
 30
0.0
  0
VERTEX
  5
18B
330
189
100
AcDbEntity
  8
001
370
     9
100
AcDbVertex
100
AcDb2dVertex
 10
82.324086
 20
94.867626
 30
0.0
  0
VERTEX
  5
18C
330
189
100
AcDbEntity
  8
001
370
     9
100
AcDbVertex
100
AcDb2dVertex
 10
83.100543
 20
93.522763
 30
0.0
  0
VERTEX
  5
18D
330
189
100
AcDbEntity
  8
001
370
     9
100
AcDbVertex
100
AcDb2dVertex
 10
81.75568
 20
94.29922
 30
0.0
  0
SEQEND
  5
18A
330
189
100
AcDbEntity
  8
001
370
     9
  0
LINE
  5
18E
330
1F
100
AcDbEntity
  8
001
370
     9
100
AcDbLine
 10
83.100543
 20
93.522763
 30
0.0
 11
71.328419
 21
105.294887
 31
0.0
  0
DIMENSION
  5
18F
330
1F
100
AcDbEntity
  8
001
370
     9
100
AcDbDimension
  2
*D4
 10
336.916637
 20
195.227657
 30
0.0
 11
333.916636
 21
179.227657
 31
0.0
 70
   160
 71
     5
 42
-1.0
  3
Standard
100
AcDbAlignedDimension
 13
298.290624
 23
163.227657
 33
0.0
 14
298.290624
 24
195.227657
 34
0.0
 50
90.0
100
AcDbRotatedDimension
  0
DIMENSION
  5
190
330
1F
100
AcDbEntity
  8
001
370
     9
100
AcDbDimension
  2
*D5
 10
148.690625
 20
179.227657
 30
0.0
 11
201.535025
 21
147.717397
 31
0.0
 70
    34
 71
     5
 42
-1.0
  3
Standard
100
AcDb2LineAngularDimension
 13
210.46645
 23
179.227657
 33
0.0
 14
148.690625
 24
179.227657
 34
0.0
 15
172.190625
 25
155.727657
 35
0.0
 16
208.304714
 26
154.534693
 36
0.0
  0
DIMENSION
  5
191
330
1F
100
AcDbEntity
  8
001
370
     9
100
AcDbDimension
  2
*D6
 10
126.190625
 20
179.227657
 30
0.0
 11
211.644925
 21
143.831327
 31
0.0
 70
    34
 71
     5
 42
-1.0
  3
Standard
100
AcDb2LineAngularDimension
 13
218.935693
 23
179.227657
 33
0.0
 14
126.190625
 24
179.227657
 34
0.0
 15
142.190625
 25
163.227657
 35
0.0
 16
214.416564
 26
142.683277
 36
0.0
  0
DIMENSION
  5
192
330
1F
100
AcDbEntity
  8
001
370
     9
100
AcDbDimension
  2
*D7
 10
140.290624
 20
118.284175
 30
0.0
 11
130.790624
 21
121.284175
 31
0.0
 70
   160
 71
     5
 42
-1.0
  3
Standard
100
AcDbAlignedDimension
 13
142.190625
 23
158.521276
 33
0.0
 14
140.290624
 24
165.127658
 34
0.0
 50
180.0
100
AcDbRotatedDimension
  0
DIMENSION
  5
193
330
1F
100
AcDbEntity
  8
001
370
     9
100
AcDbDimension
  2
*D8
 10
142.190625
 20
118.284175
 30
0.0
 11
156.690625
 21
121.284175
 31
0.0
 70
   160
 71
     5
 42
-1.0
  3
Standard
100
AcDbAlignedDimension
 13
171.190625
 23
146.727657
 33
0.0
 14
142.190625
 24
158.521276
 34
0.0
 50
180.0
100
AcDbRotatedDimension
  0
DIMENSION
  5
194
330
1F
100
AcDbEntity
  8
001
370
     9
100
AcDbDimension
  2
*D9
 10
140.290624
 20
103.982659
 30
0.0
 11
183.290624
 21
106.982659
 31
0.0
 70
   160
 71
     5
 42
-1.0
  3
Standard
100
AcDbAlignedDimension
 13
226.290624
 23
158.577657
 33
0.0
 14
140.290624
 24
165.127658
 34
0.0
 50
180.0
100
AcDbRotatedDimension
  0
DIMENSION
  5
195
330
1F
100
AcDbEntity
  8
001
370
     9
100
AcDbDimension
  2
*D10
 10
226.290624
 20
103.982659
 30
0.0
 11
266.290624
 21
106.982659
 31
0.0
 70
   160
 71
     5
 42
-1.0
  3
Standard
100
AcDbAlignedDimension
 13
306.290624
 23
171.227657
 33
0.0
 14
226.290624
 24
158.577657
 34
0.0
 50
180.0
100
AcDbRotatedDimension
  0
DIMENSION
  5
196
330
1F
100
AcDbEntity
  8
001
370
     9
100
AcDbDimension
  2
*D11
 10
306.290624
 20
90.387388
 30
0.0
 11
223.290624
 21
93.387388
 31
0.0
 70
   160
 71
     5
 42
-1.0
  3
Standard
100
AcDbAlignedDimension
 13
140.290624
 23
165.127658
 33
0.0
 14
306.290624
 24
171.227657
 34
0.0
100
AcDbRotatedDimension
  0
DIMENSION
  5
197
330
1F
100
AcDbEntity
  8
001
370
     9
100
AcDbDimension
  2
*D12
 10
108.080804
 20
157.727657
 30
0.0
 11
105.080804
 21
179.227657
 31
0.0
 70
   160
 71
     5
 42
-1.0
  3
Standard
100
AcDbAlignedDimension
 13
142.190625
 23
200.727657
 33
0.0
 14
142.972562
 24
157.727657
 34
0.0
 50
270.0
100
AcDbRotatedDimension
  0
DIMENSION
  5
198
330
1F
100
AcDbEntity
  8
001
370
     9
100
AcDbDimension
  2
*D13
 10
92.930698
 20
155.727657
 30
0.0
 11
89.930698
 21
179.227657
 31
0.0
 70
   160
 71
     5
 42
-1.0
  3
Standard
100
AcDbAlignedDimension
 13
172.190625
 23
202.727657
 33
0.0
 14
172.190625
 24
155.727657
 34
0.0
 50
270.0
100
AcDbRotatedDimension
  0
DIMENSION
  5
199
330
1F
100
AcDbEntity
  8
001
370
     9
100
AcDbDimension
  2
*D14
 10
77.68844
 20
152.157657
 30
0.0
 11
74.68844
 21
179.227657
 31
0.0
 70
   160
 71
     5
 42
-1.0
  3
Standard
100
AcDbAlignedDimension
 13
166.672081
 23
206.297657
 33
0.0
 14
166.672081
 24
152.157657
 34
0.0
 50
270.0
100
AcDbRotatedDimension
  0
TEXT
  5
19A
330
1F
100
AcDbEntity
  8
001
370
    30
100
AcDbText
 10
81.845795
 20
223.986651
 30
0.0
 40
10.0
  1
イーグルカット　ＥＣ３２－４３ＸＳ－Ｍ２７
 41
0.833333
100
AcDbText
  0
LINE
  5
19B
330
1F
100
AcDbEntity
  8
001
370
     9
100
AcDbLine
 10
69.679978
 20
26.636746
 30
0.0
 11
52.356929
 21
26.636746
 31
0.0
  0
LINE
  5
19C
330
1F
100
AcDbEntity
  8
001
370
    50
100
AcDbLine
 10
147.38139
 20
167.15446
 30
0.0
 11
147.771101
 21
167.82946
 31
0.0
  0
LINE
  5
19D
330
1F
100
AcDbEntity
  8
001
370
    50
100
AcDbLine
 10
148.853633
 20
167.15446
 30
0.0
 11
148.463921
 21
167.82946
 31
0.0
  0
ARC
  5
19E
330
1F
100
AcDbEntity
  8
001
370
    50
100
AcDbCircle
 10
148.117511
 20
167.62946
 30
0.0
 40
0.4
100
AcDbArc
 50
30.0
 51
150.0
  0
LINE
  5
19F
330
1F
100
AcDbEntity
  8
001
370
    50
100
AcDbLine
 10
146.645268
 20
165.87946
 30
0.0
 11
146.255557
 21
166.55446
 31
0.0
  0
LINE
  5
1A0
330
1F
100
AcDbEntity
  8
001
370
    50
100
AcDbLine
 10
147.38139
 20
167.15446
 30
0.0
 11
146.601967
 21
167.15446
 31
0.0
  0
ARC
  5
1A1
330
1F
100
AcDbEntity
  8
001
370
    50
100
AcDbCircle
 10
146.601967
 20
166.75446
 30
0.0
 40
0.4
100
AcDbArc
 50
90.0
 51
210.0
  0
LINE
  5
1A2
330
1F
100
AcDbEntity
  8
001
370
    50
100
AcDbLine
 10
147.38139
 20
164.60446
 30
0.0
 11
146.601967
 21
164.60446
 31
0.0
  0
LINE
  5
1A3
330
1F
100
AcDbEntity
  8
001
370
    50
100
AcDbLine
 10
146.645268
 20
165.87946
 30
0.0
 11
146.255557
 21
165.20446
 31
0.0
  0
ARC
  5
1A4
330
1F
100
AcDbEntity
  8
001
370
    50
100
AcDbCircle
 10
146.601967
 20
165.00446
 30
0.0
 40
0.4
100
AcDbArc
 50
150.0
 51
270.0
  0
LINE
  5
1A5
330
1F
100
AcDbEntity
  8
001
370
    50
100
AcDbLine
 10
148.853633
 20
164.60446
 30
0.0
 11
148.463921
 21
163.92946
 31
0.0
  0
LINE
  5
1A6
330
1F
100
AcDbEntity
  8
001
370
    50
100
AcDbLine
 10
147.38139
 20
164.60446
 30
0.0
 11
147.771101
 21
163.92946
 31
0.0
  0
ARC
  5
1A7
330
1F
100
AcDbEntity
  8
001
370
    50
100
AcDbCircle
 10
148.117511
 20
164.12946
 30
0.0
 40
0.4
100
AcDbArc
 50
210.0
 51
330.0
  0
LINE
  5
1A8
330
1F
100
AcDbEntity
  8
001
370
    50
100
AcDbLine
 10
149.589754
 20
165.87946
 30
0.0
 11
149.979466
 21
165.20446
 31
0.0
  0
LINE
  5
1A9
330
1F
100
AcDbEntity
  8
001
370
    50
100
AcDbLine
 10
148.853633
 20
164.60446
 30
0.0
 11
149.633056
 21
164.60446
 31
0.0
  0
ARC
  5
1AA
330
1F
100
AcDbEntity
  8
001
370
    50
100
AcDbCircle
 10
149.633056
 20
165.00446
 30
0.0
 40
0.4
100
AcDbArc
 50
270.0
 51
30.0
  0
LINE
  5
1AB
330
1F
100
AcDbEntity
  8
001
370
    50
100
AcDbLine
 10
148.853633
 20
167.15446
 30
0.0
 11
149.633056
 21
167.15446
 31
0.0
  0
LINE
  5
1AC
330
1F
100
AcDbEntity
  8
001
370
    50
100
AcDbLine
 10
149.589754
 20
165.87946
 30
0.0
 11
149.979466
 21
166.55446
 31
0.0
  0
ARC
  5
1AD
330
1F
100
AcDbEntity
  8
001
370
    50
100
AcDbCircle
 10
149.633056
 20
166.75446
 30
0.0
 40
0.4
100
AcDbArc
 50
330.0
 51
90.0
  0
LINE
  5
1AE
330
1F
100
AcDbEntity
  8
001
370
    50
100
AcDbLine
 10
28.600543
 20
94.022763
 30
0.0
 11
93.600543
 21
94.022763
 31
0.0
  0
LINE
  5
1AF
330
1F
100
AcDbEntity
  8
001
370
    50
100
AcDbLine
 10
82.600543
 20
93.022763
 30
0.0
 11
82.600543
 21
65.022763
 31
0.0
  0
LINE
  5
1B0
330
1F
100
AcDbEntity
  8
001
370
    50
100
AcDbLine
 10
39.600543
 20
93.022763
 30
0.0
 11
39.600543
 21
65.022763
 31
0.0
  0
LINE
  5
1B1
330
1F
100
AcDbEntity
  8
001
370
    50
100
AcDbLine
 10
39.600543
 20
65.022763
 30
0.0
 11
82.600543
 21
65.022763
 31
0.0
  0
LINE
  5
1B2
330
1F
100
AcDbEntity
  8
001
370
    50
100
AcDbLine
 10
28.600543
 20
49.022763
 30
0.0
 11
93.600543
 21
49.022763
 31
0.0
  0
LINE
  5
1B3
330
1F
100
AcDbEntity
  8
001
370
    50
100
AcDbLine
 10
76.100543
 20
64.022763
 30
0.0
 11
77.100543
 21
65.022763
 31
0.0
  0
LINE
  5
1B4
330
1F
100
AcDbEntity
  8
001
370
    50
100
AcDbLine
 10
46.100543
 20
64.022763
 30
0.0
 11
45.100543
 21
65.022763
 31
0.0
  0
LINE
  5
1B5
330
1F
100
AcDbEntity
  8
001
370
    50
100
AcDbLine
 10
39.600543
 20
93.022763
 30
0.0
 11
38.600543
 21
94.022763
 31
0.0
  0
LINE
  5
1B6
330
1F
100
AcDbEntity
  8
001
370
    50
100
AcDbLine
 10
76.100543
 20
64.022763
 30
0.0
 11
76.100543
 21
49.022763
 31
0.0
  0
LINE
  5
1B7
330
1F
100
AcDbEntity
  8
001
370
    50
100
AcDbLine
 10
46.100543
 20
64.022763
 30
0.0
 11
46.100543
 21
49.022763
 31
0.0
  0
LINE
  5
1B8
330
1F
100
AcDbEntity
  8
001
  6
CENTER
370
     9
100
AcDbLine
 10
61.100543
 20
96.992004
 30
0.0
 11
61.100543
 21
44.535409
 31
0.0
  0
LINE
  5
1B9
330
1F
100
AcDbEntity
  8
001
370
    50
100
AcDbLine
 10
39.600543
 20
93.022763
 30
0.0
 11
82.600543
 21
93.022763
 31
0.0
  0
LINE
  5
1BA
330
1F
100
AcDbEntity
  8
001
370
    50
100
AcDbLine
 10
46.100543
 20
64.022763
 30
0.0
 11
76.100543
 21
64.022763
 31
0.0
  0
LINE
  5
1BB
330
1F
100
AcDbEntity
  8
001
370
    50
100
AcDbLine
 10
82.600543
 20
93.022763
 30
0.0
 11
83.600543
 21
94.022763
 31
0.0
  0
POLYLINE
  5
1BC
330
1F
100
AcDbEntity
  8
001
370
    50
100
AcDb2dPolyline
 66
     1
 10
0.0
 20
0.0
 30
0.0
  0
VERTEX
  5
1BE
330
1BC
100
AcDbEntity
  8
001
370
    50
100
AcDbVertex
100
AcDb2dVertex
 10
148.107536
 20
169.614544
 30
0.0
  0
VERTEX
  5
1BF
330
1BC
100
AcDbEntity
  8
001
370
    50
100
AcDbVertex
100
AcDb2dVertex
 10
147.836789
 20
169.600259
 30
0.0
  0
VERTEX
  5
1C0
330
1BC
100
AcDbEntity
  8
001
370
    50
100
AcDbVertex
100
AcDb2dVertex
 10
147.466248
 20
169.557573
 30
0.0
  0
VERTEX
  5
1C1
330
1BC
100
AcDbEntity
  8
001
370
    50
100
AcDbVertex
100
AcDb2dVertex
 10
147.137879
 20
169.486732
 30
0.0
  0
VERTEX
  5
1C2
330
1BC
100
AcDbEntity
  8
001
370
    50
100
AcDbVertex
100
AcDb2dVertex
 10
146.844446
 20
169.388391
 30
0.0
  0
VERTEX
  5
1C3
330
1BC
100
AcDbEntity
  8
001
370
    50
100
AcDbVertex
100
AcDb2dVertex
 10
146.550337
 20
169.263099
 30
0.0
  0
VERTEX
  5
1C4
330
1BC
100
AcDbEntity
  8
001
370
    50
100
AcDbVertex
100
AcDb2dVertex
 10
146.261021
 20
169.112139
 30
0.0
  0
VERTEX
  5
1C5
330
1BC
100
AcDbEntity
  8
001
370
    50
100
AcDbVertex
100
AcDb2dVertex
 10
145.988149
 20
168.936309
 30
0.0
  0
VERTEX
  5
1C6
330
1BC
100
AcDbEntity
  8
001
370
    50
100
AcDbVertex
100
AcDb2dVertex
 10
145.733703
 20
168.73721
 30
0.0
  0
VERTEX
  5
1C7
330
1BC
100
AcDbEntity
  8
001
370
    50
100
AcDbVertex
100
AcDb2dVertex
 10
145.496292
 20
168.515769
 30
0.0
  0
VERTEX
  5
1C8
330
1BC
100
AcDbEntity
  8
001
370
    50
100
AcDbVertex
100
AcDb2dVertex
 10
145.278511
 20
168.274997
 30
0.0
  0
VERTEX
  5
1C9
330
1BC
100
AcDbEntity
  8
001
370
    50
100
AcDbVertex
100
AcDb2dVertex
 10
145.082204
 20
168.016275
 30
0.0
  0
VERTEX
  5
1CA
330
1BC
100
AcDbEntity
  8
001
370
    50
100
AcDbVertex
100
AcDb2dVertex
 10
144.909279
 20
167.739544
 30
0.0
  0
VERTEX
  5
1CB
330
1BC
100
AcDbEntity
  8
001
370
    50
100
AcDbVertex
100
AcDb2dVertex
 10
144.760473
 20
167.445497
 30
0.0
  0
VERTEX
  5
1CC
330
1BC
100
AcDbEntity
  8
001
370
    50
100
AcDbVertex
100
AcDb2dVertex
 10
144.637224
 20
167.147119
 30
0.0
  0
VERTEX
  5
1CD
330
1BC
100
AcDbEntity
  8
001
370
    50
100
AcDbVertex
100
AcDb2dVertex
 10
144.540319
 20
166.8489
 30
0.0
  0
VERTEX
  5
1CE
330
1BC
100
AcDbEntity
  8
001
370
    50
100
AcDbVertex
100
AcDb2dVertex
 10
144.470612
 20
166.515724
 30
0.0
  0
VERTEX
  5
1CF
330
1BC
100
AcDbEntity
  8
001
370
    50
100
AcDbVertex
100
AcDb2dVertex
 10
144.428566
 20
166.139423
 30
0.0
  0
VERTEX
  5
1D0
330
1BC
100
AcDbEntity
  8
001
370
    50
100
AcDbVertex
100
AcDb2dVertex
 10
144.414507
 20
165.864544
 30
0.0
  0
SEQEND
  5
1BD
330
1BC
100
AcDbEntity
  8
001
370
    50
  0
LINE
  5
1D1
330
1F
100
AcDbEntity
  8
001
370
    50
100
AcDbLine
 10
140.290624
 20
165.127658
 30
0.0
 11
140.290624
 21
171.078733
 31
0.0
  0
POLYLINE
  5
1D2
330
1F
100
AcDbEntity
  8
001
370
    50
100
AcDb2dPolyline
 66
     1
 10
0.0
 20
0.0
 30
0.0
  0
VERTEX
  5
1D4
330
1D2
100
AcDbEntity
  8
001
370
    50
100
AcDbVertex
100
AcDb2dVertex
 10
141.072562
 20
171.872733
 30
0.0
  0
VERTEX
  5
1D5
330
1D2
100
AcDbEntity
  8
001
370
    50
100
AcDbVertex
100
AcDb2dVertex
 10
141.015236
 20
171.869708
 30
0.0
  0
VERTEX
  5
1D6
330
1D2
100
AcDbEntity
  8
001
370
    50
100
AcDbVertex
100
AcDb2dVertex
 10
140.93678
 20
171.86067
 30
0.0
  0
VERTEX
  5
1D7
330
1D2
100
AcDbEntity
  8
001
370
    50
100
AcDbVertex
100
AcDb2dVertex
 10
140.867253
 20
171.845671
 30
0.0
  0
VERTEX
  5
1D8
330
1D2
100
AcDbEntity
  8
001
370
    50
100
AcDbVertex
100
AcDb2dVertex
 10
140.805123
 20
171.824849
 30
0.0
  0
VERTEX
  5
1D9
330
1D2
100
AcDbEntity
  8
001
370
    50
100
AcDbVertex
100
AcDb2dVertex
 10
140.742851
 20
171.79832
 30
0.0
  0
VERTEX
  5
1DA
330
1D2
100
AcDbEntity
  8
001
370
    50
100
AcDbVertex
100
AcDb2dVertex
 10
140.681593
 20
171.766357
 30
0.0
  0
VERTEX
  5
1DB
330
1D2
100
AcDbEntity
  8
001
370
    50
100
AcDbVertex
100
AcDb2dVertex
 10
140.623817
 20
171.729128
 30
0.0
  0
VERTEX
  5
1DC
330
1D2
100
AcDbEntity
  8
001
370
    50
100
AcDbVertex
100
AcDb2dVertex
 10
140.569942
 20
171.686972
 30
0.0
  0
VERTEX
  5
1DD
330
1D2
100
AcDbEntity
  8
001
370
    50
100
AcDbVertex
100
AcDb2dVertex
 10
140.519674
 20
171.640085
 30
0.0
  0
VERTEX
  5
1DE
330
1D2
100
AcDbEntity
  8
001
370
    50
100
AcDbVertex
100
AcDb2dVertex
 10
140.473563
 20
171.589106
 30
0.0
  0
VERTEX
  5
1DF
330
1D2
100
AcDbEntity
  8
001
370
    50
100
AcDbVertex
100
AcDb2dVertex
 10
140.431998
 20
171.534326
 30
0.0
  0
VERTEX
  5
1E0
330
1D2
100
AcDbEntity
  8
001
370
    50
100
AcDbVertex
100
AcDb2dVertex
 10
140.395384
 20
171.475733
 30
0.0
  0
VERTEX
  5
1E1
330
1D2
100
AcDbEntity
  8
001
370
    50
100
AcDbVertex
100
AcDb2dVertex
 10
140.363877
 20
171.413473
 30
0.0
  0
VERTEX
  5
1E2
330
1D2
100
AcDbEntity
  8
001
370
    50
100
AcDbVertex
100
AcDb2dVertex
 10
140.337781
 20
171.350297
 30
0.0
  0
VERTEX
  5
1E3
330
1D2
100
AcDbEntity
  8
001
370
    50
100
AcDbVertex
100
AcDb2dVertex
 10
140.317263
 20
171.287154
 30
0.0
  0
VERTEX
  5
1E4
330
1D2
100
AcDbEntity
  8
001
370
    50
100
AcDbVertex
100
AcDb2dVertex
 10
140.302504
 20
171.216609
 30
0.0
  0
VERTEX
  5
1E5
330
1D2
100
AcDbEntity
  8
001
370
    50
100
AcDbVertex
100
AcDb2dVertex
 10
140.293601
 20
171.136934
 30
0.0
  0
VERTEX
  5
1E6
330
1D2
100
AcDbEntity
  8
001
370
    50
100
AcDbVertex
100
AcDb2dVertex
 10
140.290624
 20
171.078733
 30
0.0
  0
SEQEND
  5
1D3
330
1D2
100
AcDbEntity
  8
001
370
    50
  0
LINE
  5
1E7
330
1F
100
AcDbEntity
  8
001
370
    50
100
AcDbLine
 10
145.730902
 20
171.872733
 30
0.0
 11
141.072562
 21
171.872733
 31
0.0
  0
LINE
  5
1E8
330
1F
100
AcDbEntity
  8
001
370
    50
100
AcDbLine
 10
147.699785
 20
173.802044
 30
0.0
 11
145.730902
 21
171.872733
 31
0.0
  0
LINE
  5
1E9
330
1F
100
AcDbEntity
  8
001
370
    50
100
AcDbLine
 10
153.24251
 20
173.802044
 30
0.0
 11
147.699785
 21
173.802044
 31
0.0
  0
POLYLINE
  5
1EA
330
1F
100
AcDbEntity
  8
001
370
    50
100
AcDb2dPolyline
 66
     1
 10
0.0
 20
0.0
 30
0.0
  0
VERTEX
  5
1EC
330
1EA
100
AcDbEntity
  8
001
370
    50
100
AcDbVertex
100
AcDb2dVertex
 10
154.024447
 20
173.008044
 30
0.0
  0
VERTEX
  5
1ED
330
1EA
100
AcDbEntity
  8
001
370
    50
100
AcDbVertex
100
AcDb2dVertex
 10
154.02147
 20
173.066245
 30
0.0
  0
VERTEX
  5
1EE
330
1EA
100
AcDbEntity
  8
001
370
    50
100
AcDbVertex
100
AcDb2dVertex
 10
154.012568
 20
173.14592
 30
0.0
  0
VERTEX
  5
1EF
330
1EA
100
AcDbEntity
  8
001
370
    50
100
AcDbVertex
100
AcDb2dVertex
 10
153.997808
 20
173.216465
 30
0.0
  0
VERTEX
  5
1F0
330
1EA
100
AcDbEntity
  8
001
370
    50
100
AcDbVertex
100
AcDb2dVertex
 10
153.97729
 20
173.279608
 30
0.0
  0
VERTEX
  5
1F1
330
1EA
100
AcDbEntity
  8
001
370
    50
100
AcDbVertex
100
AcDb2dVertex
 10
153.951194
 20
173.342784
 30
0.0
  0
VERTEX
  5
1F2
330
1EA
100
AcDbEntity
  8
001
370
    50
100
AcDbVertex
100
AcDb2dVertex
 10
153.919687
 20
173.405044
 30
0.0
  0
VERTEX
  5
1F3
330
1EA
100
AcDbEntity
  8
001
370
    50
100
AcDbVertex
100
AcDb2dVertex
 10
153.883073
 20
173.463637
 30
0.0
  0
VERTEX
  5
1F4
330
1EA
100
AcDbEntity
  8
001
370
    50
100
AcDbVertex
100
AcDb2dVertex
 10
153.841508
 20
173.518417
 30
0.0
  0
VERTEX
  5
1F5
330
1EA
100
AcDbEntity
  8
001
370
    50
100
AcDbVertex
100
AcDb2dVertex
 10
153.795397
 20
173.569396
 30
0.0
  0
VERTEX
  5
1F6
330
1EA
100
AcDbEntity
  8
001
370
    50
100
AcDbVertex
100
AcDb2dVertex
 10
153.745129
 20
173.616283
 30
0.0
  0
VERTEX
  5
1F7
330
1EA
100
AcDbEntity
  8
001
370
    50
100
AcDbVertex
100
AcDb2dVertex
 10
153.691254
 20
173.658439
 30
0.0
  0
VERTEX
  5
1F8
330
1EA
100
AcDbEntity
  8
001
370
    50
100
AcDbVertex
100
AcDb2dVertex
 10
153.633478
 20
173.695668
 30
0.0
  0
VERTEX
  5
1F9
330
1EA
100
AcDbEntity
  8
001
370
    50
100
AcDbVertex
100
AcDb2dVertex
 10
153.572221
 20
173.727631
 30
0.0
  0
VERTEX
  5
1FA
330
1EA
100
AcDbEntity
  8
001
370
    50
100
AcDbVertex
100
AcDb2dVertex
 10
153.509948
 20
173.75416
 30
0.0
  0
VERTEX
  5
1FB
330
1EA
100
AcDbEntity
  8
001
370
    50
100
AcDbVertex
100
AcDb2dVertex
 10
153.447818
 20
173.774982
 30
0.0
  0
VERTEX
  5
1FC
330
1EA
100
AcDbEntity
  8
001
370
    50
100
AcDbVertex
100
AcDb2dVertex
 10
153.378291
 20
173.789981
 30
0.0
  0
VERTEX
  5
1FD
330
1EA
100
AcDbEntity
  8
001
370
    50
100
AcDbVertex
100
AcDb2dVertex
 10
153.299836
 20
173.799019
 30
0.0
  0
VERTEX
  5
1FE
330
1EA
100
AcDbEntity
  8
001
370
    50
100
AcDbVertex
100
AcDb2dVertex
 10
153.242509
 20
173.802044
 30
0.0
  0
SEQEND
  5
1EB
330
1EA
100
AcDbEntity
  8
001
370
    50
  0
LINE
  5
1FF
330
1F
100
AcDbEntity
  8
001
370
    50
100
AcDbLine
 10
154.024447
 20
168.277841
 30
0.0
 11
154.024447
 21
173.008044
 31
0.0
  0
LINE
  5
200
330
1F
100
AcDbEntity
  8
001
370
    50
100
AcDbLine
 10
155.924447
 20
166.278585
 30
0.0
 11
154.024447
 21
168.277841
 31
0.0
  0
LINE
  5
201
330
1F
100
AcDbEntity
  8
001
370
    50
100
AcDbLine
 10
155.924447
 20
160.650355
 30
0.0
 11
155.924447
 21
166.278585
 31
0.0
  0
POLYLINE
  5
202
330
1F
100
AcDbEntity
  8
001
370
    50
100
AcDb2dPolyline
 66
     1
 10
0.0
 20
0.0
 30
0.0
  0
VERTEX
  5
204
330
202
100
AcDbEntity
  8
001
370
    50
100
AcDbVertex
100
AcDb2dVertex
 10
155.14251
 20
159.856355
 30
0.0
  0
VERTEX
  5
205
330
202
100
AcDbEntity
  8
001
370
    50
100
AcDbVertex
100
AcDb2dVertex
 10
155.199836
 20
159.859379
 30
0.0
  0
VERTEX
  5
206
330
202
100
AcDbEntity
  8
001
370
    50
100
AcDbVertex
100
AcDb2dVertex
 10
155.278292
 20
159.868417
 30
0.0
  0
VERTEX
  5
207
330
202
100
AcDbEntity
  8
001
370
    50
100
AcDbVertex
100
AcDb2dVertex
 10
155.347819
 20
159.883417
 30
0.0
  0
VERTEX
  5
208
330
202
100
AcDbEntity
  8
001
370
    50
100
AcDbVertex
100
AcDb2dVertex
 10
155.409948
 20
159.904239
 30
0.0
  0
VERTEX
  5
209
330
202
100
AcDbEntity
  8
001
370
    50
100
AcDbVertex
100
AcDb2dVertex
 10
155.472221
 20
159.930767
 30
0.0
  0
VERTEX
  5
20A
330
202
100
AcDbEntity
  8
001
370
    50
100
AcDbVertex
100
AcDb2dVertex
 10
155.533479
 20
159.96273
 30
0.0
  0
VERTEX
  5
20B
330
202
100
AcDbEntity
  8
001
370
    50
100
AcDbVertex
100
AcDb2dVertex
 10
155.591255
 20
159.99996
 30
0.0
  0
VERTEX
  5
20C
330
202
100
AcDbEntity
  8
001
370
    50
100
AcDbVertex
100
AcDb2dVertex
 10
155.64513
 20
160.042115
 30
0.0
  0
VERTEX
  5
20D
330
202
100
AcDbEntity
  8
001
370
    50
100
AcDbVertex
100
AcDb2dVertex
 10
155.695398
 20
160.089002
 30
0.0
  0
VERTEX
  5
20E
330
202
100
AcDbEntity
  8
001
370
    50
100
AcDbVertex
100
AcDb2dVertex
 10
155.741509
 20
160.139981
 30
0.0
  0
VERTEX
  5
20F
330
202
100
AcDbEntity
  8
001
370
    50
100
AcDbVertex
100
AcDb2dVertex
 10
155.783074
 20
160.194761
 30
0.0
  0
VERTEX
  5
210
330
202
100
AcDbEntity
  8
001
370
    50
100
AcDbVertex
100
AcDb2dVertex
 10
155.819688
 20
160.253355
 30
0.0
  0
VERTEX
  5
211
330
202
100
AcDbEntity
  8
001
370
    50
100
AcDbVertex
100
AcDb2dVertex
 10
155.851195
 20
160.315614
 30
0.0
  0
VERTEX
  5
212
330
202
100
AcDbEntity
  8
001
370
    50
100
AcDbVertex
100
AcDb2dVertex
 10
155.877291
 20
160.378791
 30
0.0
  0
VERTEX
  5
213
330
202
100
AcDbEntity
  8
001
370
    50
100
AcDbVertex
100
AcDb2dVertex
 10
155.897809
 20
160.441934
 30
0.0
  0
VERTEX
  5
214
330
202
100
AcDbEntity
  8
001
370
    50
100
AcDbVertex
100
AcDb2dVertex
 10
155.912568
 20
160.512478
 30
0.0
  0
VERTEX
  5
215
330
202
100
AcDbEntity
  8
001
370
    50
100
AcDbVertex
100
AcDb2dVertex
 10
155.921471
 20
160.592154
 30
0.0
  0
VERTEX
  5
216
330
202
100
AcDbEntity
  8
001
370
    50
100
AcDbVertex
100
AcDb2dVertex
 10
155.924447
 20
160.650355
 30
0.0
  0
SEQEND
  5
203
330
202
100
AcDbEntity
  8
001
370
    50
  0
LINE
  5
217
330
1F
100
AcDbEntity
  8
001
370
    50
100
AcDbLine
 10
150.48417
 20
159.856355
 30
0.0
 11
155.14251
 21
159.856355
 31
0.0
  0
LINE
  5
218
330
1F
100
AcDbEntity
  8
001
370
    50
100
AcDbLine
 10
148.311811
 20
157.727657
 30
0.0
 11
150.48417
 21
159.856355
 31
0.0
  0
LINE
  5
219
330
1F
100
AcDbEntity
  8
001
370
    50
100
AcDbLine
 10
148.311811
 20
157.727657
 30
0.0
 11
142.972562
 21
157.727657
 31
0.0
  0
LINE
  5
21A
330
1F
100
AcDbEntity
  8
001
370
    50
100
AcDbLine
 10
142.190625
 20
163.227657
 30
0.0
 11
142.190625
 21
158.521276
 31
0.0
  0
POLYLINE
  5
21B
330
1F
100
AcDbEntity
  8
001
370
    50
100
AcDb2dPolyline
 66
     1
 10
0.0
 20
0.0
 30
0.0
  0
VERTEX
  5
21D
330
21B
100
AcDbEntity
  8
001
370
    50
100
AcDbVertex
100
AcDb2dVertex
 10
144.414507
 20
165.864544
 30
0.0
  0
VERTEX
  5
21E
330
21B
100
AcDbEntity
  8
001
370
    50
100
AcDbVertex
100
AcDb2dVertex
 10
144.432293
 20
165.555455
 30
0.0
  0
VERTEX
  5
21F
330
21B
100
AcDbEntity
  8
001
370
    50
100
AcDbVertex
100
AcDb2dVertex
 10
144.485467
 20
165.132955
 30
0.0
  0
VERTEX
  5
220
330
21B
100
AcDbEntity
  8
001
370
    50
100
AcDbVertex
100
AcDb2dVertex
 10
144.573518
 20
164.760499
 30
0.0
  0
VERTEX
  5
221
330
21B
100
AcDbEntity
  8
001
370
    50
100
AcDbVertex
100
AcDb2dVertex
 10
144.695622
 20
164.429481
 30
0.0
  0
VERTEX
  5
222
330
21B
100
AcDbEntity
  8
001
370
    50
100
AcDbVertex
100
AcDb2dVertex
 10
144.850401
 20
164.101186
 30
0.0
  0
VERTEX
  5
223
330
21B
100
AcDbEntity
  8
001
370
    50
100
AcDbVertex
100
AcDb2dVertex
 10
145.036894
 20
163.781155
 30
0.0
  0
VERTEX
  5
224
330
21B
100
AcDbEntity
  8
001
370
    50
100
AcDbVertex
100
AcDb2dVertex
 10
145.252929
 20
163.484672
 30
0.0
  0
VERTEX
  5
225
330
21B
100
AcDbEntity
  8
001
370
    50
100
AcDbVertex
100
AcDb2dVertex
 10
145.49617
 20
163.212893
 30
0.0
  0
VERTEX
  5
226
330
21B
100
AcDbEntity
  8
001
370
    50
100
AcDbVertex
100
AcDb2dVertex
 10
145.763388
 20
162.966235
 30
0.0
  0
VERTEX
  5
227
330
21B
100
AcDbEntity
  8
001
370
    50
100
AcDbVertex
100
AcDb2dVertex
 10
146.055799
 20
162.746533
 30
0.0
  0
VERTEX
  5
228
330
21B
100
AcDbEntity
  8
001
370
    50
100
AcDbVertex
100
AcDb2dVertex
 10
146.370616
 20
162.557382
 30
0.0
  0
VERTEX
  5
229
330
21B
100
AcDbEntity
  8
001
370
    50
100
AcDbVertex
100
AcDb2dVertex
 10
146.694275
 20
162.399995
 30
0.0
  0
VERTEX
  5
22A
330
21B
100
AcDbEntity
  8
001
370
    50
100
AcDbVertex
100
AcDb2dVertex
 10
147.019908
 20
162.276099
 30
0.0
  0
VERTEX
  5
22B
330
21B
100
AcDbEntity
  8
001
370
    50
100
AcDbVertex
100
AcDb2dVertex
 10
147.387062
 20
162.186599
 30
0.0
  0
VERTEX
  5
22C
330
21B
100
AcDbEntity
  8
001
370
    50
100
AcDbVertex
100
AcDb2dVertex
 10
147.80308
 20
162.132619
 30
0.0
  0
VERTEX
  5
22D
330
21B
100
AcDbEntity
  8
001
370
    50
100
AcDbVertex
100
AcDb2dVertex
 10
148.107536
 20
162.114544
 30
0.0
  0
SEQEND
  5
21C
330
21B
100
AcDbEntity
  8
001
370
    50
  0
POLYLINE
  5
22E
330
1F
100
AcDbEntity
  8
001
370
    50
100
AcDb2dPolyline
 66
     1
 10
0.0
 20
0.0
 30
0.0
  0
VERTEX
  5
230
330
22E
100
AcDbEntity
  8
001
370
    50
100
AcDbVertex
100
AcDb2dVertex
 10
148.107536
 20
162.114544
 30
0.0
  0
VERTEX
  5
231
330
22E
100
AcDbEntity
  8
001
370
    50
100
AcDbVertex
100
AcDb2dVertex
 10
148.378283
 20
162.128827
 30
0.0
  0
VERTEX
  5
232
330
22E
100
AcDbEntity
  8
001
370
    50
100
AcDbVertex
100
AcDb2dVertex
 10
148.748824
 20
162.171515
 30
0.0
  0
VERTEX
  5
233
330
22E
100
AcDbEntity
  8
001
370
    50
100
AcDbVertex
100
AcDb2dVertex
 10
149.077193
 20
162.24236
 30
0.0
  0
VERTEX
  5
234
330
22E
100
AcDbEntity
  8
001
370
    50
100
AcDbVertex
100
AcDb2dVertex
 10
149.370626
 20
162.340696
 30
0.0
  0
VERTEX
  5
235
330
22E
100
AcDbEntity
  8
001
370
    50
100
AcDbVertex
100
AcDb2dVertex
 10
149.664735
 20
162.46597
 30
0.0
  0
VERTEX
  5
236
330
22E
100
AcDbEntity
  8
001
370
    50
100
AcDbVertex
100
AcDb2dVertex
 10
149.95405
 20
162.616948
 30
0.0
  0
VERTEX
  5
237
330
22E
100
AcDbEntity
  8
001
370
    50
100
AcDbVertex
100
AcDb2dVertex
 10
150.226923
 20
162.792849
 30
0.0
  0
VERTEX
  5
238
330
22E
100
AcDbEntity
  8
001
370
    50
100
AcDbVertex
100
AcDb2dVertex
 10
150.481369
 20
162.991877
 30
0.0
  0
VERTEX
  5
239
330
22E
100
AcDbEntity
  8
001
370
    50
100
AcDbVertex
100
AcDb2dVertex
 10
150.71878
 20
163.213053
 30
0.0
  0
VERTEX
  5
23A
330
22E
100
AcDbEntity
  8
001
370
    50
100
AcDbVertex
100
AcDb2dVertex
 10
150.93656
 20
163.45409
 30
0.0
  0
VERTEX
  5
23B
330
22E
100
AcDbEntity
  8
001
370
    50
100
AcDbVertex
100
AcDb2dVertex
 10
151.132868
 20
163.713804
 30
0.0
  0
VERTEX
  5
23C
330
22E
100
AcDbEntity
  8
001
370
    50
100
AcDbVertex
100
AcDb2dVertex
 10
151.305793
 20
163.989544
 30
0.0
  0
VERTEX
  5
23D
330
22E
100
AcDbEntity
  8
001
370
    50
100
AcDbVertex
100
AcDb2dVertex
 10
151.454599
 20
164.279878
 30
0.0
  0
VERTEX
  5
23E
330
22E
100
AcDbEntity
  8
001
370
    50
100
AcDbVertex
100
AcDb2dVertex
 10
151.577848
 20
164.581968
 30
0.0
  0
VERTEX
  5
23F
330
22E
100
AcDbEntity
  8
001
370
    50
100
AcDbVertex
100
AcDb2dVertex
 10
151.674753
 20
164.894078
 30
0.0
  0
VERTEX
  5
240
330
22E
100
AcDbEntity
  8
001
370
    50
100
AcDbVertex
100
AcDb2dVertex
 10
151.74446
 20
165.213363
 30
0.0
  0
VERTEX
  5
241
330
22E
100
AcDbEntity
  8
001
370
    50
100
AcDbVertex
100
AcDb2dVertex
 10
151.786506
 20
165.537747
 30
0.0
  0
VERTEX
  5
242
330
22E
100
AcDbEntity
  8
001
370
    50
100
AcDbVertex
100
AcDb2dVertex
 10
151.800565
 20
165.864544
 30
0.0
  0
VERTEX
  5
243
330
22E
100
AcDbEntity
  8
001
370
    50
100
AcDbVertex
100
AcDb2dVertex
 10
151.786506
 20
166.19134
 30
0.0
  0
VERTEX
  5
244
330
22E
100
AcDbEntity
  8
001
370
    50
100
AcDbVertex
100
AcDb2dVertex
 10
151.74446
 20
166.515724
 30
0.0
  0
VERTEX
  5
245
330
22E
100
AcDbEntity
  8
001
370
    50
100
AcDbVertex
100
AcDb2dVertex
 10
151.674753
 20
166.835009
 30
0.0
  0
VERTEX
  5
246
330
22E
100
AcDbEntity
  8
001
370
    50
100
AcDbVertex
100
AcDb2dVertex
 10
151.577848
 20
167.147119
 30
0.0
  0
VERTEX
  5
247
330
22E
100
AcDbEntity
  8
001
370
    50
100
AcDbVertex
100
AcDb2dVertex
 10
151.454599
 20
167.449209
 30
0.0
  0
VERTEX
  5
248
330
22E
100
AcDbEntity
  8
001
370
    50
100
AcDbVertex
100
AcDb2dVertex
 10
151.305793
 20
167.739544
 30
0.0
  0
VERTEX
  5
249
330
22E
100
AcDbEntity
  8
001
370
    50
100
AcDbVertex
100
AcDb2dVertex
 10
151.132868
 20
168.015284
 30
0.0
  0
VERTEX
  5
24A
330
22E
100
AcDbEntity
  8
001
370
    50
100
AcDbVertex
100
AcDb2dVertex
 10
150.93656
 20
168.274997
 30
0.0
  0
VERTEX
  5
24B
330
22E
100
AcDbEntity
  8
001
370
    50
100
AcDbVertex
100
AcDb2dVertex
 10
150.71878
 20
168.516034
 30
0.0
  0
VERTEX
  5
24C
330
22E
100
AcDbEntity
  8
001
370
    50
100
AcDbVertex
100
AcDb2dVertex
 10
150.481369
 20
168.73721
 30
0.0
  0
VERTEX
  5
24D
330
22E
100
AcDbEntity
  8
001
370
    50
100
AcDbVertex
100
AcDb2dVertex
 10
150.226923
 20
168.936238
 30
0.0
  0
VERTEX
  5
24E
330
22E
100
AcDbEntity
  8
001
370
    50
100
AcDbVertex
100
AcDb2dVertex
 10
149.95405
 20
169.112139
 30
0.0
  0
VERTEX
  5
24F
330
22E
100
AcDbEntity
  8
001
370
    50
100
AcDbVertex
100
AcDb2dVertex
 10
149.664735
 20
169.263118
 30
0.0
  0
VERTEX
  5
250
330
22E
100
AcDbEntity
  8
001
370
    50
100
AcDbVertex
100
AcDb2dVertex
 10
149.370626
 20
169.388391
 30
0.0
  0
VERTEX
  5
251
330
22E
100
AcDbEntity
  8
001
370
    50
100
AcDbVertex
100
AcDb2dVertex
 10
149.077193
 20
169.486727
 30
0.0
  0
VERTEX
  5
252
330
22E
100
AcDbEntity
  8
001
370
    50
100
AcDbVertex
100
AcDb2dVertex
 10
148.748824
 20
169.557573
 30
0.0
  0
VERTEX
  5
253
330
22E
100
AcDbEntity
  8
001
370
    50
100
AcDbVertex
100
AcDb2dVertex
 10
148.378283
 20
169.60026
 30
0.0
  0
VERTEX
  5
254
330
22E
100
AcDbEntity
  8
001
370
    50
100
AcDbVertex
100
AcDb2dVertex
 10
148.107536
 20
169.614544
 30
0.0
  0
SEQEND
  5
22F
330
22E
100
AcDbEntity
  8
001
370
    50
  0
LINE
  5
255
330
1F
100
AcDbEntity
  8
001
370
    50
100
AcDbLine
 10
181.541749
 20
178.322127
 30
0.0
 11
182.758749
 21
177.87489
 31
0.0
  0
LINE
  5
256
330
1F
100
AcDbEntity
  8
001
370
    50
100
AcDbLine
 10
221.290624
 20
204.877657
 30
0.0
 11
175.527741
 21
204.877657
 31
0.0
  0
POLYLINE
  5
257
330
1F
100
AcDbEntity
  8
001
370
    50
100
AcDb2dPolyline
 66
     1
 10
0.0
 20
0.0
 30
0.0
  0
VERTEX
  5
259
330
257
100
AcDbEntity
  8
001
370
    50
100
AcDbVertex
100
AcDb2dVertex
 10
220.758554
 20
157.795257
 30
0.0
  0
VERTEX
  5
25A
330
257
100
AcDbEntity
  8
001
370
    50
100
AcDbVertex
100
AcDb2dVertex
 10
220.886053
 20
157.469075
 30
0.0
  0
VERTEX
  5
25B
330
257
100
AcDbEntity
  8
001
370
    50
100
AcDbVertex
100
AcDb2dVertex
 10
221.019045
 20
157.145236
 30
0.0
  0
VERTEX
  5
25C
330
257
100
AcDbEntity
  8
001
370
    50
100
AcDbVertex
100
AcDb2dVertex
 10
221.152407
 20
156.844385
 30
0.0
  0
VERTEX
  5
25D
330
257
100
AcDbEntity
  8
001
370
    50
100
AcDbVertex
100
AcDb2dVertex
 10
221.290624
 20
156.545605
 30
0.0
  0
SEQEND
  5
258
330
257
100
AcDbEntity
  8
001
370
    50
  0
POLYLINE
  5
25E
330
1F
100
AcDbEntity
  8
001
370
    50
100
AcDb2dPolyline
 66
     1
 10
0.0
 20
0.0
 30
0.0
  0
VERTEX
  5
260
330
25E
100
AcDbEntity
  8
001
370
    50
100
AcDbVertex
100
AcDb2dVertex
 10
208.315749
 20
168.785395
 30
0.0
  0
VERTEX
  5
261
330
25E
100
AcDbEntity
  8
001
370
    50
100
AcDbVertex
100
AcDb2dVertex
 10
208.844728
 20
168.616911
 30
0.0
  0
VERTEX
  5
262
330
25E
100
AcDbEntity
  8
001
370
    50
100
AcDbVertex
100
AcDb2dVertex
 10
209.370077
 20
168.438055
 30
0.0
  0
VERTEX
  5
263
330
25E
100
AcDbEntity
  8
001
370
    50
100
AcDbVertex
100
AcDb2dVertex
 10
209.886803
 20
168.241575
 30
0.0
  0
VERTEX
  5
264
330
25E
100
AcDbEntity
  8
001
370
    50
100
AcDbVertex
100
AcDb2dVertex
 10
210.396831
 20
168.027896
 30
0.0
  0
VERTEX
  5
265
330
25E
100
AcDbEntity
  8
001
370
    50
100
AcDbVertex
100
AcDb2dVertex
 10
210.896584
 20
167.801588
 30
0.0
  0
VERTEX
  5
266
330
25E
100
AcDbEntity
  8
001
370
    50
100
AcDbVertex
100
AcDb2dVertex
 10
211.389646
 20
167.561208
 30
0.0
  0
VERTEX
  5
267
330
25E
100
AcDbEntity
  8
001
370
    50
100
AcDbVertex
100
AcDb2dVertex
 10
211.966439
 20
167.2568
 30
0.0
  0
VERTEX
  5
268
330
25E
100
AcDbEntity
  8
001
370
    50
100
AcDbVertex
100
AcDb2dVertex
 10
212.532676
 20
166.933073
 30
0.0
  0
VERTEX
  5
269
330
25E
100
AcDbEntity
  8
001
370
    50
100
AcDbVertex
100
AcDb2dVertex
 10
213.082634
 20
166.59465
 30
0.0
  0
VERTEX
  5
26A
330
25E
100
AcDbEntity
  8
001
370
    50
100
AcDbVertex
100
AcDb2dVertex
 10
213.62171
 20
166.239181
 30
0.0
  0
VERTEX
  5
26B
330
25E
100
AcDbEntity
  8
001
370
    50
100
AcDbVertex
100
AcDb2dVertex
 10
214.14133
 20
165.873343
 30
0.0
  0
VERTEX
  5
26C
330
25E
100
AcDbEntity
  8
001
370
    50
100
AcDbVertex
100
AcDb2dVertex
 10
214.649809
 20
165.49217
 30
0.0
  0
VERTEX
  5
26D
330
25E
100
AcDbEntity
  8
001
370
    50
100
AcDbVertex
100
AcDb2dVertex
 10
215.135596
 20
165.105344
 30
0.0
  0
VERTEX
  5
26E
330
25E
100
AcDbEntity
  8
001
370
    50
100
AcDbVertex
100
AcDb2dVertex
 10
215.610032
 20
164.704679
 30
0.0
  0
VERTEX
  5
26F
330
25E
100
AcDbEntity
  8
001
370
    50
100
AcDbVertex
100
AcDb2dVertex
 10
216.105749
 20
164.260065
 30
0.0
  0
VERTEX
  5
270
330
25E
100
AcDbEntity
  8
001
370
    50
100
AcDbVertex
100
AcDb2dVertex
 10
216.587692
 20
163.800543
 30
0.0
  0
VERTEX
  5
271
330
25E
100
AcDbEntity
  8
001
370
    50
100
AcDbVertex
100
AcDb2dVertex
 10
217.04188
 20
163.340979
 30
0.0
  0
VERTEX
  5
272
330
25E
100
AcDbEntity
  8
001
370
    50
100
AcDbVertex
100
AcDb2dVertex
 10
217.482408
 20
162.868312
 30
0.0
  0
VERTEX
  5
273
330
25E
100
AcDbEntity
  8
001
370
    50
100
AcDbVertex
100
AcDb2dVertex
 10
217.892095
 20
162.402383
 30
0.0
  0
VERTEX
  5
274
330
25E
100
AcDbEntity
  8
001
370
    50
100
AcDbVertex
100
AcDb2dVertex
 10
218.288067
 20
161.92475
 30
0.0
  0
VERTEX
  5
275
330
25E
100
AcDbEntity
  8
001
370
    50
100
AcDbVertex
100
AcDb2dVertex
 10
218.650265
 20
161.460952
 30
0.0
  0
VERTEX
  5
276
330
25E
100
AcDbEntity
  8
001
370
    50
100
AcDbVertex
100
AcDb2dVertex
 10
218.998555
 20
160.986619
 30
0.0
  0
VERTEX
  5
277
330
25E
100
AcDbEntity
  8
001
370
    50
100
AcDbVertex
100
AcDb2dVertex
 10
219.285245
 20
160.571581
 30
0.0
  0
VERTEX
  5
278
330
25E
100
AcDbEntity
  8
001
370
    50
100
AcDbVertex
100
AcDb2dVertex
 10
219.559996
 20
160.148597
 30
0.0
  0
VERTEX
  5
279
330
25E
100
AcDbEntity
  8
001
370
    50
100
AcDbVertex
100
AcDb2dVertex
 10
219.807102
 20
159.74276
 30
0.0
  0
VERTEX
  5
27A
330
25E
100
AcDbEntity
  8
001
370
    50
100
AcDbVertex
100
AcDb2dVertex
 10
220.04254
 20
159.329938
 30
0.0
  0
VERTEX
  5
27B
330
25E
100
AcDbEntity
  8
001
370
    50
100
AcDbVertex
100
AcDb2dVertex
 10
220.250225
 20
158.939508
 30
0.0
  0
VERTEX
  5
27C
330
25E
100
AcDbEntity
  8
001
370
    50
100
AcDbVertex
100
AcDb2dVertex
 10
220.443091
 20
158.541779
 30
0.0
  0
VERTEX
  5
27D
330
25E
100
AcDbEntity
  8
001
370
    50
100
AcDbVertex
100
AcDb2dVertex
 10
220.6049
 20
158.170352
 30
0.0
  0
VERTEX
  5
27E
330
25E
100
AcDbEntity
  8
001
370
    50
100
AcDbVertex
100
AcDb2dVertex
 10
220.758554
 20
157.795257
 30
0.0
  0
SEQEND
  5
25F
330
25E
100
AcDbEntity
  8
001
370
    50
  0
LINE
  5
27F
330
1F
100
AcDbEntity
  8
001
370
    50
100
AcDbLine
 10
207.098749
 20
169.195864
 30
0.0
 11
208.315749
 21
168.785395
 31
0.0
  0
LINE
  5
280
330
1F
100
AcDbEntity
  8
001
370
    50
100
AcDbLine
 10
205.881749
 20
169.609389
 30
0.0
 11
207.098749
 21
169.195864
 31
0.0
  0
LINE
  5
281
330
1F
100
AcDbEntity
  8
001
370
    50
100
AcDbLine
 10
204.664749
 20
170.025844
 30
0.0
 11
205.881749
 21
169.609389
 31
0.0
  0
LINE
  5
282
330
1F
100
AcDbEntity
  8
001
370
    50
100
AcDbLine
 10
203.447749
 20
170.445102
 30
0.0
 11
204.664749
 21
170.025844
 31
0.0
  0
LINE
  5
283
330
1F
100
AcDbEntity
  8
001
370
    50
100
AcDbLine
 10
202.230749
 20
170.867035
 30
0.0
 11
203.447749
 21
170.445102
 31
0.0
  0
LINE
  5
284
330
1F
100
AcDbEntity
  8
001
370
    50
100
AcDbLine
 10
201.013749
 20
171.291515
 30
0.0
 11
202.230749
 21
170.867035
 31
0.0
  0
LINE
  5
285
330
1F
100
AcDbEntity
  8
001
370
    50
100
AcDbLine
 10
199.796749
 20
171.718412
 30
0.0
 11
201.013749
 21
171.291515
 31
0.0
  0
LINE
  5
286
330
1F
100
AcDbEntity
  8
001
370
    50
100
AcDbLine
 10
198.579749
 20
172.147597
 30
0.0
 11
199.796749
 21
171.718412
 31
0.0
  0
LINE
  5
287
330
1F
100
AcDbEntity
  8
001
370
    50
100
AcDbLine
 10
197.362749
 20
172.578938
 30
0.0
 11
198.579749
 21
172.147597
 31
0.0
  0
LINE
  5
288
330
1F
100
AcDbEntity
  8
001
370
    50
100
AcDbLine
 10
196.145749
 20
173.012305
 30
0.0
 11
197.362749
 21
172.578938
 31
0.0
  0
LINE
  5
289
330
1F
100
AcDbEntity
  8
001
370
    50
100
AcDbLine
 10
194.928749
 20
173.447564
 30
0.0
 11
196.145749
 21
173.012305
 31
0.0
  0
LINE
  5
28A
330
1F
100
AcDbEntity
  8
001
370
    50
100
AcDbLine
 10
193.711749
 20
173.884585
 30
0.0
 11
194.928749
 21
173.447564
 31
0.0
  0
LINE
  5
28B
330
1F
100
AcDbEntity
  8
001
370
    50
100
AcDbLine
 10
192.494749
 20
174.323233
 30
0.0
 11
193.711749
 21
173.884585
 31
0.0
  0
LINE
  5
28C
330
1F
100
AcDbEntity
  8
001
370
    50
100
AcDbLine
 10
191.277749
 20
174.763375
 30
0.0
 11
192.494749
 21
174.323233
 31
0.0
  0
LINE
  5
28D
330
1F
100
AcDbEntity
  8
001
370
    50
100
AcDbLine
 10
190.060749
 20
175.204877
 30
0.0
 11
191.277749
 21
174.763375
 31
0.0
  0
LINE
  5
28E
330
1F
100
AcDbEntity
  8
001
370
    50
100
AcDbLine
 10
188.843749
 20
175.647604
 30
0.0
 11
190.060749
 21
175.204877
 31
0.0
  0
LINE
  5
28F
330
1F
100
AcDbEntity
  8
001
370
    50
100
AcDbLine
 10
187.626749
 20
176.091422
 30
0.0
 11
188.843749
 21
175.647604
 31
0.0
  0
LINE
  5
290
330
1F
100
AcDbEntity
  8
001
370
    50
100
AcDbLine
 10
186.409749
 20
176.536195
 30
0.0
 11
187.626749
 21
176.091422
 31
0.0
  0
LINE
  5
291
330
1F
100
AcDbEntity
  8
001
370
    50
100
AcDbLine
 10
185.192749
 20
176.981788
 30
0.0
 11
186.409749
 21
176.536195
 31
0.0
  0
LINE
  5
292
330
1F
100
AcDbEntity
  8
001
370
    50
100
AcDbLine
 10
183.975749
 20
177.428065
 30
0.0
 11
185.192749
 21
176.981788
 31
0.0
  0
LINE
  5
293
330
1F
100
AcDbEntity
  8
001
370
    50
100
AcDbLine
 10
182.758749
 20
177.87489
 30
0.0
 11
183.975749
 21
177.428065
 31
0.0
  0
POLYLINE
  5
294
330
1F
100
AcDbEntity
  8
001
370
    50
100
AcDb2dPolyline
 66
     1
 10
0.0
 20
0.0
 30
0.0
  0
VERTEX
  5
296
330
294
100
AcDbEntity
  8
001
370
    50
100
AcDbVertex
100
AcDb2dVertex
 10
180.324749
 20
178.76964
 30
0.0
  0
VERTEX
  5
297
330
294
100
AcDbEntity
  8
001
370
    50
100
AcDbVertex
100
AcDb2dVertex
 10
180.47659
 20
178.71964
 30
0.0
  0
VERTEX
  5
298
330
294
100
AcDbEntity
  8
001
370
    50
100
AcDbVertex
100
AcDb2dVertex
 10
180.628031
 20
178.668513
 30
0.0
  0
VERTEX
  5
299
330
294
100
AcDbEntity
  8
001
370
    50
100
AcDbVertex
100
AcDb2dVertex
 10
181.086765
 20
178.500588
 30
0.0
  0
VERTEX
  5
29A
330
294
100
AcDbEntity
  8
001
370
    50
100
AcDbVertex
100
AcDb2dVertex
 10
181.541749
 20
178.322127
 30
0.0
  0
SEQEND
  5
295
330
294
100
AcDbEntity
  8
001
370
    50
  0
LINE
  5
29B
330
1F
100
AcDbEntity
  8
001
370
    50
100
AcDbLine
 10
179.107749
 20
179.217293
 30
0.0
 11
180.324749
 21
178.76964
 31
0.0
  0
LINE
  5
29C
330
1F
100
AcDbEntity
  8
001
370
    50
100
AcDbLine
 10
177.890749
 20
179.664949
 30
0.0
 11
179.107749
 21
179.217293
 31
0.0
  0
LINE
  5
29D
330
1F
100
AcDbEntity
  8
001
370
    50
100
AcDbLine
 10
176.673749
 20
180.112471
 30
0.0
 11
177.890749
 21
179.664949
 31
0.0
  0
LINE
  5
29E
330
1F
100
AcDbEntity
  8
001
370
    50
100
AcDbLine
 10
175.527741
 20
180.536687
 30
0.0
 11
176.673749
 21
180.112471
 31
0.0
  0
POLYLINE
  5
29F
330
1F
100
AcDbEntity
  8
001
  6
DASHED
370
    50
100
AcDb2dPolyline
 66
     1
 10
0.0
 20
0.0
 30
0.0
  0
VERTEX
  5
2A1
330
29F
100
AcDbEntity
  8
001
  6
DASHED
370
    50
100
AcDbVertex
100
AcDb2dVertex
 10
176.720006
 20
180.114094
 30
0.0
  0
VERTEX
  5
2A2
330
29F
100
AcDbEntity
  8
001
  6
DASHED
370
    50
100
AcDbVertex
100
AcDb2dVertex
 10
176.716253
 20
180.108031
 30
0.0
  0
VERTEX
  5
2A3
330
29F
100
AcDbEntity
  8
001
  6
DASHED
370
    50
100
AcDbVertex
100
AcDb2dVertex
 10
176.710772
 20
180.099165
 30
0.0
  0
VERTEX
  5
2A4
330
29F
100
AcDbEntity
  8
001
  6
DASHED
370
    50
100
AcDbVertex
100
AcDb2dVertex
 10
176.705284
 20
180.090272
 30
0.0
  0
VERTEX
  5
2A5
330
29F
100
AcDbEntity
  8
001
  6
DASHED
370
    50
100
AcDbVertex
100
AcDb2dVertex
 10
176.701533
 20
180.084185
 30
0.0
  0
SEQEND
  5
2A0
330
29F
100
AcDbEntity
  8
001
  6
DASHED
370
    50
  0
LINE
  5
2A6
330
1F
100
AcDbEntity
  8
001
370
    50
100
AcDbLine
 10
175.452874
 20
180.607972
 30
0.0
 11
175.527741
 21
180.536687
 31
0.0
  0
ARC
  5
2A7
330
1F
100
AcDbEntity
  8
001
370
    50
100
AcDbCircle
 10
221.290624
 20
199.877657
 30
0.0
 40
4.99999999999999
100
AcDbArc
 50
0.0
 51
90.0
  0
ARC
  5
2A8
330
1F
100
AcDbEntity
  8
001
370
    50
100
AcDbCircle
 10
221.290624
 20
158.577657
 30
0.0
 40
4.99999999999999
100
AcDbArc
 50
297.837019
 51
0.0
  0
LINE
  5
2A9
330
1F
100
AcDbEntity
  8
001
370
    50
100
AcDbLine
 10
226.290624
 20
199.877657
 30
0.0
 11
226.290624
 21
158.577657
 31
0.0
  0
POLYLINE
  5
2AA
330
1F
100
AcDbEntity
  8
001
370
    50
100
AcDb2dPolyline
 66
     1
 10
0.0
 20
0.0
 30
0.0
  0
VERTEX
  5
2AC
330
2AA
100
AcDbEntity
  8
001
370
    50
100
AcDbVertex
100
AcDb2dVertex
 10
221.290624
 20
156.545605
 30
0.0
  0
VERTEX
  5
2AD
330
2AA
100
AcDbEntity
  8
001
370
    50
100
AcDbVertex
100
AcDb2dVertex
 10
221.46447
 20
156.207188
 30
0.0
  0
VERTEX
  5
2AE
330
2AA
100
AcDbEntity
  8
001
370
    50
100
AcDbVertex
100
AcDb2dVertex
 10
221.647665
 20
155.874023
 30
0.0
  0
VERTEX
  5
2AF
330
2AA
100
AcDbEntity
  8
001
370
    50
100
AcDbVertex
100
AcDb2dVertex
 10
221.822926
 20
155.588863
 30
0.0
  0
VERTEX
  5
2B0
330
2AA
100
AcDbEntity
  8
001
370
    50
100
AcDbVertex
100
AcDb2dVertex
 10
222.012274
 20
155.312648
 30
0.0
  0
VERTEX
  5
2B1
330
2AA
100
AcDbEntity
  8
001
370
    50
100
AcDbVertex
100
AcDb2dVertex
 10
222.185978
 20
155.083888
 30
0.0
  0
VERTEX
  5
2B2
330
2AA
100
AcDbEntity
  8
001
370
    50
100
AcDbVertex
100
AcDb2dVertex
 10
222.371872
 20
154.865146
 30
0.0
  0
VERTEX
  5
2B3
330
2AA
100
AcDbEntity
  8
001
370
    50
100
AcDbVertex
100
AcDb2dVertex
 10
222.555308
 20
154.675559
 30
0.0
  0
VERTEX
  5
2B4
330
2AA
100
AcDbEntity
  8
001
370
    50
100
AcDbVertex
100
AcDb2dVertex
 10
222.752684
 20
154.500014
 30
0.0
  0
VERTEX
  5
2B5
330
2AA
100
AcDbEntity
  8
001
370
    50
100
AcDbVertex
100
AcDb2dVertex
 10
222.917825
 20
154.375283
 30
0.0
  0
VERTEX
  5
2B6
330
2AA
100
AcDbEntity
  8
001
370
    50
100
AcDbVertex
100
AcDb2dVertex
 10
223.092922
 20
154.266753
 30
0.0
  0
VERTEX
  5
2B7
330
2AA
100
AcDbEntity
  8
001
370
    50
100
AcDbVertex
100
AcDb2dVertex
 10
223.229031
 20
154.200844
 30
0.0
  0
VERTEX
  5
2B8
330
2AA
100
AcDbEntity
  8
001
370
    50
100
AcDbVertex
100
AcDb2dVertex
 10
223.37412
 20
154.151366
 30
0.0
  0
VERTEX
  5
2B9
330
2AA
100
AcDbEntity
  8
001
370
    50
100
AcDbVertex
100
AcDb2dVertex
 10
223.47685
 20
154.132284
 30
0.0
  0
VERTEX
  5
2BA
330
2AA
100
AcDbEntity
  8
001
370
    50
100
AcDbVertex
100
AcDb2dVertex
 10
223.577814
 20
154.139856
 30
0.0
  0
VERTEX
  5
2BB
330
2AA
100
AcDbEntity
  8
001
370
    50
100
AcDbVertex
100
AcDb2dVertex
 10
223.603915
 20
154.148386
 30
0.0
  0
VERTEX
  5
2BC
330
2AA
100
AcDbEntity
  8
001
370
    50
100
AcDbVertex
100
AcDb2dVertex
 10
223.629684
 20
154.158517
 30
0.0
  0
SEQEND
  5
2AB
330
2AA
100
AcDbEntity
  8
001
370
    50
  0
LINE
  5
2BD
330
1F
100
AcDbEntity
  8
001
370
    50
100
AcDbLine
 10
175.527741
 20
204.877657
 30
0.0
 11
170.090624
 21
199.227657
 31
0.0
  0
POLYLINE
  5
2BE
330
1F
100
AcDbEntity
  8
001
370
    50
100
AcDb2dPolyline
 66
     1
 10
0.0
 20
0.0
 30
0.0
  0
VERTEX
  5
2C0
330
2BE
100
AcDbEntity
  8
001
370
    50
100
AcDbVertex
100
AcDb2dVertex
 10
174.147147
 20
181.791874
 30
0.0
  0
VERTEX
  5
2C1
330
2BE
100
AcDbEntity
  8
001
370
    50
100
AcDbVertex
100
AcDb2dVertex
 10
174.424895
 20
181.564419
 30
0.0
  0
VERTEX
  5
2C2
330
2BE
100
AcDbEntity
  8
001
370
    50
100
AcDbVertex
100
AcDb2dVertex
 10
174.697712
 20
181.331457
 30
0.0
  0
VERTEX
  5
2C3
330
2BE
100
AcDbEntity
  8
001
370
    50
100
AcDbVertex
100
AcDb2dVertex
 10
175.080529
 20
180.975562
 30
0.0
  0
VERTEX
  5
2C4
330
2BE
100
AcDbEntity
  8
001
370
    50
100
AcDbVertex
100
AcDb2dVertex
 10
175.452874
 20
180.607972
 30
0.0
  0
SEQEND
  5
2BF
330
2BE
100
AcDbEntity
  8
001
370
    50
  0
POLYLINE
  5
2C5
330
1F
100
AcDbEntity
  8
001
370
    50
100
AcDb2dPolyline
 66
     1
 10
0.0
 20
0.0
 30
0.0
  0
VERTEX
  5
2C7
330
2C5
100
AcDbEntity
  8
001
370
    50
100
AcDbVertex
100
AcDb2dVertex
 10
172.799502
 20
182.799096
 30
0.0
  0
VERTEX
  5
2C8
330
2C5
100
AcDbEntity
  8
001
370
    50
100
AcDbVertex
100
AcDb2dVertex
 10
173.143798
 20
182.568677
 30
0.0
  0
VERTEX
  5
2C9
330
2C5
100
AcDbEntity
  8
001
370
    50
100
AcDbVertex
100
AcDb2dVertex
 10
173.481228
 20
182.32906
 30
0.0
  0
VERTEX
  5
2CA
330
2C5
100
AcDbEntity
  8
001
370
    50
100
AcDbVertex
100
AcDb2dVertex
 10
173.817852
 20
182.065377
 30
0.0
  0
VERTEX
  5
2CB
330
2C5
100
AcDbEntity
  8
001
370
    50
100
AcDbVertex
100
AcDb2dVertex
 10
174.147147
 20
181.791874
 30
0.0
  0
SEQEND
  5
2C6
330
2C5
100
AcDbEntity
  8
001
370
    50
  0
POLYLINE
  5
2CC
330
1F
100
AcDbEntity
  8
001
370
    50
100
AcDb2dPolyline
 66
     1
 10
0.0
 20
0.0
 30
0.0
  0
VERTEX
  5
2CE
330
2CC
100
AcDbEntity
  8
001
370
    50
100
AcDbVertex
100
AcDb2dVertex
 10
171.410314
 20
183.621284
 30
0.0
  0
VERTEX
  5
2CF
330
2CC
100
AcDbEntity
  8
001
370
    50
100
AcDbVertex
100
AcDb2dVertex
 10
171.764336
 20
183.4384
 30
0.0
  0
VERTEX
  5
2D0
330
2CC
100
AcDbEntity
  8
001
370
    50
100
AcDbVertex
100
AcDb2dVertex
 10
172.112125
 20
183.244971
 30
0.0
  0
VERTEX
  5
2D1
330
2CC
100
AcDbEntity
  8
001
370
    50
100
AcDbVertex
100
AcDb2dVertex
 10
172.459113
 20
183.027614
 30
0.0
  0
VERTEX
  5
2D2
330
2CC
100
AcDbEntity
  8
001
370
    50
100
AcDbVertex
100
AcDb2dVertex
 10
172.799502
 20
182.799096
 30
0.0
  0
SEQEND
  5
2CD
330
2CC
100
AcDbEntity
  8
001
370
    50
  0
POLYLINE
  5
2D3
330
1F
100
AcDbEntity
  8
001
370
    50
100
AcDb2dPolyline
 66
     1
 10
0.0
 20
0.0
 30
0.0
  0
VERTEX
  5
2D5
330
2D3
100
AcDbEntity
  8
001
370
    50
100
AcDbVertex
100
AcDb2dVertex
 10
170.090624
 20
184.212948
 30
0.0
  0
VERTEX
  5
2D6
330
2D3
100
AcDbEntity
  8
001
370
    50
100
AcDbVertex
100
AcDb2dVertex
 10
170.425649
 20
184.085313
 30
0.0
  0
VERTEX
  5
2D7
330
2D3
100
AcDbEntity
  8
001
370
    50
100
AcDbVertex
100
AcDb2dVertex
 10
170.75615
 20
183.947575
 30
0.0
  0
VERTEX
  5
2D8
330
2D3
100
AcDbEntity
  8
001
370
    50
100
AcDbVertex
100
AcDb2dVertex
 10
171.085587
 20
183.789688
 30
0.0
  0
VERTEX
  5
2D9
330
2D3
100
AcDbEntity
  8
001
370
    50
100
AcDbVertex
100
AcDb2dVertex
 10
171.410314
 20
183.621284
 30
0.0
  0
SEQEND
  5
2D4
330
2D3
100
AcDbEntity
  8
001
370
    50
  0
POLYLINE
  5
2DA
330
1F
100
AcDbEntity
  8
001
  6
DASHED
370
    50
100
AcDb2dPolyline
 66
     1
 10
0.0
 20
0.0
 30
0.0
  0
VERTEX
  5
2DC
330
2DA
100
AcDbEntity
  8
001
  6
DASHED
370
    50
100
AcDbVertex
100
AcDb2dVertex
 10
171.435851
 20
183.613961
 30
0.0
  0
VERTEX
  5
2DD
330
2DA
100
AcDbEntity
  8
001
  6
DASHED
370
    50
100
AcDbVertex
100
AcDb2dVertex
 10
171.433847
 20
183.61265
 30
0.0
  0
VERTEX
  5
2DE
330
2DA
100
AcDbEntity
  8
001
  6
DASHED
370
    50
100
AcDbVertex
100
AcDb2dVertex
 10
171.430921
 20
183.610729
 30
0.0
  0
VERTEX
  5
2DF
330
2DA
100
AcDbEntity
  8
001
  6
DASHED
370
    50
100
AcDbVertex
100
AcDb2dVertex
 10
171.427989
 20
183.608795
 30
0.0
  0
VERTEX
  5
2E0
330
2DA
100
AcDbEntity
  8
001
  6
DASHED
370
    50
100
AcDbVertex
100
AcDb2dVertex
 10
171.425985
 20
183.607468
 30
0.0
  0
SEQEND
  5
2DB
330
2DA
100
AcDbEntity
  8
001
  6
DASHED
370
    50
  0
LINE
  5
2E1
330
1F
100
AcDbEntity
  8
001
370
    50
100
AcDbLine
 10
169.997718
 20
184.235501
 30
0.0
 11
170.090624
 21
184.212948
 31
0.0
  0
LINE
  5
2E2
330
1F
100
AcDbEntity
  8
001
370
    50
100
AcDbLine
 10
170.090624
 20
199.227657
 30
0.0
 11
142.790624
 21
199.227657
 31
0.0
  0
LINE
  5
2E3
330
1F
100
AcDbEntity
  8
001
370
    50
100
AcDbLine
 10
168.780718
 20
184.572668
 30
0.0
 11
169.997718
 21
184.235501
 31
0.0
  0
LINE
  5
2E4
330
1F
100
AcDbEntity
  8
001
370
    50
100
AcDbLine
 10
167.563718
 20
184.908206
 30
0.0
 11
168.780718
 21
184.572668
 31
0.0
  0
LINE
  5
2E5
330
1F
100
AcDbEntity
  8
001
370
    50
100
AcDbLine
 10
166.346718
 20
185.242013
 30
0.0
 11
167.563718
 21
184.908206
 31
0.0
  0
LINE
  5
2E6
330
1F
100
AcDbEntity
  8
001
370
    50
100
AcDbLine
 10
165.129718
 20
185.573989
 30
0.0
 11
166.346718
 21
185.242013
 31
0.0
  0
LINE
  5
2E7
330
1F
100
AcDbEntity
  8
001
370
    50
100
AcDbLine
 10
163.912718
 20
185.904032
 30
0.0
 11
165.129718
 21
185.573989
 31
0.0
  0
LINE
  5
2E8
330
1F
100
AcDbEntity
  8
001
370
    50
100
AcDbLine
 10
162.695718
 20
186.232041
 30
0.0
 11
163.912718
 21
185.904032
 31
0.0
  0
LINE
  5
2E9
330
1F
100
AcDbEntity
  8
001
370
    50
100
AcDbLine
 10
161.478718
 20
186.557916
 30
0.0
 11
162.695718
 21
186.232041
 31
0.0
  0
LINE
  5
2EA
330
1F
100
AcDbEntity
  8
001
370
    50
100
AcDbLine
 10
160.261718
 20
186.881559
 30
0.0
 11
161.478718
 21
186.557916
 31
0.0
  0
LINE
  5
2EB
330
1F
100
AcDbEntity
  8
001
370
    50
100
AcDbLine
 10
159.044718
 20
187.20287
 30
0.0
 11
160.261718
 21
186.881559
 31
0.0
  0
LINE
  5
2EC
330
1F
100
AcDbEntity
  8
001
370
    50
100
AcDbLine
 10
157.827718
 20
187.521751
 30
0.0
 11
159.044718
 21
187.20287
 31
0.0
  0
LINE
  5
2ED
330
1F
100
AcDbEntity
  8
001
370
    50
100
AcDbLine
 10
156.610718
 20
187.838107
 30
0.0
 11
157.827718
 21
187.521751
 31
0.0
  0
LINE
  5
2EE
330
1F
100
AcDbEntity
  8
001
370
    50
100
AcDbLine
 10
155.393718
 20
188.151839
 30
0.0
 11
156.610718
 21
187.838107
 31
0.0
  0
LINE
  5
2EF
330
1F
100
AcDbEntity
  8
001
370
    50
100
AcDbLine
 10
154.176718
 20
188.462853
 30
0.0
 11
155.393718
 21
188.151839
 31
0.0
  0
LINE
  5
2F0
330
1F
100
AcDbEntity
  8
001
370
    50
100
AcDbLine
 10
152.959718
 20
188.771054
 30
0.0
 11
154.176718
 21
188.462853
 31
0.0
  0
LINE
  5
2F1
330
1F
100
AcDbEntity
  8
001
370
    50
100
AcDbLine
 10
151.742718
 20
189.076348
 30
0.0
 11
152.959718
 21
188.771054
 31
0.0
  0
LINE
  5
2F2
330
1F
100
AcDbEntity
  8
001
370
    50
100
AcDbLine
 10
150.525718
 20
189.378642
 30
0.0
 11
151.742718
 21
189.076348
 31
0.0
  0
LINE
  5
2F3
330
1F
100
AcDbEntity
  8
001
370
    50
100
AcDbLine
 10
149.308718
 20
189.677843
 30
0.0
 11
150.525718
 21
189.378642
 31
0.0
  0
LINE
  5
2F4
330
1F
100
AcDbEntity
  8
001
370
    50
100
AcDbLine
 10
148.091718
 20
189.973862
 30
0.0
 11
149.308718
 21
189.677843
 31
0.0
  0
LINE
  5
2F5
330
1F
100
AcDbEntity
  8
001
370
    50
100
AcDbLine
 10
146.874718
 20
190.266607
 30
0.0
 11
148.091718
 21
189.973862
 31
0.0
  0
LINE
  5
2F6
330
1F
100
AcDbEntity
  8
001
370
    50
100
AcDbLine
 10
145.657718
 20
190.55599
 30
0.0
 11
146.874718
 21
190.266607
 31
0.0
  0
LINE
  5
2F7
330
1F
100
AcDbEntity
  8
001
370
    50
100
AcDbLine
 10
144.440718
 20
190.841921
 30
0.0
 11
145.657718
 21
190.55599
 31
0.0
  0
LINE
  5
2F8
330
1F
100
AcDbEntity
  8
001
370
    50
100
AcDbLine
 10
143.223718
 20
191.124315
 30
0.0
 11
144.440718
 21
190.841921
 31
0.0
  0
LINE
  5
2F9
330
1F
100
AcDbEntity
  8
001
370
    50
100
AcDbLine
 10
142.790624
 20
191.232743
 30
0.0
 11
143.223718
 21
191.124315
 31
0.0
  0
POLYLINE
  5
2FA
330
1F
100
AcDbEntity
  8
001
370
    50
100
AcDb2dPolyline
 66
     1
 10
0.0
 20
0.0
 30
0.0
  0
VERTEX
  5
2FC
330
2FA
100
AcDbEntity
  8
001
370
    50
100
AcDbVertex
100
AcDb2dVertex
 10
153.840946
 20
159.678962
 30
0.0
  0
VERTEX
  5
2FD
330
2FA
100
AcDbEntity
  8
001
370
    50
100
AcDbVertex
100
AcDb2dVertex
 10
154.154049
 20
159.54706
 30
0.0
  0
VERTEX
  5
2FE
330
2FA
100
AcDbEntity
  8
001
370
    50
100
AcDbVertex
100
AcDb2dVertex
 10
154.623632
 20
159.390407
 30
0.0
  0
VERTEX
  5
2FF
330
2FA
100
AcDbEntity
  8
001
370
    50
100
AcDbVertex
100
AcDb2dVertex
 10
155.090275
 20
159.289542
 30
0.0
  0
VERTEX
  5
300
330
2FA
100
AcDbEntity
  8
001
370
    50
100
AcDbVertex
100
AcDb2dVertex
 10
155.414928
 20
159.2457
 30
0.0
  0
SEQEND
  5
2FB
330
2FA
100
AcDbEntity
  8
001
370
    50
  0
LINE
  5
301
330
1F
100
AcDbEntity
  8
001
370
    50
100
AcDbLine
 10
156.55749
 20
159.262146
 30
0.0
 11
155.414928
 21
159.2457
 31
0.0
  0
LINE
  5
302
330
1F
100
AcDbEntity
  8
001
370
    50
100
AcDbLine
 10
157.77449
 20
159.285676
 30
0.0
 11
156.55749
 21
159.262146
 31
0.0
  0
POLYLINE
  5
303
330
1F
100
AcDbEntity
  8
001
370
    50
100
AcDb2dPolyline
 66
     1
 10
0.0
 20
0.0
 30
0.0
  0
VERTEX
  5
305
330
303
100
AcDbEntity
  8
001
370
    50
100
AcDbVertex
100
AcDb2dVertex
 10
158.99149
 20
159.315281
 30
0.0
  0
VERTEX
  5
306
330
303
100
AcDbEntity
  8
001
370
    50
100
AcDbVertex
100
AcDb2dVertex
 10
158.58288
 20
159.30547
 30
0.0
  0
VERTEX
  5
307
330
303
100
AcDbEntity
  8
001
370
    50
100
AcDbVertex
100
AcDb2dVertex
 10
158.174272
 20
159.295547
 30
0.0
  0
VERTEX
  5
308
330
303
100
AcDbEntity
  8
001
370
    50
100
AcDbVertex
100
AcDb2dVertex
 10
157.974381
 20
159.290625
 30
0.0
  0
VERTEX
  5
309
330
303
100
AcDbEntity
  8
001
370
    50
100
AcDbVertex
100
AcDb2dVertex
 10
157.77449
 20
159.285676
 30
0.0
  0
SEQEND
  5
304
330
303
100
AcDbEntity
  8
001
370
    50
  0
LINE
  5
30A
330
1F
100
AcDbEntity
  8
001
370
    50
100
AcDbLine
 10
160.20849
 20
159.350951
 30
0.0
 11
158.99149
 21
159.315281
 31
0.0
  0
LINE
  5
30B
330
1F
100
AcDbEntity
  8
001
370
    50
100
AcDbLine
 10
161.42549
 20
159.392677
 30
0.0
 11
160.20849
 21
159.350951
 31
0.0
  0
LINE
  5
30C
330
1F
100
AcDbEntity
  8
001
370
    50
100
AcDbLine
 10
162.64249
 20
159.440444
 30
0.0
 11
161.42549
 21
159.392677
 31
0.0
  0
LINE
  5
30D
330
1F
100
AcDbEntity
  8
001
370
    50
100
AcDbLine
 10
163.85949
 20
159.494238
 30
0.0
 11
162.64249
 21
159.440444
 31
0.0
  0
POLYLINE
  5
30E
330
1F
100
AcDbEntity
  8
001
370
    50
100
AcDb2dPolyline
 66
     1
 10
0.0
 20
0.0
 30
0.0
  0
VERTEX
  5
310
330
30E
100
AcDbEntity
  8
001
370
    50
100
AcDbVertex
100
AcDb2dVertex
 10
165.07649
 20
159.554043
 30
0.0
  0
VERTEX
  5
311
330
30E
100
AcDbEntity
  8
001
370
    50
100
AcDbVertex
100
AcDb2dVertex
 10
164.506314
 20
159.526882
 30
0.0
  0
VERTEX
  5
312
330
30E
100
AcDbEntity
  8
001
370
    50
100
AcDbVertex
100
AcDb2dVertex
 10
163.936212
 20
159.498269
 30
0.0
  0
VERTEX
  5
313
330
30E
100
AcDbEntity
  8
001
370
    50
100
AcDbVertex
100
AcDb2dVertex
 10
163.897851
 20
159.496257
 30
0.0
  0
VERTEX
  5
314
330
30E
100
AcDbEntity
  8
001
370
    50
100
AcDbVertex
100
AcDb2dVertex
 10
163.85949
 20
159.494238
 30
0.0
  0
SEQEND
  5
30F
330
30E
100
AcDbEntity
  8
001
370
    50
  0
POLYLINE
  5
315
330
1F
100
AcDbEntity
  8
001
370
    50
100
AcDb2dPolyline
 66
     1
 10
0.0
 20
0.0
 30
0.0
  0
VERTEX
  5
317
330
315
100
AcDbEntity
  8
001
370
    50
100
AcDbVertex
100
AcDb2dVertex
 10
163.912718
 20
185.904032
 30
0.0
  0
VERTEX
  5
318
330
315
100
AcDbEntity
  8
001
370
    50
100
AcDbVertex
100
AcDb2dVertex
 10
163.909179
 20
185.905009
 30
0.0
  0
VERTEX
  5
319
330
315
100
AcDbEntity
  8
001
370
    50
100
AcDbVertex
100
AcDb2dVertex
 10
163.903992
 20
185.906382
 30
0.0
  0
VERTEX
  5
31A
330
315
100
AcDbEntity
  8
001
370
    50
100
AcDbVertex
100
AcDb2dVertex
 10
163.898783
 20
185.907678
 30
0.0
  0
VERTEX
  5
31B
330
315
100
AcDbEntity
  8
001
370
    50
100
AcDbVertex
100
AcDb2dVertex
 10
163.89521
 20
185.908527
 30
0.0
  0
SEQEND
  5
316
330
315
100
AcDbEntity
  8
001
370
    50
  0
POLYLINE
  5
31C
330
1F
100
AcDbEntity
  8
001
370
    50
100
AcDb2dPolyline
 66
     1
 10
0.0
 20
0.0
 30
0.0
  0
VERTEX
  5
31E
330
31C
100
AcDbEntity
  8
001
370
    50
100
AcDbVertex
100
AcDb2dVertex
 10
157.06448
 20
172.470311
 30
0.0
  0
VERTEX
  5
31F
330
31C
100
AcDbEntity
  8
001
370
    50
100
AcDbVertex
100
AcDb2dVertex
 10
157.008861
 20
172.695743
 30
0.0
  0
VERTEX
  5
320
330
31C
100
AcDbEntity
  8
001
370
    50
100
AcDbVertex
100
AcDb2dVertex
 10
156.942482
 20
172.917843
 30
0.0
  0
VERTEX
  5
321
330
31C
100
AcDbEntity
  8
001
370
    50
100
AcDbVertex
100
AcDb2dVertex
 10
156.855169
 20
173.137181
 30
0.0
  0
VERTEX
  5
322
330
31C
100
AcDbEntity
  8
001
370
    50
100
AcDbVertex
100
AcDb2dVertex
 10
156.748331
 20
173.347853
 30
0.0
  0
VERTEX
  5
323
330
31C
100
AcDbEntity
  8
001
370
    50
100
AcDbVertex
100
AcDb2dVertex
 10
156.714447
 20
173.406723
 30
0.0
  0
VERTEX
  5
324
330
31C
100
AcDbEntity
  8
001
370
    50
100
AcDbVertex
100
AcDb2dVertex
 10
156.679868
 20
173.46516
 30
0.0
  0
SEQEND
  5
31D
330
31C
100
AcDbEntity
  8
001
370
    50
  0
POLYLINE
  5
325
330
1F
100
AcDbEntity
  8
001
370
    50
100
AcDb2dPolyline
 66
     1
 10
0.0
 20
0.0
 30
0.0
  0
VERTEX
  5
327
330
325
100
AcDbEntity
  8
001
370
    50
100
AcDbVertex
100
AcDb2dVertex
 10
155.954094
 20
174.248532
 30
0.0
  0
VERTEX
  5
328
330
325
100
AcDbEntity
  8
001
370
    50
100
AcDbVertex
100
AcDb2dVertex
 10
155.912395
 20
174.278535
 30
0.0
  0
VERTEX
  5
329
330
325
100
AcDbEntity
  8
001
370
    50
100
AcDbVertex
100
AcDb2dVertex
 10
155.870304
 20
174.30796
 30
0.0
  0
VERTEX
  5
32A
330
325
100
AcDbEntity
  8
001
370
    50
100
AcDbVertex
100
AcDb2dVertex
 10
155.806489
 20
174.349944
 30
0.0
  0
VERTEX
  5
32B
330
325
100
AcDbEntity
  8
001
370
    50
100
AcDbVertex
100
AcDb2dVertex
 10
155.741807
 20
174.390648
 30
0.0
  0
SEQEND
  5
326
330
325
100
AcDbEntity
  8
001
370
    50
  0
LINE
  5
32C
330
1F
100
AcDbEntity
  8
001
370
    50
100
AcDbLine
 10
156.679868
 20
173.46516
 30
0.0
 11
156.603522
 21
173.580677
 31
0.0
  0
POLYLINE
  5
32D
330
1F
100
AcDbEntity
  8
001
370
    50
100
AcDb2dPolyline
 66
     1
 10
0.0
 20
0.0
 30
0.0
  0
VERTEX
  5
32F
330
32D
100
AcDbEntity
  8
001
370
    50
100
AcDbVertex
100
AcDb2dVertex
 10
155.741807
 20
174.390648
 30
0.0
  0
VERTEX
  5
330
330
32D
100
AcDbEntity
  8
001
370
    50
100
AcDbVertex
100
AcDb2dVertex
 10
155.576237
 20
174.479533
 30
0.0
  0
VERTEX
  5
331
330
32D
100
AcDbEntity
  8
001
370
    50
100
AcDbVertex
100
AcDb2dVertex
 10
155.407475
 20
174.561853
 30
0.0
  0
VERTEX
  5
332
330
32D
100
AcDbEntity
  8
001
370
    50
100
AcDbVertex
100
AcDb2dVertex
 10
155.229782
 20
174.633229
 30
0.0
  0
VERTEX
  5
333
330
32D
100
AcDbEntity
  8
001
370
    50
100
AcDbVertex
100
AcDb2dVertex
 10
155.047024
 20
174.690361
 30
0.0
  0
VERTEX
  5
334
330
32D
100
AcDbEntity
  8
001
370
    50
100
AcDbVertex
100
AcDb2dVertex
 10
154.842217
 20
174.737614
 30
0.0
  0
VERTEX
  5
335
330
32D
100
AcDbEntity
  8
001
370
    50
100
AcDbVertex
100
AcDb2dVertex
 10
154.635295
 20
174.775894
 30
0.0
  0
SEQEND
  5
32E
330
32D
100
AcDbEntity
  8
001
370
    50
  0
POLYLINE
  5
336
330
1F
100
AcDbEntity
  8
001
370
    50
100
AcDb2dPolyline
 66
     1
 10
0.0
 20
0.0
 30
0.0
  0
VERTEX
  5
338
330
336
100
AcDbEntity
  8
001
370
    50
100
AcDbVertex
100
AcDb2dVertex
 10
154.635295
 20
174.775894
 30
0.0
  0
VERTEX
  5
339
330
336
100
AcDbEntity
  8
001
370
    50
100
AcDbVertex
100
AcDb2dVertex
 10
154.489884
 20
174.790664
 30
0.0
  0
VERTEX
  5
33A
330
336
100
AcDbEntity
  8
001
370
    50
100
AcDbVertex
100
AcDb2dVertex
 10
154.344208
 20
174.800172
 30
0.0
  0
VERTEX
  5
33B
330
336
100
AcDbEntity
  8
001
370
    50
100
AcDbVertex
100
AcDb2dVertex
 10
154.290943
 20
174.801458
 30
0.0
  0
VERTEX
  5
33C
330
336
100
AcDbEntity
  8
001
370
    50
100
AcDbVertex
100
AcDb2dVertex
 10
154.237643
 20
174.802044
 30
0.0
  0
SEQEND
  5
337
330
336
100
AcDbEntity
  8
001
370
    50
  0
POLYLINE
  5
33D
330
1F
100
AcDbEntity
  8
001
370
    50
100
AcDb2dPolyline
 66
     1
 10
0.0
 20
0.0
 30
0.0
  0
VERTEX
  5
33F
330
33D
100
AcDbEntity
  8
001
370
    50
100
AcDbVertex
100
AcDb2dVertex
 10
153.375327
 20
174.678287
 30
0.0
  0
VERTEX
  5
340
330
33D
100
AcDbEntity
  8
001
370
    50
100
AcDbVertex
100
AcDb2dVertex
 10
153.358848
 20
174.673451
 30
0.0
  0
VERTEX
  5
341
330
33D
100
AcDbEntity
  8
001
370
    50
100
AcDbVertex
100
AcDb2dVertex
 10
153.342382
 20
174.668567
 30
0.0
  0
VERTEX
  5
342
330
33D
100
AcDbEntity
  8
001
370
    50
100
AcDbVertex
100
AcDb2dVertex
 10
153.096966
 20
174.583583
 30
0.0
  0
VERTEX
  5
343
330
33D
100
AcDbEntity
  8
001
370
    50
100
AcDbVertex
100
AcDb2dVertex
 10
152.859173
 20
174.478462
 30
0.0
  0
VERTEX
  5
344
330
33D
100
AcDbEntity
  8
001
370
    50
100
AcDbVertex
100
AcDb2dVertex
 10
152.624432
 20
174.35069
 30
0.0
  0
VERTEX
  5
345
330
33D
100
AcDbEntity
  8
001
370
    50
100
AcDbVertex
100
AcDb2dVertex
 10
152.402059
 20
174.202987
 30
0.0
  0
VERTEX
  5
346
330
33D
100
AcDbEntity
  8
001
370
    50
100
AcDbVertex
100
AcDb2dVertex
 10
152.355256
 20
174.168065
 30
0.0
  0
VERTEX
  5
347
330
33D
100
AcDbEntity
  8
001
370
    50
100
AcDbVertex
100
AcDb2dVertex
 10
152.308815
 20
174.13266
 30
0.0
  0
SEQEND
  5
33E
330
33D
100
AcDbEntity
  8
001
370
    50
  0
POLYLINE
  5
348
330
1F
100
AcDbEntity
  8
001
370
    50
100
AcDb2dPolyline
 66
     1
 10
0.0
 20
0.0
 30
0.0
  0
VERTEX
  5
34A
330
348
100
AcDbEntity
  8
001
370
    50
100
AcDbVertex
100
AcDb2dVertex
 10
151.973961
 20
174.124699
 30
0.0
  0
VERTEX
  5
34B
330
348
100
AcDbEntity
  8
001
370
    50
100
AcDbVertex
100
AcDb2dVertex
 10
152.041952
 20
174.126173
 30
0.0
  0
VERTEX
  5
34C
330
348
100
AcDbEntity
  8
001
370
    50
100
AcDbVertex
100
AcDb2dVertex
 10
152.14132
 20
174.12845
 30
0.0
  0
VERTEX
  5
34D
330
348
100
AcDbEntity
  8
001
370
    50
100
AcDbVertex
100
AcDb2dVertex
 10
152.240772
 20
174.1309
 30
0.0
  0
VERTEX
  5
34E
330
348
100
AcDbEntity
  8
001
370
    50
100
AcDbVertex
100
AcDb2dVertex
 10
152.308815
 20
174.13266
 30
0.0
  0
SEQEND
  5
349
330
348
100
AcDbEntity
  8
001
370
    50
  0
POLYLINE
  5
34F
330
1F
100
AcDbEntity
  8
001
370
    50
100
AcDb2dPolyline
 66
     1
 10
0.0
 20
0.0
 30
0.0
  0
VERTEX
  5
351
330
34F
100
AcDbEntity
  8
001
370
    50
100
AcDbVertex
100
AcDb2dVertex
 10
150.733468
 20
174.086722
 30
0.0
  0
VERTEX
  5
352
330
34F
100
AcDbEntity
  8
001
370
    50
100
AcDbVertex
100
AcDb2dVertex
 10
150.985215
 20
174.092508
 30
0.0
  0
VERTEX
  5
353
330
34F
100
AcDbEntity
  8
001
370
    50
100
AcDbVertex
100
AcDb2dVertex
 10
151.353109
 20
174.102618
 30
0.0
  0
VERTEX
  5
354
330
34F
100
AcDbEntity
  8
001
370
    50
100
AcDbVertex
100
AcDb2dVertex
 10
151.721762
 20
174.115056
 30
0.0
  0
VERTEX
  5
355
330
34F
100
AcDbEntity
  8
001
370
    50
100
AcDbVertex
100
AcDb2dVertex
 10
151.973961
 20
174.124699
 30
0.0
  0
SEQEND
  5
350
330
34F
100
AcDbEntity
  8
001
370
    50
  0
POLYLINE
  5
356
330
1F
100
AcDbEntity
  8
001
370
    50
100
AcDb2dPolyline
 66
     1
 10
0.0
 20
0.0
 30
0.0
  0
VERTEX
  5
358
330
356
100
AcDbEntity
  8
001
370
    50
100
AcDbVertex
100
AcDb2dVertex
 10
149.492871
 20
174.049342
 30
0.0
  0
VERTEX
  5
359
330
356
100
AcDbEntity
  8
001
370
    50
100
AcDbVertex
100
AcDb2dVertex
 10
149.744633
 20
174.055026
 30
0.0
  0
VERTEX
  5
35A
330
356
100
AcDbEntity
  8
001
370
    50
100
AcDbVertex
100
AcDb2dVertex
 10
150.112547
 20
174.064971
 30
0.0
  0
VERTEX
  5
35B
330
356
100
AcDbEntity
  8
001
370
    50
100
AcDbVertex
100
AcDb2dVertex
 10
150.481241
 20
174.07722
 30
0.0
  0
VERTEX
  5
35C
330
356
100
AcDbEntity
  8
001
370
    50
100
AcDbVertex
100
AcDb2dVertex
 10
150.733468
 20
174.086722
 30
0.0
  0
SEQEND
  5
357
330
356
100
AcDbEntity
  8
001
370
    50
  0
POLYLINE
  5
35D
330
1F
100
AcDbEntity
  8
001
370
    50
100
AcDb2dPolyline
 66
     1
 10
0.0
 20
0.0
 30
0.0
  0
VERTEX
  5
35F
330
35D
100
AcDbEntity
  8
001
370
    50
100
AcDbVertex
100
AcDb2dVertex
 10
148.25215
 20
174.012562
 30
0.0
  0
VERTEX
  5
360
330
35D
100
AcDbEntity
  8
001
370
    50
100
AcDbVertex
100
AcDb2dVertex
 10
148.50393
 20
174.018142
 30
0.0
  0
VERTEX
  5
361
330
35D
100
AcDbEntity
  8
001
370
    50
100
AcDbVertex
100
AcDb2dVertex
 10
148.871872
 20
174.02792
 30
0.0
  0
VERTEX
  5
362
330
35D
100
AcDbEntity
  8
001
370
    50
100
AcDbVertex
100
AcDb2dVertex
 10
149.240612
 20
174.03998
 30
0.0
  0
VERTEX
  5
363
330
35D
100
AcDbEntity
  8
001
370
    50
100
AcDbVertex
100
AcDb2dVertex
 10
149.492871
 20
174.049342
 30
0.0
  0
SEQEND
  5
35E
330
35D
100
AcDbEntity
  8
001
370
    50
  0
POLYLINE
  5
364
330
1F
100
AcDbEntity
  8
001
370
    50
100
AcDb2dPolyline
 66
     1
 10
0.0
 20
0.0
 30
0.0
  0
VERTEX
  5
366
330
364
100
AcDbEntity
  8
001
370
    50
100
AcDbVertex
100
AcDb2dVertex
 10
147.240075
 20
173.981253
 30
0.0
  0
VERTEX
  5
367
330
364
100
AcDbEntity
  8
001
370
    50
100
AcDbVertex
100
AcDb2dVertex
 10
147.44551
 20
173.986368
 30
0.0
  0
VERTEX
  5
368
330
364
100
AcDbEntity
  8
001
370
    50
100
AcDbVertex
100
AcDb2dVertex
 10
147.745731
 20
173.994911
 30
0.0
  0
VERTEX
  5
369
330
364
100
AcDbEntity
  8
001
370
    50
100
AcDbVertex
100
AcDb2dVertex
 10
148.046432
 20
174.004957
 30
0.0
  0
VERTEX
  5
36A
330
364
100
AcDbEntity
  8
001
370
    50
100
AcDbVertex
100
AcDb2dVertex
 10
148.25215
 20
174.012562
 30
0.0
  0
SEQEND
  5
365
330
364
100
AcDbEntity
  8
001
370
    50
  0
LINE
  5
36B
330
1F
100
AcDbEntity
  8
001
370
    50
100
AcDbLine
 10
147.240075
 20
173.981253
 30
0.0
 11
147.009142
 21
173.969308
 31
0.0
  0
POLYLINE
  5
36C
330
1F
100
AcDbEntity
  8
001
370
    50
100
AcDb2dPolyline
 66
     1
 10
0.0
 20
0.0
 30
0.0
  0
VERTEX
  5
36E
330
36C
100
AcDbEntity
  8
001
370
    50
100
AcDbVertex
100
AcDb2dVertex
 10
147.009142
 20
173.969308
 30
0.0
  0
VERTEX
  5
36F
330
36C
100
AcDbEntity
  8
001
370
    50
100
AcDbVertex
100
AcDb2dVertex
 10
146.726525
 20
173.927963
 30
0.0
  0
VERTEX
  5
370
330
36C
100
AcDbEntity
  8
001
370
    50
100
AcDbVertex
100
AcDb2dVertex
 10
146.446269
 20
173.874699
 30
0.0
  0
VERTEX
  5
371
330
36C
100
AcDbEntity
  8
001
370
    50
100
AcDbVertex
100
AcDb2dVertex
 10
146.165401
 20
173.798265
 30
0.0
  0
VERTEX
  5
372
330
36C
100
AcDbEntity
  8
001
370
    50
100
AcDbVertex
100
AcDb2dVertex
 10
145.891537
 20
173.699279
 30
0.0
  0
VERTEX
  5
373
330
36C
100
AcDbEntity
  8
001
370
    50
100
AcDbVertex
100
AcDb2dVertex
 10
145.779749
 20
173.652137
 30
0.0
  0
VERTEX
  5
374
330
36C
100
AcDbEntity
  8
001
370
    50
100
AcDbVertex
100
AcDb2dVertex
 10
145.668752
 20
173.603226
 30
0.0
  0
SEQEND
  5
36D
330
36C
100
AcDbEntity
  8
001
370
    50
  0
POLYLINE
  5
375
330
1F
100
AcDbEntity
  8
001
370
    50
100
AcDb2dPolyline
 66
     1
 10
0.0
 20
0.0
 30
0.0
  0
VERTEX
  5
377
330
375
100
AcDbEntity
  8
001
370
    50
100
AcDbVertex
100
AcDb2dVertex
 10
145.668752
 20
173.603226
 30
0.0
  0
VERTEX
  5
378
330
375
100
AcDbEntity
  8
001
370
    50
100
AcDbVertex
100
AcDb2dVertex
 10
145.407411
 20
173.461671
 30
0.0
  0
VERTEX
  5
379
330
375
100
AcDbEntity
  8
001
370
    50
100
AcDbVertex
100
AcDb2dVertex
 10
145.153013
 20
173.308793
 30
0.0
  0
VERTEX
  5
37A
330
375
100
AcDbEntity
  8
001
370
    50
100
AcDbVertex
100
AcDb2dVertex
 10
144.906501
 20
173.131774
 30
0.0
  0
VERTEX
  5
37B
330
375
100
AcDbEntity
  8
001
370
    50
100
AcDbVertex
100
AcDb2dVertex
 10
144.675574
 20
172.934624
 30
0.0
  0
VERTEX
  5
37C
330
375
100
AcDbEntity
  8
001
370
    50
100
AcDbVertex
100
AcDb2dVertex
 10
144.606726
 20
172.869642
 30
0.0
  0
VERTEX
  5
37D
330
375
100
AcDbEntity
  8
001
370
    50
100
AcDbVertex
100
AcDb2dVertex
 10
144.53869
 20
172.80385
 30
0.0
  0
SEQEND
  5
376
330
375
100
AcDbEntity
  8
001
370
    50
  0
POLYLINE
  5
37E
330
1F
100
AcDbEntity
  8
001
370
    50
100
AcDb2dPolyline
 66
     1
 10
0.0
 20
0.0
 30
0.0
  0
VERTEX
  5
380
330
37E
100
AcDbEntity
  8
001
370
    50
100
AcDbVertex
100
AcDb2dVertex
 10
144.471451
 20
172.736584
 30
0.0
  0
VERTEX
  5
381
330
37E
100
AcDbEntity
  8
001
370
    50
100
AcDbVertex
100
AcDb2dVertex
 10
144.485112
 20
172.750243
 30
0.0
  0
VERTEX
  5
382
330
37E
100
AcDbEntity
  8
001
370
    50
100
AcDbVertex
100
AcDb2dVertex
 10
144.505075
 20
172.770208
 30
0.0
  0
VERTEX
  5
383
330
37E
100
AcDbEntity
  8
001
370
    50
100
AcDbVertex
100
AcDb2dVertex
 10
144.525035
 20
172.790182
 30
0.0
  0
VERTEX
  5
384
330
37E
100
AcDbEntity
  8
001
370
    50
100
AcDbVertex
100
AcDb2dVertex
 10
144.53869
 20
172.80385
 30
0.0
  0
SEQEND
  5
37F
330
37E
100
AcDbEntity
  8
001
370
    50
  0
LINE
  5
385
330
1F
100
AcDbEntity
  8
001
370
    50
100
AcDbLine
 10
142.224531
 20
188.948408
 30
0.0
 11
142.790624
 21
189.201358
 31
0.0
  0
LINE
  5
386
330
1F
100
AcDbEntity
  8
001
370
    50
100
AcDbLine
 10
229.290624
 20
195.227657
 30
0.0
 11
298.290624
 21
195.227657
 31
0.0
  0
LINE
  5
387
330
1F
100
AcDbEntity
  8
001
370
    50
100
AcDbLine
 10
229.290624
 20
163.227657
 30
0.0
 11
298.290624
 21
163.227657
 31
0.0
  0
ARC
  5
388
330
1F
100
AcDbEntity
  8
001
370
    50
100
AcDbCircle
 10
298.290624
 20
187.227657
 30
0.0
 40
8.000000000000007
100
AcDbArc
 50
0.0
 51
90.0
  0
ARC
  5
389
330
1F
100
AcDbEntity
  8
001
370
    50
100
AcDbCircle
 10
298.290624
 20
171.227657
 30
0.0
 40
8.000000000000007
100
AcDbArc
 50
270.0
 51
0.0
  0
LINE
  5
38A
330
1F
100
AcDbEntity
  8
001
370
    50
100
AcDbLine
 10
306.290624
 20
187.227657
 30
0.0
 11
306.290624
 21
171.227657
 31
0.0
  0
LINE
  5
38B
330
1F
100
AcDbEntity
  8
001
370
    50
100
AcDbLine
 10
142.790624
 20
194.550952
 30
0.0
 11
140.890624
 21
192.527657
 31
0.0
  0
POLYLINE
  5
38C
330
1F
100
AcDbEntity
  8
001
370
    50
100
AcDb2dPolyline
 66
     1
 10
0.0
 20
0.0
 30
0.0
  0
VERTEX
  5
38E
330
38C
100
AcDbEntity
  8
001
370
    50
100
AcDbVertex
100
AcDb2dVertex
 10
140.890624
 20
188.28175
 30
0.0
  0
VERTEX
  5
38F
330
38C
100
AcDbEntity
  8
001
370
    50
100
AcDbVertex
100
AcDb2dVertex
 10
141.223418
 20
188.463078
 30
0.0
  0
VERTEX
  5
390
330
38C
100
AcDbEntity
  8
001
370
    50
100
AcDbVertex
100
AcDb2dVertex
 10
141.559558
 20
188.637703
 30
0.0
  0
VERTEX
  5
391
330
38C
100
AcDbEntity
  8
001
370
    50
100
AcDbVertex
100
AcDb2dVertex
 10
141.890475
 20
188.7962
 30
0.0
  0
VERTEX
  5
392
330
38C
100
AcDbEntity
  8
001
370
    50
100
AcDbVertex
100
AcDb2dVertex
 10
142.224531
 20
188.948408
 30
0.0
  0
SEQEND
  5
38D
330
38C
100
AcDbEntity
  8
001
370
    50
  0
POLYLINE
  5
393
330
1F
100
AcDbEntity
  8
001
370
    50
100
AcDb2dPolyline
 66
     1
 10
0.0
 20
0.0
 30
0.0
  0
VERTEX
  5
395
330
393
100
AcDbEntity
  8
001
370
    50
100
AcDbVertex
100
AcDb2dVertex
 10
140.890624
 20
171.880467
 30
0.0
  0
VERTEX
  5
396
330
393
100
AcDbEntity
  8
001
370
    50
100
AcDbVertex
100
AcDb2dVertex
 10
141.051423
 20
171.883228
 30
0.0
  0
VERTEX
  5
397
330
393
100
AcDbEntity
  8
001
370
    50
100
AcDbVertex
100
AcDb2dVertex
 10
141.286424
 20
171.887873
 30
0.0
  0
VERTEX
  5
398
330
393
100
AcDbEntity
  8
001
370
    50
100
AcDbVertex
100
AcDb2dVertex
 10
141.52169
 20
171.893375
 30
0.0
  0
VERTEX
  5
399
330
393
100
AcDbEntity
  8
001
370
    50
100
AcDbVertex
100
AcDb2dVertex
 10
141.682652
 20
171.897556
 30
0.0
  0
SEQEND
  5
394
330
393
100
AcDbEntity
  8
001
370
    50
  0
POLYLINE
  5
39A
330
1F
100
AcDbEntity
  8
001
370
    50
100
AcDb2dPolyline
 66
     1
 10
0.0
 20
0.0
 30
0.0
  0
VERTEX
  5
39C
330
39A
100
AcDbEntity
  8
001
370
    50
100
AcDbVertex
100
AcDb2dVertex
 10
141.682652
 20
171.897556
 30
0.0
  0
VERTEX
  5
39D
330
39A
100
AcDbEntity
  8
001
370
    50
100
AcDbVertex
100
AcDb2dVertex
 10
141.930894
 20
171.900527
 30
0.0
  0
VERTEX
  5
39E
330
39A
100
AcDbEntity
  8
001
370
    50
100
AcDbVertex
100
AcDb2dVertex
 10
142.293686
 20
171.906332
 30
0.0
  0
VERTEX
  5
39F
330
39A
100
AcDbEntity
  8
001
370
    50
100
AcDbVertex
100
AcDb2dVertex
 10
142.657202
 20
171.914192
 30
0.0
  0
VERTEX
  5
3A0
330
39A
100
AcDbEntity
  8
001
370
    50
100
AcDbVertex
100
AcDb2dVertex
 10
142.905901
 20
171.920572
 30
0.0
  0
SEQEND
  5
39B
330
39A
100
AcDbEntity
  8
001
370
    50
  0
POLYLINE
  5
3A1
330
1F
100
AcDbEntity
  8
001
370
    50
100
AcDb2dPolyline
 66
     1
 10
0.0
 20
0.0
 30
0.0
  0
VERTEX
  5
3A3
330
3A1
100
AcDbEntity
  8
001
370
    50
100
AcDbVertex
100
AcDb2dVertex
 10
142.905901
 20
171.920572
 30
0.0
  0
VERTEX
  5
3A4
330
3A1
100
AcDbEntity
  8
001
370
    50
100
AcDbVertex
100
AcDb2dVertex
 10
143.060678
 20
171.922354
 30
0.0
  0
VERTEX
  5
3A5
330
3A1
100
AcDbEntity
  8
001
370
    50
100
AcDbVertex
100
AcDb2dVertex
 10
143.286881
 20
171.925531
 30
0.0
  0
VERTEX
  5
3A6
330
3A1
100
AcDbEntity
  8
001
370
    50
100
AcDbVertex
100
AcDb2dVertex
 10
143.513405
 20
171.929511
 30
0.0
  0
VERTEX
  5
3A7
330
3A1
100
AcDbEntity
  8
001
370
    50
100
AcDbVertex
100
AcDb2dVertex
 10
143.668388
 20
171.932626
 30
0.0
  0
SEQEND
  5
3A2
330
3A1
100
AcDbEntity
  8
001
370
    50
  0
POLYLINE
  5
3A8
330
1F
100
AcDbEntity
  8
001
370
    50
100
AcDb2dPolyline
 66
     1
 10
0.0
 20
0.0
 30
0.0
  0
VERTEX
  5
3AA
330
3A8
100
AcDbEntity
  8
001
370
    50
100
AcDbVertex
100
AcDb2dVertex
 10
143.668388
 20
171.932626
 30
0.0
  0
VERTEX
  5
3AB
330
3A8
100
AcDbEntity
  8
001
370
    50
100
AcDbVertex
100
AcDb2dVertex
 10
143.770772
 20
172.035053
 30
0.0
  0
VERTEX
  5
3AC
330
3A8
100
AcDbEntity
  8
001
370
    50
100
AcDbVertex
100
AcDb2dVertex
 10
143.92028
 20
172.184882
 30
0.0
  0
VERTEX
  5
3AD
330
3A8
100
AcDbEntity
  8
001
370
    50
100
AcDbVertex
100
AcDb2dVertex
 10
144.069989
 20
172.335272
 30
0.0
  0
VERTEX
  5
3AE
330
3A8
100
AcDbEntity
  8
001
370
    50
100
AcDbVertex
100
AcDb2dVertex
 10
144.172334
 20
172.438258
 30
0.0
  0
SEQEND
  5
3A9
330
3A8
100
AcDbEntity
  8
001
370
    50
  0
POLYLINE
  5
3AF
330
1F
100
AcDbEntity
  8
001
370
    50
100
AcDb2dPolyline
 66
     1
 10
0.0
 20
0.0
 30
0.0
  0
VERTEX
  5
3B1
330
3AF
100
AcDbEntity
  8
001
370
    50
100
AcDbVertex
100
AcDb2dVertex
 10
144.172334
 20
172.438258
 30
0.0
  0
VERTEX
  5
3B2
330
3AF
100
AcDbEntity
  8
001
370
    50
100
AcDbVertex
100
AcDb2dVertex
 10
144.233088
 20
172.498745
 30
0.0
  0
VERTEX
  5
3B3
330
3AF
100
AcDbEntity
  8
001
370
    50
100
AcDbVertex
100
AcDb2dVertex
 10
144.321837
 20
172.587195
 30
0.0
  0
VERTEX
  5
3B4
330
3AF
100
AcDbEntity
  8
001
370
    50
100
AcDbVertex
100
AcDb2dVertex
 10
144.410689
 20
172.675876
 30
0.0
  0
VERTEX
  5
3B5
330
3AF
100
AcDbEntity
  8
001
370
    50
100
AcDbVertex
100
AcDb2dVertex
 10
144.471451
 20
172.736584
 30
0.0
  0
SEQEND
  5
3B0
330
3AF
100
AcDbEntity
  8
001
370
    50
  0
POLYLINE
  5
3B6
330
1F
100
AcDbEntity
  8
001
370
    50
100
AcDb2dPolyline
 66
     1
 10
0.0
 20
0.0
 30
0.0
  0
VERTEX
  5
3B8
330
3B6
100
AcDbEntity
  8
001
370
    50
100
AcDbVertex
100
AcDb2dVertex
 10
154.237643
 20
174.802044
 30
0.0
  0
VERTEX
  5
3B9
330
3B6
100
AcDbEntity
  8
001
370
    50
100
AcDbVertex
100
AcDb2dVertex
 10
154.048931
 20
174.794727
 30
0.0
  0
VERTEX
  5
3BA
330
3B6
100
AcDbEntity
  8
001
370
    50
100
AcDbVertex
100
AcDb2dVertex
 10
153.861367
 20
174.778811
 30
0.0
  0
VERTEX
  5
3BB
330
3B6
100
AcDbEntity
  8
001
370
    50
100
AcDbVertex
100
AcDb2dVertex
 10
153.617352
 20
174.736002
 30
0.0
  0
VERTEX
  5
3BC
330
3B6
100
AcDbEntity
  8
001
370
    50
100
AcDbVertex
100
AcDb2dVertex
 10
153.375327
 20
174.678287
 30
0.0
  0
SEQEND
  5
3B7
330
3B6
100
AcDbEntity
  8
001
370
    50
  0
POLYLINE
  5
3BD
330
1F
100
AcDbEntity
  8
001
370
    50
100
AcDb2dPolyline
 66
     1
 10
0.0
 20
0.0
 30
0.0
  0
VERTEX
  5
3BF
330
3BD
100
AcDbEntity
  8
001
370
    50
100
AcDbVertex
100
AcDb2dVertex
 10
156.240675
 20
169.755622
 30
0.0
  0
VERTEX
  5
3C0
330
3BD
100
AcDbEntity
  8
001
370
    50
100
AcDbVertex
100
AcDb2dVertex
 10
156.382749
 20
169.918798
 30
0.0
  0
VERTEX
  5
3C1
330
3BD
100
AcDbEntity
  8
001
370
    50
100
AcDbVertex
100
AcDb2dVertex
 10
156.51748
 20
170.08761
 30
0.0
  0
VERTEX
  5
3C2
330
3BD
100
AcDbEntity
  8
001
370
    50
100
AcDbVertex
100
AcDb2dVertex
 10
156.640923
 20
170.269517
 30
0.0
  0
VERTEX
  5
3C3
330
3BD
100
AcDbEntity
  8
001
370
    50
100
AcDbVertex
100
AcDb2dVertex
 10
156.750453
 20
170.460523
 30
0.0
  0
VERTEX
  5
3C4
330
3BD
100
AcDbEntity
  8
001
370
    50
100
AcDbVertex
100
AcDb2dVertex
 10
156.859222
 20
170.686191
 30
0.0
  0
VERTEX
  5
3C5
330
3BD
100
AcDbEntity
  8
001
370
    50
100
AcDbVertex
100
AcDb2dVertex
 10
156.94998
 20
170.919438
 30
0.0
  0
VERTEX
  5
3C6
330
3BD
100
AcDbEntity
  8
001
370
    50
100
AcDbVertex
100
AcDb2dVertex
 10
157.022759
 20
171.164522
 30
0.0
  0
VERTEX
  5
3C7
330
3BD
100
AcDbEntity
  8
001
370
    50
100
AcDbVertex
100
AcDb2dVertex
 10
157.075558
 20
171.414999
 30
0.0
  0
VERTEX
  5
3C8
330
3BD
100
AcDbEntity
  8
001
370
    50
100
AcDbVertex
100
AcDb2dVertex
 10
157.108617
 20
171.674833
 30
0.0
  0
VERTEX
  5
3C9
330
3BD
100
AcDbEntity
  8
001
370
    50
100
AcDbVertex
100
AcDb2dVertex
 10
157.116929
 20
171.936004
 30
0.0
  0
VERTEX
  5
3CA
330
3BD
100
AcDbEntity
  8
001
370
    50
100
AcDbVertex
100
AcDb2dVertex
 10
157.098404
 20
172.2035
 30
0.0
  0
VERTEX
  5
3CB
330
3BD
100
AcDbEntity
  8
001
370
    50
100
AcDbVertex
100
AcDb2dVertex
 10
157.06448
 20
172.470311
 30
0.0
  0
SEQEND
  5
3BE
330
3BD
100
AcDbEntity
  8
001
370
    50
  0
LINE
  5
3CC
330
1F
100
AcDbEntity
  8
001
370
    50
100
AcDbLine
 10
142.790624
 20
189.201358
 30
0.0
 11
142.790624
 21
199.227657
 31
0.0
  0
LINE
  5
3CD
330
1F
100
AcDbEntity
  8
001
370
    50
100
AcDbLine
 10
140.890624
 20
171.851677
 30
0.0
 11
140.890624
 21
192.527657
 31
0.0
  0
POLYLINE
  5
3CE
330
1F
100
AcDbEntity
  8
001
370
    50
100
AcDb2dPolyline
 66
     1
 10
0.0
 20
0.0
 30
0.0
  0
VERTEX
  5
3D0
330
3CE
100
AcDbEntity
  8
001
370
    50
100
AcDbVertex
100
AcDb2dVertex
 10
146.297024
 20
172.52607
 30
0.0
  0
VERTEX
  5
3D1
330
3CE
100
AcDbEntity
  8
001
370
    50
100
AcDbVertex
100
AcDb2dVertex
 10
146.099009
 20
172.514926
 30
0.0
  0
VERTEX
  5
3D2
330
3CE
100
AcDbEntity
  8
001
370
    50
100
AcDbVertex
100
AcDb2dVertex
 10
145.827459
 20
172.480179
 30
0.0
  0
VERTEX
  5
3D3
330
3CE
100
AcDbEntity
  8
001
370
    50
100
AcDbVertex
100
AcDb2dVertex
 10
145.586054
 20
172.421329
 30
0.0
  0
VERTEX
  5
3D4
330
3CE
100
AcDbEntity
  8
001
370
    50
100
AcDbVertex
100
AcDb2dVertex
 10
145.375133
 20
172.344193
 30
0.0
  0
VERTEX
  5
3D5
330
3CE
100
AcDbEntity
  8
001
370
    50
100
AcDbVertex
100
AcDb2dVertex
 10
145.170378
 20
172.250808
 30
0.0
  0
VERTEX
  5
3D6
330
3CE
100
AcDbEntity
  8
001
370
    50
100
AcDbVertex
100
AcDb2dVertex
 10
144.956652
 20
172.123102
 30
0.0
  0
VERTEX
  5
3D7
330
3CE
100
AcDbEntity
  8
001
370
    50
100
AcDbVertex
100
AcDb2dVertex
 10
144.78296
 20
171.993506
 30
0.0
  0
VERTEX
  5
3D8
330
3CE
100
AcDbEntity
  8
001
370
    50
100
AcDbVertex
100
AcDb2dVertex
 10
144.639073
 20
171.872733
 30
0.0
  0
SEQEND
  5
3CF
330
3CE
100
AcDbEntity
  8
001
370
    50
  0
LINE
  5
3D9
330
1F
100
AcDbEntity
  8
001
370
    50
100
AcDbLine
 10
143.668388
 20
171.932626
 30
0.0
 11
143.653393
 21
171.872733
 31
0.0
  0
LINE
  5
3DA
330
1F
100
AcDbEntity
  8
001
370
    50
100
AcDbLine
 10
146.397639
 20
172.52607
 30
0.0
 11
146.297024
 21
172.52607
 31
0.0
  0
POLYLINE
  5
3DB
330
1F
100
AcDbEntity
  8
001
370
    50
100
AcDb2dPolyline
 66
     1
 10
0.0
 20
0.0
 30
0.0
  0
VERTEX
  5
3DD
330
3DB
100
AcDbEntity
  8
001
370
    50
100
AcDbVertex
100
AcDb2dVertex
 10
152.308815
 20
174.13266
 30
0.0
  0
VERTEX
  5
3DE
330
3DB
100
AcDbEntity
  8
001
370
    50
100
AcDbVertex
100
AcDb2dVertex
 10
152.08062
 20
174.000423
 30
0.0
  0
VERTEX
  5
3DF
330
3DB
100
AcDbEntity
  8
001
370
    50
100
AcDbVertex
100
AcDb2dVertex
 10
151.760065
 20
173.802044
 30
0.0
  0
SEQEND
  5
3DC
330
3DB
100
AcDbEntity
  8
001
370
    50
  0
ARC
  5
3E0
330
1F
100
AcDbEntity
  8
001
370
    50
100
AcDbCircle
 10
154.954632
 20
172.626966
 30
0.0
 40
1.904836495755638
100
AcDbArc
 50
30.044909
 51
58.352156
  0
POLYLINE
  5
3E1
330
1F
100
AcDbEntity
  8
001
370
    50
100
AcDb2dPolyline
 66
     1
 10
0.0
 20
0.0
 30
0.0
  0
VERTEX
  5
3E3
330
3E1
100
AcDbEntity
  8
001
370
    50
100
AcDbVertex
100
AcDb2dVertex
 10
154.024447
 20
168.946973
 30
0.0
  0
VERTEX
  5
3E4
330
3E1
100
AcDbEntity
  8
001
370
    50
100
AcDbVertex
100
AcDb2dVertex
 10
154.183774
 20
169.003677
 30
0.0
  0
VERTEX
  5
3E5
330
3E1
100
AcDbEntity
  8
001
370
    50
100
AcDbVertex
100
AcDb2dVertex
 10
154.346348
 20
169.069046
 30
0.0
  0
VERTEX
  5
3E6
330
3E1
100
AcDbEntity
  8
001
370
    50
100
AcDbVertex
100
AcDb2dVertex
 10
154.596293
 20
169.195196
 30
0.0
  0
VERTEX
  5
3E7
330
3E1
100
AcDbEntity
  8
001
370
    50
100
AcDbVertex
100
AcDb2dVertex
 10
154.81179
 20
169.337004
 30
0.0
  0
VERTEX
  5
3E8
330
3E1
100
AcDbEntity
  8
001
370
    50
100
AcDbVertex
100
AcDb2dVertex
 10
155.021838
 20
169.501328
 30
0.0
  0
VERTEX
  5
3E9
330
3E1
100
AcDbEntity
  8
001
370
    50
100
AcDbVertex
100
AcDb2dVertex
 10
155.222006
 20
169.685807
 30
0.0
  0
VERTEX
  5
3EA
330
3E1
100
AcDbEntity
  8
001
370
    50
100
AcDbVertex
100
AcDb2dVertex
 10
155.40303
 20
169.887394
 30
0.0
  0
VERTEX
  5
3EB
330
3E1
100
AcDbEntity
  8
001
370
    50
100
AcDbVertex
100
AcDb2dVertex
 10
155.563543
 20
170.104016
 30
0.0
  0
VERTEX
  5
3EC
330
3E1
100
AcDbEntity
  8
001
370
    50
100
AcDbVertex
100
AcDb2dVertex
 10
155.704811
 20
170.335027
 30
0.0
  0
VERTEX
  5
3ED
330
3E1
100
AcDbEntity
  8
001
370
    50
100
AcDbVertex
100
AcDb2dVertex
 10
155.825198
 20
170.577916
 30
0.0
  0
VERTEX
  5
3EE
330
3E1
100
AcDbEntity
  8
001
370
    50
100
AcDbVertex
100
AcDb2dVertex
 10
155.923365
 20
170.831075
 30
0.0
  0
VERTEX
  5
3EF
330
3E1
100
AcDbEntity
  8
001
370
    50
100
AcDbVertex
100
AcDb2dVertex
 10
155.998391
 20
171.091963
 30
0.0
  0
VERTEX
  5
3F0
330
3E1
100
AcDbEntity
  8
001
370
    50
100
AcDbVertex
100
AcDb2dVertex
 10
156.049903
 20
171.358861
 30
0.0
  0
VERTEX
  5
3F1
330
3E1
100
AcDbEntity
  8
001
370
    50
100
AcDbVertex
100
AcDb2dVertex
 10
156.077441
 20
171.629298
 30
0.0
  0
VERTEX
  5
3F2
330
3E1
100
AcDbEntity
  8
001
370
    50
100
AcDbVertex
100
AcDb2dVertex
 10
156.08073
 20
171.901194
 30
0.0
  0
VERTEX
  5
3F3
330
3E1
100
AcDbEntity
  8
001
370
    50
100
AcDbVertex
100
AcDb2dVertex
 10
156.059755
 20
172.1723
 30
0.0
  0
VERTEX
  5
3F4
330
3E1
100
AcDbEntity
  8
001
370
    50
100
AcDbVertex
100
AcDb2dVertex
 10
156.014686
 20
172.440276
 30
0.0
  0
VERTEX
  5
3F5
330
3E1
100
AcDbEntity
  8
001
370
    50
100
AcDbVertex
100
AcDb2dVertex
 10
155.945914
 20
172.703157
 30
0.0
  0
VERTEX
  5
3F6
330
3E1
100
AcDbEntity
  8
001
370
    50
100
AcDbVertex
100
AcDb2dVertex
 10
155.854084
 20
172.958425
 30
0.0
  0
VERTEX
  5
3F7
330
3E1
100
AcDbEntity
  8
001
370
    50
100
AcDbVertex
100
AcDb2dVertex
 10
155.739652
 20
173.204462
 30
0.0
  0
VERTEX
  5
3F8
330
3E1
100
AcDbEntity
  8
001
370
    50
100
AcDbVertex
100
AcDb2dVertex
 10
155.603729
 20
173.438732
 30
0.0
  0
VERTEX
  5
3F9
330
3E1
100
AcDbEntity
  8
001
370
    50
100
AcDbVertex
100
AcDb2dVertex
 10
155.447732
 20
173.659771
 30
0.0
  0
VERTEX
  5
3FA
330
3E1
100
AcDbEntity
  8
001
370
    50
100
AcDbVertex
100
AcDb2dVertex
 10
155.273477
 20
173.865147
 30
0.0
  0
VERTEX
  5
3FB
330
3E1
100
AcDbEntity
  8
001
370
    50
100
AcDbVertex
100
AcDb2dVertex
 10
155.07973
 20
174.054152
 30
0.0
  0
VERTEX
  5
3FC
330
3E1
100
AcDbEntity
  8
001
370
    50
100
AcDbVertex
100
AcDb2dVertex
 10
154.867993
 20
174.224801
 30
0.0
  0
VERTEX
  5
3FD
330
3E1
100
AcDbEntity
  8
001
370
    50
100
AcDbVertex
100
AcDb2dVertex
 10
154.647714
 20
174.374671
 30
0.0
  0
VERTEX
  5
3FE
330
3E1
100
AcDbEntity
  8
001
370
    50
100
AcDbVertex
100
AcDb2dVertex
 10
154.423442
 20
174.501718
 30
0.0
  0
VERTEX
  5
3FF
330
3E1
100
AcDbEntity
  8
001
370
    50
100
AcDbVertex
100
AcDb2dVertex
 10
154.165854
 20
174.610815
 30
0.0
  0
VERTEX
  5
400
330
3E1
100
AcDbEntity
  8
001
370
    50
100
AcDbVertex
100
AcDb2dVertex
 10
153.89706
 20
174.694711
 30
0.0
  0
VERTEX
  5
401
330
3E1
100
AcDbEntity
  8
001
370
    50
100
AcDbVertex
100
AcDb2dVertex
 10
153.679543
 20
174.748973
 30
0.0
  0
SEQEND
  5
3E2
330
3E1
100
AcDbEntity
  8
001
370
    50
  0
POLYLINE
  5
402
330
1F
100
AcDbEntity
  8
001
370
    50
100
AcDb2dPolyline
 66
     1
 10
0.0
 20
0.0
 30
0.0
  0
VERTEX
  5
404
330
402
100
AcDbEntity
  8
001
370
    50
100
AcDbVertex
100
AcDb2dVertex
 10
154.024447
 20
168.923917
 30
0.0
  0
VERTEX
  5
405
330
402
100
AcDbEntity
  8
001
370
    50
100
AcDbVertex
100
AcDb2dVertex
 10
154.362503
 20
168.995281
 30
0.0
  0
VERTEX
  5
406
330
402
100
AcDbEntity
  8
001
370
    50
100
AcDbVertex
100
AcDb2dVertex
 10
154.726892
 20
169.082533
 30
0.0
  0
VERTEX
  5
407
330
402
100
AcDbEntity
  8
001
370
    50
100
AcDbVertex
100
AcDb2dVertex
 10
155.138456
 20
169.206589
 30
0.0
  0
VERTEX
  5
408
330
402
100
AcDbEntity
  8
001
370
    50
100
AcDbVertex
100
AcDb2dVertex
 10
155.536735
 20
169.374413
 30
0.0
  0
VERTEX
  5
409
330
402
100
AcDbEntity
  8
001
370
    50
100
AcDbVertex
100
AcDb2dVertex
 10
155.946891
 20
169.585385
 30
0.0
  0
VERTEX
  5
40A
330
402
100
AcDbEntity
  8
001
370
    50
100
AcDbVertex
100
AcDb2dVertex
 10
156.240675
 20
169.755622
 30
0.0
  0
SEQEND
  5
403
330
402
100
AcDbEntity
  8
001
370
    50
  0
POLYLINE
  5
40B
330
1F
100
AcDbEntity
  8
001
370
    50
100
AcDb2dPolyline
 66
     1
 10
0.0
 20
0.0
 30
0.0
  0
VERTEX
  5
40D
330
40B
100
AcDbEntity
  8
001
370
    50
100
AcDbVertex
100
AcDb2dVertex
 10
155.463124
 20
159.926552
 30
0.0
  0
VERTEX
  5
40E
330
40B
100
AcDbEntity
  8
001
370
    50
100
AcDbVertex
100
AcDb2dVertex
 10
155.436366
 20
159.550173
 30
0.0
  0
VERTEX
  5
40F
330
40B
100
AcDbEntity
  8
001
370
    50
100
AcDbVertex
100
AcDb2dVertex
 10
155.414928
 20
159.2457
 30
0.0
  0
SEQEND
  5
40C
330
40B
100
AcDbEntity
  8
001
370
    50
  0
POLYLINE
  5
410
330
1F
100
AcDbEntity
  8
001
370
    50
100
AcDb2dPolyline
 66
     1
 10
0.0
 20
0.0
 30
0.0
  0
VERTEX
  5
412
330
410
100
AcDbEntity
  8
001
370
    50
100
AcDbVertex
100
AcDb2dVertex
 10
156.240675
 20
169.755622
 30
0.0
  0
VERTEX
  5
413
330
410
100
AcDbEntity
  8
001
370
    50
100
AcDbVertex
100
AcDb2dVertex
 10
156.11024
 20
168.234978
 30
0.0
  0
VERTEX
  5
414
330
410
100
AcDbEntity
  8
001
370
    50
100
AcDbVertex
100
AcDb2dVertex
 10
155.924447
 20
165.99489
 30
0.0
  0
SEQEND
  5
411
330
410
100
AcDbEntity
  8
001
370
    50
  0
LINE
  5
415
330
1F
100
AcDbEntity
  8
001
370
    50
100
AcDbLine
 10
153.840946
 20
159.678962
 30
0.0
 11
153.840946
 21
159.856355
 31
0.0
  0
POLYLINE
  5
416
330
1F
100
AcDbEntity
  8
001
370
    50
100
AcDb2dPolyline
 66
     1
 10
0.0
 20
0.0
 30
0.0
  0
VERTEX
  5
418
330
416
100
AcDbEntity
  8
001
370
    50
100
AcDbVertex
100
AcDb2dVertex
 10
150.172247
 20
159.550701
 30
0.0
  0
VERTEX
  5
419
330
416
100
AcDbEntity
  8
001
370
    50
100
AcDbVertex
100
AcDb2dVertex
 10
152.35541
 20
159.624654
 30
0.0
  0
VERTEX
  5
41A
330
416
100
AcDbEntity
  8
001
370
    50
100
AcDbVertex
100
AcDb2dVertex
 10
153.840946
 20
159.678962
 30
0.0
  0
SEQEND
  5
417
330
416
100
AcDbEntity
  8
001
370
    50
  0
LINE
  5
41B
330
1F
100
AcDbEntity
  8
001
370
    50
100
AcDbLine
 10
170.090624
 20
184.212948
 30
0.0
 11
170.090624
 21
199.227657
 31
0.0
  0
LINE
  5
41C
330
1F
100
AcDbEntity
  8
001
370
    50
100
AcDbLine
 10
175.527741
 20
180.536687
 30
0.0
 11
175.527741
 21
204.877657
 31
0.0
  0
LINE
  5
41D
330
1F
100
AcDbEntity
  8
001
  6
CENTER
370
     9
100
AcDbLine
 10
139.196438
 20
179.227657
 30
0.0
 11
309.682814
 21
179.227657
 31
0.0
  0
LINE
  5
41E
330
1F
100
AcDbEntity
  8
001
370
    50
100
AcDbLine
 10
229.290624
 20
163.227657
 30
0.0
 11
229.290624
 21
195.227657
 31
0.0
  0
LINE
  5
41F
330
1F
100
AcDbEntity
  8
001
370
    50
100
AcDbLine
 10
229.290624
 20
194.727657
 30
0.0
 11
226.290624
 21
194.727657
 31
0.0
  0
LINE
  5
420
330
1F
100
AcDbEntity
  8
001
370
    50
100
AcDbLine
 10
226.290624
 20
163.727657
 30
0.0
 11
229.290624
 21
163.727657
 31
0.0
  0
LINE
  5
421
330
1F
100
AcDbEntity
  8
001
370
    50
100
AcDbLine
 10
306.290624
 20
179.227657
 30
0.0
 11
309.754726
 21
181.227657
 31
0.0
  0
LINE
  5
422
330
1F
100
AcDbEntity
  8
001
370
    50
100
AcDbLine
 10
306.290624
 20
179.227657
 30
0.0
 11
309.754726
 21
177.227657
 31
0.0
  0
TEXT
  5
423
330
1F
100
AcDbEntity
  8
001
370
    30
100
AcDbText
 10
52.966578
 20
27.085433
 30
0.0
 40
4.0
  1
加工形状
 41
0.833333
100
AcDbText
  0
CIRCLE
  5
424
330
1F
100
AcDbEntity
  8
001
370
    50
100
AcDbCircle
 10
177.524112
 20
161.692635
 30
0.0
 40
3.25
  0
LINE
  5
425
330
1F
100
AcDbEntity
  8
001
370
    50
100
AcDbLine
 10
176.787991
 20
162.967635
 30
0.0
 11
177.177702
 21
163.642635
 31
0.0
  0
LINE
  5
426
330
1F
100
AcDbEntity
  8
001
370
    50
100
AcDbLine
 10
178.260234
 20
162.967635
 30
0.0
 11
177.870522
 21
163.642635
 31
0.0
  0
ARC
  5
427
330
1F
100
AcDbEntity
  8
001
370
    50
100
AcDbCircle
 10
177.524112
 20
163.442635
 30
0.0
 40
0.4
100
AcDbArc
 50
30.0
 51
150.0
  0
LINE
  5
428
330
1F
100
AcDbEntity
  8
001
370
    50
100
AcDbLine
 10
176.051869
 20
161.692635
 30
0.0
 11
175.662158
 21
162.367635
 31
0.0
  0
LINE
  5
429
330
1F
100
AcDbEntity
  8
001
370
    50
100
AcDbLine
 10
176.787991
 20
162.967635
 30
0.0
 11
176.008568
 21
162.967635
 31
0.0
  0
ARC
  5
42A
330
1F
100
AcDbEntity
  8
001
370
    50
100
AcDbCircle
 10
176.008568
 20
162.567635
 30
0.0
 40
0.4
100
AcDbArc
 50
90.0
 51
210.0
  0
LINE
  5
42B
330
1F
100
AcDbEntity
  8
001
370
    50
100
AcDbLine
 10
176.787991
 20
160.417635
 30
0.0
 11
176.008568
 21
160.417635
 31
0.0
  0
LINE
  5
42C
330
1F
100
AcDbEntity
  8
001
370
    50
100
AcDbLine
 10
176.051869
 20
161.692635
 30
0.0
 11
175.662158
 21
161.017635
 31
0.0
  0
ARC
  5
42D
330
1F
100
AcDbEntity
  8
001
370
    50
100
AcDbCircle
 10
176.008568
 20
160.817635
 30
0.0
 40
0.4
100
AcDbArc
 50
150.0
 51
270.0
  0
LINE
  5
42E
330
1F
100
AcDbEntity
  8
001
370
    50
100
AcDbLine
 10
178.260234
 20
160.417635
 30
0.0
 11
177.870522
 21
159.742635
 31
0.0
  0
LINE
  5
42F
330
1F
100
AcDbEntity
  8
001
370
    50
100
AcDbLine
 10
176.787991
 20
160.417635
 30
0.0
 11
177.177702
 21
159.742635
 31
0.0
  0
ARC
  5
430
330
1F
100
AcDbEntity
  8
001
370
    50
100
AcDbCircle
 10
177.524112
 20
159.942635
 30
0.0
 40
0.4
100
AcDbArc
 50
210.0
 51
330.0
  0
LINE
  5
431
330
1F
100
AcDbEntity
  8
001
370
    50
100
AcDbLine
 10
178.996355
 20
161.692635
 30
0.0
 11
179.386067
 21
161.017635
 31
0.0
  0
LINE
  5
432
330
1F
100
AcDbEntity
  8
001
370
    50
100
AcDbLine
 10
178.260234
 20
160.417635
 30
0.0
 11
179.039657
 21
160.417635
 31
0.0
  0
ARC
  5
433
330
1F
100
AcDbEntity
  8
001
370
    50
100
AcDbCircle
 10
179.039657
 20
160.817635
 30
0.0
 40
0.4
100
AcDbArc
 50
270.0
 51
30.0
  0
LINE
  5
434
330
1F
100
AcDbEntity
  8
001
370
    50
100
AcDbLine
 10
178.260234
 20
162.967635
 30
0.0
 11
179.039657
 21
162.967635
 31
0.0
  0
LINE
  5
435
330
1F
100
AcDbEntity
  8
001
370
    50
100
AcDbLine
 10
178.996355
 20
161.692635
 30
0.0
 11
179.386067
 21
162.367635
 31
0.0
  0
ARC
  5
436
330
1F
100
AcDbEntity
  8
001
370
    50
100
AcDbCircle
 10
179.039657
 20
162.567635
 30
0.0
 40
0.4
100
AcDbArc
 50
330.0
 51
90.0
  0
POLYLINE
  5
437
330
1F
100
AcDbEntity
  8
001
370
    50
100
AcDb2dPolyline
 66
     1
 10
0.0
 20
0.0
 30
0.0
  0
VERTEX
  5
439
330
437
100
AcDbEntity
  8
001
370
    50
100
AcDbVertex
100
AcDb2dVertex
 10
177.508173
 20
165.467146
 30
0.0
  0
VERTEX
  5
43A
330
437
100
AcDbEntity
  8
001
370
    50
100
AcDbVertex
100
AcDb2dVertex
 10
177.237426
 20
165.452861
 30
0.0
  0
VERTEX
  5
43B
330
437
100
AcDbEntity
  8
001
370
    50
100
AcDbVertex
100
AcDb2dVertex
 10
176.866885
 20
165.410175
 30
0.0
  0
VERTEX
  5
43C
330
437
100
AcDbEntity
  8
001
370
    50
100
AcDbVertex
100
AcDb2dVertex
 10
176.538516
 20
165.339334
 30
0.0
  0
VERTEX
  5
43D
330
437
100
AcDbEntity
  8
001
370
    50
100
AcDbVertex
100
AcDb2dVertex
 10
176.245083
 20
165.240993
 30
0.0
  0
VERTEX
  5
43E
330
437
100
AcDbEntity
  8
001
370
    50
100
AcDbVertex
100
AcDb2dVertex
 10
175.950974
 20
165.115701
 30
0.0
  0
VERTEX
  5
43F
330
437
100
AcDbEntity
  8
001
370
    50
100
AcDbVertex
100
AcDb2dVertex
 10
175.661658
 20
164.964741
 30
0.0
  0
VERTEX
  5
440
330
437
100
AcDbEntity
  8
001
370
    50
100
AcDbVertex
100
AcDb2dVertex
 10
175.388786
 20
164.788911
 30
0.0
  0
VERTEX
  5
441
330
437
100
AcDbEntity
  8
001
370
    50
100
AcDbVertex
100
AcDb2dVertex
 10
175.13434
 20
164.589812
 30
0.0
  0
VERTEX
  5
442
330
437
100
AcDbEntity
  8
001
370
    50
100
AcDbVertex
100
AcDb2dVertex
 10
174.896929
 20
164.368371
 30
0.0
  0
VERTEX
  5
443
330
437
100
AcDbEntity
  8
001
370
    50
100
AcDbVertex
100
AcDb2dVertex
 10
174.679149
 20
164.127599
 30
0.0
  0
VERTEX
  5
444
330
437
100
AcDbEntity
  8
001
370
    50
100
AcDbVertex
100
AcDb2dVertex
 10
174.482841
 20
163.868877
 30
0.0
  0
VERTEX
  5
445
330
437
100
AcDbEntity
  8
001
370
    50
100
AcDbVertex
100
AcDb2dVertex
 10
174.309916
 20
163.592146
 30
0.0
  0
VERTEX
  5
446
330
437
100
AcDbEntity
  8
001
370
    50
100
AcDbVertex
100
AcDb2dVertex
 10
174.16111
 20
163.298099
 30
0.0
  0
VERTEX
  5
447
330
437
100
AcDbEntity
  8
001
370
    50
100
AcDbVertex
100
AcDb2dVertex
 10
174.037861
 20
162.999721
 30
0.0
  0
VERTEX
  5
448
330
437
100
AcDbEntity
  8
001
370
    50
100
AcDbVertex
100
AcDb2dVertex
 10
173.940956
 20
162.701502
 30
0.0
  0
VERTEX
  5
449
330
437
100
AcDbEntity
  8
001
370
    50
100
AcDbVertex
100
AcDb2dVertex
 10
173.871249
 20
162.368326
 30
0.0
  0
VERTEX
  5
44A
330
437
100
AcDbEntity
  8
001
370
    50
100
AcDbVertex
100
AcDb2dVertex
 10
173.829203
 20
161.992025
 30
0.0
  0
VERTEX
  5
44B
330
437
100
AcDbEntity
  8
001
370
    50
100
AcDbVertex
100
AcDb2dVertex
 10
173.815144
 20
161.717146
 30
0.0
  0
SEQEND
  5
438
330
437
100
AcDbEntity
  8
001
370
    50
  0
POLYLINE
  5
44C
330
1F
100
AcDbEntity
  8
001
370
    50
100
AcDb2dPolyline
 66
     1
 10
0.0
 20
0.0
 30
0.0
  0
VERTEX
  5
44E
330
44C
100
AcDbEntity
  8
001
370
    50
100
AcDbVertex
100
AcDb2dVertex
 10
168.346053
 20
160.700505
 30
0.0
  0
VERTEX
  5
44F
330
44C
100
AcDbEntity
  8
001
370
    50
100
AcDbVertex
100
AcDb2dVertex
 10
168.307401
 20
160.657379
 30
0.0
  0
VERTEX
  5
450
330
44C
100
AcDbEntity
  8
001
370
    50
100
AcDbVertex
100
AcDb2dVertex
 10
168.257931
 20
160.594918
 30
0.0
  0
VERTEX
  5
451
330
44C
100
AcDbEntity
  8
001
370
    50
100
AcDbVertex
100
AcDb2dVertex
 10
168.218907
 20
160.534563
 30
0.0
  0
VERTEX
  5
452
330
44C
100
AcDbEntity
  8
001
370
    50
100
AcDbVertex
100
AcDb2dVertex
 10
168.189205
 20
160.475397
 30
0.0
  0
VERTEX
  5
453
330
44C
100
AcDbEntity
  8
001
370
    50
100
AcDbVertex
100
AcDb2dVertex
 10
168.163344
 20
160.412061
 30
0.0
  0
VERTEX
  5
454
330
44C
100
AcDbEntity
  8
001
370
    50
100
AcDbVertex
100
AcDb2dVertex
 10
168.141962
 20
160.345573
 30
0.0
  0
VERTEX
  5
455
330
44C
100
AcDbEntity
  8
001
370
    50
100
AcDbVertex
100
AcDb2dVertex
 10
168.126711
 20
160.277866
 30
0.0
  0
VERTEX
  5
456
330
44C
100
AcDbEntity
  8
001
370
    50
100
AcDbVertex
100
AcDb2dVertex
 10
168.117638
 20
160.209392
 30
0.0
  0
VERTEX
  5
457
330
44C
100
AcDbEntity
  8
001
370
    50
100
AcDbVertex
100
AcDb2dVertex
 10
168.114411
 20
160.140205
 30
0.0
  0
VERTEX
  5
458
330
44C
100
AcDbEntity
  8
001
370
    50
100
AcDbVertex
100
AcDb2dVertex
 10
168.116972
 20
160.07099
 30
0.0
  0
VERTEX
  5
459
330
44C
100
AcDbEntity
  8
001
370
    50
100
AcDbVertex
100
AcDb2dVertex
 10
168.125385
 20
160.002428
 30
0.0
  0
VERTEX
  5
45A
330
44C
100
AcDbEntity
  8
001
370
    50
100
AcDbVertex
100
AcDb2dVertex
 10
168.139984
 20
159.934574
 30
0.0
  0
VERTEX
  5
45B
330
44C
100
AcDbEntity
  8
001
370
    50
100
AcDbVertex
100
AcDb2dVertex
 10
168.160725
 20
159.867876
 30
0.0
  0
VERTEX
  5
45C
330
44C
100
AcDbEntity
  8
001
370
    50
100
AcDbVertex
100
AcDb2dVertex
 10
168.185975
 20
159.804287
 30
0.0
  0
VERTEX
  5
45D
330
44C
100
AcDbEntity
  8
001
370
    50
100
AcDbVertex
100
AcDb2dVertex
 10
168.215106
 20
159.74483
 30
0.0
  0
VERTEX
  5
45E
330
44C
100
AcDbEntity
  8
001
370
    50
100
AcDbVertex
100
AcDb2dVertex
 10
168.253548
 20
159.68409
 30
0.0
  0
VERTEX
  5
45F
330
44C
100
AcDbEntity
  8
001
370
    50
100
AcDbVertex
100
AcDb2dVertex
 10
168.302414
 20
159.621141
 30
0.0
  0
VERTEX
  5
460
330
44C
100
AcDbEntity
  8
001
370
    50
100
AcDbVertex
100
AcDb2dVertex
 10
168.340649
 20
159.577633
 30
0.0
  0
SEQEND
  5
44D
330
44C
100
AcDbEntity
  8
001
370
    50
  0
LINE
  5
461
330
1F
100
AcDbEntity
  8
001
370
    50
100
AcDbLine
 10
171.650126
 20
164.022917
 30
0.0
 11
168.346053
 21
160.700505
 31
0.0
  0
LINE
  5
462
330
1F
100
AcDbEntity
  8
001
370
    50
100
AcDbLine
 10
171.650126
 20
164.022917
 30
0.0
 11
171.718131
 21
167.06583
 31
0.0
  0
LINE
  5
463
330
1F
100
AcDbEntity
  8
001
370
    50
100
AcDbLine
 10
175.656535
 20
171.026094
 30
0.0
 11
171.718131
 21
167.06583
 31
0.0
  0
POLYLINE
  5
464
330
1F
100
AcDbEntity
  8
001
370
    50
100
AcDb2dPolyline
 66
     1
 10
0.0
 20
0.0
 30
0.0
  0
VERTEX
  5
466
330
464
100
AcDbEntity
  8
001
370
    50
100
AcDbVertex
100
AcDb2dVertex
 10
176.762348
 20
171.020606
 30
0.0
  0
VERTEX
  5
467
330
464
100
AcDbEntity
  8
001
370
    50
100
AcDbVertex
100
AcDb2dVertex
 10
176.714345
 20
171.0644
 30
0.0
  0
VERTEX
  5
468
330
464
100
AcDbEntity
  8
001
370
    50
100
AcDbVertex
100
AcDb2dVertex
 10
176.644333
 20
171.119937
 30
0.0
  0
VERTEX
  5
469
330
464
100
AcDbEntity
  8
001
370
    50
100
AcDbVertex
100
AcDb2dVertex
 10
176.576462
 20
171.162635
 30
0.0
  0
VERTEX
  5
46A
330
464
100
AcDbEntity
  8
001
370
    50
100
AcDbVertex
100
AcDb2dVertex
 10
176.509501
 20
171.193981
 30
0.0
  0
VERTEX
  5
46B
330
464
100
AcDbEntity
  8
001
370
    50
100
AcDbVertex
100
AcDb2dVertex
 10
176.438031
 20
171.219962
 30
0.0
  0
VERTEX
  5
46C
330
464
100
AcDbEntity
  8
001
370
    50
100
AcDbVertex
100
AcDb2dVertex
 10
176.363034
 20
171.239891
 30
0.0
  0
VERTEX
  5
46D
330
464
100
AcDbEntity
  8
001
370
    50
100
AcDbVertex
100
AcDb2dVertex
 10
176.286989
 20
171.251819
 30
0.0
  0
VERTEX
  5
46E
330
464
100
AcDbEntity
  8
001
370
    50
100
AcDbVertex
100
AcDb2dVertex
 10
176.210561
 20
171.255904
 30
0.0
  0
VERTEX
  5
46F
330
464
100
AcDbEntity
  8
001
370
    50
100
AcDbVertex
100
AcDb2dVertex
 10
176.134098
 20
171.252578
 30
0.0
  0
VERTEX
  5
470
330
464
100
AcDbEntity
  8
001
370
    50
100
AcDbVertex
100
AcDb2dVertex
 10
176.057941
 20
171.241405
 30
0.0
  0
VERTEX
  5
471
330
464
100
AcDbEntity
  8
001
370
    50
100
AcDbVertex
100
AcDb2dVertex
 10
175.982757
 20
171.222222
 30
0.0
  0
VERTEX
  5
472
330
464
100
AcDbEntity
  8
001
370
    50
100
AcDbVertex
100
AcDb2dVertex
 10
175.911039
 20
171.19695
 30
0.0
  0
VERTEX
  5
473
330
464
100
AcDbEntity
  8
001
370
    50
100
AcDbVertex
100
AcDb2dVertex
 10
175.843781
 20
171.166271
 30
0.0
  0
VERTEX
  5
474
330
464
100
AcDbEntity
  8
001
370
    50
100
AcDbVertex
100
AcDb2dVertex
 10
175.775501
 20
171.124249
 30
0.0
  0
VERTEX
  5
475
330
464
100
AcDbEntity
  8
001
370
    50
100
AcDbVertex
100
AcDb2dVertex
 10
175.704958
 20
171.069409
 30
0.0
  0
VERTEX
  5
476
330
464
100
AcDbEntity
  8
001
370
    50
100
AcDbVertex
100
AcDb2dVertex
 10
175.656535
 20
171.026094
 30
0.0
  0
SEQEND
  5
465
330
464
100
AcDbEntity
  8
001
370
    50
  0
LINE
  5
477
330
1F
100
AcDbEntity
  8
001
370
    50
100
AcDbLine
 10
180.040156
 20
167.659542
 30
0.0
 11
176.762348
 21
171.020606
 31
0.0
  0
LINE
  5
478
330
1F
100
AcDbEntity
  8
001
370
    50
100
AcDbLine
 10
182.775599
 20
167.596509
 30
0.0
 11
180.040156
 21
167.659542
 31
0.0
  0
LINE
  5
479
330
1F
100
AcDbEntity
  8
001
370
    50
100
AcDbLine
 10
186.675697
 20
163.597348
 30
0.0
 11
182.775599
 21
167.596509
 31
0.0
  0
POLYLINE
  5
47A
330
1F
100
AcDbEntity
  8
001
370
    50
100
AcDb2dPolyline
 66
     1
 10
0.0
 20
0.0
 30
0.0
  0
VERTEX
  5
47C
330
47A
100
AcDbEntity
  8
001
370
    50
100
AcDbVertex
100
AcDb2dVertex
 10
186.670293
 20
162.474476
 30
0.0
  0
VERTEX
  5
47D
330
47A
100
AcDbEntity
  8
001
370
    50
100
AcDbVertex
100
AcDb2dVertex
 10
186.708944
 20
162.517602
 30
0.0
  0
VERTEX
  5
47E
330
47A
100
AcDbEntity
  8
001
370
    50
100
AcDbVertex
100
AcDb2dVertex
 10
186.758415
 20
162.580063
 30
0.0
  0
VERTEX
  5
47F
330
47A
100
AcDbEntity
  8
001
370
    50
100
AcDbVertex
100
AcDb2dVertex
 10
186.797439
 20
162.640419
 30
0.0
  0
VERTEX
  5
480
330
47A
100
AcDbEntity
  8
001
370
    50
100
AcDbVertex
100
AcDb2dVertex
 10
186.827141
 20
162.699584
 30
0.0
  0
VERTEX
  5
481
330
47A
100
AcDbEntity
  8
001
370
    50
100
AcDbVertex
100
AcDb2dVertex
 10
186.853002
 20
162.76292
 30
0.0
  0
VERTEX
  5
482
330
47A
100
AcDbEntity
  8
001
370
    50
100
AcDbVertex
100
AcDb2dVertex
 10
186.874384
 20
162.829408
 30
0.0
  0
VERTEX
  5
483
330
47A
100
AcDbEntity
  8
001
370
    50
100
AcDbVertex
100
AcDb2dVertex
 10
186.889635
 20
162.897115
 30
0.0
  0
VERTEX
  5
484
330
47A
100
AcDbEntity
  8
001
370
    50
100
AcDbVertex
100
AcDb2dVertex
 10
186.898708
 20
162.965589
 30
0.0
  0
VERTEX
  5
485
330
47A
100
AcDbEntity
  8
001
370
    50
100
AcDbVertex
100
AcDb2dVertex
 10
186.901935
 20
163.034776
 30
0.0
  0
VERTEX
  5
486
330
47A
100
AcDbEntity
  8
001
370
    50
100
AcDbVertex
100
AcDb2dVertex
 10
186.899374
 20
163.103991
 30
0.0
  0
VERTEX
  5
487
330
47A
100
AcDbEntity
  8
001
370
    50
100
AcDbVertex
100
AcDb2dVertex
 10
186.89096
 20
163.172553
 30
0.0
  0
VERTEX
  5
488
330
47A
100
AcDbEntity
  8
001
370
    50
100
AcDbVertex
100
AcDb2dVertex
 10
186.876362
 20
163.240407
 30
0.0
  0
VERTEX
  5
489
330
47A
100
AcDbEntity
  8
001
370
    50
100
AcDbVertex
100
AcDb2dVertex
 10
186.855621
 20
163.307105
 30
0.0
  0
VERTEX
  5
48A
330
47A
100
AcDbEntity
  8
001
370
    50
100
AcDbVertex
100
AcDb2dVertex
 10
186.830371
 20
163.370694
 30
0.0
  0
VERTEX
  5
48B
330
47A
100
AcDbEntity
  8
001
370
    50
100
AcDbVertex
100
AcDb2dVertex
 10
186.801239
 20
163.430152
 30
0.0
  0
VERTEX
  5
48C
330
47A
100
AcDbEntity
  8
001
370
    50
100
AcDbVertex
100
AcDb2dVertex
 10
186.762798
 20
163.490891
 30
0.0
  0
VERTEX
  5
48D
330
47A
100
AcDbEntity
  8
001
370
    50
100
AcDbVertex
100
AcDb2dVertex
 10
186.713932
 20
163.55384
 30
0.0
  0
VERTEX
  5
48E
330
47A
100
AcDbEntity
  8
001
370
    50
100
AcDbVertex
100
AcDb2dVertex
 10
186.675697
 20
163.597348
 30
0.0
  0
SEQEND
  5
47B
330
47A
100
AcDbEntity
  8
001
370
    50
  0
LINE
  5
48F
330
1F
100
AcDbEntity
  8
001
370
    50
100
AcDbLine
 10
183.360291
 20
159.146103
 30
0.0
 11
186.670293
 21
162.474476
 31
0.0
  0
LINE
  5
490
330
1F
100
AcDbEntity
  8
001
370
    50
100
AcDbLine
 10
183.298215
 20
156.368461
 30
0.0
 11
183.360291
 21
159.146103
 31
0.0
  0
LINE
  5
491
330
1F
100
AcDbEntity
  8
001
370
    50
100
AcDbLine
 10
179.323187
 20
152.371371
 30
0.0
 11
183.298215
 21
156.368461
 31
0.0
  0
LINE
  5
492
330
1F
100
AcDbEntity
  8
001
370
    50
100
AcDbLine
 10
178.290342
 20
152.376418
 30
0.0
 11
175.022115
 21
155.727657
 31
0.0
  0
POLYLINE
  5
493
330
1F
100
AcDbEntity
  8
001
370
    50
100
AcDb2dPolyline
 66
     1
 10
0.0
 20
0.0
 30
0.0
  0
VERTEX
  5
495
330
493
100
AcDbEntity
  8
001
370
    50
100
AcDbVertex
100
AcDb2dVertex
 10
173.815144
 20
161.717146
 30
0.0
  0
VERTEX
  5
496
330
493
100
AcDbEntity
  8
001
370
    50
100
AcDbVertex
100
AcDb2dVertex
 10
173.83293
 20
161.408057
 30
0.0
  0
VERTEX
  5
497
330
493
100
AcDbEntity
  8
001
370
    50
100
AcDbVertex
100
AcDb2dVertex
 10
173.886104
 20
160.985557
 30
0.0
  0
VERTEX
  5
498
330
493
100
AcDbEntity
  8
001
370
    50
100
AcDbVertex
100
AcDb2dVertex
 10
173.974155
 20
160.613101
 30
0.0
  0
VERTEX
  5
499
330
493
100
AcDbEntity
  8
001
370
    50
100
AcDbVertex
100
AcDb2dVertex
 10
174.096259
 20
160.282083
 30
0.0
  0
VERTEX
  5
49A
330
493
100
AcDbEntity
  8
001
370
    50
100
AcDbVertex
100
AcDb2dVertex
 10
174.251038
 20
159.953788
 30
0.0
  0
VERTEX
  5
49B
330
493
100
AcDbEntity
  8
001
370
    50
100
AcDbVertex
100
AcDb2dVertex
 10
174.437532
 20
159.633757
 30
0.0
  0
VERTEX
  5
49C
330
493
100
AcDbEntity
  8
001
370
    50
100
AcDbVertex
100
AcDb2dVertex
 10
174.653566
 20
159.337274
 30
0.0
  0
VERTEX
  5
49D
330
493
100
AcDbEntity
  8
001
370
    50
100
AcDbVertex
100
AcDb2dVertex
 10
174.896807
 20
159.065495
 30
0.0
  0
VERTEX
  5
49E
330
493
100
AcDbEntity
  8
001
370
    50
100
AcDbVertex
100
AcDb2dVertex
 10
175.164025
 20
158.818837
 30
0.0
  0
VERTEX
  5
49F
330
493
100
AcDbEntity
  8
001
370
    50
100
AcDbVertex
100
AcDb2dVertex
 10
175.456436
 20
158.599135
 30
0.0
  0
VERTEX
  5
4A0
330
493
100
AcDbEntity
  8
001
370
    50
100
AcDbVertex
100
AcDb2dVertex
 10
175.771253
 20
158.409984
 30
0.0
  0
VERTEX
  5
4A1
330
493
100
AcDbEntity
  8
001
370
    50
100
AcDbVertex
100
AcDb2dVertex
 10
176.094912
 20
158.252597
 30
0.0
  0
VERTEX
  5
4A2
330
493
100
AcDbEntity
  8
001
370
    50
100
AcDbVertex
100
AcDb2dVertex
 10
176.420545
 20
158.128701
 30
0.0
  0
VERTEX
  5
4A3
330
493
100
AcDbEntity
  8
001
370
    50
100
AcDbVertex
100
AcDb2dVertex
 10
176.787699
 20
158.039201
 30
0.0
  0
VERTEX
  5
4A4
330
493
100
AcDbEntity
  8
001
370
    50
100
AcDbVertex
100
AcDb2dVertex
 10
177.203718
 20
157.985221
 30
0.0
  0
VERTEX
  5
4A5
330
493
100
AcDbEntity
  8
001
370
    50
100
AcDbVertex
100
AcDb2dVertex
 10
177.508173
 20
157.967146
 30
0.0
  0
SEQEND
  5
494
330
493
100
AcDbEntity
  8
001
370
    50
  0
POLYLINE
  5
4A6
330
1F
100
AcDbEntity
  8
001
370
    50
100
AcDb2dPolyline
 66
     1
 10
0.0
 20
0.0
 30
0.0
  0
VERTEX
  5
4A8
330
4A6
100
AcDbEntity
  8
001
370
    50
100
AcDbVertex
100
AcDb2dVertex
 10
177.508173
 20
157.967146
 30
0.0
  0
VERTEX
  5
4A9
330
4A6
100
AcDbEntity
  8
001
370
    50
100
AcDbVertex
100
AcDb2dVertex
 10
177.77892
 20
157.981429
 30
0.0
  0
VERTEX
  5
4AA
330
4A6
100
AcDbEntity
  8
001
370
    50
100
AcDbVertex
100
AcDb2dVertex
 10
178.149461
 20
158.024117
 30
0.0
  0
VERTEX
  5
4AB
330
4A6
100
AcDbEntity
  8
001
370
    50
100
AcDbVertex
100
AcDb2dVertex
 10
178.47783
 20
158.094962
 30
0.0
  0
VERTEX
  5
4AC
330
4A6
100
AcDbEntity
  8
001
370
    50
100
AcDbVertex
100
AcDb2dVertex
 10
178.771263
 20
158.193298
 30
0.0
  0
VERTEX
  5
4AD
330
4A6
100
AcDbEntity
  8
001
370
    50
100
AcDbVertex
100
AcDb2dVertex
 10
179.065372
 20
158.318572
 30
0.0
  0
VERTEX
  5
4AE
330
4A6
100
AcDbEntity
  8
001
370
    50
100
AcDbVertex
100
AcDb2dVertex
 10
179.354687
 20
158.46955
 30
0.0
  0
VERTEX
  5
4AF
330
4A6
100
AcDbEntity
  8
001
370
    50
100
AcDbVertex
100
AcDb2dVertex
 10
179.62756
 20
158.645451
 30
0.0
  0
VERTEX
  5
4B0
330
4A6
100
AcDbEntity
  8
001
370
    50
100
AcDbVertex
100
AcDb2dVertex
 10
179.882006
 20
158.844479
 30
0.0
  0
VERTEX
  5
4B1
330
4A6
100
AcDbEntity
  8
001
370
    50
100
AcDbVertex
100
AcDb2dVertex
 10
180.119417
 20
159.065656
 30
0.0
  0
VERTEX
  5
4B2
330
4A6
100
AcDbEntity
  8
001
370
    50
100
AcDbVertex
100
AcDb2dVertex
 10
180.337197
 20
159.306692
 30
0.0
  0
VERTEX
  5
4B3
330
4A6
100
AcDbEntity
  8
001
370
    50
100
AcDbVertex
100
AcDb2dVertex
 10
180.533505
 20
159.566406
 30
0.0
  0
VERTEX
  5
4B4
330
4A6
100
AcDbEntity
  8
001
370
    50
100
AcDbVertex
100
AcDb2dVertex
 10
180.70643
 20
159.842146
 30
0.0
  0
VERTEX
  5
4B5
330
4A6
100
AcDbEntity
  8
001
370
    50
100
AcDbVertex
100
AcDb2dVertex
 10
180.855236
 20
160.13248
 30
0.0
  0
VERTEX
  5
4B6
330
4A6
100
AcDbEntity
  8
001
370
    50
100
AcDbVertex
100
AcDb2dVertex
 10
180.978485
 20
160.43457
 30
0.0
  0
VERTEX
  5
4B7
330
4A6
100
AcDbEntity
  8
001
370
    50
100
AcDbVertex
100
AcDb2dVertex
 10
181.07539
 20
160.74668
 30
0.0
  0
VERTEX
  5
4B8
330
4A6
100
AcDbEntity
  8
001
370
    50
100
AcDbVertex
100
AcDb2dVertex
 10
181.145097
 20
161.065965
 30
0.0
  0
VERTEX
  5
4B9
330
4A6
100
AcDbEntity
  8
001
370
    50
100
AcDbVertex
100
AcDb2dVertex
 10
181.187143
 20
161.390349
 30
0.0
  0
VERTEX
  5
4BA
330
4A6
100
AcDbEntity
  8
001
370
    50
100
AcDbVertex
100
AcDb2dVertex
 10
181.201202
 20
161.717146
 30
0.0
  0
VERTEX
  5
4BB
330
4A6
100
AcDbEntity
  8
001
370
    50
100
AcDbVertex
100
AcDb2dVertex
 10
181.187143
 20
162.043942
 30
0.0
  0
VERTEX
  5
4BC
330
4A6
100
AcDbEntity
  8
001
370
    50
100
AcDbVertex
100
AcDb2dVertex
 10
181.145097
 20
162.368326
 30
0.0
  0
VERTEX
  5
4BD
330
4A6
100
AcDbEntity
  8
001
370
    50
100
AcDbVertex
100
AcDb2dVertex
 10
181.07539
 20
162.687611
 30
0.0
  0
VERTEX
  5
4BE
330
4A6
100
AcDbEntity
  8
001
370
    50
100
AcDbVertex
100
AcDb2dVertex
 10
180.978485
 20
162.999721
 30
0.0
  0
VERTEX
  5
4BF
330
4A6
100
AcDbEntity
  8
001
370
    50
100
AcDbVertex
100
AcDb2dVertex
 10
180.855236
 20
163.301811
 30
0.0
  0
VERTEX
  5
4C0
330
4A6
100
AcDbEntity
  8
001
370
    50
100
AcDbVertex
100
AcDb2dVertex
 10
180.70643
 20
163.592146
 30
0.0
  0
VERTEX
  5
4C1
330
4A6
100
AcDbEntity
  8
001
370
    50
100
AcDbVertex
100
AcDb2dVertex
 10
180.533505
 20
163.867886
 30
0.0
  0
VERTEX
  5
4C2
330
4A6
100
AcDbEntity
  8
001
370
    50
100
AcDbVertex
100
AcDb2dVertex
 10
180.337197
 20
164.127599
 30
0.0
  0
VERTEX
  5
4C3
330
4A6
100
AcDbEntity
  8
001
370
    50
100
AcDbVertex
100
AcDb2dVertex
 10
180.119417
 20
164.368636
 30
0.0
  0
VERTEX
  5
4C4
330
4A6
100
AcDbEntity
  8
001
370
    50
100
AcDbVertex
100
AcDb2dVertex
 10
179.882006
 20
164.589812
 30
0.0
  0
VERTEX
  5
4C5
330
4A6
100
AcDbEntity
  8
001
370
    50
100
AcDbVertex
100
AcDb2dVertex
 10
179.62756
 20
164.78884
 30
0.0
  0
VERTEX
  5
4C6
330
4A6
100
AcDbEntity
  8
001
370
    50
100
AcDbVertex
100
AcDb2dVertex
 10
179.354687
 20
164.964741
 30
0.0
  0
VERTEX
  5
4C7
330
4A6
100
AcDbEntity
  8
001
370
    50
100
AcDbVertex
100
AcDb2dVertex
 10
179.065372
 20
165.11572
 30
0.0
  0
VERTEX
  5
4C8
330
4A6
100
AcDbEntity
  8
001
370
    50
100
AcDbVertex
100
AcDb2dVertex
 10
178.771263
 20
165.240993
 30
0.0
  0
VERTEX
  5
4C9
330
4A6
100
AcDbEntity
  8
001
370
    50
100
AcDbVertex
100
AcDb2dVertex
 10
178.47783
 20
165.339329
 30
0.0
  0
VERTEX
  5
4CA
330
4A6
100
AcDbEntity
  8
001
370
    50
100
AcDbVertex
100
AcDb2dVertex
 10
178.149461
 20
165.410175
 30
0.0
  0
VERTEX
  5
4CB
330
4A6
100
AcDbEntity
  8
001
370
    50
100
AcDbVertex
100
AcDb2dVertex
 10
177.77892
 20
165.452862
 30
0.0
  0
VERTEX
  5
4CC
330
4A6
100
AcDbEntity
  8
001
370
    50
100
AcDbVertex
100
AcDb2dVertex
 10
177.508173
 20
165.467146
 30
0.0
  0
SEQEND
  5
4A7
330
4A6
100
AcDbEntity
  8
001
370
    50
  0
POLYLINE
  5
4CD
330
1F
100
AcDbEntity
  8
001
370
    50
100
AcDb2dPolyline
 66
     1
 10
0.0
 20
0.0
 30
0.0
  0
VERTEX
  5
4CF
330
4CD
100
AcDbEntity
  8
001
370
    50
100
AcDbVertex
100
AcDb2dVertex
 10
189.109281
 20
154.019815
 30
0.0
  0
VERTEX
  5
4D0
330
4CD
100
AcDbEntity
  8
001
370
    50
100
AcDbVertex
100
AcDb2dVertex
 10
188.644652
 20
153.990574
 30
0.0
  0
VERTEX
  5
4D1
330
4CD
100
AcDbEntity
  8
001
370
    50
100
AcDbVertex
100
AcDb2dVertex
 10
188.180088
 20
153.960363
 30
0.0
  0
VERTEX
  5
4D2
330
4CD
100
AcDbEntity
  8
001
370
    50
100
AcDbVertex
100
AcDb2dVertex
 10
188.036181
 20
153.950675
 30
0.0
  0
VERTEX
  5
4D3
330
4CD
100
AcDbEntity
  8
001
370
    50
100
AcDbVertex
100
AcDb2dVertex
 10
187.892281
 20
153.940893
 30
0.0
  0
SEQEND
  5
4CE
330
4CD
100
AcDbEntity
  8
001
370
    50
  0
POLYLINE
  5
4D4
330
1F
100
AcDbEntity
  8
001
370
    50
100
AcDb2dPolyline
 66
     1
 10
0.0
 20
0.0
 30
0.0
  0
VERTEX
  5
4D6
330
4D4
100
AcDbEntity
  8
001
370
    50
100
AcDbVertex
100
AcDb2dVertex
 10
190.326281
 20
154.106414
 30
0.0
  0
VERTEX
  5
4D7
330
4D4
100
AcDbEntity
  8
001
370
    50
100
AcDbVertex
100
AcDb2dVertex
 10
189.861643
 20
154.074409
 30
0.0
  0
VERTEX
  5
4D8
330
4D4
100
AcDbEntity
  8
001
370
    50
100
AcDbVertex
100
AcDb2dVertex
 10
189.397088
 20
154.041252
 30
0.0
  0
VERTEX
  5
4D9
330
4D4
100
AcDbEntity
  8
001
370
    50
100
AcDbVertex
100
AcDb2dVertex
 10
189.25318
 20
154.030588
 30
0.0
  0
VERTEX
  5
4DA
330
4D4
100
AcDbEntity
  8
001
370
    50
100
AcDbVertex
100
AcDb2dVertex
 10
189.109281
 20
154.019815
 30
0.0
  0
SEQEND
  5
4D5
330
4D4
100
AcDbEntity
  8
001
370
    50
  0
POLYLINE
  5
4DB
330
1F
100
AcDbEntity
  8
001
370
    50
100
AcDb2dPolyline
 66
     1
 10
0.0
 20
0.0
 30
0.0
  0
VERTEX
  5
4DD
330
4DB
100
AcDbEntity
  8
001
370
    50
100
AcDbVertex
100
AcDb2dVertex
 10
191.543281
 20
154.200666
 30
0.0
  0
VERTEX
  5
4DE
330
4DB
100
AcDbEntity
  8
001
370
    50
100
AcDbVertex
100
AcDb2dVertex
 10
191.078632
 20
154.165906
 30
0.0
  0
VERTEX
  5
4DF
330
4DB
100
AcDbEntity
  8
001
370
    50
100
AcDbVertex
100
AcDb2dVertex
 10
190.614088
 20
154.129813
 30
0.0
  0
VERTEX
  5
4E0
330
4DB
100
AcDbEntity
  8
001
370
    50
100
AcDbVertex
100
AcDb2dVertex
 10
190.470179
 20
154.118178
 30
0.0
  0
VERTEX
  5
4E1
330
4DB
100
AcDbEntity
  8
001
370
    50
100
AcDbVertex
100
AcDb2dVertex
 10
190.326281
 20
154.106414
 30
0.0
  0
SEQEND
  5
4DC
330
4DB
100
AcDbEntity
  8
001
370
    50
  0
POLYLINE
  5
4E2
330
1F
100
AcDbEntity
  8
001
370
    50
100
AcDb2dPolyline
 66
     1
 10
0.0
 20
0.0
 30
0.0
  0
VERTEX
  5
4E4
330
4E2
100
AcDbEntity
  8
001
370
    50
100
AcDbVertex
100
AcDb2dVertex
 10
192.760281
 20
154.302541
 30
0.0
  0
VERTEX
  5
4E5
330
4E2
100
AcDbEntity
  8
001
370
    50
100
AcDbVertex
100
AcDb2dVertex
 10
192.29562
 20
154.265037
 30
0.0
  0
VERTEX
  5
4E6
330
4E2
100
AcDbEntity
  8
001
370
    50
100
AcDbVertex
100
AcDb2dVertex
 10
191.831088
 20
154.226019
 30
0.0
  0
VERTEX
  5
4E7
330
4E2
100
AcDbEntity
  8
001
370
    50
100
AcDbVertex
100
AcDb2dVertex
 10
191.687178
 20
154.213415
 30
0.0
  0
VERTEX
  5
4E8
330
4E2
100
AcDbEntity
  8
001
370
    50
100
AcDbVertex
100
AcDb2dVertex
 10
191.543281
 20
154.200666
 30
0.0
  0
SEQEND
  5
4E3
330
4E2
100
AcDbEntity
  8
001
370
    50
  0
POLYLINE
  5
4E9
330
1F
100
AcDbEntity
  8
001
370
    50
100
AcDb2dPolyline
 66
     1
 10
0.0
 20
0.0
 30
0.0
  0
VERTEX
  5
4EB
330
4E9
100
AcDbEntity
  8
001
370
    50
100
AcDbVertex
100
AcDb2dVertex
 10
193.977281
 20
154.412009
 30
0.0
  0
VERTEX
  5
4EC
330
4E9
100
AcDbEntity
  8
001
370
    50
100
AcDbVertex
100
AcDb2dVertex
 10
193.512607
 20
154.371772
 30
0.0
  0
VERTEX
  5
4ED
330
4E9
100
AcDbEntity
  8
001
370
    50
100
AcDbVertex
100
AcDb2dVertex
 10
193.048088
 20
154.329841
 30
0.0
  0
VERTEX
  5
4EE
330
4E9
100
AcDbEntity
  8
001
370
    50
100
AcDbVertex
100
AcDb2dVertex
 10
192.904177
 20
154.316272
 30
0.0
  0
VERTEX
  5
4EF
330
4E9
100
AcDbEntity
  8
001
370
    50
100
AcDbVertex
100
AcDb2dVertex
 10
192.760281
 20
154.302541
 30
0.0
  0
SEQEND
  5
4EA
330
4E9
100
AcDbEntity
  8
001
370
    50
  0
POLYLINE
  5
4F0
330
1F
100
AcDbEntity
  8
001
370
    50
100
AcDb2dPolyline
 66
     1
 10
0.0
 20
0.0
 30
0.0
  0
VERTEX
  5
4F2
330
4F0
100
AcDbEntity
  8
001
370
    50
100
AcDbVertex
100
AcDb2dVertex
 10
195.194281
 20
154.529036
 30
0.0
  0
VERTEX
  5
4F3
330
4F0
100
AcDbEntity
  8
001
370
    50
100
AcDbVertex
100
AcDb2dVertex
 10
194.729593
 20
154.486077
 30
0.0
  0
VERTEX
  5
4F4
330
4F0
100
AcDbEntity
  8
001
370
    50
100
AcDbVertex
100
AcDb2dVertex
 10
194.265088
 20
154.441247
 30
0.0
  0
VERTEX
  5
4F5
330
4F0
100
AcDbEntity
  8
001
370
    50
100
AcDbVertex
100
AcDb2dVertex
 10
194.121176
 20
154.426718
 30
0.0
  0
VERTEX
  5
4F6
330
4F0
100
AcDbEntity
  8
001
370
    50
100
AcDbVertex
100
AcDb2dVertex
 10
193.977281
 20
154.412009
 30
0.0
  0
SEQEND
  5
4F1
330
4F0
100
AcDbEntity
  8
001
370
    50
  0
POLYLINE
  5
4F7
330
1F
100
AcDbEntity
  8
001
370
    50
100
AcDb2dPolyline
 66
     1
 10
0.0
 20
0.0
 30
0.0
  0
VERTEX
  5
4F9
330
4F7
100
AcDbEntity
  8
001
370
    50
100
AcDbVertex
100
AcDb2dVertex
 10
196.411281
 20
154.653586
 30
0.0
  0
VERTEX
  5
4FA
330
4F7
100
AcDbEntity
  8
001
370
    50
100
AcDbVertex
100
AcDb2dVertex
 10
195.946577
 20
154.607919
 30
0.0
  0
VERTEX
  5
4FB
330
4F7
100
AcDbEntity
  8
001
370
    50
100
AcDbVertex
100
AcDb2dVertex
 10
195.482088
 20
154.560203
 30
0.0
  0
VERTEX
  5
4FC
330
4F7
100
AcDbEntity
  8
001
370
    50
100
AcDbVertex
100
AcDb2dVertex
 10
195.338174
 20
154.544718
 30
0.0
  0
VERTEX
  5
4FD
330
4F7
100
AcDbEntity
  8
001
370
    50
100
AcDbVertex
100
AcDb2dVertex
 10
195.194281
 20
154.529036
 30
0.0
  0
SEQEND
  5
4F8
330
4F7
100
AcDbEntity
  8
001
370
    50
  0
POLYLINE
  5
4FE
330
1F
100
AcDbEntity
  8
001
370
    50
100
AcDb2dPolyline
 66
     1
 10
0.0
 20
0.0
 30
0.0
  0
VERTEX
  5
500
330
4FE
100
AcDbEntity
  8
001
370
    50
100
AcDbVertex
100
AcDb2dVertex
 10
197.628281
 20
154.785622
 30
0.0
  0
VERTEX
  5
501
330
4FE
100
AcDbEntity
  8
001
370
    50
100
AcDbVertex
100
AcDb2dVertex
 10
197.163561
 20
154.73726
 30
0.0
  0
VERTEX
  5
502
330
4FE
100
AcDbEntity
  8
001
370
    50
100
AcDbVertex
100
AcDb2dVertex
 10
196.699088
 20
154.686673
 30
0.0
  0
VERTEX
  5
503
330
4FE
100
AcDbEntity
  8
001
370
    50
100
AcDbVertex
100
AcDb2dVertex
 10
196.555173
 20
154.670237
 30
0.0
  0
VERTEX
  5
504
330
4FE
100
AcDbEntity
  8
001
370
    50
100
AcDbVertex
100
AcDb2dVertex
 10
196.411281
 20
154.653586
 30
0.0
  0
SEQEND
  5
4FF
330
4FE
100
AcDbEntity
  8
001
370
    50
  0
POLYLINE
  5
505
330
1F
100
AcDbEntity
  8
001
370
    50
100
AcDb2dPolyline
 66
     1
 10
0.0
 20
0.0
 30
0.0
  0
VERTEX
  5
507
330
505
100
AcDbEntity
  8
001
370
    50
100
AcDbVertex
100
AcDb2dVertex
 10
198.845281
 20
154.925103
 30
0.0
  0
VERTEX
  5
508
330
505
100
AcDbEntity
  8
001
370
    50
100
AcDbVertex
100
AcDb2dVertex
 10
198.380544
 20
154.874061
 30
0.0
  0
VERTEX
  5
509
330
505
100
AcDbEntity
  8
001
370
    50
100
AcDbVertex
100
AcDb2dVertex
 10
197.916088
 20
154.820619
 30
0.0
  0
VERTEX
  5
50A
330
505
100
AcDbEntity
  8
001
370
    50
100
AcDbVertex
100
AcDb2dVertex
 10
197.772171
 20
154.803236
 30
0.0
  0
VERTEX
  5
50B
330
505
100
AcDbEntity
  8
001
370
    50
100
AcDbVertex
100
AcDb2dVertex
 10
197.628281
 20
154.785622
 30
0.0
  0
SEQEND
  5
506
330
505
100
AcDbEntity
  8
001
370
    50
  0
POLYLINE
  5
50C
330
1F
100
AcDbEntity
  8
001
370
    50
100
AcDb2dPolyline
 66
     1
 10
0.0
 20
0.0
 30
0.0
  0
VERTEX
  5
50E
330
50C
100
AcDbEntity
  8
001
370
    50
100
AcDbVertex
100
AcDb2dVertex
 10
200.062281
 20
155.071987
 30
0.0
  0
VERTEX
  5
50F
330
50C
100
AcDbEntity
  8
001
370
    50
100
AcDbVertex
100
AcDb2dVertex
 10
199.597526
 20
155.018279
 30
0.0
  0
VERTEX
  5
510
330
50C
100
AcDbEntity
  8
001
370
    50
100
AcDbVertex
100
AcDb2dVertex
 10
199.133088
 20
154.961999
 30
0.0
  0
VERTEX
  5
511
330
50C
100
AcDbEntity
  8
001
370
    50
100
AcDbVertex
100
AcDb2dVertex
 10
198.989169
 20
154.943675
 30
0.0
  0
VERTEX
  5
512
330
50C
100
AcDbEntity
  8
001
370
    50
100
AcDbVertex
100
AcDb2dVertex
 10
198.845281
 20
154.925103
 30
0.0
  0
SEQEND
  5
50D
330
50C
100
AcDbEntity
  8
001
370
    50
  0
POLYLINE
  5
513
330
1F
100
AcDbEntity
  8
001
370
    50
100
AcDb2dPolyline
 66
     1
 10
0.0
 20
0.0
 30
0.0
  0
VERTEX
  5
515
330
513
100
AcDbEntity
  8
001
370
    50
100
AcDbVertex
100
AcDb2dVertex
 10
221.290624
 20
153.734049
 30
0.0
  0
VERTEX
  5
516
330
513
100
AcDbEntity
  8
001
370
    50
100
AcDbVertex
100
AcDb2dVertex
 10
220.914185
 20
153.802277
 30
0.0
  0
VERTEX
  5
517
330
513
100
AcDbEntity
  8
001
370
    50
100
AcDbVertex
100
AcDb2dVertex
 10
220.538134
 20
153.872538
 30
0.0
  0
VERTEX
  5
518
330
513
100
AcDbEntity
  8
001
370
    50
100
AcDbVertex
100
AcDb2dVertex
 10
220.115548
 20
153.955716
 30
0.0
  0
VERTEX
  5
519
330
513
100
AcDbEntity
  8
001
370
    50
100
AcDbVertex
100
AcDb2dVertex
 10
219.693491
 20
154.041613
 30
0.0
  0
VERTEX
  5
51A
330
513
100
AcDbEntity
  8
001
370
    50
100
AcDbVertex
100
AcDb2dVertex
 10
219.230788
 20
154.136497
 30
0.0
  0
VERTEX
  5
51B
330
513
100
AcDbEntity
  8
001
370
    50
100
AcDbVertex
100
AcDb2dVertex
 10
218.768054
 20
154.231198
 30
0.0
  0
VERTEX
  5
51C
330
513
100
AcDbEntity
  8
001
370
    50
100
AcDbVertex
100
AcDb2dVertex
 10
218.270794
 20
154.332079
 30
0.0
  0
VERTEX
  5
51D
330
513
100
AcDbEntity
  8
001
370
    50
100
AcDbVertex
100
AcDb2dVertex
 10
217.773183
 20
154.431217
 30
0.0
  0
VERTEX
  5
51E
330
513
100
AcDbEntity
  8
001
370
    50
100
AcDbVertex
100
AcDb2dVertex
 10
217.246094
 20
154.533323
 30
0.0
  0
VERTEX
  5
51F
330
513
100
AcDbEntity
  8
001
370
    50
100
AcDbVertex
100
AcDb2dVertex
 10
216.718373
 20
154.632119
 30
0.0
  0
VERTEX
  5
520
330
513
100
AcDbEntity
  8
001
370
    50
100
AcDbVertex
100
AcDb2dVertex
 10
216.161918
 20
154.732233
 30
0.0
  0
VERTEX
  5
521
330
513
100
AcDbEntity
  8
001
370
    50
100
AcDbVertex
100
AcDb2dVertex
 10
215.604697
 20
154.827989
 30
0.0
  0
VERTEX
  5
522
330
513
100
AcDbEntity
  8
001
370
    50
100
AcDbVertex
100
AcDb2dVertex
 10
215.024503
 20
154.922577
 30
0.0
  0
VERTEX
  5
523
330
513
100
AcDbEntity
  8
001
370
    50
100
AcDbVertex
100
AcDb2dVertex
 10
214.443448
 20
155.011725
 30
0.0
  0
VERTEX
  5
524
330
513
100
AcDbEntity
  8
001
370
    50
100
AcDbVertex
100
AcDb2dVertex
 10
213.845141
 20
155.097296
 30
0.0
  0
VERTEX
  5
525
330
513
100
AcDbEntity
  8
001
370
    50
100
AcDbVertex
100
AcDb2dVertex
 10
213.245922
 20
155.176225
 30
0.0
  0
VERTEX
  5
526
330
513
100
AcDbEntity
  8
001
370
    50
100
AcDbVertex
100
AcDb2dVertex
 10
212.582318
 20
155.255289
 30
0.0
  0
VERTEX
  5
527
330
513
100
AcDbEntity
  8
001
370
    50
100
AcDbVertex
100
AcDb2dVertex
 10
211.917733
 20
155.325677
 30
0.0
  0
VERTEX
  5
528
330
513
100
AcDbEntity
  8
001
370
    50
100
AcDbVertex
100
AcDb2dVertex
 10
211.23755
 20
155.388685
 30
0.0
  0
VERTEX
  5
529
330
513
100
AcDbEntity
  8
001
370
    50
100
AcDbVertex
100
AcDb2dVertex
 10
210.556587
 20
155.44261
 30
0.0
  0
VERTEX
  5
52A
330
513
100
AcDbEntity
  8
001
370
    50
100
AcDbVertex
100
AcDb2dVertex
 10
209.866035
 20
155.487884
 30
0.0
  0
VERTEX
  5
52B
330
513
100
AcDbEntity
  8
001
370
    50
100
AcDbVertex
100
AcDb2dVertex
 10
209.17492
 20
155.523551
 30
0.0
  0
VERTEX
  5
52C
330
513
100
AcDbEntity
  8
001
370
    50
100
AcDbVertex
100
AcDb2dVertex
 10
208.480199
 20
155.549455
 30
0.0
  0
VERTEX
  5
52D
330
513
100
AcDbEntity
  8
001
370
    50
100
AcDbVertex
100
AcDb2dVertex
 10
207.785171
 20
155.565027
 30
0.0
  0
VERTEX
  5
52E
330
513
100
AcDbEntity
  8
001
370
    50
100
AcDbVertex
100
AcDb2dVertex
 10
207.025863
 20
155.569905
 30
0.0
  0
VERTEX
  5
52F
330
513
100
AcDbEntity
  8
001
370
    50
100
AcDbVertex
100
AcDb2dVertex
 10
206.266569
 20
155.562419
 30
0.0
  0
VERTEX
  5
530
330
513
100
AcDbEntity
  8
001
370
    50
100
AcDbVertex
100
AcDb2dVertex
 10
205.507287
 20
155.543001
 30
0.0
  0
VERTEX
  5
531
330
513
100
AcDbEntity
  8
001
370
    50
100
AcDbVertex
100
AcDb2dVertex
 10
204.74839
 20
155.512008
 30
0.0
  0
VERTEX
  5
532
330
513
100
AcDbEntity
  8
001
370
    50
100
AcDbVertex
100
AcDb2dVertex
 10
203.996714
 20
155.470138
 30
0.0
  0
VERTEX
  5
533
330
513
100
AcDbEntity
  8
001
370
    50
100
AcDbVertex
100
AcDb2dVertex
 10
203.24574
 20
155.417188
 30
0.0
  0
VERTEX
  5
534
330
513
100
AcDbEntity
  8
001
370
    50
100
AcDbVertex
100
AcDb2dVertex
 10
202.509256
 20
155.354449
 30
0.0
  0
VERTEX
  5
535
330
513
100
AcDbEntity
  8
001
370
    50
100
AcDbVertex
100
AcDb2dVertex
 10
201.773727
 20
155.281352
 30
0.0
  0
VERTEX
  5
536
330
513
100
AcDbEntity
  8
001
370
    50
100
AcDbVertex
100
AcDb2dVertex
 10
201.341986
 20
155.233652
 30
0.0
  0
VERTEX
  5
537
330
513
100
AcDbEntity
  8
001
370
    50
100
AcDbVertex
100
AcDb2dVertex
 10
200.91068
 20
155.182236
 30
0.0
  0
VERTEX
  5
538
330
513
100
AcDbEntity
  8
001
370
    50
100
AcDbVertex
100
AcDb2dVertex
 10
200.486359
 20
155.128077
 30
0.0
  0
VERTEX
  5
539
330
513
100
AcDbEntity
  8
001
370
    50
100
AcDbVertex
100
AcDb2dVertex
 10
200.062281
 20
155.071987
 30
0.0
  0
SEQEND
  5
514
330
513
100
AcDbEntity
  8
001
370
    50
  0
POLYLINE
  5
53A
330
1F
100
AcDbEntity
  8
001
370
    50
100
AcDb2dPolyline
 66
     1
 10
0.0
 20
0.0
 30
0.0
  0
VERTEX
  5
53C
330
53A
100
AcDbEntity
  8
001
370
    50
100
AcDbVertex
100
AcDb2dVertex
 10
187.413405
 20
154.118266
 30
0.0
  0
VERTEX
  5
53D
330
53A
100
AcDbEntity
  8
001
370
    50
100
AcDbVertex
100
AcDb2dVertex
 10
187.502757
 20
154.079148
 30
0.0
  0
VERTEX
  5
53E
330
53A
100
AcDbEntity
  8
001
370
    50
100
AcDbVertex
100
AcDb2dVertex
 10
187.634241
 20
154.024107
 30
0.0
  0
VERTEX
  5
53F
330
53A
100
AcDbEntity
  8
001
370
    50
100
AcDbVertex
100
AcDb2dVertex
 10
187.765488
 20
153.972633
 30
0.0
  0
VERTEX
  5
540
330
53A
100
AcDbEntity
  8
001
370
    50
100
AcDbVertex
100
AcDb2dVertex
 10
187.855864
 20
153.938881
 30
0.0
  0
SEQEND
  5
53B
330
53A
100
AcDbEntity
  8
001
370
    50
  0
LINE
  5
541
330
1F
100
AcDbEntity
  8
001
370
    50
100
AcDbLine
 10
187.892281
 20
153.940893
 30
0.0
 11
187.855864
 21
153.938881
 31
0.0
  0
POLYLINE
  5
542
330
1F
100
AcDbEntity
  8
001
370
    50
100
AcDb2dPolyline
 66
     1
 10
0.0
 20
0.0
 30
0.0
  0
VERTEX
  5
544
330
542
100
AcDbEntity
  8
001
370
    50
100
AcDbVertex
100
AcDb2dVertex
 10
222.645033
 20
153.764594
 30
0.0
  0
VERTEX
  5
545
330
542
100
AcDbEntity
  8
001
370
    50
100
AcDbVertex
100
AcDb2dVertex
 10
222.471541
 20
153.726705
 30
0.0
  0
VERTEX
  5
546
330
542
100
AcDbEntity
  8
001
370
    50
100
AcDbVertex
100
AcDb2dVertex
 10
222.296877
 20
153.696176
 30
0.0
  0
VERTEX
  5
547
330
542
100
AcDbEntity
  8
001
370
    50
100
AcDbVertex
100
AcDb2dVertex
 10
222.066904
 20
153.676248
 30
0.0
  0
VERTEX
  5
548
330
542
100
AcDbEntity
  8
001
370
    50
100
AcDbVertex
100
AcDb2dVertex
 10
221.835758
 20
153.677339
 30
0.0
  0
VERTEX
  5
549
330
542
100
AcDbEntity
  8
001
370
    50
100
AcDbVertex
100
AcDb2dVertex
 10
221.562619
 20
153.699651
 30
0.0
  0
VERTEX
  5
54A
330
542
100
AcDbEntity
  8
001
370
    50
100
AcDbVertex
100
AcDb2dVertex
 10
221.290624
 20
153.734049
 30
0.0
  0
SEQEND
  5
543
330
542
100
AcDbEntity
  8
001
370
    50
  0
ARC
  5
54B
330
1F
100
AcDbEntity
  8
001
  6
DASHED
370
    50
100
AcDbCircle
 10
221.290624
 20
158.577657
 30
0.0
 40
4.99999999999999
100
AcDbArc
 50
285.707942
 51
292.075862
  0
ARC
  5
54C
330
1F
100
AcDbEntity
  8
001
370
    50
100
AcDbCircle
 10
221.290624
 20
158.577657
 30
0.0
 40
4.99999999999999
100
AcDbArc
 50
292.075862
 51
0.0
  0
LINE
  5
54D
330
1F
100
AcDbEntity
  8
001
370
    50
100
AcDbLine
 10
179.573919
 20
172.404028
 30
0.0
 11
179.497176
 21
172.468765
 31
0.0
  0
POLYLINE
  5
54E
330
1F
100
AcDbEntity
  8
001
370
    50
100
AcDb2dPolyline
 66
     1
 10
0.0
 20
0.0
 30
0.0
  0
VERTEX
  5
550
330
54E
100
AcDbEntity
  8
001
370
    50
100
AcDbVertex
100
AcDb2dVertex
 10
179.300295
 20
172.61383
 30
0.0
  0
VERTEX
  5
551
330
54E
100
AcDbEntity
  8
001
370
    50
100
AcDbVertex
100
AcDb2dVertex
 10
179.094614
 20
172.737658
 30
0.0
  0
VERTEX
  5
552
330
54E
100
AcDbEntity
  8
001
370
    50
100
AcDbVertex
100
AcDb2dVertex
 10
178.882837
 20
172.848142
 30
0.0
  0
VERTEX
  5
553
330
54E
100
AcDbEntity
  8
001
370
    50
100
AcDbVertex
100
AcDb2dVertex
 10
178.654964
 20
172.938395
 30
0.0
  0
VERTEX
  5
554
330
54E
100
AcDbEntity
  8
001
370
    50
100
AcDbVertex
100
AcDb2dVertex
 10
178.420671
 20
173.014599
 30
0.0
  0
SEQEND
  5
54F
330
54E
100
AcDbEntity
  8
001
370
    50
  0
LINE
  5
555
330
1F
100
AcDbEntity
  8
001
370
    50
100
AcDbLine
 10
177.608874
 20
173.11357
 30
0.0
 11
177.21352
 21
173.081087
 31
0.0
  0
POLYLINE
  5
556
330
1F
100
AcDbEntity
  8
001
370
    50
100
AcDb2dPolyline
 66
     1
 10
0.0
 20
0.0
 30
0.0
  0
VERTEX
  5
558
330
556
100
AcDbEntity
  8
001
370
    50
100
AcDbVertex
100
AcDb2dVertex
 10
178.420671
 20
173.014599
 30
0.0
  0
VERTEX
  5
559
330
556
100
AcDbEntity
  8
001
370
    50
100
AcDbVertex
100
AcDb2dVertex
 10
178.319971
 20
173.038889
 30
0.0
  0
VERTEX
  5
55A
330
556
100
AcDbEntity
  8
001
370
    50
100
AcDbVertex
100
AcDb2dVertex
 10
178.218827
 20
173.060531
 30
0.0
  0
VERTEX
  5
55B
330
556
100
AcDbEntity
  8
001
370
    50
100
AcDbVertex
100
AcDb2dVertex
 10
177.978705
 20
173.093979
 30
0.0
  0
VERTEX
  5
55C
330
556
100
AcDbEntity
  8
001
370
    50
100
AcDbVertex
100
AcDb2dVertex
 10
177.736145
 20
173.112862
 30
0.0
  0
SEQEND
  5
557
330
556
100
AcDbEntity
  8
001
370
    50
  0
POLYLINE
  5
55D
330
1F
100
AcDbEntity
  8
001
370
    50
100
AcDb2dPolyline
 66
     1
 10
0.0
 20
0.0
 30
0.0
  0
VERTEX
  5
55F
330
55D
100
AcDbEntity
  8
001
370
    50
100
AcDbVertex
100
AcDb2dVertex
 10
177.21352
 20
173.081087
 30
0.0
  0
VERTEX
  5
560
330
55D
100
AcDbEntity
  8
001
370
    50
100
AcDbVertex
100
AcDb2dVertex
 10
176.975026
 20
173.032166
 30
0.0
  0
VERTEX
  5
561
330
55D
100
AcDbEntity
  8
001
370
    50
100
AcDbVertex
100
AcDb2dVertex
 10
176.73943
 20
172.971969
 30
0.0
  0
VERTEX
  5
562
330
55D
100
AcDbEntity
  8
001
370
    50
100
AcDbVertex
100
AcDb2dVertex
 10
176.503643
 20
172.888824
 30
0.0
  0
VERTEX
  5
563
330
55D
100
AcDbEntity
  8
001
370
    50
100
AcDbVertex
100
AcDb2dVertex
 10
176.277163
 20
172.782992
 30
0.0
  0
VERTEX
  5
564
330
55D
100
AcDbEntity
  8
001
370
    50
100
AcDbVertex
100
AcDb2dVertex
 10
176.054677
 20
172.65271
 30
0.0
  0
VERTEX
  5
565
330
55D
100
AcDbEntity
  8
001
370
    50
100
AcDbVertex
100
AcDb2dVertex
 10
175.838864
 20
172.510896
 30
0.0
  0
SEQEND
  5
55E
330
55D
100
AcDbEntity
  8
001
370
    50
  0
POLYLINE
  5
566
330
1F
100
AcDbEntity
  8
001
370
    50
100
AcDb2dPolyline
 66
     1
 10
0.0
 20
0.0
 30
0.0
  0
VERTEX
  5
568
330
566
100
AcDbEntity
  8
001
370
    50
100
AcDbVertex
100
AcDb2dVertex
 10
166.884217
 20
159.22102
 30
0.0
  0
VERTEX
  5
569
330
566
100
AcDbEntity
  8
001
370
    50
100
AcDbVertex
100
AcDb2dVertex
 10
166.92071
 20
159.132795
 30
0.0
  0
VERTEX
  5
56A
330
566
100
AcDbEntity
  8
001
370
    50
100
AcDbVertex
100
AcDb2dVertex
 10
167.004872
 20
159.031615
 30
0.0
  0
VERTEX
  5
56B
330
566
100
AcDbEntity
  8
001
370
    50
100
AcDbVertex
100
AcDb2dVertex
 10
167.141326
 20
158.977386
 30
0.0
  0
VERTEX
  5
56C
330
566
100
AcDbEntity
  8
001
370
    50
100
AcDbVertex
100
AcDb2dVertex
 10
167.248656
 20
158.968347
 30
0.0
  0
SEQEND
  5
567
330
566
100
AcDbEntity
  8
001
370
    50
  0
POLYLINE
  5
56D
330
1F
100
AcDbEntity
  8
001
370
    50
100
AcDb2dPolyline
 66
     1
 10
0.0
 20
0.0
 30
0.0
  0
VERTEX
  5
56F
330
56D
100
AcDbEntity
  8
001
370
    50
100
AcDbVertex
100
AcDb2dVertex
 10
167.248656
 20
158.968347
 30
0.0
  0
VERTEX
  5
570
330
56D
100
AcDbEntity
  8
001
370
    50
100
AcDbVertex
100
AcDb2dVertex
 10
167.324959
 20
158.972844
 30
0.0
  0
VERTEX
  5
571
330
56D
100
AcDbEntity
  8
001
370
    50
100
AcDbVertex
100
AcDb2dVertex
 10
167.435521
 20
158.987648
 30
0.0
  0
VERTEX
  5
572
330
56D
100
AcDbEntity
  8
001
370
    50
100
AcDbVertex
100
AcDb2dVertex
 10
167.569061
 20
159.018532
 30
0.0
  0
VERTEX
  5
573
330
56D
100
AcDbEntity
  8
001
370
    50
100
AcDbVertex
100
AcDb2dVertex
 10
167.659117
 20
159.045514
 30
0.0
  0
SEQEND
  5
56E
330
56D
100
AcDbEntity
  8
001
370
    50
  0
POLYLINE
  5
574
330
1F
100
AcDbEntity
  8
001
370
    50
100
AcDb2dPolyline
 66
     1
 10
0.0
 20
0.0
 30
0.0
  0
VERTEX
  5
576
330
574
100
AcDbEntity
  8
001
370
    50
100
AcDbVertex
100
AcDb2dVertex
 10
166.884217
 20
159.22102
 30
0.0
  0
VERTEX
  5
577
330
574
100
AcDbEntity
  8
001
370
    50
100
AcDbVertex
100
AcDb2dVertex
 10
167.019969
 20
159.353871
 30
0.0
  0
VERTEX
  5
578
330
574
100
AcDbEntity
  8
001
370
    50
100
AcDbVertex
100
AcDb2dVertex
 10
167.218132
 20
159.548287
 30
0.0
  0
VERTEX
  5
579
330
574
100
AcDbEntity
  8
001
370
    50
100
AcDbVertex
100
AcDb2dVertex
 10
167.417493
 20
159.744565
 30
0.0
  0
VERTEX
  5
57A
330
574
100
AcDbEntity
  8
001
370
    50
100
AcDbVertex
100
AcDb2dVertex
 10
167.553729
 20
159.879031
 30
0.0
  0
SEQEND
  5
575
330
574
100
AcDbEntity
  8
001
370
    50
  0
LINE
  5
57B
330
1F
100
AcDbEntity
  8
001
370
    50
100
AcDbLine
 10
170.317662
 20
164.762924
 30
0.0
 11
170.23549
 21
164.05516
 31
0.0
  0
POLYLINE
  5
57C
330
1F
100
AcDbEntity
  8
001
370
    50
100
AcDb2dPolyline
 66
     1
 10
0.0
 20
0.0
 30
0.0
  0
VERTEX
  5
57E
330
57C
100
AcDbEntity
  8
001
370
    50
100
AcDbVertex
100
AcDb2dVertex
 10
170.223982
 20
163.4977
 30
0.0
  0
VERTEX
  5
57F
330
57C
100
AcDbEntity
  8
001
370
    50
100
AcDbVertex
100
AcDb2dVertex
 10
170.226323
 20
163.610887
 30
0.0
  0
VERTEX
  5
580
330
57C
100
AcDbEntity
  8
001
370
    50
100
AcDbVertex
100
AcDb2dVertex
 10
170.229741
 20
163.776314
 30
0.0
  0
VERTEX
  5
581
330
57C
100
AcDbEntity
  8
001
370
    50
100
AcDbVertex
100
AcDb2dVertex
 10
170.233156
 20
163.941879
 30
0.0
  0
VERTEX
  5
582
330
57C
100
AcDbEntity
  8
001
370
    50
100
AcDbVertex
100
AcDb2dVertex
 10
170.23549
 20
164.05516
 30
0.0
  0
SEQEND
  5
57D
330
57C
100
AcDbEntity
  8
001
370
    50
  0
POLYLINE
  5
583
330
1F
100
AcDbEntity
  8
001
370
    50
100
AcDb2dPolyline
 66
     1
 10
0.0
 20
0.0
 30
0.0
  0
VERTEX
  5
585
330
583
100
AcDbEntity
  8
001
370
    50
100
AcDbVertex
100
AcDb2dVertex
 10
171.312048
 20
166.605493
 30
0.0
  0
VERTEX
  5
586
330
583
100
AcDbEntity
  8
001
370
    50
100
AcDbVertex
100
AcDb2dVertex
 10
171.393426
 20
166.688216
 30
0.0
  0
VERTEX
  5
587
330
583
100
AcDbEntity
  8
001
370
    50
100
AcDbVertex
100
AcDb2dVertex
 10
171.51228
 20
166.809202
 30
0.0
  0
VERTEX
  5
588
330
583
100
AcDbEntity
  8
001
370
    50
100
AcDbVertex
100
AcDb2dVertex
 10
171.631368
 20
166.930662
 30
0.0
  0
VERTEX
  5
589
330
583
100
AcDbEntity
  8
001
370
    50
100
AcDbVertex
100
AcDb2dVertex
 10
171.712792
 20
167.013823
 30
0.0
  0
SEQEND
  5
584
330
583
100
AcDbEntity
  8
001
370
    50
  0
POLYLINE
  5
58A
330
1F
100
AcDbEntity
  8
001
370
    50
100
AcDb2dPolyline
 66
     1
 10
0.0
 20
0.0
 30
0.0
  0
VERTEX
  5
58C
330
58A
100
AcDbEntity
  8
001
370
    50
100
AcDbVertex
100
AcDb2dVertex
 10
171.312048
 20
166.605493
 30
0.0
  0
VERTEX
  5
58D
330
58A
100
AcDbEntity
  8
001
370
    50
100
AcDbVertex
100
AcDb2dVertex
 10
171.117464
 20
166.385716
 30
0.0
  0
VERTEX
  5
58E
330
58A
100
AcDbEntity
  8
001
370
    50
100
AcDbVertex
100
AcDb2dVertex
 10
170.934569
 20
166.157042
 30
0.0
  0
VERTEX
  5
58F
330
58A
100
AcDbEntity
  8
001
370
    50
100
AcDbVertex
100
AcDb2dVertex
 10
170.76871
 20
165.906207
 30
0.0
  0
VERTEX
  5
590
330
58A
100
AcDbEntity
  8
001
370
    50
100
AcDbVertex
100
AcDb2dVertex
 10
170.62463
 20
165.641498
 30
0.0
  0
VERTEX
  5
591
330
58A
100
AcDbEntity
  8
001
370
    50
100
AcDbVertex
100
AcDb2dVertex
 10
170.527664
 20
165.431292
 30
0.0
  0
VERTEX
  5
592
330
58A
100
AcDbEntity
  8
001
370
    50
100
AcDbVertex
100
AcDb2dVertex
 10
170.445018
 20
165.215545
 30
0.0
  0
VERTEX
  5
593
330
58A
100
AcDbEntity
  8
001
370
    50
100
AcDbVertex
100
AcDb2dVertex
 10
170.376825
 20
164.990724
 30
0.0
  0
VERTEX
  5
594
330
58A
100
AcDbEntity
  8
001
370
    50
100
AcDbVertex
100
AcDb2dVertex
 10
170.317662
 20
164.762924
 30
0.0
  0
SEQEND
  5
58B
330
58A
100
AcDbEntity
  8
001
370
    50
  0
POLYLINE
  5
595
330
1F
100
AcDbEntity
  8
001
370
    50
100
AcDb2dPolyline
 66
     1
 10
0.0
 20
0.0
 30
0.0
  0
VERTEX
  5
597
330
595
100
AcDbEntity
  8
001
370
    50
100
AcDbVertex
100
AcDb2dVertex
 10
171.366236
 20
165.747739
 30
0.0
  0
VERTEX
  5
598
330
595
100
AcDbEntity
  8
001
370
    50
100
AcDbVertex
100
AcDb2dVertex
 10
171.233207
 20
165.598272
 30
0.0
  0
VERTEX
  5
599
330
595
100
AcDbEntity
  8
001
370
    50
100
AcDbVertex
100
AcDb2dVertex
 10
171.064385
 20
165.379629
 30
0.0
  0
VERTEX
  5
59A
330
595
100
AcDbEntity
  8
001
370
    50
100
AcDbVertex
100
AcDb2dVertex
 10
170.933583
 20
165.165252
 30
0.0
  0
VERTEX
  5
59B
330
595
100
AcDbEntity
  8
001
370
    50
100
AcDbVertex
100
AcDb2dVertex
 10
170.837216
 20
164.959818
 30
0.0
  0
VERTEX
  5
59C
330
595
100
AcDbEntity
  8
001
370
    50
100
AcDbVertex
100
AcDb2dVertex
 10
170.756456
 20
164.747248
 30
0.0
  0
VERTEX
  5
59D
330
595
100
AcDbEntity
  8
001
370
    50
100
AcDbVertex
100
AcDb2dVertex
 10
170.693067
 20
164.503717
 30
0.0
  0
VERTEX
  5
59E
330
595
100
AcDbEntity
  8
001
370
    50
100
AcDbVertex
100
AcDb2dVertex
 10
170.652679
 20
164.228786
 30
0.0
  0
VERTEX
  5
59F
330
595
100
AcDbEntity
  8
001
370
    50
100
AcDbVertex
100
AcDb2dVertex
 10
170.637233
 20
164.028073
 30
0.0
  0
SEQEND
  5
596
330
595
100
AcDbEntity
  8
001
370
    50
  0
POLYLINE
  5
5A0
330
1F
100
AcDbEntity
  8
001
370
    50
100
AcDb2dPolyline
 66
     1
 10
0.0
 20
0.0
 30
0.0
  0
VERTEX
  5
5A2
330
5A0
100
AcDbEntity
  8
001
370
    50
100
AcDbVertex
100
AcDb2dVertex
 10
175.838864
 20
172.510896
 30
0.0
  0
VERTEX
  5
5A3
330
5A0
100
AcDbEntity
  8
001
370
    50
100
AcDbVertex
100
AcDb2dVertex
 10
175.668749
 20
172.371883
 30
0.0
  0
VERTEX
  5
5A4
330
5A0
100
AcDbEntity
  8
001
370
    50
100
AcDbVertex
100
AcDb2dVertex
 10
175.505466
 20
172.225548
 30
0.0
  0
VERTEX
  5
5A5
330
5A0
100
AcDbEntity
  8
001
370
    50
100
AcDbVertex
100
AcDb2dVertex
 10
175.351476
 20
172.062709
 30
0.0
  0
VERTEX
  5
5A6
330
5A0
100
AcDbEntity
  8
001
370
    50
100
AcDbVertex
100
AcDb2dVertex
 10
175.21087
 20
171.887679
 30
0.0
  0
VERTEX
  5
5A7
330
5A0
100
AcDbEntity
  8
001
370
    50
100
AcDbVertex
100
AcDb2dVertex
 10
175.0678
 20
171.678975
 30
0.0
  0
VERTEX
  5
5A8
330
5A0
100
AcDbEntity
  8
001
370
    50
100
AcDbVertex
100
AcDb2dVertex
 10
174.942371
 20
171.459496
 30
0.0
  0
VERTEX
  5
5A9
330
5A0
100
AcDbEntity
  8
001
370
    50
100
AcDbVertex
100
AcDb2dVertex
 10
174.833199
 20
171.22351
 30
0.0
  0
VERTEX
  5
5AA
330
5A0
100
AcDbEntity
  8
001
370
    50
100
AcDbVertex
100
AcDb2dVertex
 10
174.744085
 20
170.97892
 30
0.0
  0
VERTEX
  5
5AB
330
5A0
100
AcDbEntity
  8
001
370
    50
100
AcDbVertex
100
AcDb2dVertex
 10
174.67747
 20
170.736772
 30
0.0
  0
VERTEX
  5
5AC
330
5A0
100
AcDbEntity
  8
001
370
    50
100
AcDbVertex
100
AcDb2dVertex
 10
174.63307
 20
170.490138
 30
0.0
  0
VERTEX
  5
5AD
330
5A0
100
AcDbEntity
  8
001
370
    50
100
AcDbVertex
100
AcDb2dVertex
 10
174.611758
 20
170.233871
 30
0.0
  0
VERTEX
  5
5AE
330
5A0
100
AcDbEntity
  8
001
370
    50
100
AcDbVertex
100
AcDb2dVertex
 10
174.604266
 20
169.976132
 30
0.0
  0
SEQEND
  5
5A1
330
5A0
100
AcDbEntity
  8
001
370
    50
  0
POLYLINE
  5
5AF
330
1F
100
AcDbEntity
  8
001
370
    50
100
AcDb2dPolyline
 66
     1
 10
0.0
 20
0.0
 30
0.0
  0
VERTEX
  5
5B1
330
5AF
100
AcDbEntity
  8
001
370
    50
100
AcDbVertex
100
AcDb2dVertex
 10
177.63391
 20
173.113938
 30
0.0
  0
VERTEX
  5
5B2
330
5AF
100
AcDbEntity
  8
001
370
    50
100
AcDbVertex
100
AcDb2dVertex
 10
177.628841
 20
173.113921
 30
0.0
  0
VERTEX
  5
5B3
330
5AF
100
AcDbEntity
  8
001
370
    50
100
AcDbVertex
100
AcDb2dVertex
 10
177.621434
 20
173.113846
 30
0.0
  0
VERTEX
  5
5B4
330
5AF
100
AcDbEntity
  8
001
370
    50
100
AcDbVertex
100
AcDb2dVertex
 10
177.613976
 20
173.113702
 30
0.0
  0
VERTEX
  5
5B5
330
5AF
100
AcDbEntity
  8
001
370
    50
100
AcDbVertex
100
AcDb2dVertex
 10
177.608874
 20
173.11357
 30
0.0
  0
SEQEND
  5
5B0
330
5AF
100
AcDbEntity
  8
001
370
    50
  0
POLYLINE
  5
5B6
330
1F
100
AcDbEntity
  8
001
  6
DASHED
370
    50
100
AcDb2dPolyline
 66
     1
 10
0.0
 20
0.0
 30
0.0
  0
VERTEX
  5
5B8
330
5B6
100
AcDbEntity
  8
001
  6
DASHED
370
    50
100
AcDbVertex
100
AcDb2dVertex
 10
177.641646
 20
173.113903
 30
0.0
  0
VERTEX
  5
5B9
330
5B6
100
AcDbEntity
  8
001
  6
DASHED
370
    50
100
AcDbVertex
100
AcDb2dVertex
 10
177.640076
 20
173.113916
 30
0.0
  0
VERTEX
  5
5BA
330
5B6
100
AcDbEntity
  8
001
  6
DASHED
370
    50
100
AcDbVertex
100
AcDb2dVertex
 10
177.637782
 20
173.113929
 30
0.0
  0
VERTEX
  5
5BB
330
5B6
100
AcDbEntity
  8
001
  6
DASHED
370
    50
100
AcDbVertex
100
AcDb2dVertex
 10
177.635483
 20
173.113937
 30
0.0
  0
VERTEX
  5
5BC
330
5B6
100
AcDbEntity
  8
001
  6
DASHED
370
    50
100
AcDbVertex
100
AcDb2dVertex
 10
177.63391
 20
173.113938
 30
0.0
  0
SEQEND
  5
5B7
330
5B6
100
AcDbEntity
  8
001
  6
DASHED
370
    50
  0
POLYLINE
  5
5BD
330
1F
100
AcDbEntity
  8
001
370
    50
100
AcDb2dPolyline
 66
     1
 10
0.0
 20
0.0
 30
0.0
  0
VERTEX
  5
5BF
330
5BD
100
AcDbEntity
  8
001
370
    50
100
AcDbVertex
100
AcDb2dVertex
 10
177.736145
 20
173.112862
 30
0.0
  0
VERTEX
  5
5C0
330
5BD
100
AcDbEntity
  8
001
370
    50
100
AcDbVertex
100
AcDb2dVertex
 10
177.716985
 20
173.113186
 30
0.0
  0
VERTEX
  5
5C1
330
5BD
100
AcDbEntity
  8
001
370
    50
100
AcDbVertex
100
AcDb2dVertex
 10
177.688981
 20
173.113562
 30
0.0
  0
VERTEX
  5
5C2
330
5BD
100
AcDbEntity
  8
001
370
    50
100
AcDbVertex
100
AcDb2dVertex
 10
177.660876
 20
173.113804
 30
0.0
  0
VERTEX
  5
5C3
330
5BD
100
AcDbEntity
  8
001
370
    50
100
AcDbVertex
100
AcDb2dVertex
 10
177.641646
 20
173.113903
 30
0.0
  0
SEQEND
  5
5BE
330
5BD
100
AcDbEntity
  8
001
370
    50
  0
LINE
  5
5C4
330
1F
100
AcDbEntity
  8
001
370
    50
100
AcDbLine
 10
179.497176
 20
172.468765
 30
0.0
 11
179.300295
 21
172.61383
 31
0.0
  0
POLYLINE
  5
5C5
330
1F
100
AcDbEntity
  8
001
370
    50
100
AcDb2dPolyline
 66
     1
 10
0.0
 20
0.0
 30
0.0
  0
VERTEX
  5
5C7
330
5C5
100
AcDbEntity
  8
001
370
    50
100
AcDbVertex
100
AcDb2dVertex
 10
180.544364
 20
170.552732
 30
0.0
  0
VERTEX
  5
5C8
330
5C5
100
AcDbEntity
  8
001
370
    50
100
AcDbVertex
100
AcDb2dVertex
 10
180.494752
 20
170.825733
 30
0.0
  0
VERTEX
  5
5C9
330
5C5
100
AcDbEntity
  8
001
370
    50
100
AcDbVertex
100
AcDb2dVertex
 10
180.428773
 20
171.094148
 30
0.0
  0
VERTEX
  5
5CA
330
5C5
100
AcDbEntity
  8
001
370
    50
100
AcDbVertex
100
AcDb2dVertex
 10
180.344663
 20
171.328549
 30
0.0
  0
VERTEX
  5
5CB
330
5C5
100
AcDbEntity
  8
001
370
    50
100
AcDbVertex
100
AcDb2dVertex
 10
180.239018
 20
171.555008
 30
0.0
  0
VERTEX
  5
5CC
330
5C5
100
AcDbEntity
  8
001
370
    50
100
AcDbVertex
100
AcDb2dVertex
 10
180.111694
 20
171.778536
 30
0.0
  0
VERTEX
  5
5CD
330
5C5
100
AcDbEntity
  8
001
370
    50
100
AcDbVertex
100
AcDb2dVertex
 10
179.964156
 20
171.988159
 30
0.0
  0
VERTEX
  5
5CE
330
5C5
100
AcDbEntity
  8
001
370
    50
100
AcDbVertex
100
AcDb2dVertex
 10
179.776114
 20
172.201919
 30
0.0
  0
VERTEX
  5
5CF
330
5C5
100
AcDbEntity
  8
001
370
    50
100
AcDbVertex
100
AcDb2dVertex
 10
179.573919
 20
172.404028
 30
0.0
  0
SEQEND
  5
5C6
330
5C5
100
AcDbEntity
  8
001
370
    50
  0
LINE
  5
5D0
330
1F
100
AcDbEntity
  8
001
370
    50
100
AcDbLine
 10
180.559859
 20
170.05343
 30
0.0
 11
180.544364
 21
170.552732
 31
0.0
  0
POLYLINE
  5
5D1
330
1F
100
AcDbEntity
  8
001
370
    50
100
AcDb2dPolyline
 66
     1
 10
0.0
 20
0.0
 30
0.0
  0
VERTEX
  5
5D3
330
5D1
100
AcDbEntity
  8
001
370
    50
100
AcDbVertex
100
AcDb2dVertex
 10
179.245723
 20
168.554744
 30
0.0
  0
VERTEX
  5
5D4
330
5D1
100
AcDbEntity
  8
001
370
    50
100
AcDbVertex
100
AcDb2dVertex
 10
179.485089
 20
168.749988
 30
0.0
  0
VERTEX
  5
5D5
330
5D1
100
AcDbEntity
  8
001
370
    50
100
AcDbVertex
100
AcDb2dVertex
 10
179.79714
 20
169.026068
 30
0.0
  0
VERTEX
  5
5D6
330
5D1
100
AcDbEntity
  8
001
370
    50
100
AcDbVertex
100
AcDb2dVertex
 10
180.032493
 20
169.264507
 30
0.0
  0
VERTEX
  5
5D7
330
5D1
100
AcDbEntity
  8
001
370
    50
100
AcDbVertex
100
AcDb2dVertex
 10
180.239715
 20
169.530796
 30
0.0
  0
VERTEX
  5
5D8
330
5D1
100
AcDbEntity
  8
001
370
    50
100
AcDbVertex
100
AcDb2dVertex
 10
180.43159
 20
169.827475
 30
0.0
  0
VERTEX
  5
5D9
330
5D1
100
AcDbEntity
  8
001
370
    50
100
AcDbVertex
100
AcDb2dVertex
 10
180.559859
 20
170.05343
 30
0.0
  0
SEQEND
  5
5D2
330
5D1
100
AcDbEntity
  8
001
370
    50
  0
POLYLINE
  5
5DA
330
1F
100
AcDbEntity
  8
001
370
    50
100
AcDb2dPolyline
 66
     1
 10
0.0
 20
0.0
 30
0.0
  0
VERTEX
  5
5DC
330
5DA
100
AcDbEntity
  8
001
370
    50
100
AcDbVertex
100
AcDb2dVertex
 10
179.245723
 20
168.554744
 30
0.0
  0
VERTEX
  5
5DD
330
5DA
100
AcDbEntity
  8
001
370
    50
100
AcDbVertex
100
AcDb2dVertex
 10
179.34965
 20
168.750664
 30
0.0
  0
VERTEX
  5
5DE
330
5DA
100
AcDbEntity
  8
001
370
    50
100
AcDbVertex
100
AcDb2dVertex
 10
179.47591
 20
169.028436
 30
0.0
  0
VERTEX
  5
5DF
330
5DA
100
AcDbEntity
  8
001
370
    50
100
AcDbVertex
100
AcDb2dVertex
 10
179.565126
 20
169.288601
 30
0.0
  0
VERTEX
  5
5E0
330
5DA
100
AcDbEntity
  8
001
370
    50
100
AcDbVertex
100
AcDb2dVertex
 10
179.620711
 20
169.53578
 30
0.0
  0
VERTEX
  5
5E1
330
5DA
100
AcDbEntity
  8
001
370
    50
100
AcDbVertex
100
AcDb2dVertex
 10
179.658027
 20
169.794634
 30
0.0
  0
VERTEX
  5
5E2
330
5DA
100
AcDbEntity
  8
001
370
    50
100
AcDbVertex
100
AcDb2dVertex
 10
179.675636
 20
170.061048
 30
0.0
  0
VERTEX
  5
5E3
330
5DA
100
AcDbEntity
  8
001
370
    50
100
AcDbVertex
100
AcDb2dVertex
 10
179.669166
 20
170.325991
 30
0.0
  0
VERTEX
  5
5E4
330
5DA
100
AcDbEntity
  8
001
370
    50
100
AcDbVertex
100
AcDb2dVertex
 10
179.638982
 20
170.587956
 30
0.0
  0
VERTEX
  5
5E5
330
5DA
100
AcDbEntity
  8
001
370
    50
100
AcDbVertex
100
AcDb2dVertex
 10
179.586445
 20
170.846643
 30
0.0
  0
VERTEX
  5
5E6
330
5DA
100
AcDbEntity
  8
001
370
    50
100
AcDbVertex
100
AcDb2dVertex
 10
179.511886
 20
171.100169
 30
0.0
  0
VERTEX
  5
5E7
330
5DA
100
AcDbEntity
  8
001
370
    50
100
AcDbVertex
100
AcDb2dVertex
 10
179.415681
 20
171.345687
 30
0.0
  0
VERTEX
  5
5E8
330
5DA
100
AcDbEntity
  8
001
370
    50
100
AcDbVertex
100
AcDb2dVertex
 10
179.298288
 20
171.581806
 30
0.0
  0
VERTEX
  5
5E9
330
5DA
100
AcDbEntity
  8
001
370
    50
100
AcDbVertex
100
AcDb2dVertex
 10
179.160885
 20
171.806329
 30
0.0
  0
VERTEX
  5
5EA
330
5DA
100
AcDbEntity
  8
001
370
    50
100
AcDbVertex
100
AcDb2dVertex
 10
179.00481
 20
172.017937
 30
0.0
  0
VERTEX
  5
5EB
330
5DA
100
AcDbEntity
  8
001
370
    50
100
AcDbVertex
100
AcDb2dVertex
 10
178.83178
 20
172.214372
 30
0.0
  0
VERTEX
  5
5EC
330
5DA
100
AcDbEntity
  8
001
370
    50
100
AcDbVertex
100
AcDb2dVertex
 10
178.64055
 20
172.39504
 30
0.0
  0
VERTEX
  5
5ED
330
5DA
100
AcDbEntity
  8
001
370
    50
100
AcDbVertex
100
AcDb2dVertex
 10
178.432518
 20
172.558153
 30
0.0
  0
VERTEX
  5
5EE
330
5DA
100
AcDbEntity
  8
001
370
    50
100
AcDbVertex
100
AcDb2dVertex
 10
178.216801
 20
172.701425
 30
0.0
  0
VERTEX
  5
5EF
330
5DA
100
AcDbEntity
  8
001
370
    50
100
AcDbVertex
100
AcDb2dVertex
 10
177.997722
 20
172.82297
 30
0.0
  0
VERTEX
  5
5F0
330
5DA
100
AcDbEntity
  8
001
370
    50
100
AcDbVertex
100
AcDb2dVertex
 10
177.746701
 20
172.927592
 30
0.0
  0
VERTEX
  5
5F1
330
5DA
100
AcDbEntity
  8
001
370
    50
100
AcDbVertex
100
AcDb2dVertex
 10
177.458152
 20
173.015705
 30
0.0
  0
VERTEX
  5
5F2
330
5DA
100
AcDbEntity
  8
001
370
    50
100
AcDbVertex
100
AcDb2dVertex
 10
177.244822
 20
173.066531
 30
0.0
  0
SEQEND
  5
5DB
330
5DA
100
AcDbEntity
  8
001
370
    50
  0
POLYLINE
  5
5F3
330
1F
100
AcDbEntity
  8
001
370
    50
100
AcDb2dPolyline
 66
     1
 10
0.0
 20
0.0
 30
0.0
  0
VERTEX
  5
5F5
330
5F3
100
AcDbEntity
  8
001
370
    50
100
AcDbVertex
100
AcDb2dVertex
 10
180.559859
 20
170.05343
 30
0.0
  0
VERTEX
  5
5F6
330
5F3
100
AcDbEntity
  8
001
370
    50
100
AcDbVertex
100
AcDb2dVertex
 10
180.774472
 20
169.81139
 30
0.0
  0
VERTEX
  5
5F7
330
5F3
100
AcDbEntity
  8
001
370
    50
100
AcDbVertex
100
AcDb2dVertex
 10
181.088956
 20
169.458368
 30
0.0
  0
VERTEX
  5
5F8
330
5F3
100
AcDbEntity
  8
001
370
    50
100
AcDbVertex
100
AcDb2dVertex
 10
181.402673
 20
169.108495
 30
0.0
  0
VERTEX
  5
5F9
330
5F3
100
AcDbEntity
  8
001
370
    50
100
AcDbVertex
100
AcDb2dVertex
 10
181.617879
 20
168.869608
 30
0.0
  0
SEQEND
  5
5F4
330
5F3
100
AcDbEntity
  8
001
370
    50
  0
POLYLINE
  5
5FA
330
1F
100
AcDbEntity
  8
001
370
    50
100
AcDb2dPolyline
 66
     1
 10
0.0
 20
0.0
 30
0.0
  0
VERTEX
  5
5FC
330
5FA
100
AcDbEntity
  8
001
370
    50
100
AcDbVertex
100
AcDb2dVertex
 10
181.617879
 20
168.869608
 30
0.0
  0
VERTEX
  5
5FD
330
5FA
100
AcDbEntity
  8
001
370
    50
100
AcDbVertex
100
AcDb2dVertex
 10
181.843239
 20
168.610241
 30
0.0
  0
VERTEX
  5
5FE
330
5FA
100
AcDbEntity
  8
001
370
    50
100
AcDbVertex
100
AcDb2dVertex
 10
182.173519
 20
168.231957
 30
0.0
  0
VERTEX
  5
5FF
330
5FA
100
AcDbEntity
  8
001
370
    50
100
AcDbVertex
100
AcDb2dVertex
 10
182.503062
 20
167.857053
 30
0.0
  0
VERTEX
  5
600
330
5FA
100
AcDbEntity
  8
001
370
    50
100
AcDbVertex
100
AcDb2dVertex
 10
182.729157
 20
167.601082
 30
0.0
  0
SEQEND
  5
5FB
330
5FA
100
AcDbEntity
  8
001
370
    50
  0
POLYLINE
  5
601
330
1F
100
AcDbEntity
  8
001
370
    50
100
AcDb2dPolyline
 66
     1
 10
0.0
 20
0.0
 30
0.0
  0
VERTEX
  5
603
330
601
100
AcDbEntity
  8
001
370
    50
100
AcDbVertex
100
AcDb2dVertex
 10
187.177641
 20
162.259117
 30
0.0
  0
VERTEX
  5
604
330
601
100
AcDbEntity
  8
001
370
    50
100
AcDbVertex
100
AcDb2dVertex
 10
187.302081
 20
162.100326
 30
0.0
  0
VERTEX
  5
605
330
601
100
AcDbEntity
  8
001
370
    50
100
AcDbVertex
100
AcDb2dVertex
 10
187.484234
 20
161.868468
 30
0.0
  0
VERTEX
  5
606
330
601
100
AcDbEntity
  8
001
370
    50
100
AcDbVertex
100
AcDb2dVertex
 10
187.666349
 20
161.637463
 30
0.0
  0
VERTEX
  5
607
330
601
100
AcDbEntity
  8
001
370
    50
100
AcDbVertex
100
AcDb2dVertex
 10
187.791145
 20
161.479558
 30
0.0
  0
SEQEND
  5
602
330
601
100
AcDbEntity
  8
001
370
    50
  0
POLYLINE
  5
608
330
1F
100
AcDbEntity
  8
001
370
    50
100
AcDb2dPolyline
 66
     1
 10
0.0
 20
0.0
 30
0.0
  0
VERTEX
  5
60A
330
608
100
AcDbEntity
  8
001
370
    50
100
AcDbVertex
100
AcDb2dVertex
 10
188.27603
 20
160.600058
 30
0.0
  0
VERTEX
  5
60B
330
608
100
AcDbEntity
  8
001
370
    50
100
AcDbVertex
100
AcDb2dVertex
 10
188.264701
 20
160.631297
 30
0.0
  0
VERTEX
  5
60C
330
608
100
AcDbEntity
  8
001
370
    50
100
AcDbVertex
100
AcDb2dVertex
 10
188.253211
 20
160.662486
 30
0.0
  0
VERTEX
  5
60D
330
608
100
AcDbEntity
  8
001
370
    50
100
AcDbVertex
100
AcDb2dVertex
 10
188.16326
 20
160.878222
 30
0.0
  0
VERTEX
  5
60E
330
608
100
AcDbEntity
  8
001
370
    50
100
AcDbVertex
100
AcDb2dVertex
 10
188.055635
 20
161.08552
 30
0.0
  0
VERTEX
  5
60F
330
608
100
AcDbEntity
  8
001
370
    50
100
AcDbVertex
100
AcDb2dVertex
 10
187.928381
 20
161.28562
 30
0.0
  0
VERTEX
  5
610
330
608
100
AcDbEntity
  8
001
370
    50
100
AcDbVertex
100
AcDb2dVertex
 10
187.791145
 20
161.479558
 30
0.0
  0
SEQEND
  5
609
330
608
100
AcDbEntity
  8
001
370
    50
  0
POLYLINE
  5
611
330
1F
100
AcDbEntity
  8
001
370
    50
100
AcDb2dPolyline
 66
     1
 10
0.0
 20
0.0
 30
0.0
  0
VERTEX
  5
613
330
611
100
AcDbEntity
  8
001
370
    50
100
AcDbVertex
100
AcDb2dVertex
 10
188.426379
 20
159.151218
 30
0.0
  0
VERTEX
  5
614
330
611
100
AcDbEntity
  8
001
370
    50
100
AcDbVertex
100
AcDb2dVertex
 10
188.320639
 20
158.222891
 30
0.0
  0
VERTEX
  5
615
330
611
100
AcDbEntity
  8
001
370
    50
100
AcDbVertex
100
AcDb2dVertex
 10
188.169232
 20
156.865755
 30
0.0
  0
VERTEX
  5
616
330
611
100
AcDbEntity
  8
001
370
    50
100
AcDbVertex
100
AcDb2dVertex
 10
188.021379
 20
155.5007
 30
0.0
  0
VERTEX
  5
617
330
611
100
AcDbEntity
  8
001
370
    50
100
AcDbVertex
100
AcDb2dVertex
 10
187.922366
 20
154.566482
 30
0.0
  0
SEQEND
  5
612
330
611
100
AcDbEntity
  8
001
370
    50
  0
POLYLINE
  5
618
330
1F
100
AcDbEntity
  8
001
370
    50
100
AcDb2dPolyline
 66
     1
 10
0.0
 20
0.0
 30
0.0
  0
VERTEX
  5
61A
330
618
100
AcDbEntity
  8
001
370
    50
100
AcDbVertex
100
AcDb2dVertex
 10
188.426379
 20
159.151218
 30
0.0
  0
VERTEX
  5
61B
330
618
100
AcDbEntity
  8
001
370
    50
100
AcDbVertex
100
AcDb2dVertex
 10
188.44183
 20
159.376244
 30
0.0
  0
VERTEX
  5
61C
330
618
100
AcDbEntity
  8
001
370
    50
100
AcDbVertex
100
AcDb2dVertex
 10
188.448423
 20
159.601562
 30
0.0
  0
VERTEX
  5
61D
330
618
100
AcDbEntity
  8
001
370
    50
100
AcDbVertex
100
AcDb2dVertex
 10
188.436329
 20
159.854262
 30
0.0
  0
VERTEX
  5
61E
330
618
100
AcDbEntity
  8
001
370
    50
100
AcDbVertex
100
AcDb2dVertex
 10
188.401486
 20
160.104759
 30
0.0
  0
VERTEX
  5
61F
330
618
100
AcDbEntity
  8
001
370
    50
100
AcDbVertex
100
AcDb2dVertex
 10
188.344696
 20
160.353721
 30
0.0
  0
VERTEX
  5
620
330
618
100
AcDbEntity
  8
001
370
    50
100
AcDbVertex
100
AcDb2dVertex
 10
188.27603
 20
160.600058
 30
0.0
  0
SEQEND
  5
619
330
618
100
AcDbEntity
  8
001
370
    50
  0
POLYLINE
  5
621
330
1F
100
AcDbEntity
  8
001
370
    50
100
AcDb2dPolyline
 66
     1
 10
0.0
 20
0.0
 30
0.0
  0
VERTEX
  5
623
330
621
100
AcDbEntity
  8
001
370
    50
100
AcDbVertex
100
AcDb2dVertex
 10
187.413405
 20
159.151218
 30
0.0
  0
VERTEX
  5
624
330
621
100
AcDbEntity
  8
001
370
    50
100
AcDbVertex
100
AcDb2dVertex
 10
187.402074
 20
159.355612
 30
0.0
  0
VERTEX
  5
625
330
621
100
AcDbEntity
  8
001
370
    50
100
AcDbVertex
100
AcDb2dVertex
 10
187.366683
 20
159.635948
 30
0.0
  0
VERTEX
  5
626
330
621
100
AcDbEntity
  8
001
370
    50
100
AcDbVertex
100
AcDb2dVertex
 10
187.306812
 20
159.88474
 30
0.0
  0
VERTEX
  5
627
330
621
100
AcDbEntity
  8
001
370
    50
100
AcDbVertex
100
AcDb2dVertex
 10
187.228291
 20
160.10228
 30
0.0
  0
VERTEX
  5
628
330
621
100
AcDbEntity
  8
001
370
    50
100
AcDbVertex
100
AcDb2dVertex
 10
187.13351
 20
160.312718
 30
0.0
  0
VERTEX
  5
629
330
621
100
AcDbEntity
  8
001
370
    50
100
AcDbVertex
100
AcDb2dVertex
 10
187.00348
 20
160.532515
 30
0.0
  0
VERTEX
  5
62A
330
621
100
AcDbEntity
  8
001
370
    50
100
AcDbVertex
100
AcDb2dVertex
 10
186.834441
 20
160.756878
 30
0.0
  0
VERTEX
  5
62B
330
621
100
AcDbEntity
  8
001
370
    50
100
AcDbVertex
100
AcDb2dVertex
 10
186.700783
 20
160.910325
 30
0.0
  0
SEQEND
  5
622
330
621
100
AcDbEntity
  8
001
370
    50
  0
LINE
  5
62C
330
1F
100
AcDbEntity
  8
001
370
    50
100
AcDbLine
 10
187.413405
 20
154.118266
 30
0.0
 11
187.413405
 21
159.151218
 31
0.0
  0
POLYLINE
  5
62D
330
1F
100
AcDbEntity
  8
001
370
    50
100
AcDb2dPolyline
 66
     1
 10
0.0
 20
0.0
 30
0.0
  0
VERTEX
  5
62F
330
62D
100
AcDbEntity
  8
001
370
    50
100
AcDbVertex
100
AcDb2dVertex
 10
187.922366
 20
154.566482
 30
0.0
  0
VERTEX
  5
630
330
62D
100
AcDbEntity
  8
001
370
    50
100
AcDbVertex
100
AcDb2dVertex
 10
187.908798
 20
154.439062
 30
0.0
  0
VERTEX
  5
631
330
62D
100
AcDbEntity
  8
001
370
    50
100
AcDbVertex
100
AcDb2dVertex
 10
187.889025
 20
154.252826
 30
0.0
  0
VERTEX
  5
632
330
62D
100
AcDbEntity
  8
001
370
    50
100
AcDbVertex
100
AcDb2dVertex
 10
187.869313
 20
154.066423
 30
0.0
  0
VERTEX
  5
633
330
62D
100
AcDbEntity
  8
001
370
    50
100
AcDbVertex
100
AcDb2dVertex
 10
187.855864
 20
153.938881
 30
0.0
  0
SEQEND
  5
62E
330
62D
100
AcDbEntity
  8
001
370
    50
  0
POLYLINE
  5
634
330
1F
100
AcDbEntity
  8
001
370
    50
100
AcDb2dPolyline
 66
     1
 10
0.0
 20
0.0
 30
0.0
  0
VERTEX
  5
636
330
634
100
AcDbEntity
  8
001
370
    50
100
AcDbVertex
100
AcDb2dVertex
 10
177.244822
 20
173.066531
 30
0.0
  0
VERTEX
  5
637
330
634
100
AcDbEntity
  8
001
370
    50
100
AcDbVertex
100
AcDb2dVertex
 10
177.224528
 20
173.070155
 30
0.0
  0
VERTEX
  5
638
330
634
100
AcDbEntity
  8
001
370
    50
100
AcDbVertex
100
AcDb2dVertex
 10
177.194828
 20
173.075216
 30
0.0
  0
VERTEX
  5
639
330
634
100
AcDbEntity
  8
001
370
    50
100
AcDbVertex
100
AcDb2dVertex
 10
177.191784
 20
173.075715
 30
0.0
  0
VERTEX
  5
63A
330
634
100
AcDbEntity
  8
001
370
    50
100
AcDbVertex
100
AcDb2dVertex
 10
177.188749
 20
173.076209
 30
0.0
  0
SEQEND
  5
635
330
634
100
AcDbEntity
  8
001
370
    50
  0
POLYLINE
  5
63B
330
1F
100
AcDbEntity
  8
001
370
    50
100
AcDb2dPolyline
 66
     1
 10
0.0
 20
0.0
 30
0.0
  0
VERTEX
  5
63D
330
63B
100
AcDbEntity
  8
001
370
    50
100
AcDbVertex
100
AcDb2dVertex
 10
167.553729
 20
159.879031
 30
0.0
  0
VERTEX
  5
63E
330
63B
100
AcDbEntity
  8
001
370
    50
100
AcDbVertex
100
AcDb2dVertex
 10
167.817864
 20
160.137168
 30
0.0
  0
VERTEX
  5
63F
330
63B
100
AcDbEntity
  8
001
370
    50
100
AcDbVertex
100
AcDb2dVertex
 10
168.202973
 20
160.515396
 30
0.0
  0
VERTEX
  5
640
330
63B
100
AcDbEntity
  8
001
370
    50
100
AcDbVertex
100
AcDb2dVertex
 10
168.208804
 20
160.521142
 30
0.0
  0
VERTEX
  5
641
330
63B
100
AcDbEntity
  8
001
370
    50
100
AcDbVertex
100
AcDb2dVertex
 10
168.214634
 20
160.526888
 30
0.0
  0
SEQEND
  5
63C
330
63B
100
AcDbEntity
  8
001
370
    50
  0
LINE
  5
642
330
1F
100
AcDbEntity
  8
001
370
    50
100
AcDbLine
 10
168.270875
 20
159.660667
 30
0.0
 11
167.659117
 21
159.045514
 31
0.0
  0
POLYLINE
  5
643
330
1F
100
AcDbEntity
  8
001
370
    50
100
AcDb2dPolyline
 66
     1
 10
0.0
 20
0.0
 30
0.0
  0
VERTEX
  5
645
330
643
100
AcDbEntity
  8
001
370
    50
100
AcDbVertex
100
AcDb2dVertex
 10
167.659117
 20
159.045514
 30
0.0
  0
VERTEX
  5
646
330
643
100
AcDbEntity
  8
001
370
    50
100
AcDbVertex
100
AcDb2dVertex
 10
168.13851
 20
159.053167
 30
0.0
  0
VERTEX
  5
647
330
643
100
AcDbEntity
  8
001
370
    50
100
AcDbVertex
100
AcDb2dVertex
 10
168.840616
 20
159.064967
 30
0.0
  0
SEQEND
  5
644
330
643
100
AcDbEntity
  8
001
370
    50
  0
LINE
  5
648
330
1F
100
AcDbEntity
  8
001
370
    50
100
AcDbLine
 10
171.696086
 20
166.07942
 30
0.0
 11
171.366236
 21
165.747739
 31
0.0
  0
LINE
  5
649
330
1F
100
AcDbEntity
  8
001
370
    50
100
AcDbLine
 10
186.700783
 20
160.910325
 30
0.0
 11
185.91553
 21
161.715524
 31
0.0
  0
LINE
  5
64A
330
1F
100
AcDbEntity
  8
001
370
    50
100
AcDbLine
 10
180.120557
 20
167.65769
 30
0.0
 11
179.245723
 21
168.554744
 31
0.0
  0
POLYLINE
  5
64B
330
1F
100
AcDbEntity
  8
001
370
    50
100
AcDb2dPolyline
 66
     1
 10
0.0
 20
0.0
 30
0.0
  0
VERTEX
  5
64D
330
64B
100
AcDbEntity
  8
001
370
    50
100
AcDbVertex
100
AcDb2dVertex
 10
186.824408
 20
162.693561
 30
0.0
  0
VERTEX
  5
64E
330
64B
100
AcDbEntity
  8
001
370
    50
100
AcDbVertex
100
AcDb2dVertex
 10
187.034277
 20
162.435139
 30
0.0
  0
VERTEX
  5
64F
330
64B
100
AcDbEntity
  8
001
370
    50
100
AcDbVertex
100
AcDb2dVertex
 10
187.177641
 20
162.259117
 30
0.0
  0
SEQEND
  5
64C
330
64B
100
AcDbEntity
  8
001
370
    50
  0
POLYLINE
  5
650
330
1F
100
AcDbEntity
  8
001
370
    50
100
AcDb2dPolyline
 66
     1
 10
0.0
 20
0.0
 30
0.0
  0
VERTEX
  5
652
330
650
100
AcDbEntity
  8
001
370
    50
100
AcDbVertex
100
AcDb2dVertex
 10
182.729157
 20
167.601082
 30
0.0
  0
VERTEX
  5
653
330
650
100
AcDbEntity
  8
001
370
    50
100
AcDbVertex
100
AcDb2dVertex
 10
182.730663
 20
167.59931
 30
0.0
  0
VERTEX
  5
654
330
650
100
AcDbEntity
  8
001
370
    50
100
AcDbVertex
100
AcDb2dVertex
 10
182.732193
 20
167.597509
 30
0.0
  0
SEQEND
  5
651
330
650
100
AcDbEntity
  8
001
370
    50
  0
POLYLINE
  5
655
330
1F
100
AcDbEntity
  8
001
370
    50
100
AcDb2dPolyline
 66
     1
 10
0.0
 20
0.0
 30
0.0
  0
VERTEX
  5
657
330
655
100
AcDbEntity
  8
001
370
    50
100
AcDbVertex
100
AcDb2dVertex
 10
180.847746
 20
153.904392
 30
0.0
  0
VERTEX
  5
658
330
655
100
AcDbEntity
  8
001
370
    50
100
AcDbVertex
100
AcDb2dVertex
 10
181.169003
 20
153.913547
 30
0.0
  0
VERTEX
  5
659
330
655
100
AcDbEntity
  8
001
370
    50
100
AcDbVertex
100
AcDb2dVertex
 10
181.490976
 20
153.922879
 30
0.0
  0
VERTEX
  5
65A
330
655
100
AcDbEntity
  8
001
370
    50
100
AcDbVertex
100
AcDb2dVertex
 10
185.007573
 20
154.034019
 30
0.0
  0
VERTEX
  5
65B
330
655
100
AcDbEntity
  8
001
370
    50
100
AcDbVertex
100
AcDb2dVertex
 10
187.413405
 20
154.118266
 30
0.0
  0
SEQEND
  5
656
330
655
100
AcDbEntity
  8
001
370
    50
  0
POLYLINE
  5
65C
330
1F
100
AcDbEntity
  8
001
370
    50
100
AcDb2dPolyline
 66
     1
 10
0.0
 20
0.0
 30
0.0
  0
VERTEX
  5
65E
330
65C
100
AcDbEntity
  8
001
370
    50
100
AcDbVertex
100
AcDb2dVertex
 10
175.527741
 20
153.770904
 30
0.0
  0
VERTEX
  5
65F
330
65C
100
AcDbEntity
  8
001
370
    50
100
AcDbVertex
100
AcDb2dVertex
 10
176.116718
 20
153.784052
 30
0.0
  0
VERTEX
  5
660
330
65C
100
AcDbEntity
  8
001
370
    50
100
AcDbVertex
100
AcDb2dVertex
 10
176.899812
 20
153.802267
 30
0.0
  0
SEQEND
  5
65D
330
65C
100
AcDbEntity
  8
001
370
    50
  0
LINE
  5
661
330
1F
100
AcDbEntity
  8
001
  6
PHANTOM
370
     9
100
AcDbLine
 10
171.190625
 20
156.727657
 30
0.0
 11
171.190625
 21
146.727657
 31
0.0
  0
LINE
  5
662
330
1F
100
AcDbEntity
  8
001
  6
PHANTOM
370
     9
100
AcDbLine
 10
170.190625
 20
157.727657
 30
0.0
 11
142.190625
 21
157.727657
 31
0.0
  0
LINE
  5
663
330
1F
100
AcDbEntity
  8
001
  6
PHANTOM
370
     9
100
AcDbLine
 10
142.190625
 20
163.227657
 30
0.0
 11
142.190625
 21
157.727657
 31
0.0
  0
LINE
  5
664
330
1F
100
AcDbEntity
  8
001
  6
PHANTOM
370
     9
100
AcDbLine
 10
142.190625
 20
163.227657
 30
0.0
 11
141.190625
 21
164.227657
 31
0.0
  0
LINE
  5
665
330
1F
100
AcDbEntity
  8
001
  6
PHANTOM
370
     9
100
AcDbLine
 10
141.190625
 20
164.227657
 30
0.0
 11
126.190625
 21
164.227657
 31
0.0
  0
LINE
  5
666
330
1F
100
AcDbEntity
  8
001
  6
PHANTOM
370
     9
100
AcDbLine
 10
171.190625
 20
156.727657
 30
0.0
 11
170.190625
 21
157.727657
 31
0.0
  0
LINE
  5
667
330
1F
100
AcDbEntity
  8
001
  6
PHANTOM
370
     9
100
AcDbLine
 10
171.190625
 20
201.727657
 30
0.0
 11
171.190625
 21
211.727657
 31
0.0
  0
LINE
  5
668
330
1F
100
AcDbEntity
  8
001
  6
PHANTOM
370
     9
100
AcDbLine
 10
170.190625
 20
200.727657
 30
0.0
 11
142.190625
 21
200.727657
 31
0.0
  0
LINE
  5
669
330
1F
100
AcDbEntity
  8
001
  6
PHANTOM
370
     9
100
AcDbLine
 10
142.190625
 20
195.227657
 30
0.0
 11
142.190625
 21
200.727657
 31
0.0
  0
LINE
  5
66A
330
1F
100
AcDbEntity
  8
001
  6
PHANTOM
370
     9
100
AcDbLine
 10
142.190625
 20
195.227657
 30
0.0
 11
141.190625
 21
194.227657
 31
0.0
  0
LINE
  5
66B
330
1F
100
AcDbEntity
  8
001
  6
PHANTOM
370
     9
100
AcDbLine
 10
141.190625
 20
194.227657
 30
0.0
 11
126.190625
 21
194.227657
 31
0.0
  0
LINE
  5
66C
330
1F
100
AcDbEntity
  8
001
  6
PHANTOM
370
     9
100
AcDbLine
 10
172.190625
 20
202.727657
 30
0.0
 11
170.190625
 21
200.727657
 31
0.0
  0
LINE
  5
66D
330
1F
100
AcDbEntity
  8
001
370
    50
100
AcDbLine
 10
142.190625
 20
163.227657
 30
0.0
 11
140.290624
 21
165.127658
 31
0.0
  0
POLYLINE
  5
66E
330
1F
100
AcDbEntity
  8
001
370
    50
100
AcDb2dPolyline
 66
     1
 10
0.0
 20
0.0
 30
0.0
  0
VERTEX
  5
670
330
66E
100
AcDbEntity
  8
001
370
    50
100
AcDbVertex
100
AcDb2dVertex
 10
142.190625
 20
158.521275
 30
0.0
  0
VERTEX
  5
671
330
66E
100
AcDbEntity
  8
001
370
    50
100
AcDbVertex
100
AcDb2dVertex
 10
142.194427
 20
158.4558
 30
0.0
  0
VERTEX
  5
672
330
66E
100
AcDbEntity
  8
001
370
    50
100
AcDbVertex
100
AcDb2dVertex
 10
142.205649
 20
158.366756
 30
0.0
  0
VERTEX
  5
673
330
66E
100
AcDbEntity
  8
001
370
    50
100
AcDbVertex
100
AcDb2dVertex
 10
142.224293
 20
158.287894
 30
0.0
  0
VERTEX
  5
674
330
66E
100
AcDbEntity
  8
001
370
    50
100
AcDbVertex
100
AcDb2dVertex
 10
142.250146
 20
158.217807
 30
0.0
  0
VERTEX
  5
675
330
66E
100
AcDbEntity
  8
001
370
    50
100
AcDbVertex
100
AcDb2dVertex
 10
142.282918
 20
158.148296
 30
0.0
  0
VERTEX
  5
676
330
66E
100
AcDbEntity
  8
001
370
    50
100
AcDbVertex
100
AcDb2dVertex
 10
142.322405
 20
158.080535
 30
0.0
  0
VERTEX
  5
677
330
66E
100
AcDbEntity
  8
001
370
    50
100
AcDbVertex
100
AcDb2dVertex
 10
142.368147
 20
158.017759
 30
0.0
  0
VERTEX
  5
678
330
66E
100
AcDbEntity
  8
001
370
    50
100
AcDbVertex
100
AcDb2dVertex
 10
142.419649
 20
157.960215
 30
0.0
  0
VERTEX
  5
679
330
66E
100
AcDbEntity
  8
001
370
    50
100
AcDbVertex
100
AcDb2dVertex
 10
142.476228
 20
157.907989
 30
0.0
  0
VERTEX
  5
67A
330
66E
100
AcDbEntity
  8
001
370
    50
100
AcDbVertex
100
AcDb2dVertex
 10
142.538141
 20
157.86147
 30
0.0
  0
VERTEX
  5
67B
330
66E
100
AcDbEntity
  8
001
370
    50
100
AcDbVertex
100
AcDb2dVertex
 10
142.604798
 20
157.821421
 30
0.0
  0
VERTEX
  5
67C
330
66E
100
AcDbEntity
  8
001
370
    50
100
AcDbVertex
100
AcDb2dVertex
 10
142.673328
 20
157.788097
 30
0.0
  0
VERTEX
  5
67D
330
66E
100
AcDbEntity
  8
001
370
    50
100
AcDbVertex
100
AcDb2dVertex
 10
142.742275
 20
157.761864
 30
0.0
  0
VERTEX
  5
67E
330
66E
100
AcDbEntity
  8
001
370
    50
100
AcDbVertex
100
AcDb2dVertex
 10
142.820014
 20
157.742914
 30
0.0
  0
VERTEX
  5
67F
330
66E
100
AcDbEntity
  8
001
370
    50
100
AcDbVertex
100
AcDb2dVertex
 10
142.908099
 20
157.731484
 30
0.0
  0
VERTEX
  5
680
330
66E
100
AcDbEntity
  8
001
370
    50
100
AcDbVertex
100
AcDb2dVertex
 10
142.972562
 20
157.727657
 30
0.0
  0
SEQEND
  5
66F
330
66E
100
AcDbEntity
  8
001
370
    50
  0
LINE
  5
681
330
1F
100
AcDbEntity
  8
001
370
    50
100
AcDbLine
 10
172.190625
 20
155.727657
 30
0.0
 11
175.022115
 21
155.727657
 31
0.0
  0
LINE
  5
682
330
1F
100
AcDbEntity
  8
001
370
    50
100
AcDbLine
 10
172.190625
 20
155.727657
 30
0.0
 11
168.340649
 21
159.577633
 31
0.0
  0
POLYLINE
  5
683
330
1F
100
AcDbEntity
  8
001
370
    50
100
AcDb2dPolyline
 66
     1
 10
0.0
 20
0.0
 30
0.0
  0
VERTEX
  5
685
330
683
100
AcDbEntity
  8
001
370
    50
100
AcDbVertex
100
AcDb2dVertex
 10
166.884217
 20
159.22102
 30
0.0
  0
VERTEX
  5
686
330
683
100
AcDbEntity
  8
001
370
    50
100
AcDbVertex
100
AcDb2dVertex
 10
166.653899
 20
159.298405
 30
0.0
  0
VERTEX
  5
687
330
683
100
AcDbEntity
  8
001
370
    50
100
AcDbVertex
100
AcDb2dVertex
 10
166.422394
 20
159.371737
 30
0.0
  0
VERTEX
  5
688
330
683
100
AcDbEntity
  8
001
370
    50
100
AcDbVertex
100
AcDb2dVertex
 10
166.184595
 20
159.438548
 30
0.0
  0
VERTEX
  5
689
330
683
100
AcDbEntity
  8
001
370
    50
100
AcDbVertex
100
AcDb2dVertex
 10
165.944053
 20
159.495982
 30
0.0
  0
VERTEX
  5
68A
330
683
100
AcDbEntity
  8
001
370
    50
100
AcDbVertex
100
AcDb2dVertex
 10
165.746064
 20
159.534038
 30
0.0
  0
VERTEX
  5
68B
330
683
100
AcDbEntity
  8
001
370
    50
100
AcDbVertex
100
AcDb2dVertex
 10
165.546471
 20
159.558104
 30
0.0
  0
VERTEX
  5
68C
330
683
100
AcDbEntity
  8
001
370
    50
100
AcDbVertex
100
AcDb2dVertex
 10
165.31189
 20
159.563273
 30
0.0
  0
VERTEX
  5
68D
330
683
100
AcDbEntity
  8
001
370
    50
100
AcDbVertex
100
AcDb2dVertex
 10
165.07649
 20
159.554043
 30
0.0
  0
SEQEND
  5
684
330
683
100
AcDbEntity
  8
001
370
    50
  0
LINE
  5
68E
330
1F
100
AcDbEntity
  8
001
370
    50
100
AcDbLine
 10
170.637233
 20
164.028073
 30
0.0
 11
170.613829
 21
162.980868
 31
0.0
  0
POLYLINE
  5
68F
330
1F
100
AcDbEntity
  8
001
370
    50
100
AcDb2dPolyline
 66
     1
 10
0.0
 20
0.0
 30
0.0
  0
VERTEX
  5
691
330
68F
100
AcDbEntity
  8
001
370
    50
100
AcDbVertex
100
AcDb2dVertex
 10
170.204997
 20
162.569767
 30
0.0
  0
VERTEX
  5
692
330
68F
100
AcDbEntity
  8
001
370
    50
100
AcDbVertex
100
AcDb2dVertex
 10
170.207712
 20
162.702152
 30
0.0
  0
VERTEX
  5
693
330
68F
100
AcDbEntity
  8
001
370
    50
100
AcDbVertex
100
AcDb2dVertex
 10
170.210427
 20
162.834537
 30
0.0
  0
VERTEX
  5
694
330
68F
100
AcDbEntity
  8
001
370
    50
100
AcDbVertex
100
AcDb2dVertex
 10
170.213201
 20
162.969889
 30
0.0
  0
VERTEX
  5
695
330
68F
100
AcDbEntity
  8
001
370
    50
100
AcDbVertex
100
AcDb2dVertex
 10
170.216509
 20
163.13152
 30
0.0
  0
VERTEX
  5
696
330
68F
100
AcDbEntity
  8
001
370
    50
100
AcDbVertex
100
AcDb2dVertex
 10
170.220949
 20
163.348939
 30
0.0
  0
VERTEX
  5
697
330
68F
100
AcDbEntity
  8
001
370
    50
100
AcDbVertex
100
AcDb2dVertex
 10
170.223982
 20
163.4977
 30
0.0
  0
SEQEND
  5
690
330
68F
100
AcDbEntity
  8
001
370
    50
  0
LINE
  5
698
330
1F
100
AcDbEntity
  8
001
370
    50
100
AcDbLine
 10
175.527741
 20
153.770904
 30
0.0
 11
173.619845
 21
155.727657
 31
0.0
  0
LINE
  5
699
330
1F
100
AcDbEntity
  8
001
  6
PHANTOM
370
     9
100
AcDbLine
 10
172.190625
 20
202.727657
 30
0.0
 11
175.022115
 21
202.727657
 31
0.0
  0
ARC
  5
69A
330
1F
100
AcDbEntity
  8
001
370
    50
100
AcDbCircle
 10
178.80925
 20
152.882472
 30
0.0
 40
0.7248144228325193
100
AcDbArc
 50
224.281505
 51
315.15856
  0
LINE
  5
69B
330
1F
100
AcDbEntity
  8
001
  6
CENTER
370
     9
100
AcDbLine
 10
166.672081
 20
152.157657
 30
0.0
 11
178.80925
 21
152.157657
 31
0.0
  0
LINE
  5
69C
330
1F
100
AcDbEntity
  8
001
  6
CENTER
370
     9
100
AcDbLine
 10
166.672081
 20
206.297657
 30
0.0
 11
178.80925
 21
206.297657
 31
0.0
  0
ENDSEC
  0
SECTION
  2
OBJECTS
  0
DICTIONARY
  5
C
330
0
100
AcDbDictionary
281
     1
  3
ACAD_GROUP
350
D
  3
ACAD_LAYOUT
350
1A
  3
ACAD_MLEADERSTYLE
350
6A0
  3
ACAD_MLINESTYLE
350
17
  3
ACAD_PLOTSETTINGS
350
19
  3
ACAD_PLOTSTYLENAME
350
E
  3
ACAD_SCALELIST
350
3B
  3
ACAD_TABLESTYLE
350
69F
  3
ACAD_VISUALSTYLE
350
2A
  3
AcDbVariableDictionary
350
69D
  0
DICTIONARY
  5
D
102
{ACAD_REACTORS
330
C
102
}
330
C
100
AcDbDictionary
281
     1
  0
DICTIONARY
  5
1A
102
{ACAD_REACTORS
330
C
102
}
330
C
100
AcDbDictionary
281
     1
  3
Layout1
350
1E
  3
Layout2
350
26
  3
Model
350
22
  0
DICTIONARY
  5
6A0
102
{ACAD_REACTORS
330
C
102
}
330
C
100
AcDbDictionary
281
     1
  0
DICTIONARY
  5
17
102
{ACAD_REACTORS
330
C
102
}
330
C
100
AcDbDictionary
281
     1
  3
Standard
350
18
  0
DICTIONARY
  5
19
102
{ACAD_REACTORS
330
C
102
}
330
C
100
AcDbDictionary
281
     1
  0
ACDBDICTIONARYWDFLT
  5
E
102
{ACAD_REACTORS
330
C
102
}
330
C
100
AcDbDictionary
281
     1
  3
Normal
350
F
100
AcDbDictionaryWithDefault
340
F
  0
DICTIONARY
  5
3B
102
{ACAD_REACTORS
330
C
102
}
330
C
100
AcDbDictionary
281
     1
  3
A0
350
3C
  3
A1
350
3D
  3
A2
350
3E
  3
A3
350
3F
  3
A4
350
40
  3
A5
350
41
  3
A6
350
42
  3
A7
350
43
  3
A8
350
44
  3
A9
350
45
  3
B0
350
46
  3
B1
350
47
  3
B2
350
48
  3
B3
350
49
  3
B4
350
4A
  3
B5
350
4B
  3
B6
350
4C
  3
B7
350
4D
  3
B8
350
4E
  3
B9
350
4F
  3
C0
350
50
  3
C1
350
51
  3
C2
350
52
  3
C3
350
53
  3
C4
350
54
  3
C5
350
55
  3
C6
350
56
  3
C7
350
57
  3
C8
350
58
  3
C9
350
59
  3
D0
350
5A
  3
D1
350
5B
  3
D2
350
5C
  0
DICTIONARY
  5
69F
102
{ACAD_REACTORS
330
C
102
}
330
C
100
AcDbDictionary
281
     1
  0
DICTIONARY
  5
2A
102
{ACAD_REACTORS
330
C
102
}
330
C
100
AcDbDictionary
281
     1
  3
2dWireframe
350
2F
  3
3D Hidden
350
31
  3
3dWireframe
350
30
  3
Basic
350
32
  3
Brighten
350
36
  3
ColorChange
350
3A
  3
Conceptual
350
34
  3
Dim
350
35
  3
Facepattern
350
39
  3
Flat
350
2B
  3
FlatWithEdges
350
2C
  3
Gouraud
350
2D
  3
GouraudWithEdges
350
2E
  3
Linepattern
350
38
  3
Realistic
350
33
  3
Thicken
350
37
  0
DICTIONARY
  5
69D
102
{ACAD_REACTORS
330
C
102
}
330
C
100
AcDbDictionary
281
     1
  3
CANNOSCALE
350
69E
  3
PSOLHEIGHT
350
6A2
  3
PSOLWIDTH
350
6A1
  0
LAYOUT
  5
1E
102
{ACAD_REACTORS
330
1A
102
}
330
1A
100
AcDbPlotSettings
  1

  2
none_device
  4

  6

 40
0.0
 41
0.0
 42
0.0
 43
0.0
 44
0.0
 45
0.0
 46
0.0
 47
0.0
 48
0.0
 49
0.0
140
0.0
141
0.0
142
1.0
143
1.0
 70
   688
 72
     0
 73
     0
 74
     5
  7

 75
    16
147
1.0
148
0.0
149
0.0
100
AcDbLayout
  1
Layout1
 70
     1
 71
     1
 10
0.0
 20
0.0
 11
12.0
 21
9.0
 12
0.0
 22
0.0
 32
0.0
 14
1.000000E+20
 24
1.000000E+20
 34
0.0
 15
-1.000000E+20
 25
-1.000000E+20
 35
0.0
146
0.0
 13
0.0
 23
0.0
 33
0.0
 16
1.0
 26
0.0
 36
0.0
 17
0.0
 27
1.0
 37
0.0
 76
     0
330
1B
  0
LAYOUT
  5
26
102
{ACAD_REACTORS
330
1A
102
}
330
1A
100
AcDbPlotSettings
  1

  2
none_device
  4

  6

 40
0.0
 41
0.0
 42
0.0
 43
0.0
 44
0.0
 45
0.0
 46
0.0
 47
0.0
 48
0.0
 49
0.0
140
0.0
141
0.0
142
1.0
143
1.0
 70
   688
 72
     0
 73
     0
 74
     5
  7

 75
    16
147
1.0
148
0.0
149
0.0
100
AcDbLayout
  1
Layout2
 70
     1
 71
     2
 10
0.0
 20
0.0
 11
0.0
 21
0.0
 12
0.0
 22
0.0
 32
0.0
 14
0.0
 24
0.0
 34
0.0
 15
0.0
 25
0.0
 35
0.0
146
0.0
 13
0.0
 23
0.0
 33
0.0
 16
1.0
 26
0.0
 36
0.0
 17
0.0
 27
1.0
 37
0.0
 76
     0
330
23
  0
LAYOUT
  5
22
102
{ACAD_REACTORS
330
1A
102
}
330
1A
100
AcDbPlotSettings
  1

  2
none_device
  4

  6

 40
0.0
 41
0.0
 42
0.0
 43
0.0
 44
0.0
 45
0.0
 46
0.0
 47
0.0
 48
0.0
 49
0.0
140
0.0
141
0.0
142
1.0
143
1.0
 70
  1712
 72
     0
 73
     0
 74
     0
  7

 75
     0
147
1.0
148
0.0
149
0.0
100
AcDbLayout
  1
Model
 70
     1
 71
     0
 10
0.0
 20
0.0
 11
12.0
 21
9.0
 12
0.0
 22
0.0
 32
0.0
 14
28.600555
 24
26.636742
 34
0.0
 15
339.666626
 25
233.986633
 35
0.0
146
0.0
 13
0.0
 23
0.0
 33
0.0
 16
1.0
 26
0.0
 36
0.0
 17
0.0
 27
1.0
 37
0.0
 76
     0
330
1F
331
29
  0
MLINESTYLE
  5
18
102
{ACAD_REACTORS
330
17
102
}
330
17
100
AcDbMlineStyle
  2
Standard
 70
     0
  3

 62
   256
 51
90.0
 52
90.0
 71
     2
 49
0.5
 62
   256
  6
BYLAYER
 49
-0.5
 62
   256
  6
BYLAYER
  0
ACDBPLACEHOLDER
  5
F
102
{ACAD_REACTORS
330
E
102
}
330
E
  0
SCALE
  5
3C
102
{ACAD_REACTORS
330
3B
102
}
330
3B
100
AcDbScale
 70
     0
300
1:1
140
1.0
141
1.0
290
     1
  0
SCALE
  5
3D
102
{ACAD_REACTORS
330
3B
102
}
330
3B
100
AcDbScale
 70
     0
300
1:2
140
1.0
141
2.0
290
     0
  0
SCALE
  5
3E
102
{ACAD_REACTORS
330
3B
102
}
330
3B
100
AcDbScale
 70
     0
300
1:4
140
1.0
141
4.0
290
     0
  0
SCALE
  5
3F
102
{ACAD_REACTORS
330
3B
102
}
330
3B
100
AcDbScale
 70
     0
300
1:5
140
1.0
141
5.0
290
     0
  0
SCALE
  5
40
102
{ACAD_REACTORS
330
3B
102
}
330
3B
100
AcDbScale
 70
     0
300
1:8
140
1.0
141
8.0
290
     0
  0
SCALE
  5
41
102
{ACAD_REACTORS
330
3B
102
}
330
3B
100
AcDbScale
 70
     0
300
1:10
140
1.0
141
10.0
290
     0
  0
SCALE
  5
42
102
{ACAD_REACTORS
330
3B
102
}
330
3B
100
AcDbScale
 70
     0
300
1:16
140
1.0
141
16.0
290
     0
  0
SCALE
  5
43
102
{ACAD_REACTORS
330
3B
102
}
330
3B
100
AcDbScale
 70
     0
300
1:20
140
1.0
141
20.0
290
     0
  0
SCALE
  5
44
102
{ACAD_REACTORS
330
3B
102
}
330
3B
100
AcDbScale
 70
     0
300
1:30
140
1.0
141
30.0
290
     0
  0
SCALE
  5
45
102
{ACAD_REACTORS
330
3B
102
}
330
3B
100
AcDbScale
 70
     0
300
1:40
140
1.0
141
40.0
290
     0
  0
SCALE
  5
46
102
{ACAD_REACTORS
330
3B
102
}
330
3B
100
AcDbScale
 70
     0
300
1:50
140
1.0
141
50.0
290
     0
  0
SCALE
  5
47
102
{ACAD_REACTORS
330
3B
102
}
330
3B
100
AcDbScale
 70
     0
300
1:100
140
1.0
141
100.0
290
     0
  0
SCALE
  5
48
102
{ACAD_REACTORS
330
3B
102
}
330
3B
100
AcDbScale
 70
     0
300
2:1
140
2.0
141
1.0
290
     0
  0
SCALE
  5
49
102
{ACAD_REACTORS
330
3B
102
}
330
3B
100
AcDbScale
 70
     0
300
4:1
140
4.0
141
1.0
290
     0
  0
SCALE
  5
4A
102
{ACAD_REACTORS
330
3B
102
}
330
3B
100
AcDbScale
 70
     0
300
8:1
140
8.0
141
1.0
290
     0
  0
SCALE
  5
4B
102
{ACAD_REACTORS
330
3B
102
}
330
3B
100
AcDbScale
 70
     0
300
10:1
140
10.0
141
1.0
290
     0
  0
SCALE
  5
4C
102
{ACAD_REACTORS
330
3B
102
}
330
3B
100
AcDbScale
 70
     0
300
100:1
140
100.0
141
1.0
290
     0
  0
SCALE
  5
4D
102
{ACAD_REACTORS
330
3B
102
}
330
3B
100
AcDbScale
 70
     0
300
1/128" = 1'-0"
140
0.007812
141
12.0
290
     0
  0
SCALE
  5
4E
102
{ACAD_REACTORS
330
3B
102
}
330
3B
100
AcDbScale
 70
     0
300
1/64" = 1'-0"
140
0.015625
141
12.0
290
     0
  0
SCALE
  5
4F
102
{ACAD_REACTORS
330
3B
102
}
330
3B
100
AcDbScale
 70
     0
300
1/32" = 1'-0"
140
0.03125
141
12.0
290
     0
  0
SCALE
  5
50
102
{ACAD_REACTORS
330
3B
102
}
330
3B
100
AcDbScale
 70
     0
300
1/16" = 1'-0"
140
0.0625
141
12.0
290
     0
  0
SCALE
  5
51
102
{ACAD_REACTORS
330
3B
102
}
330
3B
100
AcDbScale
 70
     0
300
3/32" = 1'-0"
140
0.09375
141
12.0
290
     0
  0
SCALE
  5
52
102
{ACAD_REACTORS
330
3B
102
}
330
3B
100
AcDbScale
 70
     0
300
1/8" = 1'-0"
140
0.125
141
12.0
290
     0
  0
SCALE
  5
53
102
{ACAD_REACTORS
330
3B
102
}
330
3B
100
AcDbScale
 70
     0
300
3/16" = 1'-0"
140
0.1875
141
12.0
290
     0
  0
SCALE
  5
54
102
{ACAD_REACTORS
330
3B
102
}
330
3B
100
AcDbScale
 70
     0
300
1/4" = 1'-0"
140
0.25
141
12.0
290
     0
  0
SCALE
  5
55
102
{ACAD_REACTORS
330
3B
102
}
330
3B
100
AcDbScale
 70
     0
300
3/8" = 1'-0"
140
0.375
141
12.0
290
     0
  0
SCALE
  5
56
102
{ACAD_REACTORS
330
3B
102
}
330
3B
100
AcDbScale
 70
     0
300
1/2" = 1'-0"
140
0.5
141
12.0
290
     0
  0
SCALE
  5
57
102
{ACAD_REACTORS
330
3B
102
}
330
3B
100
AcDbScale
 70
     0
300
3/4" = 1'-0"
140
0.75
141
12.0
290
     0
  0
SCALE
  5
58
102
{ACAD_REACTORS
330
3B
102
}
330
3B
100
AcDbScale
 70
     0
300
1" = 1'-0"
140
1.0
141
12.0
290
     0
  0
SCALE
  5
59
102
{ACAD_REACTORS
330
3B
102
}
330
3B
100
AcDbScale
 70
     0
300
1-1/2" = 1'-0"
140
1.5
141
12.0
290
     0
  0
SCALE
  5
5A
102
{ACAD_REACTORS
330
3B
102
}
330
3B
100
AcDbScale
 70
     0
300
3" = 1'-0"
140
3.0
141
12.0
290
     0
  0
SCALE
  5
5B
102
{ACAD_REACTORS
330
3B
102
}
330
3B
100
AcDbScale
 70
     0
300
6" = 1'-0"
140
6.0
141
12.0
290
     0
  0
SCALE
  5
5C
102
{ACAD_REACTORS
330
3B
102
}
330
3B
100
AcDbScale
 70
     0
300
1'-0" = 1'-0"
140
12.0
141
12.0
290
     0
  0
VISUALSTYLE
  5
2F
102
{ACAD_REACTORS
330
2A
102
}
330
2A
100
AcDbVisualStyle
  2
2dWireframe
 70
     4
 71
     0
 72
     2
 73
     0
 90
        0
 40
-0.6
 41
-30.0
 62
     5
 63
     7
 74
     1
 91
        4
 64
     7
 65
   257
 75
     1
175
     1
 42
1.0
 92
        0
 66
   257
 43
1.0
 76
     1
 77
     6
 78
     2
 67
     7
 79
     5
170
     0
171
     0
290
     0
174
     0
 93
        1
 44
0.0
173
     0
291
     0
 45
0.0
1001
ACAD
1000
AcDbSavedByObjectVersion
1070
     0
  0
VISUALSTYLE
  5
31
102
{ACAD_REACTORS
330
2A
102
}
330
2A
100
AcDbVisualStyle
  2
3D Hidden
 70
     6
 71
     1
 72
     2
 73
     2
 90
        0
 40
-0.6
 41
-30.0
 62
     5
 63
     7
 74
     2
 91
        2
 64
     7
 65
   257
 75
     2
175
     1
 42
40.0
 92
        0
 66
   257
 43
1.0
 76
     1
 77
     6
 78
     2
 67
     7
 79
     3
170
     0
171
     0
290
     0
174
     0
 93
        1
 44
0.0
173
     0
291
     0
 45
0.0
1001
ACAD
1000
AcDbSavedByObjectVersion
1070
     0
  0
VISUALSTYLE
  5
30
102
{ACAD_REACTORS
330
2A
102
}
330
2A
100
AcDbVisualStyle
  2
3dWireframe
 70
     5
 71
     0
 72
     2
 73
     0
 90
        0
 40
-0.6
 41
-30.0
 62
     5
 63
     7
 74
     1
 91
        4
 64
     7
 65
   257
 75
     1
175
     1
 42
1.0
 92
        0
 66
   257
 43
1.0
 76
     1
 77
     6
 78
     2
 67
     7
 79
     5
170
     0
171
     0
290
     0
174
     0
 93
        1
 44
0.0
173
     0
291
     0
 45
0.0
1001
ACAD
1000
AcDbSavedByObjectVersion
1070
     0
  0
VISUALSTYLE
  5
32
102
{ACAD_REACTORS
330
2A
102
}
330
2A
100
AcDbVisualStyle
  2
Basic
 70
     7
 71
     1
 72
     0
 73
     1
 90
        0
 40
-0.6
 41
-30.0
 62
     5
 63
     7
 74
     0
 91
        4
 64
     7
 65
   257
 75
     1
175
     1
 42
1.0
 92
        8
 66
     7
 43
1.0
 76
     1
 77
     6
 78
     2
 67
     7
 79
     5
170
     0
171
     0
290
     0
174
     0
 93
        1
 44
0.0
173
     0
291
     1
 45
0.0
1001
ACAD
1000
AcDbSavedByObjectVersion
1070
     0
  0
VISUALSTYLE
  5
36
102
{ACAD_REACTORS
330
2A
102
}
330
2A
100
AcDbVisualStyle
  2
Brighten
 70
    12
 71
     2
 72
     2
 73
     0
 90
        0
 40
-0.6
 41
-30.0
 62
     5
 63
     7
 74
     1
 91
        4
 64
     7
 65
   257
 75
     1
175
     1
 42
1.0
 92
        8
 66
     7
 43
1.0
 76
     1
 77
     6
 78
     2
 67
     7
 79
     5
170
     0
171
     0
290
     0
174
     0
 93
        1
 44
50.0
173
     0
291
     1
 45
0.0
1001
ACAD
1000
AcDbSavedByObjectVersion
1070
     0
  0
VISUALSTYLE
  5
3A
102
{ACAD_REACTORS
330
2A
102
}
330
2A
100
AcDbVisualStyle
  2
ColorChange
 70
    16
 71
     2
 72
     2
 73
     3
 90
        0
 40
-0.6
 41
-30.0
 62
     5
 63
     8
 74
     1
 91
        4
 64
     7
 65
   257
 75
     1
175
     1
 42
1.0
 92
        8
 66
     8
 43
1.0
 76
     1
 77
     6
 78
     2
 67
     7
 79
     5
170
     0
171
     0
290
     0
174
     0
 93
        1
 44
0.0
173
     0
291
     1
 45
0.0
1001
ACAD
1000
AcDbSavedByObjectVersion
1070
     0
  0
VISUALSTYLE
  5
34
102
{ACAD_REACTORS
330
2A
102
}
330
2A
100
AcDbVisualStyle
  2
Conceptual
 70
     9
 71
     3
 72
     2
 73
     0
 90
        0
 40
-0.6
 41
-30.0
 62
     5
 63
     7
 74
     2
 91
        2
 64
     7
 65
   257
 75
     1
175
     1
 42
40.0
 92
        8
 66
     7
 43
1.0
 76
     1
 77
     6
 78
     2
 67
     7
 79
     3
170
     0
171
     0
290
     0
174
     0
 93
        1
 44
0.0
173
     0
291
     0
 45
0.0
1001
ACAD
1000
AcDbSavedByObjectVersion
1070
     0
  0
VISUALSTYLE
  5
35
102
{ACAD_REACTORS
330
2A
102
}
330
2A
100
AcDbVisualStyle
  2
Dim
 70
    11
 71
     2
 72
     2
 73
     0
 90
        0
 40
-0.6
 41
-30.0
 62
     5
 63
     7
 74
     1
 91
        4
 64
     7
 65
   257
 75
     1
175
     1
 42
1.0
 92
        8
 66
     7
 43
1.0
 76
     1
 77
     6
 78
     2
 67
     7
 79
     5
170
     0
171
     0
290
     0
174
     0
 93
        1
 44
-50.0
173
     0
291
     1
 45
0.0
1001
ACAD
1000
AcDbSavedByObjectVersion
1070
     0
  0
VISUALSTYLE
  5
39
102
{ACAD_REACTORS
330
2A
102
}
330
2A
100
AcDbVisualStyle
  2
Facepattern
 70
    15
 71
     2
 72
     2
 73
     0
 90
        0
 40
-0.6
 41
-30.0
 62
     5
 63
     7
 74
     1
 91
        4
 64
     7
 65
   257
 75
     1
175
     1
 42
1.0
 92
        8
 66
     7
 43
1.0
 76
     1
 77
     6
 78
     2
 67
     7
 79
     5
170
     0
171
     0
290
     0
174
     0
 93
        1
 44
0.0
173
     0
291
     1
 45
0.0
1001
ACAD
1000
AcDbSavedByObjectVersion
1070
     0
  0
VISUALSTYLE
  5
2B
102
{ACAD_REACTORS
330
2A
102
}
330
2A
100
AcDbVisualStyle
  2
Flat
 70
     0
 71
     2
 72
     1
 73
     1
 90
        2
 40
-0.6
 41
30.0
 62
     5
 63
     7
 74
     0
 91
        4
 64
     7
 65
   257
 75
     1
175
     1
 42
1.0
 92
        8
 66
     7
 43
1.0
 76
     1
 77
     6
 78
     2
 67
     7
 79
     5
170
     0
171
     0
290
     0
174
     0
 93
       13
 44
0.0
173
     0
291
     1
 45
0.0
1001
ACAD
1000
AcDbSavedByObjectVersion
1070
     0
  0
VISUALSTYLE
  5
2C
102
{ACAD_REACTORS
330
2A
102
}
330
2A
100
AcDbVisualStyle
  2
FlatWithEdges
 70
     1
 71
     2
 72
     1
 73
     1
 90
        2
 40
-0.6
 41
30.0
 62
     5
 63
     7
 74
     1
 91
        4
 64
     7
 65
   257
 75
     1
175
     1
 42
1.0
 92
        0
 66
   257
 43
1.0
 76
     1
 77
     6
 78
     2
 67
     7
 79
     5
170
     0
171
     0
290
     0
174
     0
 93
       13
 44
0.0
173
     0
291
     1
 45
0.0
1001
ACAD
1000
AcDbSavedByObjectVersion
1070
     0
  0
VISUALSTYLE
  5
2D
102
{ACAD_REACTORS
330
2A
102
}
330
2A
100
AcDbVisualStyle
  2
Gouraud
 70
     2
 71
     2
 72
     2
 73
     1
 90
        2
 40
-0.6
 41
30.0
 62
     5
 63
     7
 74
     0
 91
        4
 64
     7
 65
   257
 75
     1
175
     1
 42
1.0
 92
        0
 66
     7
 43
1.0
 76
     1
 77
     6
 78
     2
 67
     7
 79
     5
170
     0
171
     0
290
     0
174
     0
 93
       13
 44
0.0
173
     0
291
     1
 45
0.0
1001
ACAD
1000
AcDbSavedByObjectVersion
1070
     0
  0
VISUALSTYLE
  5
2E
102
{ACAD_REACTORS
330
2A
102
}
330
2A
100
AcDbVisualStyle
  2
GouraudWithEdges
 70
     3
 71
     2
 72
     2
 73
     1
 90
        2
 40
-0.6
 41
30.0
 62
     5
 63
     7
 74
     1
 91
        4
 64
     7
 65
   257
 75
     1
175
     1
 42
1.0
 92
        0
 66
   257
 43
1.0
 76
     1
 77
     6
 78
     2
 67
     7
 79
     5
170
     0
171
     0
290
     0
174
     0
 93
       13
 44
0.0
173
     0
291
     1
 45
0.0
1001
ACAD
1000
AcDbSavedByObjectVersion
1070
     0
  0
VISUALSTYLE
  5
38
102
{ACAD_REACTORS
330
2A
102
}
330
2A
100
AcDbVisualStyle
  2
Linepattern
 70
    14
 71
     2
 72
     2
 73
     0
 90
        0
 40
-0.6
 41
-30.0
 62
     5
 63
     7
 74
     1
 91
        4
 64
     7
 65
   257
 75
     7
175
     7
 42
1.0
 92
        8
 66
     7
 43
1.0
 76
     1
 77
     6
 78
     2
 67
     7
 79
     5
170
     0
171
     0
290
     0
174
     0
 93
        1
 44
0.0
173
     0
291
     1
 45
0.0
1001
ACAD
1000
AcDbSavedByObjectVersion
1070
     0
  0
VISUALSTYLE
  5
33
102
{ACAD_REACTORS
330
2A
102
}
330
2A
100
AcDbVisualStyle
  2
Realistic
 70
     8
 71
     2
 72
     2
 73
     0
 90
        0
 40
-0.6
 41
-30.0
 62
     5
 63
     7
 74
     1
 91
        0
 64
     7
 65
   257
 75
     1
175
     1
 42
1.0
 92
        8
 66
     8
 43
1.0
 76
     1
 77
     6
 78
     2
 67
     7
 79
     5
170
     0
171
     0
290
     0
174
     0
 93
       13
 44
0.0
173
     0
291
     0
 45
0.0
1001
ACAD
1000
AcDbSavedByObjectVersion
1070
     0
  0
VISUALSTYLE
  5
37
102
{ACAD_REACTORS
330
2A
102
}
330
2A
100
AcDbVisualStyle
  2
Thicken
 70
    13
 71
     2
 72
     2
 73
     0
 90
        0
 40
-0.6
 41
-30.0
 62
     5
 63
     7
 74
     1
 91
        4
 64
     7
 65
   257
 75
     1
175
     1
 42
1.0
 92
       12
 66
     7
 43
1.0
 76
     1
 77
     6
 78
     2
 67
     7
 79
     5
170
     0
171
     0
290
     0
174
     0
 93
        1
 44
0.0
173
     0
291
     1
 45
0.0
1001
ACAD
1000
AcDbSavedByObjectVersion
1070
     0
  0
DICTIONARYVAR
  5
69E
102
{ACAD_REACTORS
330
69D
102
}
330
69D
100
DictionaryVariables
280
     0
  1
1:1
  0
DICTIONARYVAR
  5
6A2
102
{ACAD_REACTORS
330
69D
102
}
330
69D
100
DictionaryVariables
280
     0
  1
80.000000
  0
DICTIONARYVAR
  5
6A1
102
{ACAD_REACTORS
330
69D
102
}
330
69D
100
DictionaryVariables
280
     0
  1
5.000000
  0
ENDSEC
  0
EOF
