  0
SECTION
  2
HEADER
  9
$ACADVER
  1
AC1015
  9
$ACADMAINTVER
 70
     6
  9
$DWGCODEPAGE
  3
ANSI_932
  9
$INSBASE
 10
0.0
 20
0.0
 30
0.0
  9
$EXTMIN
 10
32.106354
 20
11.622345
 30
0.0
  9
$EXTMAX
 10
353.580566
 20
244.074203
 30
0.0
  9
$LIMMIN
 10
0.0
 20
0.0
  9
$LIMMAX
 10
12.0
 20
9.0
  9
$ORTHOMODE
 70
     0
  9
$REGENMODE
 70
     1
  9
$FILLMODE
 70
     1
  9
$QTEXTMODE
 70
     0
  9
$MIRRTEXT
 70
     1
  9
$LTSCALE
 40
3.967109
  9
$ATTMODE
 70
     1
  9
$TEXTSIZE
 40
3.2
  9
$TRACEWID
 40
1.0
  9
$TEXTSTYLE
  7
Standard
  9
$CLAYER
  8
0
  9
$CELTYPE
  6
ByLayer
  9
$CECOLOR
 62
   256
  9
$CELTSCALE
 40
1.0
  9
$DISPSILH
 70
     0
  9
$DIMSCALE
 40
1.0
  9
$DIMASZ
 40
2.5
  9
$DIMEXO
 40
0.625
  9
$DIMDLI
 40
3.75
  9
$DIMRND
 40
0.0
  9
$DIMDLE
 40
0.0
  9
$DIMEXE
 40
1.25
  9
$DIMTP
 40
0.0
  9
$DIMTM
 40
0.0
  9
$DIMTXT
 40
2.5
  9
$DIMCEN
 40
0.09
  9
$DIMTSZ
 40
0.0
  9
$DIMTOL
 70
     0
  9
$DIMLIM
 70
     0
  9
$DIMTIH
 70
     0
  9
$DIMTOH
 70
     0
  9
$DIMSE1
 70
     0
  9
$DIMSE2
 70
     0
  9
$DIMTAD
 70
     0
  9
$DIMZIN
 70
     8
  9
$DIMBLK
  1

  9
$DIMASO
 70
     1
  9
$DIMSHO
 70
     0
  9
$DIMPOST
  1

  9
$DIMAPOST
  1

  9
$DIMALT
 70
     0
  9
$DIMALTD
 70
     3
  9
$DIMALTF
 40
0.03937
  9
$DIMLFAC
 40
1.0
  9
$DIMTOFL
 70
     1
  9
$DIMTVP
 40
0.0
  9
$DIMTIX
 70
     0
  9
$DIMSOXD
 70
     0
  9
$DIMSAH
 70
     0
  9
$DIMBLK1
  1

  9
$DIMBLK2
  1

  9
$DIMSTYLE
  2
ISO-25
  9
$DIMCLRD
 70
     0
  9
$DIMCLRE
 70
     0
  9
$DIMCLRT
 70
     0
  9
$DIMTFAC
 40
1.0
  9
$DIMGAP
 40
0.625
  9
$DIMJUST
 70
     0
  9
$DIMSD1
 70
     0
  9
$DIMSD2
 70
     0
  9
$DIMTOLJ
 70
     0
  9
$DIMTZIN
 70
     8
  9
$DIMALTZ
 70
     0
  9
$DIMALTTZ
 70
     0
  9
$DIMUPT
 70
     0
  9
$DIMDEC
 70
     2
  9
$DIMTDEC
 70
     2
  9
$DIMALTU
 70
     2
  9
$DIMALTTD
 70
     3
  9
$DIMTXSTY
  7
Standard
  9
$DIMAUNIT
 70
     0
  9
$DIMADEC
 70
     0
  9
$DIMALTRND
 40
0.0
  9
$DIMAZIN
 70
     0
  9
$DIMDSEP
 70
    44
  9
$DIMATFIT
 70
     3
  9
$DIMFRAC
 70
     0
  9
$DIMLDRBLK
  1

  9
$DIMLUNIT
 70
     2
  9
$DIMLWD
 70
    -2
  9
$DIMLWE
 70
    -2
  9
$DIMTMOVE
 70
     0
  9
$LUNITS
 70
     2
  9
$LUPREC
 70
     4
  9
$SKETCHINC
 40
1.0
  9
$FILLETRAD
 40
0.0
  9
$AUNITS
 70
     0
  9
$AUPREC
 70
     0
  9
$MENU
  1
.
  9
$ELEVATION
 40
0.0
  9
$PELEVATION
 40
0.0
  9
$THICKNESS
 40
0.0
  9
$LIMCHECK
 70
     0
  9
$CHAMFERA
 40
10.0
  9
$CHAMFERB
 40
10.0
  9
$CHAMFERC
 40
20.0
  9
$CHAMFERD
 40
0.0
  9
$SKPOLY
 70
     0
  9
$TDCREATE
 40
2454798.664446794
  9
$TDUCREATE
 40
2454798.289446794
  9
$TDUPDATE
 40
2454798.664446806
  9
$TDUUPDATE
 40
2454798.289446806
  9
$TDINDWG
 40
0.0000000116
  9
$TDUSRTIMER
 40
0.0000000116
  9
$USRTIMER
 70
     1
  9
$ANGBASE
 50
0.0
  9
$ANGDIR
 70
     0
  9
$PDMODE
 70
     0
  9
$PDSIZE
 40
0.0
  9
$PLINEWID
 40
0.0
  9
$SPLFRAME
 70
     0
  9
$SPLINETYPE
 70
     6
  9
$SPLINESEGS
 70
     8
  9
$HANDSEED
  5
686
  9
$SURFTAB1
 70
     6
  9
$SURFTAB2
 70
     6
  9
$SURFTYPE
 70
     6
  9
$SURFU
 70
     6
  9
$SURFV
 70
     6
  9
$UCSBASE
  2

  9
$UCSNAME
  2

  9
$UCSORG
 10
0.0
 20
0.0
 30
0.0
  9
$UCSXDIR
 10
1.0
 20
0.0
 30
0.0
  9
$UCSYDIR
 10
0.0
 20
1.0
 30
0.0
  9
$UCSORTHOREF
  2

  9
$UCSORTHOVIEW
 70
     0
  9
$UCSORGTOP
 10
0.0
 20
0.0
 30
0.0
  9
$UCSORGBOTTOM
 10
0.0
 20
0.0
 30
0.0
  9
$UCSORGLEFT
 10
0.0
 20
0.0
 30
0.0
  9
$UCSORGRIGHT
 10
0.0
 20
0.0
 30
0.0
  9
$UCSORGFRONT
 10
0.0
 20
0.0
 30
0.0
  9
$UCSORGBACK
 10
0.0
 20
0.0
 30
0.0
  9
$PUCSBASE
  2

  9
$PUCSNAME
  2

  9
$PUCSORG
 10
0.0
 20
0.0
 30
0.0
  9
$PUCSXDIR
 10
1.0
 20
0.0
 30
0.0
  9
$PUCSYDIR
 10
0.0
 20
1.0
 30
0.0
  9
$PUCSORTHOREF
  2

  9
$PUCSORTHOVIEW
 70
     0
  9
$PUCSORGTOP
 10
0.0
 20
0.0
 30
0.0
  9
$PUCSORGBOTTOM
 10
0.0
 20
0.0
 30
0.0
  9
$PUCSORGLEFT
 10
0.0
 20
0.0
 30
0.0
  9
$PUCSORGRIGHT
 10
0.0
 20
0.0
 30
0.0
  9
$PUCSORGFRONT
 10
0.0
 20
0.0
 30
0.0
  9
$PUCSORGBACK
 10
0.0
 20
0.0
 30
0.0
  9
$USERI1
 70
     0
  9
$USERI2
 70
     0
  9
$USERI3
 70
     0
  9
$USERI4
 70
     0
  9
$USERI5
 70
     0
  9
$USERR1
 40
0.0
  9
$USERR2
 40
0.0
  9
$USERR3
 40
0.0
  9
$USERR4
 40
0.0
  9
$USERR5
 40
0.0
  9
$WORLDVIEW
 70
     1
  9
$SHADEDGE
 70
     3
  9
$SHADEDIF
 70
    70
  9
$TILEMODE
 70
     1
  9
$MAXACTVP
 70
    64
  9
$PINSBASE
 10
0.0
 20
0.0
 30
0.0
  9
$PLIMCHECK
 70
     0
  9
$PEXTMIN
 10
1.000000E+20
 20
1.000000E+20
 30
0.0
  9
$PEXTMAX
 10
-1.000000E+20
 20
-1.000000E+20
 30
0.0
  9
$PLIMMIN
 10
0.0
 20
0.0
  9
$PLIMMAX
 10
12.0
 20
9.0
  9
$UNITMODE
 70
     0
  9
$VISRETAIN
 70
     1
  9
$PLINEGEN
 70
     0
  9
$PSLTSCALE
 70
     1
  9
$TREEDEPTH
 70
  3020
  9
$CMLSTYLE
  2
Standard
  9
$CMLJUST
 70
     0
  9
$CMLSCALE
 40
20.0
  9
$PROXYGRAPHICS
 70
     1
  9
$MEASUREMENT
 70
     1
  9
$CELWEIGHT
370
    -1
  9
$ENDCAPS
280
     0
  9
$JOINSTYLE
280
     0
  9
$LWDISPLAY
290
     0
  9
$INSUNITS
 70
     4
  9
$HYPERLINKBASE
  1

  9
$STYLESHEET
  1

  9
$XEDIT
290
     1
  9
$CEPSNTYPE
380
     0
  9
$PSTYLEMODE
290
     1
  9
$FINGERPRINTGUID
  2
{5B971502-7394-4558-AC0F-B9B2CDBEF257}
  9
$VERSIONGUID
  2
{FAEB1C32-E019-11D5-929B-00C0DF256EC4}
  9
$EXTNAMES
290
     1
  9
$PSVPSCALE
 40
0.0
  9
$OLESTARTUP
290
     0
  0
ENDSEC
  0
SECTION
  2
CLASSES
  0
CLASS
  1
ACDBDICTIONARYWDFLT
  2
AcDbDictionaryWithDefault
  3
ObjectDBX Classes
 90
        0
280
     0
281
     0
  0
CLASS
  1
VISUALSTYLE
  2
AcDbVisualStyle
  3
ObjectDBX Classes
 90
     4095
280
     0
281
     0
  0
CLASS
  1
SCALE
  2
AcDbScale
  3
ObjectDBX Classes
 90
     1153
280
     0
281
     0
  0
CLASS
  1
DICTIONARYVAR
  2
AcDbDictionaryVar
  3
ObjectDBX Classes
 90
        0
280
     0
281
     0
  0
CLASS
  1
ACDBPLACEHOLDER
  2
AcDbPlaceHolder
  3
ObjectDBX Classes
 90
        0
280
     0
281
     0
  0
CLASS
  1
LAYOUT
  2
AcDbLayout
  3
ObjectDBX Classes
 90
        0
280
     0
281
     0
  0
ENDSEC
  0
SECTION
  2
TABLES
  0
TABLE
  2
VPORT
  5
8
330
0
100
AcDbSymbolTable
 70
     1
  0
VPORT
  5
29
330
8
100
AcDbSymbolTableRecord
100
AcDbViewportTableRecord
  2
*Active
 70
     0
 10
0.0
 20
0.0
 11
1.0
 21
1.0
 12
192.84346
 22
127.848274
 13
0.0
 23
0.0
 14
1.0
 24
1.0
 15
0.0
 25
0.0
 16
0.0
 26
0.0
 36
1.0
 17
0.0
 27
0.0
 37
0.0
 40
234.776377
 41
1.691288
 42
50.0
 43
0.0
 44
0.0
 50
0.0
 51
0.0
 71
     0
 72
   100
 73
     1
 74
     3
 75
     0
 76
     0
 77
     0
 78
     0
281
     0
 65
     1
110
0.0
120
0.0
130
0.0
111
1.0
121
0.0
131
0.0
112
0.0
122
1.0
132
0.0
 79
     0
146
0.0
  0
ENDTAB
  0
TABLE
  2
LTYPE
  5
5
330
0
100
AcDbSymbolTable
 70
     5
  0
LTYPE
  5
14
330
5
100
AcDbSymbolTableRecord
100
AcDbLinetypeTableRecord
  2
ByBlock
 70
     0
  3

 72
    65
 73
     0
 40
0.0
  0
LTYPE
  5
15
330
5
100
AcDbSymbolTableRecord
100
AcDbLinetypeTableRecord
  2
ByLayer
 70
     0
  3

 72
    65
 73
     0
 40
0.0
  0
LTYPE
  5
16
330
5
100
AcDbSymbolTableRecord
100
AcDbLinetypeTableRecord
  2
Continuous
 70
     0
  3
Solid line
 72
    65
 73
     0
 40
0.0
  0
LTYPE
  5
5D
330
5
100
AcDbSymbolTableRecord
100
AcDbLinetypeTableRecord
  2
DASHED
 70
     0
  3
DASHED
 72
    83
 73
     2
 40
0.75
 49
0.5
 74
     0
 49
-0.25
 74
     0
  0
LTYPE
  5
5E
330
5
100
AcDbSymbolTableRecord
100
AcDbLinetypeTableRecord
  2
HIDDEN
 70
     0
  3
HIDDEN
 72
    83
 73
     2
 40
0.375
 49
0.25
 74
     0
 49
-0.125
 74
     0
  0
LTYPE
  5
5F
330
5
100
AcDbSymbolTableRecord
100
AcDbLinetypeTableRecord
  2
CENTER
 70
     0
  3
CENTER
 72
    83
 73
     4
 40
2.0
 49
1.25
 74
     0
 49
-0.25
 74
     0
 49
0.25
 74
     0
 49
-0.25
 74
     0
  0
LTYPE
  5
60
330
5
100
AcDbSymbolTableRecord
100
AcDbLinetypeTableRecord
  2
PHANTOM
 70
     0
  3
PHANTOM
 72
    83
 73
     6
 40
2.5
 49
1.25
 74
     0
 49
-0.25
 74
     0
 49
0.25
 74
     0
 49
-0.25
 74
     0
 49
0.25
 74
     0
 49
-0.25
 74
     0
  0
ENDTAB
  0
TABLE
  2
LAYER
  5
2
330
0
100
AcDbSymbolTable
 70
     2
  0
LAYER
  5
10
330
2
100
AcDbSymbolTableRecord
100
AcDbLayerTableRecord
  2
0
 70
     0
 62
     7
  6
Continuous
370
    -3
390
F
  0
LAYER
  5
61
330
2
100
AcDbSymbolTableRecord
100
AcDbLayerTableRecord
  2
001
 70
     0
 62
     7
  6
Continuous
370
    -3
390
F
  0
ENDTAB
  0
TABLE
  2
STYLE
  5
3
330
0
100
AcDbSymbolTable
 70
     2
  0
STYLE
  5
11
330
3
100
AcDbSymbolTableRecord
100
AcDbTextStyleTableRecord
  2
Standard
 70
     0
 40
0.0
 41
1.0
 50
0.0
 71
     0
 42
0.2
  3
TXT
  4
BIGFONT
  0
STYLE
  5
62
330
3
100
AcDbSymbolTableRecord
100
AcDbTextStyleTableRecord
  2
TATEGAKI
 70
     4
 40
1.0
 41
1.0
 50
0.0
 71
     0
 42
0.2
  3
TXT
  4
BIGFONT
  0
ENDTAB
  0
TABLE
  2
VIEW
  5
6
330
0
100
AcDbSymbolTable
 70
     0
  0
ENDTAB
  0
TABLE
  2
UCS
  5
7
330
0
100
AcDbSymbolTable
 70
     0
  0
ENDTAB
  0
TABLE
  2
APPID
  5
9
330
0
100
AcDbSymbolTable
 70
     1
  0
APPID
  5
12
330
9
100
AcDbSymbolTableRecord
100
AcDbRegAppTableRecord
  2
ACAD
 70
     0
  0
ENDTAB
  0
TABLE
  2
DIMSTYLE
  5
A
330
0
100
AcDbSymbolTable
 70
     2
100
AcDbDimStyleTable
  0
DIMSTYLE
105
27
330
A
100
AcDbSymbolTableRecord
100
AcDbDimStyleTableRecord
  2
ISO-25
 70
     0
 41
2.5
 42
0.625
 43
3.75
 44
1.25
 73
     0
 74
     0
 77
     1
 78
     8
140
2.5
141
2.5
143
0.03937
147
0.625
171
     3
172
     1
271
     2
272
     2
274
     3
278
    44
283
     0
284
     8
340
11
  0
DIMSTYLE
105
63
102
{ACAD_REACTORS
330
17E
330
17F
330
180
330
18F
330
190
330
191
330
192
330
193
330
194
330
195
330
196
330
197
330
198
330
199
102
}
330
A
100
AcDbSymbolTableRecord
100
AcDbDimStyleTableRecord
  2
Standard
 70
     0
 41
1.5
 42
0.0
 44
2.75
 73
     0
 74
     0
 77
     1
 78
     8
 79
     2
140
4.0
146
0.8
147
1.0
172
     1
179
     1
271
     1
340
11
  0
ENDTAB
  0
TABLE
  2
BLOCK_RECORD
  5
1
330
0
100
AcDbSymbolTable
 70
    15
  0
BLOCK_RECORD
  5
1F
330
1
100
AcDbSymbolTableRecord
100
AcDbBlockTableRecord
  2
*Model_Space
340
22
  0
BLOCK_RECORD
  5
1B
330
1
100
AcDbSymbolTableRecord
100
AcDbBlockTableRecord
  2
*Paper_Space
340
1E
  0
BLOCK_RECORD
  5
23
330
1
100
AcDbSymbolTableRecord
100
AcDbBlockTableRecord
  2
*Paper_Space0
340
26
  0
BLOCK_RECORD
  5
64
330
1
100
AcDbSymbolTableRecord
100
AcDbBlockTableRecord
  2
*D1
340
0
  0
BLOCK_RECORD
  5
78
330
1
100
AcDbSymbolTableRecord
100
AcDbBlockTableRecord
  2
*D2
340
0
  0
BLOCK_RECORD
  5
8C
330
1
100
AcDbSymbolTableRecord
100
AcDbBlockTableRecord
  2
*D3
340
0
  0
BLOCK_RECORD
  5
A0
330
1
100
AcDbSymbolTableRecord
100
AcDbBlockTableRecord
  2
*D4
340
0
  0
BLOCK_RECORD
  5
B4
330
1
100
AcDbSymbolTableRecord
100
AcDbBlockTableRecord
  2
*D5
340
0
  0
BLOCK_RECORD
  5
C8
330
1
100
AcDbSymbolTableRecord
100
AcDbBlockTableRecord
  2
*D6
340
0
  0
BLOCK_RECORD
  5
DC
330
1
100
AcDbSymbolTableRecord
100
AcDbBlockTableRecord
  2
*D7
340
0
  0
BLOCK_RECORD
  5
F0
330
1
100
AcDbSymbolTableRecord
100
AcDbBlockTableRecord
  2
*D8
340
0
  0
BLOCK_RECORD
  5
104
330
1
100
AcDbSymbolTableRecord
100
AcDbBlockTableRecord
  2
*D9
340
0
  0
BLOCK_RECORD
  5
11A
330
1
100
AcDbSymbolTableRecord
100
AcDbBlockTableRecord
  2
*D10
340
0
  0
BLOCK_RECORD
  5
12E
330
1
100
AcDbSymbolTableRecord
100
AcDbBlockTableRecord
  2
*D11
340
0
  0
BLOCK_RECORD
  5
142
330
1
100
AcDbSymbolTableRecord
100
AcDbBlockTableRecord
  2
*D12
340
0
  0
BLOCK_RECORD
  5
156
330
1
100
AcDbSymbolTableRecord
100
AcDbBlockTableRecord
  2
*D13
340
0
  0
BLOCK_RECORD
  5
16A
330
1
100
AcDbSymbolTableRecord
100
AcDbBlockTableRecord
  2
*D14
340
0
  0
ENDTAB
  0
ENDSEC
  0
SECTION
  2
BLOCKS
  0
BLOCK
  5
20
330
1F
100
AcDbEntity
  8
0
100
AcDbBlockBegin
  2
*Model_Space
 70
     0
 10
0.0
 20
0.0
 30
0.0
  3
*Model_Space
  1

  0
ENDBLK
  5
21
330
1F
100
AcDbEntity
  8
0
100
AcDbBlockEnd
  0
BLOCK
  5
1C
330
1B
100
AcDbEntity
 67
     1
  8
0
100
AcDbBlockBegin
  2
*Paper_Space
 70
     0
 10
0.0
 20
0.0
 30
0.0
  3
*Paper_Space
  1

  0
ENDBLK
  5
1D
330
1B
100
AcDbEntity
 67
     1
  8
0
100
AcDbBlockEnd
  0
BLOCK
  5
24
330
23
100
AcDbEntity
  8
0
100
AcDbBlockBegin
  2
*Paper_Space0
 70
     0
 10
0.0
 20
0.0
 30
0.0
  3
*Paper_Space0
  1

  0
ENDBLK
  5
25
330
23
100
AcDbEntity
  8
0
100
AcDbBlockEnd
  0
BLOCK
  5
65
330
64
100
AcDbEntity
  8
0
100
AcDbBlockBegin
  2
*D1
 70
     1
 10
0.0
 20
0.0
 30
0.0
  3
*D1
  1

  0
LINE
  5
67
330
64
100
AcDbEntity
  8
001
370
     9
100
AcDbLine
 10
83.606344
 20
32.194009
 30
0.0
 11
83.606344
 21
17.883213
 31
0.0
  0
LINE
  5
68
330
64
100
AcDbEntity
  8
001
370
     9
100
AcDbLine
 10
50.606344
 20
32.194009
 30
0.0
 11
50.606344
 21
17.883213
 31
0.0
  0
LINE
  5
69
330
64
100
AcDbEntity
  8
001
370
     9
100
AcDbLine
 10
83.606344
 20
20.633213
 30
0.0
 11
50.606344
 21
20.633213
 31
0.0
  0
POLYLINE
  5
6A
330
64
100
AcDbEntity
  8
001
370
     9
100
AcDb2dPolyline
 66
     1
 10
0.0
 20
0.0
 30
0.0
  0
VERTEX
  5
6C
330
6A
100
AcDbEntity
  8
001
370
     9
100
AcDbVertex
100
AcDb2dVertex
 10
82.106344
 20
21.035137
 30
0.0
  0
VERTEX
  5
6D
330
6A
100
AcDbEntity
  8
001
370
     9
100
AcDbVertex
100
AcDb2dVertex
 10
83.606344
 20
20.633213
 30
0.0
  0
VERTEX
  5
6E
330
6A
100
AcDbEntity
  8
001
370
     9
100
AcDbVertex
100
AcDb2dVertex
 10
82.106344
 20
20.231289
 30
0.0
  0
SEQEND
  5
6B
330
6A
100
AcDbEntity
  8
001
370
     9
  0
POLYLINE
  5
6F
330
64
100
AcDbEntity
  8
001
370
     9
100
AcDb2dPolyline
 66
     1
 10
0.0
 20
0.0
 30
0.0
  0
VERTEX
  5
71
330
6F
100
AcDbEntity
  8
001
370
     9
100
AcDbVertex
100
AcDb2dVertex
 10
52.106344
 20
20.231289
 30
0.0
  0
VERTEX
  5
72
330
6F
100
AcDbEntity
  8
001
370
     9
100
AcDbVertex
100
AcDb2dVertex
 10
50.606344
 20
20.633213
 30
0.0
  0
VERTEX
  5
73
330
6F
100
AcDbEntity
  8
001
370
     9
100
AcDbVertex
100
AcDb2dVertex
 10
52.106344
 20
21.035137
 30
0.0
  0
SEQEND
  5
70
330
6F
100
AcDbEntity
  8
001
370
     9
  0
TEXT
  5
74
330
64
100
AcDbEntity
  8
001
370
    30
100
AcDbText
 10
61.106344
 20
21.633213
 30
0.0
 40
4.0
  1
%%c３３
 41
0.882353
100
AcDbText
  0
POINT
  5
75
330
64
100
AcDbEntity
  8
001
370
     9
100
AcDbPoint
 10
83.606344
 20
32.194009
 30
0.0
  0
POINT
  5
76
330
64
100
AcDbEntity
  8
001
370
     9
100
AcDbPoint
 10
50.606344
 20
32.194009
 30
0.0
  0
POINT
  5
77
330
64
100
AcDbEntity
  8
001
370
     9
100
AcDbPoint
 10
50.606344
 20
20.633213
 30
0.0
  0
ENDBLK
  5
66
330
64
100
AcDbEntity
  8
0
100
AcDbBlockEnd
  0
BLOCK
  5
79
330
78
100
AcDbEntity
  8
0
100
AcDbBlockBegin
  2
*D2
 70
     1
 10
0.0
 20
0.0
 30
0.0
  3
*D2
  1

  0
LINE
  5
7B
330
78
100
AcDbEntity
  8
001
370
     9
100
AcDbLine
 10
91.106344
 20
81.194009
 30
0.0
 11
91.106344
 21
105.239687
 31
0.0
  0
LINE
  5
7C
330
78
100
AcDbEntity
  8
001
370
     9
100
AcDbLine
 10
43.106344
 20
81.194009
 30
0.0
 11
43.106344
 21
105.239687
 31
0.0
  0
LINE
  5
7D
330
78
100
AcDbEntity
  8
001
370
     9
100
AcDbLine
 10
91.106344
 20
102.489687
 30
0.0
 11
43.106344
 21
102.489687
 31
0.0
  0
POLYLINE
  5
7E
330
78
100
AcDbEntity
  8
001
370
     9
100
AcDb2dPolyline
 66
     1
 10
0.0
 20
0.0
 30
0.0
  0
VERTEX
  5
80
330
7E
100
AcDbEntity
  8
001
370
     9
100
AcDbVertex
100
AcDb2dVertex
 10
89.606344
 20
102.891611
 30
0.0
  0
VERTEX
  5
81
330
7E
100
AcDbEntity
  8
001
370
     9
100
AcDbVertex
100
AcDb2dVertex
 10
91.106344
 20
102.489687
 30
0.0
  0
VERTEX
  5
82
330
7E
100
AcDbEntity
  8
001
370
     9
100
AcDbVertex
100
AcDb2dVertex
 10
89.606344
 20
102.087763
 30
0.0
  0
SEQEND
  5
7F
330
7E
100
AcDbEntity
  8
001
370
     9
  0
POLYLINE
  5
83
330
78
100
AcDbEntity
  8
001
370
     9
100
AcDb2dPolyline
 66
     1
 10
0.0
 20
0.0
 30
0.0
  0
VERTEX
  5
85
330
83
100
AcDbEntity
  8
001
370
     9
100
AcDbVertex
100
AcDb2dVertex
 10
44.606344
 20
102.087763
 30
0.0
  0
VERTEX
  5
86
330
83
100
AcDbEntity
  8
001
370
     9
100
AcDbVertex
100
AcDb2dVertex
 10
43.106344
 20
102.489687
 30
0.0
  0
VERTEX
  5
87
330
83
100
AcDbEntity
  8
001
370
     9
100
AcDbVertex
100
AcDb2dVertex
 10
44.606344
 20
102.891611
 30
0.0
  0
SEQEND
  5
84
330
83
100
AcDbEntity
  8
001
370
     9
  0
TEXT
  5
88
330
78
100
AcDbEntity
  8
001
370
    30
100
AcDbText
 10
61.106344
 20
103.489687
 30
0.0
 40
4.0
  1
%%c４８
 41
0.882353
100
AcDbText
  0
POINT
  5
89
330
78
100
AcDbEntity
  8
001
370
     9
100
AcDbPoint
 10
91.106344
 20
81.194009
 30
0.0
  0
POINT
  5
8A
330
78
100
AcDbEntity
  8
001
370
     9
100
AcDbPoint
 10
43.106344
 20
81.194009
 30
0.0
  0
POINT
  5
8B
330
78
100
AcDbEntity
  8
001
370
     9
100
AcDbPoint
 10
43.106344
 20
102.489687
 30
0.0
  0
ENDBLK
  5
7A
330
78
100
AcDbEntity
  8
0
100
AcDbBlockEnd
  0
BLOCK
  5
8D
330
8C
100
AcDbEntity
  8
0
100
AcDbBlockBegin
  2
*D3
 70
     1
 10
0.0
 20
0.0
 30
0.0
  3
*D3
  1

  0
LINE
  5
8F
330
8C
100
AcDbEntity
  8
001
370
     9
100
AcDbLine
 10
102.106344
 20
82.194009
 30
0.0
 11
110.004086
 21
82.194009
 31
0.0
  0
LINE
  5
90
330
8C
100
AcDbEntity
  8
001
370
     9
100
AcDbLine
 10
91.106344
 20
50.194009
 30
0.0
 11
110.004086
 21
50.194009
 31
0.0
  0
LINE
  5
91
330
8C
100
AcDbEntity
  8
001
370
     9
100
AcDbLine
 10
107.254086
 20
82.194009
 30
0.0
 11
107.254086
 21
50.194009
 31
0.0
  0
POLYLINE
  5
92
330
8C
100
AcDbEntity
  8
001
370
     9
100
AcDb2dPolyline
 66
     1
 10
0.0
 20
0.0
 30
0.0
  0
VERTEX
  5
94
330
92
100
AcDbEntity
  8
001
370
     9
100
AcDbVertex
100
AcDb2dVertex
 10
106.852163
 20
80.694009
 30
0.0
  0
VERTEX
  5
95
330
92
100
AcDbEntity
  8
001
370
     9
100
AcDbVertex
100
AcDb2dVertex
 10
107.254086
 20
82.194009
 30
0.0
  0
VERTEX
  5
96
330
92
100
AcDbEntity
  8
001
370
     9
100
AcDbVertex
100
AcDb2dVertex
 10
107.65601
 20
80.694009
 30
0.0
  0
SEQEND
  5
93
330
92
100
AcDbEntity
  8
001
370
     9
  0
POLYLINE
  5
97
330
8C
100
AcDbEntity
  8
001
370
     9
100
AcDb2dPolyline
 66
     1
 10
0.0
 20
0.0
 30
0.0
  0
VERTEX
  5
99
330
97
100
AcDbEntity
  8
001
370
     9
100
AcDbVertex
100
AcDb2dVertex
 10
107.65601
 20
51.694009
 30
0.0
  0
VERTEX
  5
9A
330
97
100
AcDbEntity
  8
001
370
     9
100
AcDbVertex
100
AcDb2dVertex
 10
107.254086
 20
50.194009
 30
0.0
  0
VERTEX
  5
9B
330
97
100
AcDbEntity
  8
001
370
     9
100
AcDbVertex
100
AcDb2dVertex
 10
106.852163
 20
51.694009
 30
0.0
  0
SEQEND
  5
98
330
97
100
AcDbEntity
  8
001
370
     9
  0
TEXT
  5
9C
330
8C
100
AcDbEntity
  8
001
370
    30
100
AcDbText
 10
106.254086
 20
62.194009
 30
0.0
 40
4.0
  1
３２
 50
90.000003
 41
0.833333
100
AcDbText
  0
POINT
  5
9D
330
8C
100
AcDbEntity
  8
001
370
     9
100
AcDbPoint
 10
102.106344
 20
82.194009
 30
0.0
  0
POINT
  5
9E
330
8C
100
AcDbEntity
  8
001
370
     9
100
AcDbPoint
 10
91.106344
 20
50.194009
 30
0.0
  0
POINT
  5
9F
330
8C
100
AcDbEntity
  8
001
370
     9
100
AcDbPoint
 10
107.254086
 20
50.194009
 30
0.0
  0
ENDBLK
  5
8E
330
8C
100
AcDbEntity
  8
0
100
AcDbBlockEnd
  0
BLOCK
  5
A1
330
A0
100
AcDbEntity
  8
0
100
AcDbBlockBegin
  2
*D4
 70
     1
 10
0.0
 20
0.0
 30
0.0
  3
*D4
  1

  0
LINE
  5
A3
330
A0
100
AcDbEntity
  8
001
370
     9
100
AcDbLine
 10
146.872474
 20
161.405778
 30
0.0
 11
113.044065
 21
161.405778
 31
0.0
  0
LINE
  5
A4
330
A0
100
AcDbEntity
  8
001
370
     9
100
AcDbLine
 10
146.872474
 20
209.405778
 30
0.0
 11
113.044065
 21
209.405778
 31
0.0
  0
LINE
  5
A5
330
A0
100
AcDbEntity
  8
001
370
     9
100
AcDbLine
 10
115.794065
 20
161.405778
 30
0.0
 11
115.794065
 21
209.405778
 31
0.0
  0
POLYLINE
  5
A6
330
A0
100
AcDbEntity
  8
001
370
     9
100
AcDb2dPolyline
 66
     1
 10
0.0
 20
0.0
 30
0.0
  0
VERTEX
  5
A8
330
A6
100
AcDbEntity
  8
001
370
     9
100
AcDbVertex
100
AcDb2dVertex
 10
116.195989
 20
162.905778
 30
0.0
  0
VERTEX
  5
A9
330
A6
100
AcDbEntity
  8
001
370
     9
100
AcDbVertex
100
AcDb2dVertex
 10
115.794065
 20
161.405778
 30
0.0
  0
VERTEX
  5
AA
330
A6
100
AcDbEntity
  8
001
370
     9
100
AcDbVertex
100
AcDb2dVertex
 10
115.392141
 20
162.905778
 30
0.0
  0
SEQEND
  5
A7
330
A6
100
AcDbEntity
  8
001
370
     9
  0
POLYLINE
  5
AB
330
A0
100
AcDbEntity
  8
001
370
     9
100
AcDb2dPolyline
 66
     1
 10
0.0
 20
0.0
 30
0.0
  0
VERTEX
  5
AD
330
AB
100
AcDbEntity
  8
001
370
     9
100
AcDbVertex
100
AcDb2dVertex
 10
115.392141
 20
207.905778
 30
0.0
  0
VERTEX
  5
AE
330
AB
100
AcDbEntity
  8
001
370
     9
100
AcDbVertex
100
AcDb2dVertex
 10
115.794065
 20
209.405778
 30
0.0
  0
VERTEX
  5
AF
330
AB
100
AcDbEntity
  8
001
370
     9
100
AcDbVertex
100
AcDb2dVertex
 10
116.195989
 20
207.905778
 30
0.0
  0
SEQEND
  5
AC
330
AB
100
AcDbEntity
  8
001
370
     9
  0
TEXT
  5
B0
330
A0
100
AcDbEntity
  8
001
370
    30
100
AcDbText
 10
114.794065
 20
179.405778
 30
0.0
 40
4.0
  1
%%c４８
 50
90.000003
 41
0.882353
100
AcDbText
  0
POINT
  5
B1
330
A0
100
AcDbEntity
  8
001
370
     9
100
AcDbPoint
 10
146.872474
 20
161.405778
 30
0.0
  0
POINT
  5
B2
330
A0
100
AcDbEntity
  8
001
370
     9
100
AcDbPoint
 10
146.872474
 20
209.405778
 30
0.0
  0
POINT
  5
B3
330
A0
100
AcDbEntity
  8
001
370
     9
100
AcDbPoint
 10
115.794065
 20
209.405778
 30
0.0
  0
ENDBLK
  5
A2
330
A0
100
AcDbEntity
  8
0
100
AcDbBlockEnd
  0
BLOCK
  5
B5
330
B4
100
AcDbEntity
  8
0
100
AcDbBlockBegin
  2
*D5
 70
     1
 10
0.0
 20
0.0
 30
0.0
  3
*D5
  1

  0
LINE
  5
B7
330
B4
100
AcDbEntity
  8
001
370
     9
100
AcDbLine
 10
179.872474
 20
211.405778
 30
0.0
 11
100.094658
 21
211.405778
 31
0.0
  0
LINE
  5
B8
330
B4
100
AcDbEntity
  8
001
370
     9
100
AcDbLine
 10
179.872474
 20
159.405778
 30
0.0
 11
100.094658
 21
159.405778
 31
0.0
  0
LINE
  5
B9
330
B4
100
AcDbEntity
  8
001
370
     9
100
AcDbLine
 10
102.844658
 20
211.405778
 30
0.0
 11
102.844658
 21
159.405778
 31
0.0
  0
POLYLINE
  5
BA
330
B4
100
AcDbEntity
  8
001
370
     9
100
AcDb2dPolyline
 66
     1
 10
0.0
 20
0.0
 30
0.0
  0
VERTEX
  5
BC
330
BA
100
AcDbEntity
  8
001
370
     9
100
AcDbVertex
100
AcDb2dVertex
 10
102.442734
 20
209.905778
 30
0.0
  0
VERTEX
  5
BD
330
BA
100
AcDbEntity
  8
001
370
     9
100
AcDbVertex
100
AcDb2dVertex
 10
102.844658
 20
211.405778
 30
0.0
  0
VERTEX
  5
BE
330
BA
100
AcDbEntity
  8
001
370
     9
100
AcDbVertex
100
AcDb2dVertex
 10
103.246582
 20
209.905778
 30
0.0
  0
SEQEND
  5
BB
330
BA
100
AcDbEntity
  8
001
370
     9
  0
POLYLINE
  5
BF
330
B4
100
AcDbEntity
  8
001
370
     9
100
AcDb2dPolyline
 66
     1
 10
0.0
 20
0.0
 30
0.0
  0
VERTEX
  5
C1
330
BF
100
AcDbEntity
  8
001
370
     9
100
AcDbVertex
100
AcDb2dVertex
 10
103.246582
 20
160.905778
 30
0.0
  0
VERTEX
  5
C2
330
BF
100
AcDbEntity
  8
001
370
     9
100
AcDbVertex
100
AcDb2dVertex
 10
102.844658
 20
159.405778
 30
0.0
  0
VERTEX
  5
C3
330
BF
100
AcDbEntity
  8
001
370
     9
100
AcDbVertex
100
AcDb2dVertex
 10
102.442734
 20
160.905778
 30
0.0
  0
SEQEND
  5
C0
330
BF
100
AcDbEntity
  8
001
370
     9
  0
TEXT
  5
C4
330
B4
100
AcDbEntity
  8
001
370
    30
100
AcDbText
 10
101.844658
 20
179.405778
 30
0.0
 40
4.0
  1
%%c５２
 50
90.000003
 41
0.882353
100
AcDbText
  0
POINT
  5
C5
330
B4
100
AcDbEntity
  8
001
370
     9
100
AcDbPoint
 10
179.872474
 20
211.405778
 30
0.0
  0
POINT
  5
C6
330
B4
100
AcDbEntity
  8
001
370
     9
100
AcDbPoint
 10
179.872474
 20
159.405778
 30
0.0
  0
POINT
  5
C7
330
B4
100
AcDbEntity
  8
001
370
     9
100
AcDbPoint
 10
102.844658
 20
159.405778
 30
0.0
  0
ENDBLK
  5
B6
330
B4
100
AcDbEntity
  8
0
100
AcDbBlockEnd
  0
BLOCK
  5
C9
330
C8
100
AcDbEntity
  8
0
100
AcDbBlockBegin
  2
*D6
 70
     1
 10
0.0
 20
0.0
 30
0.0
  3
*D6
  1

  0
LINE
  5
CB
330
C8
100
AcDbEntity
  8
001
370
     9
100
AcDbLine
 10
184.235599
 20
215.665778
 30
0.0
 11
86.908662
 21
215.665778
 31
0.0
  0
LINE
  5
CC
330
C8
100
AcDbEntity
  8
001
370
     9
100
AcDbLine
 10
184.235599
 20
155.145778
 30
0.0
 11
86.908662
 21
155.145778
 31
0.0
  0
LINE
  5
CD
330
C8
100
AcDbEntity
  8
001
370
     9
100
AcDbLine
 10
89.658662
 20
215.665778
 30
0.0
 11
89.658662
 21
155.145778
 31
0.0
  0
POLYLINE
  5
CE
330
C8
100
AcDbEntity
  8
001
370
     9
100
AcDb2dPolyline
 66
     1
 10
0.0
 20
0.0
 30
0.0
  0
VERTEX
  5
D0
330
CE
100
AcDbEntity
  8
001
370
     9
100
AcDbVertex
100
AcDb2dVertex
 10
89.256738
 20
214.165778
 30
0.0
  0
VERTEX
  5
D1
330
CE
100
AcDbEntity
  8
001
370
     9
100
AcDbVertex
100
AcDb2dVertex
 10
89.658662
 20
215.665778
 30
0.0
  0
VERTEX
  5
D2
330
CE
100
AcDbEntity
  8
001
370
     9
100
AcDbVertex
100
AcDb2dVertex
 10
90.060586
 20
214.165778
 30
0.0
  0
SEQEND
  5
CF
330
CE
100
AcDbEntity
  8
001
370
     9
  0
POLYLINE
  5
D3
330
C8
100
AcDbEntity
  8
001
370
     9
100
AcDb2dPolyline
 66
     1
 10
0.0
 20
0.0
 30
0.0
  0
VERTEX
  5
D5
330
D3
100
AcDbEntity
  8
001
370
     9
100
AcDbVertex
100
AcDb2dVertex
 10
90.060586
 20
156.645778
 30
0.0
  0
VERTEX
  5
D6
330
D3
100
AcDbEntity
  8
001
370
     9
100
AcDbVertex
100
AcDb2dVertex
 10
89.658662
 20
155.145778
 30
0.0
  0
VERTEX
  5
D7
330
D3
100
AcDbEntity
  8
001
370
     9
100
AcDbVertex
100
AcDb2dVertex
 10
89.256738
 20
156.645778
 30
0.0
  0
SEQEND
  5
D4
330
D3
100
AcDbEntity
  8
001
370
     9
  0
TEXT
  5
D8
330
C8
100
AcDbEntity
  8
001
370
    30
100
AcDbText
 10
88.658662
 20
175.405778
 30
0.0
 40
4.0
  1
%%c６０．５
 50
90.000003
 41
0.862069
100
AcDbText
  0
POINT
  5
D9
330
C8
100
AcDbEntity
  8
001
370
     9
100
AcDbPoint
 10
184.235599
 20
215.665778
 30
0.0
  0
POINT
  5
DA
330
C8
100
AcDbEntity
  8
001
370
     9
100
AcDbPoint
 10
184.235599
 20
155.145778
 30
0.0
  0
POINT
  5
DB
330
C8
100
AcDbEntity
  8
001
370
     9
100
AcDbPoint
 10
89.658662
 20
155.145778
 30
0.0
  0
ENDBLK
  5
CA
330
C8
100
AcDbEntity
  8
0
100
AcDbBlockEnd
  0
BLOCK
  5
DD
330
DC
100
AcDbEntity
  8
0
100
AcDbBlockBegin
  2
*D7
 70
     1
 10
0.0
 20
0.0
 30
0.0
  3
*D7
  1

  0
LINE
  5
DF
330
DC
100
AcDbEntity
  8
001
370
     9
100
AcDbLine
 10
146.872474
 20
167.905778
 30
0.0
 11
206.992427
 21
107.785826
 31
0.0
  0
ARC
  5
E0
330
DC
100
AcDbEntity
  8
001
370
     9
100
AcDbCircle
 10
129.372474
 20
185.405778
 30
0.0
 40
107.0211897382067
100
AcDbArc
 50
315.0
 51
0.0
  0
POLYLINE
  5
E1
330
DC
100
AcDbEntity
  8
001
370
     9
100
AcDb2dPolyline
 66
     1
 10
0.0
 20
0.0
 30
0.0
  0
VERTEX
  5
E3
330
E1
100
AcDbEntity
  8
001
370
     9
100
AcDbVertex
100
AcDb2dVertex
 10
235.981238
 20
183.908632
 30
0.0
  0
VERTEX
  5
E4
330
E1
100
AcDbEntity
  8
001
370
     9
100
AcDbVertex
100
AcDb2dVertex
 10
236.393664
 20
185.405778
 30
0.0
  0
VERTEX
  5
E5
330
E1
100
AcDbEntity
  8
001
370
     9
100
AcDbVertex
100
AcDb2dVertex
 10
236.785066
 20
183.902999
 30
0.0
  0
SEQEND
  5
E2
330
E1
100
AcDbEntity
  8
001
370
     9
  0
POLYLINE
  5
E6
330
DC
100
AcDbEntity
  8
001
370
     9
100
AcDb2dPolyline
 66
     1
 10
0.0
 20
0.0
 30
0.0
  0
VERTEX
  5
E8
330
E6
100
AcDbEntity
  8
001
370
     9
100
AcDbVertex
100
AcDb2dVertex
 10
206.387272
 20
110.516232
 30
0.0
  0
VERTEX
  5
E9
330
E6
100
AcDbEntity
  8
001
370
     9
100
AcDbVertex
100
AcDb2dVertex
 10
205.047883
 20
109.730369
 30
0.0
  0
VERTEX
  5
EA
330
E6
100
AcDbEntity
  8
001
370
     9
100
AcDbVertex
100
AcDb2dVertex
 10
205.814897
 20
111.080641
 30
0.0
  0
SEQEND
  5
E7
330
E6
100
AcDbEntity
  8
001
370
     9
  0
TEXT
  5
EB
330
DC
100
AcDbEntity
  8
001
370
    30
100
AcDbText
 10
225.027181
 20
139.289949
 30
0.0
 40
4.0
  1
４５%%d
 50
67.5
 41
0.978261
100
AcDbText
  0
POINT
  5
EC
330
DC
100
AcDbEntity
  8
001
370
     9
100
AcDbPoint
 10
233.643664
 20
185.405778
 30
0.0
  0
POINT
  5
ED
330
DC
100
AcDbEntity
  8
001
370
     9
100
AcDbPoint
 10
129.372474
 20
185.405778
 30
0.0
  0
POINT
  5
EE
330
DC
100
AcDbEntity
  8
001
370
     9
100
AcDbPoint
 10
129.372474
 20
185.405778
 30
0.0
  0
POINT
  5
EF
330
DC
100
AcDbEntity
  8
001
370
     9
100
AcDbPoint
 10
146.872474
 20
167.905778
 30
0.0
  0
ENDBLK
  5
DE
330
DC
100
AcDbEntity
  8
0
100
AcDbBlockEnd
  0
BLOCK
  5
F1
330
F0
100
AcDbEntity
  8
0
100
AcDbBlockBegin
  2
*D8
 70
     1
 10
0.0
 20
0.0
 30
0.0
  3
*D8
  1

  0
LINE
  5
F3
330
F0
100
AcDbEntity
  8
001
370
     9
100
AcDbLine
 10
179.872474
 20
159.405778
 30
0.0
 11
207.895553
 21
131.3827
 31
0.0
  0
ARC
  5
F4
330
F0
100
AcDbEntity
  8
001
370
     9
100
AcDbCircle
 10
153.872474
 20
185.405778
 30
0.0
 40
73.65017017253084
100
AcDbArc
 50
315.0
 51
0.0
  0
POLYLINE
  5
F5
330
F0
100
AcDbEntity
  8
001
370
     9
100
AcDb2dPolyline
 66
     1
 10
0.0
 20
0.0
 30
0.0
  0
VERTEX
  5
F7
330
F5
100
AcDbEntity
  8
001
370
     9
100
AcDbVertex
100
AcDb2dVertex
 10
227.105467
 20
183.909949
 30
0.0
  0
VERTEX
  5
F8
330
F5
100
AcDbEntity
  8
001
370
     9
100
AcDbVertex
100
AcDb2dVertex
 10
227.522645
 20
185.405778
 30
0.0
  0
VERTEX
  5
F9
330
F5
100
AcDbEntity
  8
001
370
     9
100
AcDbVertex
100
AcDb2dVertex
 10
227.909273
 20
183.901763
 30
0.0
  0
SEQEND
  5
F6
330
F5
100
AcDbEntity
  8
001
370
     9
  0
POLYLINE
  5
FA
330
F0
100
AcDbEntity
  8
001
370
     9
100
AcDb2dPolyline
 66
     1
 10
0.0
 20
0.0
 30
0.0
  0
VERTEX
  5
FC
330
FA
100
AcDbEntity
  8
001
370
     9
100
AcDbVertex
100
AcDb2dVertex
 10
207.287896
 20
134.117355
 30
0.0
  0
VERTEX
  5
FD
330
FA
100
AcDbEntity
  8
001
370
     9
100
AcDbVertex
100
AcDb2dVertex
 10
205.951009
 20
133.327244
 30
0.0
  0
VERTEX
  5
FE
330
FA
100
AcDbEntity
  8
001
370
     9
100
AcDbVertex
100
AcDb2dVertex
 10
206.713731
 20
134.679944
 30
0.0
  0
SEQEND
  5
FB
330
FA
100
AcDbEntity
  8
001
370
     9
  0
TEXT
  5
FF
330
F0
100
AcDbEntity
  8
001
370
    30
100
AcDbText
 10
212.81812
 20
142.516874
 30
0.0
 40
4.0
  1
４５%%d
 50
58.681536
 41
0.978261
100
AcDbText
  0
POINT
  5
100
330
F0
100
AcDbEntity
  8
001
370
     9
100
AcDbPoint
 10
143.644189
 20
185.405778
 30
0.0
  0
POINT
  5
101
330
F0
100
AcDbEntity
  8
001
370
     9
100
AcDbPoint
 10
153.872474
 20
185.405778
 30
0.0
  0
POINT
  5
102
330
F0
100
AcDbEntity
  8
001
370
     9
100
AcDbPoint
 10
153.872474
 20
185.405778
 30
0.0
  0
POINT
  5
103
330
F0
100
AcDbEntity
  8
001
370
     9
100
AcDbPoint
 10
179.872474
 20
159.405778
 30
0.0
  0
ENDBLK
  5
F2
330
F0
100
AcDbEntity
  8
0
100
AcDbBlockEnd
  0
BLOCK
  5
105
330
104
100
AcDbEntity
  8
0
100
AcDbBlockBegin
  2
*D9
 70
     1
 10
0.0
 20
0.0
 30
0.0
  3
*D9
  1

  0
LINE
  5
107
330
104
100
AcDbEntity
  8
001
370
     9
100
AcDbLine
 10
146.872474
 20
162.199541
 30
0.0
 11
146.872474
 21
123.537545
 31
0.0
  0
LINE
  5
108
330
104
100
AcDbEntity
  8
001
370
     9
100
AcDbLine
 10
144.972474
 20
169.805779
 30
0.0
 11
144.972474
 21
123.537545
 31
0.0
  0
LINE
  5
109
330
104
100
AcDbEntity
  8
001
370
     9
100
AcDbLine
 10
146.872474
 20
126.287545
 30
0.0
 11
144.972474
 21
126.287545
 31
0.0
  0
POLYLINE
  5
10A
330
104
100
AcDbEntity
  8
001
370
     9
100
AcDb2dPolyline
 66
     1
 10
0.0
 20
0.0
 30
0.0
  0
VERTEX
  5
10C
330
10A
100
AcDbEntity
  8
001
370
     9
100
AcDbVertex
100
AcDb2dVertex
 10
148.372474
 20
125.885621
 30
0.0
  0
VERTEX
  5
10D
330
10A
100
AcDbEntity
  8
001
370
     9
100
AcDbVertex
100
AcDb2dVertex
 10
146.872474
 20
126.287545
 30
0.0
  0
VERTEX
  5
10E
330
10A
100
AcDbEntity
  8
001
370
     9
100
AcDbVertex
100
AcDb2dVertex
 10
148.372474
 20
126.689468
 30
0.0
  0
SEQEND
  5
10B
330
10A
100
AcDbEntity
  8
001
370
     9
  0
POLYLINE
  5
10F
330
104
100
AcDbEntity
  8
001
370
     9
100
AcDb2dPolyline
 66
     1
 10
0.0
 20
0.0
 30
0.0
  0
VERTEX
  5
111
330
10F
100
AcDbEntity
  8
001
370
     9
100
AcDbVertex
100
AcDb2dVertex
 10
143.472474
 20
126.689468
 30
0.0
  0
VERTEX
  5
112
330
10F
100
AcDbEntity
  8
001
370
     9
100
AcDbVertex
100
AcDb2dVertex
 10
144.972474
 20
126.287545
 30
0.0
  0
VERTEX
  5
113
330
10F
100
AcDbEntity
  8
001
370
     9
100
AcDbVertex
100
AcDb2dVertex
 10
143.472474
 20
125.885621
 30
0.0
  0
SEQEND
  5
110
330
10F
100
AcDbEntity
  8
001
370
     9
  0
TEXT
  5
114
330
104
100
AcDbEntity
  8
001
370
    30
100
AcDbText
 10
129.472474
 20
127.287545
 30
0.0
 40
4.0
  1
１．９
 41
0.833333
100
AcDbText
  0
POINT
  5
115
330
104
100
AcDbEntity
  8
001
370
     9
100
AcDbPoint
 10
146.872474
 20
162.199541
 30
0.0
  0
POINT
  5
116
330
104
100
AcDbEntity
  8
001
370
     9
100
AcDbPoint
 10
144.972474
 20
169.805779
 30
0.0
  0
POINT
  5
117
330
104
100
AcDbEntity
  8
001
370
     9
100
AcDbPoint
 10
144.972474
 20
126.287545
 30
0.0
  0
LINE
  5
118
330
104
100
AcDbEntity
  8
001
370
     9
100
AcDbLine
 10
146.872474
 20
126.287545
 30
0.0
 11
149.372474
 21
126.287545
 31
0.0
  0
LINE
  5
119
330
104
100
AcDbEntity
  8
001
370
     9
100
AcDbLine
 10
144.972474
 20
126.287545
 30
0.0
 11
126.472474
 21
126.287545
 31
0.0
  0
ENDBLK
  5
106
330
104
100
AcDbEntity
  8
0
100
AcDbBlockEnd
  0
BLOCK
  5
11B
330
11A
100
AcDbEntity
  8
0
100
AcDbBlockBegin
  2
*D10
 70
     1
 10
0.0
 20
0.0
 30
0.0
  3
*D10
  1

  0
LINE
  5
11D
330
11A
100
AcDbEntity
  8
001
370
     9
100
AcDbLine
 10
178.872474
 20
150.405778
 30
0.0
 11
178.872474
 21
123.537545
 31
0.0
  0
LINE
  5
11E
330
11A
100
AcDbEntity
  8
001
370
     9
100
AcDbLine
 10
146.872474
 20
162.199541
 30
0.0
 11
146.872474
 21
123.537545
 31
0.0
  0
LINE
  5
11F
330
11A
100
AcDbEntity
  8
001
370
     9
100
AcDbLine
 10
178.872474
 20
126.287545
 30
0.0
 11
146.872474
 21
126.287545
 31
0.0
  0
POLYLINE
  5
120
330
11A
100
AcDbEntity
  8
001
370
     9
100
AcDb2dPolyline
 66
     1
 10
0.0
 20
0.0
 30
0.0
  0
VERTEX
  5
122
330
120
100
AcDbEntity
  8
001
370
     9
100
AcDbVertex
100
AcDb2dVertex
 10
177.372474
 20
126.689468
 30
0.0
  0
VERTEX
  5
123
330
120
100
AcDbEntity
  8
001
370
     9
100
AcDbVertex
100
AcDb2dVertex
 10
178.872474
 20
126.287545
 30
0.0
  0
VERTEX
  5
124
330
120
100
AcDbEntity
  8
001
370
     9
100
AcDbVertex
100
AcDb2dVertex
 10
177.372474
 20
125.885621
 30
0.0
  0
SEQEND
  5
121
330
120
100
AcDbEntity
  8
001
370
     9
  0
POLYLINE
  5
125
330
11A
100
AcDbEntity
  8
001
370
     9
100
AcDb2dPolyline
 66
     1
 10
0.0
 20
0.0
 30
0.0
  0
VERTEX
  5
127
330
125
100
AcDbEntity
  8
001
370
     9
100
AcDbVertex
100
AcDb2dVertex
 10
148.372474
 20
125.885621
 30
0.0
  0
VERTEX
  5
128
330
125
100
AcDbEntity
  8
001
370
     9
100
AcDbVertex
100
AcDb2dVertex
 10
146.872474
 20
126.287545
 30
0.0
  0
VERTEX
  5
129
330
125
100
AcDbEntity
  8
001
370
     9
100
AcDbVertex
100
AcDb2dVertex
 10
148.372474
 20
126.689468
 30
0.0
  0
SEQEND
  5
126
330
125
100
AcDbEntity
  8
001
370
     9
  0
TEXT
  5
12A
330
11A
100
AcDbEntity
  8
001
370
    30
100
AcDbText
 10
158.872474
 20
127.287545
 30
0.0
 40
4.0
  1
３２
 41
0.833333
100
AcDbText
  0
POINT
  5
12B
330
11A
100
AcDbEntity
  8
001
370
     9
100
AcDbPoint
 10
178.872474
 20
150.405778
 30
0.0
  0
POINT
  5
12C
330
11A
100
AcDbEntity
  8
001
370
     9
100
AcDbPoint
 10
146.872474
 20
162.199541
 30
0.0
  0
POINT
  5
12D
330
11A
100
AcDbEntity
  8
001
370
     9
100
AcDbPoint
 10
146.872474
 20
126.287545
 30
0.0
  0
ENDBLK
  5
11C
330
11A
100
AcDbEntity
  8
0
100
AcDbBlockEnd
  0
BLOCK
  5
12F
330
12E
100
AcDbEntity
  8
0
100
AcDbBlockBegin
  2
*D11
 70
     1
 10
0.0
 20
0.0
 30
0.0
  3
*D11
  1

  0
LINE
  5
131
330
12E
100
AcDbEntity
  8
001
370
     9
100
AcDbLine
 10
240.972474
 20
164.605778
 30
0.0
 11
240.972474
 21
100.905123
 31
0.0
  0
LINE
  5
132
330
12E
100
AcDbEntity
  8
001
370
     9
100
AcDbLine
 10
144.972474
 20
174.741162
 30
0.0
 11
144.972474
 21
100.905123
 31
0.0
  0
LINE
  5
133
330
12E
100
AcDbEntity
  8
001
370
     9
100
AcDbLine
 10
240.972474
 20
103.655123
 30
0.0
 11
144.972474
 21
103.655123
 31
0.0
  0
POLYLINE
  5
134
330
12E
100
AcDbEntity
  8
001
370
     9
100
AcDb2dPolyline
 66
     1
 10
0.0
 20
0.0
 30
0.0
  0
VERTEX
  5
136
330
134
100
AcDbEntity
  8
001
370
     9
100
AcDbVertex
100
AcDb2dVertex
 10
239.472474
 20
104.057047
 30
0.0
  0
VERTEX
  5
137
330
134
100
AcDbEntity
  8
001
370
     9
100
AcDbVertex
100
AcDb2dVertex
 10
240.972474
 20
103.655123
 30
0.0
  0
VERTEX
  5
138
330
134
100
AcDbEntity
  8
001
370
     9
100
AcDbVertex
100
AcDb2dVertex
 10
239.472474
 20
103.253199
 30
0.0
  0
SEQEND
  5
135
330
134
100
AcDbEntity
  8
001
370
     9
  0
POLYLINE
  5
139
330
12E
100
AcDbEntity
  8
001
370
     9
100
AcDb2dPolyline
 66
     1
 10
0.0
 20
0.0
 30
0.0
  0
VERTEX
  5
13B
330
139
100
AcDbEntity
  8
001
370
     9
100
AcDbVertex
100
AcDb2dVertex
 10
146.472474
 20
103.253199
 30
0.0
  0
VERTEX
  5
13C
330
139
100
AcDbEntity
  8
001
370
     9
100
AcDbVertex
100
AcDb2dVertex
 10
144.972474
 20
103.655123
 30
0.0
  0
VERTEX
  5
13D
330
139
100
AcDbEntity
  8
001
370
     9
100
AcDbVertex
100
AcDb2dVertex
 10
146.472474
 20
104.057047
 30
0.0
  0
SEQEND
  5
13A
330
139
100
AcDbEntity
  8
001
370
     9
  0
TEXT
  5
13E
330
12E
100
AcDbEntity
  8
001
370
    30
100
AcDbText
 10
188.972474
 20
104.655123
 30
0.0
 40
4.0
  1
９６
 41
0.833333
100
AcDbText
  0
POINT
  5
13F
330
12E
100
AcDbEntity
  8
001
370
     9
100
AcDbPoint
 10
240.972474
 20
164.605778
 30
0.0
  0
POINT
  5
140
330
12E
100
AcDbEntity
  8
001
370
     9
100
AcDbPoint
 10
144.972474
 20
174.741162
 30
0.0
  0
POINT
  5
141
330
12E
100
AcDbEntity
  8
001
370
     9
100
AcDbPoint
 10
144.972474
 20
103.655123
 30
0.0
  0
ENDBLK
  5
130
330
12E
100
AcDbEntity
  8
0
100
AcDbBlockEnd
  0
BLOCK
  5
143
330
142
100
AcDbEntity
  8
0
100
AcDbBlockBegin
  2
*D12
 70
     1
 10
0.0
 20
0.0
 30
0.0
  3
*D12
  1

  0
LINE
  5
145
330
142
100
AcDbEntity
  8
001
370
     9
100
AcDbLine
 10
320.972474
 20
177.405778
 30
0.0
 11
320.972474
 21
100.905123
 31
0.0
  0
LINE
  5
146
330
142
100
AcDbEntity
  8
001
370
     9
100
AcDbLine
 10
240.972474
 20
164.605778
 30
0.0
 11
240.972474
 21
100.905123
 31
0.0
  0
LINE
  5
147
330
142
100
AcDbEntity
  8
001
370
     9
100
AcDbLine
 10
320.972474
 20
103.655123
 30
0.0
 11
240.972474
 21
103.655123
 31
0.0
  0
POLYLINE
  5
148
330
142
100
AcDbEntity
  8
001
370
     9
100
AcDb2dPolyline
 66
     1
 10
0.0
 20
0.0
 30
0.0
  0
VERTEX
  5
14A
330
148
100
AcDbEntity
  8
001
370
     9
100
AcDbVertex
100
AcDb2dVertex
 10
319.472474
 20
104.057047
 30
0.0
  0
VERTEX
  5
14B
330
148
100
AcDbEntity
  8
001
370
     9
100
AcDbVertex
100
AcDb2dVertex
 10
320.972474
 20
103.655123
 30
0.0
  0
VERTEX
  5
14C
330
148
100
AcDbEntity
  8
001
370
     9
100
AcDbVertex
100
AcDb2dVertex
 10
319.472474
 20
103.253199
 30
0.0
  0
SEQEND
  5
149
330
148
100
AcDbEntity
  8
001
370
     9
  0
POLYLINE
  5
14D
330
142
100
AcDbEntity
  8
001
370
     9
100
AcDb2dPolyline
 66
     1
 10
0.0
 20
0.0
 30
0.0
  0
VERTEX
  5
14F
330
14D
100
AcDbEntity
  8
001
370
     9
100
AcDbVertex
100
AcDb2dVertex
 10
242.472474
 20
103.253199
 30
0.0
  0
VERTEX
  5
150
330
14D
100
AcDbEntity
  8
001
370
     9
100
AcDbVertex
100
AcDb2dVertex
 10
240.972474
 20
103.655123
 30
0.0
  0
VERTEX
  5
151
330
14D
100
AcDbEntity
  8
001
370
     9
100
AcDbVertex
100
AcDb2dVertex
 10
242.472474
 20
104.057047
 30
0.0
  0
SEQEND
  5
14E
330
14D
100
AcDbEntity
  8
001
370
     9
  0
TEXT
  5
152
330
142
100
AcDbEntity
  8
001
370
    30
100
AcDbText
 10
276.972474
 20
104.655123
 30
0.0
 40
4.0
  1
８０
 41
0.833333
100
AcDbText
  0
POINT
  5
153
330
142
100
AcDbEntity
  8
001
370
     9
100
AcDbPoint
 10
320.972474
 20
177.405778
 30
0.0
  0
POINT
  5
154
330
142
100
AcDbEntity
  8
001
370
     9
100
AcDbPoint
 10
240.972474
 20
164.605778
 30
0.0
  0
POINT
  5
155
330
142
100
AcDbEntity
  8
001
370
     9
100
AcDbPoint
 10
240.972474
 20
103.655123
 30
0.0
  0
ENDBLK
  5
144
330
142
100
AcDbEntity
  8
0
100
AcDbBlockEnd
  0
BLOCK
  5
157
330
156
100
AcDbEntity
  8
0
100
AcDbBlockBegin
  2
*D13
 70
     1
 10
0.0
 20
0.0
 30
0.0
  3
*D13
  1

  0
LINE
  5
159
330
156
100
AcDbEntity
  8
001
370
     9
100
AcDbLine
 10
144.972474
 20
169.805779
 30
0.0
 11
144.972474
 21
87.617245
 31
0.0
  0
LINE
  5
15A
330
156
100
AcDbEntity
  8
001
370
     9
100
AcDbLine
 10
320.972474
 20
177.405778
 30
0.0
 11
320.972474
 21
87.617245
 31
0.0
  0
LINE
  5
15B
330
156
100
AcDbEntity
  8
001
370
     9
100
AcDbLine
 10
144.972474
 20
90.367245
 30
0.0
 11
320.972474
 21
90.367245
 31
0.0
  0
POLYLINE
  5
15C
330
156
100
AcDbEntity
  8
001
370
     9
100
AcDb2dPolyline
 66
     1
 10
0.0
 20
0.0
 30
0.0
  0
VERTEX
  5
15E
330
15C
100
AcDbEntity
  8
001
370
     9
100
AcDbVertex
100
AcDb2dVertex
 10
146.472474
 20
89.965321
 30
0.0
  0
VERTEX
  5
15F
330
15C
100
AcDbEntity
  8
001
370
     9
100
AcDbVertex
100
AcDb2dVertex
 10
144.972474
 20
90.367245
 30
0.0
  0
VERTEX
  5
160
330
15C
100
AcDbEntity
  8
001
370
     9
100
AcDbVertex
100
AcDb2dVertex
 10
146.472474
 20
90.769169
 30
0.0
  0
SEQEND
  5
15D
330
15C
100
AcDbEntity
  8
001
370
     9
  0
POLYLINE
  5
161
330
156
100
AcDbEntity
  8
001
370
     9
100
AcDb2dPolyline
 66
     1
 10
0.0
 20
0.0
 30
0.0
  0
VERTEX
  5
163
330
161
100
AcDbEntity
  8
001
370
     9
100
AcDbVertex
100
AcDb2dVertex
 10
319.472474
 20
90.769169
 30
0.0
  0
VERTEX
  5
164
330
161
100
AcDbEntity
  8
001
370
     9
100
AcDbVertex
100
AcDb2dVertex
 10
320.972474
 20
90.367245
 30
0.0
  0
VERTEX
  5
165
330
161
100
AcDbEntity
  8
001
370
     9
100
AcDbVertex
100
AcDb2dVertex
 10
319.472474
 20
89.965321
 30
0.0
  0
SEQEND
  5
162
330
161
100
AcDbEntity
  8
001
370
     9
  0
TEXT
  5
166
330
156
100
AcDbEntity
  8
001
370
    30
100
AcDbText
 10
226.972474
 20
91.367245
 30
0.0
 40
4.0
  1
１７６
 41
0.833333
100
AcDbText
  0
POINT
  5
167
330
156
100
AcDbEntity
  8
001
370
     9
100
AcDbPoint
 10
144.972474
 20
169.805779
 30
0.0
  0
POINT
  5
168
330
156
100
AcDbEntity
  8
001
370
     9
100
AcDbPoint
 10
320.972474
 20
177.405778
 30
0.0
  0
POINT
  5
169
330
156
100
AcDbEntity
  8
001
370
     9
100
AcDbPoint
 10
320.972474
 20
90.367245
 30
0.0
  0
ENDBLK
  5
158
330
156
100
AcDbEntity
  8
0
100
AcDbBlockEnd
  0
BLOCK
  5
16B
330
16A
100
AcDbEntity
  8
0
100
AcDbBlockBegin
  2
*D14
 70
     1
 10
0.0
 20
0.0
 30
0.0
  3
*D14
  1

  0
LINE
  5
16D
330
16A
100
AcDbEntity
  8
001
370
     9
100
AcDbLine
 10
312.972474
 20
201.405778
 30
0.0
 11
353.580563
 21
201.405778
 31
0.0
  0
LINE
  5
16E
330
16A
100
AcDbEntity
  8
001
370
     9
100
AcDbLine
 10
312.972474
 20
169.405778
 30
0.0
 11
353.580563
 21
169.405778
 31
0.0
  0
LINE
  5
16F
330
16A
100
AcDbEntity
  8
001
370
     9
100
AcDbLine
 10
350.830563
 20
201.405778
 30
0.0
 11
350.830563
 21
169.405778
 31
0.0
  0
POLYLINE
  5
170
330
16A
100
AcDbEntity
  8
001
370
     9
100
AcDb2dPolyline
 66
     1
 10
0.0
 20
0.0
 30
0.0
  0
VERTEX
  5
172
330
170
100
AcDbEntity
  8
001
370
     9
100
AcDbVertex
100
AcDb2dVertex
 10
350.428639
 20
199.905778
 30
0.0
  0
VERTEX
  5
173
330
170
100
AcDbEntity
  8
001
370
     9
100
AcDbVertex
100
AcDb2dVertex
 10
350.830563
 20
201.405778
 30
0.0
  0
VERTEX
  5
174
330
170
100
AcDbEntity
  8
001
370
     9
100
AcDbVertex
100
AcDb2dVertex
 10
351.232487
 20
199.905778
 30
0.0
  0
SEQEND
  5
171
330
170
100
AcDbEntity
  8
001
370
     9
  0
POLYLINE
  5
175
330
16A
100
AcDbEntity
  8
001
370
     9
100
AcDb2dPolyline
 66
     1
 10
0.0
 20
0.0
 30
0.0
  0
VERTEX
  5
177
330
175
100
AcDbEntity
  8
001
370
     9
100
AcDbVertex
100
AcDb2dVertex
 10
351.232487
 20
170.905778
 30
0.0
  0
VERTEX
  5
178
330
175
100
AcDbEntity
  8
001
370
     9
100
AcDbVertex
100
AcDb2dVertex
 10
350.830563
 20
169.405778
 30
0.0
  0
VERTEX
  5
179
330
175
100
AcDbEntity
  8
001
370
     9
100
AcDbVertex
100
AcDb2dVertex
 10
350.428639
 20
170.905778
 30
0.0
  0
SEQEND
  5
176
330
175
100
AcDbEntity
  8
001
370
     9
  0
TEXT
  5
17A
330
16A
100
AcDbEntity
  8
001
370
    30
100
AcDbText
 10
349.830563
 20
179.405778
 30
0.0
 40
4.0
  1
%%c３２
 50
90.000003
 41
0.882353
100
AcDbText
  0
POINT
  5
17B
330
16A
100
AcDbEntity
  8
001
370
     9
100
AcDbPoint
 10
312.972474
 20
201.405778
 30
0.0
  0
POINT
  5
17C
330
16A
100
AcDbEntity
  8
001
370
     9
100
AcDbPoint
 10
312.972474
 20
169.405778
 30
0.0
  0
POINT
  5
17D
330
16A
100
AcDbEntity
  8
001
370
     9
100
AcDbPoint
 10
350.830563
 20
169.405778
 30
0.0
  0
ENDBLK
  5
16C
330
16A
100
AcDbEntity
  8
0
100
AcDbBlockEnd
  0
ENDSEC
  0
SECTION
  2
ENTITIES
  0
DIMENSION
  5
17E
330
1F
100
AcDbEntity
  8
001
370
     9
100
AcDbDimension
  2
*D1
 10
50.606344
 20
20.633213
 30
0.0
 11
67.106344
 21
23.633213
 31
0.0
 70
   160
 71
     5
 42
-1.0
  3
Standard
100
AcDbAlignedDimension
 13
83.606344
 23
32.194009
 33
0.0
 14
50.606344
 24
32.194009
 34
0.0
 50
180.0
100
AcDbRotatedDimension
  0
DIMENSION
  5
17F
330
1F
100
AcDbEntity
  8
001
370
     9
100
AcDbDimension
  2
*D2
 10
43.106344
 20
102.489687
 30
0.0
 11
67.106344
 21
105.489687
 31
0.0
 70
   160
 71
     5
 42
-1.0
  3
Standard
100
AcDbAlignedDimension
 13
91.106344
 23
81.194009
 33
0.0
 14
43.106344
 24
81.194009
 34
0.0
 50
180.0
100
AcDbRotatedDimension
  0
DIMENSION
  5
180
330
1F
100
AcDbEntity
  8
001
370
     9
100
AcDbDimension
  2
*D3
 10
107.254086
 20
50.194009
 30
0.0
 11
104.254086
 21
66.194009
 31
0.0
 70
   160
 71
     5
 42
-1.0
  3
Standard
100
AcDbAlignedDimension
 13
102.106344
 23
82.194009
 33
0.0
 14
91.106344
 24
50.194009
 34
0.0
 50
270.0
100
AcDbRotatedDimension
  0
TEXT
  5
181
330
1F
100
AcDbEntity
  8
001
370
    30
100
AcDbText
 10
76.681723
 20
58.532844
 30
0.0
 40
4.0
  1
Ｃ１
 50
314.999992
 41
0.833333
100
AcDbText
  0
POLYLINE
  5
182
330
1F
100
AcDbEntity
  8
001
370
     9
100
AcDb2dPolyline
 66
     1
 10
0.0
 20
0.0
 30
0.0
  0
VERTEX
  5
184
330
182
100
AcDbEntity
  8
001
370
     9
100
AcDbVertex
100
AcDb2dVertex
 10
83.329887
 20
51.038872
 30
0.0
  0
VERTEX
  5
185
330
182
100
AcDbEntity
  8
001
370
     9
100
AcDbVertex
100
AcDb2dVertex
 10
84.106344
 20
49.694009
 30
0.0
  0
VERTEX
  5
186
330
182
100
AcDbEntity
  8
001
370
     9
100
AcDbVertex
100
AcDb2dVertex
 10
82.761481
 20
50.470466
 30
0.0
  0
SEQEND
  5
183
330
182
100
AcDbEntity
  8
001
370
     9
  0
LINE
  5
187
330
1F
100
AcDbEntity
  8
001
370
     9
100
AcDbLine
 10
84.106344
 20
49.694009
 30
0.0
 11
73.853296
 21
59.947057
 31
0.0
  0
TEXT
  5
188
330
1F
100
AcDbEntity
  8
001
370
    30
100
AcDbText
 10
82.46455
 20
92.250017
 30
0.0
 40
4.0
  1
Ｃ１
 50
314.999992
 41
0.833333
100
AcDbText
  0
POLYLINE
  5
189
330
1F
100
AcDbEntity
  8
001
370
     9
100
AcDb2dPolyline
 66
     1
 10
0.0
 20
0.0
 30
0.0
  0
VERTEX
  5
18B
330
189
100
AcDbEntity
  8
001
370
     9
100
AcDbVertex
100
AcDb2dVertex
 10
90.829887
 20
83.038872
 30
0.0
  0
VERTEX
  5
18C
330
189
100
AcDbEntity
  8
001
370
     9
100
AcDbVertex
100
AcDb2dVertex
 10
91.606344
 20
81.694009
 30
0.0
  0
VERTEX
  5
18D
330
189
100
AcDbEntity
  8
001
370
     9
100
AcDbVertex
100
AcDb2dVertex
 10
90.261481
 20
82.470466
 30
0.0
  0
SEQEND
  5
18A
330
189
100
AcDbEntity
  8
001
370
     9
  0
LINE
  5
18E
330
1F
100
AcDbEntity
  8
001
370
     9
100
AcDbLine
 10
91.606344
 20
81.694009
 30
0.0
 11
79.636123
 21
93.66423
 31
0.0
  0
DIMENSION
  5
18F
330
1F
100
AcDbEntity
  8
001
370
     9
100
AcDbDimension
  2
*D4
 10
115.794065
 20
209.405778
 30
0.0
 11
112.794065
 21
185.405778
 31
0.0
 70
   160
 71
     5
 42
-1.0
  3
Standard
100
AcDbAlignedDimension
 13
146.872474
 23
161.405778
 33
0.0
 14
146.872474
 24
209.405778
 34
0.0
 50
90.0
100
AcDbRotatedDimension
  0
DIMENSION
  5
190
330
1F
100
AcDbEntity
  8
001
370
     9
100
AcDbDimension
  2
*D5
 10
102.844658
 20
159.405778
 30
0.0
 11
99.844658
 21
185.405778
 31
0.0
 70
   160
 71
     5
 42
-1.0
  3
Standard
100
AcDbAlignedDimension
 13
179.872474
 23
211.405778
 33
0.0
 14
179.872474
 24
159.405778
 34
0.0
 50
270.0
100
AcDbRotatedDimension
  0
DIMENSION
  5
191
330
1F
100
AcDbEntity
  8
001
370
     9
100
AcDbDimension
  2
*D6
 10
89.658662
 20
155.145778
 30
0.0
 11
86.658661
 21
185.405778
 31
0.0
 70
   160
 71
     5
 42
-1.0
  3
Standard
100
AcDbAlignedDimension
 13
184.235599
 23
215.665778
 33
0.0
 14
184.235599
 24
155.145778
 34
0.0
 50
270.0
100
AcDbRotatedDimension
  0
DIMENSION
  5
192
330
1F
100
AcDbEntity
  8
001
370
     9
100
AcDbDimension
  2
*D7
 10
129.372474
 20
185.405778
 30
0.0
 11
225.475523
 21
145.598593
 31
0.0
 70
    34
 71
     5
 42
-1.0
  3
Standard
100
AcDb2LineAngularDimension
 13
233.643664
 23
185.405778
 33
0.0
 14
129.372474
 24
185.405778
 34
0.0
 15
146.872474
 25
167.905778
 35
0.0
 16
228.247161
 26
144.450542
 36
0.0
  0
DIMENSION
  5
193
330
1F
100
AcDbEntity
  8
001
370
     9
100
AcDbDimension
  2
*D8
 10
153.872474
 20
185.405778
 30
0.0
 11
214.228303
 21
148.682211
 31
0.0
 70
    34
 71
     5
 42
-1.0
  3
Standard
100
AcDb2LineAngularDimension
 13
143.644189
 23
185.405778
 33
0.0
 14
153.872474
 24
185.405778
 34
0.0
 15
179.872474
 25
159.405778
 35
0.0
 16
221.916359
 26
157.221079
 36
0.0
  0
DIMENSION
  5
194
330
1F
100
AcDbEntity
  8
001
370
     9
100
AcDbDimension
  2
*D9
 10
144.972474
 20
126.287545
 30
0.0
 11
135.472474
 21
129.287545
 31
0.0
 70
   160
 71
     5
 42
-1.0
  3
Standard
100
AcDbAlignedDimension
 13
146.872474
 23
162.199541
 33
0.0
 14
144.972474
 24
169.805779
 34
0.0
 50
180.0
100
AcDbRotatedDimension
  0
DIMENSION
  5
195
330
1F
100
AcDbEntity
  8
001
370
     9
100
AcDbDimension
  2
*D10
 10
146.872474
 20
126.287545
 30
0.0
 11
162.872474
 21
129.287545
 31
0.0
 70
   160
 71
     5
 42
-1.0
  3
Standard
100
AcDbAlignedDimension
 13
178.872474
 23
150.405778
 33
0.0
 14
146.872474
 24
162.199541
 34
0.0
 50
180.0
100
AcDbRotatedDimension
  0
DIMENSION
  5
196
330
1F
100
AcDbEntity
  8
001
370
     9
100
AcDbDimension
  2
*D11
 10
144.972474
 20
103.655123
 30
0.0
 11
192.972474
 21
106.655123
 31
0.0
 70
   160
 71
     5
 42
-1.0
  3
Standard
100
AcDbAlignedDimension
 13
240.972474
 23
164.605778
 33
0.0
 14
144.972474
 24
174.741162
 34
0.0
 50
180.0
100
AcDbRotatedDimension
  0
DIMENSION
  5
197
330
1F
100
AcDbEntity
  8
001
370
     9
100
AcDbDimension
  2
*D12
 10
240.972474
 20
103.655123
 30
0.0
 11
280.972474
 21
106.655123
 31
0.0
 70
   160
 71
     5
 42
-1.0
  3
Standard
100
AcDbAlignedDimension
 13
320.972474
 23
177.405778
 33
0.0
 14
240.972474
 24
164.605778
 34
0.0
 50
180.0
100
AcDbRotatedDimension
  0
DIMENSION
  5
198
330
1F
100
AcDbEntity
  8
001
370
     9
100
AcDbDimension
  2
*D13
 10
320.972474
 20
90.367245
 30
0.0
 11
232.972474
 21
93.367245
 31
0.0
 70
   160
 71
     5
 42
-1.0
  3
Standard
100
AcDbAlignedDimension
 13
144.972474
 23
169.805779
 33
0.0
 14
320.972474
 24
177.405778
 34
0.0
100
AcDbRotatedDimension
  0
DIMENSION
  5
199
330
1F
100
AcDbEntity
  8
001
370
     9
100
AcDbDimension
  2
*D14
 10
350.830563
 20
169.405778
 30
0.0
 11
347.830563
 21
185.405778
 31
0.0
 70
   160
 71
     5
 42
-1.0
  3
Standard
100
AcDbAlignedDimension
 13
312.972474
 23
201.405778
 33
0.0
 14
312.972474
 24
169.405778
 34
0.0
 50
270.0
100
AcDbRotatedDimension
  0
TEXT
  5
19A
330
1F
100
AcDbEntity
  8
001
370
    30
100
AcDbText
 10
74.553491
 20
234.074208
 30
0.0
 40
10.0
  1
イーグルカット　ＥＣ３２－４８ＸＳ－Ｍ３０
 41
0.833333
100
AcDbText
  0
CIRCLE
  5
19B
330
1F
100
AcDbEntity
  8
001
370
    50
100
AcDbCircle
 10
152.801633
 20
169.554548
 30
0.0
 40
3.25
  0
LINE
  5
19C
330
1F
100
AcDbEntity
  8
001
370
    50
100
AcDbLine
 10
152.065511
 20
170.829548
 30
0.0
 11
152.455222
 21
171.504548
 31
0.0
  0
LINE
  5
19D
330
1F
100
AcDbEntity
  8
001
370
    50
100
AcDbLine
 10
153.537754
 20
170.829548
 30
0.0
 11
153.148043
 21
171.504548
 31
0.0
  0
ARC
  5
19E
330
1F
100
AcDbEntity
  8
001
370
    50
100
AcDbCircle
 10
152.801633
 20
171.304548
 30
0.0
 40
0.4
100
AcDbArc
 50
30.0
 51
150.0
  0
LINE
  5
19F
330
1F
100
AcDbEntity
  8
001
370
    50
100
AcDbLine
 10
151.329389
 20
169.554548
 30
0.0
 11
150.939678
 21
170.229548
 31
0.0
  0
LINE
  5
1A0
330
1F
100
AcDbEntity
  8
001
370
    50
100
AcDbLine
 10
152.065511
 20
170.829548
 30
0.0
 11
151.286088
 21
170.829548
 31
0.0
  0
ARC
  5
1A1
330
1F
100
AcDbEntity
  8
001
370
    50
100
AcDbCircle
 10
151.286088
 20
170.429548
 30
0.0
 40
0.4
100
AcDbArc
 50
90.0
 51
210.0
  0
LINE
  5
1A2
330
1F
100
AcDbEntity
  8
001
370
    50
100
AcDbLine
 10
152.065511
 20
168.279548
 30
0.0
 11
151.286088
 21
168.279548
 31
0.0
  0
LINE
  5
1A3
330
1F
100
AcDbEntity
  8
001
370
    50
100
AcDbLine
 10
151.329389
 20
169.554548
 30
0.0
 11
150.939678
 21
168.879548
 31
0.0
  0
ARC
  5
1A4
330
1F
100
AcDbEntity
  8
001
370
    50
100
AcDbCircle
 10
151.286088
 20
168.679548
 30
0.0
 40
0.4
100
AcDbArc
 50
150.0
 51
270.0
  0
LINE
  5
1A5
330
1F
100
AcDbEntity
  8
001
370
    50
100
AcDbLine
 10
153.537754
 20
168.279548
 30
0.0
 11
153.148043
 21
167.604548
 31
0.0
  0
LINE
  5
1A6
330
1F
100
AcDbEntity
  8
001
370
    50
100
AcDbLine
 10
152.065511
 20
168.279548
 30
0.0
 11
152.455222
 21
167.604548
 31
0.0
  0
ARC
  5
1A7
330
1F
100
AcDbEntity
  8
001
370
    50
100
AcDbCircle
 10
152.801633
 20
167.804548
 30
0.0
 40
0.4
100
AcDbArc
 50
210.0
 51
330.0
  0
LINE
  5
1A8
330
1F
100
AcDbEntity
  8
001
370
    50
100
AcDbLine
 10
154.273876
 20
169.554548
 30
0.0
 11
154.663587
 21
168.879548
 31
0.0
  0
LINE
  5
1A9
330
1F
100
AcDbEntity
  8
001
370
    50
100
AcDbLine
 10
153.537754
 20
168.279548
 30
0.0
 11
154.317177
 21
168.279548
 31
0.0
  0
ARC
  5
1AA
330
1F
100
AcDbEntity
  8
001
370
    50
100
AcDbCircle
 10
154.317177
 20
168.679548
 30
0.0
 40
0.4
100
AcDbArc
 50
270.0
 51
30.0
  0
LINE
  5
1AB
330
1F
100
AcDbEntity
  8
001
370
    50
100
AcDbLine
 10
153.537754
 20
170.829548
 30
0.0
 11
154.317177
 21
170.829548
 31
0.0
  0
LINE
  5
1AC
330
1F
100
AcDbEntity
  8
001
370
    50
100
AcDbLine
 10
154.273876
 20
169.554548
 30
0.0
 11
154.663587
 21
170.229548
 31
0.0
  0
ARC
  5
1AD
330
1F
100
AcDbEntity
  8
001
370
    50
100
AcDbCircle
 10
154.317177
 20
170.429548
 30
0.0
 40
0.4
100
AcDbArc
 50
330.0
 51
90.0
  0
LINE
  5
1AE
330
1F
100
AcDbEntity
  8
001
  6
PHANTOM
370
     9
100
AcDbLine
 10
178.872474
 20
160.405778
 30
0.0
 11
178.872474
 21
150.405778
 31
0.0
  0
LINE
  5
1AF
330
1F
100
AcDbEntity
  8
001
  6
PHANTOM
370
     9
100
AcDbLine
 10
177.872474
 20
161.405778
 30
0.0
 11
146.872474
 21
161.405778
 31
0.0
  0
LINE
  5
1B0
330
1F
100
AcDbEntity
  8
001
  6
PHANTOM
370
     9
100
AcDbLine
 10
146.872474
 20
167.905778
 30
0.0
 11
146.872474
 21
161.405778
 31
0.0
  0
LINE
  5
1B1
330
1F
100
AcDbEntity
  8
001
  6
PHANTOM
370
     9
100
AcDbLine
 10
146.872474
 20
167.905778
 30
0.0
 11
145.872474
 21
168.905778
 31
0.0
  0
LINE
  5
1B2
330
1F
100
AcDbEntity
  8
001
  6
PHANTOM
370
     9
100
AcDbLine
 10
178.872474
 20
160.405778
 30
0.0
 11
177.872474
 21
161.405778
 31
0.0
  0
POLYLINE
  5
1B3
330
1F
100
AcDbEntity
  8
001
370
    50
100
AcDb2dPolyline
 66
     1
 10
0.0
 20
0.0
 30
0.0
  0
VERTEX
  5
1B5
330
1B3
100
AcDbEntity
  8
001
370
    50
100
AcDbVertex
100
AcDb2dVertex
 10
152.789386
 20
173.276973
 30
0.0
  0
VERTEX
  5
1B6
330
1B3
100
AcDbEntity
  8
001
370
    50
100
AcDbVertex
100
AcDb2dVertex
 10
152.518639
 20
173.262688
 30
0.0
  0
VERTEX
  5
1B7
330
1B3
100
AcDbEntity
  8
001
370
    50
100
AcDbVertex
100
AcDb2dVertex
 10
152.148098
 20
173.220002
 30
0.0
  0
VERTEX
  5
1B8
330
1B3
100
AcDbEntity
  8
001
370
    50
100
AcDbVertex
100
AcDb2dVertex
 10
151.819729
 20
173.149161
 30
0.0
  0
VERTEX
  5
1B9
330
1B3
100
AcDbEntity
  8
001
370
    50
100
AcDbVertex
100
AcDb2dVertex
 10
151.526295
 20
173.05082
 30
0.0
  0
VERTEX
  5
1BA
330
1B3
100
AcDbEntity
  8
001
370
    50
100
AcDbVertex
100
AcDb2dVertex
 10
151.232186
 20
172.925528
 30
0.0
  0
VERTEX
  5
1BB
330
1B3
100
AcDbEntity
  8
001
370
    50
100
AcDbVertex
100
AcDb2dVertex
 10
150.942871
 20
172.774568
 30
0.0
  0
VERTEX
  5
1BC
330
1B3
100
AcDbEntity
  8
001
370
    50
100
AcDbVertex
100
AcDb2dVertex
 10
150.669999
 20
172.598738
 30
0.0
  0
VERTEX
  5
1BD
330
1B3
100
AcDbEntity
  8
001
370
    50
100
AcDbVertex
100
AcDb2dVertex
 10
150.415552
 20
172.399639
 30
0.0
  0
VERTEX
  5
1BE
330
1B3
100
AcDbEntity
  8
001
370
    50
100
AcDbVertex
100
AcDb2dVertex
 10
150.178141
 20
172.178198
 30
0.0
  0
VERTEX
  5
1BF
330
1B3
100
AcDbEntity
  8
001
370
    50
100
AcDbVertex
100
AcDb2dVertex
 10
149.960361
 20
171.937426
 30
0.0
  0
VERTEX
  5
1C0
330
1B3
100
AcDbEntity
  8
001
370
    50
100
AcDbVertex
100
AcDb2dVertex
 10
149.764054
 20
171.678704
 30
0.0
  0
VERTEX
  5
1C1
330
1B3
100
AcDbEntity
  8
001
370
    50
100
AcDbVertex
100
AcDb2dVertex
 10
149.591129
 20
171.401973
 30
0.0
  0
VERTEX
  5
1C2
330
1B3
100
AcDbEntity
  8
001
370
    50
100
AcDbVertex
100
AcDb2dVertex
 10
149.442323
 20
171.107926
 30
0.0
  0
VERTEX
  5
1C3
330
1B3
100
AcDbEntity
  8
001
370
    50
100
AcDbVertex
100
AcDb2dVertex
 10
149.319073
 20
170.809548
 30
0.0
  0
VERTEX
  5
1C4
330
1B3
100
AcDbEntity
  8
001
370
    50
100
AcDbVertex
100
AcDb2dVertex
 10
149.222169
 20
170.511329
 30
0.0
  0
VERTEX
  5
1C5
330
1B3
100
AcDbEntity
  8
001
370
    50
100
AcDbVertex
100
AcDb2dVertex
 10
149.152462
 20
170.178153
 30
0.0
  0
VERTEX
  5
1C6
330
1B3
100
AcDbEntity
  8
001
370
    50
100
AcDbVertex
100
AcDb2dVertex
 10
149.110415
 20
169.801852
 30
0.0
  0
VERTEX
  5
1C7
330
1B3
100
AcDbEntity
  8
001
370
    50
100
AcDbVertex
100
AcDb2dVertex
 10
149.096357
 20
169.526973
 30
0.0
  0
SEQEND
  5
1B4
330
1B3
100
AcDbEntity
  8
001
370
    50
  0
LINE
  5
1C8
330
1F
100
AcDbEntity
  8
001
370
    50
100
AcDbLine
 10
144.972474
 20
169.805779
 30
0.0
 11
144.972474
 21
174.741162
 31
0.0
  0
POLYLINE
  5
1C9
330
1F
100
AcDbEntity
  8
001
370
    50
100
AcDb2dPolyline
 66
     1
 10
0.0
 20
0.0
 30
0.0
  0
VERTEX
  5
1CB
330
1C9
100
AcDbEntity
  8
001
370
    50
100
AcDbVertex
100
AcDb2dVertex
 10
145.754411
 20
175.535162
 30
0.0
  0
VERTEX
  5
1CC
330
1C9
100
AcDbEntity
  8
001
370
    50
100
AcDbVertex
100
AcDb2dVertex
 10
145.697085
 20
175.532137
 30
0.0
  0
VERTEX
  5
1CD
330
1C9
100
AcDbEntity
  8
001
370
    50
100
AcDbVertex
100
AcDb2dVertex
 10
145.618629
 20
175.523099
 30
0.0
  0
VERTEX
  5
1CE
330
1C9
100
AcDbEntity
  8
001
370
    50
100
AcDbVertex
100
AcDb2dVertex
 10
145.549103
 20
175.5081
 30
0.0
  0
VERTEX
  5
1CF
330
1C9
100
AcDbEntity
  8
001
370
    50
100
AcDbVertex
100
AcDb2dVertex
 10
145.486973
 20
175.487278
 30
0.0
  0
VERTEX
  5
1D0
330
1C9
100
AcDbEntity
  8
001
370
    50
100
AcDbVertex
100
AcDb2dVertex
 10
145.4247
 20
175.460749
 30
0.0
  0
VERTEX
  5
1D1
330
1C9
100
AcDbEntity
  8
001
370
    50
100
AcDbVertex
100
AcDb2dVertex
 10
145.363443
 20
175.428786
 30
0.0
  0
VERTEX
  5
1D2
330
1C9
100
AcDbEntity
  8
001
370
    50
100
AcDbVertex
100
AcDb2dVertex
 10
145.305667
 20
175.391557
 30
0.0
  0
VERTEX
  5
1D3
330
1C9
100
AcDbEntity
  8
001
370
    50
100
AcDbVertex
100
AcDb2dVertex
 10
145.251792
 20
175.349401
 30
0.0
  0
VERTEX
  5
1D4
330
1C9
100
AcDbEntity
  8
001
370
    50
100
AcDbVertex
100
AcDb2dVertex
 10
145.201524
 20
175.302515
 30
0.0
  0
VERTEX
  5
1D5
330
1C9
100
AcDbEntity
  8
001
370
    50
100
AcDbVertex
100
AcDb2dVertex
 10
145.155413
 20
175.251535
 30
0.0
  0
VERTEX
  5
1D6
330
1C9
100
AcDbEntity
  8
001
370
    50
100
AcDbVertex
100
AcDb2dVertex
 10
145.113848
 20
175.196755
 30
0.0
  0
VERTEX
  5
1D7
330
1C9
100
AcDbEntity
  8
001
370
    50
100
AcDbVertex
100
AcDb2dVertex
 10
145.077234
 20
175.138162
 30
0.0
  0
VERTEX
  5
1D8
330
1C9
100
AcDbEntity
  8
001
370
    50
100
AcDbVertex
100
AcDb2dVertex
 10
145.045727
 20
175.075902
 30
0.0
  0
VERTEX
  5
1D9
330
1C9
100
AcDbEntity
  8
001
370
    50
100
AcDbVertex
100
AcDb2dVertex
 10
145.019631
 20
175.012726
 30
0.0
  0
VERTEX
  5
1DA
330
1C9
100
AcDbEntity
  8
001
370
    50
100
AcDbVertex
100
AcDb2dVertex
 10
144.999113
 20
174.949583
 30
0.0
  0
VERTEX
  5
1DB
330
1C9
100
AcDbEntity
  8
001
370
    50
100
AcDbVertex
100
AcDb2dVertex
 10
144.984353
 20
174.879038
 30
0.0
  0
VERTEX
  5
1DC
330
1C9
100
AcDbEntity
  8
001
370
    50
100
AcDbVertex
100
AcDb2dVertex
 10
144.975451
 20
174.799363
 30
0.0
  0
VERTEX
  5
1DD
330
1C9
100
AcDbEntity
  8
001
370
    50
100
AcDbVertex
100
AcDb2dVertex
 10
144.972474
 20
174.741162
 30
0.0
  0
SEQEND
  5
1CA
330
1C9
100
AcDbEntity
  8
001
370
    50
  0
LINE
  5
1DE
330
1F
100
AcDbEntity
  8
001
370
    50
100
AcDbLine
 10
151.393483
 20
175.535162
 30
0.0
 11
145.754411
 21
175.535162
 31
0.0
  0
LINE
  5
1DF
330
1F
100
AcDbEntity
  8
001
370
    50
100
AcDbLine
 10
153.350711
 20
177.464473
 30
0.0
 11
151.393483
 21
175.535162
 31
0.0
  0
LINE
  5
1E0
330
1F
100
AcDbEntity
  8
001
370
    50
100
AcDbLine
 10
157.924359
 20
177.464473
 30
0.0
 11
153.350711
 21
177.464473
 31
0.0
  0
POLYLINE
  5
1E1
330
1F
100
AcDbEntity
  8
001
370
    50
100
AcDb2dPolyline
 66
     1
 10
0.0
 20
0.0
 30
0.0
  0
VERTEX
  5
1E3
330
1E1
100
AcDbEntity
  8
001
370
    50
100
AcDbVertex
100
AcDb2dVertex
 10
158.706297
 20
176.670473
 30
0.0
  0
VERTEX
  5
1E4
330
1E1
100
AcDbEntity
  8
001
370
    50
100
AcDbVertex
100
AcDb2dVertex
 10
158.70332
 20
176.728674
 30
0.0
  0
VERTEX
  5
1E5
330
1E1
100
AcDbEntity
  8
001
370
    50
100
AcDbVertex
100
AcDb2dVertex
 10
158.694417
 20
176.808349
 30
0.0
  0
VERTEX
  5
1E6
330
1E1
100
AcDbEntity
  8
001
370
    50
100
AcDbVertex
100
AcDb2dVertex
 10
158.679658
 20
176.878894
 30
0.0
  0
VERTEX
  5
1E7
330
1E1
100
AcDbEntity
  8
001
370
    50
100
AcDbVertex
100
AcDb2dVertex
 10
158.65914
 20
176.942037
 30
0.0
  0
VERTEX
  5
1E8
330
1E1
100
AcDbEntity
  8
001
370
    50
100
AcDbVertex
100
AcDb2dVertex
 10
158.633044
 20
177.005213
 30
0.0
  0
VERTEX
  5
1E9
330
1E1
100
AcDbEntity
  8
001
370
    50
100
AcDbVertex
100
AcDb2dVertex
 10
158.601537
 20
177.067473
 30
0.0
  0
VERTEX
  5
1EA
330
1E1
100
AcDbEntity
  8
001
370
    50
100
AcDbVertex
100
AcDb2dVertex
 10
158.564923
 20
177.126066
 30
0.0
  0
VERTEX
  5
1EB
330
1E1
100
AcDbEntity
  8
001
370
    50
100
AcDbVertex
100
AcDb2dVertex
 10
158.523358
 20
177.180846
 30
0.0
  0
VERTEX
  5
1EC
330
1E1
100
AcDbEntity
  8
001
370
    50
100
AcDbVertex
100
AcDb2dVertex
 10
158.477247
 20
177.231826
 30
0.0
  0
VERTEX
  5
1ED
330
1E1
100
AcDbEntity
  8
001
370
    50
100
AcDbVertex
100
AcDb2dVertex
 10
158.426979
 20
177.278712
 30
0.0
  0
VERTEX
  5
1EE
330
1E1
100
AcDbEntity
  8
001
370
    50
100
AcDbVertex
100
AcDb2dVertex
 10
158.373104
 20
177.320868
 30
0.0
  0
VERTEX
  5
1EF
330
1E1
100
AcDbEntity
  8
001
370
    50
100
AcDbVertex
100
AcDb2dVertex
 10
158.315328
 20
177.358097
 30
0.0
  0
VERTEX
  5
1F0
330
1E1
100
AcDbEntity
  8
001
370
    50
100
AcDbVertex
100
AcDb2dVertex
 10
158.25407
 20
177.39006
 30
0.0
  0
VERTEX
  5
1F1
330
1E1
100
AcDbEntity
  8
001
370
    50
100
AcDbVertex
100
AcDb2dVertex
 10
158.191798
 20
177.416589
 30
0.0
  0
VERTEX
  5
1F2
330
1E1
100
AcDbEntity
  8
001
370
    50
100
AcDbVertex
100
AcDb2dVertex
 10
158.129668
 20
177.437411
 30
0.0
  0
VERTEX
  5
1F3
330
1E1
100
AcDbEntity
  8
001
370
    50
100
AcDbVertex
100
AcDb2dVertex
 10
158.060141
 20
177.45241
 30
0.0
  0
VERTEX
  5
1F4
330
1E1
100
AcDbEntity
  8
001
370
    50
100
AcDbVertex
100
AcDb2dVertex
 10
157.981685
 20
177.461448
 30
0.0
  0
VERTEX
  5
1F5
330
1E1
100
AcDbEntity
  8
001
370
    50
100
AcDbVertex
100
AcDb2dVertex
 10
157.924359
 20
177.464473
 30
0.0
  0
SEQEND
  5
1E2
330
1E1
100
AcDbEntity
  8
001
370
    50
  0
LINE
  5
1F6
330
1F
100
AcDbEntity
  8
001
370
    50
100
AcDbLine
 10
158.706297
 20
170.944409
 30
0.0
 11
158.706297
 21
176.670473
 31
0.0
  0
LINE
  5
1F7
330
1F
100
AcDbEntity
  8
001
370
    50
100
AcDbLine
 10
160.606297
 20
168.956988
 30
0.0
 11
158.706297
 21
170.944409
 31
0.0
  0
LINE
  5
1F8
330
1F
100
AcDbEntity
  8
001
370
    50
100
AcDbLine
 10
160.606297
 20
164.312784
 30
0.0
 11
160.606297
 21
168.956988
 31
0.0
  0
POLYLINE
  5
1F9
330
1F
100
AcDbEntity
  8
001
370
    50
100
AcDb2dPolyline
 66
     1
 10
0.0
 20
0.0
 30
0.0
  0
VERTEX
  5
1FB
330
1F9
100
AcDbEntity
  8
001
370
    50
100
AcDbVertex
100
AcDb2dVertex
 10
159.82436
 20
163.518784
 30
0.0
  0
VERTEX
  5
1FC
330
1F9
100
AcDbEntity
  8
001
370
    50
100
AcDbVertex
100
AcDb2dVertex
 10
159.881686
 20
163.521808
 30
0.0
  0
VERTEX
  5
1FD
330
1F9
100
AcDbEntity
  8
001
370
    50
100
AcDbVertex
100
AcDb2dVertex
 10
159.960142
 20
163.530846
 30
0.0
  0
VERTEX
  5
1FE
330
1F9
100
AcDbEntity
  8
001
370
    50
100
AcDbVertex
100
AcDb2dVertex
 10
160.029668
 20
163.545846
 30
0.0
  0
VERTEX
  5
1FF
330
1F9
100
AcDbEntity
  8
001
370
    50
100
AcDbVertex
100
AcDb2dVertex
 10
160.091798
 20
163.566668
 30
0.0
  0
VERTEX
  5
200
330
1F9
100
AcDbEntity
  8
001
370
    50
100
AcDbVertex
100
AcDb2dVertex
 10
160.154071
 20
163.593196
 30
0.0
  0
VERTEX
  5
201
330
1F9
100
AcDbEntity
  8
001
370
    50
100
AcDbVertex
100
AcDb2dVertex
 10
160.215328
 20
163.62516
 30
0.0
  0
VERTEX
  5
202
330
1F9
100
AcDbEntity
  8
001
370
    50
100
AcDbVertex
100
AcDb2dVertex
 10
160.273105
 20
163.662389
 30
0.0
  0
VERTEX
  5
203
330
1F9
100
AcDbEntity
  8
001
370
    50
100
AcDbVertex
100
AcDb2dVertex
 10
160.326979
 20
163.704544
 30
0.0
  0
VERTEX
  5
204
330
1F9
100
AcDbEntity
  8
001
370
    50
100
AcDbVertex
100
AcDb2dVertex
 10
160.377247
 20
163.751431
 30
0.0
  0
VERTEX
  5
205
330
1F9
100
AcDbEntity
  8
001
370
    50
100
AcDbVertex
100
AcDb2dVertex
 10
160.423359
 20
163.80241
 30
0.0
  0
VERTEX
  5
206
330
1F9
100
AcDbEntity
  8
001
370
    50
100
AcDbVertex
100
AcDb2dVertex
 10
160.464923
 20
163.857191
 30
0.0
  0
VERTEX
  5
207
330
1F9
100
AcDbEntity
  8
001
370
    50
100
AcDbVertex
100
AcDb2dVertex
 10
160.501537
 20
163.915784
 30
0.0
  0
VERTEX
  5
208
330
1F9
100
AcDbEntity
  8
001
370
    50
100
AcDbVertex
100
AcDb2dVertex
 10
160.533045
 20
163.978043
 30
0.0
  0
VERTEX
  5
209
330
1F9
100
AcDbEntity
  8
001
370
    50
100
AcDbVertex
100
AcDb2dVertex
 10
160.559141
 20
164.04122
 30
0.0
  0
VERTEX
  5
20A
330
1F9
100
AcDbEntity
  8
001
370
    50
100
AcDbVertex
100
AcDb2dVertex
 10
160.579658
 20
164.104363
 30
0.0
  0
VERTEX
  5
20B
330
1F9
100
AcDbEntity
  8
001
370
    50
100
AcDbVertex
100
AcDb2dVertex
 10
160.594418
 20
164.174907
 30
0.0
  0
VERTEX
  5
20C
330
1F9
100
AcDbEntity
  8
001
370
    50
100
AcDbVertex
100
AcDb2dVertex
 10
160.60332
 20
164.254583
 30
0.0
  0
VERTEX
  5
20D
330
1F9
100
AcDbEntity
  8
001
370
    50
100
AcDbVertex
100
AcDb2dVertex
 10
160.606297
 20
164.312784
 30
0.0
  0
SEQEND
  5
1FA
330
1F9
100
AcDbEntity
  8
001
370
    50
  0
LINE
  5
20E
330
1F
100
AcDbEntity
  8
001
370
    50
100
AcDbLine
 10
154.185288
 20
163.518784
 30
0.0
 11
159.82436
 21
163.518784
 31
0.0
  0
LINE
  5
20F
330
1F
100
AcDbEntity
  8
001
370
    50
100
AcDbLine
 10
152.041708
 20
161.405778
 30
0.0
 11
154.185288
 21
163.518784
 31
0.0
  0
LINE
  5
210
330
1F
100
AcDbEntity
  8
001
370
    50
100
AcDbLine
 10
152.041708
 20
161.405778
 30
0.0
 11
147.654411
 21
161.405778
 31
0.0
  0
LINE
  5
211
330
1F
100
AcDbEntity
  8
001
370
    50
100
AcDbLine
 10
146.872474
 20
167.905778
 30
0.0
 11
146.872474
 21
162.199541
 31
0.0
  0
POLYLINE
  5
212
330
1F
100
AcDbEntity
  8
001
370
    50
100
AcDb2dPolyline
 66
     1
 10
0.0
 20
0.0
 30
0.0
  0
VERTEX
  5
214
330
212
100
AcDbEntity
  8
001
370
    50
100
AcDbVertex
100
AcDb2dVertex
 10
149.096357
 20
169.526973
 30
0.0
  0
VERTEX
  5
215
330
212
100
AcDbEntity
  8
001
370
    50
100
AcDbVertex
100
AcDb2dVertex
 10
149.114143
 20
169.217884
 30
0.0
  0
VERTEX
  5
216
330
212
100
AcDbEntity
  8
001
370
    50
100
AcDbVertex
100
AcDb2dVertex
 10
149.167317
 20
168.795384
 30
0.0
  0
VERTEX
  5
217
330
212
100
AcDbEntity
  8
001
370
    50
100
AcDbVertex
100
AcDb2dVertex
 10
149.255368
 20
168.422928
 30
0.0
  0
VERTEX
  5
218
330
212
100
AcDbEntity
  8
001
370
    50
100
AcDbVertex
100
AcDb2dVertex
 10
149.377472
 20
168.09191
 30
0.0
  0
VERTEX
  5
219
330
212
100
AcDbEntity
  8
001
370
    50
100
AcDbVertex
100
AcDb2dVertex
 10
149.53225
 20
167.763615
 30
0.0
  0
VERTEX
  5
21A
330
212
100
AcDbEntity
  8
001
370
    50
100
AcDbVertex
100
AcDb2dVertex
 10
149.718744
 20
167.443584
 30
0.0
  0
VERTEX
  5
21B
330
212
100
AcDbEntity
  8
001
370
    50
100
AcDbVertex
100
AcDb2dVertex
 10
149.934779
 20
167.147101
 30
0.0
  0
VERTEX
  5
21C
330
212
100
AcDbEntity
  8
001
370
    50
100
AcDbVertex
100
AcDb2dVertex
 10
150.17802
 20
166.875322
 30
0.0
  0
VERTEX
  5
21D
330
212
100
AcDbEntity
  8
001
370
    50
100
AcDbVertex
100
AcDb2dVertex
 10
150.445238
 20
166.628664
 30
0.0
  0
VERTEX
  5
21E
330
212
100
AcDbEntity
  8
001
370
    50
100
AcDbVertex
100
AcDb2dVertex
 10
150.737649
 20
166.408962
 30
0.0
  0
VERTEX
  5
21F
330
212
100
AcDbEntity
  8
001
370
    50
100
AcDbVertex
100
AcDb2dVertex
 10
151.052466
 20
166.219811
 30
0.0
  0
VERTEX
  5
220
330
212
100
AcDbEntity
  8
001
370
    50
100
AcDbVertex
100
AcDb2dVertex
 10
151.376125
 20
166.062425
 30
0.0
  0
VERTEX
  5
221
330
212
100
AcDbEntity
  8
001
370
    50
100
AcDbVertex
100
AcDb2dVertex
 10
151.701758
 20
165.938528
 30
0.0
  0
VERTEX
  5
222
330
212
100
AcDbEntity
  8
001
370
    50
100
AcDbVertex
100
AcDb2dVertex
 10
152.068911
 20
165.849028
 30
0.0
  0
VERTEX
  5
223
330
212
100
AcDbEntity
  8
001
370
    50
100
AcDbVertex
100
AcDb2dVertex
 10
152.48493
 20
165.795048
 30
0.0
  0
VERTEX
  5
224
330
212
100
AcDbEntity
  8
001
370
    50
100
AcDbVertex
100
AcDb2dVertex
 10
152.789386
 20
165.776973
 30
0.0
  0
SEQEND
  5
213
330
212
100
AcDbEntity
  8
001
370
    50
  0
POLYLINE
  5
225
330
1F
100
AcDbEntity
  8
001
370
    50
100
AcDb2dPolyline
 66
     1
 10
0.0
 20
0.0
 30
0.0
  0
VERTEX
  5
227
330
225
100
AcDbEntity
  8
001
370
    50
100
AcDbVertex
100
AcDb2dVertex
 10
152.789386
 20
165.776973
 30
0.0
  0
VERTEX
  5
228
330
225
100
AcDbEntity
  8
001
370
    50
100
AcDbVertex
100
AcDb2dVertex
 10
153.060133
 20
165.791256
 30
0.0
  0
VERTEX
  5
229
330
225
100
AcDbEntity
  8
001
370
    50
100
AcDbVertex
100
AcDb2dVertex
 10
153.430673
 20
165.833944
 30
0.0
  0
VERTEX
  5
22A
330
225
100
AcDbEntity
  8
001
370
    50
100
AcDbVertex
100
AcDb2dVertex
 10
153.759043
 20
165.904789
 30
0.0
  0
VERTEX
  5
22B
330
225
100
AcDbEntity
  8
001
370
    50
100
AcDbVertex
100
AcDb2dVertex
 10
154.052476
 20
166.003125
 30
0.0
  0
VERTEX
  5
22C
330
225
100
AcDbEntity
  8
001
370
    50
100
AcDbVertex
100
AcDb2dVertex
 10
154.346585
 20
166.128399
 30
0.0
  0
VERTEX
  5
22D
330
225
100
AcDbEntity
  8
001
370
    50
100
AcDbVertex
100
AcDb2dVertex
 10
154.6359
 20
166.279378
 30
0.0
  0
VERTEX
  5
22E
330
225
100
AcDbEntity
  8
001
370
    50
100
AcDbVertex
100
AcDb2dVertex
 10
154.908772
 20
166.455278
 30
0.0
  0
VERTEX
  5
22F
330
225
100
AcDbEntity
  8
001
370
    50
100
AcDbVertex
100
AcDb2dVertex
 10
155.163219
 20
166.654306
 30
0.0
  0
VERTEX
  5
230
330
225
100
AcDbEntity
  8
001
370
    50
100
AcDbVertex
100
AcDb2dVertex
 10
155.40063
 20
166.875483
 30
0.0
  0
VERTEX
  5
231
330
225
100
AcDbEntity
  8
001
370
    50
100
AcDbVertex
100
AcDb2dVertex
 10
155.61841
 20
167.116519
 30
0.0
  0
VERTEX
  5
232
330
225
100
AcDbEntity
  8
001
370
    50
100
AcDbVertex
100
AcDb2dVertex
 10
155.814718
 20
167.376233
 30
0.0
  0
VERTEX
  5
233
330
225
100
AcDbEntity
  8
001
370
    50
100
AcDbVertex
100
AcDb2dVertex
 10
155.987643
 20
167.651973
 30
0.0
  0
VERTEX
  5
234
330
225
100
AcDbEntity
  8
001
370
    50
100
AcDbVertex
100
AcDb2dVertex
 10
156.136449
 20
167.942307
 30
0.0
  0
VERTEX
  5
235
330
225
100
AcDbEntity
  8
001
370
    50
100
AcDbVertex
100
AcDb2dVertex
 10
156.259698
 20
168.244397
 30
0.0
  0
VERTEX
  5
236
330
225
100
AcDbEntity
  8
001
370
    50
100
AcDbVertex
100
AcDb2dVertex
 10
156.356603
 20
168.556507
 30
0.0
  0
VERTEX
  5
237
330
225
100
AcDbEntity
  8
001
370
    50
100
AcDbVertex
100
AcDb2dVertex
 10
156.426309
 20
168.875792
 30
0.0
  0
VERTEX
  5
238
330
225
100
AcDbEntity
  8
001
370
    50
100
AcDbVertex
100
AcDb2dVertex
 10
156.468356
 20
169.200177
 30
0.0
  0
VERTEX
  5
239
330
225
100
AcDbEntity
  8
001
370
    50
100
AcDbVertex
100
AcDb2dVertex
 10
156.482415
 20
169.526973
 30
0.0
  0
VERTEX
  5
23A
330
225
100
AcDbEntity
  8
001
370
    50
100
AcDbVertex
100
AcDb2dVertex
 10
156.468356
 20
169.853769
 30
0.0
  0
VERTEX
  5
23B
330
225
100
AcDbEntity
  8
001
370
    50
100
AcDbVertex
100
AcDb2dVertex
 10
156.426309
 20
170.178153
 30
0.0
  0
VERTEX
  5
23C
330
225
100
AcDbEntity
  8
001
370
    50
100
AcDbVertex
100
AcDb2dVertex
 10
156.356603
 20
170.497438
 30
0.0
  0
VERTEX
  5
23D
330
225
100
AcDbEntity
  8
001
370
    50
100
AcDbVertex
100
AcDb2dVertex
 10
156.259698
 20
170.809548
 30
0.0
  0
VERTEX
  5
23E
330
225
100
AcDbEntity
  8
001
370
    50
100
AcDbVertex
100
AcDb2dVertex
 10
156.136449
 20
171.111638
 30
0.0
  0
VERTEX
  5
23F
330
225
100
AcDbEntity
  8
001
370
    50
100
AcDbVertex
100
AcDb2dVertex
 10
155.987643
 20
171.401973
 30
0.0
  0
VERTEX
  5
240
330
225
100
AcDbEntity
  8
001
370
    50
100
AcDbVertex
100
AcDb2dVertex
 10
155.814718
 20
171.677713
 30
0.0
  0
VERTEX
  5
241
330
225
100
AcDbEntity
  8
001
370
    50
100
AcDbVertex
100
AcDb2dVertex
 10
155.61841
 20
171.937426
 30
0.0
  0
VERTEX
  5
242
330
225
100
AcDbEntity
  8
001
370
    50
100
AcDbVertex
100
AcDb2dVertex
 10
155.40063
 20
172.178463
 30
0.0
  0
VERTEX
  5
243
330
225
100
AcDbEntity
  8
001
370
    50
100
AcDbVertex
100
AcDb2dVertex
 10
155.163219
 20
172.399639
 30
0.0
  0
VERTEX
  5
244
330
225
100
AcDbEntity
  8
001
370
    50
100
AcDbVertex
100
AcDb2dVertex
 10
154.908772
 20
172.598667
 30
0.0
  0
VERTEX
  5
245
330
225
100
AcDbEntity
  8
001
370
    50
100
AcDbVertex
100
AcDb2dVertex
 10
154.6359
 20
172.774568
 30
0.0
  0
VERTEX
  5
246
330
225
100
AcDbEntity
  8
001
370
    50
100
AcDbVertex
100
AcDb2dVertex
 10
154.346585
 20
172.925547
 30
0.0
  0
VERTEX
  5
247
330
225
100
AcDbEntity
  8
001
370
    50
100
AcDbVertex
100
AcDb2dVertex
 10
154.052476
 20
173.05082
 30
0.0
  0
VERTEX
  5
248
330
225
100
AcDbEntity
  8
001
370
    50
100
AcDbVertex
100
AcDb2dVertex
 10
153.759043
 20
173.149156
 30
0.0
  0
VERTEX
  5
249
330
225
100
AcDbEntity
  8
001
370
    50
100
AcDbVertex
100
AcDb2dVertex
 10
153.430673
 20
173.220002
 30
0.0
  0
VERTEX
  5
24A
330
225
100
AcDbEntity
  8
001
370
    50
100
AcDbVertex
100
AcDb2dVertex
 10
153.060133
 20
173.262689
 30
0.0
  0
VERTEX
  5
24B
330
225
100
AcDbEntity
  8
001
370
    50
100
AcDbVertex
100
AcDb2dVertex
 10
152.789386
 20
173.276973
 30
0.0
  0
SEQEND
  5
226
330
225
100
AcDbEntity
  8
001
370
    50
  0
LINE
  5
24C
330
1F
100
AcDbEntity
  8
001
370
    50
100
AcDbLine
 10
232.972474
 20
214.205778
 30
0.0
 11
183.856313
 21
214.205778
 31
0.0
  0
POLYLINE
  5
24D
330
1F
100
AcDbEntity
  8
001
370
    50
100
AcDb2dPolyline
 66
     1
 10
0.0
 20
0.0
 30
0.0
  0
VERTEX
  5
24F
330
24D
100
AcDbEntity
  8
001
370
    50
100
AcDbVertex
100
AcDb2dVertex
 10
224.057496
 20
171.377924
 30
0.0
  0
VERTEX
  5
250
330
24D
100
AcDbEntity
  8
001
370
    50
100
AcDbVertex
100
AcDb2dVertex
 10
224.594773
 20
171.21835
 30
0.0
  0
VERTEX
  5
251
330
24D
100
AcDbEntity
  8
001
370
    50
100
AcDbVertex
100
AcDb2dVertex
 10
225.128251
 20
171.047295
 30
0.0
  0
VERTEX
  5
252
330
24D
100
AcDbEntity
  8
001
370
    50
100
AcDbVertex
100
AcDb2dVertex
 10
225.65159
 20
170.857081
 30
0.0
  0
VERTEX
  5
253
330
24D
100
AcDbEntity
  8
001
370
    50
100
AcDbVertex
100
AcDb2dVertex
 10
226.167864
 20
170.647939
 30
0.0
  0
VERTEX
  5
254
330
24D
100
AcDbEntity
  8
001
370
    50
100
AcDbVertex
100
AcDb2dVertex
 10
226.671688
 20
170.425509
 30
0.0
  0
VERTEX
  5
255
330
24D
100
AcDbEntity
  8
001
370
    50
100
AcDbVertex
100
AcDb2dVertex
 10
227.16839
 20
170.187794
 30
0.0
  0
VERTEX
  5
256
330
24D
100
AcDbEntity
  8
001
370
    50
100
AcDbVertex
100
AcDb2dVertex
 10
227.680201
 20
169.922287
 30
0.0
  0
VERTEX
  5
257
330
24D
100
AcDbEntity
  8
001
370
    50
100
AcDbVertex
100
AcDb2dVertex
 10
228.183279
 20
169.640506
 30
0.0
  0
VERTEX
  5
258
330
24D
100
AcDbEntity
  8
001
370
    50
100
AcDbVertex
100
AcDb2dVertex
 10
228.669931
 20
169.347972
 30
0.0
  0
VERTEX
  5
259
330
24D
100
AcDbEntity
  8
001
370
    50
100
AcDbVertex
100
AcDb2dVertex
 10
229.147619
 20
169.041028
 30
0.0
  0
VERTEX
  5
25A
330
24D
100
AcDbEntity
  8
001
370
    50
100
AcDbVertex
100
AcDb2dVertex
 10
229.61764
 20
168.718979
 30
0.0
  0
VERTEX
  5
25B
330
24D
100
AcDbEntity
  8
001
370
    50
100
AcDbVertex
100
AcDb2dVertex
 10
230.077979
 20
168.38328
 30
0.0
  0
VERTEX
  5
25C
330
24D
100
AcDbEntity
  8
001
370
    50
100
AcDbVertex
100
AcDb2dVertex
 10
230.518629
 20
168.042206
 30
0.0
  0
VERTEX
  5
25D
330
24D
100
AcDbEntity
  8
001
370
    50
100
AcDbVertex
100
AcDb2dVertex
 10
230.949995
 20
167.689335
 30
0.0
  0
VERTEX
  5
25E
330
24D
100
AcDbEntity
  8
001
370
    50
100
AcDbVertex
100
AcDb2dVertex
 10
231.492443
 20
167.217505
 30
0.0
  0
VERTEX
  5
25F
330
24D
100
AcDbEntity
  8
001
370
    50
100
AcDbVertex
100
AcDb2dVertex
 10
232.016169
 20
166.725297
 30
0.0
  0
VERTEX
  5
260
330
24D
100
AcDbEntity
  8
001
370
    50
100
AcDbVertex
100
AcDb2dVertex
 10
232.499507
 20
166.234221
 30
0.0
  0
VERTEX
  5
261
330
24D
100
AcDbEntity
  8
001
370
    50
100
AcDbVertex
100
AcDb2dVertex
 10
232.972474
 20
165.732773
 30
0.0
  0
SEQEND
  5
24E
330
24D
100
AcDbEntity
  8
001
370
    50
  0
LINE
  5
262
330
1F
100
AcDbEntity
  8
001
370
    50
100
AcDbLine
 10
222.688496
 20
171.819036
 30
0.0
 11
224.057496
 21
171.377924
 31
0.0
  0
LINE
  5
263
330
1F
100
AcDbEntity
  8
001
370
    50
100
AcDbLine
 10
221.319496
 20
172.264287
 30
0.0
 11
222.688496
 21
171.819036
 31
0.0
  0
LINE
  5
264
330
1F
100
AcDbEntity
  8
001
370
    50
100
AcDbLine
 10
219.950496
 20
172.71354
 30
0.0
 11
221.319496
 21
172.264287
 31
0.0
  0
LINE
  5
265
330
1F
100
AcDbEntity
  8
001
370
    50
100
AcDbLine
 10
218.581496
 20
173.16666
 30
0.0
 11
219.950496
 21
172.71354
 31
0.0
  0
LINE
  5
266
330
1F
100
AcDbEntity
  8
001
370
    50
100
AcDbLine
 10
217.212496
 20
173.623508
 30
0.0
 11
218.581496
 21
173.16666
 31
0.0
  0
LINE
  5
267
330
1F
100
AcDbEntity
  8
001
370
    50
100
AcDbLine
 10
215.843496
 20
174.083945
 30
0.0
 11
217.212496
 21
173.623508
 31
0.0
  0
LINE
  5
268
330
1F
100
AcDbEntity
  8
001
370
    50
100
AcDbLine
 10
214.474496
 20
174.547831
 30
0.0
 11
215.843496
 21
174.083945
 31
0.0
  0
LINE
  5
269
330
1F
100
AcDbEntity
  8
001
370
    50
100
AcDbLine
 10
213.105496
 20
175.015024
 30
0.0
 11
214.474496
 21
174.547831
 31
0.0
  0
LINE
  5
26A
330
1F
100
AcDbEntity
  8
001
370
    50
100
AcDbLine
 10
211.736496
 20
175.485382
 30
0.0
 11
213.105496
 21
175.015024
 31
0.0
  0
LINE
  5
26B
330
1F
100
AcDbEntity
  8
001
370
    50
100
AcDbLine
 10
210.367496
 20
175.958762
 30
0.0
 11
211.736496
 21
175.485382
 31
0.0
  0
LINE
  5
26C
330
1F
100
AcDbEntity
  8
001
370
    50
100
AcDbLine
 10
208.998496
 20
176.43502
 30
0.0
 11
210.367496
 21
175.958762
 31
0.0
  0
LINE
  5
26D
330
1F
100
AcDbEntity
  8
001
370
    50
100
AcDbLine
 10
207.629496
 20
176.914011
 30
0.0
 11
208.998496
 21
176.43502
 31
0.0
  0
LINE
  5
26E
330
1F
100
AcDbEntity
  8
001
370
    50
100
AcDbLine
 10
206.260496
 20
177.395588
 30
0.0
 11
207.629496
 21
176.914011
 31
0.0
  0
LINE
  5
26F
330
1F
100
AcDbEntity
  8
001
370
    50
100
AcDbLine
 10
204.891496
 20
177.879605
 30
0.0
 11
206.260496
 21
177.395588
 31
0.0
  0
LINE
  5
270
330
1F
100
AcDbEntity
  8
001
370
    50
100
AcDbLine
 10
203.522496
 20
178.365914
 30
0.0
 11
204.891496
 21
177.879605
 31
0.0
  0
LINE
  5
271
330
1F
100
AcDbEntity
  8
001
370
    50
100
AcDbLine
 10
202.153496
 20
178.854368
 30
0.0
 11
203.522496
 21
178.365914
 31
0.0
  0
LINE
  5
272
330
1F
100
AcDbEntity
  8
001
370
    50
100
AcDbLine
 10
200.784496
 20
179.344818
 30
0.0
 11
202.153496
 21
178.854368
 31
0.0
  0
LINE
  5
273
330
1F
100
AcDbEntity
  8
001
370
    50
100
AcDbLine
 10
199.415496
 20
179.837114
 30
0.0
 11
200.784496
 21
179.344818
 31
0.0
  0
LINE
  5
274
330
1F
100
AcDbEntity
  8
001
370
    50
100
AcDbLine
 10
198.046496
 20
180.331106
 30
0.0
 11
199.415496
 21
179.837114
 31
0.0
  0
LINE
  5
275
330
1F
100
AcDbEntity
  8
001
370
    50
100
AcDbLine
 10
196.677496
 20
180.826644
 30
0.0
 11
198.046496
 21
180.331106
 31
0.0
  0
LINE
  5
276
330
1F
100
AcDbEntity
  8
001
370
    50
100
AcDbLine
 10
195.308496
 20
181.323577
 30
0.0
 11
196.677496
 21
180.826644
 31
0.0
  0
LINE
  5
277
330
1F
100
AcDbEntity
  8
001
370
    50
100
AcDbLine
 10
193.939496
 20
181.821753
 30
0.0
 11
195.308496
 21
181.323577
 31
0.0
  0
LINE
  5
278
330
1F
100
AcDbEntity
  8
001
370
    50
100
AcDbLine
 10
192.570496
 20
182.321021
 30
0.0
 11
193.939496
 21
181.821753
 31
0.0
  0
LINE
  5
279
330
1F
100
AcDbEntity
  8
001
370
    50
100
AcDbLine
 10
191.201496
 20
182.821228
 30
0.0
 11
192.570496
 21
182.321021
 31
0.0
  0
LINE
  5
27A
330
1F
100
AcDbEntity
  8
001
370
    50
100
AcDbLine
 10
189.832496
 20
183.322223
 30
0.0
 11
191.201496
 21
182.821228
 31
0.0
  0
LINE
  5
27B
330
1F
100
AcDbEntity
  8
001
370
    50
100
AcDbLine
 10
188.463496
 20
183.823853
 30
0.0
 11
189.832496
 21
183.322223
 31
0.0
  0
LINE
  5
27C
330
1F
100
AcDbEntity
  8
001
370
    50
100
AcDbLine
 10
187.094496
 20
184.325964
 30
0.0
 11
188.463496
 21
183.823853
 31
0.0
  0
LINE
  5
27D
330
1F
100
AcDbEntity
  8
001
370
    50
100
AcDbLine
 10
185.725496
 20
184.828405
 30
0.0
 11
187.094496
 21
184.325964
 31
0.0
  0
LINE
  5
27E
330
1F
100
AcDbEntity
  8
001
370
    50
100
AcDbLine
 10
184.356496
 20
185.331021
 30
0.0
 11
185.725496
 21
184.828405
 31
0.0
  0
LINE
  5
27F
330
1F
100
AcDbEntity
  8
001
370
    50
100
AcDbLine
 10
183.856313
 20
185.533008
 30
0.0
 11
184.356496
 21
185.331021
 31
0.0
  0
ARC
  5
280
330
1F
100
AcDbEntity
  8
001
370
    50
100
AcDbCircle
 10
232.972474
 20
206.205778
 30
0.0
 40
8.000000000000007
100
AcDbArc
 50
0.0
 51
90.0
  0
ARC
  5
281
330
1F
100
AcDbEntity
  8
001
370
    50
100
AcDbCircle
 10
232.972474
 20
164.605778
 30
0.0
 40
8.000000000000007
100
AcDbArc
 50
331.413216
 51
0.0
  0
LINE
  5
282
330
1F
100
AcDbEntity
  8
001
370
    50
100
AcDbLine
 10
240.972474
 20
206.205778
 30
0.0
 11
240.972474
 21
164.605778
 31
0.0
  0
POLYLINE
  5
283
330
1F
100
AcDbEntity
  8
001
370
    50
100
AcDb2dPolyline
 66
     1
 10
0.0
 20
0.0
 30
0.0
  0
VERTEX
  5
285
330
283
100
AcDbEntity
  8
001
370
    50
100
AcDbVertex
100
AcDb2dVertex
 10
236.273609
 20
161.754019
 30
0.0
  0
VERTEX
  5
286
330
283
100
AcDbEntity
  8
001
370
    50
100
AcDbVertex
100
AcDb2dVertex
 10
236.417962
 20
161.525942
 30
0.0
  0
VERTEX
  5
287
330
283
100
AcDbEntity
  8
001
370
    50
100
AcDbVertex
100
AcDb2dVertex
 10
236.569774
 20
161.302988
 30
0.0
  0
VERTEX
  5
288
330
283
100
AcDbEntity
  8
001
370
    50
100
AcDbVertex
100
AcDb2dVertex
 10
236.783822
 20
161.032192
 30
0.0
  0
VERTEX
  5
289
330
283
100
AcDbEntity
  8
001
370
    50
100
AcDbVertex
100
AcDb2dVertex
 10
237.020915
 20
160.780931
 30
0.0
  0
VERTEX
  5
28A
330
283
100
AcDbEntity
  8
001
370
    50
100
AcDbVertex
100
AcDb2dVertex
 10
237.24961
 20
160.577122
 30
0.0
  0
VERTEX
  5
28B
330
283
100
AcDbEntity
  8
001
370
    50
100
AcDbVertex
100
AcDb2dVertex
 10
237.495963
 20
160.395333
 30
0.0
  0
VERTEX
  5
28C
330
283
100
AcDbEntity
  8
001
370
    50
100
AcDbVertex
100
AcDb2dVertex
 10
237.728741
 20
160.256844
 30
0.0
  0
VERTEX
  5
28D
330
283
100
AcDbEntity
  8
001
370
    50
100
AcDbVertex
100
AcDb2dVertex
 10
237.974967
 20
160.144004
 30
0.0
  0
VERTEX
  5
28E
330
283
100
AcDbEntity
  8
001
370
    50
100
AcDbVertex
100
AcDb2dVertex
 10
238.202811
 20
160.069861
 30
0.0
  0
VERTEX
  5
28F
330
283
100
AcDbEntity
  8
001
370
    50
100
AcDbVertex
100
AcDb2dVertex
 10
238.437975
 20
160.024755
 30
0.0
  0
VERTEX
  5
290
330
283
100
AcDbEntity
  8
001
370
    50
100
AcDbVertex
100
AcDb2dVertex
 10
238.677665
 20
160.013177
 30
0.0
  0
VERTEX
  5
291
330
283
100
AcDbEntity
  8
001
370
    50
100
AcDbVertex
100
AcDb2dVertex
 10
238.916477
 20
160.03706
 30
0.0
  0
VERTEX
  5
292
330
283
100
AcDbEntity
  8
001
370
    50
100
AcDbVertex
100
AcDb2dVertex
 10
239.126725
 20
160.089684
 30
0.0
  0
VERTEX
  5
293
330
283
100
AcDbEntity
  8
001
370
    50
100
AcDbVertex
100
AcDb2dVertex
 10
239.327643
 20
160.170557
 30
0.0
  0
VERTEX
  5
294
330
283
100
AcDbEntity
  8
001
370
    50
100
AcDbVertex
100
AcDb2dVertex
 10
239.501096
 20
160.268349
 30
0.0
  0
VERTEX
  5
295
330
283
100
AcDbEntity
  8
001
370
    50
100
AcDbVertex
100
AcDb2dVertex
 10
239.661728
 20
160.386445
 30
0.0
  0
VERTEX
  5
296
330
283
100
AcDbEntity
  8
001
370
    50
100
AcDbVertex
100
AcDb2dVertex
 10
239.793599
 20
160.508726
 30
0.0
  0
VERTEX
  5
297
330
283
100
AcDbEntity
  8
001
370
    50
100
AcDbVertex
100
AcDb2dVertex
 10
239.908989
 20
160.645922
 30
0.0
  0
VERTEX
  5
298
330
283
100
AcDbEntity
  8
001
370
    50
100
AcDbVertex
100
AcDb2dVertex
 10
239.956378
 20
160.714942
 30
0.0
  0
VERTEX
  5
299
330
283
100
AcDbEntity
  8
001
370
    50
100
AcDbVertex
100
AcDb2dVertex
 10
240.00144
 20
160.785616
 30
0.0
  0
SEQEND
  5
284
330
283
100
AcDbEntity
  8
001
370
    50
  0
POLYLINE
  5
29A
330
1F
100
AcDbEntity
  8
001
370
    50
100
AcDb2dPolyline
 66
     1
 10
0.0
 20
0.0
 30
0.0
  0
VERTEX
  5
29C
330
29A
100
AcDbEntity
  8
001
370
    50
100
AcDbVertex
100
AcDb2dVertex
 10
232.972474
 20
165.732773
 30
0.0
  0
VERTEX
  5
29D
330
29A
100
AcDbEntity
  8
001
370
    50
100
AcDbVertex
100
AcDb2dVertex
 10
233.320958
 20
165.346814
 30
0.0
  0
VERTEX
  5
29E
330
29A
100
AcDbEntity
  8
001
370
    50
100
AcDbVertex
100
AcDb2dVertex
 10
233.669433
 20
164.960852
 30
0.0
  0
VERTEX
  5
29F
330
29A
100
AcDbEntity
  8
001
370
    50
100
AcDbVertex
100
AcDb2dVertex
 10
233.996256
 20
164.598504
 30
0.0
  0
VERTEX
  5
2A0
330
29A
100
AcDbEntity
  8
001
370
    50
100
AcDbVertex
100
AcDb2dVertex
 10
234.32204
 20
164.235206
 30
0.0
  0
VERTEX
  5
2A1
330
29A
100
AcDbEntity
  8
001
370
    50
100
AcDbVertex
100
AcDb2dVertex
 10
234.626893
 20
163.891227
 30
0.0
  0
VERTEX
  5
2A2
330
29A
100
AcDbEntity
  8
001
370
    50
100
AcDbVertex
100
AcDb2dVertex
 10
234.928298
 20
163.544264
 30
0.0
  0
VERTEX
  5
2A3
330
29A
100
AcDbEntity
  8
001
370
    50
100
AcDbVertex
100
AcDb2dVertex
 10
235.201028
 20
163.221517
 30
0.0
  0
VERTEX
  5
2A4
330
29A
100
AcDbEntity
  8
001
370
    50
100
AcDbVertex
100
AcDb2dVertex
 10
235.468442
 20
162.894234
 30
0.0
  0
VERTEX
  5
2A5
330
29A
100
AcDbEntity
  8
001
370
    50
100
AcDbVertex
100
AcDb2dVertex
 10
235.693588
 20
162.606799
 30
0.0
  0
VERTEX
  5
2A6
330
29A
100
AcDbEntity
  8
001
370
    50
100
AcDbVertex
100
AcDb2dVertex
 10
235.908909
 20
162.312178
 30
0.0
  0
VERTEX
  5
2A7
330
29A
100
AcDbEntity
  8
001
370
    50
100
AcDbVertex
100
AcDb2dVertex
 10
236.09437
 20
162.035248
 30
0.0
  0
VERTEX
  5
2A8
330
29A
100
AcDbEntity
  8
001
370
    50
100
AcDbVertex
100
AcDb2dVertex
 10
236.273609
 20
161.754019
 30
0.0
  0
SEQEND
  5
29B
330
29A
100
AcDbEntity
  8
001
370
    50
  0
POLYLINE
  5
2A9
330
1F
100
AcDbEntity
  8
001
  6
DASHED
370
    50
100
AcDb2dPolyline
 66
     1
 10
0.0
 20
0.0
 30
0.0
  0
VERTEX
  5
2AB
330
2A9
100
AcDbEntity
  8
001
  6
DASHED
370
    50
100
AcDbVertex
100
AcDb2dVertex
 10
181.598613
 20
188.111167
 30
0.0
  0
VERTEX
  5
2AC
330
2A9
100
AcDbEntity
  8
001
  6
DASHED
370
    50
100
AcDbVertex
100
AcDb2dVertex
 10
181.597454
 20
188.108977
 30
0.0
  0
VERTEX
  5
2AD
330
2A9
100
AcDbEntity
  8
001
  6
DASHED
370
    50
100
AcDbVertex
100
AcDb2dVertex
 10
181.595761
 20
188.105774
 30
0.0
  0
VERTEX
  5
2AE
330
2A9
100
AcDbEntity
  8
001
  6
DASHED
370
    50
100
AcDbVertex
100
AcDb2dVertex
 10
181.594067
 20
188.102568
 30
0.0
  0
VERTEX
  5
2AF
330
2A9
100
AcDbEntity
  8
001
  6
DASHED
370
    50
100
AcDbVertex
100
AcDb2dVertex
 10
181.592908
 20
188.100374
 30
0.0
  0
SEQEND
  5
2AA
330
2A9
100
AcDbEntity
  8
001
  6
DASHED
370
    50
  0
LINE
  5
2B0
330
1F
100
AcDbEntity
  8
001
370
    50
100
AcDbLine
 10
183.005703
 20
186.571951
 30
0.0
 11
183.856313
 21
185.533008
 31
0.0
  0
LINE
  5
2B1
330
1F
100
AcDbEntity
  8
001
370
    50
100
AcDbLine
 10
183.856313
 20
214.205778
 30
0.0
 11
177.772474
 21
207.905778
 31
0.0
  0
POLYLINE
  5
2B2
330
1F
100
AcDbEntity
  8
001
370
    50
100
AcDb2dPolyline
 66
     1
 10
0.0
 20
0.0
 30
0.0
  0
VERTEX
  5
2B4
330
2B2
100
AcDbEntity
  8
001
370
    50
100
AcDbVertex
100
AcDb2dVertex
 10
181.625369
 20
188.069075
 30
0.0
  0
VERTEX
  5
2B5
330
2B2
100
AcDbEntity
  8
001
370
    50
100
AcDbVertex
100
AcDb2dVertex
 10
181.726512
 20
187.972447
 30
0.0
  0
VERTEX
  5
2B6
330
2B2
100
AcDbEntity
  8
001
370
    50
100
AcDbVertex
100
AcDb2dVertex
 10
181.827133
 20
187.875269
 30
0.0
  0
VERTEX
  5
2B7
330
2B2
100
AcDbEntity
  8
001
370
    50
100
AcDbVertex
100
AcDb2dVertex
 10
182.131541
 20
187.568444
 30
0.0
  0
VERTEX
  5
2B8
330
2B2
100
AcDbEntity
  8
001
370
    50
100
AcDbVertex
100
AcDb2dVertex
 10
182.42537
 20
187.251487
 30
0.0
  0
VERTEX
  5
2B9
330
2B2
100
AcDbEntity
  8
001
370
    50
100
AcDbVertex
100
AcDb2dVertex
 10
182.718522
 20
186.914325
 30
0.0
  0
VERTEX
  5
2BA
330
2B2
100
AcDbEntity
  8
001
370
    50
100
AcDbVertex
100
AcDb2dVertex
 10
183.005703
 20
186.571951
 30
0.0
  0
SEQEND
  5
2B3
330
2B2
100
AcDbEntity
  8
001
370
    50
  0
POLYLINE
  5
2BB
330
1F
100
AcDbEntity
  8
001
370
    50
100
AcDb2dPolyline
 66
     1
 10
0.0
 20
0.0
 30
0.0
  0
VERTEX
  5
2BD
330
2BB
100
AcDbEntity
  8
001
370
    50
100
AcDbVertex
100
AcDb2dVertex
 10
180.197299
 20
189.352217
 30
0.0
  0
VERTEX
  5
2BE
330
2BB
100
AcDbEntity
  8
001
370
    50
100
AcDbVertex
100
AcDb2dVertex
 10
180.564196
 20
189.056474
 30
0.0
  0
VERTEX
  5
2BF
330
2BB
100
AcDbEntity
  8
001
370
    50
100
AcDbVertex
100
AcDb2dVertex
 10
180.922161
 20
188.750776
 30
0.0
  0
VERTEX
  5
2C0
330
2BB
100
AcDbEntity
  8
001
370
    50
100
AcDbVertex
100
AcDb2dVertex
 10
181.278594
 20
188.415307
 30
0.0
  0
VERTEX
  5
2C1
330
2BB
100
AcDbEntity
  8
001
370
    50
100
AcDbVertex
100
AcDb2dVertex
 10
181.625369
 20
188.069075
 30
0.0
  0
SEQEND
  5
2BC
330
2BB
100
AcDbEntity
  8
001
370
    50
  0
POLYLINE
  5
2C2
330
1F
100
AcDbEntity
  8
001
370
    50
100
AcDb2dPolyline
 66
     1
 10
0.0
 20
0.0
 30
0.0
  0
VERTEX
  5
2C4
330
2C2
100
AcDbEntity
  8
001
370
    50
100
AcDbVertex
100
AcDb2dVertex
 10
178.722782
 20
190.413671
 30
0.0
  0
VERTEX
  5
2C5
330
2C2
100
AcDbEntity
  8
001
370
    50
100
AcDbVertex
100
AcDb2dVertex
 10
179.100508
 20
190.174876
 30
0.0
  0
VERTEX
  5
2C6
330
2C2
100
AcDbEntity
  8
001
370
    50
100
AcDbVertex
100
AcDb2dVertex
 10
179.469898
 20
189.924484
 30
0.0
  0
VERTEX
  5
2C7
330
2C2
100
AcDbEntity
  8
001
370
    50
100
AcDbVertex
100
AcDb2dVertex
 10
179.838075
 20
189.644579
 30
0.0
  0
VERTEX
  5
2C8
330
2C2
100
AcDbEntity
  8
001
370
    50
100
AcDbVertex
100
AcDb2dVertex
 10
180.197299
 20
189.352217
 30
0.0
  0
SEQEND
  5
2C3
330
2C2
100
AcDbEntity
  8
001
370
    50
  0
LINE
  5
2C9
330
1F
100
AcDbEntity
  8
001
370
    50
100
AcDbLine
 10
177.772474
 20
190.978781
 30
0.0
 11
178.722782
 21
190.413671
 31
0.0
  0
LINE
  5
2CA
330
1F
100
AcDbEntity
  8
001
370
    50
100
AcDbLine
 10
177.264212
 20
191.105629
 30
0.0
 11
177.772474
 21
190.978781
 31
0.0
  0
LINE
  5
2CB
330
1F
100
AcDbEntity
  8
001
370
    50
100
AcDbLine
 10
177.772474
 20
207.905778
 30
0.0
 11
147.472474
 21
207.905778
 31
0.0
  0
POLYLINE
  5
2CC
330
1F
100
AcDbEntity
  8
001
370
    50
100
AcDb2dPolyline
 66
     1
 10
0.0
 20
0.0
 30
0.0
  0
VERTEX
  5
2CE
330
2CC
100
AcDbEntity
  8
001
370
    50
100
AcDbVertex
100
AcDb2dVertex
 10
175.895212
 20
191.484631
 30
0.0
  0
VERTEX
  5
2CF
330
2CC
100
AcDbEntity
  8
001
370
    50
100
AcDbVertex
100
AcDb2dVertex
 10
176.462436
 20
191.339992
 30
0.0
  0
VERTEX
  5
2D0
330
2CC
100
AcDbEntity
  8
001
370
    50
100
AcDbVertex
100
AcDb2dVertex
 10
177.025402
 20
191.180747
 30
0.0
  0
VERTEX
  5
2D1
330
2CC
100
AcDbEntity
  8
001
370
    50
100
AcDbVertex
100
AcDb2dVertex
 10
177.144904
 20
191.143522
 30
0.0
  0
VERTEX
  5
2D2
330
2CC
100
AcDbEntity
  8
001
370
    50
100
AcDbVertex
100
AcDb2dVertex
 10
177.264212
 20
191.105629
 30
0.0
  0
SEQEND
  5
2CD
330
2CC
100
AcDbEntity
  8
001
370
    50
  0
LINE
  5
2D3
330
1F
100
AcDbEntity
  8
001
370
    50
100
AcDbLine
 10
174.526212
 20
191.861782
 30
0.0
 11
175.895212
 21
191.484631
 31
0.0
  0
LINE
  5
2D4
330
1F
100
AcDbEntity
  8
001
370
    50
100
AcDbLine
 10
173.157212
 20
192.236966
 30
0.0
 11
174.526212
 21
191.861782
 31
0.0
  0
LINE
  5
2D5
330
1F
100
AcDbEntity
  8
001
370
    50
100
AcDbLine
 10
171.788212
 20
192.610069
 30
0.0
 11
173.157212
 21
192.236966
 31
0.0
  0
LINE
  5
2D6
330
1F
100
AcDbEntity
  8
001
370
    50
100
AcDbLine
 10
170.419212
 20
192.980977
 30
0.0
 11
171.788212
 21
192.610069
 31
0.0
  0
LINE
  5
2D7
330
1F
100
AcDbEntity
  8
001
370
    50
100
AcDbLine
 10
169.050212
 20
193.349578
 30
0.0
 11
170.419212
 21
192.980977
 31
0.0
  0
LINE
  5
2D8
330
1F
100
AcDbEntity
  8
001
370
    50
100
AcDbLine
 10
167.681212
 20
193.71576
 30
0.0
 11
169.050212
 21
193.349578
 31
0.0
  0
LINE
  5
2D9
330
1F
100
AcDbEntity
  8
001
370
    50
100
AcDbLine
 10
166.312212
 20
194.07941
 30
0.0
 11
167.681212
 21
193.71576
 31
0.0
  0
LINE
  5
2DA
330
1F
100
AcDbEntity
  8
001
370
    50
100
AcDbLine
 10
164.943212
 20
194.440418
 30
0.0
 11
166.312212
 21
194.07941
 31
0.0
  0
LINE
  5
2DB
330
1F
100
AcDbEntity
  8
001
370
    50
100
AcDbLine
 10
163.574212
 20
194.798674
 30
0.0
 11
164.943212
 21
194.440418
 31
0.0
  0
LINE
  5
2DC
330
1F
100
AcDbEntity
  8
001
370
    50
100
AcDbLine
 10
162.205212
 20
195.154068
 30
0.0
 11
163.574212
 21
194.798674
 31
0.0
  0
LINE
  5
2DD
330
1F
100
AcDbEntity
  8
001
370
    50
100
AcDbLine
 10
160.836212
 20
195.506494
 30
0.0
 11
162.205212
 21
195.154068
 31
0.0
  0
LINE
  5
2DE
330
1F
100
AcDbEntity
  8
001
370
    50
100
AcDbLine
 10
159.467212
 20
195.855842
 30
0.0
 11
160.836212
 21
195.506494
 31
0.0
  0
LINE
  5
2DF
330
1F
100
AcDbEntity
  8
001
370
    50
100
AcDbLine
 10
158.098212
 20
196.202008
 30
0.0
 11
159.467212
 21
195.855842
 31
0.0
  0
LINE
  5
2E0
330
1F
100
AcDbEntity
  8
001
370
    50
100
AcDbLine
 10
156.729212
 20
196.544884
 30
0.0
 11
158.098212
 21
196.202008
 31
0.0
  0
LINE
  5
2E1
330
1F
100
AcDbEntity
  8
001
370
    50
100
AcDbLine
 10
155.360212
 20
196.884368
 30
0.0
 11
156.729212
 21
196.544884
 31
0.0
  0
LINE
  5
2E2
330
1F
100
AcDbEntity
  8
001
370
    50
100
AcDbLine
 10
153.991212
 20
197.220355
 30
0.0
 11
155.360212
 21
196.884368
 31
0.0
  0
LINE
  5
2E3
330
1F
100
AcDbEntity
  8
001
370
    50
100
AcDbLine
 10
152.622212
 20
197.552743
 30
0.0
 11
153.991212
 21
197.220355
 31
0.0
  0
LINE
  5
2E4
330
1F
100
AcDbEntity
  8
001
370
    50
100
AcDbLine
 10
151.253212
 20
197.881432
 30
0.0
 11
152.622212
 21
197.552743
 31
0.0
  0
LINE
  5
2E5
330
1F
100
AcDbEntity
  8
001
370
    50
100
AcDbLine
 10
149.884212
 20
198.20632
 30
0.0
 11
151.253212
 21
197.881432
 31
0.0
  0
LINE
  5
2E6
330
1F
100
AcDbEntity
  8
001
370
    50
100
AcDbLine
 10
148.515212
 20
198.527309
 30
0.0
 11
149.884212
 21
198.20632
 31
0.0
  0
LINE
  5
2E7
330
1F
100
AcDbEntity
  8
001
370
    50
100
AcDbLine
 10
147.472474
 20
198.778341
 30
0.0
 11
148.515212
 21
198.527309
 31
0.0
  0
POLYLINE
  5
2E8
330
1F
100
AcDbEntity
  8
001
370
    50
100
AcDb2dPolyline
 66
     1
 10
0.0
 20
0.0
 30
0.0
  0
VERTEX
  5
2EA
330
2E8
100
AcDbEntity
  8
001
370
    50
100
AcDbVertex
100
AcDb2dVertex
 10
158.522795
 20
163.305971
 30
0.0
  0
VERTEX
  5
2EB
330
2E8
100
AcDbEntity
  8
001
370
    50
100
AcDbVertex
100
AcDb2dVertex
 10
158.850981
 20
163.184235
 30
0.0
  0
VERTEX
  5
2EC
330
2E8
100
AcDbEntity
  8
001
370
    50
100
AcDbVertex
100
AcDb2dVertex
 10
159.340898
 20
163.041801
 30
0.0
  0
VERTEX
  5
2ED
330
2E8
100
AcDbEntity
  8
001
370
    50
100
AcDbVertex
100
AcDb2dVertex
 10
159.828261
 20
162.952884
 30
0.0
  0
VERTEX
  5
2EE
330
2E8
100
AcDbEntity
  8
001
370
    50
100
AcDbVertex
100
AcDb2dVertex
 10
160.166163
 20
162.916687
 30
0.0
  0
SEQEND
  5
2E9
330
2E8
100
AcDbEntity
  8
001
370
    50
  0
LINE
  5
2EF
330
1F
100
AcDbEntity
  8
001
370
    50
100
AcDbLine
 10
161.166014
 20
162.926953
 30
0.0
 11
160.166163
 21
162.916687
 31
0.0
  0
POLYLINE
  5
2F0
330
1F
100
AcDbEntity
  8
001
370
    50
100
AcDb2dPolyline
 66
     1
 10
0.0
 20
0.0
 30
0.0
  0
VERTEX
  5
2F2
330
2F0
100
AcDbEntity
  8
001
370
    50
100
AcDbVertex
100
AcDb2dVertex
 10
162.535014
 20
162.947409
 30
0.0
  0
VERTEX
  5
2F3
330
2F0
100
AcDbEntity
  8
001
370
    50
100
AcDbVertex
100
AcDb2dVertex
 10
161.870728
 20
162.937311
 30
0.0
  0
VERTEX
  5
2F4
330
2F0
100
AcDbEntity
  8
001
370
    50
100
AcDbVertex
100
AcDb2dVertex
 10
161.206438
 20
162.927532
 30
0.0
  0
VERTEX
  5
2F5
330
2F0
100
AcDbEntity
  8
001
370
    50
100
AcDbVertex
100
AcDb2dVertex
 10
161.186226
 20
162.927242
 30
0.0
  0
VERTEX
  5
2F6
330
2F0
100
AcDbEntity
  8
001
370
    50
100
AcDbVertex
100
AcDb2dVertex
 10
161.166014
 20
162.926953
 30
0.0
  0
SEQEND
  5
2F1
330
2F0
100
AcDbEntity
  8
001
370
    50
  0
LINE
  5
2F7
330
1F
100
AcDbEntity
  8
001
370
    50
100
AcDbLine
 10
163.904014
 20
162.974706
 30
0.0
 11
162.535014
 21
162.947409
 31
0.0
  0
LINE
  5
2F8
330
1F
100
AcDbEntity
  8
001
370
    50
100
AcDbLine
 10
165.273014
 20
163.008836
 30
0.0
 11
163.904014
 21
162.974706
 31
0.0
  0
POLYLINE
  5
2F9
330
1F
100
AcDbEntity
  8
001
370
    50
100
AcDb2dPolyline
 66
     1
 10
0.0
 20
0.0
 30
0.0
  0
VERTEX
  5
2FB
330
2F9
100
AcDbEntity
  8
001
370
    50
100
AcDbVertex
100
AcDb2dVertex
 10
166.642014
 20
163.049788
 30
0.0
  0
VERTEX
  5
2FC
330
2F9
100
AcDbEntity
  8
001
370
    50
100
AcDbVertex
100
AcDb2dVertex
 10
166.226076
 20
163.037804
 30
0.0
  0
VERTEX
  5
2FD
330
2F9
100
AcDbEntity
  8
001
370
    50
100
AcDbVertex
100
AcDb2dVertex
 10
165.810148
 20
163.025483
 30
0.0
  0
VERTEX
  5
2FE
330
2F9
100
AcDbEntity
  8
001
370
    50
100
AcDbVertex
100
AcDb2dVertex
 10
165.541579
 20
163.01723
 30
0.0
  0
VERTEX
  5
2FF
330
2F9
100
AcDbEntity
  8
001
370
    50
100
AcDbVertex
100
AcDb2dVertex
 10
165.273014
 20
163.008836
 30
0.0
  0
SEQEND
  5
2FA
330
2F9
100
AcDbEntity
  8
001
370
    50
  0
LINE
  5
300
330
1F
100
AcDbEntity
  8
001
370
    50
100
AcDbLine
 10
168.011014
 20
163.09755
 30
0.0
 11
166.642014
 21
163.049788
 31
0.0
  0
LINE
  5
301
330
1F
100
AcDbEntity
  8
001
370
    50
100
AcDbLine
 10
169.731614
 20
163.166118
 30
0.0
 11
168.011014
 21
163.09755
 31
0.0
  0
POLYLINE
  5
302
330
1F
100
AcDbEntity
  8
001
370
    50
100
AcDb2dPolyline
 66
     1
 10
0.0
 20
0.0
 30
0.0
  0
VERTEX
  5
304
330
302
100
AcDbEntity
  8
001
370
    50
100
AcDbVertex
100
AcDb2dVertex
 10
160.836212
 20
195.506494
 30
0.0
  0
VERTEX
  5
305
330
302
100
AcDbEntity
  8
001
370
    50
100
AcDbVertex
100
AcDb2dVertex
 10
160.83497
 20
195.50681
 30
0.0
  0
VERTEX
  5
306
330
302
100
AcDbEntity
  8
001
370
    50
100
AcDbVertex
100
AcDb2dVertex
 10
160.833151
 20
195.507255
 30
0.0
  0
VERTEX
  5
307
330
302
100
AcDbEntity
  8
001
370
    50
100
AcDbVertex
100
AcDb2dVertex
 10
160.831326
 20
195.507674
 30
0.0
  0
VERTEX
  5
308
330
302
100
AcDbEntity
  8
001
370
    50
100
AcDbVertex
100
AcDb2dVertex
 10
160.830074
 20
195.507949
 30
0.0
  0
SEQEND
  5
303
330
302
100
AcDbEntity
  8
001
370
    50
  0
POLYLINE
  5
309
330
1F
100
AcDbEntity
  8
001
370
    50
100
AcDb2dPolyline
 66
     1
 10
0.0
 20
0.0
 30
0.0
  0
VERTEX
  5
30B
330
309
100
AcDbEntity
  8
001
370
    50
100
AcDbVertex
100
AcDb2dVertex
 10
146.088856
 20
196.160753
 30
0.0
  0
VERTEX
  5
30C
330
309
100
AcDbEntity
  8
001
370
    50
100
AcDbVertex
100
AcDb2dVertex
 10
146.434673
 20
196.326632
 30
0.0
  0
VERTEX
  5
30D
330
309
100
AcDbEntity
  8
001
370
    50
100
AcDbVertex
100
AcDb2dVertex
 10
146.78393
 20
196.484513
 30
0.0
  0
VERTEX
  5
30E
330
309
100
AcDbEntity
  8
001
370
    50
100
AcDbVertex
100
AcDb2dVertex
 10
147.126599
 20
196.624312
 30
0.0
  0
VERTEX
  5
30F
330
309
100
AcDbEntity
  8
001
370
    50
100
AcDbVertex
100
AcDb2dVertex
 10
147.472474
 20
196.756655
 30
0.0
  0
SEQEND
  5
30A
330
309
100
AcDbEntity
  8
001
370
    50
  0
LINE
  5
310
330
1F
100
AcDbEntity
  8
001
370
    50
100
AcDbLine
 10
243.972474
 20
201.405778
 30
0.0
 11
312.972474
 21
201.405778
 31
0.0
  0
LINE
  5
311
330
1F
100
AcDbEntity
  8
001
370
    50
100
AcDbLine
 10
243.972474
 20
169.405778
 30
0.0
 11
312.972474
 21
169.405778
 31
0.0
  0
ARC
  5
312
330
1F
100
AcDbEntity
  8
001
370
    50
100
AcDbCircle
 10
312.972474
 20
193.405778
 30
0.0
 40
7.99999999999998
100
AcDbArc
 50
0.0
 51
90.0
  0
ARC
  5
313
330
1F
100
AcDbEntity
  8
001
370
    50
100
AcDbCircle
 10
312.972474
 20
177.405778
 30
0.0
 40
7.99999999999998
100
AcDbArc
 50
270.0
 51
0.0
  0
LINE
  5
314
330
1F
100
AcDbEntity
  8
001
370
    50
100
AcDbLine
 10
320.972474
 20
193.405778
 30
0.0
 11
320.972474
 21
177.405778
 31
0.0
  0
LINE
  5
315
330
1F
100
AcDbEntity
  8
001
370
    50
100
AcDbLine
 10
147.472474
 20
202.22201
 30
0.0
 11
145.572474
 21
200.205778
 31
0.0
  0
LINE
  5
316
330
1F
100
AcDbEntity
  8
001
370
    50
100
AcDbLine
 10
145.572474
 20
195.913334
 30
0.0
 11
146.088856
 21
196.160753
 31
0.0
  0
POLYLINE
  5
317
330
1F
100
AcDbEntity
  8
001
370
    50
100
AcDb2dPolyline
 66
     1
 10
0.0
 20
0.0
 30
0.0
  0
VERTEX
  5
319
330
317
100
AcDbEntity
  8
001
370
    50
100
AcDbVertex
100
AcDb2dVertex
 10
145.572474
 20
175.564517
 30
0.0
  0
VERTEX
  5
31A
330
317
100
AcDbEntity
  8
001
370
    50
100
AcDbVertex
100
AcDb2dVertex
 10
145.799103
 20
175.566503
 30
0.0
  0
VERTEX
  5
31B
330
317
100
AcDbEntity
  8
001
370
    50
100
AcDbVertex
100
AcDb2dVertex
 10
146.130315
 20
175.570626
 30
0.0
  0
VERTEX
  5
31C
330
317
100
AcDbEntity
  8
001
370
    50
100
AcDbVertex
100
AcDb2dVertex
 10
146.462306
 20
175.57646
 30
0.0
  0
VERTEX
  5
31D
330
317
100
AcDbEntity
  8
001
370
    50
100
AcDbVertex
100
AcDb2dVertex
 10
146.689443
 20
175.581287
 30
0.0
  0
SEQEND
  5
318
330
317
100
AcDbEntity
  8
001
370
    50
  0
POLYLINE
  5
31E
330
1F
100
AcDbEntity
  8
001
370
    50
100
AcDb2dPolyline
 66
     1
 10
0.0
 20
0.0
 30
0.0
  0
VERTEX
  5
320
330
31E
100
AcDbEntity
  8
001
370
    50
100
AcDbVertex
100
AcDb2dVertex
 10
146.689443
 20
175.581287
 30
0.0
  0
VERTEX
  5
321
330
31E
100
AcDbEntity
  8
001
370
    50
100
AcDbVertex
100
AcDb2dVertex
 10
146.967883
 20
175.582881
 30
0.0
  0
VERTEX
  5
322
330
31E
100
AcDbEntity
  8
001
370
    50
100
AcDbVertex
100
AcDb2dVertex
 10
147.374815
 20
175.587063
 30
0.0
  0
VERTEX
  5
323
330
31E
100
AcDbEntity
  8
001
370
    50
100
AcDbVertex
100
AcDb2dVertex
 10
147.782969
 20
175.593841
 30
0.0
  0
VERTEX
  5
324
330
31E
100
AcDbEntity
  8
001
370
    50
100
AcDbVertex
100
AcDb2dVertex
 10
148.062211
 20
175.599747
 30
0.0
  0
SEQEND
  5
31F
330
31E
100
AcDbEntity
  8
001
370
    50
  0
POLYLINE
  5
325
330
1F
100
AcDbEntity
  8
001
370
    50
100
AcDb2dPolyline
 66
     1
 10
0.0
 20
0.0
 30
0.0
  0
VERTEX
  5
327
330
325
100
AcDbEntity
  8
001
370
    50
100
AcDbVertex
100
AcDb2dVertex
 10
148.062211
 20
175.599747
 30
0.0
  0
VERTEX
  5
328
330
325
100
AcDbEntity
  8
001
370
    50
100
AcDbVertex
100
AcDb2dVertex
 10
148.279637
 20
175.600936
 30
0.0
  0
VERTEX
  5
329
330
325
100
AcDbEntity
  8
001
370
    50
100
AcDbVertex
100
AcDb2dVertex
 10
148.597403
 20
175.603808
 30
0.0
  0
VERTEX
  5
32A
330
325
100
AcDbEntity
  8
001
370
    50
100
AcDbVertex
100
AcDb2dVertex
 10
148.915951
 20
175.608271
 30
0.0
  0
VERTEX
  5
32B
330
325
100
AcDbEntity
  8
001
370
    50
100
AcDbVertex
100
AcDb2dVertex
 10
149.133895
 20
175.612101
 30
0.0
  0
SEQEND
  5
326
330
325
100
AcDbEntity
  8
001
370
    50
  0
POLYLINE
  5
32C
330
1F
100
AcDbEntity
  8
001
370
    50
100
AcDb2dPolyline
 66
     1
 10
0.0
 20
0.0
 30
0.0
  0
VERTEX
  5
32E
330
32C
100
AcDbEntity
  8
001
370
    50
100
AcDbVertex
100
AcDb2dVertex
 10
149.133895
 20
175.612101
 30
0.0
  0
VERTEX
  5
32F
330
32C
100
AcDbEntity
  8
001
370
    50
100
AcDbVertex
100
AcDb2dVertex
 10
149.198628
 20
175.677107
 30
0.0
  0
VERTEX
  5
330
330
32C
100
AcDbEntity
  8
001
370
    50
100
AcDbVertex
100
AcDb2dVertex
 10
149.293187
 20
175.772166
 30
0.0
  0
VERTEX
  5
331
330
32C
100
AcDbEntity
  8
001
370
    50
100
AcDbVertex
100
AcDb2dVertex
 10
149.387839
 20
175.867463
 30
0.0
  0
VERTEX
  5
332
330
32C
100
AcDbEntity
  8
001
370
    50
100
AcDbVertex
100
AcDb2dVertex
 10
149.452566
 20
175.932702
 30
0.0
  0
SEQEND
  5
32D
330
32C
100
AcDbEntity
  8
001
370
    50
  0
POLYLINE
  5
333
330
1F
100
AcDbEntity
  8
001
370
    50
100
AcDb2dPolyline
 66
     1
 10
0.0
 20
0.0
 30
0.0
  0
VERTEX
  5
335
330
333
100
AcDbEntity
  8
001
370
    50
100
AcDbVertex
100
AcDb2dVertex
 10
152.291234
 20
177.599048
 30
0.0
  0
VERTEX
  5
336
330
333
100
AcDbEntity
  8
001
370
    50
100
AcDbVertex
100
AcDb2dVertex
 10
151.955517
 20
177.534955
 30
0.0
  0
VERTEX
  5
337
330
333
100
AcDbEntity
  8
001
370
    50
100
AcDbVertex
100
AcDb2dVertex
 10
151.624301
 20
177.453494
 30
0.0
  0
VERTEX
  5
338
330
333
100
AcDbEntity
  8
001
370
    50
100
AcDbVertex
100
AcDb2dVertex
 10
151.293016
 20
177.337526
 30
0.0
  0
VERTEX
  5
339
330
333
100
AcDbEntity
  8
001
370
    50
100
AcDbVertex
100
AcDb2dVertex
 10
150.973975
 20
177.190594
 30
0.0
  0
VERTEX
  5
33A
330
333
100
AcDbEntity
  8
001
370
    50
100
AcDbVertex
100
AcDb2dVertex
 10
150.933753
 20
177.169673
 30
0.0
  0
VERTEX
  5
33B
330
333
100
AcDbEntity
  8
001
370
    50
100
AcDbVertex
100
AcDb2dVertex
 10
150.893657
 20
177.148541
 30
0.0
  0
SEQEND
  5
334
330
333
100
AcDbEntity
  8
001
370
    50
  0
LINE
  5
33C
330
1F
100
AcDbEntity
  8
001
370
    50
100
AcDbLine
 10
152.683965
 20
177.624789
 30
0.0
 11
152.291234
 21
177.599048
 31
0.0
  0
POLYLINE
  5
33D
330
1F
100
AcDbEntity
  8
001
370
    50
100
AcDb2dPolyline
 66
     1
 10
0.0
 20
0.0
 30
0.0
  0
VERTEX
  5
33F
330
33D
100
AcDbEntity
  8
001
370
    50
100
AcDbVertex
100
AcDb2dVertex
 10
150.893657
 20
177.148541
 30
0.0
  0
VERTEX
  5
340
330
33D
100
AcDbEntity
  8
001
370
    50
100
AcDbVertex
100
AcDb2dVertex
 10
150.65256
 20
177.001328
 30
0.0
  0
VERTEX
  5
341
330
33D
100
AcDbEntity
  8
001
370
    50
100
AcDbVertex
100
AcDb2dVertex
 10
150.420307
 20
176.842347
 30
0.0
  0
VERTEX
  5
342
330
33D
100
AcDbEntity
  8
001
370
    50
100
AcDbVertex
100
AcDb2dVertex
 10
150.198725
 20
176.6601
 30
0.0
  0
VERTEX
  5
343
330
33D
100
AcDbEntity
  8
001
370
    50
100
AcDbVertex
100
AcDb2dVertex
 10
149.986333
 20
176.465626
 30
0.0
  0
SEQEND
  5
33E
330
33D
100
AcDbEntity
  8
001
370
    50
  0
POLYLINE
  5
344
330
1F
100
AcDbEntity
  8
001
370
    50
100
AcDb2dPolyline
 66
     1
 10
0.0
 20
0.0
 30
0.0
  0
VERTEX
  5
346
330
344
100
AcDbEntity
  8
001
370
    50
100
AcDbVertex
100
AcDb2dVertex
 10
149.452566
 20
175.932702
 30
0.0
  0
VERTEX
  5
347
330
344
100
AcDbEntity
  8
001
370
    50
100
AcDbVertex
100
AcDb2dVertex
 10
149.560956
 20
176.040579
 30
0.0
  0
VERTEX
  5
348
330
344
100
AcDbEntity
  8
001
370
    50
100
AcDbVertex
100
AcDb2dVertex
 10
149.719224
 20
176.198392
 30
0.0
  0
VERTEX
  5
349
330
344
100
AcDbEntity
  8
001
370
    50
100
AcDbVertex
100
AcDb2dVertex
 10
149.87788
 20
176.357002
 30
0.0
  0
VERTEX
  5
34A
330
344
100
AcDbEntity
  8
001
370
    50
100
AcDbVertex
100
AcDb2dVertex
 10
149.986333
 20
176.465626
 30
0.0
  0
SEQEND
  5
345
330
344
100
AcDbEntity
  8
001
370
    50
  0
POLYLINE
  5
34B
330
1F
100
AcDbEntity
  8
001
370
    50
100
AcDb2dPolyline
 66
     1
 10
0.0
 20
0.0
 30
0.0
  0
VERTEX
  5
34D
330
34B
100
AcDbEntity
  8
001
370
    50
100
AcDbVertex
100
AcDb2dVertex
 10
152.683965
 20
177.624789
 30
0.0
  0
VERTEX
  5
34E
330
34B
100
AcDbEntity
  8
001
370
    50
100
AcDbVertex
100
AcDb2dVertex
 10
152.883261
 20
177.6285
 30
0.0
  0
VERTEX
  5
34F
330
34B
100
AcDbEntity
  8
001
370
    50
100
AcDbVertex
100
AcDb2dVertex
 10
153.174519
 20
177.634882
 30
0.0
  0
VERTEX
  5
350
330
34B
100
AcDbEntity
  8
001
370
    50
100
AcDbVertex
100
AcDb2dVertex
 10
153.465991
 20
177.642605
 30
0.0
  0
VERTEX
  5
351
330
34B
100
AcDbEntity
  8
001
370
    50
100
AcDbVertex
100
AcDb2dVertex
 10
153.665402
 20
177.648544
 30
0.0
  0
SEQEND
  5
34C
330
34B
100
AcDbEntity
  8
001
370
    50
  0
POLYLINE
  5
352
330
1F
100
AcDbEntity
  8
001
370
    50
100
AcDb2dPolyline
 66
     1
 10
0.0
 20
0.0
 30
0.0
  0
VERTEX
  5
354
330
352
100
AcDbEntity
  8
001
370
    50
100
AcDbVertex
100
AcDb2dVertex
 10
153.665402
 20
177.648544
 30
0.0
  0
VERTEX
  5
355
330
352
100
AcDbEntity
  8
001
370
    50
100
AcDbVertex
100
AcDb2dVertex
 10
153.944118
 20
177.652374
 30
0.0
  0
VERTEX
  5
356
330
352
100
AcDbEntity
  8
001
370
    50
100
AcDbVertex
100
AcDb2dVertex
 10
154.351437
 20
177.659859
 30
0.0
  0
VERTEX
  5
357
330
352
100
AcDbEntity
  8
001
370
    50
100
AcDbVertex
100
AcDb2dVertex
 10
154.759274
 20
177.669985
 30
0.0
  0
VERTEX
  5
358
330
352
100
AcDbEntity
  8
001
370
    50
100
AcDbVertex
100
AcDb2dVertex
 10
155.038287
 20
177.678205
 30
0.0
  0
SEQEND
  5
353
330
352
100
AcDbEntity
  8
001
370
    50
  0
POLYLINE
  5
359
330
1F
100
AcDbEntity
  8
001
370
    50
100
AcDb2dPolyline
 66
     1
 10
0.0
 20
0.0
 30
0.0
  0
VERTEX
  5
35B
330
359
100
AcDbEntity
  8
001
370
    50
100
AcDbVertex
100
AcDb2dVertex
 10
155.038287
 20
177.678205
 30
0.0
  0
VERTEX
  5
35C
330
359
100
AcDbEntity
  8
001
370
    50
100
AcDbVertex
100
AcDb2dVertex
 10
155.317006
 20
177.682103
 30
0.0
  0
VERTEX
  5
35D
330
359
100
AcDbEntity
  8
001
370
    50
100
AcDbVertex
100
AcDb2dVertex
 10
155.724329
 20
177.689698
 30
0.0
  0
VERTEX
  5
35E
330
359
100
AcDbEntity
  8
001
370
    50
100
AcDbVertex
100
AcDb2dVertex
 10
156.132103
 20
177.699949
 30
0.0
  0
VERTEX
  5
35F
330
359
100
AcDbEntity
  8
001
370
    50
100
AcDbVertex
100
AcDb2dVertex
 10
156.411074
 20
177.708261
 30
0.0
  0
SEQEND
  5
35A
330
359
100
AcDbEntity
  8
001
370
    50
  0
POLYLINE
  5
360
330
1F
100
AcDbEntity
  8
001
370
    50
100
AcDb2dPolyline
 66
     1
 10
0.0
 20
0.0
 30
0.0
  0
VERTEX
  5
362
330
360
100
AcDbEntity
  8
001
370
    50
100
AcDbVertex
100
AcDb2dVertex
 10
156.411074
 20
177.708261
 30
0.0
  0
VERTEX
  5
363
330
360
100
AcDbEntity
  8
001
370
    50
100
AcDbVertex
100
AcDb2dVertex
 10
156.499218
 20
177.70937
 30
0.0
  0
VERTEX
  5
364
330
360
100
AcDbEntity
  8
001
370
    50
100
AcDbVertex
100
AcDb2dVertex
 10
156.628042
 20
177.711182
 30
0.0
  0
VERTEX
  5
365
330
360
100
AcDbEntity
  8
001
370
    50
100
AcDbVertex
100
AcDb2dVertex
 10
156.756942
 20
177.713262
 30
0.0
  0
VERTEX
  5
366
330
360
100
AcDbEntity
  8
001
370
    50
100
AcDbVertex
100
AcDb2dVertex
 10
156.845135
 20
177.714816
 30
0.0
  0
SEQEND
  5
361
330
360
100
AcDbEntity
  8
001
370
    50
  0
POLYLINE
  5
367
330
1F
100
AcDbEntity
  8
001
370
    50
100
AcDb2dPolyline
 66
     1
 10
0.0
 20
0.0
 30
0.0
  0
VERTEX
  5
369
330
367
100
AcDbEntity
  8
001
370
    50
100
AcDbVertex
100
AcDb2dVertex
 10
157.81602
 20
178.283264
 30
0.0
  0
VERTEX
  5
36A
330
367
100
AcDbEntity
  8
001
370
    50
100
AcDbVertex
100
AcDb2dVertex
 10
157.553469
 20
178.171348
 30
0.0
  0
VERTEX
  5
36B
330
367
100
AcDbEntity
  8
001
370
    50
100
AcDbVertex
100
AcDb2dVertex
 10
157.300966
 20
178.042295
 30
0.0
  0
VERTEX
  5
36C
330
367
100
AcDbEntity
  8
001
370
    50
100
AcDbVertex
100
AcDb2dVertex
 10
157.068156
 20
177.886904
 30
0.0
  0
VERTEX
  5
36D
330
367
100
AcDbEntity
  8
001
370
    50
100
AcDbVertex
100
AcDb2dVertex
 10
156.845135
 20
177.714816
 30
0.0
  0
SEQEND
  5
368
330
367
100
AcDbEntity
  8
001
370
    50
  0
LINE
  5
36E
330
1F
100
AcDbEntity
  8
001
370
    50
100
AcDbLine
 10
159.196479
 20
178.444059
 30
0.0
 11
158.845537
 21
178.464473
 31
0.0
  0
POLYLINE
  5
36F
330
1F
100
AcDbEntity
  8
001
370
    50
100
AcDb2dPolyline
 66
     1
 10
0.0
 20
0.0
 30
0.0
  0
VERTEX
  5
371
330
36F
100
AcDbEntity
  8
001
370
    50
100
AcDbVertex
100
AcDb2dVertex
 10
158.845537
 20
178.464473
 30
0.0
  0
VERTEX
  5
372
330
36F
100
AcDbEntity
  8
001
370
    50
100
AcDbVertex
100
AcDb2dVertex
 10
158.733739
 20
178.461471
 30
0.0
  0
VERTEX
  5
373
330
36F
100
AcDbEntity
  8
001
370
    50
100
AcDbVertex
100
AcDb2dVertex
 10
158.622015
 20
178.456173
 30
0.0
  0
VERTEX
  5
374
330
36F
100
AcDbEntity
  8
001
370
    50
100
AcDbVertex
100
AcDb2dVertex
 10
158.418253
 20
178.435191
 30
0.0
  0
VERTEX
  5
375
330
36F
100
AcDbEntity
  8
001
370
    50
100
AcDbVertex
100
AcDb2dVertex
 10
158.216858
 20
178.39823
 30
0.0
  0
VERTEX
  5
376
330
36F
100
AcDbEntity
  8
001
370
    50
100
AcDbVertex
100
AcDb2dVertex
 10
158.015339
 20
178.345052
 30
0.0
  0
VERTEX
  5
377
330
36F
100
AcDbEntity
  8
001
370
    50
100
AcDbVertex
100
AcDb2dVertex
 10
157.81602
 20
178.283264
 30
0.0
  0
SEQEND
  5
370
330
36F
100
AcDbEntity
  8
001
370
    50
  0
POLYLINE
  5
378
330
1F
100
AcDbEntity
  8
001
370
    50
100
AcDb2dPolyline
 66
     1
 10
0.0
 20
0.0
 30
0.0
  0
VERTEX
  5
37A
330
378
100
AcDbEntity
  8
001
370
    50
100
AcDbVertex
100
AcDb2dVertex
 10
160.536747
 20
177.93346
 30
0.0
  0
VERTEX
  5
37B
330
378
100
AcDbEntity
  8
001
370
    50
100
AcDbVertex
100
AcDb2dVertex
 10
160.499875
 20
177.958678
 30
0.0
  0
VERTEX
  5
37C
330
378
100
AcDbEntity
  8
001
370
    50
100
AcDbVertex
100
AcDb2dVertex
 10
160.462792
 20
177.983579
 30
0.0
  0
VERTEX
  5
37D
330
378
100
AcDbEntity
  8
001
370
    50
100
AcDbVertex
100
AcDb2dVertex
 10
160.252824
 20
178.109172
 30
0.0
  0
VERTEX
  5
37E
330
378
100
AcDbEntity
  8
001
370
    50
100
AcDbVertex
100
AcDb2dVertex
 10
160.032654
 20
178.216726
 30
0.0
  0
VERTEX
  5
37F
330
378
100
AcDbEntity
  8
001
370
    50
100
AcDbVertex
100
AcDb2dVertex
 10
159.797867
 20
178.308711
 30
0.0
  0
VERTEX
  5
380
330
378
100
AcDbEntity
  8
001
370
    50
100
AcDbVertex
100
AcDb2dVertex
 10
159.556118
 20
178.378657
 30
0.0
  0
VERTEX
  5
381
330
378
100
AcDbEntity
  8
001
370
    50
100
AcDbVertex
100
AcDb2dVertex
 10
159.377053
 20
178.414785
 30
0.0
  0
VERTEX
  5
382
330
378
100
AcDbEntity
  8
001
370
    50
100
AcDbVertex
100
AcDb2dVertex
 10
159.196479
 20
178.444059
 30
0.0
  0
SEQEND
  5
379
330
378
100
AcDbEntity
  8
001
370
    50
  0
LINE
  5
383
330
1F
100
AcDbEntity
  8
001
370
    50
100
AcDbLine
 10
160.706632
 20
177.803105
 30
0.0
 11
160.536747
 21
177.93346
 31
0.0
  0
POLYLINE
  5
384
330
1F
100
AcDbEntity
  8
001
370
    50
100
AcDb2dPolyline
 66
     1
 10
0.0
 20
0.0
 30
0.0
  0
VERTEX
  5
386
330
384
100
AcDbEntity
  8
001
370
    50
100
AcDbVertex
100
AcDb2dVertex
 10
160.837615
 20
173.363692
 30
0.0
  0
VERTEX
  5
387
330
384
100
AcDbEntity
  8
001
370
    50
100
AcDbVertex
100
AcDb2dVertex
 10
160.970379
 20
173.508751
 30
0.0
  0
VERTEX
  5
388
330
384
100
AcDbEntity
  8
001
370
    50
100
AcDbVertex
100
AcDb2dVertex
 10
161.097215
 20
173.65866
 30
0.0
  0
VERTEX
  5
389
330
384
100
AcDbEntity
  8
001
370
    50
100
AcDbVertex
100
AcDb2dVertex
 10
161.21314
 20
173.816861
 30
0.0
  0
VERTEX
  5
38A
330
384
100
AcDbEntity
  8
001
370
    50
100
AcDbVertex
100
AcDb2dVertex
 10
161.318114
 20
173.982812
 30
0.0
  0
VERTEX
  5
38B
330
384
100
AcDbEntity
  8
001
370
    50
100
AcDbVertex
100
AcDb2dVertex
 10
161.437996
 20
174.205209
 30
0.0
  0
VERTEX
  5
38C
330
384
100
AcDbEntity
  8
001
370
    50
100
AcDbVertex
100
AcDb2dVertex
 10
161.540045
 20
174.436243
 30
0.0
  0
VERTEX
  5
38D
330
384
100
AcDbEntity
  8
001
370
    50
100
AcDbVertex
100
AcDb2dVertex
 10
161.622878
 20
174.673812
 30
0.0
  0
VERTEX
  5
38E
330
384
100
AcDbEntity
  8
001
370
    50
100
AcDbVertex
100
AcDb2dVertex
 10
161.686037
 20
174.917354
 30
0.0
  0
VERTEX
  5
38F
330
384
100
AcDbEntity
  8
001
370
    50
100
AcDbVertex
100
AcDb2dVertex
 10
161.72957
 20
175.17127
 30
0.0
  0
VERTEX
  5
390
330
384
100
AcDbEntity
  8
001
370
    50
100
AcDbVertex
100
AcDb2dVertex
 10
161.751547
 20
175.428014
 30
0.0
  0
VERTEX
  5
391
330
384
100
AcDbEntity
  8
001
370
    50
100
AcDbVertex
100
AcDb2dVertex
 10
161.751858
 20
175.684953
 30
0.0
  0
VERTEX
  5
392
330
384
100
AcDbEntity
  8
001
370
    50
100
AcDbVertex
100
AcDb2dVertex
 10
161.729949
 20
175.940817
 30
0.0
  0
VERTEX
  5
393
330
384
100
AcDbEntity
  8
001
370
    50
100
AcDbVertex
100
AcDb2dVertex
 10
161.685687
 20
176.192471
 30
0.0
  0
VERTEX
  5
394
330
384
100
AcDbEntity
  8
001
370
    50
100
AcDbVertex
100
AcDb2dVertex
 10
161.620163
 20
176.439759
 30
0.0
  0
VERTEX
  5
395
330
384
100
AcDbEntity
  8
001
370
    50
100
AcDbVertex
100
AcDb2dVertex
 10
161.534295
 20
176.680676
 30
0.0
  0
VERTEX
  5
396
330
384
100
AcDbEntity
  8
001
370
    50
100
AcDbVertex
100
AcDb2dVertex
 10
161.425979
 20
176.911664
 30
0.0
  0
VERTEX
  5
397
330
384
100
AcDbEntity
  8
001
370
    50
100
AcDbVertex
100
AcDb2dVertex
 10
161.288811
 20
177.139555
 30
0.0
  0
VERTEX
  5
398
330
384
100
AcDbEntity
  8
001
370
    50
100
AcDbVertex
100
AcDb2dVertex
 10
161.137915
 20
177.359654
 30
0.0
  0
SEQEND
  5
385
330
384
100
AcDbEntity
  8
001
370
    50
  0
LINE
  5
399
330
1F
100
AcDbEntity
  8
001
370
    50
100
AcDbLine
 10
145.572474
 20
175.514106
 30
0.0
 11
145.572474
 21
200.205778
 31
0.0
  0
LINE
  5
39A
330
1F
100
AcDbEntity
  8
001
370
    50
100
AcDbLine
 10
147.472474
 20
196.756655
 30
0.0
 11
147.472474
 21
207.905778
 31
0.0
  0
LINE
  5
39B
330
1F
100
AcDbEntity
  8
001
370
    50
100
AcDbLine
 10
177.772474
 20
190.978781
 30
0.0
 11
177.772474
 21
207.905778
 31
0.0
  0
LINE
  5
39C
330
1F
100
AcDbEntity
  8
001
370
    50
100
AcDbLine
 10
183.856313
 20
185.533008
 30
0.0
 11
183.856313
 21
214.205778
 31
0.0
  0
LINE
  5
39D
330
1F
100
AcDbEntity
  8
001
370
    50
100
AcDbLine
 10
160.706632
 20
177.803105
 30
0.0
 11
161.137915
 21
177.359654
 31
0.0
  0
LINE
  5
39E
330
1F
100
AcDbEntity
  8
001
370
    50
100
AcDbLine
 10
149.133895
 20
175.612101
 30
0.0
 11
149.114762
 21
175.535162
 31
0.0
  0
POLYLINE
  5
39F
330
1F
100
AcDbEntity
  8
001
370
    50
100
AcDb2dPolyline
 66
     1
 10
0.0
 20
0.0
 30
0.0
  0
VERTEX
  5
3A1
330
39F
100
AcDbEntity
  8
001
370
    50
100
AcDbVertex
100
AcDb2dVertex
 10
151.753158
 20
176.188499
 30
0.0
  0
VERTEX
  5
3A2
330
39F
100
AcDbEntity
  8
001
370
    50
100
AcDbVertex
100
AcDb2dVertex
 10
151.554379
 20
176.177268
 30
0.0
  0
VERTEX
  5
3A3
330
39F
100
AcDbEntity
  8
001
370
    50
100
AcDbVertex
100
AcDb2dVertex
 10
151.2818
 20
176.142254
 30
0.0
  0
VERTEX
  5
3A4
330
39F
100
AcDbEntity
  8
001
370
    50
100
AcDbVertex
100
AcDb2dVertex
 10
151.03952
 20
176.082954
 30
0.0
  0
VERTEX
  5
3A5
330
39F
100
AcDbEntity
  8
001
370
    50
100
AcDbVertex
100
AcDb2dVertex
 10
150.827882
 20
176.00523
 30
0.0
  0
VERTEX
  5
3A6
330
39F
100
AcDbEntity
  8
001
370
    50
100
AcDbVertex
100
AcDb2dVertex
 10
150.62248
 20
175.911141
 30
0.0
  0
VERTEX
  5
3A7
330
39F
100
AcDbEntity
  8
001
370
    50
100
AcDbVertex
100
AcDb2dVertex
 10
150.408194
 20
175.782498
 30
0.0
  0
VERTEX
  5
3A8
330
39F
100
AcDbEntity
  8
001
370
    50
100
AcDbVertex
100
AcDb2dVertex
 10
150.238028
 20
175.655078
 30
0.0
  0
VERTEX
  5
3A9
330
39F
100
AcDbEntity
  8
001
370
    50
100
AcDbVertex
100
AcDb2dVertex
 10
150.09544
 20
175.535162
 30
0.0
  0
SEQEND
  5
3A0
330
39F
100
AcDbEntity
  8
001
370
    50
  0
LINE
  5
3AA
330
1F
100
AcDbEntity
  8
001
370
    50
100
AcDbLine
 10
152.056274
 20
176.188499
 30
0.0
 11
151.753158
 21
176.188499
 31
0.0
  0
POLYLINE
  5
3AB
330
1F
100
AcDbEntity
  8
001
370
    50
100
AcDb2dPolyline
 66
     1
 10
0.0
 20
0.0
 30
0.0
  0
VERTEX
  5
3AD
330
3AB
100
AcDbEntity
  8
001
370
    50
100
AcDbVertex
100
AcDb2dVertex
 10
156.845135
 20
177.714816
 30
0.0
  0
VERTEX
  5
3AE
330
3AB
100
AcDbEntity
  8
001
370
    50
100
AcDbVertex
100
AcDb2dVertex
 10
156.678863
 20
177.614684
 30
0.0
  0
VERTEX
  5
3AF
330
3AB
100
AcDbEntity
  8
001
370
    50
100
AcDbVertex
100
AcDb2dVertex
 10
156.4426
 20
177.464473
 30
0.0
  0
SEQEND
  5
3AC
330
3AB
100
AcDbEntity
  8
001
370
    50
  0
POLYLINE
  5
3B0
330
1F
100
AcDbEntity
  8
001
370
    50
100
AcDb2dPolyline
 66
     1
 10
0.0
 20
0.0
 30
0.0
  0
VERTEX
  5
3B2
330
3B0
100
AcDbEntity
  8
001
370
    50
100
AcDbVertex
100
AcDb2dVertex
 10
158.706297
 20
172.609421
 30
0.0
  0
VERTEX
  5
3B3
330
3B0
100
AcDbEntity
  8
001
370
    50
100
AcDbVertex
100
AcDb2dVertex
 10
158.866538
 20
172.666495
 30
0.0
  0
VERTEX
  5
3B4
330
3B0
100
AcDbEntity
  8
001
370
    50
100
AcDbVertex
100
AcDb2dVertex
 10
159.0301
 20
172.73235
 30
0.0
  0
VERTEX
  5
3B5
330
3B0
100
AcDbEntity
  8
001
370
    50
100
AcDbVertex
100
AcDb2dVertex
 10
159.280911
 20
172.859207
 30
0.0
  0
VERTEX
  5
3B6
330
3B0
100
AcDbEntity
  8
001
370
    50
100
AcDbVertex
100
AcDb2dVertex
 10
159.497069
 20
173.001852
 30
0.0
  0
VERTEX
  5
3B7
330
3B0
100
AcDbEntity
  8
001
370
    50
100
AcDbVertex
100
AcDb2dVertex
 10
159.707675
 20
173.167161
 30
0.0
  0
VERTEX
  5
3B8
330
3B0
100
AcDbEntity
  8
001
370
    50
100
AcDbVertex
100
AcDb2dVertex
 10
159.908269
 20
173.352748
 30
0.0
  0
VERTEX
  5
3B9
330
3B0
100
AcDbEntity
  8
001
370
    50
100
AcDbVertex
100
AcDb2dVertex
 10
160.08954
 20
173.555543
 30
0.0
  0
VERTEX
  5
3BA
330
3B0
100
AcDbEntity
  8
001
370
    50
100
AcDbVertex
100
AcDb2dVertex
 10
160.250109
 20
173.773442
 30
0.0
  0
VERTEX
  5
3BB
330
3B0
100
AcDbEntity
  8
001
370
    50
100
AcDbVertex
100
AcDb2dVertex
 10
160.39124
 20
174.005784
 30
0.0
  0
VERTEX
  5
3BC
330
3B0
100
AcDbEntity
  8
001
370
    50
100
AcDbVertex
100
AcDb2dVertex
 10
160.51129
 20
174.250029
 30
0.0
  0
VERTEX
  5
3BD
330
3B0
100
AcDbEntity
  8
001
370
    50
100
AcDbVertex
100
AcDb2dVertex
 10
160.60891
 20
174.504542
 30
0.0
  0
VERTEX
  5
3BE
330
3B0
100
AcDbEntity
  8
001
370
    50
100
AcDbVertex
100
AcDb2dVertex
 10
160.683179
 20
174.766755
 30
0.0
  0
VERTEX
  5
3BF
330
3B0
100
AcDbEntity
  8
001
370
    50
100
AcDbVertex
100
AcDb2dVertex
 10
160.733726
 20
175.03492
 30
0.0
  0
VERTEX
  5
3C0
330
3B0
100
AcDbEntity
  8
001
370
    50
100
AcDbVertex
100
AcDb2dVertex
 10
160.760096
 20
175.306543
 30
0.0
  0
VERTEX
  5
3C1
330
3B0
100
AcDbEntity
  8
001
370
    50
100
AcDbVertex
100
AcDb2dVertex
 10
160.76202
 20
175.579509
 30
0.0
  0
VERTEX
  5
3C2
330
3B0
100
AcDbEntity
  8
001
370
    50
100
AcDbVertex
100
AcDb2dVertex
 10
160.739497
 20
175.851551
 30
0.0
  0
VERTEX
  5
3C3
330
3B0
100
AcDbEntity
  8
001
370
    50
100
AcDbVertex
100
AcDb2dVertex
 10
160.692709
 20
176.120296
 30
0.0
  0
VERTEX
  5
3C4
330
3B0
100
AcDbEntity
  8
001
370
    50
100
AcDbVertex
100
AcDb2dVertex
 10
160.622064
 20
176.383765
 30
0.0
  0
VERTEX
  5
3C5
330
3B0
100
AcDbEntity
  8
001
370
    50
100
AcDbVertex
100
AcDb2dVertex
 10
160.52823
 20
176.639407
 30
0.0
  0
VERTEX
  5
3C6
330
3B0
100
AcDbEntity
  8
001
370
    50
100
AcDbVertex
100
AcDb2dVertex
 10
160.411678
 20
176.885594
 30
0.0
  0
VERTEX
  5
3C7
330
3B0
100
AcDbEntity
  8
001
370
    50
100
AcDbVertex
100
AcDb2dVertex
 10
160.273553
 20
177.119765
 30
0.0
  0
VERTEX
  5
3C8
330
3B0
100
AcDbEntity
  8
001
370
    50
100
AcDbVertex
100
AcDb2dVertex
 10
160.115293
 20
177.340452
 30
0.0
  0
VERTEX
  5
3C9
330
3B0
100
AcDbEntity
  8
001
370
    50
100
AcDbVertex
100
AcDb2dVertex
 10
159.938751
 20
177.545211
 30
0.0
  0
VERTEX
  5
3CA
330
3B0
100
AcDbEntity
  8
001
370
    50
100
AcDbVertex
100
AcDb2dVertex
 10
159.742704
 20
177.733304
 30
0.0
  0
VERTEX
  5
3CB
330
3B0
100
AcDbEntity
  8
001
370
    50
100
AcDbVertex
100
AcDb2dVertex
 10
159.52869
 20
177.902737
 30
0.0
  0
VERTEX
  5
3CC
330
3B0
100
AcDbEntity
  8
001
370
    50
100
AcDbVertex
100
AcDb2dVertex
 10
159.306228
 20
178.051166
 30
0.0
  0
VERTEX
  5
3CD
330
3B0
100
AcDbEntity
  8
001
370
    50
100
AcDbVertex
100
AcDb2dVertex
 10
159.079917
 20
178.176577
 30
0.0
  0
VERTEX
  5
3CE
330
3B0
100
AcDbEntity
  8
001
370
    50
100
AcDbVertex
100
AcDb2dVertex
 10
158.820291
 20
178.283532
 30
0.0
  0
VERTEX
  5
3CF
330
3B0
100
AcDbEntity
  8
001
370
    50
100
AcDbVertex
100
AcDb2dVertex
 10
158.521707
 20
178.372314
 30
0.0
  0
VERTEX
  5
3D0
330
3B0
100
AcDbEntity
  8
001
370
    50
100
AcDbVertex
100
AcDb2dVertex
 10
158.300953
 20
178.422722
 30
0.0
  0
SEQEND
  5
3B1
330
3B0
100
AcDbEntity
  8
001
370
    50
  0
POLYLINE
  5
3D1
330
1F
100
AcDbEntity
  8
001
370
    50
100
AcDb2dPolyline
 66
     1
 10
0.0
 20
0.0
 30
0.0
  0
VERTEX
  5
3D3
330
3D1
100
AcDbEntity
  8
001
370
    50
100
AcDbVertex
100
AcDb2dVertex
 10
158.706297
 20
172.586232
 30
0.0
  0
VERTEX
  5
3D4
330
3D1
100
AcDbEntity
  8
001
370
    50
100
AcDbVertex
100
AcDb2dVertex
 10
159.027221
 20
172.6533
 30
0.0
  0
VERTEX
  5
3D5
330
3D1
100
AcDbEntity
  8
001
370
    50
100
AcDbVertex
100
AcDb2dVertex
 10
159.371552
 20
172.734471
 30
0.0
  0
VERTEX
  5
3D6
330
3D1
100
AcDbEntity
  8
001
370
    50
100
AcDbVertex
100
AcDb2dVertex
 10
159.7676
 20
172.851113
 30
0.0
  0
VERTEX
  5
3D7
330
3D1
100
AcDbEntity
  8
001
370
    50
100
AcDbVertex
100
AcDb2dVertex
 10
160.151918
 20
173.007718
 30
0.0
  0
VERTEX
  5
3D8
330
3D1
100
AcDbEntity
  8
001
370
    50
100
AcDbVertex
100
AcDb2dVertex
 10
160.550943
 20
173.204859
 30
0.0
  0
VERTEX
  5
3D9
330
3D1
100
AcDbEntity
  8
001
370
    50
100
AcDbVertex
100
AcDb2dVertex
 10
160.837615
 20
173.363692
 30
0.0
  0
SEQEND
  5
3D2
330
3D1
100
AcDbEntity
  8
001
370
    50
  0
POLYLINE
  5
3DA
330
1F
100
AcDbEntity
  8
001
370
    50
100
AcDb2dPolyline
 66
     1
 10
0.0
 20
0.0
 30
0.0
  0
VERTEX
  5
3DC
330
3DA
100
AcDbEntity
  8
001
370
    50
100
AcDbVertex
100
AcDb2dVertex
 10
160.837615
 20
173.363692
 30
0.0
  0
VERTEX
  5
3DD
330
3DA
100
AcDbEntity
  8
001
370
    50
100
AcDbVertex
100
AcDb2dVertex
 10
160.714176
 20
171.610361
 30
0.0
  0
VERTEX
  5
3DE
330
3DA
100
AcDbEntity
  8
001
370
    50
100
AcDbVertex
100
AcDb2dVertex
 10
160.539673
 20
169.026677
 30
0.0
  0
SEQEND
  5
3DB
330
3DA
100
AcDbEntity
  8
001
370
    50
  0
POLYLINE
  5
3DF
330
1F
100
AcDbEntity
  8
001
370
    50
100
AcDb2dPolyline
 66
     1
 10
0.0
 20
0.0
 30
0.0
  0
VERTEX
  5
3E1
330
3DF
100
AcDbEntity
  8
001
370
    50
100
AcDbVertex
100
AcDb2dVertex
 10
160.206602
 20
163.620182
 30
0.0
  0
VERTEX
  5
3E2
330
3DF
100
AcDbEntity
  8
001
370
    50
100
AcDbVertex
100
AcDb2dVertex
 10
160.184092
 20
163.230447
 30
0.0
  0
VERTEX
  5
3E3
330
3DF
100
AcDbEntity
  8
001
370
    50
100
AcDbVertex
100
AcDb2dVertex
 10
160.166163
 20
162.916687
 30
0.0
  0
SEQEND
  5
3E0
330
3DF
100
AcDbEntity
  8
001
370
    50
  0
LINE
  5
3E4
330
1F
100
AcDbEntity
  8
001
370
    50
100
AcDbLine
 10
158.522795
 20
163.305971
 30
0.0
 11
158.522795
 21
163.518784
 31
0.0
  0
POLYLINE
  5
3E5
330
1F
100
AcDbEntity
  8
001
370
    50
100
AcDb2dPolyline
 66
     1
 10
0.0
 20
0.0
 30
0.0
  0
VERTEX
  5
3E7
330
3E5
100
AcDbEntity
  8
001
370
    50
100
AcDbVertex
100
AcDb2dVertex
 10
153.82508
 20
163.163714
 30
0.0
  0
VERTEX
  5
3E8
330
3E5
100
AcDbEntity
  8
001
370
    50
100
AcDbVertex
100
AcDb2dVertex
 10
156.623124
 20
163.245044
 30
0.0
  0
VERTEX
  5
3E9
330
3E5
100
AcDbEntity
  8
001
370
    50
100
AcDbVertex
100
AcDb2dVertex
 10
158.522795
 20
163.305971
 30
0.0
  0
SEQEND
  5
3E6
330
3E5
100
AcDbEntity
  8
001
370
    50
  0
LINE
  5
3EA
330
1F
100
AcDbEntity
  8
001
  6
CENTER
370
     9
100
AcDbLine
 10
143.644189
 20
185.405778
 30
0.0
 11
324.227472
 21
185.405778
 31
0.0
  0
LINE
  5
3EB
330
1F
100
AcDbEntity
  8
001
370
    50
100
AcDbLine
 10
243.972474
 20
169.405778
 30
0.0
 11
243.972474
 21
201.405778
 31
0.0
  0
LINE
  5
3EC
330
1F
100
AcDbEntity
  8
001
370
    50
100
AcDbLine
 10
243.972474
 20
200.905778
 30
0.0
 11
240.972474
 21
200.905778
 31
0.0
  0
LINE
  5
3ED
330
1F
100
AcDbEntity
  8
001
370
    50
100
AcDbLine
 10
240.972474
 20
169.905778
 30
0.0
 11
243.972474
 21
169.905778
 31
0.0
  0
LINE
  5
3EE
330
1F
100
AcDbEntity
  8
001
370
    50
100
AcDbLine
 10
320.972474
 20
185.405778
 30
0.0
 11
324.436576
 21
187.405778
 31
0.0
  0
LINE
  5
3EF
330
1F
100
AcDbEntity
  8
001
370
    50
100
AcDbLine
 10
320.972474
 20
185.405778
 30
0.0
 11
324.436576
 21
183.405778
 31
0.0
  0
CIRCLE
  5
3F0
330
1F
100
AcDbEntity
  8
001
370
    50
100
AcDbCircle
 10
185.893787
 20
164.699844
 30
0.0
 40
3.25
  0
LINE
  5
3F1
330
1F
100
AcDbEntity
  8
001
370
    50
100
AcDbLine
 10
185.157665
 20
165.974844
 30
0.0
 11
185.547377
 21
166.649844
 31
0.0
  0
LINE
  5
3F2
330
1F
100
AcDbEntity
  8
001
370
    50
100
AcDbLine
 10
186.629908
 20
165.974844
 30
0.0
 11
186.240197
 21
166.649844
 31
0.0
  0
ARC
  5
3F3
330
1F
100
AcDbEntity
  8
001
370
    50
100
AcDbCircle
 10
185.893787
 20
166.449844
 30
0.0
 40
0.4
100
AcDbArc
 50
30.0
 51
150.0
  0
LINE
  5
3F4
330
1F
100
AcDbEntity
  8
001
370
    50
100
AcDbLine
 10
184.421544
 20
164.699844
 30
0.0
 11
184.031832
 21
165.374844
 31
0.0
  0
LINE
  5
3F5
330
1F
100
AcDbEntity
  8
001
370
    50
100
AcDbLine
 10
185.157665
 20
165.974844
 30
0.0
 11
184.378242
 21
165.974844
 31
0.0
  0
ARC
  5
3F6
330
1F
100
AcDbEntity
  8
001
370
    50
100
AcDbCircle
 10
184.378242
 20
165.574844
 30
0.0
 40
0.4
100
AcDbArc
 50
90.0
 51
210.0
  0
LINE
  5
3F7
330
1F
100
AcDbEntity
  8
001
370
    50
100
AcDbLine
 10
185.157665
 20
163.424844
 30
0.0
 11
184.378242
 21
163.424844
 31
0.0
  0
LINE
  5
3F8
330
1F
100
AcDbEntity
  8
001
370
    50
100
AcDbLine
 10
184.421544
 20
164.699844
 30
0.0
 11
184.031832
 21
164.024844
 31
0.0
  0
ARC
  5
3F9
330
1F
100
AcDbEntity
  8
001
370
    50
100
AcDbCircle
 10
184.378242
 20
163.824844
 30
0.0
 40
0.4
100
AcDbArc
 50
150.0
 51
270.0
  0
LINE
  5
3FA
330
1F
100
AcDbEntity
  8
001
370
    50
100
AcDbLine
 10
186.629908
 20
163.424844
 30
0.0
 11
186.240197
 21
162.749844
 31
0.0
  0
LINE
  5
3FB
330
1F
100
AcDbEntity
  8
001
370
    50
100
AcDbLine
 10
185.157665
 20
163.424844
 30
0.0
 11
185.547377
 21
162.749844
 31
0.0
  0
ARC
  5
3FC
330
1F
100
AcDbEntity
  8
001
370
    50
100
AcDbCircle
 10
185.893787
 20
162.949844
 30
0.0
 40
0.4
100
AcDbArc
 50
210.0
 51
330.0
  0
LINE
  5
3FD
330
1F
100
AcDbEntity
  8
001
370
    50
100
AcDbLine
 10
187.36603
 20
164.699844
 30
0.0
 11
187.755741
 21
164.024844
 31
0.0
  0
LINE
  5
3FE
330
1F
100
AcDbEntity
  8
001
370
    50
100
AcDbLine
 10
186.629908
 20
163.424844
 30
0.0
 11
187.409331
 21
163.424844
 31
0.0
  0
ARC
  5
3FF
330
1F
100
AcDbEntity
  8
001
370
    50
100
AcDbCircle
 10
187.409331
 20
163.824844
 30
0.0
 40
0.4
100
AcDbArc
 50
270.0
 51
30.0
  0
LINE
  5
400
330
1F
100
AcDbEntity
  8
001
370
    50
100
AcDbLine
 10
186.629908
 20
165.974844
 30
0.0
 11
187.409331
 21
165.974844
 31
0.0
  0
LINE
  5
401
330
1F
100
AcDbEntity
  8
001
370
    50
100
AcDbLine
 10
187.36603
 20
164.699844
 30
0.0
 11
187.755741
 21
165.374844
 31
0.0
  0
ARC
  5
402
330
1F
100
AcDbEntity
  8
001
370
    50
100
AcDbCircle
 10
187.409331
 20
165.574844
 30
0.0
 40
0.4
100
AcDbArc
 50
330.0
 51
90.0
  0
POLYLINE
  5
403
330
1F
100
AcDbEntity
  8
001
370
    50
100
AcDb2dPolyline
 66
     1
 10
0.0
 20
0.0
 30
0.0
  0
VERTEX
  5
405
330
403
100
AcDbEntity
  8
001
370
    50
100
AcDbVertex
100
AcDb2dVertex
 10
185.86747
 20
168.451477
 30
0.0
  0
VERTEX
  5
406
330
403
100
AcDbEntity
  8
001
370
    50
100
AcDbVertex
100
AcDb2dVertex
 10
185.596723
 20
168.437193
 30
0.0
  0
VERTEX
  5
407
330
403
100
AcDbEntity
  8
001
370
    50
100
AcDbVertex
100
AcDb2dVertex
 10
185.226182
 20
168.394506
 30
0.0
  0
VERTEX
  5
408
330
403
100
AcDbEntity
  8
001
370
    50
100
AcDbVertex
100
AcDb2dVertex
 10
184.897813
 20
168.323665
 30
0.0
  0
VERTEX
  5
409
330
403
100
AcDbEntity
  8
001
370
    50
100
AcDbVertex
100
AcDb2dVertex
 10
184.60438
 20
168.225324
 30
0.0
  0
VERTEX
  5
40A
330
403
100
AcDbEntity
  8
001
370
    50
100
AcDbVertex
100
AcDb2dVertex
 10
184.310271
 20
168.100032
 30
0.0
  0
VERTEX
  5
40B
330
403
100
AcDbEntity
  8
001
370
    50
100
AcDbVertex
100
AcDb2dVertex
 10
184.020955
 20
167.949072
 30
0.0
  0
VERTEX
  5
40C
330
403
100
AcDbEntity
  8
001
370
    50
100
AcDbVertex
100
AcDb2dVertex
 10
183.748083
 20
167.773242
 30
0.0
  0
VERTEX
  5
40D
330
403
100
AcDbEntity
  8
001
370
    50
100
AcDbVertex
100
AcDb2dVertex
 10
183.493637
 20
167.574144
 30
0.0
  0
VERTEX
  5
40E
330
403
100
AcDbEntity
  8
001
370
    50
100
AcDbVertex
100
AcDb2dVertex
 10
183.256225
 20
167.352703
 30
0.0
  0
VERTEX
  5
40F
330
403
100
AcDbEntity
  8
001
370
    50
100
AcDbVertex
100
AcDb2dVertex
 10
183.038445
 20
167.111931
 30
0.0
  0
VERTEX
  5
410
330
403
100
AcDbEntity
  8
001
370
    50
100
AcDbVertex
100
AcDb2dVertex
 10
182.842138
 20
166.853208
 30
0.0
  0
VERTEX
  5
411
330
403
100
AcDbEntity
  8
001
370
    50
100
AcDbVertex
100
AcDb2dVertex
 10
182.669213
 20
166.576477
 30
0.0
  0
VERTEX
  5
412
330
403
100
AcDbEntity
  8
001
370
    50
100
AcDbVertex
100
AcDb2dVertex
 10
182.520407
 20
166.28243
 30
0.0
  0
VERTEX
  5
413
330
403
100
AcDbEntity
  8
001
370
    50
100
AcDbVertex
100
AcDb2dVertex
 10
182.397158
 20
165.984053
 30
0.0
  0
VERTEX
  5
414
330
403
100
AcDbEntity
  8
001
370
    50
100
AcDbVertex
100
AcDb2dVertex
 10
182.300253
 20
165.685834
 30
0.0
  0
VERTEX
  5
415
330
403
100
AcDbEntity
  8
001
370
    50
100
AcDbVertex
100
AcDb2dVertex
 10
182.230546
 20
165.352658
 30
0.0
  0
VERTEX
  5
416
330
403
100
AcDbEntity
  8
001
370
    50
100
AcDbVertex
100
AcDb2dVertex
 10
182.188499
 20
164.976356
 30
0.0
  0
VERTEX
  5
417
330
403
100
AcDbEntity
  8
001
370
    50
100
AcDbVertex
100
AcDb2dVertex
 10
182.174441
 20
164.701477
 30
0.0
  0
SEQEND
  5
404
330
403
100
AcDbEntity
  8
001
370
    50
  0
LINE
  5
418
330
1F
100
AcDbEntity
  8
001
370
    50
100
AcDbLine
 10
191.812325
 20
169.886907
 30
0.0
 11
189.085037
 21
169.939114
 31
0.0
  0
LINE
  5
419
330
1F
100
AcDbEntity
  8
001
370
    50
100
AcDbLine
 10
195.033375
 20
166.589802
 30
0.0
 11
191.812325
 21
169.886907
 31
0.0
  0
POLYLINE
  5
41A
330
1F
100
AcDbEntity
  8
001
370
    50
100
AcDb2dPolyline
 66
     1
 10
0.0
 20
0.0
 30
0.0
  0
VERTEX
  5
41C
330
41A
100
AcDbEntity
  8
001
370
    50
100
AcDbVertex
100
AcDb2dVertex
 10
195.028936
 20
165.466926
 30
0.0
  0
VERTEX
  5
41D
330
41A
100
AcDbEntity
  8
001
370
    50
100
AcDbVertex
100
AcDb2dVertex
 10
195.06755
 20
165.510087
 30
0.0
  0
VERTEX
  5
41E
330
41A
100
AcDbEntity
  8
001
370
    50
100
AcDbVertex
100
AcDb2dVertex
 10
195.116966
 20
165.572591
 30
0.0
  0
VERTEX
  5
41F
330
41A
100
AcDbEntity
  8
001
370
    50
100
AcDbVertex
100
AcDb2dVertex
 10
195.155939
 20
165.632981
 30
0.0
  0
VERTEX
  5
420
330
41A
100
AcDbEntity
  8
001
370
    50
100
AcDbVertex
100
AcDb2dVertex
 10
195.18559
 20
165.692173
 30
0.0
  0
VERTEX
  5
421
330
41A
100
AcDbEntity
  8
001
370
    50
100
AcDbVertex
100
AcDb2dVertex
 10
195.211397
 20
165.755531
 30
0.0
  0
VERTEX
  5
422
330
41A
100
AcDbEntity
  8
001
370
    50
100
AcDbVertex
100
AcDb2dVertex
 10
195.232721
 20
165.822038
 30
0.0
  0
VERTEX
  5
423
330
41A
100
AcDbEntity
  8
001
370
    50
100
AcDbVertex
100
AcDb2dVertex
 10
195.247914
 20
165.889759
 30
0.0
  0
VERTEX
  5
424
330
41A
100
AcDbEntity
  8
001
370
    50
100
AcDbVertex
100
AcDb2dVertex
 10
195.256928
 20
165.958241
 30
0.0
  0
VERTEX
  5
425
330
41A
100
AcDbEntity
  8
001
370
    50
100
AcDbVertex
100
AcDb2dVertex
 10
195.260096
 20
166.027431
 30
0.0
  0
VERTEX
  5
426
330
41A
100
AcDbEntity
  8
001
370
    50
100
AcDbVertex
100
AcDb2dVertex
 10
195.257476
 20
166.096644
 30
0.0
  0
VERTEX
  5
427
330
41A
100
AcDbEntity
  8
001
370
    50
100
AcDbVertex
100
AcDb2dVertex
 10
195.249003
 20
166.165198
 30
0.0
  0
VERTEX
  5
428
330
41A
100
AcDbEntity
  8
001
370
    50
100
AcDbVertex
100
AcDb2dVertex
 10
195.234346
 20
166.23304
 30
0.0
  0
VERTEX
  5
429
330
41A
100
AcDbEntity
  8
001
370
    50
100
AcDbVertex
100
AcDb2dVertex
 10
195.213548
 20
166.299719
 30
0.0
  0
VERTEX
  5
42A
330
41A
100
AcDbEntity
  8
001
370
    50
100
AcDbVertex
100
AcDb2dVertex
 10
195.188243
 20
166.363285
 30
0.0
  0
VERTEX
  5
42B
330
41A
100
AcDbEntity
  8
001
370
    50
100
AcDbVertex
100
AcDb2dVertex
 10
195.159061
 20
166.422717
 30
0.0
  0
VERTEX
  5
42C
330
41A
100
AcDbEntity
  8
001
370
    50
100
AcDbVertex
100
AcDb2dVertex
 10
195.120567
 20
166.483423
 30
0.0
  0
VERTEX
  5
42D
330
41A
100
AcDbEntity
  8
001
370
    50
100
AcDbVertex
100
AcDb2dVertex
 10
195.071646
 20
166.546328
 30
0.0
  0
VERTEX
  5
42E
330
41A
100
AcDbEntity
  8
001
370
    50
100
AcDbVertex
100
AcDb2dVertex
 10
195.033375
 20
166.589802
 30
0.0
  0
SEQEND
  5
41B
330
41A
100
AcDbEntity
  8
001
370
    50
  0
LINE
  5
42F
330
1F
100
AcDbEntity
  8
001
370
    50
100
AcDbLine
 10
191.025535
 20
161.434273
 30
0.0
 11
195.028936
 21
165.466926
 31
0.0
  0
LINE
  5
430
330
1F
100
AcDbEntity
  8
001
370
    50
100
AcDbLine
 10
190.974121
 20
158.664913
 30
0.0
 11
191.025535
 21
161.434273
 31
0.0
  0
LINE
  5
431
330
1F
100
AcDbEntity
  8
001
370
    50
100
AcDbLine
 10
187.69494
 20
155.361771
 30
0.0
 11
190.974121
 21
158.664913
 31
0.0
  0
LINE
  5
432
330
1F
100
AcDbEntity
  8
001
370
    50
100
AcDbLine
 10
186.653263
 20
155.365952
 30
0.0
 11
182.706625
 21
159.405778
 31
0.0
  0
POLYLINE
  5
433
330
1F
100
AcDbEntity
  8
001
370
    50
100
AcDb2dPolyline
 66
     1
 10
0.0
 20
0.0
 30
0.0
  0
VERTEX
  5
435
330
433
100
AcDbEntity
  8
001
370
    50
100
AcDbVertex
100
AcDb2dVertex
 10
176.706004
 20
163.699564
 30
0.0
  0
VERTEX
  5
436
330
433
100
AcDbEntity
  8
001
370
    50
100
AcDbVertex
100
AcDb2dVertex
 10
176.66739
 20
163.656404
 30
0.0
  0
VERTEX
  5
437
330
433
100
AcDbEntity
  8
001
370
    50
100
AcDbVertex
100
AcDb2dVertex
 10
176.617973
 20
163.593899
 30
0.0
  0
VERTEX
  5
438
330
433
100
AcDbEntity
  8
001
370
    50
100
AcDbVertex
100
AcDb2dVertex
 10
176.579001
 20
163.533509
 30
0.0
  0
VERTEX
  5
439
330
433
100
AcDbEntity
  8
001
370
    50
100
AcDbVertex
100
AcDb2dVertex
 10
176.54935
 20
163.474317
 30
0.0
  0
VERTEX
  5
43A
330
433
100
AcDbEntity
  8
001
370
    50
100
AcDbVertex
100
AcDb2dVertex
 10
176.523543
 20
163.410959
 30
0.0
  0
VERTEX
  5
43B
330
433
100
AcDbEntity
  8
001
370
    50
100
AcDbVertex
100
AcDb2dVertex
 10
176.502218
 20
163.344452
 30
0.0
  0
VERTEX
  5
43C
330
433
100
AcDbEntity
  8
001
370
    50
100
AcDbVertex
100
AcDb2dVertex
 10
176.487025
 20
163.276731
 30
0.0
  0
VERTEX
  5
43D
330
433
100
AcDbEntity
  8
001
370
    50
100
AcDbVertex
100
AcDb2dVertex
 10
176.478011
 20
163.208249
 30
0.0
  0
VERTEX
  5
43E
330
433
100
AcDbEntity
  8
001
370
    50
100
AcDbVertex
100
AcDb2dVertex
 10
176.474844
 20
163.139059
 30
0.0
  0
VERTEX
  5
43F
330
433
100
AcDbEntity
  8
001
370
    50
100
AcDbVertex
100
AcDb2dVertex
 10
176.477464
 20
163.069847
 30
0.0
  0
VERTEX
  5
440
330
433
100
AcDbEntity
  8
001
370
    50
100
AcDbVertex
100
AcDb2dVertex
 10
176.485937
 20
163.001292
 30
0.0
  0
VERTEX
  5
441
330
433
100
AcDbEntity
  8
001
370
    50
100
AcDbVertex
100
AcDb2dVertex
 10
176.500593
 20
162.93345
 30
0.0
  0
VERTEX
  5
442
330
433
100
AcDbEntity
  8
001
370
    50
100
AcDbVertex
100
AcDb2dVertex
 10
176.521392
 20
162.866771
 30
0.0
  0
VERTEX
  5
443
330
433
100
AcDbEntity
  8
001
370
    50
100
AcDbVertex
100
AcDb2dVertex
 10
176.546697
 20
162.803205
 30
0.0
  0
VERTEX
  5
444
330
433
100
AcDbEntity
  8
001
370
    50
100
AcDbVertex
100
AcDb2dVertex
 10
176.575879
 20
162.743773
 30
0.0
  0
VERTEX
  5
445
330
433
100
AcDbEntity
  8
001
370
    50
100
AcDbVertex
100
AcDb2dVertex
 10
176.614372
 20
162.683067
 30
0.0
  0
VERTEX
  5
446
330
433
100
AcDbEntity
  8
001
370
    50
100
AcDbVertex
100
AcDb2dVertex
 10
176.663293
 20
162.620162
 30
0.0
  0
VERTEX
  5
447
330
433
100
AcDbEntity
  8
001
370
    50
100
AcDbVertex
100
AcDb2dVertex
 10
176.701565
 20
162.576688
 30
0.0
  0
SEQEND
  5
434
330
433
100
AcDbEntity
  8
001
370
    50
  0
LINE
  5
448
330
1F
100
AcDbEntity
  8
001
370
    50
100
AcDbLine
 10
180.704931
 20
167.72771
 30
0.0
 11
176.706004
 21
163.699564
 31
0.0
  0
LINE
  5
449
330
1F
100
AcDbEntity
  8
001
370
    50
100
AcDbLine
 10
180.704931
 20
167.72771
 30
0.0
 11
180.760819
 21
170.738041
 31
0.0
  0
LINE
  5
44A
330
1F
100
AcDbEntity
  8
001
370
    50
100
AcDbLine
 10
184.007833
 20
174.008781
 30
0.0
 11
180.760819
 21
170.738041
 31
0.0
  0
POLYLINE
  5
44B
330
1F
100
AcDbEntity
  8
001
370
    50
100
AcDb2dPolyline
 66
     1
 10
0.0
 20
0.0
 30
0.0
  0
VERTEX
  5
44D
330
44B
100
AcDbEntity
  8
001
370
    50
100
AcDbVertex
100
AcDb2dVertex
 10
185.11365
 20
174.004273
 30
0.0
  0
VERTEX
  5
44E
330
44B
100
AcDbEntity
  8
001
370
    50
100
AcDbVertex
100
AcDb2dVertex
 10
185.071189
 20
174.043449
 30
0.0
  0
VERTEX
  5
44F
330
44B
100
AcDbEntity
  8
001
370
    50
100
AcDbVertex
100
AcDb2dVertex
 10
185.00959
 20
174.093662
 30
0.0
  0
VERTEX
  5
450
330
44B
100
AcDbEntity
  8
001
370
    50
100
AcDbVertex
100
AcDb2dVertex
 10
184.950207
 20
174.133173
 30
0.0
  0
VERTEX
  5
451
330
44B
100
AcDbEntity
  8
001
370
    50
100
AcDbVertex
100
AcDb2dVertex
 10
184.891825
 20
174.163344
 30
0.0
  0
VERTEX
  5
452
330
44B
100
AcDbEntity
  8
001
370
    50
100
AcDbVertex
100
AcDb2dVertex
 10
184.829475
 20
174.189537
 30
0.0
  0
VERTEX
  5
453
330
44B
100
AcDbEntity
  8
001
370
    50
100
AcDbVertex
100
AcDb2dVertex
 10
184.763932
 20
174.211203
 30
0.0
  0
VERTEX
  5
454
330
44B
100
AcDbEntity
  8
001
370
    50
100
AcDbVertex
100
AcDb2dVertex
 10
184.697275
 20
174.22662
 30
0.0
  0
VERTEX
  5
455
330
44B
100
AcDbEntity
  8
001
370
    50
100
AcDbVertex
100
AcDb2dVertex
 10
184.629799
 20
174.235783
 30
0.0
  0
VERTEX
  5
456
330
44B
100
AcDbEntity
  8
001
370
    50
100
AcDbVertex
100
AcDb2dVertex
 10
184.561661
 20
174.239001
 30
0.0
  0
VERTEX
  5
457
330
44B
100
AcDbEntity
  8
001
370
    50
100
AcDbVertex
100
AcDb2dVertex
 10
184.493499
 20
174.236339
 30
0.0
  0
VERTEX
  5
458
330
44B
100
AcDbEntity
  8
001
370
    50
100
AcDbVertex
100
AcDb2dVertex
 10
184.425953
 20
174.227727
 30
0.0
  0
VERTEX
  5
459
330
44B
100
AcDbEntity
  8
001
370
    50
100
AcDbVertex
100
AcDb2dVertex
 10
184.359175
 20
174.212853
 30
0.0
  0
VERTEX
  5
45A
330
44B
100
AcDbEntity
  8
001
370
    50
100
AcDbVertex
100
AcDb2dVertex
 10
184.293464
 20
174.191722
 30
0.0
  0
VERTEX
  5
45B
330
44B
100
AcDbEntity
  8
001
370
    50
100
AcDbVertex
100
AcDb2dVertex
 10
184.230908
 20
174.166038
 30
0.0
  0
VERTEX
  5
45C
330
44B
100
AcDbEntity
  8
001
370
    50
100
AcDbVertex
100
AcDb2dVertex
 10
184.17229
 20
174.136344
 30
0.0
  0
VERTEX
  5
45D
330
44B
100
AcDbEntity
  8
001
370
    50
100
AcDbVertex
100
AcDb2dVertex
 10
184.112596
 20
174.097318
 30
0.0
  0
VERTEX
  5
45E
330
44B
100
AcDbEntity
  8
001
370
    50
100
AcDbVertex
100
AcDb2dVertex
 10
184.050602
 20
174.04761
 30
0.0
  0
VERTEX
  5
45F
330
44B
100
AcDbEntity
  8
001
370
    50
100
AcDbVertex
100
AcDb2dVertex
 10
184.007833
 20
174.008781
 30
0.0
  0
SEQEND
  5
44C
330
44B
100
AcDbEntity
  8
001
370
    50
  0
LINE
  5
460
330
1F
100
AcDbEntity
  8
001
370
    50
100
AcDbLine
 10
189.085037
 20
169.939114
 30
0.0
 11
185.11365
 21
174.004273
 31
0.0
  0
POLYLINE
  5
461
330
1F
100
AcDbEntity
  8
001
370
    50
100
AcDb2dPolyline
 66
     1
 10
0.0
 20
0.0
 30
0.0
  0
VERTEX
  5
463
330
461
100
AcDbEntity
  8
001
370
    50
100
AcDbVertex
100
AcDb2dVertex
 10
182.174441
 20
164.701477
 30
0.0
  0
VERTEX
  5
464
330
461
100
AcDbEntity
  8
001
370
    50
100
AcDbVertex
100
AcDb2dVertex
 10
182.192227
 20
164.392389
 30
0.0
  0
VERTEX
  5
465
330
461
100
AcDbEntity
  8
001
370
    50
100
AcDbVertex
100
AcDb2dVertex
 10
182.245401
 20
163.969888
 30
0.0
  0
VERTEX
  5
466
330
461
100
AcDbEntity
  8
001
370
    50
100
AcDbVertex
100
AcDb2dVertex
 10
182.333452
 20
163.597432
 30
0.0
  0
VERTEX
  5
467
330
461
100
AcDbEntity
  8
001
370
    50
100
AcDbVertex
100
AcDb2dVertex
 10
182.455556
 20
163.266414
 30
0.0
  0
VERTEX
  5
468
330
461
100
AcDbEntity
  8
001
370
    50
100
AcDbVertex
100
AcDb2dVertex
 10
182.610335
 20
162.938119
 30
0.0
  0
VERTEX
  5
469
330
461
100
AcDbEntity
  8
001
370
    50
100
AcDbVertex
100
AcDb2dVertex
 10
182.796828
 20
162.618089
 30
0.0
  0
VERTEX
  5
46A
330
461
100
AcDbEntity
  8
001
370
    50
100
AcDbVertex
100
AcDb2dVertex
 10
183.012863
 20
162.321606
 30
0.0
  0
VERTEX
  5
46B
330
461
100
AcDbEntity
  8
001
370
    50
100
AcDbVertex
100
AcDb2dVertex
 10
183.256104
 20
162.049827
 30
0.0
  0
VERTEX
  5
46C
330
461
100
AcDbEntity
  8
001
370
    50
100
AcDbVertex
100
AcDb2dVertex
 10
183.523322
 20
161.803168
 30
0.0
  0
VERTEX
  5
46D
330
461
100
AcDbEntity
  8
001
370
    50
100
AcDbVertex
100
AcDb2dVertex
 10
183.815733
 20
161.583466
 30
0.0
  0
VERTEX
  5
46E
330
461
100
AcDbEntity
  8
001
370
    50
100
AcDbVertex
100
AcDb2dVertex
 10
184.13055
 20
161.394316
 30
0.0
  0
VERTEX
  5
46F
330
461
100
AcDbEntity
  8
001
370
    50
100
AcDbVertex
100
AcDb2dVertex
 10
184.454209
 20
161.236929
 30
0.0
  0
VERTEX
  5
470
330
461
100
AcDbEntity
  8
001
370
    50
100
AcDbVertex
100
AcDb2dVertex
 10
184.779842
 20
161.113032
 30
0.0
  0
VERTEX
  5
471
330
461
100
AcDbEntity
  8
001
370
    50
100
AcDbVertex
100
AcDb2dVertex
 10
185.146996
 20
161.023532
 30
0.0
  0
VERTEX
  5
472
330
461
100
AcDbEntity
  8
001
370
    50
100
AcDbVertex
100
AcDb2dVertex
 10
185.563014
 20
160.969552
 30
0.0
  0
VERTEX
  5
473
330
461
100
AcDbEntity
  8
001
370
    50
100
AcDbVertex
100
AcDb2dVertex
 10
185.86747
 20
160.951477
 30
0.0
  0
SEQEND
  5
462
330
461
100
AcDbEntity
  8
001
370
    50
  0
POLYLINE
  5
474
330
1F
100
AcDbEntity
  8
001
370
    50
100
AcDb2dPolyline
 66
     1
 10
0.0
 20
0.0
 30
0.0
  0
VERTEX
  5
476
330
474
100
AcDbEntity
  8
001
370
    50
100
AcDbVertex
100
AcDb2dVertex
 10
185.86747
 20
160.951477
 30
0.0
  0
VERTEX
  5
477
330
474
100
AcDbEntity
  8
001
370
    50
100
AcDbVertex
100
AcDb2dVertex
 10
186.138217
 20
160.965761
 30
0.0
  0
VERTEX
  5
478
330
474
100
AcDbEntity
  8
001
370
    50
100
AcDbVertex
100
AcDb2dVertex
 10
186.508758
 20
161.008448
 30
0.0
  0
VERTEX
  5
479
330
474
100
AcDbEntity
  8
001
370
    50
100
AcDbVertex
100
AcDb2dVertex
 10
186.837127
 20
161.079294
 30
0.0
  0
VERTEX
  5
47A
330
474
100
AcDbEntity
  8
001
370
    50
100
AcDbVertex
100
AcDb2dVertex
 10
187.13056
 20
161.17763
 30
0.0
  0
VERTEX
  5
47B
330
474
100
AcDbEntity
  8
001
370
    50
100
AcDbVertex
100
AcDb2dVertex
 10
187.424669
 20
161.302903
 30
0.0
  0
VERTEX
  5
47C
330
474
100
AcDbEntity
  8
001
370
    50
100
AcDbVertex
100
AcDb2dVertex
 10
187.713984
 20
161.453882
 30
0.0
  0
VERTEX
  5
47D
330
474
100
AcDbEntity
  8
001
370
    50
100
AcDbVertex
100
AcDb2dVertex
 10
187.986857
 20
161.629783
 30
0.0
  0
VERTEX
  5
47E
330
474
100
AcDbEntity
  8
001
370
    50
100
AcDbVertex
100
AcDb2dVertex
 10
188.241303
 20
161.82881
 30
0.0
  0
VERTEX
  5
47F
330
474
100
AcDbEntity
  8
001
370
    50
100
AcDbVertex
100
AcDb2dVertex
 10
188.478714
 20
162.049987
 30
0.0
  0
VERTEX
  5
480
330
474
100
AcDbEntity
  8
001
370
    50
100
AcDbVertex
100
AcDb2dVertex
 10
188.696494
 20
162.291024
 30
0.0
  0
VERTEX
  5
481
330
474
100
AcDbEntity
  8
001
370
    50
100
AcDbVertex
100
AcDb2dVertex
 10
188.892802
 20
162.550737
 30
0.0
  0
VERTEX
  5
482
330
474
100
AcDbEntity
  8
001
370
    50
100
AcDbVertex
100
AcDb2dVertex
 10
189.065727
 20
162.826477
 30
0.0
  0
VERTEX
  5
483
330
474
100
AcDbEntity
  8
001
370
    50
100
AcDbVertex
100
AcDb2dVertex
 10
189.214533
 20
163.116812
 30
0.0
  0
VERTEX
  5
484
330
474
100
AcDbEntity
  8
001
370
    50
100
AcDbVertex
100
AcDb2dVertex
 10
189.337782
 20
163.418902
 30
0.0
  0
VERTEX
  5
485
330
474
100
AcDbEntity
  8
001
370
    50
100
AcDbVertex
100
AcDb2dVertex
 10
189.434687
 20
163.731011
 30
0.0
  0
VERTEX
  5
486
330
474
100
AcDbEntity
  8
001
370
    50
100
AcDbVertex
100
AcDb2dVertex
 10
189.504393
 20
164.050296
 30
0.0
  0
VERTEX
  5
487
330
474
100
AcDbEntity
  8
001
370
    50
100
AcDbVertex
100
AcDb2dVertex
 10
189.54644
 20
164.374681
 30
0.0
  0
VERTEX
  5
488
330
474
100
AcDbEntity
  8
001
370
    50
100
AcDbVertex
100
AcDb2dVertex
 10
189.560499
 20
164.701477
 30
0.0
  0
VERTEX
  5
489
330
474
100
AcDbEntity
  8
001
370
    50
100
AcDbVertex
100
AcDb2dVertex
 10
189.54644
 20
165.028273
 30
0.0
  0
VERTEX
  5
48A
330
474
100
AcDbEntity
  8
001
370
    50
100
AcDbVertex
100
AcDb2dVertex
 10
189.504393
 20
165.352658
 30
0.0
  0
VERTEX
  5
48B
330
474
100
AcDbEntity
  8
001
370
    50
100
AcDbVertex
100
AcDb2dVertex
 10
189.434687
 20
165.671943
 30
0.0
  0
VERTEX
  5
48C
330
474
100
AcDbEntity
  8
001
370
    50
100
AcDbVertex
100
AcDb2dVertex
 10
189.337782
 20
165.984053
 30
0.0
  0
VERTEX
  5
48D
330
474
100
AcDbEntity
  8
001
370
    50
100
AcDbVertex
100
AcDb2dVertex
 10
189.214533
 20
166.286142
 30
0.0
  0
VERTEX
  5
48E
330
474
100
AcDbEntity
  8
001
370
    50
100
AcDbVertex
100
AcDb2dVertex
 10
189.065727
 20
166.576477
 30
0.0
  0
VERTEX
  5
48F
330
474
100
AcDbEntity
  8
001
370
    50
100
AcDbVertex
100
AcDb2dVertex
 10
188.892802
 20
166.852217
 30
0.0
  0
VERTEX
  5
490
330
474
100
AcDbEntity
  8
001
370
    50
100
AcDbVertex
100
AcDb2dVertex
 10
188.696494
 20
167.111931
 30
0.0
  0
VERTEX
  5
491
330
474
100
AcDbEntity
  8
001
370
    50
100
AcDbVertex
100
AcDb2dVertex
 10
188.478714
 20
167.352967
 30
0.0
  0
VERTEX
  5
492
330
474
100
AcDbEntity
  8
001
370
    50
100
AcDbVertex
100
AcDb2dVertex
 10
188.241303
 20
167.574144
 30
0.0
  0
VERTEX
  5
493
330
474
100
AcDbEntity
  8
001
370
    50
100
AcDbVertex
100
AcDb2dVertex
 10
187.986857
 20
167.773172
 30
0.0
  0
VERTEX
  5
494
330
474
100
AcDbEntity
  8
001
370
    50
100
AcDbVertex
100
AcDb2dVertex
 10
187.713984
 20
167.949072
 30
0.0
  0
VERTEX
  5
495
330
474
100
AcDbEntity
  8
001
370
    50
100
AcDbVertex
100
AcDb2dVertex
 10
187.424669
 20
168.100051
 30
0.0
  0
VERTEX
  5
496
330
474
100
AcDbEntity
  8
001
370
    50
100
AcDbVertex
100
AcDb2dVertex
 10
187.13056
 20
168.225324
 30
0.0
  0
VERTEX
  5
497
330
474
100
AcDbEntity
  8
001
370
    50
100
AcDbVertex
100
AcDb2dVertex
 10
186.837127
 20
168.323661
 30
0.0
  0
VERTEX
  5
498
330
474
100
AcDbEntity
  8
001
370
    50
100
AcDbVertex
100
AcDb2dVertex
 10
186.508758
 20
168.394506
 30
0.0
  0
VERTEX
  5
499
330
474
100
AcDbEntity
  8
001
370
    50
100
AcDbVertex
100
AcDb2dVertex
 10
186.138217
 20
168.437194
 30
0.0
  0
VERTEX
  5
49A
330
474
100
AcDbEntity
  8
001
370
    50
100
AcDbVertex
100
AcDb2dVertex
 10
185.86747
 20
168.451477
 30
0.0
  0
SEQEND
  5
475
330
474
100
AcDbEntity
  8
001
370
    50
  0
POLYLINE
  5
49B
330
1F
100
AcDbEntity
  8
001
370
    50
100
AcDb2dPolyline
 66
     1
 10
0.0
 20
0.0
 30
0.0
  0
VERTEX
  5
49D
330
49B
100
AcDbEntity
  8
001
370
    50
100
AcDbVertex
100
AcDb2dVertex
 10
197.950539
 20
157.011135
 30
0.0
  0
VERTEX
  5
49E
330
49B
100
AcDbEntity
  8
001
370
    50
100
AcDbVertex
100
AcDb2dVertex
 10
197.687225
 20
156.996591
 30
0.0
  0
VERTEX
  5
49F
330
49B
100
AcDbEntity
  8
001
370
    50
100
AcDbVertex
100
AcDb2dVertex
 10
197.423928
 20
156.98175
 30
0.0
  0
VERTEX
  5
4A0
330
49B
100
AcDbEntity
  8
001
370
    50
100
AcDbVertex
100
AcDb2dVertex
 10
197.002711
 20
156.956969
 30
0.0
  0
VERTEX
  5
4A1
330
49B
100
AcDbEntity
  8
001
370
    50
100
AcDbVertex
100
AcDb2dVertex
 10
196.581539
 20
156.931426
 30
0.0
  0
SEQEND
  5
49C
330
49B
100
AcDbEntity
  8
001
370
    50
  0
POLYLINE
  5
4A2
330
1F
100
AcDbEntity
  8
001
370
    50
100
AcDb2dPolyline
 66
     1
 10
0.0
 20
0.0
 30
0.0
  0
VERTEX
  5
4A4
330
4A2
100
AcDbEntity
  8
001
370
    50
100
AcDbVertex
100
AcDb2dVertex
 10
199.319539
 20
157.099493
 30
0.0
  0
VERTEX
  5
4A5
330
4A2
100
AcDbEntity
  8
001
370
    50
100
AcDbVertex
100
AcDb2dVertex
 10
199.056222
 20
157.083439
 30
0.0
  0
VERTEX
  5
4A6
330
4A2
100
AcDbEntity
  8
001
370
    50
100
AcDbVertex
100
AcDb2dVertex
 10
198.792928
 20
157.06703
 30
0.0
  0
VERTEX
  5
4A7
330
4A2
100
AcDbEntity
  8
001
370
    50
100
AcDbVertex
100
AcDb2dVertex
 10
198.371704
 20
157.039538
 30
0.0
  0
VERTEX
  5
4A8
330
4A2
100
AcDbEntity
  8
001
370
    50
100
AcDbVertex
100
AcDb2dVertex
 10
197.950539
 20
157.011135
 30
0.0
  0
SEQEND
  5
4A3
330
4A2
100
AcDbEntity
  8
001
370
    50
  0
POLYLINE
  5
4A9
330
1F
100
AcDbEntity
  8
001
370
    50
100
AcDb2dPolyline
 66
     1
 10
0.0
 20
0.0
 30
0.0
  0
VERTEX
  5
4AB
330
4A9
100
AcDbEntity
  8
001
370
    50
100
AcDbVertex
100
AcDb2dVertex
 10
200.688539
 20
157.196473
 30
0.0
  0
VERTEX
  5
4AC
330
4A9
100
AcDbEntity
  8
001
370
    50
100
AcDbVertex
100
AcDb2dVertex
 10
200.425219
 20
157.178914
 30
0.0
  0
VERTEX
  5
4AD
330
4A9
100
AcDbEntity
  8
001
370
    50
100
AcDbVertex
100
AcDb2dVertex
 10
200.161928
 20
157.160942
 30
0.0
  0
VERTEX
  5
4AE
330
4A9
100
AcDbEntity
  8
001
370
    50
100
AcDbVertex
100
AcDb2dVertex
 10
199.740696
 20
157.130747
 30
0.0
  0
VERTEX
  5
4AF
330
4A9
100
AcDbEntity
  8
001
370
    50
100
AcDbVertex
100
AcDb2dVertex
 10
199.319539
 20
157.099493
 30
0.0
  0
SEQEND
  5
4AA
330
4A9
100
AcDbEntity
  8
001
370
    50
  0
POLYLINE
  5
4B0
330
1F
100
AcDbEntity
  8
001
370
    50
100
AcDb2dPolyline
 66
     1
 10
0.0
 20
0.0
 30
0.0
  0
VERTEX
  5
4B2
330
4B0
100
AcDbEntity
  8
001
370
    50
100
AcDbVertex
100
AcDb2dVertex
 10
202.057539
 20
157.302046
 30
0.0
  0
VERTEX
  5
4B3
330
4B0
100
AcDbEntity
  8
001
370
    50
100
AcDbVertex
100
AcDb2dVertex
 10
201.794216
 20
157.282988
 30
0.0
  0
VERTEX
  5
4B4
330
4B0
100
AcDbEntity
  8
001
370
    50
100
AcDbVertex
100
AcDb2dVertex
 10
201.530928
 20
157.263458
 30
0.0
  0
VERTEX
  5
4B5
330
4B0
100
AcDbEntity
  8
001
370
    50
100
AcDbVertex
100
AcDb2dVertex
 10
201.109687
 20
157.230569
 30
0.0
  0
VERTEX
  5
4B6
330
4B0
100
AcDbEntity
  8
001
370
    50
100
AcDbVertex
100
AcDb2dVertex
 10
200.688539
 20
157.196473
 30
0.0
  0
SEQEND
  5
4B1
330
4B0
100
AcDbEntity
  8
001
370
    50
  0
POLYLINE
  5
4B7
330
1F
100
AcDbEntity
  8
001
370
    50
100
AcDb2dPolyline
 66
     1
 10
0.0
 20
0.0
 30
0.0
  0
VERTEX
  5
4B9
330
4B7
100
AcDbEntity
  8
001
370
    50
100
AcDbVertex
100
AcDb2dVertex
 10
203.426539
 20
157.41618
 30
0.0
  0
VERTEX
  5
4BA
330
4B7
100
AcDbEntity
  8
001
370
    50
100
AcDbVertex
100
AcDb2dVertex
 10
203.163212
 20
157.395627
 30
0.0
  0
VERTEX
  5
4BB
330
4B7
100
AcDbEntity
  8
001
370
    50
100
AcDbVertex
100
AcDb2dVertex
 10
202.899928
 20
157.374546
 30
0.0
  0
VERTEX
  5
4BC
330
4B7
100
AcDbEntity
  8
001
370
    50
100
AcDbVertex
100
AcDb2dVertex
 10
202.478678
 20
157.338973
 30
0.0
  0
VERTEX
  5
4BD
330
4B7
100
AcDbEntity
  8
001
370
    50
100
AcDbVertex
100
AcDb2dVertex
 10
202.057539
 20
157.302046
 30
0.0
  0
SEQEND
  5
4B8
330
4B7
100
AcDbEntity
  8
001
370
    50
  0
POLYLINE
  5
4BE
330
1F
100
AcDbEntity
  8
001
370
    50
100
AcDb2dPolyline
 66
     1
 10
0.0
 20
0.0
 30
0.0
  0
VERTEX
  5
4C0
330
4BE
100
AcDbEntity
  8
001
370
    50
100
AcDbVertex
100
AcDb2dVertex
 10
204.795539
 20
157.53884
 30
0.0
  0
VERTEX
  5
4C1
330
4BE
100
AcDbEntity
  8
001
370
    50
100
AcDbVertex
100
AcDb2dVertex
 10
204.532208
 20
157.516799
 30
0.0
  0
VERTEX
  5
4C2
330
4BE
100
AcDbEntity
  8
001
370
    50
100
AcDbVertex
100
AcDb2dVertex
 10
204.268928
 20
157.494173
 30
0.0
  0
VERTEX
  5
4C3
330
4BE
100
AcDbEntity
  8
001
370
    50
100
AcDbVertex
100
AcDb2dVertex
 10
203.847667
 20
157.455926
 30
0.0
  0
VERTEX
  5
4C4
330
4BE
100
AcDbEntity
  8
001
370
    50
100
AcDbVertex
100
AcDb2dVertex
 10
203.426539
 20
157.41618
 30
0.0
  0
SEQEND
  5
4BF
330
4BE
100
AcDbEntity
  8
001
370
    50
  0
POLYLINE
  5
4C5
330
1F
100
AcDbEntity
  8
001
370
    50
100
AcDb2dPolyline
 66
     1
 10
0.0
 20
0.0
 30
0.0
  0
VERTEX
  5
4C7
330
4C5
100
AcDbEntity
  8
001
370
    50
100
AcDbVertex
100
AcDb2dVertex
 10
206.164539
 20
157.669988
 30
0.0
  0
VERTEX
  5
4C8
330
4C5
100
AcDbEntity
  8
001
370
    50
100
AcDbVertex
100
AcDb2dVertex
 10
205.901203
 20
157.646466
 30
0.0
  0
VERTEX
  5
4C9
330
4C5
100
AcDbEntity
  8
001
370
    50
100
AcDbVertex
100
AcDb2dVertex
 10
205.637928
 20
157.622302
 30
0.0
  0
VERTEX
  5
4CA
330
4C5
100
AcDbEntity
  8
001
370
    50
100
AcDbVertex
100
AcDb2dVertex
 10
205.216656
 20
157.581393
 30
0.0
  0
VERTEX
  5
4CB
330
4C5
100
AcDbEntity
  8
001
370
    50
100
AcDbVertex
100
AcDb2dVertex
 10
204.795539
 20
157.53884
 30
0.0
  0
SEQEND
  5
4C6
330
4C5
100
AcDbEntity
  8
001
370
    50
  0
POLYLINE
  5
4CC
330
1F
100
AcDbEntity
  8
001
370
    50
100
AcDb2dPolyline
 66
     1
 10
0.0
 20
0.0
 30
0.0
  0
VERTEX
  5
4CE
330
4CC
100
AcDbEntity
  8
001
370
    50
100
AcDbVertex
100
AcDb2dVertex
 10
207.533539
 20
157.809585
 30
0.0
  0
VERTEX
  5
4CF
330
4CC
100
AcDbEntity
  8
001
370
    50
100
AcDbVertex
100
AcDb2dVertex
 10
207.270198
 20
157.784588
 30
0.0
  0
VERTEX
  5
4D0
330
4CC
100
AcDbEntity
  8
001
370
    50
100
AcDbVertex
100
AcDb2dVertex
 10
207.006928
 20
157.758895
 30
0.0
  0
VERTEX
  5
4D1
330
4CC
100
AcDbEntity
  8
001
370
    50
100
AcDbVertex
100
AcDb2dVertex
 10
206.585643
 20
157.715335
 30
0.0
  0
VERTEX
  5
4D2
330
4CC
100
AcDbEntity
  8
001
370
    50
100
AcDbVertex
100
AcDb2dVertex
 10
206.164539
 20
157.669988
 30
0.0
  0
SEQEND
  5
4CD
330
4CC
100
AcDbEntity
  8
001
370
    50
  0
POLYLINE
  5
4D3
330
1F
100
AcDbEntity
  8
001
370
    50
100
AcDb2dPolyline
 66
     1
 10
0.0
 20
0.0
 30
0.0
  0
VERTEX
  5
4D5
330
4D3
100
AcDbEntity
  8
001
370
    50
100
AcDbVertex
100
AcDb2dVertex
 10
208.902539
 20
157.957588
 30
0.0
  0
VERTEX
  5
4D6
330
4D3
100
AcDbEntity
  8
001
370
    50
100
AcDbVertex
100
AcDb2dVertex
 10
208.639193
 20
157.931125
 30
0.0
  0
VERTEX
  5
4D7
330
4D3
100
AcDbEntity
  8
001
370
    50
100
AcDbVertex
100
AcDb2dVertex
 10
208.375928
 20
157.903908
 30
0.0
  0
VERTEX
  5
4D8
330
4D3
100
AcDbEntity
  8
001
370
    50
100
AcDbVertex
100
AcDb2dVertex
 10
207.95463
 20
157.857712
 30
0.0
  0
VERTEX
  5
4D9
330
4D3
100
AcDbEntity
  8
001
370
    50
100
AcDbVertex
100
AcDb2dVertex
 10
207.533539
 20
157.809585
 30
0.0
  0
SEQEND
  5
4D4
330
4D3
100
AcDbEntity
  8
001
370
    50
  0
POLYLINE
  5
4DA
330
1F
100
AcDbEntity
  8
001
370
    50
100
AcDb2dPolyline
 66
     1
 10
0.0
 20
0.0
 30
0.0
  0
VERTEX
  5
4DC
330
4DA
100
AcDbEntity
  8
001
370
    50
100
AcDbVertex
100
AcDb2dVertex
 10
210.271539
 20
158.113952
 30
0.0
  0
VERTEX
  5
4DD
330
4DA
100
AcDbEntity
  8
001
370
    50
100
AcDbVertex
100
AcDb2dVertex
 10
210.008188
 20
158.08603
 30
0.0
  0
VERTEX
  5
4DE
330
4DA
100
AcDbEntity
  8
001
370
    50
100
AcDbVertex
100
AcDb2dVertex
 10
209.744928
 20
158.057299
 30
0.0
  0
VERTEX
  5
4DF
330
4DA
100
AcDbEntity
  8
001
370
    50
100
AcDbVertex
100
AcDb2dVertex
 10
209.323616
 20
158.00848
 30
0.0
  0
VERTEX
  5
4E0
330
4DA
100
AcDbEntity
  8
001
370
    50
100
AcDbVertex
100
AcDb2dVertex
 10
208.902539
 20
157.957588
 30
0.0
  0
SEQEND
  5
4DB
330
4DA
100
AcDbEntity
  8
001
370
    50
  0
POLYLINE
  5
4E1
330
1F
100
AcDbEntity
  8
001
370
    50
100
AcDb2dPolyline
 66
     1
 10
0.0
 20
0.0
 30
0.0
  0
VERTEX
  5
4E3
330
4E1
100
AcDbEntity
  8
001
370
    50
100
AcDbVertex
100
AcDb2dVertex
 10
211.640539
 20
158.278629
 30
0.0
  0
VERTEX
  5
4E4
330
4E1
100
AcDbEntity
  8
001
370
    50
100
AcDbVertex
100
AcDb2dVertex
 10
211.377182
 20
158.249256
 30
0.0
  0
VERTEX
  5
4E5
330
4E1
100
AcDbEntity
  8
001
370
    50
100
AcDbVertex
100
AcDb2dVertex
 10
211.113928
 20
158.219021
 30
0.0
  0
VERTEX
  5
4E6
330
4E1
100
AcDbEntity
  8
001
370
    50
100
AcDbVertex
100
AcDb2dVertex
 10
210.692602
 20
158.167593
 30
0.0
  0
VERTEX
  5
4E7
330
4E1
100
AcDbEntity
  8
001
370
    50
100
AcDbVertex
100
AcDb2dVertex
 10
210.271539
 20
158.113952
 30
0.0
  0
SEQEND
  5
4E2
330
4E1
100
AcDbEntity
  8
001
370
    50
  0
POLYLINE
  5
4E8
330
1F
100
AcDbEntity
  8
001
370
    50
100
AcDb2dPolyline
 66
     1
 10
0.0
 20
0.0
 30
0.0
  0
VERTEX
  5
4EA
330
4E8
100
AcDbEntity
  8
001
370
    50
100
AcDbVertex
100
AcDb2dVertex
 10
213.009539
 20
158.451569
 30
0.0
  0
VERTEX
  5
4EB
330
4E8
100
AcDbEntity
  8
001
370
    50
100
AcDbVertex
100
AcDb2dVertex
 10
212.746176
 20
158.420755
 30
0.0
  0
VERTEX
  5
4EC
330
4E8
100
AcDbEntity
  8
001
370
    50
100
AcDbVertex
100
AcDb2dVertex
 10
212.482928
 20
158.389024
 30
0.0
  0
VERTEX
  5
4ED
330
4E8
100
AcDbEntity
  8
001
370
    50
100
AcDbVertex
100
AcDb2dVertex
 10
212.061587
 20
158.335003
 30
0.0
  0
VERTEX
  5
4EE
330
4E8
100
AcDbEntity
  8
001
370
    50
100
AcDbVertex
100
AcDb2dVertex
 10
211.640539
 20
158.278629
 30
0.0
  0
SEQEND
  5
4E9
330
4E8
100
AcDbEntity
  8
001
370
    50
  0
POLYLINE
  5
4EF
330
1F
100
AcDbEntity
  8
001
370
    50
100
AcDb2dPolyline
 66
     1
 10
0.0
 20
0.0
 30
0.0
  0
VERTEX
  5
4F1
330
4EF
100
AcDbEntity
  8
001
370
    50
100
AcDbVertex
100
AcDb2dVertex
 10
214.378539
 20
158.63272
 30
0.0
  0
VERTEX
  5
4F2
330
4EF
100
AcDbEntity
  8
001
370
    50
100
AcDbVertex
100
AcDb2dVertex
 10
214.11517
 20
158.600474
 30
0.0
  0
VERTEX
  5
4F3
330
4EF
100
AcDbEntity
  8
001
370
    50
100
AcDbVertex
100
AcDb2dVertex
 10
213.851928
 20
158.567257
 30
0.0
  0
VERTEX
  5
4F4
330
4EF
100
AcDbEntity
  8
001
370
    50
100
AcDbVertex
100
AcDb2dVertex
 10
213.430571
 20
158.510659
 30
0.0
  0
VERTEX
  5
4F5
330
4EF
100
AcDbEntity
  8
001
370
    50
100
AcDbVertex
100
AcDb2dVertex
 10
213.009539
 20
158.451569
 30
0.0
  0
SEQEND
  5
4F0
330
4EF
100
AcDbEntity
  8
001
370
    50
  0
POLYLINE
  5
4F6
330
1F
100
AcDbEntity
  8
001
370
    50
100
AcDb2dPolyline
 66
     1
 10
0.0
 20
0.0
 30
0.0
  0
VERTEX
  5
4F8
330
4F6
100
AcDbEntity
  8
001
370
    50
100
AcDbVertex
100
AcDb2dVertex
 10
215.747539
 20
158.822027
 30
0.0
  0
VERTEX
  5
4F9
330
4F6
100
AcDbEntity
  8
001
370
    50
100
AcDbVertex
100
AcDb2dVertex
 10
215.484164
 20
158.788357
 30
0.0
  0
VERTEX
  5
4FA
330
4F6
100
AcDbEntity
  8
001
370
    50
100
AcDbVertex
100
AcDb2dVertex
 10
215.220928
 20
158.753665
 30
0.0
  0
VERTEX
  5
4FB
330
4F6
100
AcDbEntity
  8
001
370
    50
100
AcDbVertex
100
AcDb2dVertex
 10
214.799554
 20
158.694507
 30
0.0
  0
VERTEX
  5
4FC
330
4F6
100
AcDbEntity
  8
001
370
    50
100
AcDbVertex
100
AcDb2dVertex
 10
214.378539
 20
158.63272
 30
0.0
  0
SEQEND
  5
4F7
330
4F6
100
AcDbEntity
  8
001
370
    50
  0
POLYLINE
  5
4FD
330
1F
100
AcDbEntity
  8
001
370
    50
100
AcDb2dPolyline
 66
     1
 10
0.0
 20
0.0
 30
0.0
  0
VERTEX
  5
4FF
330
4FD
100
AcDbEntity
  8
001
370
    50
100
AcDbVertex
100
AcDb2dVertex
 10
217.116539
 20
159.01943
 30
0.0
  0
VERTEX
  5
500
330
4FD
100
AcDbEntity
  8
001
370
    50
100
AcDbVertex
100
AcDb2dVertex
 10
216.853157
 20
158.984349
 30
0.0
  0
VERTEX
  5
501
330
4FD
100
AcDbEntity
  8
001
370
    50
100
AcDbVertex
100
AcDb2dVertex
 10
216.589928
 20
158.948191
 30
0.0
  0
VERTEX
  5
502
330
4FD
100
AcDbEntity
  8
001
370
    50
100
AcDbVertex
100
AcDb2dVertex
 10
216.168536
 20
158.886491
 30
0.0
  0
VERTEX
  5
503
330
4FD
100
AcDbEntity
  8
001
370
    50
100
AcDbVertex
100
AcDb2dVertex
 10
215.747539
 20
158.822027
 30
0.0
  0
SEQEND
  5
4FE
330
4FD
100
AcDbEntity
  8
001
370
    50
  0
POLYLINE
  5
504
330
1F
100
AcDbEntity
  8
001
370
    50
100
AcDb2dPolyline
 66
     1
 10
0.0
 20
0.0
 30
0.0
  0
VERTEX
  5
506
330
504
100
AcDbEntity
  8
001
370
    50
100
AcDbVertex
100
AcDb2dVertex
 10
232.972474
 20
158.689246
 30
0.0
  0
VERTEX
  5
507
330
504
100
AcDbEntity
  8
001
370
    50
100
AcDbVertex
100
AcDb2dVertex
 10
232.309031
 20
158.821219
 30
0.0
  0
VERTEX
  5
508
330
504
100
AcDbEntity
  8
001
370
    50
100
AcDbVertex
100
AcDb2dVertex
 10
231.644423
 20
158.946906
 30
0.0
  0
VERTEX
  5
509
330
504
100
AcDbEntity
  8
001
370
    50
100
AcDbVertex
100
AcDb2dVertex
 10
230.955134
 20
159.064951
 30
0.0
  0
VERTEX
  5
50A
330
504
100
AcDbEntity
  8
001
370
    50
100
AcDbVertex
100
AcDb2dVertex
 10
230.263848
 20
159.170984
 30
0.0
  0
VERTEX
  5
50B
330
504
100
AcDbEntity
  8
001
370
    50
100
AcDbVertex
100
AcDb2dVertex
 10
229.531724
 20
159.271181
 30
0.0
  0
VERTEX
  5
50C
330
504
100
AcDbEntity
  8
001
370
    50
100
AcDbVertex
100
AcDb2dVertex
 10
228.798035
 20
159.359036
 30
0.0
  0
VERTEX
  5
50D
330
504
100
AcDbEntity
  8
001
370
    50
100
AcDbVertex
100
AcDb2dVertex
 10
228.049344
 20
159.435352
 30
0.0
  0
VERTEX
  5
50E
330
504
100
AcDbEntity
  8
001
370
    50
100
AcDbVertex
100
AcDb2dVertex
 10
227.299396
 20
159.498191
 30
0.0
  0
VERTEX
  5
50F
330
504
100
AcDbEntity
  8
001
370
    50
100
AcDbVertex
100
AcDb2dVertex
 10
226.562428
 20
159.546662
 30
0.0
  0
VERTEX
  5
510
330
504
100
AcDbEntity
  8
001
370
    50
100
AcDbVertex
100
AcDb2dVertex
 10
225.824717
 20
159.582077
 30
0.0
  0
VERTEX
  5
511
330
504
100
AcDbEntity
  8
001
370
    50
100
AcDbVertex
100
AcDb2dVertex
 10
225.082207
 20
159.604544
 30
0.0
  0
VERTEX
  5
512
330
504
100
AcDbEntity
  8
001
370
    50
100
AcDbVertex
100
AcDb2dVertex
 10
224.339417
 20
159.613695
 30
0.0
  0
VERTEX
  5
513
330
504
100
AcDbEntity
  8
001
370
    50
100
AcDbVertex
100
AcDb2dVertex
 10
223.575957
 20
159.609133
 30
0.0
  0
VERTEX
  5
514
330
504
100
AcDbEntity
  8
001
370
    50
100
AcDbVertex
100
AcDb2dVertex
 10
222.812701
 20
159.590606
 30
0.0
  0
VERTEX
  5
515
330
504
100
AcDbEntity
  8
001
370
    50
100
AcDbVertex
100
AcDb2dVertex
 10
222.053693
 20
159.558492
 30
0.0
  0
VERTEX
  5
516
330
504
100
AcDbEntity
  8
001
370
    50
100
AcDbVertex
100
AcDb2dVertex
 10
221.29541
 20
159.512587
 30
0.0
  0
VERTEX
  5
517
330
504
100
AcDbEntity
  8
001
370
    50
100
AcDbVertex
100
AcDb2dVertex
 10
220.584284
 20
159.456894
 30
0.0
  0
VERTEX
  5
518
330
504
100
AcDbEntity
  8
001
370
    50
100
AcDbVertex
100
AcDb2dVertex
 10
219.874132
 20
159.38967
 30
0.0
  0
VERTEX
  5
519
330
504
100
AcDbEntity
  8
001
370
    50
100
AcDbVertex
100
AcDb2dVertex
 10
219.174824
 20
159.312499
 30
0.0
  0
VERTEX
  5
51A
330
504
100
AcDbEntity
  8
001
370
    50
100
AcDbVertex
100
AcDb2dVertex
 10
218.476983
 20
159.223407
 30
0.0
  0
VERTEX
  5
51B
330
504
100
AcDbEntity
  8
001
370
    50
100
AcDbVertex
100
AcDb2dVertex
 10
217.796307
 20
159.124629
 30
0.0
  0
VERTEX
  5
51C
330
504
100
AcDbEntity
  8
001
370
    50
100
AcDbVertex
100
AcDb2dVertex
 10
217.116539
 20
159.01943
 30
0.0
  0
SEQEND
  5
505
330
504
100
AcDbEntity
  8
001
370
    50
  0
POLYLINE
  5
51D
330
1F
100
AcDbEntity
  8
001
370
    50
100
AcDb2dPolyline
 66
     1
 10
0.0
 20
0.0
 30
0.0
  0
VERTEX
  5
51F
330
51D
100
AcDbEntity
  8
001
370
    50
100
AcDbVertex
100
AcDb2dVertex
 10
195.774904
 20
157.086225
 30
0.0
  0
VERTEX
  5
520
330
51D
100
AcDbEntity
  8
001
370
    50
100
AcDbVertex
100
AcDb2dVertex
 10
195.871778
 20
157.048683
 30
0.0
  0
VERTEX
  5
521
330
51D
100
AcDbEntity
  8
001
370
    50
100
AcDbVertex
100
AcDb2dVertex
 10
196.014204
 20
156.99609
 30
0.0
  0
VERTEX
  5
522
330
51D
100
AcDbEntity
  8
001
370
    50
100
AcDbVertex
100
AcDb2dVertex
 10
196.156397
 20
156.947163
 30
0.0
  0
VERTEX
  5
523
330
51D
100
AcDbEntity
  8
001
370
    50
100
AcDbVertex
100
AcDb2dVertex
 10
196.254225
 20
156.915252
 30
0.0
  0
SEQEND
  5
51E
330
51D
100
AcDbEntity
  8
001
370
    50
  0
LINE
  5
524
330
1F
100
AcDbEntity
  8
001
370
    50
100
AcDbLine
 10
196.581539
 20
156.931426
 30
0.0
 11
196.254225
 21
156.915252
 31
0.0
  0
POLYLINE
  5
525
330
1F
100
AcDbEntity
  8
001
370
    50
100
AcDb2dPolyline
 66
     1
 10
0.0
 20
0.0
 30
0.0
  0
VERTEX
  5
527
330
525
100
AcDbEntity
  8
001
370
    50
100
AcDbVertex
100
AcDb2dVertex
 10
239.592704
 20
160.114392
 30
0.0
  0
VERTEX
  5
528
330
525
100
AcDbEntity
  8
001
370
    50
100
AcDbVertex
100
AcDb2dVertex
 10
239.591339
 20
160.106722
 30
0.0
  0
VERTEX
  5
529
330
525
100
AcDbEntity
  8
001
370
    50
100
AcDbVertex
100
AcDb2dVertex
 10
239.589906
 20
160.099083
 30
0.0
  0
VERTEX
  5
52A
330
525
100
AcDbEntity
  8
001
370
    50
100
AcDbVertex
100
AcDb2dVertex
 10
239.417101
 20
159.811589
 30
0.0
  0
VERTEX
  5
52B
330
525
100
AcDbEntity
  8
001
370
    50
100
AcDbVertex
100
AcDb2dVertex
 10
239.135247
 20
159.581892
 30
0.0
  0
VERTEX
  5
52C
330
525
100
AcDbEntity
  8
001
370
    50
100
AcDbVertex
100
AcDb2dVertex
 10
238.933364
 20
159.418088
 30
0.0
  0
VERTEX
  5
52D
330
525
100
AcDbEntity
  8
001
370
    50
100
AcDbVertex
100
AcDb2dVertex
 10
238.734472
 20
159.263077
 30
0.0
  0
VERTEX
  5
52E
330
525
100
AcDbEntity
  8
001
370
    50
100
AcDbVertex
100
AcDb2dVertex
 10
238.496207
 20
159.111622
 30
0.0
  0
VERTEX
  5
52F
330
525
100
AcDbEntity
  8
001
370
    50
100
AcDbVertex
100
AcDb2dVertex
 10
238.242839
 20
158.980148
 30
0.0
  0
VERTEX
  5
530
330
525
100
AcDbEntity
  8
001
370
    50
100
AcDbVertex
100
AcDb2dVertex
 10
237.950488
 20
158.852136
 30
0.0
  0
VERTEX
  5
531
330
525
100
AcDbEntity
  8
001
370
    50
100
AcDbVertex
100
AcDb2dVertex
 10
237.651505
 20
158.74369
 30
0.0
  0
VERTEX
  5
532
330
525
100
AcDbEntity
  8
001
370
    50
100
AcDbVertex
100
AcDb2dVertex
 10
237.392032
 20
158.666374
 30
0.0
  0
VERTEX
  5
533
330
525
100
AcDbEntity
  8
001
370
    50
100
AcDbVertex
100
AcDb2dVertex
 10
237.128888
 20
158.601621
 30
0.0
  0
VERTEX
  5
534
330
525
100
AcDbEntity
  8
001
370
    50
100
AcDbVertex
100
AcDb2dVertex
 10
236.833594
 20
158.542959
 30
0.0
  0
VERTEX
  5
535
330
525
100
AcDbEntity
  8
001
370
    50
100
AcDbVertex
100
AcDb2dVertex
 10
236.536097
 20
158.497222
 30
0.0
  0
VERTEX
  5
536
330
525
100
AcDbEntity
  8
001
370
    50
100
AcDbVertex
100
AcDb2dVertex
 10
236.205583
 20
158.460544
 30
0.0
  0
VERTEX
  5
537
330
525
100
AcDbEntity
  8
001
370
    50
100
AcDbVertex
100
AcDb2dVertex
 10
235.873814
 20
158.437282
 30
0.0
  0
VERTEX
  5
538
330
525
100
AcDbEntity
  8
001
370
    50
100
AcDbVertex
100
AcDb2dVertex
 10
235.508336
 20
158.425949
 30
0.0
  0
VERTEX
  5
539
330
525
100
AcDbEntity
  8
001
370
    50
100
AcDbVertex
100
AcDb2dVertex
 10
235.142716
 20
158.428588
 30
0.0
  0
VERTEX
  5
53A
330
525
100
AcDbEntity
  8
001
370
    50
100
AcDbVertex
100
AcDb2dVertex
 10
234.803446
 20
158.442715
 30
0.0
  0
VERTEX
  5
53B
330
525
100
AcDbEntity
  8
001
370
    50
100
AcDbVertex
100
AcDb2dVertex
 10
234.464719
 20
158.467041
 30
0.0
  0
VERTEX
  5
53C
330
525
100
AcDbEntity
  8
001
370
    50
100
AcDbVertex
100
AcDb2dVertex
 10
234.100561
 20
158.503867
 30
0.0
  0
VERTEX
  5
53D
330
525
100
AcDbEntity
  8
001
370
    50
100
AcDbVertex
100
AcDb2dVertex
 10
233.737883
 20
158.552549
 30
0.0
  0
VERTEX
  5
53E
330
525
100
AcDbEntity
  8
001
370
    50
100
AcDbVertex
100
AcDb2dVertex
 10
233.354581
 20
158.617193
 30
0.0
  0
VERTEX
  5
53F
330
525
100
AcDbEntity
  8
001
370
    50
100
AcDbVertex
100
AcDb2dVertex
 10
232.972474
 20
158.689246
 30
0.0
  0
SEQEND
  5
526
330
525
100
AcDbEntity
  8
001
370
    50
  0
ARC
  5
540
330
1F
100
AcDbEntity
  8
001
370
    50
100
AcDbCircle
 10
232.972474
 20
164.605778
 30
0.0
 40
8.000000000000007
100
AcDbArc
 50
325.844851
 51
331.878145
  0
ARC
  5
541
330
1F
100
AcDbEntity
  8
001
370
    50
100
AcDbCircle
 10
232.972474
 20
164.605778
 30
0.0
 40
8.000000000000007
100
AcDbArc
 50
331.878145
 51
0.0
  0
POLYLINE
  5
542
330
1F
100
AcDbEntity
  8
001
370
    50
100
AcDb2dPolyline
 66
     1
 10
0.0
 20
0.0
 30
0.0
  0
VERTEX
  5
544
330
542
100
AcDbEntity
  8
001
370
    50
100
AcDbVertex
100
AcDb2dVertex
 10
175.90114
 20
162.873493
 30
0.0
  0
VERTEX
  5
545
330
542
100
AcDbEntity
  8
001
370
    50
100
AcDbVertex
100
AcDb2dVertex
 10
175.949893
 20
162.801111
 30
0.0
  0
VERTEX
  5
546
330
542
100
AcDbEntity
  8
001
370
    50
100
AcDbVertex
100
AcDb2dVertex
 10
176.042926
 20
162.720417
 30
0.0
  0
VERTEX
  5
547
330
542
100
AcDbEntity
  8
001
370
    50
100
AcDbVertex
100
AcDb2dVertex
 10
176.180457
 20
162.675929
 30
0.0
  0
VERTEX
  5
548
330
542
100
AcDbEntity
  8
001
370
    50
100
AcDbVertex
100
AcDb2dVertex
 10
176.283847
 20
162.669314
 30
0.0
  0
SEQEND
  5
543
330
542
100
AcDbEntity
  8
001
370
    50
  0
LINE
  5
549
330
1F
100
AcDbEntity
  8
001
370
    50
100
AcDbLine
 10
169.731614
 20
163.166118
 30
0.0
 11
173.487014
 21
162.9788
 31
0.0
  0
LINE
  5
54A
330
1F
100
AcDbEntity
  8
001
370
    50
100
AcDbLine
 10
174.856014
 20
162.917274
 30
0.0
 11
173.487014
 21
162.9788
 31
0.0
  0
LINE
  5
54B
330
1F
100
AcDbEntity
  8
001
370
    50
100
AcDbLine
 10
175.90114
 20
162.873493
 30
0.0
 11
174.856014
 21
162.917274
 31
0.0
  0
POLYLINE
  5
54C
330
1F
100
AcDbEntity
  8
001
370
    50
100
AcDb2dPolyline
 66
     1
 10
0.0
 20
0.0
 30
0.0
  0
VERTEX
  5
54E
330
54C
100
AcDbEntity
  8
001
370
    50
100
AcDbVertex
100
AcDb2dVertex
 10
175.90114
 20
162.873493
 30
0.0
  0
VERTEX
  5
54F
330
54C
100
AcDbEntity
  8
001
370
    50
100
AcDbVertex
100
AcDb2dVertex
 10
175.969359
 20
162.940678
 30
0.0
  0
VERTEX
  5
550
330
54C
100
AcDbEntity
  8
001
370
    50
100
AcDbVertex
100
AcDb2dVertex
 10
176.069003
 20
163.038932
 30
0.0
  0
VERTEX
  5
551
330
54C
100
AcDbEntity
  8
001
370
    50
100
AcDbVertex
100
AcDb2dVertex
 10
176.168936
 20
163.137645
 30
0.0
  0
VERTEX
  5
552
330
54C
100
AcDbEntity
  8
001
370
    50
100
AcDbVertex
100
AcDb2dVertex
 10
176.23727
 20
163.205227
 30
0.0
  0
SEQEND
  5
54D
330
54C
100
AcDbEntity
  8
001
370
    50
  0
LINE
  5
553
330
1F
100
AcDbEntity
  8
001
370
    50
100
AcDbLine
 10
179.1564
 20
167.811975
 30
0.0
 11
179.14494
 21
167.575696
 31
0.0
  0
POLYLINE
  5
554
330
1F
100
AcDbEntity
  8
001
370
    50
100
AcDb2dPolyline
 66
     1
 10
0.0
 20
0.0
 30
0.0
  0
VERTEX
  5
556
330
554
100
AcDbEntity
  8
001
370
    50
100
AcDbVertex
100
AcDb2dVertex
 10
179.144387
 20
167.542962
 30
0.0
  0
VERTEX
  5
557
330
554
100
AcDbEntity
  8
001
370
    50
100
AcDbVertex
100
AcDb2dVertex
 10
179.1445
 20
167.549611
 30
0.0
  0
VERTEX
  5
558
330
554
100
AcDbEntity
  8
001
370
    50
100
AcDbVertex
100
AcDb2dVertex
 10
179.144664
 20
167.559329
 30
0.0
  0
VERTEX
  5
559
330
554
100
AcDbEntity
  8
001
370
    50
100
AcDbVertex
100
AcDb2dVertex
 10
179.144828
 20
167.569047
 30
0.0
  0
VERTEX
  5
55A
330
554
100
AcDbEntity
  8
001
370
    50
100
AcDbVertex
100
AcDb2dVertex
 10
179.14494
 20
167.575696
 30
0.0
  0
SEQEND
  5
555
330
554
100
AcDbEntity
  8
001
370
    50
  0
POLYLINE
  5
55B
330
1F
100
AcDbEntity
  8
001
370
    50
100
AcDb2dPolyline
 66
     1
 10
0.0
 20
0.0
 30
0.0
  0
VERTEX
  5
55D
330
55B
100
AcDbEntity
  8
001
370
    50
100
AcDbVertex
100
AcDb2dVertex
 10
180.217457
 20
170.128473
 30
0.0
  0
VERTEX
  5
55E
330
55B
100
AcDbEntity
  8
001
370
    50
100
AcDbVertex
100
AcDb2dVertex
 10
180.306907
 20
170.219303
 30
0.0
  0
VERTEX
  5
55F
330
55B
100
AcDbEntity
  8
001
370
    50
100
AcDbVertex
100
AcDb2dVertex
 10
180.43754
 20
170.352154
 30
0.0
  0
VERTEX
  5
560
330
55B
100
AcDbEntity
  8
001
370
    50
100
AcDbVertex
100
AcDb2dVertex
 10
180.568478
 20
170.485601
 30
0.0
  0
VERTEX
  5
561
330
55B
100
AcDbEntity
  8
001
370
    50
100
AcDbVertex
100
AcDb2dVertex
 10
180.657998
 20
170.576976
 30
0.0
  0
SEQEND
  5
55C
330
55B
100
AcDbEntity
  8
001
370
    50
  0
POLYLINE
  5
562
330
1F
100
AcDbEntity
  8
001
370
    50
100
AcDb2dPolyline
 66
     1
 10
0.0
 20
0.0
 30
0.0
  0
VERTEX
  5
564
330
562
100
AcDbEntity
  8
001
370
    50
100
AcDbVertex
100
AcDb2dVertex
 10
180.217457
 20
170.128473
 30
0.0
  0
VERTEX
  5
565
330
562
100
AcDbEntity
  8
001
370
    50
100
AcDbVertex
100
AcDb2dVertex
 10
180.024153
 20
169.910229
 30
0.0
  0
VERTEX
  5
566
330
562
100
AcDbEntity
  8
001
370
    50
100
AcDbVertex
100
AcDb2dVertex
 10
179.842235
 20
169.683216
 30
0.0
  0
VERTEX
  5
567
330
562
100
AcDbEntity
  8
001
370
    50
100
AcDbVertex
100
AcDb2dVertex
 10
179.676963
 20
169.434215
 30
0.0
  0
VERTEX
  5
568
330
562
100
AcDbEntity
  8
001
370
    50
100
AcDbVertex
100
AcDb2dVertex
 10
179.533976
 20
169.171199
 30
0.0
  0
VERTEX
  5
569
330
562
100
AcDbEntity
  8
001
370
    50
100
AcDbVertex
100
AcDb2dVertex
 10
179.407721
 20
168.887284
 30
0.0
  0
VERTEX
  5
56A
330
562
100
AcDbEntity
  8
001
370
    50
100
AcDbVertex
100
AcDb2dVertex
 10
179.304795
 20
168.594223
 30
0.0
  0
VERTEX
  5
56B
330
562
100
AcDbEntity
  8
001
370
    50
100
AcDbVertex
100
AcDb2dVertex
 10
179.224395
 20
168.283734
 30
0.0
  0
VERTEX
  5
56C
330
562
100
AcDbEntity
  8
001
370
    50
100
AcDbVertex
100
AcDb2dVertex
 10
179.172214
 20
167.967515
 30
0.0
  0
VERTEX
  5
56D
330
562
100
AcDbEntity
  8
001
370
    50
100
AcDbVertex
100
AcDb2dVertex
 10
179.163854
 20
167.889789
 30
0.0
  0
VERTEX
  5
56E
330
562
100
AcDbEntity
  8
001
370
    50
100
AcDbVertex
100
AcDb2dVertex
 10
179.1564
 20
167.811975
 30
0.0
  0
SEQEND
  5
563
330
562
100
AcDbEntity
  8
001
370
    50
  0
POLYLINE
  5
56F
330
1F
100
AcDbEntity
  8
001
370
    50
100
AcDb2dPolyline
 66
     1
 10
0.0
 20
0.0
 30
0.0
  0
VERTEX
  5
571
330
56F
100
AcDbEntity
  8
001
370
    50
100
AcDbVertex
100
AcDb2dVertex
 10
180.271766
 20
169.281071
 30
0.0
  0
VERTEX
  5
572
330
56F
100
AcDbEntity
  8
001
370
    50
100
AcDbVertex
100
AcDb2dVertex
 10
180.138384
 20
169.130878
 30
0.0
  0
VERTEX
  5
573
330
56F
100
AcDbEntity
  8
001
370
    50
100
AcDbVertex
100
AcDb2dVertex
 10
179.969205
 20
168.91116
 30
0.0
  0
VERTEX
  5
574
330
56F
100
AcDbEntity
  8
001
370
    50
100
AcDbVertex
100
AcDb2dVertex
 10
179.838278
 20
168.695722
 30
0.0
  0
VERTEX
  5
575
330
56F
100
AcDbEntity
  8
001
370
    50
100
AcDbVertex
100
AcDb2dVertex
 10
179.741984
 20
168.489272
 30
0.0
  0
VERTEX
  5
576
330
56F
100
AcDbEntity
  8
001
370
    50
100
AcDbVertex
100
AcDb2dVertex
 10
179.661437
 20
168.275671
 30
0.0
  0
VERTEX
  5
577
330
56F
100
AcDbEntity
  8
001
370
    50
100
AcDbVertex
100
AcDb2dVertex
 10
179.598511
 20
168.031015
 30
0.0
  0
VERTEX
  5
578
330
56F
100
AcDbEntity
  8
001
370
    50
100
AcDbVertex
100
AcDb2dVertex
 10
179.558879
 20
167.754889
 30
0.0
  0
VERTEX
  5
579
330
56F
100
AcDbEntity
  8
001
370
    50
100
AcDbVertex
100
AcDb2dVertex
 10
179.544092
 20
167.553343
 30
0.0
  0
SEQEND
  5
570
330
56F
100
AcDbEntity
  8
001
370
    50
  0
POLYLINE
  5
57A
330
1F
100
AcDbEntity
  8
001
370
    50
100
AcDb2dPolyline
 66
     1
 10
0.0
 20
0.0
 30
0.0
  0
VERTEX
  5
57C
330
57A
100
AcDbEntity
  8
001
370
    50
100
AcDbVertex
100
AcDb2dVertex
 10
185.058746
 20
175.961489
 30
0.0
  0
VERTEX
  5
57D
330
57A
100
AcDbEntity
  8
001
370
    50
100
AcDbVertex
100
AcDb2dVertex
 10
184.820266
 20
175.871642
 30
0.0
  0
VERTEX
  5
57E
330
57A
100
AcDbEntity
  8
001
370
    50
100
AcDbVertex
100
AcDb2dVertex
 10
184.586882
 20
175.770016
 30
0.0
  0
VERTEX
  5
57F
330
57A
100
AcDbEntity
  8
001
370
    50
100
AcDbVertex
100
AcDb2dVertex
 10
184.35922
 20
175.644421
 30
0.0
  0
VERTEX
  5
580
330
57A
100
AcDbEntity
  8
001
370
    50
100
AcDbVertex
100
AcDb2dVertex
 10
184.146004
 20
175.495895
 30
0.0
  0
VERTEX
  5
581
330
57A
100
AcDbEntity
  8
001
370
    50
100
AcDbVertex
100
AcDb2dVertex
 10
183.881615
 20
175.262449
 30
0.0
  0
VERTEX
  5
582
330
57A
100
AcDbEntity
  8
001
370
    50
100
AcDbVertex
100
AcDb2dVertex
 10
183.63416
 20
175.009219
 30
0.0
  0
SEQEND
  5
57B
330
57A
100
AcDbEntity
  8
001
370
    50
  0
POLYLINE
  5
583
330
1F
100
AcDbEntity
  8
001
370
    50
100
AcDb2dPolyline
 66
     1
 10
0.0
 20
0.0
 30
0.0
  0
VERTEX
  5
585
330
583
100
AcDbEntity
  8
001
370
    50
100
AcDbVertex
100
AcDb2dVertex
 10
186.434958
 20
176.058728
 30
0.0
  0
VERTEX
  5
586
330
583
100
AcDbEntity
  8
001
370
    50
100
AcDbVertex
100
AcDb2dVertex
 10
186.220858
 20
176.084073
 30
0.0
  0
VERTEX
  5
587
330
583
100
AcDbEntity
  8
001
370
    50
100
AcDbVertex
100
AcDb2dVertex
 10
186.006174
 20
176.097783
 30
0.0
  0
VERTEX
  5
588
330
583
100
AcDbEntity
  8
001
370
    50
100
AcDbVertex
100
AcDb2dVertex
 10
185.978457
 20
176.098139
 30
0.0
  0
VERTEX
  5
589
330
583
100
AcDbEntity
  8
001
370
    50
100
AcDbVertex
100
AcDb2dVertex
 10
185.95073
 20
176.098302
 30
0.0
  0
SEQEND
  5
584
330
583
100
AcDbEntity
  8
001
370
    50
  0
POLYLINE
  5
58A
330
1F
100
AcDbEntity
  8
001
370
    50
100
AcDb2dPolyline
 66
     1
 10
0.0
 20
0.0
 30
0.0
  0
VERTEX
  5
58C
330
58A
100
AcDbEntity
  8
001
370
    50
100
AcDbVertex
100
AcDb2dVertex
 10
187.771465
 20
175.464709
 30
0.0
  0
VERTEX
  5
58D
330
58A
100
AcDbEntity
  8
001
370
    50
100
AcDbVertex
100
AcDb2dVertex
 10
187.670398
 20
175.540133
 30
0.0
  0
VERTEX
  5
58E
330
58A
100
AcDbEntity
  8
001
370
    50
100
AcDbVertex
100
AcDb2dVertex
 10
187.567479
 20
175.612855
 30
0.0
  0
VERTEX
  5
58F
330
58A
100
AcDbEntity
  8
001
370
    50
100
AcDbVertex
100
AcDb2dVertex
 10
187.358305
 20
175.739717
 30
0.0
  0
VERTEX
  5
590
330
58A
100
AcDbEntity
  8
001
370
    50
100
AcDbVertex
100
AcDb2dVertex
 10
187.138369
 20
175.847883
 30
0.0
  0
VERTEX
  5
591
330
58A
100
AcDbEntity
  8
001
370
    50
100
AcDbVertex
100
AcDb2dVertex
 10
186.904083
 20
175.940407
 30
0.0
  0
VERTEX
  5
592
330
58A
100
AcDbEntity
  8
001
370
    50
100
AcDbVertex
100
AcDb2dVertex
 10
186.662863
 20
176.011343
 30
0.0
  0
VERTEX
  5
593
330
58A
100
AcDbEntity
  8
001
370
    50
100
AcDbVertex
100
AcDb2dVertex
 10
186.549225
 20
176.036384
 30
0.0
  0
VERTEX
  5
594
330
58A
100
AcDbEntity
  8
001
370
    50
100
AcDbVertex
100
AcDb2dVertex
 10
186.434958
 20
176.058728
 30
0.0
  0
SEQEND
  5
58B
330
58A
100
AcDbEntity
  8
001
370
    50
  0
POLYLINE
  5
595
330
1F
100
AcDbEntity
  8
001
370
    50
100
AcDb2dPolyline
 66
     1
 10
0.0
 20
0.0
 30
0.0
  0
VERTEX
  5
597
330
595
100
AcDbEntity
  8
001
370
    50
100
AcDbVertex
100
AcDb2dVertex
 10
185.95073
 20
176.098302
 30
0.0
  0
VERTEX
  5
598
330
595
100
AcDbEntity
  8
001
370
    50
100
AcDbVertex
100
AcDb2dVertex
 10
185.758382
 20
176.090539
 30
0.0
  0
VERTEX
  5
599
330
595
100
AcDbEntity
  8
001
370
    50
100
AcDbVertex
100
AcDb2dVertex
 10
185.56734
 20
176.073554
 30
0.0
  0
VERTEX
  5
59A
330
595
100
AcDbEntity
  8
001
370
    50
100
AcDbVertex
100
AcDb2dVertex
 10
185.311843
 20
176.025993
 30
0.0
  0
VERTEX
  5
59B
330
595
100
AcDbEntity
  8
001
370
    50
100
AcDbVertex
100
AcDb2dVertex
 10
185.058746
 20
175.961489
 30
0.0
  0
SEQEND
  5
596
330
595
100
AcDbEntity
  8
001
370
    50
  0
POLYLINE
  5
59C
330
1F
100
AcDbEntity
  8
001
370
    50
100
AcDb2dPolyline
 66
     1
 10
0.0
 20
0.0
 30
0.0
  0
VERTEX
  5
59E
330
59C
100
AcDbEntity
  8
001
370
    50
100
AcDbVertex
100
AcDb2dVertex
 10
188.844059
 20
172.908776
 30
0.0
  0
VERTEX
  5
59F
330
59C
100
AcDbEntity
  8
001
370
    50
100
AcDbVertex
100
AcDb2dVertex
 10
188.852525
 20
173.146153
 30
0.0
  0
VERTEX
  5
5A0
330
59C
100
AcDbEntity
  8
001
370
    50
100
AcDbVertex
100
AcDb2dVertex
 10
188.849139
 20
173.383111
 30
0.0
  0
VERTEX
  5
5A1
330
59C
100
AcDbEntity
  8
001
370
    50
100
AcDbVertex
100
AcDb2dVertex
 10
188.823743
 20
173.624349
 30
0.0
  0
VERTEX
  5
5A2
330
59C
100
AcDbEntity
  8
001
370
    50
100
AcDbVertex
100
AcDb2dVertex
 10
188.776932
 20
173.862847
 30
0.0
  0
VERTEX
  5
5A3
330
59C
100
AcDbEntity
  8
001
370
    50
100
AcDbVertex
100
AcDb2dVertex
 10
188.709188
 20
174.103662
 30
0.0
  0
VERTEX
  5
5A4
330
59C
100
AcDbEntity
  8
001
370
    50
100
AcDbVertex
100
AcDb2dVertex
 10
188.621686
 20
174.33773
 30
0.0
  0
VERTEX
  5
5A5
330
59C
100
AcDbEntity
  8
001
370
    50
100
AcDbVertex
100
AcDb2dVertex
 10
188.510953
 20
174.569389
 30
0.0
  0
VERTEX
  5
5A6
330
59C
100
AcDbEntity
  8
001
370
    50
100
AcDbVertex
100
AcDb2dVertex
 10
188.380477
 20
174.790855
 30
0.0
  0
VERTEX
  5
5A7
330
59C
100
AcDbEntity
  8
001
370
    50
100
AcDbVertex
100
AcDb2dVertex
 10
188.25072
 20
174.975507
 30
0.0
  0
VERTEX
  5
5A8
330
59C
100
AcDbEntity
  8
001
370
    50
100
AcDbVertex
100
AcDb2dVertex
 10
188.105987
 20
175.148072
 30
0.0
  0
VERTEX
  5
5A9
330
59C
100
AcDbEntity
  8
001
370
    50
100
AcDbVertex
100
AcDb2dVertex
 10
187.942938
 20
175.310436
 30
0.0
  0
VERTEX
  5
5AA
330
59C
100
AcDbEntity
  8
001
370
    50
100
AcDbVertex
100
AcDb2dVertex
 10
187.771465
 20
175.464709
 30
0.0
  0
SEQEND
  5
59D
330
59C
100
AcDbEntity
  8
001
370
    50
  0
POLYLINE
  5
5AB
330
1F
100
AcDbEntity
  8
001
370
    50
100
AcDb2dPolyline
 66
     1
 10
0.0
 20
0.0
 30
0.0
  0
VERTEX
  5
5AD
330
5AB
100
AcDbEntity
  8
001
370
    50
100
AcDbVertex
100
AcDb2dVertex
 10
187.599143
 20
171.541345
 30
0.0
  0
VERTEX
  5
5AE
330
5AB
100
AcDbEntity
  8
001
370
    50
100
AcDbVertex
100
AcDb2dVertex
 10
187.911096
 20
171.792967
 30
0.0
  0
VERTEX
  5
5AF
330
5AB
100
AcDbEntity
  8
001
370
    50
100
AcDbVertex
100
AcDb2dVertex
 10
188.32945
 20
172.199023
 30
0.0
  0
VERTEX
  5
5B0
330
5AB
100
AcDbEntity
  8
001
370
    50
100
AcDbVertex
100
AcDb2dVertex
 10
188.651723
 20
172.607597
 30
0.0
  0
VERTEX
  5
5B1
330
5AB
100
AcDbEntity
  8
001
370
    50
100
AcDbVertex
100
AcDb2dVertex
 10
188.844059
 20
172.908776
 30
0.0
  0
SEQEND
  5
5AC
330
5AB
100
AcDbEntity
  8
001
370
    50
  0
POLYLINE
  5
5B2
330
1F
100
AcDbEntity
  8
001
370
    50
100
AcDb2dPolyline
 66
     1
 10
0.0
 20
0.0
 30
0.0
  0
VERTEX
  5
5B4
330
5B2
100
AcDbEntity
  8
001
370
    50
100
AcDbVertex
100
AcDb2dVertex
 10
187.599143
 20
171.541345
 30
0.0
  0
VERTEX
  5
5B5
330
5B2
100
AcDbEntity
  8
001
370
    50
100
AcDbVertex
100
AcDb2dVertex
 10
187.704307
 20
171.740388
 30
0.0
  0
VERTEX
  5
5B6
330
5B2
100
AcDbEntity
  8
001
370
    50
100
AcDbVertex
100
AcDb2dVertex
 10
187.831742
 20
172.022664
 30
0.0
  0
VERTEX
  5
5B7
330
5B2
100
AcDbEntity
  8
001
370
    50
100
AcDbVertex
100
AcDb2dVertex
 10
187.921241
 20
172.287104
 30
0.0
  0
VERTEX
  5
5B8
330
5B2
100
AcDbEntity
  8
001
370
    50
100
AcDbVertex
100
AcDb2dVertex
 10
187.976253
 20
172.538337
 30
0.0
  0
VERTEX
  5
5B9
330
5B2
100
AcDbEntity
  8
001
370
    50
100
AcDbVertex
100
AcDb2dVertex
 10
188.012343
 20
172.801346
 30
0.0
  0
VERTEX
  5
5BA
330
5B2
100
AcDbEntity
  8
001
370
    50
100
AcDbVertex
100
AcDb2dVertex
 10
188.028061
 20
173.071895
 30
0.0
  0
VERTEX
  5
5BB
330
5B2
100
AcDbEntity
  8
001
370
    50
100
AcDbVertex
100
AcDb2dVertex
 10
188.018987
 20
173.340737
 30
0.0
  0
VERTEX
  5
5BC
330
5B2
100
AcDbEntity
  8
001
370
    50
100
AcDbVertex
100
AcDb2dVertex
 10
187.985511
 20
173.606296
 30
0.0
  0
VERTEX
  5
5BD
330
5B2
100
AcDbEntity
  8
001
370
    50
100
AcDbVertex
100
AcDb2dVertex
 10
187.929047
 20
173.868191
 30
0.0
  0
VERTEX
  5
5BE
330
5B2
100
AcDbEntity
  8
001
370
    50
100
AcDbVertex
100
AcDb2dVertex
 10
187.849963
 20
174.124473
 30
0.0
  0
VERTEX
  5
5BF
330
5B2
100
AcDbEntity
  8
001
370
    50
100
AcDbVertex
100
AcDb2dVertex
 10
187.748694
 20
174.372183
 30
0.0
  0
VERTEX
  5
5C0
330
5B2
100
AcDbEntity
  8
001
370
    50
100
AcDbVertex
100
AcDb2dVertex
 10
187.625744
 20
174.609875
 30
0.0
  0
VERTEX
  5
5C1
330
5B2
100
AcDbEntity
  8
001
370
    50
100
AcDbVertex
100
AcDb2dVertex
 10
187.482384
 20
174.83526
 30
0.0
  0
VERTEX
  5
5C2
330
5B2
100
AcDbEntity
  8
001
370
    50
100
AcDbVertex
100
AcDb2dVertex
 10
187.320018
 20
175.046998
 30
0.0
  0
VERTEX
  5
5C3
330
5B2
100
AcDbEntity
  8
001
370
    50
100
AcDbVertex
100
AcDb2dVertex
 10
187.140479
 20
175.242768
 30
0.0
  0
VERTEX
  5
5C4
330
5B2
100
AcDbEntity
  8
001
370
    50
100
AcDbVertex
100
AcDb2dVertex
 10
186.942547
 20
175.421882
 30
0.0
  0
VERTEX
  5
5C5
330
5B2
100
AcDbEntity
  8
001
370
    50
100
AcDbVertex
100
AcDb2dVertex
 10
186.72773
 20
175.582504
 30
0.0
  0
VERTEX
  5
5C6
330
5B2
100
AcDbEntity
  8
001
370
    50
100
AcDbVertex
100
AcDb2dVertex
 10
186.505389
 20
175.722553
 30
0.0
  0
VERTEX
  5
5C7
330
5B2
100
AcDbEntity
  8
001
370
    50
100
AcDbVertex
100
AcDb2dVertex
 10
186.280004
 20
175.840204
 30
0.0
  0
VERTEX
  5
5C8
330
5B2
100
AcDbEntity
  8
001
370
    50
100
AcDbVertex
100
AcDb2dVertex
 10
186.022506
 20
175.939408
 30
0.0
  0
VERTEX
  5
5C9
330
5B2
100
AcDbEntity
  8
001
370
    50
100
AcDbVertex
100
AcDb2dVertex
 10
185.727245
 20
176.020385
 30
0.0
  0
VERTEX
  5
5CA
330
5B2
100
AcDbEntity
  8
001
370
    50
100
AcDbVertex
100
AcDb2dVertex
 10
185.509321
 20
176.06552
 30
0.0
  0
SEQEND
  5
5B3
330
5B2
100
AcDbEntity
  8
001
370
    50
  0
POLYLINE
  5
5CB
330
1F
100
AcDbEntity
  8
001
370
    50
100
AcDb2dPolyline
 66
     1
 10
0.0
 20
0.0
 30
0.0
  0
VERTEX
  5
5CD
330
5CB
100
AcDbEntity
  8
001
370
    50
100
AcDbVertex
100
AcDb2dVertex
 10
188.844059
 20
172.908776
 30
0.0
  0
VERTEX
  5
5CE
330
5CB
100
AcDbEntity
  8
001
370
    50
100
AcDbVertex
100
AcDb2dVertex
 10
188.873949
 20
172.876239
 30
0.0
  0
VERTEX
  5
5CF
330
5CB
100
AcDbEntity
  8
001
370
    50
100
AcDbVertex
100
AcDb2dVertex
 10
188.91765
 20
172.828699
 30
0.0
  0
VERTEX
  5
5D0
330
5CB
100
AcDbEntity
  8
001
370
    50
100
AcDbVertex
100
AcDb2dVertex
 10
188.961336
 20
172.78122
 30
0.0
  0
VERTEX
  5
5D1
330
5CB
100
AcDbEntity
  8
001
370
    50
100
AcDbVertex
100
AcDb2dVertex
 10
188.991237
 20
172.748743
 30
0.0
  0
SEQEND
  5
5CC
330
5CB
100
AcDbEntity
  8
001
370
    50
  0
POLYLINE
  5
5D2
330
1F
100
AcDbEntity
  8
001
370
    50
100
AcDb2dPolyline
 66
     1
 10
0.0
 20
0.0
 30
0.0
  0
VERTEX
  5
5D4
330
5D2
100
AcDbEntity
  8
001
370
    50
100
AcDbVertex
100
AcDb2dVertex
 10
188.991237
 20
172.748743
 30
0.0
  0
VERTEX
  5
5D5
330
5D2
100
AcDbEntity
  8
001
370
    50
100
AcDbVertex
100
AcDb2dVertex
 10
189.253329
 20
172.452141
 30
0.0
  0
VERTEX
  5
5D6
330
5D2
100
AcDbEntity
  8
001
370
    50
100
AcDbVertex
100
AcDb2dVertex
 10
189.637604
 20
172.019726
 30
0.0
  0
VERTEX
  5
5D7
330
5D2
100
AcDbEntity
  8
001
370
    50
100
AcDbVertex
100
AcDb2dVertex
 10
190.021161
 20
171.591518
 30
0.0
  0
VERTEX
  5
5D8
330
5D2
100
AcDbEntity
  8
001
370
    50
100
AcDbVertex
100
AcDb2dVertex
 10
190.284424
 20
171.299276
 30
0.0
  0
SEQEND
  5
5D3
330
5D2
100
AcDbEntity
  8
001
370
    50
  0
POLYLINE
  5
5D9
330
1F
100
AcDbEntity
  8
001
370
    50
100
AcDb2dPolyline
 66
     1
 10
0.0
 20
0.0
 30
0.0
  0
VERTEX
  5
5DB
330
5D9
100
AcDbEntity
  8
001
370
    50
100
AcDbVertex
100
AcDb2dVertex
 10
195.473412
 20
165.188057
 30
0.0
  0
VERTEX
  5
5DC
330
5D9
100
AcDbEntity
  8
001
370
    50
100
AcDbVertex
100
AcDb2dVertex
 10
195.595898
 20
165.03469
 30
0.0
  0
VERTEX
  5
5DD
330
5D9
100
AcDbEntity
  8
001
370
    50
100
AcDbVertex
100
AcDb2dVertex
 10
195.775187
 20
164.810756
 30
0.0
  0
VERTEX
  5
5DE
330
5D9
100
AcDbEntity
  8
001
370
    50
100
AcDbVertex
100
AcDb2dVertex
 10
195.954515
 20
164.587551
 30
0.0
  0
VERTEX
  5
5DF
330
5D9
100
AcDbEntity
  8
001
370
    50
100
AcDbVertex
100
AcDb2dVertex
 10
196.077399
 20
164.434981
 30
0.0
  0
SEQEND
  5
5DA
330
5D9
100
AcDbEntity
  8
001
370
    50
  0
POLYLINE
  5
5E0
330
1F
100
AcDbEntity
  8
001
370
    50
100
AcDb2dPolyline
 66
     1
 10
0.0
 20
0.0
 30
0.0
  0
VERTEX
  5
5E2
330
5E0
100
AcDbEntity
  8
001
370
    50
100
AcDbVertex
100
AcDb2dVertex
 10
196.748166
 20
162.767827
 30
0.0
  0
VERTEX
  5
5E3
330
5E0
100
AcDbEntity
  8
001
370
    50
100
AcDbVertex
100
AcDb2dVertex
 10
196.718279
 20
162.98276
 30
0.0
  0
VERTEX
  5
5E4
330
5E0
100
AcDbEntity
  8
001
370
    50
100
AcDbVertex
100
AcDb2dVertex
 10
196.679075
 20
163.195741
 30
0.0
  0
VERTEX
  5
5E5
330
5E0
100
AcDbEntity
  8
001
370
    50
100
AcDbVertex
100
AcDb2dVertex
 10
196.622603
 20
163.407383
 30
0.0
  0
VERTEX
  5
5E6
330
5E0
100
AcDbEntity
  8
001
370
    50
100
AcDbVertex
100
AcDb2dVertex
 10
196.550326
 20
163.614667
 30
0.0
  0
VERTEX
  5
5E7
330
5E0
100
AcDbEntity
  8
001
370
    50
100
AcDbVertex
100
AcDb2dVertex
 10
196.45759
 20
163.831727
 30
0.0
  0
VERTEX
  5
5E8
330
5E0
100
AcDbEntity
  8
001
370
    50
100
AcDbVertex
100
AcDb2dVertex
 10
196.347624
 20
164.039955
 30
0.0
  0
VERTEX
  5
5E9
330
5E0
100
AcDbEntity
  8
001
370
    50
100
AcDbVertex
100
AcDb2dVertex
 10
196.217659
 20
164.240616
 30
0.0
  0
VERTEX
  5
5EA
330
5E0
100
AcDbEntity
  8
001
370
    50
100
AcDbVertex
100
AcDb2dVertex
 10
196.077399
 20
164.434981
 30
0.0
  0
SEQEND
  5
5E1
330
5E0
100
AcDbEntity
  8
001
370
    50
  0
POLYLINE
  5
5EB
330
1F
100
AcDbEntity
  8
001
370
    50
100
AcDb2dPolyline
 66
     1
 10
0.0
 20
0.0
 30
0.0
  0
VERTEX
  5
5ED
330
5EB
100
AcDbEntity
  8
001
370
    50
100
AcDbVertex
100
AcDb2dVertex
 10
196.745156
 20
162.142879
 30
0.0
  0
VERTEX
  5
5EE
330
5EB
100
AcDbEntity
  8
001
370
    50
100
AcDbVertex
100
AcDb2dVertex
 10
196.739285
 20
162.082225
 30
0.0
  0
VERTEX
  5
5EF
330
5EB
100
AcDbEntity
  8
001
370
    50
100
AcDbVertex
100
AcDb2dVertex
 10
196.730715
 20
161.993576
 30
0.0
  0
VERTEX
  5
5F0
330
5EB
100
AcDbEntity
  8
001
370
    50
100
AcDbVertex
100
AcDb2dVertex
 10
196.722159
 20
161.904895
 30
0.0
  0
VERTEX
  5
5F1
330
5EB
100
AcDbEntity
  8
001
370
    50
100
AcDbVertex
100
AcDb2dVertex
 10
196.716313
 20
161.844218
 30
0.0
  0
SEQEND
  5
5EC
330
5EB
100
AcDbEntity
  8
001
370
    50
  0
POLYLINE
  5
5F2
330
1F
100
AcDbEntity
  8
001
370
    50
100
AcDb2dPolyline
 66
     1
 10
0.0
 20
0.0
 30
0.0
  0
VERTEX
  5
5F4
330
5F2
100
AcDbEntity
  8
001
370
    50
100
AcDbVertex
100
AcDb2dVertex
 10
196.745156
 20
162.142879
 30
0.0
  0
VERTEX
  5
5F5
330
5F2
100
AcDbEntity
  8
001
370
    50
100
AcDbVertex
100
AcDb2dVertex
 10
196.757671
 20
162.367123
 30
0.0
  0
VERTEX
  5
5F6
330
5F2
100
AcDbEntity
  8
001
370
    50
100
AcDbVertex
100
AcDb2dVertex
 10
196.75904
 20
162.591197
 30
0.0
  0
VERTEX
  5
5F7
330
5F2
100
AcDbEntity
  8
001
370
    50
100
AcDbVertex
100
AcDb2dVertex
 10
196.754471
 20
162.679525
 30
0.0
  0
VERTEX
  5
5F8
330
5F2
100
AcDbEntity
  8
001
370
    50
100
AcDbVertex
100
AcDb2dVertex
 10
196.748166
 20
162.767827
 30
0.0
  0
SEQEND
  5
5F3
330
5F2
100
AcDbEntity
  8
001
370
    50
  0
POLYLINE
  5
5F9
330
1F
100
AcDbEntity
  8
001
370
    50
100
AcDb2dPolyline
 66
     1
 10
0.0
 20
0.0
 30
0.0
  0
VERTEX
  5
5FB
330
5F9
100
AcDbEntity
  8
001
370
    50
100
AcDbVertex
100
AcDb2dVertex
 10
195.774904
 20
162.142879
 30
0.0
  0
VERTEX
  5
5FC
330
5F9
100
AcDbEntity
  8
001
370
    50
100
AcDbVertex
100
AcDb2dVertex
 10
195.763547
 20
162.347501
 30
0.0
  0
VERTEX
  5
5FD
330
5F9
100
AcDbEntity
  8
001
370
    50
100
AcDbVertex
100
AcDb2dVertex
 10
195.728078
 20
162.628143
 30
0.0
  0
VERTEX
  5
5FE
330
5F9
100
AcDbEntity
  8
001
370
    50
100
AcDbVertex
100
AcDb2dVertex
 10
195.668074
 20
162.877195
 30
0.0
  0
VERTEX
  5
5FF
330
5F9
100
AcDbEntity
  8
001
370
    50
100
AcDbVertex
100
AcDb2dVertex
 10
195.589381
 20
163.094949
 30
0.0
  0
VERTEX
  5
600
330
5F9
100
AcDbEntity
  8
001
370
    50
100
AcDbVertex
100
AcDb2dVertex
 10
195.494394
 20
163.305578
 30
0.0
  0
VERTEX
  5
601
330
5F9
100
AcDbEntity
  8
001
370
    50
100
AcDbVertex
100
AcDb2dVertex
 10
195.364088
 20
163.52554
 30
0.0
  0
VERTEX
  5
602
330
5F9
100
AcDbEntity
  8
001
370
    50
100
AcDbVertex
100
AcDb2dVertex
 10
195.194699
 20
163.750027
 30
0.0
  0
VERTEX
  5
603
330
5F9
100
AcDbEntity
  8
001
370
    50
100
AcDbVertex
100
AcDb2dVertex
 10
195.06077
 20
163.903535
 30
0.0
  0
SEQEND
  5
5FA
330
5F9
100
AcDbEntity
  8
001
370
    50
  0
LINE
  5
604
330
1F
100
AcDbEntity
  8
001
370
    50
100
AcDbLine
 10
195.774904
 20
157.086225
 30
0.0
 11
195.774904
 21
162.142879
 31
0.0
  0
POLYLINE
  5
605
330
1F
100
AcDbEntity
  8
001
370
    50
100
AcDb2dPolyline
 66
     1
 10
0.0
 20
0.0
 30
0.0
  0
VERTEX
  5
607
330
605
100
AcDbEntity
  8
001
370
    50
100
AcDbVertex
100
AcDb2dVertex
 10
196.716313
 20
161.844218
 30
0.0
  0
VERTEX
  5
608
330
605
100
AcDbEntity
  8
001
370
    50
100
AcDbVertex
100
AcDb2dVertex
 10
196.619165
 20
160.846813
 30
0.0
  0
VERTEX
  5
609
330
605
100
AcDbEntity
  8
001
370
    50
100
AcDbVertex
100
AcDb2dVertex
 10
196.480287
 20
159.38877
 30
0.0
  0
VERTEX
  5
60A
330
605
100
AcDbEntity
  8
001
370
    50
100
AcDbVertex
100
AcDb2dVertex
 10
196.344797
 20
157.920236
 30
0.0
  0
VERTEX
  5
60B
330
605
100
AcDbEntity
  8
001
370
    50
100
AcDbVertex
100
AcDb2dVertex
 10
196.254225
 20
156.915252
 30
0.0
  0
SEQEND
  5
606
330
605
100
AcDbEntity
  8
001
370
    50
  0
POLYLINE
  5
60C
330
1F
100
AcDbEntity
  8
001
370
    50
100
AcDb2dPolyline
 66
     1
 10
0.0
 20
0.0
 30
0.0
  0
VERTEX
  5
60E
330
60C
100
AcDbEntity
  8
001
370
    50
100
AcDbVertex
100
AcDb2dVertex
 10
176.23727
 20
163.205227
 30
0.0
  0
VERTEX
  5
60F
330
60C
100
AcDbEntity
  8
001
370
    50
100
AcDbVertex
100
AcDb2dVertex
 10
176.38037
 20
163.344832
 30
0.0
  0
VERTEX
  5
610
330
60C
100
AcDbEntity
  8
001
370
    50
100
AcDbVertex
100
AcDb2dVertex
 10
176.586625
 20
163.546608
 30
0.0
  0
SEQEND
  5
60D
330
60C
100
AcDbEntity
  8
001
370
    50
  0
POLYLINE
  5
611
330
1F
100
AcDbEntity
  8
001
370
    50
100
AcDb2dPolyline
 66
     1
 10
0.0
 20
0.0
 30
0.0
  0
VERTEX
  5
613
330
611
100
AcDbEntity
  8
001
370
    50
100
AcDbVertex
100
AcDb2dVertex
 10
176.283847
 20
162.669314
 30
0.0
  0
VERTEX
  5
614
330
611
100
AcDbEntity
  8
001
370
    50
100
AcDbVertex
100
AcDb2dVertex
 10
176.364948
 20
162.673857
 30
0.0
  0
VERTEX
  5
615
330
611
100
AcDbEntity
  8
001
370
    50
100
AcDbVertex
100
AcDb2dVertex
 10
176.48253
 20
162.68896
 30
0.0
  0
VERTEX
  5
616
330
611
100
AcDbEntity
  8
001
370
    50
100
AcDbVertex
100
AcDb2dVertex
 10
176.539897
 20
162.70014
 30
0.0
  0
VERTEX
  5
617
330
611
100
AcDbEntity
  8
001
370
    50
100
AcDbVertex
100
AcDb2dVertex
 10
176.594273
 20
162.712838
 30
0.0
  0
SEQEND
  5
612
330
611
100
AcDbEntity
  8
001
370
    50
  0
LINE
  5
618
330
1F
100
AcDbEntity
  8
001
370
    50
100
AcDbLine
 10
180.742574
 20
169.755319
 30
0.0
 11
180.271766
 21
169.281071
 31
0.0
  0
POLYLINE
  5
619
330
1F
100
AcDbEntity
  8
001
370
    50
100
AcDb2dPolyline
 66
     1
 10
0.0
 20
0.0
 30
0.0
  0
VERTEX
  5
61B
330
619
100
AcDbEntity
  8
001
370
    50
100
AcDbVertex
100
AcDb2dVertex
 10
180.657998
 20
170.576976
 30
0.0
  0
VERTEX
  5
61C
330
619
100
AcDbEntity
  8
001
370
    50
100
AcDbVertex
100
AcDb2dVertex
 10
180.703218
 20
170.622529
 30
0.0
  0
VERTEX
  5
61D
330
619
100
AcDbEntity
  8
001
370
    50
100
AcDbVertex
100
AcDb2dVertex
 10
180.759732
 20
170.679518
 30
0.0
  0
SEQEND
  5
61A
330
619
100
AcDbEntity
  8
001
370
    50
  0
POLYLINE
  5
61E
330
1F
100
AcDbEntity
  8
001
370
    50
100
AcDb2dPolyline
 66
     1
 10
0.0
 20
0.0
 30
0.0
  0
VERTEX
  5
620
330
61E
100
AcDbEntity
  8
001
370
    50
100
AcDbVertex
100
AcDb2dVertex
 10
183.63416
 20
175.009219
 30
0.0
  0
VERTEX
  5
621
330
61E
100
AcDbEntity
  8
001
370
    50
100
AcDbVertex
100
AcDb2dVertex
 10
183.442236
 20
174.744022
 30
0.0
  0
VERTEX
  5
622
330
61E
100
AcDbEntity
  8
001
370
    50
100
AcDbVertex
100
AcDb2dVertex
 10
183.270398
 20
174.467304
 30
0.0
  0
VERTEX
  5
623
330
61E
100
AcDbEntity
  8
001
370
    50
100
AcDbVertex
100
AcDb2dVertex
 10
183.162339
 20
174.240761
 30
0.0
  0
VERTEX
  5
624
330
61E
100
AcDbEntity
  8
001
370
    50
100
AcDbVertex
100
AcDb2dVertex
 10
183.074644
 20
174.004612
 30
0.0
  0
VERTEX
  5
625
330
61E
100
AcDbEntity
  8
001
370
    50
100
AcDbVertex
100
AcDb2dVertex
 10
183.003591
 20
173.755487
 30
0.0
  0
VERTEX
  5
626
330
61E
100
AcDbEntity
  8
001
370
    50
100
AcDbVertex
100
AcDb2dVertex
 10
182.955772
 20
173.501808
 30
0.0
  0
VERTEX
  5
627
330
61E
100
AcDbEntity
  8
001
370
    50
100
AcDbVertex
100
AcDb2dVertex
 10
182.932247
 20
173.212363
 30
0.0
  0
VERTEX
  5
628
330
61E
100
AcDbEntity
  8
001
370
    50
100
AcDbVertex
100
AcDb2dVertex
 10
182.927717
 20
172.920773
 30
0.0
  0
SEQEND
  5
61F
330
61E
100
AcDbEntity
  8
001
370
    50
  0
POLYLINE
  5
629
330
1F
100
AcDbEntity
  8
001
370
    50
100
AcDb2dPolyline
 66
     1
 10
0.0
 20
0.0
 30
0.0
  0
VERTEX
  5
62B
330
629
100
AcDbEntity
  8
001
370
    50
100
AcDbVertex
100
AcDb2dVertex
 10
190.284424
 20
171.299276
 30
0.0
  0
VERTEX
  5
62C
330
629
100
AcDbEntity
  8
001
370
    50
100
AcDbVertex
100
AcDb2dVertex
 10
190.546693
 20
170.996704
 30
0.0
  0
VERTEX
  5
62D
330
629
100
AcDbEntity
  8
001
370
    50
100
AcDbVertex
100
AcDb2dVertex
 10
190.931235
 20
170.555552
 30
0.0
  0
VERTEX
  5
62E
330
629
100
AcDbEntity
  8
001
370
    50
100
AcDbVertex
100
AcDb2dVertex
 10
191.2584
 20
170.182957
 30
0.0
  0
VERTEX
  5
62F
330
629
100
AcDbEntity
  8
001
370
    50
100
AcDbVertex
100
AcDb2dVertex
 10
191.514639
 20
169.892605
 30
0.0
  0
SEQEND
  5
62A
330
629
100
AcDbEntity
  8
001
370
    50
  0
LINE
  5
630
330
1F
100
AcDbEntity
  8
001
370
    50
100
AcDbLine
 10
189.165928
 20
169.937566
 30
0.0
 11
187.599143
 21
171.541345
 31
0.0
  0
POLYLINE
  5
631
330
1F
100
AcDbEntity
  8
001
370
    50
100
AcDb2dPolyline
 66
     1
 10
0.0
 20
0.0
 30
0.0
  0
VERTEX
  5
633
330
631
100
AcDbEntity
  8
001
370
    50
100
AcDbVertex
100
AcDb2dVertex
 10
195.13372
 20
165.596722
 30
0.0
  0
VERTEX
  5
634
330
631
100
AcDbEntity
  8
001
370
    50
100
AcDbVertex
100
AcDb2dVertex
 10
195.334589
 20
165.354783
 30
0.0
  0
VERTEX
  5
635
330
631
100
AcDbEntity
  8
001
370
    50
100
AcDbVertex
100
AcDb2dVertex
 10
195.473412
 20
165.188057
 30
0.0
  0
SEQEND
  5
632
330
631
100
AcDbEntity
  8
001
370
    50
  0
LINE
  5
636
330
1F
100
AcDbEntity
  8
001
370
    50
100
AcDbLine
 10
195.06077
 20
163.903535
 30
0.0
 11
194.275186
 21
164.707668
 31
0.0
  0
POLYLINE
  5
637
330
1F
100
AcDbEntity
  8
001
370
    50
100
AcDb2dPolyline
 66
     1
 10
0.0
 20
0.0
 30
0.0
  0
VERTEX
  5
639
330
637
100
AcDbEntity
  8
001
370
    50
100
AcDbVertex
100
AcDb2dVertex
 10
189.218687
 20
156.896652
 30
0.0
  0
VERTEX
  5
63A
330
637
100
AcDbEntity
  8
001
370
    50
100
AcDbVertex
100
AcDb2dVertex
 10
189.524922
 20
156.904405
 30
0.0
  0
VERTEX
  5
63B
330
637
100
AcDbEntity
  8
001
370
    50
100
AcDbVertex
100
AcDb2dVertex
 10
189.831775
 20
156.9123
 30
0.0
  0
VERTEX
  5
63C
330
637
100
AcDbEntity
  8
001
370
    50
100
AcDbVertex
100
AcDb2dVertex
 10
193.36063
 20
157.011242
 30
0.0
  0
VERTEX
  5
63D
330
637
100
AcDbEntity
  8
001
370
    50
100
AcDbVertex
100
AcDb2dVertex
 10
195.774904
 20
157.086225
 30
0.0
  0
SEQEND
  5
638
330
637
100
AcDbEntity
  8
001
370
    50
  0
POLYLINE
  5
63E
330
1F
100
AcDbEntity
  8
001
370
    50
100
AcDb2dPolyline
 66
     1
 10
0.0
 20
0.0
 30
0.0
  0
VERTEX
  5
640
330
63E
100
AcDbEntity
  8
001
370
    50
100
AcDbVertex
100
AcDb2dVertex
 10
183.856313
 20
156.777138
 30
0.0
  0
VERTEX
  5
641
330
63E
100
AcDbEntity
  8
001
370
    50
100
AcDbVertex
100
AcDb2dVertex
 10
184.452817
 20
156.788961
 30
0.0
  0
VERTEX
  5
642
330
63E
100
AcDbEntity
  8
001
370
    50
100
AcDbVertex
100
AcDb2dVertex
 10
185.247049
 20
156.80537
 30
0.0
  0
SEQEND
  5
63F
330
63E
100
AcDbEntity
  8
001
370
    50
  0
LINE
  5
643
330
1F
100
AcDbEntity
  8
001
370
     9
100
AcDbLine
 10
75.600463
 20
11.622351
 30
0.0
 11
58.277414
 21
11.622351
 31
0.0
  0
LINE
  5
644
330
1F
100
AcDbEntity
  8
001
370
    50
100
AcDbLine
 10
32.106344
 20
82.194009
 30
0.0
 11
102.106344
 21
82.194009
 31
0.0
  0
LINE
  5
645
330
1F
100
AcDbEntity
  8
001
370
    50
100
AcDbLine
 10
91.106344
 20
81.194009
 30
0.0
 11
91.106344
 21
50.194009
 31
0.0
  0
LINE
  5
646
330
1F
100
AcDbEntity
  8
001
370
    50
100
AcDbLine
 10
43.106344
 20
81.194009
 30
0.0
 11
43.106344
 21
50.194009
 31
0.0
  0
LINE
  5
647
330
1F
100
AcDbEntity
  8
001
370
    50
100
AcDbLine
 10
43.106344
 20
50.194009
 30
0.0
 11
91.106344
 21
50.194009
 31
0.0
  0
LINE
  5
648
330
1F
100
AcDbEntity
  8
001
370
    50
100
AcDbLine
 10
102.106344
 20
32.194009
 30
0.0
 11
32.106344
 21
32.194009
 31
0.0
  0
LINE
  5
649
330
1F
100
AcDbEntity
  8
001
370
    50
100
AcDbLine
 10
83.606344
 20
49.194009
 30
0.0
 11
83.606344
 21
32.194009
 31
0.0
  0
LINE
  5
64A
330
1F
100
AcDbEntity
  8
001
370
    50
100
AcDbLine
 10
50.606344
 20
49.194009
 30
0.0
 11
50.606344
 21
32.194009
 31
0.0
  0
LINE
  5
64B
330
1F
100
AcDbEntity
  8
001
370
    50
100
AcDbLine
 10
83.606344
 20
49.194009
 30
0.0
 11
84.606344
 21
50.194009
 31
0.0
  0
LINE
  5
64C
330
1F
100
AcDbEntity
  8
001
370
    50
100
AcDbLine
 10
50.606344
 20
49.194009
 30
0.0
 11
49.606344
 21
50.194009
 31
0.0
  0
LINE
  5
64D
330
1F
100
AcDbEntity
  8
001
370
    50
100
AcDbLine
 10
43.106344
 20
81.194009
 30
0.0
 11
42.106344
 21
82.194009
 31
0.0
  0
LINE
  5
64E
330
1F
100
AcDbEntity
  8
001
  6
CENTER
370
     9
100
AcDbLine
 10
67.106344
 20
85.374561
 30
0.0
 11
67.106344
 21
27.670262
 31
0.0
  0
LINE
  5
64F
330
1F
100
AcDbEntity
  8
001
370
    50
100
AcDbLine
 10
91.106344
 20
81.194009
 30
0.0
 11
43.106344
 21
81.194009
 31
0.0
  0
LINE
  5
650
330
1F
100
AcDbEntity
  8
001
370
    50
100
AcDbLine
 10
50.606344
 20
49.194009
 30
0.0
 11
83.606344
 21
49.194009
 31
0.0
  0
LINE
  5
651
330
1F
100
AcDbEntity
  8
001
370
    50
100
AcDbLine
 10
91.106344
 20
81.194009
 30
0.0
 11
92.106344
 21
82.194009
 31
0.0
  0
TEXT
  5
652
330
1F
100
AcDbEntity
  8
001
370
    30
100
AcDbText
 10
58.887063
 20
12.071038
 30
0.0
 40
4.0
  1
加工形状
 41
0.833333
100
AcDbText
  0
LINE
  5
653
330
1F
100
AcDbEntity
  8
001
  6
PHANTOM
370
     9
100
AcDbLine
 10
178.872474
 20
210.405778
 30
0.0
 11
178.872474
 21
220.405778
 31
0.0
  0
LINE
  5
654
330
1F
100
AcDbEntity
  8
001
  6
PHANTOM
370
     9
100
AcDbLine
 10
177.872474
 20
209.405778
 30
0.0
 11
146.872474
 21
209.405778
 31
0.0
  0
LINE
  5
655
330
1F
100
AcDbEntity
  8
001
  6
PHANTOM
370
     9
100
AcDbLine
 10
146.872474
 20
202.905778
 30
0.0
 11
146.872474
 21
209.405778
 31
0.0
  0
LINE
  5
656
330
1F
100
AcDbEntity
  8
001
  6
PHANTOM
370
     9
100
AcDbLine
 10
146.872474
 20
202.905778
 30
0.0
 11
145.872474
 21
201.905778
 31
0.0
  0
LINE
  5
657
330
1F
100
AcDbEntity
  8
001
  6
PHANTOM
370
     9
100
AcDbLine
 10
179.872474
 20
211.405778
 30
0.0
 11
177.872474
 21
209.405778
 31
0.0
  0
LINE
  5
658
330
1F
100
AcDbEntity
  8
001
370
    50
100
AcDbLine
 10
160.166163
 20
162.669314
 30
0.0
 11
176.283847
 21
162.669314
 31
0.0
  0
LINE
  5
659
330
1F
100
AcDbEntity
  8
001
370
    50
100
AcDbLine
 10
146.872474
 20
167.905778
 30
0.0
 11
144.972474
 21
169.805779
 31
0.0
  0
POLYLINE
  5
65A
330
1F
100
AcDbEntity
  8
001
370
    50
100
AcDb2dPolyline
 66
     1
 10
0.0
 20
0.0
 30
0.0
  0
VERTEX
  5
65C
330
65A
100
AcDbEntity
  8
001
370
    50
100
AcDbVertex
100
AcDb2dVertex
 10
146.872475
 20
162.199541
 30
0.0
  0
VERTEX
  5
65D
330
65A
100
AcDbEntity
  8
001
370
    50
100
AcDbVertex
100
AcDb2dVertex
 10
146.876263
 20
162.134077
 30
0.0
  0
VERTEX
  5
65E
330
65A
100
AcDbEntity
  8
001
370
    50
100
AcDbVertex
100
AcDb2dVertex
 10
146.887499
 20
162.044877
 30
0.0
  0
VERTEX
  5
65F
330
65A
100
AcDbEntity
  8
001
370
    50
100
AcDbVertex
100
AcDb2dVertex
 10
146.906142
 20
161.966015
 30
0.0
  0
VERTEX
  5
660
330
65A
100
AcDbEntity
  8
001
370
    50
100
AcDbVertex
100
AcDb2dVertex
 10
146.931996
 20
161.895928
 30
0.0
  0
VERTEX
  5
661
330
65A
100
AcDbEntity
  8
001
370
    50
100
AcDbVertex
100
AcDb2dVertex
 10
146.964768
 20
161.826417
 30
0.0
  0
VERTEX
  5
662
330
65A
100
AcDbEntity
  8
001
370
    50
100
AcDbVertex
100
AcDb2dVertex
 10
147.004255
 20
161.758656
 30
0.0
  0
VERTEX
  5
663
330
65A
100
AcDbEntity
  8
001
370
    50
100
AcDbVertex
100
AcDb2dVertex
 10
147.049996
 20
161.69588
 30
0.0
  0
VERTEX
  5
664
330
65A
100
AcDbEntity
  8
001
370
    50
100
AcDbVertex
100
AcDb2dVertex
 10
147.101499
 20
161.638336
 30
0.0
  0
VERTEX
  5
665
330
65A
100
AcDbEntity
  8
001
370
    50
100
AcDbVertex
100
AcDb2dVertex
 10
147.158078
 20
161.58611
 30
0.0
  0
VERTEX
  5
666
330
65A
100
AcDbEntity
  8
001
370
    50
100
AcDbVertex
100
AcDb2dVertex
 10
147.219991
 20
161.539592
 30
0.0
  0
VERTEX
  5
667
330
65A
100
AcDbEntity
  8
001
370
    50
100
AcDbVertex
100
AcDb2dVertex
 10
147.286648
 20
161.499542
 30
0.0
  0
VERTEX
  5
668
330
65A
100
AcDbEntity
  8
001
370
    50
100
AcDbVertex
100
AcDb2dVertex
 10
147.355177
 20
161.466218
 30
0.0
  0
VERTEX
  5
669
330
65A
100
AcDbEntity
  8
001
370
    50
100
AcDbVertex
100
AcDb2dVertex
 10
147.424125
 20
161.439985
 30
0.0
  0
VERTEX
  5
66A
330
65A
100
AcDbEntity
  8
001
370
    50
100
AcDbVertex
100
AcDb2dVertex
 10
147.501863
 20
161.421035
 30
0.0
  0
VERTEX
  5
66B
330
65A
100
AcDbEntity
  8
001
370
    50
100
AcDbVertex
100
AcDb2dVertex
 10
147.589948
 20
161.409606
 30
0.0
  0
VERTEX
  5
66C
330
65A
100
AcDbEntity
  8
001
370
    50
100
AcDbVertex
100
AcDb2dVertex
 10
147.654412
 20
161.405778
 30
0.0
  0
SEQEND
  5
65B
330
65A
100
AcDbEntity
  8
001
370
    50
  0
LINE
  5
66D
330
1F
100
AcDbEntity
  8
001
370
    50
100
AcDbLine
 10
179.872474
 20
159.405778
 30
0.0
 11
176.701565
 21
162.576688
 31
0.0
  0
LINE
  5
66E
330
1F
100
AcDbEntity
  8
001
370
    50
100
AcDbLine
 10
179.544092
 20
167.553343
 30
0.0
 11
179.525269
 21
166.539429
 31
0.0
  0
POLYLINE
  5
66F
330
1F
100
AcDbEntity
  8
001
370
    50
100
AcDb2dPolyline
 66
     1
 10
0.0
 20
0.0
 30
0.0
  0
VERTEX
  5
671
330
66F
100
AcDbEntity
  8
001
370
    50
100
AcDbVertex
100
AcDb2dVertex
 10
179.120659
 20
166.131863
 30
0.0
  0
VERTEX
  5
672
330
66F
100
AcDbEntity
  8
001
370
    50
100
AcDbVertex
100
AcDb2dVertex
 10
179.122693
 20
166.252144
 30
0.0
  0
VERTEX
  5
673
330
66F
100
AcDbEntity
  8
001
370
    50
100
AcDbVertex
100
AcDb2dVertex
 10
179.124727
 20
166.372424
 30
0.0
  0
VERTEX
  5
674
330
66F
100
AcDbEntity
  8
001
370
    50
100
AcDbVertex
100
AcDb2dVertex
 10
179.128823
 20
166.614999
 30
0.0
  0
VERTEX
  5
675
330
66F
100
AcDbEntity
  8
001
370
    50
100
AcDbVertex
100
AcDb2dVertex
 10
179.133954
 20
166.919752
 30
0.0
  0
VERTEX
  5
676
330
66F
100
AcDbEntity
  8
001
370
    50
100
AcDbVertex
100
AcDb2dVertex
 10
179.140158
 20
167.289783
 30
0.0
  0
VERTEX
  5
677
330
66F
100
AcDbEntity
  8
001
370
    50
100
AcDbVertex
100
AcDb2dVertex
 10
179.144387
 20
167.542962
 30
0.0
  0
SEQEND
  5
670
330
66F
100
AcDbEntity
  8
001
370
    50
  0
LINE
  5
678
330
1F
100
AcDbEntity
  8
001
370
    50
100
AcDbLine
 10
179.872474
 20
159.405778
 30
0.0
 11
182.706625
 21
159.405778
 31
0.0
  0
LINE
  5
679
330
1F
100
AcDbEntity
  8
001
370
    50
100
AcDbLine
 10
183.856313
 20
156.777138
 30
0.0
 11
181.286677
 21
159.405778
 31
0.0
  0
ARC
  5
67A
330
1F
100
AcDbEntity
  8
001
370
    50
100
AcDbCircle
 10
187.17616
 20
155.876787
 30
0.0
 40
0.731008624496607
100
AcDbArc
 50
224.331492
 51
315.208561
  0
LINE
  5
67B
330
1F
100
AcDbEntity
  8
001
  6
CENTER
370
     9
100
AcDbLine
 10
184.235599
 20
155.145778
 30
0.0
 11
187.17616
 21
155.145778
 31
0.0
  0
LINE
  5
67C
330
1F
100
AcDbEntity
  8
001
  6
PHANTOM
370
     9
100
AcDbLine
 10
179.872474
 20
211.405778
 30
0.0
 11
182.706625
 21
211.405778
 31
0.0
  0
LINE
  5
67D
330
1F
100
AcDbEntity
  8
001
  6
CENTER
370
     9
100
AcDbLine
 10
184.235599
 20
215.665778
 30
0.0
 11
187.17616
 21
215.665778
 31
0.0
  0
LINE
  5
67E
330
1F
100
AcDbEntity
  8
001
  6
PHANTOM
370
     9
100
AcDbLine
 10
145.872474
 20
201.905778
 30
0.0
 11
137.427247
 21
201.905778
 31
0.0
  0
LINE
  5
67F
330
1F
100
AcDbEntity
  8
001
  6
PHANTOM
370
     9
100
AcDbLine
 10
145.872474
 20
168.905778
 30
0.0
 11
137.427247
 21
168.905778
 31
0.0
  0
ENDSEC
  0
SECTION
  2
OBJECTS
  0
DICTIONARY
  5
C
330
0
100
AcDbDictionary
281
     1
  3
ACAD_GROUP
350
D
  3
ACAD_LAYOUT
350
1A
  3
ACAD_MLEADERSTYLE
350
683
  3
ACAD_MLINESTYLE
350
17
  3
ACAD_PLOTSETTINGS
350
19
  3
ACAD_PLOTSTYLENAME
350
E
  3
ACAD_SCALELIST
350
3B
  3
ACAD_TABLESTYLE
350
682
  3
ACAD_VISUALSTYLE
350
2A
  3
AcDbVariableDictionary
350
680
  0
DICTIONARY
  5
D
102
{ACAD_REACTORS
330
C
102
}
330
C
100
AcDbDictionary
281
     1
  0
DICTIONARY
  5
1A
102
{ACAD_REACTORS
330
C
102
}
330
C
100
AcDbDictionary
281
     1
  3
Layout1
350
1E
  3
Layout2
350
26
  3
Model
350
22
  0
DICTIONARY
  5
683
102
{ACAD_REACTORS
330
C
102
}
330
C
100
AcDbDictionary
281
     1
  0
DICTIONARY
  5
17
102
{ACAD_REACTORS
330
C
102
}
330
C
100
AcDbDictionary
281
     1
  3
Standard
350
18
  0
DICTIONARY
  5
19
102
{ACAD_REACTORS
330
C
102
}
330
C
100
AcDbDictionary
281
     1
  0
ACDBDICTIONARYWDFLT
  5
E
102
{ACAD_REACTORS
330
C
102
}
330
C
100
AcDbDictionary
281
     1
  3
Normal
350
F
100
AcDbDictionaryWithDefault
340
F
  0
DICTIONARY
  5
3B
102
{ACAD_REACTORS
330
C
102
}
330
C
100
AcDbDictionary
281
     1
  3
A0
350
3C
  3
A1
350
3D
  3
A2
350
3E
  3
A3
350
3F
  3
A4
350
40
  3
A5
350
41
  3
A6
350
42
  3
A7
350
43
  3
A8
350
44
  3
A9
350
45
  3
B0
350
46
  3
B1
350
47
  3
B2
350
48
  3
B3
350
49
  3
B4
350
4A
  3
B5
350
4B
  3
B6
350
4C
  3
B7
350
4D
  3
B8
350
4E
  3
B9
350
4F
  3
C0
350
50
  3
C1
350
51
  3
C2
350
52
  3
C3
350
53
  3
C4
350
54
  3
C5
350
55
  3
C6
350
56
  3
C7
350
57
  3
C8
350
58
  3
C9
350
59
  3
D0
350
5A
  3
D1
350
5B
  3
D2
350
5C
  0
DICTIONARY
  5
682
102
{ACAD_REACTORS
330
C
102
}
330
C
100
AcDbDictionary
281
     1
  0
DICTIONARY
  5
2A
102
{ACAD_REACTORS
330
C
102
}
330
C
100
AcDbDictionary
281
     1
  3
2dWireframe
350
2F
  3
3D Hidden
350
31
  3
3dWireframe
350
30
  3
Basic
350
32
  3
Brighten
350
36
  3
ColorChange
350
3A
  3
Conceptual
350
34
  3
Dim
350
35
  3
Facepattern
350
39
  3
Flat
350
2B
  3
FlatWithEdges
350
2C
  3
Gouraud
350
2D
  3
GouraudWithEdges
350
2E
  3
Linepattern
350
38
  3
Realistic
350
33
  3
Thicken
350
37
  0
DICTIONARY
  5
680
102
{ACAD_REACTORS
330
C
102
}
330
C
100
AcDbDictionary
281
     1
  3
CANNOSCALE
350
681
  3
PSOLHEIGHT
350
685
  3
PSOLWIDTH
350
684
  0
LAYOUT
  5
1E
102
{ACAD_REACTORS
330
1A
102
}
330
1A
100
AcDbPlotSettings
  1

  2
none_device
  4

  6

 40
0.0
 41
0.0
 42
0.0
 43
0.0
 44
0.0
 45
0.0
 46
0.0
 47
0.0
 48
0.0
 49
0.0
140
0.0
141
0.0
142
1.0
143
1.0
 70
   688
 72
     0
 73
     0
 74
     5
  7

 75
    16
147
1.0
148
0.0
149
0.0
100
AcDbLayout
  1
Layout1
 70
     1
 71
     1
 10
0.0
 20
0.0
 11
12.0
 21
9.0
 12
0.0
 22
0.0
 32
0.0
 14
1.000000E+20
 24
1.000000E+20
 34
0.0
 15
-1.000000E+20
 25
-1.000000E+20
 35
0.0
146
0.0
 13
0.0
 23
0.0
 33
0.0
 16
1.0
 26
0.0
 36
0.0
 17
0.0
 27
1.0
 37
0.0
 76
     0
330
1B
  0
LAYOUT
  5
26
102
{ACAD_REACTORS
330
1A
102
}
330
1A
100
AcDbPlotSettings
  1

  2
none_device
  4

  6

 40
0.0
 41
0.0
 42
0.0
 43
0.0
 44
0.0
 45
0.0
 46
0.0
 47
0.0
 48
0.0
 49
0.0
140
0.0
141
0.0
142
1.0
143
1.0
 70
   688
 72
     0
 73
     0
 74
     5
  7

 75
    16
147
1.0
148
0.0
149
0.0
100
AcDbLayout
  1
Layout2
 70
     1
 71
     2
 10
0.0
 20
0.0
 11
0.0
 21
0.0
 12
0.0
 22
0.0
 32
0.0
 14
0.0
 24
0.0
 34
0.0
 15
0.0
 25
0.0
 35
0.0
146
0.0
 13
0.0
 23
0.0
 33
0.0
 16
1.0
 26
0.0
 36
0.0
 17
0.0
 27
1.0
 37
0.0
 76
     0
330
23
  0
LAYOUT
  5
22
102
{ACAD_REACTORS
330
1A
102
}
330
1A
100
AcDbPlotSettings
  1

  2
none_device
  4

  6

 40
0.0
 41
0.0
 42
0.0
 43
0.0
 44
0.0
 45
0.0
 46
0.0
 47
0.0
 48
0.0
 49
0.0
140
0.0
141
0.0
142
1.0
143
1.0
 70
  1712
 72
     0
 73
     0
 74
     0
  7

 75
     0
147
1.0
148
0.0
149
0.0
100
AcDbLayout
  1
Model
 70
     1
 71
     0
 10
0.0
 20
0.0
 11
12.0
 21
9.0
 12
0.0
 22
0.0
 32
0.0
 14
32.106354
 24
11.622345
 34
0.0
 15
353.580566
 25
244.074203
 35
0.0
146
0.0
 13
0.0
 23
0.0
 33
0.0
 16
1.0
 26
0.0
 36
0.0
 17
0.0
 27
1.0
 37
0.0
 76
     0
330
1F
331
29
  0
MLINESTYLE
  5
18
102
{ACAD_REACTORS
330
17
102
}
330
17
100
AcDbMlineStyle
  2
Standard
 70
     0
  3

 62
   256
 51
90.0
 52
90.0
 71
     2
 49
0.5
 62
   256
  6
BYLAYER
 49
-0.5
 62
   256
  6
BYLAYER
  0
ACDBPLACEHOLDER
  5
F
102
{ACAD_REACTORS
330
E
102
}
330
E
  0
SCALE
  5
3C
102
{ACAD_REACTORS
330
3B
102
}
330
3B
100
AcDbScale
 70
     0
300
1:1
140
1.0
141
1.0
290
     1
  0
SCALE
  5
3D
102
{ACAD_REACTORS
330
3B
102
}
330
3B
100
AcDbScale
 70
     0
300
1:2
140
1.0
141
2.0
290
     0
  0
SCALE
  5
3E
102
{ACAD_REACTORS
330
3B
102
}
330
3B
100
AcDbScale
 70
     0
300
1:4
140
1.0
141
4.0
290
     0
  0
SCALE
  5
3F
102
{ACAD_REACTORS
330
3B
102
}
330
3B
100
AcDbScale
 70
     0
300
1:5
140
1.0
141
5.0
290
     0
  0
SCALE
  5
40
102
{ACAD_REACTORS
330
3B
102
}
330
3B
100
AcDbScale
 70
     0
300
1:8
140
1.0
141
8.0
290
     0
  0
SCALE
  5
41
102
{ACAD_REACTORS
330
3B
102
}
330
3B
100
AcDbScale
 70
     0
300
1:10
140
1.0
141
10.0
290
     0
  0
SCALE
  5
42
102
{ACAD_REACTORS
330
3B
102
}
330
3B
100
AcDbScale
 70
     0
300
1:16
140
1.0
141
16.0
290
     0
  0
SCALE
  5
43
102
{ACAD_REACTORS
330
3B
102
}
330
3B
100
AcDbScale
 70
     0
300
1:20
140
1.0
141
20.0
290
     0
  0
SCALE
  5
44
102
{ACAD_REACTORS
330
3B
102
}
330
3B
100
AcDbScale
 70
     0
300
1:30
140
1.0
141
30.0
290
     0
  0
SCALE
  5
45
102
{ACAD_REACTORS
330
3B
102
}
330
3B
100
AcDbScale
 70
     0
300
1:40
140
1.0
141
40.0
290
     0
  0
SCALE
  5
46
102
{ACAD_REACTORS
330
3B
102
}
330
3B
100
AcDbScale
 70
     0
300
1:50
140
1.0
141
50.0
290
     0
  0
SCALE
  5
47
102
{ACAD_REACTORS
330
3B
102
}
330
3B
100
AcDbScale
 70
     0
300
1:100
140
1.0
141
100.0
290
     0
  0
SCALE
  5
48
102
{ACAD_REACTORS
330
3B
102
}
330
3B
100
AcDbScale
 70
     0
300
2:1
140
2.0
141
1.0
290
     0
  0
SCALE
  5
49
102
{ACAD_REACTORS
330
3B
102
}
330
3B
100
AcDbScale
 70
     0
300
4:1
140
4.0
141
1.0
290
     0
  0
SCALE
  5
4A
102
{ACAD_REACTORS
330
3B
102
}
330
3B
100
AcDbScale
 70
     0
300
8:1
140
8.0
141
1.0
290
     0
  0
SCALE
  5
4B
102
{ACAD_REACTORS
330
3B
102
}
330
3B
100
AcDbScale
 70
     0
300
10:1
140
10.0
141
1.0
290
     0
  0
SCALE
  5
4C
102
{ACAD_REACTORS
330
3B
102
}
330
3B
100
AcDbScale
 70
     0
300
100:1
140
100.0
141
1.0
290
     0
  0
SCALE
  5
4D
102
{ACAD_REACTORS
330
3B
102
}
330
3B
100
AcDbScale
 70
     0
300
1/128" = 1'-0"
140
0.007812
141
12.0
290
     0
  0
SCALE
  5
4E
102
{ACAD_REACTORS
330
3B
102
}
330
3B
100
AcDbScale
 70
     0
300
1/64" = 1'-0"
140
0.015625
141
12.0
290
     0
  0
SCALE
  5
4F
102
{ACAD_REACTORS
330
3B
102
}
330
3B
100
AcDbScale
 70
     0
300
1/32" = 1'-0"
140
0.03125
141
12.0
290
     0
  0
SCALE
  5
50
102
{ACAD_REACTORS
330
3B
102
}
330
3B
100
AcDbScale
 70
     0
300
1/16" = 1'-0"
140
0.0625
141
12.0
290
     0
  0
SCALE
  5
51
102
{ACAD_REACTORS
330
3B
102
}
330
3B
100
AcDbScale
 70
     0
300
3/32" = 1'-0"
140
0.09375
141
12.0
290
     0
  0
SCALE
  5
52
102
{ACAD_REACTORS
330
3B
102
}
330
3B
100
AcDbScale
 70
     0
300
1/8" = 1'-0"
140
0.125
141
12.0
290
     0
  0
SCALE
  5
53
102
{ACAD_REACTORS
330
3B
102
}
330
3B
100
AcDbScale
 70
     0
300
3/16" = 1'-0"
140
0.1875
141
12.0
290
     0
  0
SCALE
  5
54
102
{ACAD_REACTORS
330
3B
102
}
330
3B
100
AcDbScale
 70
     0
300
1/4" = 1'-0"
140
0.25
141
12.0
290
     0
  0
SCALE
  5
55
102
{ACAD_REACTORS
330
3B
102
}
330
3B
100
AcDbScale
 70
     0
300
3/8" = 1'-0"
140
0.375
141
12.0
290
     0
  0
SCALE
  5
56
102
{ACAD_REACTORS
330
3B
102
}
330
3B
100
AcDbScale
 70
     0
300
1/2" = 1'-0"
140
0.5
141
12.0
290
     0
  0
SCALE
  5
57
102
{ACAD_REACTORS
330
3B
102
}
330
3B
100
AcDbScale
 70
     0
300
3/4" = 1'-0"
140
0.75
141
12.0
290
     0
  0
SCALE
  5
58
102
{ACAD_REACTORS
330
3B
102
}
330
3B
100
AcDbScale
 70
     0
300
1" = 1'-0"
140
1.0
141
12.0
290
     0
  0
SCALE
  5
59
102
{ACAD_REACTORS
330
3B
102
}
330
3B
100
AcDbScale
 70
     0
300
1-1/2" = 1'-0"
140
1.5
141
12.0
290
     0
  0
SCALE
  5
5A
102
{ACAD_REACTORS
330
3B
102
}
330
3B
100
AcDbScale
 70
     0
300
3" = 1'-0"
140
3.0
141
12.0
290
     0
  0
SCALE
  5
5B
102
{ACAD_REACTORS
330
3B
102
}
330
3B
100
AcDbScale
 70
     0
300
6" = 1'-0"
140
6.0
141
12.0
290
     0
  0
SCALE
  5
5C
102
{ACAD_REACTORS
330
3B
102
}
330
3B
100
AcDbScale
 70
     0
300
1'-0" = 1'-0"
140
12.0
141
12.0
290
     0
  0
VISUALSTYLE
  5
2F
102
{ACAD_REACTORS
330
2A
102
}
330
2A
100
AcDbVisualStyle
  2
2dWireframe
 70
     4
 71
     0
 72
     2
 73
     0
 90
        0
 40
-0.6
 41
-30.0
 62
     5
 63
     7
 74
     1
 91
        4
 64
     7
 65
   257
 75
     1
175
     1
 42
1.0
 92
        0
 66
   257
 43
1.0
 76
     1
 77
     6
 78
     2
 67
     7
 79
     5
170
     0
171
     0
290
     0
174
     0
 93
        1
 44
0.0
173
     0
291
     0
 45
0.0
1001
ACAD
1000
AcDbSavedByObjectVersion
1070
     0
  0
VISUALSTYLE
  5
31
102
{ACAD_REACTORS
330
2A
102
}
330
2A
100
AcDbVisualStyle
  2
3D Hidden
 70
     6
 71
     1
 72
     2
 73
     2
 90
        0
 40
-0.6
 41
-30.0
 62
     5
 63
     7
 74
     2
 91
        2
 64
     7
 65
   257
 75
     2
175
     1
 42
40.0
 92
        0
 66
   257
 43
1.0
 76
     1
 77
     6
 78
     2
 67
     7
 79
     3
170
     0
171
     0
290
     0
174
     0
 93
        1
 44
0.0
173
     0
291
     0
 45
0.0
1001
ACAD
1000
AcDbSavedByObjectVersion
1070
     0
  0
VISUALSTYLE
  5
30
102
{ACAD_REACTORS
330
2A
102
}
330
2A
100
AcDbVisualStyle
  2
3dWireframe
 70
     5
 71
     0
 72
     2
 73
     0
 90
        0
 40
-0.6
 41
-30.0
 62
     5
 63
     7
 74
     1
 91
        4
 64
     7
 65
   257
 75
     1
175
     1
 42
1.0
 92
        0
 66
   257
 43
1.0
 76
     1
 77
     6
 78
     2
 67
     7
 79
     5
170
     0
171
     0
290
     0
174
     0
 93
        1
 44
0.0
173
     0
291
     0
 45
0.0
1001
ACAD
1000
AcDbSavedByObjectVersion
1070
     0
  0
VISUALSTYLE
  5
32
102
{ACAD_REACTORS
330
2A
102
}
330
2A
100
AcDbVisualStyle
  2
Basic
 70
     7
 71
     1
 72
     0
 73
     1
 90
        0
 40
-0.6
 41
-30.0
 62
     5
 63
     7
 74
     0
 91
        4
 64
     7
 65
   257
 75
     1
175
     1
 42
1.0
 92
        8
 66
     7
 43
1.0
 76
     1
 77
     6
 78
     2
 67
     7
 79
     5
170
     0
171
     0
290
     0
174
     0
 93
        1
 44
0.0
173
     0
291
     1
 45
0.0
1001
ACAD
1000
AcDbSavedByObjectVersion
1070
     0
  0
VISUALSTYLE
  5
36
102
{ACAD_REACTORS
330
2A
102
}
330
2A
100
AcDbVisualStyle
  2
Brighten
 70
    12
 71
     2
 72
     2
 73
     0
 90
        0
 40
-0.6
 41
-30.0
 62
     5
 63
     7
 74
     1
 91
        4
 64
     7
 65
   257
 75
     1
175
     1
 42
1.0
 92
        8
 66
     7
 43
1.0
 76
     1
 77
     6
 78
     2
 67
     7
 79
     5
170
     0
171
     0
290
     0
174
     0
 93
        1
 44
50.0
173
     0
291
     1
 45
0.0
1001
ACAD
1000
AcDbSavedByObjectVersion
1070
     0
  0
VISUALSTYLE
  5
3A
102
{ACAD_REACTORS
330
2A
102
}
330
2A
100
AcDbVisualStyle
  2
ColorChange
 70
    16
 71
     2
 72
     2
 73
     3
 90
        0
 40
-0.6
 41
-30.0
 62
     5
 63
     8
 74
     1
 91
        4
 64
     7
 65
   257
 75
     1
175
     1
 42
1.0
 92
        8
 66
     8
 43
1.0
 76
     1
 77
     6
 78
     2
 67
     7
 79
     5
170
     0
171
     0
290
     0
174
     0
 93
        1
 44
0.0
173
     0
291
     1
 45
0.0
1001
ACAD
1000
AcDbSavedByObjectVersion
1070
     0
  0
VISUALSTYLE
  5
34
102
{ACAD_REACTORS
330
2A
102
}
330
2A
100
AcDbVisualStyle
  2
Conceptual
 70
     9
 71
     3
 72
     2
 73
     0
 90
        0
 40
-0.6
 41
-30.0
 62
     5
 63
     7
 74
     2
 91
        2
 64
     7
 65
   257
 75
     1
175
     1
 42
40.0
 92
        8
 66
     7
 43
1.0
 76
     1
 77
     6
 78
     2
 67
     7
 79
     3
170
     0
171
     0
290
     0
174
     0
 93
        1
 44
0.0
173
     0
291
     0
 45
0.0
1001
ACAD
1000
AcDbSavedByObjectVersion
1070
     0
  0
VISUALSTYLE
  5
35
102
{ACAD_REACTORS
330
2A
102
}
330
2A
100
AcDbVisualStyle
  2
Dim
 70
    11
 71
     2
 72
     2
 73
     0
 90
        0
 40
-0.6
 41
-30.0
 62
     5
 63
     7
 74
     1
 91
        4
 64
     7
 65
   257
 75
     1
175
     1
 42
1.0
 92
        8
 66
     7
 43
1.0
 76
     1
 77
     6
 78
     2
 67
     7
 79
     5
170
     0
171
     0
290
     0
174
     0
 93
        1
 44
-50.0
173
     0
291
     1
 45
0.0
1001
ACAD
1000
AcDbSavedByObjectVersion
1070
     0
  0
VISUALSTYLE
  5
39
102
{ACAD_REACTORS
330
2A
102
}
330
2A
100
AcDbVisualStyle
  2
Facepattern
 70
    15
 71
     2
 72
     2
 73
     0
 90
        0
 40
-0.6
 41
-30.0
 62
     5
 63
     7
 74
     1
 91
        4
 64
     7
 65
   257
 75
     1
175
     1
 42
1.0
 92
        8
 66
     7
 43
1.0
 76
     1
 77
     6
 78
     2
 67
     7
 79
     5
170
     0
171
     0
290
     0
174
     0
 93
        1
 44
0.0
173
     0
291
     1
 45
0.0
1001
ACAD
1000
AcDbSavedByObjectVersion
1070
     0
  0
VISUALSTYLE
  5
2B
102
{ACAD_REACTORS
330
2A
102
}
330
2A
100
AcDbVisualStyle
  2
Flat
 70
     0
 71
     2
 72
     1
 73
     1
 90
        2
 40
-0.6
 41
30.0
 62
     5
 63
     7
 74
     0
 91
        4
 64
     7
 65
   257
 75
     1
175
     1
 42
1.0
 92
        8
 66
     7
 43
1.0
 76
     1
 77
     6
 78
     2
 67
     7
 79
     5
170
     0
171
     0
290
     0
174
     0
 93
       13
 44
0.0
173
     0
291
     1
 45
0.0
1001
ACAD
1000
AcDbSavedByObjectVersion
1070
     0
  0
VISUALSTYLE
  5
2C
102
{ACAD_REACTORS
330
2A
102
}
330
2A
100
AcDbVisualStyle
  2
FlatWithEdges
 70
     1
 71
     2
 72
     1
 73
     1
 90
        2
 40
-0.6
 41
30.0
 62
     5
 63
     7
 74
     1
 91
        4
 64
     7
 65
   257
 75
     1
175
     1
 42
1.0
 92
        0
 66
   257
 43
1.0
 76
     1
 77
     6
 78
     2
 67
     7
 79
     5
170
     0
171
     0
290
     0
174
     0
 93
       13
 44
0.0
173
     0
291
     1
 45
0.0
1001
ACAD
1000
AcDbSavedByObjectVersion
1070
     0
  0
VISUALSTYLE
  5
2D
102
{ACAD_REACTORS
330
2A
102
}
330
2A
100
AcDbVisualStyle
  2
Gouraud
 70
     2
 71
     2
 72
     2
 73
     1
 90
        2
 40
-0.6
 41
30.0
 62
     5
 63
     7
 74
     0
 91
        4
 64
     7
 65
   257
 75
     1
175
     1
 42
1.0
 92
        0
 66
     7
 43
1.0
 76
     1
 77
     6
 78
     2
 67
     7
 79
     5
170
     0
171
     0
290
     0
174
     0
 93
       13
 44
0.0
173
     0
291
     1
 45
0.0
1001
ACAD
1000
AcDbSavedByObjectVersion
1070
     0
  0
VISUALSTYLE
  5
2E
102
{ACAD_REACTORS
330
2A
102
}
330
2A
100
AcDbVisualStyle
  2
GouraudWithEdges
 70
     3
 71
     2
 72
     2
 73
     1
 90
        2
 40
-0.6
 41
30.0
 62
     5
 63
     7
 74
     1
 91
        4
 64
     7
 65
   257
 75
     1
175
     1
 42
1.0
 92
        0
 66
   257
 43
1.0
 76
     1
 77
     6
 78
     2
 67
     7
 79
     5
170
     0
171
     0
290
     0
174
     0
 93
       13
 44
0.0
173
     0
291
     1
 45
0.0
1001
ACAD
1000
AcDbSavedByObjectVersion
1070
     0
  0
VISUALSTYLE
  5
38
102
{ACAD_REACTORS
330
2A
102
}
330
2A
100
AcDbVisualStyle
  2
Linepattern
 70
    14
 71
     2
 72
     2
 73
     0
 90
        0
 40
-0.6
 41
-30.0
 62
     5
 63
     7
 74
     1
 91
        4
 64
     7
 65
   257
 75
     7
175
     7
 42
1.0
 92
        8
 66
     7
 43
1.0
 76
     1
 77
     6
 78
     2
 67
     7
 79
     5
170
     0
171
     0
290
     0
174
     0
 93
        1
 44
0.0
173
     0
291
     1
 45
0.0
1001
ACAD
1000
AcDbSavedByObjectVersion
1070
     0
  0
VISUALSTYLE
  5
33
102
{ACAD_REACTORS
330
2A
102
}
330
2A
100
AcDbVisualStyle
  2
Realistic
 70
     8
 71
     2
 72
     2
 73
     0
 90
        0
 40
-0.6
 41
-30.0
 62
     5
 63
     7
 74
     1
 91
        0
 64
     7
 65
   257
 75
     1
175
     1
 42
1.0
 92
        8
 66
     8
 43
1.0
 76
     1
 77
     6
 78
     2
 67
     7
 79
     5
170
     0
171
     0
290
     0
174
     0
 93
       13
 44
0.0
173
     0
291
     0
 45
0.0
1001
ACAD
1000
AcDbSavedByObjectVersion
1070
     0
  0
VISUALSTYLE
  5
37
102
{ACAD_REACTORS
330
2A
102
}
330
2A
100
AcDbVisualStyle
  2
Thicken
 70
    13
 71
     2
 72
     2
 73
     0
 90
        0
 40
-0.6
 41
-30.0
 62
     5
 63
     7
 74
     1
 91
        4
 64
     7
 65
   257
 75
     1
175
     1
 42
1.0
 92
       12
 66
     7
 43
1.0
 76
     1
 77
     6
 78
     2
 67
     7
 79
     5
170
     0
171
     0
290
     0
174
     0
 93
        1
 44
0.0
173
     0
291
     1
 45
0.0
1001
ACAD
1000
AcDbSavedByObjectVersion
1070
     0
  0
DICTIONARYVAR
  5
681
102
{ACAD_REACTORS
330
680
102
}
330
680
100
DictionaryVariables
280
     0
  1
1:1
  0
DICTIONARYVAR
  5
685
102
{ACAD_REACTORS
330
680
102
}
330
680
100
DictionaryVariables
280
     0
  1
80.000000
  0
DICTIONARYVAR
  5
684
102
{ACAD_REACTORS
330
680
102
}
330
680
100
DictionaryVariables
280
     0
  1
5.000000
  0
ENDSEC
  0
EOF
