  0
SECTION
  2
HEADER
  9
$ACADVER
  1
AC1014
  9
$ACADMAINTVER
 70
     9
  9
$DWGCODEPAGE
  3
ANSI_932
  9
$INSBASE
 10
0.0
 20
0.0
 30
0.0
  9
$EXTMIN
 10
-14.68349456787109
 20
12.8396606156817
 30
0.0
  9
$EXTMAX
 10
206.6421485982312
 20
101.5523868560791
 30
0.0
  9
$LIMMIN
 10
-14.68349456787109
 20
12.8396606156817
  9
$LIMMAX
 10
206.6421485982312
 20
101.7023868560791
  9
$ORTHOMODE
 70
     0
  9
$REGENMODE
 70
     1
  9
$FILLMODE
 70
     1
  9
$QTEXTMODE
 70
     0
  9
$MIRRTEXT
 70
     1
  9
$DRAGMODE
 70
     2
  9
$LTSCALE
 40
0.0958496879853199
  9
$OSMODE
 70
   511
  9
$ATTMODE
 70
     1
  9
$TEXTSIZE
 40
2.5
  9
$TRACEWID
 40
1.0
  9
$TEXTSTYLE
  7
STANDARD
  9
$CLAYER
  8
0
  9
$CELTYPE
  6
BYLAYER
  9
$CECOLOR
 62
   256
  9
$CELTSCALE
 40
1.0
  9
$DELOBJ
 70
     1
  9
$DISPSILH
 70
     0
  9
$DIMSCALE
 40
1.0
  9
$DIMASZ
 40
2.5
  9
$DIMEXO
 40
0.625
  9
$DIMDLI
 40
3.75
  9
$DIMRND
 40
0.0
  9
$DIMDLE
 40
0.0
  9
$DIMEXE
 40
1.25
  9
$DIMTP
 40
0.0
  9
$DIMTM
 40
0.0
  9
$DIMTXT
 40
2.5
  9
$DIMCEN
 40
2.5
  9
$DIMTSZ
 40
0.0
  9
$DIMTOL
 70
     0
  9
$DIMLIM
 70
     0
  9
$DIMTIH
 70
     0
  9
$DIMTOH
 70
     0
  9
$DIMSE1
 70
     0
  9
$DIMSE2
 70
     0
  9
$DIMTAD
 70
     1
  9
$DIMZIN
 70
     0
  9
$DIMBLK
  1

  9
$DIMASO
 70
     1
  9
$DIMSHO
 70
     1
  9
$DIMPOST
  1

  9
$DIMAPOST
  1

  9
$DIMALT
 70
     0
  9
$DIMALTD
 70
     3
  9
$DIMALTF
 40
0.03937007874016
  9
$DIMLFAC
 40
1.0
  9
$DIMTOFL
 70
     1
  9
$DIMTVP
 40
0.0
  9
$DIMTIX
 70
     0
  9
$DIMSOXD
 70
     0
  9
$DIMSAH
 70
     0
  9
$DIMBLK1
  1

  9
$DIMBLK2
  1

  9
$DIMSTYLE
  2
STANDARD
  9
$DIMCLRD
 70
     0
  9
$DIMCLRE
 70
     0
  9
$DIMCLRT
 70
     0
  9
$DIMTFAC
 40
0.75
  9
$DIMGAP
 40
0.625
  9
$DIMJUST
 70
     0
  9
$DIMSD1
 70
     0
  9
$DIMSD2
 70
     0
  9
$DIMTOLJ
 70
     0
  9
$DIMTZIN
 70
     8
  9
$DIMALTZ
 70
     0
  9
$DIMALTTZ
 70
     0
  9
$DIMFIT
 70
     3
  9
$DIMUPT
 70
     0
  9
$DIMUNIT
 70
     2
  9
$DIMDEC
 70
     2
  9
$DIMTDEC
 70
     2
  9
$DIMALTU
 70
     2
  9
$DIMALTTD
 70
     3
  9
$DIMTXSTY
  7
STANDARD
  9
$DIMAUNIT
 70
     0
  9
$LUNITS
 70
     2
  9
$LUPREC
 70
     4
  9
$SKETCHINC
 40
1.0
  9
$FILLETRAD
 40
10.0
  9
$AUNITS
 70
     0
  9
$AUPREC
 70
     0
  9
$MENU
  1
.
  9
$ELEVATION
 40
0.0
  9
$PELEVATION
 40
0.0
  9
$THICKNESS
 40
0.0
  9
$LIMCHECK
 70
     0
  9
$CHAMFERA
 40
10.0
  9
$CHAMFERB
 40
10.0
  9
$CHAMFERC
 40
20.0
  9
$CHAMFERD
 40
0.0
  9
$SKPOLY
 70
     0
  9
$TDCREATE
 40
2455188.75
  9
$TDUPDATE
 40
2457855.595791412
  9
$TDINDWG
 40
0.0026400231
  9
$TDUSRTIMER
 40
2457855.218151586
  9
$USRTIMER
 70
     1
  9
$ANGBASE
 50
0.0
  9
$ANGDIR
 70
     0
  9
$PDMODE
 70
     0
  9
$PDSIZE
 40
0.0
  9
$PLINEWID
 40
0.0
  9
$COORDS
 70
     1
  9
$SPLFRAME
 70
     0
  9
$SPLINETYPE
 70
     6
  9
$SPLINESEGS
 70
     8
  9
$ATTDIA
 70
     0
  9
$ATTREQ
 70
     1
  9
$HANDLING
 70
     1
  9
$HANDSEED
  5
1D1
  9
$SURFTAB1
 70
     6
  9
$SURFTAB2
 70
     6
  9
$SURFTYPE
 70
     6
  9
$SURFU
 70
     6
  9
$SURFV
 70
     6
  9
$UCSNAME
  2

  9
$UCSORG
 10
0.0
 20
0.0
 30
0.0
  9
$UCSXDIR
 10
1.0
 20
0.0
 30
0.0
  9
$UCSYDIR
 10
0.0
 20
1.0
 30
0.0
  9
$PUCSNAME
  2

  9
$PUCSORG
 10
0.0
 20
0.0
 30
0.0
  9
$PUCSXDIR
 10
1.0
 20
0.0
 30
0.0
  9
$PUCSYDIR
 10
0.0
 20
1.0
 30
0.0
  9
$USERI1
 70
     0
  9
$USERI2
 70
     0
  9
$USERI3
 70
     0
  9
$USERI4
 70
     0
  9
$USERI5
 70
     0
  9
$USERR1
 40
0.0
  9
$USERR2
 40
0.0
  9
$USERR3
 40
0.0
  9
$USERR4
 40
0.0
  9
$USERR5
 40
0.0
  9
$WORLDVIEW
 70
     1
  9
$SHADEDGE
 70
     3
  9
$SHADEDIF
 70
    70
  9
$TILEMODE
 70
     1
  9
$MAXACTVP
 70
    64
  9
$PINSBASE
 10
0.0
 20
0.0
 30
0.0
  9
$PLIMCHECK
 70
     0
  9
$PEXTMIN
 10
1.000000000000000E+20
 20
1.000000000000000E+20
 30
1.000000000000000E+20
  9
$PEXTMAX
 10
-1.000000000000000E+20
 20
-1.000000000000000E+20
 30
-1.000000000000000E+20
  9
$PLIMMIN
 10
0.0
 20
0.0
  9
$PLIMMAX
 10
0.0
 20
0.0
  9
$UNITMODE
 70
     0
  9
$VISRETAIN
 70
     1
  9
$PLINEGEN
 70
     0
  9
$PSLTSCALE
 70
     0
  9
$TREEDEPTH
 70
  3020
  9
$PICKSTYLE
 70
     1
  9
$CMLSTYLE
  2
STANDARD
  9
$CMLJUST
 70
     0
  9
$CMLSCALE
 40
20.0
  9
$PROXYGRAPHICS
 70
     1
  9
$MEASUREMENT
 70
     1
  0
ENDSEC
  0
SECTION
  2
CLASSES
  0
CLASS
  1
ACDBDICTIONARYWDFLT
  2
AcDbDictionaryWithDefault
  3
ObjectDBX Classes
 90
        0
280
     0
281
     0
  0
CLASS
  1
VISUALSTYLE
  2
AcDbVisualStyle
  3
ObjectDBX Classes
 90
     4095
280
     0
281
     0
  0
CLASS
  1
MATERIAL
  2
AcDbMaterial
  3
ObjectDBX Classes
 90
     1153
280
     0
281
     0
  0
CLASS
  1
SCALE
  2
AcDbScale
  3
ObjectDBX Classes
 90
     1153
280
     0
281
     0
  0
CLASS
  1
TABLESTYLE
  2
AcDbTableStyle
  3
ObjectDBX Classes
 90
     4095
280
     0
281
     0
  0
CLASS
  1
MLEADERSTYLE
  2
AcDbMLeaderStyle
  3
ACDB_MLEADERSTYLE_CLASS
 90
     4095
280
     0
281
     0
  0
CLASS
  1
SUN
  2
AcDbSun
  3
SCENEOE
 90
     1153
280
     0
281
     0
  0
CLASS
  1
DICTIONARYVAR
  2
AcDbDictionaryVar
  3
ObjectDBX Classes
 90
        0
280
     0
281
     0
  0
CLASS
  1
ACDBPLACEHOLDER
  2
AcDbPlaceHolder
  3
ObjectDBX Classes
 90
        0
280
     0
281
     0
  0
CLASS
  1
LAYOUT
  2
AcDbLayout
  3
ObjectDBX Classes
 90
        0
280
     0
281
     0
  0
CLASS
  1
RASTERVARIABLES
  2
AcDbRasterVariables
  3
ISM
 90
        0
280
     0
281
     0
  0
CLASS
  1
XRECORD
  2
AcDbXrecord
  3
ObjectDBX Classes
 90
        0
280
     0
281
     0
  0
CLASS
  1
LWPOLYLINE
  2
AcDbPolyline
  3
ObjectDBX Classes
 90
        0
280
     0
281
     1
  0
CLASS
  1
HATCH
  2
AcDbHatch
  3
ObjectDBX Classes
 90
        0
280
     0
281
     1
  0
ENDSEC
  0
SECTION
  2
TABLES
  0
TABLE
  2
VPORT
  5
8
330
0
100
AcDbSymbolTable
 70
     1
  0
VPORT
  5
29
330
8
100
AcDbSymbolTableRecord
100
AcDbViewportTableRecord
  2
*ACTIVE
 70
     0
 10
0.0
 20
0.0
 11
1.0
 21
1.0
 12
90.89142297068574
 22
49.64197005117826
 13
0.0
 23
0.0
 14
10.0
 24
10.0
 15
10.0
 25
10.0
 16
0.0
 26
0.0
 36
1.0
 17
0.0
 27
0.0
 37
0.0
 40
121.6512
 41
2.08803611738149
 42
50.0
 43
0.0
 44
0.0
 50
0.0
 51
0.0
 71
    16
 72
   100
 73
     1
 74
     3
 75
     0
 76
     0
 77
     0
 78
     0
  0
ENDTAB
  0
TABLE
  2
LTYPE
  5
5
330
0
100
AcDbSymbolTable
 70
     7
  0
LTYPE
  5
14
330
5
100
AcDbSymbolTableRecord
100
AcDbLinetypeTableRecord
  2
BYBLOCK
 70
     0
  3

 72
    65
 73
     0
 40
0.0
  0
LTYPE
  5
15
330
5
100
AcDbSymbolTableRecord
100
AcDbLinetypeTableRecord
  2
BYLAYER
 70
     0
  3

 72
    65
 73
     0
 40
0.0
  0
LTYPE
  5
16
330
5
100
AcDbSymbolTableRecord
100
AcDbLinetypeTableRecord
  2
CONTINUOUS
 70
     0
  3
Solid line
 72
    65
 73
     0
 40
0.0
  0
LTYPE
  5
6F
330
5
100
AcDbSymbolTableRecord
100
AcDbLinetypeTableRecord
  2
DASHED
 70
     0
  3
ICAD/SX(2) Dashed __ __ __ __ __ __ __ __ __ __ __ __ __ _
 72
    65
 73
     2
 40
19.05
 49
12.7
 74
     0
 49
-6.35
 74
     0
  0
LTYPE
  5
70
330
5
100
AcDbSymbolTableRecord
100
AcDbLinetypeTableRecord
  2
CENTER
 70
     0
  3
ICAD/SX(3) Center ____ _ ____ _ ____ _ ____ _ ____ _ ____
 72
    65
 73
     4
 40
50.8
 49
31.75
 74
     0
 49
-6.35
 74
     0
 49
6.35
 74
     0
 49
-6.35
 74
     0
  0
LTYPE
  5
71
330
5
100
AcDbSymbolTableRecord
100
AcDbLinetypeTableRecord
  2
PHANTOM
 70
     0
  3
ICAD/SX(4) Phantom ______  __  __  ______  __  __  ______
 72
    65
 73
     6
 40
63.5
 49
31.75
 74
     0
 49
-6.35
 74
     0
 49
6.35
 74
     0
 49
-6.35
 74
     0
 49
6.35
 74
     0
 49
-6.35
 74
     0
  0
LTYPE
  5
72
330
5
100
AcDbSymbolTableRecord
100
AcDbLinetypeTableRecord
  2
DOT
 70
     0
  3
ICAD/SX(5) Dot . . . . . . . . . . . . . . . . . . . . . . . .
 72
    65
 73
     2
 40
6.35
 49
0.0
 74
     0
 49
-6.35
 74
     0
  0
LTYPE
  5
73
330
5
100
AcDbSymbolTableRecord
100
AcDbLinetypeTableRecord
  2
HIDDEN
 70
     0
  3
ICAD/SX(6) Hidden __ __ __ __ __ __ __ __ __ __ __ __ __ __
 72
    65
 73
     2
 40
9.525
 49
6.35
 74
     0
 49
-3.175
 74
     0
  0
LTYPE
  5
74
330
5
100
AcDbSymbolTableRecord
100
AcDbLinetypeTableRecord
  2
DOTSX
 70
     0
  3
ICAD/SX(5) Dot . . . . . . . . . . . . . . . . . . . . . . . .
 72
    65
 73
     2
 40
6.35
 49
3.175
 74
     0
 49
-3.175
 74
     0
  0
ENDTAB
  0
TABLE
  2
LAYER
  5
2
330
0
100
AcDbSymbolTable
 70
     3
  0
LAYER
  5
10
330
2
100
AcDbSymbolTableRecord
100
AcDbLayerTableRecord
  2
0
 70
     0
 62
     7
  6
CONTINUOUS
  0
LAYER
  5
75
330
2
100
AcDbSymbolTableRecord
100
AcDbLayerTableRecord
  2
NOLAYERNAME_001
 70
     0
 62
     7
  6
CONTINUOUS
  0
LAYER
  5
76
330
2
100
AcDbSymbolTableRecord
100
AcDbLayerTableRecord
  2
DEFPOINTS
 70
     0
 62
     7
  6
CONTINUOUS
  0
ENDTAB
  0
TABLE
  2
STYLE
  5
3
330
0
100
AcDbSymbolTable
 70
     2
  0
STYLE
  5
11
330
3
100
AcDbSymbolTableRecord
100
AcDbTextStyleTableRecord
  2
STANDARD
 70
     0
 40
0.0
 41
1.0
 50
0.0
 71
     0
 42
2.5
  3
txt
  4
extfont2
  0
STYLE
  5
6E
330
3
100
AcDbSymbolTableRecord
100
AcDbTextStyleTableRecord
  2

 70
     1
 40
0.0
 41
1.0
 50
0.0
 71
     0
 42
2.5
  3
ltypeshp.shx
  4

  0
ENDTAB
  0
TABLE
  2
VIEW
  5
6
330
0
100
AcDbSymbolTable
 70
     0
  0
ENDTAB
  0
TABLE
  2
UCS
  5
7
330
0
100
AcDbSymbolTable
 70
     0
  0
ENDTAB
  0
TABLE
  2
APPID
  5
9
330
0
100
AcDbSymbolTable
 70
     5
  0
APPID
  5
12
330
9
100
AcDbSymbolTableRecord
100
AcDbRegAppTableRecord
  2
ACAD
 70
     0
  0
APPID
  5
18D
330
9
100
AcDbSymbolTableRecord
100
AcDbRegAppTableRecord
  2
ACAD_DSTYLE_DIM_LINETYPE
 70
     0
  0
APPID
  5
18E
330
9
100
AcDbSymbolTableRecord
100
AcDbRegAppTableRecord
  2
ACAD_DSTYLE_DIM_EXT1_LINET
 70
     0
  0
APPID
  5
18F
330
9
100
AcDbSymbolTableRecord
100
AcDbRegAppTableRecord
  2
ACAD_DSTYLE_DIM_EXT2_LINET
 70
     0
  0
APPID
  5
1CA
330
9
100
AcDbSymbolTableRecord
100
AcDbRegAppTableRecord
  2
ACAD_MLEADERVER
 70
     0
  0
ENDTAB
  0
TABLE
  2
DIMSTYLE
  5
A
330
0
100
AcDbSymbolTable
 70
     1
  0
DIMSTYLE
105
27
102
{ACAD_REACTORS
330
C9
330
D7
330
E9
330
F7
330
105
330
113
330
121
330
12F
330
13E
330
14C
330
165
330
173
102
}
330
A
100
AcDbSymbolTableRecord
100
AcDbDimStyleTableRecord
  2
STANDARD
 70
     0
  3

  4

  5

  6

  7

 40
1.0
 41
2.5
 42
0.625
 43
3.75
 44
1.25
 45
0.0
 46
0.0
 47
0.0
 48
0.0
140
2.5
141
2.5
142
0.0
143
0.03937007874016
144
1.0
145
0.0
146
0.75
147
0.625
 71
     0
 72
     0
 73
     0
 74
     0
 75
     0
 76
     0
 77
     1
 78
     0
170
     0
171
     3
172
     1
173
     0
174
     0
175
     0
176
     0
177
     0
178
     0
270
     2
271
     2
272
     2
273
     2
274
     3
340
11
275
     0
280
     0
281
     0
282
     0
283
     0
284
     8
285
     0
286
     0
287
     3
288
     0
  0
ENDTAB
  0
TABLE
  2
BLOCK_RECORD
  5
1
330
0
100
AcDbSymbolTable
 70
    14
  0
BLOCK_RECORD
  5
1F
330
1
100
AcDbSymbolTableRecord
100
AcDbBlockTableRecord
  2
*MODEL_SPACE
  0
BLOCK_RECORD
  5
1B
330
1
100
AcDbSymbolTableRecord
100
AcDbBlockTableRecord
  2
*PAPER_SPACE
  0
BLOCK_RECORD
  5
23
330
1
100
AcDbSymbolTableRecord
100
AcDbBlockTableRecord
  2
*PAPER_SPACE0
  0
BLOCK_RECORD
  5
C0
330
1
100
AcDbSymbolTableRecord
100
AcDbBlockTableRecord
  2
_OPEN30
  0
BLOCK_RECORD
  5
CB
330
1
100
AcDbSymbolTableRecord
100
AcDbBlockTableRecord
  2
*D2
  0
BLOCK_RECORD
  5
D9
330
1
100
AcDbSymbolTableRecord
100
AcDbBlockTableRecord
  2
*D3
  0
BLOCK_RECORD
  5
EB
330
1
100
AcDbSymbolTableRecord
100
AcDbBlockTableRecord
  2
*D4
  0
BLOCK_RECORD
  5
F9
330
1
100
AcDbSymbolTableRecord
100
AcDbBlockTableRecord
  2
*D5
  0
BLOCK_RECORD
  5
107
330
1
100
AcDbSymbolTableRecord
100
AcDbBlockTableRecord
  2
*D6
  0
BLOCK_RECORD
  5
115
330
1
100
AcDbSymbolTableRecord
100
AcDbBlockTableRecord
  2
*D7
  0
BLOCK_RECORD
  5
123
330
1
100
AcDbSymbolTableRecord
100
AcDbBlockTableRecord
  2
*D8
  0
BLOCK_RECORD
  5
131
330
1
100
AcDbSymbolTableRecord
100
AcDbBlockTableRecord
  2
*D9
  0
BLOCK_RECORD
  5
140
330
1
100
AcDbSymbolTableRecord
100
AcDbBlockTableRecord
  2
*D10
  0
BLOCK_RECORD
  5
14E
330
1
100
AcDbSymbolTableRecord
100
AcDbBlockTableRecord
  2
*D11
  0
BLOCK_RECORD
  5
167
330
1
100
AcDbSymbolTableRecord
100
AcDbBlockTableRecord
  2
*D12
  0
BLOCK_RECORD
  5
175
330
1
100
AcDbSymbolTableRecord
100
AcDbBlockTableRecord
  2
*D13
  0
ENDTAB
  0
ENDSEC
  0
SECTION
  2
BLOCKS
  0
BLOCK
  5
20
330
1F
100
AcDbEntity
  8
0
100
AcDbBlockBegin
  2
*MODEL_SPACE
 70
     0
 10
0.0
 20
0.0
 30
0.0
  3
*MODEL_SPACE
  1

  0
ENDBLK
  5
21
330
1F
100
AcDbEntity
  8
0
100
AcDbBlockEnd
  0
BLOCK
  5
1C
330
1B
100
AcDbEntity
 67
     1
  8
0
100
AcDbBlockBegin
  2
*PAPER_SPACE
 70
     0
 10
0.0
 20
0.0
 30
0.0
  3
*PAPER_SPACE
  1

  0
ENDBLK
  5
1D
330
1B
100
AcDbEntity
 67
     1
  8
0
100
AcDbBlockEnd
  0
BLOCK
  5
24
330
23
100
AcDbEntity
  8
0
100
AcDbBlockBegin
  2
*PAPER_SPACE0
 70
     0
 10
0.0
 20
0.0
 30
0.0
  3
*PAPER_SPACE0
  1
*Paper_Space0
  0
ENDBLK
  5
25
330
23
100
AcDbEntity
  8
0
100
AcDbBlockEnd
  0
BLOCK
  5
C4
330
C0
100
AcDbEntity
  8
0
100
AcDbBlockBegin
  2
_OPEN30
 70
     0
 10
0.0
 20
0.0
 30
0.0
  3
_OPEN30
  1
_OPEN30
  0
LINE
  5
C1
330
C0
100
AcDbEntity
  8
0
  6
BYBLOCK
 62
     0
100
AcDbLine
 10
-1.0
 20
0.267949
 30
0.0
 11
0.0
 21
0.0
 31
0.0
  0
LINE
  5
C2
330
C0
100
AcDbEntity
  8
0
  6
BYBLOCK
 62
     0
100
AcDbLine
 10
0.0
 20
0.0
 30
0.0
 11
-1.0
 21
-0.267949
 31
0.0
  0
LINE
  5
C3
330
C0
100
AcDbEntity
  8
0
  6
BYBLOCK
 62
     0
100
AcDbLine
 10
0.0
 20
0.0
 30
0.0
 11
-1.0
 21
0.0
 31
0.0
  0
ENDBLK
  5
C5
330
C0
100
AcDbEntity
  8
0
100
AcDbBlockEnd
  0
BLOCK
  5
CC
330
CB
100
AcDbEntity
  8
0
100
AcDbBlockBegin
  2
*D2
 70
     1
 10
0.0
 20
0.0
 30
0.0
  3
*D2
  1
*D2
  0
LINE
  5
CE
330
CB
100
AcDbEntity
  8
NOLAYERNAME_001
  6
CONTINUOUS
 62
     0
100
AcDbLine
 10
205.4184544077117
 20
58.91151727979837
 30
0.0
 11
205.4184544077117
 21
36.23459812736406
 31
0.0
  0
LINE
  5
CF
330
CB
100
AcDbEntity
  8
NOLAYERNAME_001
  6
CONTINUOUS
 62
     0
100
AcDbLine
 10
181.4184544077117
 20
54.012537794232
 30
0.0
 11
181.4184544077117
 21
36.23459812736406
 31
0.0
  0
LINE
  5
D0
330
CB
100
AcDbEntity
  8
NOLAYERNAME_001
  6
CONTINUOUS
 62
     0
100
AcDbLine
 10
203.9184544077117
 20
38.98459812736405
 30
0.0
 11
182.9184544077117
 21
38.98459812736405
 31
0.0
  0
INSERT
  5
D1
330
CB
100
AcDbEntity
  8
NOLAYERNAME_001
 62
     0
100
AcDbBlockReference
  2
_OPEN30
 10
205.4184544077117
 20
38.98459812736405
 30
0.0
 41
1.5
 42
1.5
 43
1.5
  0
INSERT
  5
D2
330
CB
100
AcDbEntity
  8
NOLAYERNAME_001
 62
     0
100
AcDbBlockReference
  2
_OPEN30
 10
181.4184544077117
 20
38.98459812736405
 30
0.0
 41
1.5
 42
1.5
 43
1.5
 50
180.0
  0
MTEXT
  5
D3
330
CB
100
AcDbEntity
  8
NOLAYERNAME_001
 62
     0
100
AcDbMText
 10
193.4184544077117
 20
41.98459812736405
 30
0.0
 40
4.0
 41
0.0
 71
     5
 72
     1
  1
24
  0
POINT
  5
D4
330
CB
100
AcDbEntity
  8
DEFPOINTS
 62
     0
100
AcDbPoint
 10
205.4184544077117
 20
59.53651727979837
 30
0.0
  0
POINT
  5
D5
330
CB
100
AcDbEntity
  8
DEFPOINTS
 62
     0
100
AcDbPoint
 10
181.4184544077117
 20
54.637537794232
 30
0.0
  0
POINT
  5
D6
330
CB
100
AcDbEntity
  8
DEFPOINTS
 62
     0
100
AcDbPoint
 10
181.4184544077117
 20
38.98459812736405
 30
0.0
  0
ENDBLK
  5
CD
330
CB
100
AcDbEntity
  8
0
100
AcDbBlockEnd
  0
BLOCK
  5
DA
330
D9
100
AcDbEntity
  8
0
100
AcDbBlockBegin
  2
*D3
 70
     1
 10
0.0
 20
0.0
 30
0.0
  3
*D3
  1
*D3
  0
LINE
  5
DC
330
D9
100
AcDbEntity
  8
NOLAYERNAME_001
  6
CONTINUOUS
 62
     0
100
AcDbLine
 10
31.77022530270318
 20
47.48523179412979
 30
0.0
 11
31.77022530270318
 21
38.12480111357566
 31
0.0
  0
LINE
  5
DD
330
D9
100
AcDbEntity
  8
NOLAYERNAME_001
  6
CONTINUOUS
 62
     0
100
AcDbLine
 10
31.78658589539559
 20
47.48544596602007
 30
0.0
 11
32.03161340545972
 21
38.12822287127818
 31
0.0
  0
ARC
  5
DE
330
D9
100
AcDbEntity
  8
NOLAYERNAME_001
  6
CONTINUOUS
 62
     0
100
AcDbCircle
 10
31.77022530270318
 20
48.11023179412979
 30
0.0
 40
7.235430680554132
100
AcDbArc
 50
246.2009123388394
 51
258.1004561694197
  0
ARC
  5
DF
330
D9
100
AcDbEntity
  8
NOLAYERNAME_001
  6
CONTINUOUS
 62
     0
100
AcDbCircle
 10
31.77022530270318
 20
48.11023179412979
 30
0.0
 40
7.235430680554132
100
AcDbArc
 50
283.3995438305793
 51
295.2990876611597
  0
ARC
  5
E0
330
D9
100
AcDbEntity
  8
NOLAYERNAME_001
  6
CONTINUOUS
 62
     0
100
AcDbCircle
 10
31.77022530270318
 20
48.11023179412979
 30
0.0
 40
7.235430680554132
100
AcDbArc
 50
270.0
 51
271.499999999999
  0
INSERT
  5
E1
330
D9
100
AcDbEntity
  8
NOLAYERNAME_001
 62
     0
100
AcDbBlockReference
  2
_OPEN30
 10
31.77022530270318
 20
40.87480111357566
 30
0.0
 41
1.5
 42
1.5
 43
1.5
 50
354.0502280847098
  0
INSERT
  5
E2
330
D9
100
AcDbEntity
  8
NOLAYERNAME_001
 62
     0
100
AcDbBlockReference
  2
_OPEN30
 10
31.95962679761312
 20
40.87728051496097
 30
0.0
 41
1.5
 42
1.5
 43
1.5
 50
187.4497719152892
  0
MTEXT
  5
E3
330
D9
100
AcDbEntity
  8
NOLAYERNAME_001
 62
     0
100
AcDbMText
 10
34.72483129260925
 20
45.20997351461104
 30
0.0
 40
4.0
 41
0.0
 71
     5
 72
     1
  1
０°
 11
0.7005128915512433
 21
0.7136397471907771
 31
0.0
  0
POINT
  5
E4
330
D9
100
AcDbEntity
  8
DEFPOINTS
 62
     0
100
AcDbPoint
 10
31.83336554538301
 20
40.87507661660537
 30
0.0
  0
POINT
  5
E5
330
D9
100
AcDbEntity
  8
DEFPOINTS
 62
     0
100
AcDbPoint
 10
31.77022530270318
 20
48.71023179412978
 30
0.0
  0
POINT
  5
E6
330
D9
100
AcDbEntity
  8
DEFPOINTS
 62
     0
100
AcDbPoint
 10
31.77022530270318
 20
48.11023179412979
 30
0.0
  0
POINT
  5
E7
330
D9
100
AcDbEntity
  8
DEFPOINTS
 62
     0
100
AcDbPoint
 10
31.7676076078724
 20
48.21019752662735
 30
0.0
  0
POINT
  5
E8
330
D9
100
AcDbEntity
  8
DEFPOINTS
 62
     0
100
AcDbPoint
 10
31.77022530270318
 20
48.81023179412978
 30
0.0
  0
ENDBLK
  5
DB
330
D9
100
AcDbEntity
  8
0
100
AcDbBlockEnd
  0
BLOCK
  5
EC
330
EB
100
AcDbEntity
  8
0
100
AcDbBlockBegin
  2
*D4
 70
     1
 10
0.0
 20
0.0
 30
0.0
  3
*D4
  1
*D4
  0
LINE
  5
EE
330
EB
100
AcDbEntity
  8
NOLAYERNAME_001
  6
CONTINUOUS
 62
     0
100
AcDbLine
 10
72.77022530270318
 20
47.43892636465392
 30
0.0
 11
72.77022530270318
 21
33.59940953664208
 31
0.0
  0
LINE
  5
EF
330
EB
100
AcDbEntity
  8
NOLAYERNAME_001
  6
CONTINUOUS
 62
     0
100
AcDbLine
 10
31.77022530270318
 20
48.08523179412978
 30
0.0
 11
31.77022530270318
 21
33.59940953664208
 31
0.0
  0
LINE
  5
F0
330
EB
100
AcDbEntity
  8
NOLAYERNAME_001
  6
CONTINUOUS
 62
     0
100
AcDbLine
 10
71.27022530270318
 20
36.34940953664207
 30
0.0
 11
33.27022530270318
 21
36.34940953664207
 31
0.0
  0
INSERT
  5
F1
330
EB
100
AcDbEntity
  8
NOLAYERNAME_001
 62
     0
100
AcDbBlockReference
  2
_OPEN30
 10
72.77022530270318
 20
36.34940953664207
 30
0.0
 41
1.5
 42
1.5
 43
1.5
 50
360.0
  0
INSERT
  5
F2
330
EB
100
AcDbEntity
  8
NOLAYERNAME_001
 62
     0
100
AcDbBlockReference
  2
_OPEN30
 10
31.77022530270318
 20
36.34940953664207
 30
0.0
 41
1.5
 42
1.5
 43
1.5
 50
180.0
  0
MTEXT
  5
F3
330
EB
100
AcDbEntity
  8
NOLAYERNAME_001
 62
     0
100
AcDbMText
 10
52.27022530270318
 20
39.34940953664207
 30
0.0
 40
4.0
 41
0.0
 71
     5
 72
     1
  1
41
  0
POINT
  5
F4
330
EB
100
AcDbEntity
  8
DEFPOINTS
 62
     0
100
AcDbPoint
 10
72.77022530270318
 20
48.06392636465392
 30
0.0
  0
POINT
  5
F5
330
EB
100
AcDbEntity
  8
DEFPOINTS
 62
     0
100
AcDbPoint
 10
31.77022530270318
 20
48.71023179412978
 30
0.0
  0
POINT
  5
F6
330
EB
100
AcDbEntity
  8
DEFPOINTS
 62
     0
100
AcDbPoint
 10
31.77022530270318
 20
36.34940953664207
 30
0.0
  0
ENDBLK
  5
ED
330
EB
100
AcDbEntity
  8
0
100
AcDbBlockEnd
  0
BLOCK
  5
FA
330
F9
100
AcDbEntity
  8
0
100
AcDbBlockBegin
  2
*D5
 70
     1
 10
0.0
 20
0.0
 30
0.0
  3
*D5
  1
*D5
  0
LINE
  5
FC
330
F9
100
AcDbEntity
  8
NOLAYERNAME_001
  6
CONTINUOUS
 62
     0
100
AcDbLine
 10
23.77022530270318
 20
47.91151727979837
 30
0.0
 11
23.77022530270318
 21
26.34898688720893
 31
0.0
  0
LINE
  5
FD
330
F9
100
AcDbEntity
  8
NOLAYERNAME_001
  6
CONTINUOUS
 62
     0
100
AcDbLine
 10
31.77022530270318
 20
48.08523179412978
 30
0.0
 11
31.77022530270318
 21
26.34898688720893
 31
0.0
  0
LINE
  5
FE
330
F9
100
AcDbEntity
  8
NOLAYERNAME_001
  6
CONTINUOUS
 62
     0
100
AcDbLine
 10
25.27022530270318
 20
29.09898688720892
 30
0.0
 11
30.27022530270318
 21
29.09898688720892
 31
0.0
  0
INSERT
  5
FF
330
F9
100
AcDbEntity
  8
NOLAYERNAME_001
 62
     0
100
AcDbBlockReference
  2
_OPEN30
 10
23.77022530270318
 20
29.09898688720892
 30
0.0
 41
1.5
 42
1.5
 43
1.5
 50
180.0
  0
INSERT
  5
100
330
F9
100
AcDbEntity
  8
NOLAYERNAME_001
 62
     0
100
AcDbBlockReference
  2
_OPEN30
 10
31.77022530270318
 20
29.09898688720892
 30
0.0
 41
1.5
 42
1.5
 43
1.5
  0
MTEXT
  5
101
330
F9
100
AcDbEntity
  8
NOLAYERNAME_001
 62
     0
100
AcDbMText
 10
27.77022530270315
 20
32.09898688720892
 30
0.0
 40
4.0
 41
0.0
 71
     5
 72
     1
  1
8
  0
POINT
  5
102
330
F9
100
AcDbEntity
  8
DEFPOINTS
 62
     0
100
AcDbPoint
 10
23.77022530270318
 20
48.53651727979837
 30
0.0
  0
POINT
  5
103
330
F9
100
AcDbEntity
  8
DEFPOINTS
 62
     0
100
AcDbPoint
 10
31.77022530270318
 20
48.71023179412978
 30
0.0
  0
POINT
  5
104
330
F9
100
AcDbEntity
  8
DEFPOINTS
 62
     0
100
AcDbPoint
 10
31.77022530270318
 20
29.09898688720892
 30
0.0
  0
ENDBLK
  5
FB
330
F9
100
AcDbEntity
  8
0
100
AcDbBlockEnd
  0
BLOCK
  5
108
330
107
100
AcDbEntity
  8
0
100
AcDbBlockBegin
  2
*D6
 70
     1
 10
0.0
 20
0.0
 30
0.0
  3
*D6
  1
*D6
  0
LINE
  5
10A
330
107
100
AcDbEntity
  8
NOLAYERNAME_001
  6
CONTINUOUS
 62
     0
100
AcDbLine
 10
76.77022530270318
 20
52.41151727979837
 30
0.0
 11
76.77022530270318
 21
26.34898688720893
 31
0.0
  0
LINE
  5
10B
330
107
100
AcDbEntity
  8
NOLAYERNAME_001
  6
CONTINUOUS
 62
     0
100
AcDbLine
 10
31.77022530270318
 20
48.08523179412978
 30
0.0
 11
31.77022530270318
 21
26.34898688720893
 31
0.0
  0
LINE
  5
10C
330
107
100
AcDbEntity
  8
NOLAYERNAME_001
  6
CONTINUOUS
 62
     0
100
AcDbLine
 10
75.27022530270318
 20
29.09898688720892
 30
0.0
 11
33.27022530270318
 21
29.09898688720893
 31
0.0
  0
INSERT
  5
10D
330
107
100
AcDbEntity
  8
NOLAYERNAME_001
 62
     0
100
AcDbBlockReference
  2
_OPEN30
 10
76.77022530270318
 20
29.09898688720892
 30
0.0
 41
1.5
 42
1.5
 43
1.5
 50
360.0
  0
INSERT
  5
10E
330
107
100
AcDbEntity
  8
NOLAYERNAME_001
 62
     0
100
AcDbBlockReference
  2
_OPEN30
 10
31.77022530270318
 20
29.09898688720893
 30
0.0
 41
1.5
 42
1.5
 43
1.5
 50
180.0
  0
MTEXT
  5
10F
330
107
100
AcDbEntity
  8
NOLAYERNAME_001
 62
     0
100
AcDbMText
 10
54.27022530270318
 20
32.09898688720892
 30
0.0
 40
4.0
 41
0.0
 71
     5
 72
     1
  1
45
  0
POINT
  5
110
330
107
100
AcDbEntity
  8
DEFPOINTS
 62
     0
100
AcDbPoint
 10
76.77022530270318
 20
53.03651727979837
 30
0.0
  0
POINT
  5
111
330
107
100
AcDbEntity
  8
DEFPOINTS
 62
     0
100
AcDbPoint
 10
31.77022530270318
 20
48.71023179412978
 30
0.0
  0
POINT
  5
112
330
107
100
AcDbEntity
  8
DEFPOINTS
 62
     0
100
AcDbPoint
 10
31.77022530270318
 20
29.09898688720892
 30
0.0
  0
ENDBLK
  5
109
330
107
100
AcDbEntity
  8
0
100
AcDbBlockEnd
  0
BLOCK
  5
116
330
115
100
AcDbEntity
  8
0
100
AcDbBlockBegin
  2
*D7
 70
     1
 10
0.0
 20
0.0
 30
0.0
  3
*D7
  1
*D7
  0
LINE
  5
118
330
115
100
AcDbEntity
  8
NOLAYERNAME_001
  6
CONTINUOUS
 62
     0
100
AcDbLine
 10
76.77022530270318
 20
52.41151727979837
 30
0.0
 11
76.77022530270318
 21
20.02811056010583
 31
0.0
  0
LINE
  5
119
330
115
100
AcDbEntity
  8
NOLAYERNAME_001
  6
CONTINUOUS
 62
     0
100
AcDbLine
 10
23.77022530270318
 20
47.91151727979837
 30
0.0
 11
23.77022530270318
 21
20.02811056010584
 31
0.0
  0
LINE
  5
11A
330
115
100
AcDbEntity
  8
NOLAYERNAME_001
  6
CONTINUOUS
 62
     0
100
AcDbLine
 10
75.27022530270318
 20
22.77811056010583
 30
0.0
 11
25.27022530270318
 21
22.77811056010583
 31
0.0
  0
INSERT
  5
11B
330
115
100
AcDbEntity
  8
NOLAYERNAME_001
 62
     0
100
AcDbBlockReference
  2
_OPEN30
 10
76.77022530270318
 20
22.77811056010583
 30
0.0
 41
1.5
 42
1.5
 43
1.5
 50
360.0
  0
INSERT
  5
11C
330
115
100
AcDbEntity
  8
NOLAYERNAME_001
 62
     0
100
AcDbBlockReference
  2
_OPEN30
 10
23.77022530270318
 20
22.77811056010583
 30
0.0
 41
1.5
 42
1.5
 43
1.5
 50
180.0
  0
MTEXT
  5
11D
330
115
100
AcDbEntity
  8
NOLAYERNAME_001
 62
     0
100
AcDbMText
 10
50.27022530270318
 20
25.77811056010583
 30
0.0
 40
4.0
 41
0.0
 71
     5
 72
     1
  1
53
  0
POINT
  5
11E
330
115
100
AcDbEntity
  8
DEFPOINTS
 62
     0
100
AcDbPoint
 10
76.77022530270318
 20
53.03651727979837
 30
0.0
  0
POINT
  5
11F
330
115
100
AcDbEntity
  8
DEFPOINTS
 62
     0
100
AcDbPoint
 10
23.77022530270318
 20
48.53651727979837
 30
0.0
  0
POINT
  5
120
330
115
100
AcDbEntity
  8
DEFPOINTS
 62
     0
100
AcDbPoint
 10
23.77022530270318
 20
22.77811056010583
 30
0.0
  0
ENDBLK
  5
117
330
115
100
AcDbEntity
  8
0
100
AcDbBlockEnd
  0
BLOCK
  5
124
330
123
100
AcDbEntity
  8
0
100
AcDbBlockBegin
  2
*D8
 70
     1
 10
0.0
 20
0.0
 30
0.0
  3
*D8
  1
*D8
  0
LINE
  5
126
330
123
100
AcDbEntity
  8
NOLAYERNAME_001
  6
CONTINUOUS
 62
     0
100
AcDbLine
 10
156.7702253027032
 20
49.41151727979837
 30
0.0
 11
156.7702253027032
 21
20.02811056010583
 31
0.0
  0
LINE
  5
127
330
123
100
AcDbEntity
  8
NOLAYERNAME_001
  6
CONTINUOUS
 62
     0
100
AcDbLine
 10
76.77022530270318
 20
52.41151727979837
 30
0.0
 11
76.77022530270318
 21
20.02811056010584
 31
0.0
  0
LINE
  5
128
330
123
100
AcDbEntity
  8
NOLAYERNAME_001
  6
CONTINUOUS
 62
     0
100
AcDbLine
 10
155.2702253027032
 20
22.77811056010582
 30
0.0
 11
78.27022530270318
 21
22.77811056010584
 31
0.0
  0
INSERT
  5
129
330
123
100
AcDbEntity
  8
NOLAYERNAME_001
 62
     0
100
AcDbBlockReference
  2
_OPEN30
 10
156.7702253027032
 20
22.77811056010582
 30
0.0
 41
1.5
 42
1.5
 43
1.5
 50
360.0
  0
INSERT
  5
12A
330
123
100
AcDbEntity
  8
NOLAYERNAME_001
 62
     0
100
AcDbBlockReference
  2
_OPEN30
 10
76.77022530270318
 20
22.77811056010584
 30
0.0
 41
1.5
 42
1.5
 43
1.5
 50
180.0
  0
MTEXT
  5
12B
330
123
100
AcDbEntity
  8
NOLAYERNAME_001
 62
     0
100
AcDbMText
 10
116.7702253027032
 20
25.77811056010583
 30
0.0
 40
4.0
 41
0.0
 71
     5
 72
     1
  1
80
  0
POINT
  5
12C
330
123
100
AcDbEntity
  8
DEFPOINTS
 62
     0
100
AcDbPoint
 10
156.7702253027032
 20
50.03651727979837
 30
0.0
  0
POINT
  5
12D
330
123
100
AcDbEntity
  8
DEFPOINTS
 62
     0
100
AcDbPoint
 10
76.77022530270318
 20
53.03651727979837
 30
0.0
  0
POINT
  5
12E
330
123
100
AcDbEntity
  8
DEFPOINTS
 62
     0
100
AcDbPoint
 10
76.77022530270318
 20
22.77811056010583
 30
0.0
  0
ENDBLK
  5
125
330
123
100
AcDbEntity
  8
0
100
AcDbBlockEnd
  0
BLOCK
  5
132
330
131
100
AcDbEntity
  8
0
100
AcDbBlockBegin
  2
*D9
 70
     1
 10
0.0
 20
0.0
 30
0.0
  3
*D9
  1
*D9
  0
LINE
  5
134
330
131
100
AcDbEntity
  8
NOLAYERNAME_001
  6
CONTINUOUS
 62
     0
100
AcDbLine
 10
156.7702253027032
 20
49.41151727979837
 30
0.0
 11
156.7702253027032
 21
12.8396606156817
 31
0.0
  0
LINE
  5
135
330
131
100
AcDbEntity
  8
NOLAYERNAME_001
  6
CONTINUOUS
 62
     0
100
AcDbLine
 10
23.77022530270318
 20
47.91151727979837
 30
0.0
 11
23.77022530270318
 21
12.83966061568172
 31
0.0
  0
LINE
  5
136
330
131
100
AcDbEntity
  8
NOLAYERNAME_001
  6
CONTINUOUS
 62
     0
100
AcDbLine
 10
155.2702253027032
 20
15.5896606156817
 30
0.0
 11
25.27022530270318
 21
15.58966061568172
 31
0.0
  0
INSERT
  5
137
330
131
100
AcDbEntity
  8
NOLAYERNAME_001
 62
     0
100
AcDbBlockReference
  2
_OPEN30
 10
156.7702253027032
 20
15.5896606156817
 30
0.0
 41
1.5
 42
1.5
 43
1.5
 50
360.0
  0
INSERT
  5
138
330
131
100
AcDbEntity
  8
NOLAYERNAME_001
 62
     0
100
AcDbBlockReference
  2
_OPEN30
 10
23.77022530270318
 20
15.58966061568172
 30
0.0
 41
1.5
 42
1.5
 43
1.5
 50
180.0
  0
MTEXT
  5
139
330
131
100
AcDbEntity
  8
NOLAYERNAME_001
 62
     0
100
AcDbMText
 10
90.27022530270318
 20
18.58966061568171
 30
0.0
 40
4.0
 41
0.0
 71
     5
 72
     1
  1
133
  0
POINT
  5
13A
330
131
100
AcDbEntity
  8
DEFPOINTS
 62
     0
100
AcDbPoint
 10
156.7702253027032
 20
50.03651727979837
 30
0.0
  0
POINT
  5
13B
330
131
100
AcDbEntity
  8
DEFPOINTS
 62
     0
100
AcDbPoint
 10
23.77022530270318
 20
48.53651727979837
 30
0.0
  0
POINT
  5
13C
330
131
100
AcDbEntity
  8
DEFPOINTS
 62
     0
100
AcDbPoint
 10
23.77022530270318
 20
15.58966061568171
 30
0.0
  0
ENDBLK
  5
133
330
131
100
AcDbEntity
  8
0
100
AcDbBlockEnd
  0
BLOCK
  5
141
330
140
100
AcDbEntity
  8
0
100
AcDbBlockBegin
  2
*D10
 70
     1
 10
0.0
 20
0.0
 30
0.0
  3
*D10
  1
*D10
  0
LINE
  5
143
330
140
100
AcDbEntity
  8
NOLAYERNAME_001
  6
CONTINUOUS
 62
     0
100
AcDbLine
 10
154.3952253027032
 20
47.03651727979837
 30
0.0
 11
170.2117818246178
 21
47.03651727979837
 31
0.0
  0
LINE
  5
144
330
140
100
AcDbEntity
  8
NOLAYERNAME_001
  6
CONTINUOUS
 62
     0
100
AcDbLine
 10
154.3952253027032
 20
72.03651727979837
 30
0.0
 11
170.2117818246178
 21
72.03651727979837
 31
0.0
  0
LINE
  5
145
330
140
100
AcDbEntity
  8
NOLAYERNAME_001
  6
CONTINUOUS
 62
     0
100
AcDbLine
 10
167.4617818246178
 20
48.53651727979837
 30
0.0
 11
167.4617818246178
 21
70.53651727979837
 31
0.0
  0
INSERT
  5
146
330
140
100
AcDbEntity
  8
NOLAYERNAME_001
 62
     0
100
AcDbBlockReference
  2
_OPEN30
 10
167.4617818246178
 20
47.03651727979837
 30
0.0
 41
1.5
 42
1.5
 43
1.5
 50
270.0
  0
INSERT
  5
147
330
140
100
AcDbEntity
  8
NOLAYERNAME_001
 62
     0
100
AcDbBlockReference
  2
_OPEN30
 10
167.4617818246178
 20
72.03651727979837
 30
0.0
 41
1.5
 42
1.5
 43
1.5
 50
90.0
  0
MTEXT
  5
148
330
140
100
AcDbEntity
  8
NOLAYERNAME_001
 62
     0
100
AcDbMText
 10
164.4617818246178
 20
59.53651719237558
 30
0.0
 40
4.0
 41
0.0
 71
     5
 72
     1
  1
%%c25
 11
0.0
 21
1.0
 31
0.0
  0
POINT
  5
149
330
140
100
AcDbEntity
  8
DEFPOINTS
 62
     0
100
AcDbPoint
 10
153.7702253027032
 20
47.03651727979837
 30
0.0
  0
POINT
  5
14A
330
140
100
AcDbEntity
  8
DEFPOINTS
 62
     0
100
AcDbPoint
 10
153.7702253027032
 20
72.03651727979837
 30
0.0
  0
POINT
  5
14B
330
140
100
AcDbEntity
  8
DEFPOINTS
 62
     0
100
AcDbPoint
 10
167.4617818246178
 20
72.03651727979837
 30
0.0
  0
ENDBLK
  5
142
330
140
100
AcDbEntity
  8
0
100
AcDbBlockEnd
  0
BLOCK
  5
14F
330
14E
100
AcDbEntity
  8
0
100
AcDbBlockBegin
  2
*D11
 70
     1
 10
0.0
 20
0.0
 30
0.0
  3
*D11
  1
*D11
  0
LINE
  5
151
330
14E
100
AcDbEntity
  8
NOLAYERNAME_001
  6
CONTINUOUS
 62
     0
100
AcDbLine
 10
20.68143810070126
 20
59.53651727979837
 30
0.0
 11
6.272444931809808
 21
59.53651727979837
 31
0.0
  0
LINE
  5
152
330
14E
100
AcDbEntity
  8
NOLAYERNAME_001
  6
CONTINUOUS
 62
     0
100
AcDbLine
 10
20.48871783381406
 20
54.98845830973687
 30
0.0
 11
6.272444931809808
 21
54.98845830973687
 31
0.0
  0
LINE
  5
153
330
14E
100
AcDbEntity
  8
NOLAYERNAME_001
  6
CONTINUOUS
 62
     0
100
AcDbLine
 10
9.022444931809808
 20
59.53651727979837
 30
0.0
 11
9.022444931809808
 21
78.13175528761369
 31
0.0
  0
LINE
  5
154
330
14E
100
AcDbEntity
  8
NOLAYERNAME_001
  6
CONTINUOUS
 62
     0
100
AcDbLine
 10
9.022444931809808
 20
59.53651727979837
 30
0.0
 11
9.022444931809808
 21
54.98845830973687
 31
0.0
  0
LINE
  5
155
330
14E
100
AcDbEntity
  8
NOLAYERNAME_001
  6
CONTINUOUS
 62
     0
100
AcDbLine
 10
9.022444931809808
 20
61.03651727979837
 30
0.0
 11
9.022444931809808
 21
62.53651727979837
 31
0.0
  0
LINE
  5
156
330
14E
100
AcDbEntity
  8
NOLAYERNAME_001
  6
CONTINUOUS
 62
     0
100
AcDbLine
 10
9.022444931809808
 20
53.48845830973687
 30
0.0
 11
9.022444931809808
 21
51.98845830973687
 31
0.0
  0
INSERT
  5
157
330
14E
100
AcDbEntity
  8
NOLAYERNAME_001
 62
     0
100
AcDbBlockReference
  2
_OPEN30
 10
9.022444931809808
 20
59.53651727979837
 30
0.0
 41
1.5
 42
1.5
 43
1.5
 50
270.0
  0
INSERT
  5
158
330
14E
100
AcDbEntity
  8
NOLAYERNAME_001
 62
     0
100
AcDbBlockReference
  2
_OPEN30
 10
9.022444931809808
 20
54.98845830973687
 30
0.0
 41
1.5
 42
1.5
 43
1.5
 50
90.0
  0
MTEXT
  5
159
330
14E
100
AcDbEntity
  8
NOLAYERNAME_001
 62
     0
100
AcDbMText
 10
6.022444931809808
 20
71.03651719237558
 30
0.0
 40
4.0
 41
0.0
 71
     5
 72
     1
  1
4.55
 11
0.0
 21
1.0
 31
0.0
  0
POINT
  5
15A
330
14E
100
AcDbEntity
  8
DEFPOINTS
 62
     0
100
AcDbPoint
 10
21.30643810070126
 20
59.53651727979837
 30
0.0
  0
POINT
  5
15B
330
14E
100
AcDbEntity
  8
DEFPOINTS
 62
     0
100
AcDbPoint
 10
21.11371783381406
 20
54.98845830973687
 30
0.0
  0
POINT
  5
15C
330
14E
100
AcDbEntity
  8
DEFPOINTS
 62
     0
100
AcDbPoint
 10
9.022444931809808
 20
54.98845830973687
 30
0.0
  0
ENDBLK
  5
150
330
14E
100
AcDbEntity
  8
0
100
AcDbBlockEnd
  0
BLOCK
  5
168
330
167
100
AcDbEntity
  8
0
100
AcDbBlockBegin
  2
*D12
 70
     1
 10
0.0
 20
0.0
 30
0.0
  3
*D12
  1
*D12
  0
LINE
  5
16A
330
167
100
AcDbEntity
  8
NOLAYERNAME_001
  6
CONTINUOUS
 62
     0
100
AcDbLine
 10
15.59608459472656
 20
48.03651727979837
 30
0.0
 11
-12.43349456787109
 21
48.03651727979837
 31
0.0
  0
LINE
  5
16B
330
167
100
AcDbEntity
  8
NOLAYERNAME_001
  6
CONTINUOUS
 62
     0
100
AcDbLine
 10
-9.683494567871094
 20
49.53651727979837
 30
0.0
 11
-9.683494567871092
 21
65.86985052570893
 31
0.0
  0
INSERT
  5
16C
330
167
100
AcDbEntity
  8
NOLAYERNAME_001
 62
     0
100
AcDbBlockReference
  2
_OPEN30
 10
-9.683494567871094
 20
48.03651727979837
 30
0.0
 41
1.5
 42
1.5
 43
1.5
 50
270.0
  0
MTEXT
  5
16D
330
167
100
AcDbEntity
  8
NOLAYERNAME_001
 62
     0
100
AcDbMText
 10
-12.68349456787109
 20
59.53651719237559
 30
0.0
 40
4.0
 41
0.0
 71
     5
 72
     1
  1
%%c23
 11
7.723290606088038E-17
 21
1.0
 31
0.0
  0
POINT
  5
16E
330
167
100
AcDbEntity
  8
DEFPOINTS
 62
     0
100
AcDbPoint
 10
16.22108459472656
 20
48.03651727979837
 30
0.0
  0
POINT
  5
16F
330
167
100
AcDbEntity
  8
DEFPOINTS
 62
     0
100
AcDbPoint
 10
31.17022530270322
 20
71.03651727979839
 30
0.0
  0
POINT
  5
170
330
167
100
AcDbEntity
  8
DEFPOINTS
 62
     0
100
AcDbPoint
 10
-9.683494567871092
 20
71.03651727979839
 30
0.0
  0
ENDBLK
  5
169
330
167
100
AcDbEntity
  8
0
100
AcDbBlockEnd
  0
BLOCK
  5
176
330
175
100
AcDbEntity
  8
0
100
AcDbBlockBegin
  2
*D13
 70
     1
 10
0.0
 20
0.0
 30
0.0
  3
*D13
  1
*D13
  0
LINE
  5
178
330
175
100
AcDbEntity
  8
NOLAYERNAME_001
  6
CONTINUOUS
 62
     0
100
AcDbLine
 10
15.59608459472656
 20
48.03651727979837
 30
0.0
 11
-2.636764974380811
 21
48.03651727979837
 31
0.0
  0
LINE
  5
179
330
175
100
AcDbEntity
  8
NOLAYERNAME_001
  6
CONTINUOUS
 62
     0
100
AcDbLine
 10
23.14522530270318
 20
61.94039933967537
 30
0.0
 11
-2.63676497438081
 21
61.94039933967537
 31
0.0
  0
LINE
  5
17A
330
175
100
AcDbEntity
  8
NOLAYERNAME_001
  6
CONTINUOUS
 62
     0
100
AcDbLine
 10
0.1132350256191895
 20
49.53651727979837
 30
0.0
 11
0.1132350256191902
 21
60.44039933967537
 31
0.0
  0
INSERT
  5
17B
330
175
100
AcDbEntity
  8
NOLAYERNAME_001
 62
     0
100
AcDbBlockReference
  2
_OPEN30
 10
0.1132350256191894
 20
48.03651727979837
 30
0.0
 41
1.5
 42
1.5
 43
1.5
 50
270.0
  0
INSERT
  5
17C
330
175
100
AcDbEntity
  8
NOLAYERNAME_001
 62
     0
100
AcDbBlockReference
  2
_OPEN30
 10
0.1132350256191903
 20
61.94039933967537
 30
0.0
 41
1.5
 42
1.5
 43
1.5
 50
90.0
  0
MTEXT
  5
17D
330
175
100
AcDbEntity
  8
NOLAYERNAME_001
 62
     0
100
AcDbMText
 10
-2.88676497438081
 20
54.98845822231408
 30
0.0
 40
4.0
 41
0.0
 71
     5
 72
     1
  1
%%c14
 11
6.088551762961167E-17
 21
1.0
 31
0.0
  0
POINT
  5
17E
330
175
100
AcDbEntity
  8
DEFPOINTS
 62
     0
100
AcDbPoint
 10
16.22108459472656
 20
48.03651727979837
 30
0.0
  0
POINT
  5
17F
330
175
100
AcDbEntity
  8
DEFPOINTS
 62
     0
100
AcDbPoint
 10
23.77022530270318
 20
61.94039933967537
 30
0.0
  0
POINT
  5
180
330
175
100
AcDbEntity
  8
DEFPOINTS
 62
     0
100
AcDbPoint
 10
0.1132350256191899
 20
61.94039933967537
 30
0.0
  0
ENDBLK
  5
177
330
175
100
AcDbEntity
  8
0
100
AcDbBlockEnd
  0
ENDSEC
  0
SECTION
  2
ENTITIES
  0
ARC
  5
77
330
1F
100
AcDbEntity
  8
NOLAYERNAME_001
  6
CONTINUOUS
 62
     7
100
AcDbCircle
 10
31.17022530270322
 20
54.80608225635874
 30
0.0
 40
0.6000000000000015
100
AcDbArc
 50
0.0
 51
120.0000000000011
  0
LINE
  5
78
330
1F
100
AcDbEntity
  8
NOLAYERNAME_001
  6
CONTINUOUS
 62
     7
100
AcDbLine
 10
30.87022530270315
 20
55.32569749862938
 30
0.0
 11
25.52722530270314
 21
52.2409150103492
 31
0.0
  0
LINE
  5
79
330
1F
100
AcDbEntity
  8
NOLAYERNAME_001
  6
CONTINUOUS
 62
     7
100
AcDbLine
 10
31.77022530270318
 20
48.71023179412978
 30
0.0
 11
31.77022530270318
 21
54.87979677069015
 31
0.0
  0
CIRCLE
  5
7A
330
1F
100
AcDbEntity
  8
NOLAYERNAME_001
  6
CONTINUOUS
 62
     7
100
AcDbCircle
 10
29.38922530270315
 20
51.79501428240997
 30
0.0
 40
1.5
  0
LINE
  5
7B
330
1F
100
AcDbEntity
  8
NOLAYERNAME_001
  6
CONTINUOUS
 62
     7
100
AcDbLine
 10
25.52722530270319
 20
51.20168452580788
 30
0.0
 11
30.8702253027032
 21
48.11690203752771
 31
0.0
  0
ARC
  5
7C
330
1F
100
AcDbEntity
  8
NOLAYERNAME_001
  6
CONTINUOUS
 62
     7
100
AcDbCircle
 10
31.17022530270322
 20
48.63651727979837
 30
0.0
 40
0.6000000000000015
100
AcDbArc
 50
240.0000000000001
 51
0.0
  0
ARC
  5
7D
330
1F
100
AcDbEntity
  8
NOLAYERNAME_001
  6
CONTINUOUS
 62
     7
100
AcDbCircle
 10
25.82722530270314
 20
51.72129976807855
 30
0.0
 40
0.6000000000000015
100
AcDbArc
 50
119.9999999999999
 51
240.0000000000008
  0
LINE
  5
7E
330
1F
100
AcDbEntity
  8
NOLAYERNAME_001
  6
CONTINUOUS
 62
     7
100
AcDbLine
 10
82.77022530270318
 20
72.03651727979837
 30
0.0
 11
76.77022530270318
 21
66.03651727979837
 31
0.0
  0
LINE
  5
7F
330
1F
100
AcDbEntity
  8
NOLAYERNAME_001
  6
CONTINUOUS
 62
     7
100
AcDbLine
 10
76.77022530270318
 20
53.03651727979837
 30
0.0
 11
82.77022530270318
 21
47.03651727979837
 31
0.0
  0
LINE
  5
80
330
1F
100
AcDbEntity
  8
NOLAYERNAME_001
  6
CONTINUOUS
 62
     7
100
AcDbLine
 10
82.77022530270318
 20
47.03651727979837
 30
0.0
 11
82.77022530270318
 21
72.03651727979837
 31
0.0
  0
LINE
  5
81
330
1F
100
AcDbEntity
  8
NOLAYERNAME_001
  6
CONTINUOUS
 62
     7
100
AcDbLine
 10
82.77022530270318
 20
47.03651727979837
 30
0.0
 11
153.7702253027032
 21
47.03651727979837
 31
0.0
  0
LINE
  5
82
330
1F
100
AcDbEntity
  8
NOLAYERNAME_001
  6
CONTINUOUS
 62
     7
100
AcDbLine
 10
153.7702253027032
 20
72.03651727979837
 30
0.0
 11
82.77022530270318
 21
72.03651727979837
 31
0.0
  0
ARC
  5
83
330
1F
100
AcDbEntity
  8
NOLAYERNAME_001
  6
CONTINUOUS
 62
     7
100
AcDbCircle
 10
153.7702253027032
 20
69.03651727979837
 30
0.0
 40
3.0
100
AcDbArc
 50
0.0
 51
90.0
  0
ARC
  5
84
330
1F
100
AcDbEntity
  8
NOLAYERNAME_001
  6
CONTINUOUS
 62
     7
100
AcDbCircle
 10
153.7702253027032
 20
50.03651727979837
 30
0.0
 40
3.0
100
AcDbArc
 50
270.0
 51
0.0
  0
LINE
  5
85
330
1F
100
AcDbEntity
  8
NOLAYERNAME_001
  6
CONTINUOUS
 62
     7
100
AcDbLine
 10
156.7702253027032
 20
69.03651727979837
 30
0.0
 11
156.7702253027032
 21
50.03651727979837
 31
0.0
  0
ELLIPSE
  5
86
330
1F
100
AcDbEntity
  8
NOLAYERNAME_001
  6
CONTINUOUS
 62
     7
100
AcDbEllipse
 10
32.01060537352942
 20
59.53651727979838
 30
0.0
 11
0.0
 21
6.500000000000007
 31
0.0
210
0.0
220
0.0
230
1.0
 40
0.1227845609029049
 41
2.974508629624949
 42
3.141592653589792
  0
LINE
  5
87
330
1F
100
AcDbEntity
  8
NOLAYERNAME_001
  6
CONTINUOUS
 62
     7
100
AcDbLine
 10
32.01060537352942
 20
53.03651727979837
 30
0.0
 11
76.7702253027032
 21
53.03651727979837
 31
0.0
  0
SPLINE
  5
88
330
1F
100
AcDbEntity
  8
NOLAYERNAME_001
  6
CONTINUOUS
 62
     7
100
AcDbSpline
210
0.0
220
0.0
230
1.0
 70
  1064
 71
     3
 72
    28
 73
    24
 74
    22
 42
0.000000001
 43
0.0000000001
 44
0.0
 12
0.9981656822358524
 22
0.06054148004992445
 32
0.0
 13
0.008749557194669886
 23
0.999961721891842
 33
0.0
 40
0.0
 40
0.0
 40
0.0
 40
0.0
 40
0.3327394598308152
 40
0.6662446703082278
 40
0.9975716012219326
 40
1.325799933982865
 40
1.654231955974159
 40
1.981471499940489
 40
2.414503413932591
 40
2.850255009039554
 40
3.286548735043195
 40
3.835091503211128
 40
4.386370574859076
 40
4.934314545321477
 40
5.483411352023664
 40
6.024576579913433
 40
6.551145151821932
 40
7.131567076600883
 40
7.685006863283201
 40
8.20310494451739
 40
8.621857307486797
 40
9.008875027372023
 40
9.340681490551763
 40
9.340681490551763
 40
9.340681490551763
 40
9.340681490551763
 10
72.77022530270318
 20
57.26248779476759
 30
0.0
 10
72.88093500601279
 20
57.26920264122398
 30
0.0
 10
73.10352058899471
 20
57.2731157947193
 30
0.0
 10
73.43133431412134
 20
57.3361298790734
 30
0.0
 10
73.74902759416648
 20
57.43085056876323
 30
0.0
 10
74.05176253610956
 20
57.56249790378092
 30
0.0
 10
74.33754034404987
 20
57.72452856394007
 30
0.0
 10
74.63394486589901
 20
57.9349475469765
 30
0.0
 10
74.93151658095456
 20
58.20180873278176
 30
0.0
 10
75.22116651880482
 20
58.52745257625306
 30
0.0
 10
75.49933046785509
 20
58.91153593496772
 30
0.0
 10
75.75674730630983
 20
59.3552472425926
 30
0.0
 10
75.98771415841453
 20
59.85427443162795
 30
0.0
 10
76.17930413486737
 20
60.3697287943485
 30
0.0
 10
76.33547398266458
 20
60.89333678478817
 30
0.0
 10
76.4606921462493
 20
61.41777276793461
 30
0.0
 10
76.56297866505113
 20
61.95772340935759
 30
0.0
 10
76.64270298573317
 20
62.50559771637835
 30
0.0
 10
76.70087338500994
 20
63.05328295016854
 30
0.0
 10
76.73723233398493
 20
63.54879407314506
 30
0.0
 10
76.75792668037158
 20
63.98962477014406
 30
0.0
 10
76.76853458846776
 20
64.36870672167345
 30
0.0
 10
76.76924885579257
 20
64.60832375846549
 30
0.0
 10
76.77021657566829
 20
64.7189216792175
 30
0.0
 11
72.77022530270318
 21
57.26248779476759
 31
0.0
 11
73.102354412632
 21
57.28263233413676
 31
0.0
 11
73.43059488929435
 21
57.34165703147652
 31
0.0
 11
73.74777232958166
 21
57.43744850563516
 31
0.0
 11
74.04908139748301
 21
57.5676279357593
 31
0.0
 11
74.33489261006682
 21
57.72942887466468
 31
0.0
 11
74.60183892116362
 21
57.91870482698589
 31
0.0
 11
74.92504247695527
 21
58.20689937943145
 31
0.0
 11
75.21535624428338
 21
58.53185686763263
 31
0.0
 11
75.47189422364889
 21
58.88475980116139
 31
0.0
 11
75.74879057468789
 21
59.358286547281
 31
0.0
 11
75.98156385394435
 21
59.85801168703406
 31
0.0
 11
76.17344912773783
 21
60.37125883653155
 31
0.0
 11
76.33128459879299
 21
60.89718208873413
 31
0.0
 11
76.4576026530302
 21
61.42339834945847
 31
0.0
 11
76.55611804014893
 21
61.94066924504666
 31
0.0
 11
76.64019503170627
 21
62.51496940198096
 31
0.0
 11
76.69902622833996
 21
63.06527339777385
 31
0.0
 11
76.73714461029957
 21
63.5819673214224
 31
0.0
 11
76.75705026440048
 21
64.00024630299723
 31
0.0
 11
76.76731341604113
 21
64.38712791696145
 31
0.0
 11
76.77021657566829
 21
64.7189216792175
 31
0.0
  0
LINE
  5
89
330
1F
100
AcDbEntity
  8
NOLAYERNAME_001
  6
CONTINUOUS
 62
     7
100
AcDbLine
 10
31.87787526319335
 20
53.12703687964108
 30
0.0
 11
31.77022530270317
 21
53.12703687964108
 31
0.0
  0
ELLIPSE
  5
8A
330
1F
100
AcDbEntity
  8
NOLAYERNAME_001
  6
CONTINUOUS
 62
     7
100
AcDbEllipse
 10
32.01060537352942
 20
59.53651727979838
 30
0.0
 11
0.0
 21
6.500000000000007
 31
0.0
210
0.0
220
0.0
230
1.0
 40
0.1227845609029049
 41
3.141592653589792
 42
3.319451980303017
  0
LINE
  5
8B
330
1F
100
AcDbEntity
  8
NOLAYERNAME_001
  6
CONTINUOUS
 62
     7
100
AcDbLine
 10
34.77022530270318
 20
53.13905684615753
 30
0.0
 11
32.15180761856774
 21
53.13905684615753
 31
0.0
  0
LINE
  5
8C
330
1F
100
AcDbEntity
  8
NOLAYERNAME_001
  6
CONTINUOUS
 62
     7
100
AcDbLine
 10
34.77022530270318
 20
54.03651727979837
 30
0.0
 11
34.77022530270318
 21
53.13905684615753
 31
0.0
  0
LINE
  5
8D
330
1F
100
AcDbEntity
  8
NOLAYERNAME_001
  6
CONTINUOUS
 62
     7
100
AcDbLine
 10
72.77022530270318
 20
57.26248779476759
 30
0.0
 11
33.13520188536717
 21
57.26248779476759
 31
0.0
  0
ARC
  5
8E
330
1F
100
AcDbEntity
  8
NOLAYERNAME_001
  6
CONTINUOUS
 62
     7
100
AcDbCircle
 10
72.77022530270318
 20
65.48845830973687
 30
0.0
 40
4.0
100
AcDbArc
 50
270.0
 51
0.0
  0
LINE
  5
8F
330
1F
100
AcDbEntity
  8
NOLAYERNAME_001
  6
CONTINUOUS
 62
     7
100
AcDbLine
 10
76.77021657566831
 20
64.71892167921752
 30
0.0
 11
76.77022530270321
 21
64.7382044079012
 31
0.0
  0
LINE
  5
90
330
1F
100
AcDbEntity
  8
NOLAYERNAME_001
  6
CONTINUOUS
 62
     7
100
AcDbLine
 10
72.77022530270318
 20
61.48845830973687
 30
0.0
 11
23.77022530270318
 21
61.48845830973687
 31
0.0
  0
LINE
  5
91
330
1F
100
AcDbEntity
  8
NOLAYERNAME_001
  6
CONTINUOUS
 62
     7
100
AcDbLine
 10
23.77022530270318
 20
58.03651727979837
 30
0.0
 11
30.77022530270318
 21
58.03651727979837
 31
0.0
  0
LINE
  5
92
330
1F
100
AcDbEntity
  8
NOLAYERNAME_001
  6
CONTINUOUS
 62
     7
100
AcDbLine
 10
23.77022530270318
 20
48.53651727979837
 30
0.0
 11
30.27110766753738
 21
48.53651727979837
 31
0.0
  0
LINE
  5
93
330
1F
100
AcDbEntity
  8
NOLAYERNAME_001
  6
CONTINUOUS
 62
     7
100
AcDbLine
 10
30.16670172856425
 20
48.59679607676946
 30
0.0
 11
23.77022530270315
 21
48.59679607676946
 31
0.0
  0
LINE
  5
94
330
1F
100
AcDbEntity
  8
NOLAYERNAME_001
  6
CONTINUOUS
 62
     7
100
AcDbLine
 10
31.87787526319335
 20
53.12703687964108
 30
0.0
 11
31.87787526319335
 21
53.82025839225419
 31
0.0
  0
LINE
  5
95
330
1F
100
AcDbEntity
  8
NOLAYERNAME_001
  6
CONTINUOUS
 62
     7
100
AcDbLine
 10
32.15180761856777
 20
53.13905684615753
 30
0.0
 11
32.15180761856777
 21
53.87349273630359
 31
0.0
  0
ARC
  5
96
330
1F
100
AcDbEntity
  8
NOLAYERNAME_001
  6
CONTINUOUS
 62
     7
100
AcDbCircle
 10
25.61192538172281
 20
51.72129976807855
 30
0.0
 40
1.25
100
AcDbArc
 50
53.19614279205661
 51
306.8038572079425
  0
LINE
  5
97
330
1F
100
AcDbEntity
  8
NOLAYERNAME_001
  6
CONTINUOUS
 62
     7
100
AcDbLine
 10
23.77022530270318
 20
48.53651727979837
 30
0.0
 11
23.77022530270318
 21
61.48845830973687
 31
0.0
  0
ARC
  5
98
330
1F
100
AcDbEntity
  8
NOLAYERNAME_001
  6
CONTINUOUS
 62
     7
100
AcDbCircle
 10
30.77022530270318
 20
54.03651727979837
 30
0.0
 40
4.0
100
AcDbArc
 50
0.0
 51
90.0
  0
ARC
  5
99
330
1F
100
AcDbEntity
  8
NOLAYERNAME_001
  6
CONTINUOUS
 62
     7
100
AcDbCircle
 10
31.77787526319338
 20
55.06625197169191
 30
0.0
 40
1.25
100
AcDbArc
 50
269.6493494514755
 51
173.5671667906991
  0
ARC
  5
9A
330
1F
100
AcDbEntity
  8
NOLAYERNAME_001
  6
CONTINUOUS
 62
     7
100
AcDbCircle
 10
29.38922530270315
 20
52.49501428240995
 30
0.0
 40
0.175
100
AcDbArc
 50
14.65306140973556
 51
165.3469385902639
  0
ARC
  5
9B
330
1F
100
AcDbEntity
  8
NOLAYERNAME_001
  6
CONTINUOUS
 62
     7
100
AcDbCircle
 10
28.91322300846088
 20
52.61947444055701
 30
0.0
 40
0.3170045884846417
100
AcDbArc
 50
254.6530614097361
 51
345.3469385902638
  0
ARC
  5
9C
330
1F
100
AcDbEntity
  8
NOLAYERNAME_001
  6
CONTINUOUS
 62
     7
100
AcDbCircle
 10
28.78300752005407
 20
52.14501428240999
 30
0.0
 40
0.175
100
AcDbArc
 50
74.65306140973556
 51
225.3469385902638
  0
ARC
  5
9D
330
1F
100
AcDbEntity
  8
NOLAYERNAME_001
  6
CONTINUOUS
 62
     7
100
AcDbCircle
 10
28.43722071421854
 20
51.79501428240997
 30
0.0
 40
0.3170045884846417
100
AcDbArc
 50
314.6530614097361
 51
45.34693859026381
  0
ARC
  5
9E
330
1F
100
AcDbEntity
  8
NOLAYERNAME_001
  6
CONTINUOUS
 62
     7
100
AcDbCircle
 10
28.78300752005407
 20
51.44501428240994
 30
0.0
 40
0.175
100
AcDbArc
 50
134.6530614097356
 51
285.3469385902639
  0
ARC
  5
9F
330
1F
100
AcDbEntity
  8
NOLAYERNAME_001
  6
CONTINUOUS
 62
     7
100
AcDbCircle
 10
28.91322300846088
 20
50.97055412426292
 30
0.0
 40
0.3170045884846417
100
AcDbArc
 50
14.65306140973607
 51
105.3469385902638
  0
ARC
  5
A0
330
1F
100
AcDbEntity
  8
NOLAYERNAME_001
  6
CONTINUOUS
 62
     7
100
AcDbCircle
 10
29.38922530270315
 20
51.09501428240998
 30
0.0
 40
0.175
100
AcDbArc
 50
194.6530614097356
 51
345.3469385902638
  0
ARC
  5
A1
330
1F
100
AcDbEntity
  8
NOLAYERNAME_001
  6
CONTINUOUS
 62
     7
100
AcDbCircle
 10
29.86522759694549
 20
50.97055412426292
 30
0.0
 40
0.3170045884846417
100
AcDbArc
 50
74.65306140973607
 51
165.3469385902638
  0
ARC
  5
A2
330
1F
100
AcDbEntity
  8
NOLAYERNAME_001
  6
CONTINUOUS
 62
     7
100
AcDbCircle
 10
29.99544308535229
 20
51.44501428240994
 30
0.0
 40
0.175
100
AcDbArc
 50
254.6530614097356
 51
45.34693859026386
  0
ARC
  5
A3
330
1F
100
AcDbEntity
  8
NOLAYERNAME_001
  6
CONTINUOUS
 62
     7
100
AcDbCircle
 10
30.34122989118782
 20
51.79501428240997
 30
0.0
 40
0.3170045884846417
100
AcDbArc
 50
134.6530614097361
 51
225.3469385902638
  0
ARC
  5
A4
330
1F
100
AcDbEntity
  8
NOLAYERNAME_001
  6
CONTINUOUS
 62
     7
100
AcDbCircle
 10
29.99544308535229
 20
52.14501428240996
 30
0.0
 40
0.175
100
AcDbArc
 50
314.6530614097355
 51
105.3469385902639
  0
ARC
  5
A5
330
1F
100
AcDbEntity
  8
NOLAYERNAME_001
  6
CONTINUOUS
 62
     7
100
AcDbCircle
 10
29.86522759694549
 20
52.61947444055701
 30
0.0
 40
0.3170045884846417
100
AcDbArc
 50
194.6530614097361
 51
285.3469385902638
  0
CIRCLE
  5
A6
330
1F
100
AcDbEntity
  8
NOLAYERNAME_001
  6
CONTINUOUS
 62
     7
100
AcDbCircle
 10
29.38922530270315
 20
51.79501428240997
 30
0.0
 40
1.15
  0
LINE
  5
A7
330
1F
100
AcDbEntity
  8
NOLAYERNAME_001
  6
CONTINUOUS
 62
     7
100
AcDbLine
 10
76.77022530270318
 20
53.03651727979837
 30
0.0
 11
76.77022530270318
 21
66.03651727979837
 31
0.0
  0
LINE
  5
A8
330
1F
100
AcDbEntity
  8
NOLAYERNAME_001
  6
CENTER
 62
     7
100
AcDbLine
 10
192.9184544077117
 20
72.81742383020111
 30
0.0
 11
192.9184544077117
 21
45.7820382326283
 31
0.0
  0
LINE
  5
A9
330
1F
100
AcDbEntity
  8
NOLAYERNAME_001
  6
CENTER
 62
     7
100
AcDbLine
 10
179.3434313227599
 20
59.53651727979837
 30
0.0
 11
206.6421485982312
 21
59.53651727979837
 31
0.0
  0
LINE
  5
AA
330
1F
100
AcDbEntity
  8
NOLAYERNAME_001
  6
CONTINUOUS
 62
     7
100
AcDbLine
 10
181.4184544077117
 20
54.637537794232
 30
0.0
 11
181.4184544077117
 21
64.43549676536472
 31
0.0
  0
ARC
  5
AB
330
1F
100
AcDbEntity
  8
NOLAYERNAME_001
  6
CONTINUOUS
 62
     7
100
AcDbCircle
 10
192.9184544077117
 20
59.53651727979837
 30
0.0
 40
12.5
100
AcDbArc
 50
203.073918065631
 51
156.926081934369
  0
LINE
  5
AC
330
1F
100
AcDbEntity
  8
NOLAYERNAME_001
  6
CONTINUOUS
 62
     7
100
AcDbLine
 10
91.77022530270318
 20
64.43549676536472
 30
0.0
 11
146.7702253027032
 21
64.43549676536472
 31
0.0
  0
LINE
  5
AD
330
1F
100
AcDbEntity
  8
NOLAYERNAME_001
  6
CONTINUOUS
 62
     7
100
AcDbLine
 10
91.77022530270318
 20
54.637537794232
 30
0.0
 11
146.7702253027032
 21
54.637537794232
 31
0.0
  0
LINE
  5
AE
330
1F
100
AcDbEntity
  8
NOLAYERNAME_001
  6
CONTINUOUS
 62
     7
100
AcDbLine
 10
146.7702253027032
 20
54.637537794232
 30
0.0
 11
146.7702253027032
 21
64.43549676536472
 31
0.0
  0
LINE
  5
AF
330
1F
100
AcDbEntity
  8
NOLAYERNAME_001
  6
CONTINUOUS
 62
     7
100
AcDbLine
 10
91.77022530270318
 20
64.43549676536472
 30
0.0
 11
91.77022530270318
 21
54.637537794232
 31
0.0
  0
LINE
  5
B0
330
1F
100
AcDbEntity
  8
NOLAYERNAME_001
  6
CONTINUOUS
 62
     7
100
AcDbLine
 10
146.7702253027032
 20
64.43549676536472
 30
0.0
 11
91.77022530270318
 21
54.637537794232
 31
0.0
  0
LINE
  5
B1
330
1F
100
AcDbEntity
  8
NOLAYERNAME_001
  6
CONTINUOUS
 62
     7
100
AcDbLine
 10
91.77022530270318
 20
64.43549676536472
 30
0.0
 11
146.7702253027032
 21
54.637537794232
 31
0.0
  0
LINE
  5
B2
330
1F
100
AcDbEntity
  8
NOLAYERNAME_001
  6
CONTINUOUS
 62
     7
100
AcDbLine
 10
23.77022530270318
 20
59.53651727979837
 30
0.0
 11
21.17214909134987
 21
58.03651727979837
 31
0.0
  0
LINE
  5
B3
330
1F
100
AcDbEntity
  8
NOLAYERNAME_001
  6
CONTINUOUS
 62
     7
100
AcDbLine
 10
23.77022530270318
 20
59.53651727979837
 30
0.0
 11
21.17214909134987
 21
61.03651727979837
 31
0.0
  0
LINE
  5
B4
330
1F
100
AcDbEntity
  8
NOLAYERNAME_001
  6
CENTER
 62
     7
100
AcDbLine
 10
36.25629904858374
 20
54.98845830973687
 30
0.0
 11
21.11371783381406
 21
54.98845830973687
 31
0.0
  0
LINE
  5
B5
330
1F
100
AcDbEntity
  8
NOLAYERNAME_001
  6
CONTINUOUS
 62
     7
100
AcDbLine
 10
23.77022530270318
 20
54.98845830973687
 30
0.0
 11
21.17214909134987
 21
53.48845830973687
 31
0.0
  0
LINE
  5
B6
330
1F
100
AcDbEntity
  8
NOLAYERNAME_001
  6
CONTINUOUS
 62
     7
100
AcDbLine
 10
23.77022530270318
 20
54.98845830973687
 30
0.0
 11
21.17214909134987
 21
56.48845830973687
 31
0.0
  0
LINE
  5
B7
330
1F
100
AcDbEntity
  8
NOLAYERNAME_001
  6
CONTINUOUS
 62
     7
100
AcDbLine
 10
156.7702253027032
 20
59.53651727979837
 30
0.0
 11
159.3683015140565
 21
58.03651727979837
 31
0.0
  0
LINE
  5
B8
330
1F
100
AcDbEntity
  8
NOLAYERNAME_001
  6
CONTINUOUS
 62
     7
100
AcDbLine
 10
156.7702253027032
 20
59.53651727979837
 30
0.0
 11
159.3683015140565
 21
61.03651727979837
 31
0.0
  0
LINE
  5
B9
330
1F
100
AcDbEntity
  8
NOLAYERNAME_001
  6
CENTER
 62
     7
100
AcDbLine
 10
21.30643810070126
 20
59.53651727979837
 30
0.0
 11
158.9864442229761
 21
59.53651727979837
 31
0.0
  0
LINE
  5
BA
330
1F
100
AcDbEntity
  8
NOLAYERNAME_001
  6
PHANTOM
 62
     7
100
AcDbLine
 10
124.5876259007324
 20
79.82102373121307
 30
0.0
 11
124.5876259007324
 21
37.71568526727319
 31
0.0
  0
LINE
  5
BB
330
1F
100
AcDbEntity
  8
NOLAYERNAME_001
  6
PHANTOM
 62
     7
100
AcDbLine
 10
72.77022530270318
 20
48.06392636465392
 30
0.0
 11
72.77022530270318
 21
68.1995935930489
 31
0.0
  0
LINE
  5
BC
330
1F
100
AcDbEntity
  8
NOLAYERNAME_001
  6
CONTINUOUS
 62
     7
100
AcDbLine
 10
31.17022530270322
 20
48.03651727979837
 30
0.0
 11
16.22108459472656
 21
48.03651727979837
 31
0.0
  0
LWPOLYLINE
  5
BD
330
1F
100
AcDbEntity
  8
NOLAYERNAME_001
  6
CONTINUOUS
 62
     7
100
AcDbPolyline
 90
        2
 70
     0
 43
0.992
 10
124.5876259293509
 20
42.69716877966019
 10
124.5876259293509
 20
38.12916877966019
  0
LWPOLYLINE
  5
BE
330
1F
100
AcDbEntity
  8
NOLAYERNAME_001
  6
CONTINUOUS
 62
     7
100
AcDbPolyline
 90
        2
 70
     0
 43
0.992
 10
124.5876259293509
 20
75.98629012408011
 10
124.5876259293509
 20
80.55429012408013
  0
LEADER
  5
BF
330
1F
100
AcDbEntity
  8
NOLAYERNAME_001
  6
CONTINUOUS
 62
     7
100
AcDbLeader
  3
STANDARD
 76
     2
 10
125.0836259293509
 20
40.41316878557493
 30
0.0
 10
131.0836259293509
 20
40.41316885712421
 30
0.0
1001
ACAD
1000
DSTYLE
1002
{
1070
     5
1000
OPEN30
1070
    41
1040
2.992
1070
   341
1005
C0
1002
}
  0
MTEXT
  5
C6
330
1F
100
AcDbEntity
  8
NOLAYERNAME_001
  6
CONTINUOUS
 62
     7
100
AcDbMText
 10
130.9209592340657
 20
37.74650207746794
 30
0.0
 40
8.0
 41
0.0
 71
     7
 72
     5
  1
\W0.8333;Ａ
1001
ACAD
1000
MTEXTBEGIN
1070
    44
1040
0.6
1000
MTEXTEND
1000
ACAD_MTEXT_DEFINED_HEIGHT_BEGIN
1070
    46
1040
8.0
1000
ACAD_MTEXT_DEFINED_HEIGHT_END
  0
LEADER
  5
C7
330
1F
100
AcDbEntity
  8
NOLAYERNAME_001
  6
CONTINUOUS
 62
     7
100
AcDbLeader
  3
STANDARD
 76
     2
 10
125.0836259293509
 20
78.27029012999486
 30
0.0
 10
131.0836259293509
 20
78.27029020154414
 30
0.0
1001
ACAD
1000
DSTYLE
1002
{
1070
     5
1000
OPEN30
1070
    41
1040
2.992
1070
   341
1005
C0
1002
}
  0
MTEXT
  5
C8
330
1F
100
AcDbEntity
  8
NOLAYERNAME_001
  6
CONTINUOUS
 62
     7
100
AcDbMText
 10
130.9209592340657
 20
75.60362342188787
 30
0.0
 40
8.0
 41
0.0
 71
     7
 72
     5
  1
\W0.8333;Ａ
1001
ACAD
1000
MTEXTBEGIN
1070
    44
1040
0.6
1000
MTEXTEND
1000
ACAD_MTEXT_DEFINED_HEIGHT_BEGIN
1070
    46
1040
8.0
1000
ACAD_MTEXT_DEFINED_HEIGHT_END
  0
DIMENSION
  5
C9
330
1F
100
AcDbEntity
  8
NOLAYERNAME_001
  6
CONTINUOUS
 62
     7
100
AcDbDimension
  2
*D2
 10
181.4184544077117
 20
38.98459812736405
 30
0.0
 11
193.4184544077117
 21
38.98459812736405
 31
0.0
 70
   160
  3
STANDARD
100
AcDbAlignedDimension
 13
205.4184544077117
 23
59.53651727979837
 33
0.0
 14
181.4184544077117
 24
54.637537794232
 34
0.0
 50
180.0
100
AcDbRotatedDimension
1001
ACAD
1000
DSTYLE
1002
{
1070
     5
1000
OPEN30
1070
   347
1005
16
1070
   372
1070
    25
1070
   346
1005
16
1070
   371
1070
    25
1070
   345
1005
16
1070
   178
1070
     0
1070
   177
1070
     0
1070
   176
1070
     0
1070
    47
1040
0.0
1070
    48
1040
0.0
1070
    78
1070
     8
1070
   271
1070
     1
1070
    41
1040
1.5
1070
    44
1040
2.749999999999993
1070
   147
1040
1.0
1070
   140
1040
4.0
1002
}
  0
DIMENSION
  5
D7
330
1F
100
AcDbEntity
  8
NOLAYERNAME_001
  6
CONTINUOUS
 62
     7
100
AcDbDimension
  2
*D3
 10
31.77022530270318
 20
48.81023179412978
 30
0.0
 11
36.93371622439022
 21
43.04171932647623
 31
0.0
 70
   162
  1
０°
  3
STANDARD
100
AcDb2LineAngularDimension
 13
31.77022530270318
 23
48.11023179412979
 33
0.0
 14
31.7676076078724
 24
48.21019752662735
 34
0.0
 15
31.77022530270318
 25
48.71023179412978
 35
0.0
 16
31.83336554538301
 26
40.87507661660537
 36
0.0
1001
ACAD
1000
DSTYLE
1002
{
1070
     5
1000
OPEN30
1070
   347
1005
16
1070
   372
1070
    25
1070
   346
1005
16
1070
   371
1070
    25
1070
   345
1005
16
1070
   178
1070
     0
1070
   177
1070
     0
1070
   176
1070
     0
1070
    47
1040
0.0
1070
    48
1040
0.0
1070
    79
1070
     2
1070
   179
1070
     1
1070
    41
1040
1.5
1070
    44
1040
2.75
1070
   147
1040
1.0
1070
   140
1040
4.0
1002
}
  0
DIMENSION
  5
E9
330
1F
100
AcDbEntity
  8
NOLAYERNAME_001
  6
CONTINUOUS
 62
     7
100
AcDbDimension
  2
*D4
 10
31.77022530270318
 20
36.34940953664207
 30
0.0
 11
52.27022530270318
 21
36.34940953664207
 31
0.0
 70
   160
  3
STANDARD
100
AcDbAlignedDimension
 13
72.77022530270318
 23
48.06392636465392
 33
0.0
 14
31.77022530270318
 24
48.71023179412978
 34
0.0
 50
180.0
100
AcDbRotatedDimension
1001
ACAD
1000
DSTYLE
1002
{
1070
     5
1000
OPEN30
1070
   347
1005
16
1070
   372
1070
    25
1070
   346
1005
16
1070
   371
1070
    25
1070
   345
1005
16
1070
   178
1070
     0
1070
   177
1070
     0
1070
   176
1070
     0
1070
    47
1040
0.0
1070
    48
1040
0.0
1070
    78
1070
     8
1070
   271
1070
     1
1070
    41
1040
1.5
1070
    44
1040
2.749999999999993
1070
   147
1040
1.0
1070
   140
1040
4.0
1002
}
  0
DIMENSION
  5
F7
330
1F
100
AcDbEntity
  8
NOLAYERNAME_001
  6
CONTINUOUS
 62
     7
100
AcDbDimension
  2
*D5
 10
31.77022530270318
 20
29.09898688720892
 30
0.0
 11
27.77022530270315
 21
29.09898688720892
 31
0.0
 70
   160
  3
STANDARD
100
AcDbAlignedDimension
 13
23.77022530270318
 23
48.53651727979837
 33
0.0
 14
31.77022530270318
 24
48.71023179412978
 34
0.0
100
AcDbRotatedDimension
1001
ACAD
1000
DSTYLE
1002
{
1070
     5
1000
OPEN30
1070
   347
1005
16
1070
   372
1070
    25
1070
   346
1005
16
1070
   371
1070
    25
1070
   345
1005
16
1070
   178
1070
     0
1070
   177
1070
     0
1070
   176
1070
     0
1070
    47
1040
0.0
1070
    48
1040
0.0
1070
    78
1070
     8
1070
   271
1070
     1
1070
    41
1040
1.5
1070
    44
1040
2.749999999999993
1070
   147
1040
1.0
1070
   140
1040
4.0
1002
}
  0
DIMENSION
  5
105
330
1F
100
AcDbEntity
  8
NOLAYERNAME_001
  6
CONTINUOUS
 62
     7
100
AcDbDimension
  2
*D6
 10
31.77022530270318
 20
29.09898688720893
 30
0.0
 11
54.27022530270318
 21
29.09898688720892
 31
0.0
 70
   160
  3
STANDARD
100
AcDbAlignedDimension
 13
76.77022530270318
 23
53.03651727979837
 33
0.0
 14
31.77022530270318
 24
48.71023179412978
 34
0.0
 50
180.0
100
AcDbRotatedDimension
1001
ACAD
1000
DSTYLE
1002
{
1070
     5
1000
OPEN30
1070
   347
1005
16
1070
   372
1070
    25
1070
   346
1005
16
1070
   371
1070
    25
1070
   345
1005
16
1070
   178
1070
     0
1070
   177
1070
     0
1070
   176
1070
     0
1070
    47
1040
0.0
1070
    48
1040
0.0
1070
    78
1070
     8
1070
   271
1070
     1
1070
    41
1040
1.5
1070
    44
1040
2.749999999999993
1070
   147
1040
1.0
1070
   140
1040
4.0
1002
}
  0
DIMENSION
  5
113
330
1F
100
AcDbEntity
  8
NOLAYERNAME_001
  6
CONTINUOUS
 62
     7
100
AcDbDimension
  2
*D7
 10
23.77022530270318
 20
22.77811056010583
 30
0.0
 11
50.27022530270318
 21
22.77811056010583
 31
0.0
 70
   160
  3
STANDARD
100
AcDbAlignedDimension
 13
76.77022530270318
 23
53.03651727979837
 33
0.0
 14
23.77022530270318
 24
48.53651727979837
 34
0.0
 50
180.0
100
AcDbRotatedDimension
1001
ACAD
1000
DSTYLE
1002
{
1070
     5
1000
OPEN30
1070
   347
1005
16
1070
   372
1070
    25
1070
   346
1005
16
1070
   371
1070
    25
1070
   345
1005
16
1070
   178
1070
     0
1070
   177
1070
     0
1070
   176
1070
     0
1070
    47
1040
0.0
1070
    48
1040
0.0
1070
    78
1070
     8
1070
   271
1070
     1
1070
    41
1040
1.5
1070
    44
1040
2.749999999999993
1070
   147
1040
1.0
1070
   140
1040
4.0
1002
}
  0
DIMENSION
  5
121
330
1F
100
AcDbEntity
  8
NOLAYERNAME_001
  6
CONTINUOUS
 62
     7
100
AcDbDimension
  2
*D8
 10
76.77022530270318
 20
22.77811056010584
 30
0.0
 11
116.7702253027032
 21
22.77811056010583
 31
0.0
 70
   160
  3
STANDARD
100
AcDbAlignedDimension
 13
156.7702253027032
 23
50.03651727979837
 33
0.0
 14
76.77022530270318
 24
53.03651727979837
 34
0.0
 50
180.0
100
AcDbRotatedDimension
1001
ACAD
1000
DSTYLE
1002
{
1070
     5
1000
OPEN30
1070
   347
1005
16
1070
   372
1070
    25
1070
   346
1005
16
1070
   371
1070
    25
1070
   345
1005
16
1070
   178
1070
     0
1070
   177
1070
     0
1070
   176
1070
     0
1070
    47
1040
0.0
1070
    48
1040
0.0
1070
    78
1070
     8
1070
   271
1070
     1
1070
    41
1040
1.5
1070
    44
1040
2.749999999999993
1070
   147
1040
1.0
1070
   140
1040
4.0
1002
}
  0
DIMENSION
  5
12F
330
1F
100
AcDbEntity
  8
NOLAYERNAME_001
  6
CONTINUOUS
 62
     7
100
AcDbDimension
  2
*D9
 10
23.77022530270318
 20
15.58966061568172
 30
0.0
 11
90.27022530270318
 21
15.58966061568171
 31
0.0
 70
   160
  3
STANDARD
100
AcDbAlignedDimension
 13
156.7702253027032
 23
50.03651727979837
 33
0.0
 14
23.77022530270318
 24
48.53651727979837
 34
0.0
 50
180.0
100
AcDbRotatedDimension
1001
ACAD
1000
DSTYLE
1002
{
1070
     5
1000
OPEN30
1070
   347
1005
16
1070
   372
1070
    25
1070
   346
1005
16
1070
   371
1070
    25
1070
   345
1005
16
1070
   178
1070
     0
1070
   177
1070
     0
1070
   176
1070
     0
1070
    47
1040
0.0
1070
    48
1040
0.0
1070
    78
1070
     8
1070
   271
1070
     1
1070
    41
1040
1.5
1070
    44
1040
2.75
1070
   147
1040
1.0
1070
   140
1040
4.0
1002
}
  0
MTEXT
  5
13D
330
1F
100
AcDbEntity
  8
NOLAYERNAME_001
 62
     7
100
AcDbMText
 10
188.4485719394724
 20
27.25116082499744
 30
0.0
 40
4.0
 41
0.0
 71
     4
 72
     5
  1
\A1;\W0.8333;\LＡ－Ａ\l
1001
ACAD
1000
ACAD_MTEXT_DEFINED_HEIGHT_BEGIN
1070
    46
1040
4.0
1000
ACAD_MTEXT_DEFINED_HEIGHT_END
  0
DIMENSION
  5
13E
330
1F
100
AcDbEntity
  8
NOLAYERNAME_001
  6
CONTINUOUS
 62
     7
100
AcDbDimension
  2
*D10
 10
167.4617818246178
 20
72.03651727979837
 30
0.0
 11
167.4617818246178
 21
59.53651719237558
 31
0.0
 70
   160
  3
STANDARD
100
AcDbAlignedDimension
 13
153.7702253027032
 23
47.03651727979837
 33
0.0
 14
153.7702253027032
 24
72.03651727979837
 34
0.0
 50
90.0
100
AcDbRotatedDimension
1001
ACAD
1000
DSTYLE
1002
{
1070
     5
1000
OPEN30
1070
   347
1005
16
1070
   372
1070
    25
1070
   346
1005
16
1070
   371
1070
    25
1070
   345
1005
16
1070
   178
1070
     0
1070
   177
1070
     0
1070
   176
1070
     0
1070
     3
1000
%%c<>
1070
    47
1040
0.0
1070
    48
1040
0.0
1070
    78
1070
     8
1070
   271
1070
     1
1070
    41
1040
1.5
1070
    44
1040
2.750000000000057
1070
   147
1040
1.0
1070
   140
1040
4.0
1002
}
  0
DIMENSION
  5
14C
330
1F
100
AcDbEntity
  8
NOLAYERNAME_001
  6
CONTINUOUS
 62
     7
100
AcDbDimension
  2
*D11
 10
9.022444931809808
 20
54.98845830973687
 30
0.0
 11
9.022444931809808
 21
71.03651719237558
 31
0.0
 70
   160
  3
STANDARD
100
AcDbAlignedDimension
 13
21.30643810070126
 23
59.53651727979837
 33
0.0
 14
21.11371783381406
 24
54.98845830973687
 34
0.0
 50
-90.0
100
AcDbRotatedDimension
1001
ACAD
1000
DSTYLE
1002
{
1070
     5
1000
OPEN30
1070
   347
1005
16
1070
   372
1070
    25
1070
   346
1005
16
1070
   371
1070
    25
1070
   345
1005
16
1070
   178
1070
     0
1070
   177
1070
     0
1070
   176
1070
     0
1070
    47
1040
0.0
1070
    48
1040
0.0
1070
    78
1070
     8
1070
    41
1040
1.5
1070
    44
1040
2.75
1070
   147
1040
1.0
1070
   140
1040
4.0
1002
}
  0
MTEXT
  5
15D
330
1F
100
AcDbEntity
  8
NOLAYERNAME_001
 62
     7
100
AcDbMText
 10
107.6224822998047
 20
99.4523868560791
 30
0.0
 40
4.5
 41
0.0
 71
     5
 72
     5
  1
\A1;\W0.8333;ウラザグル　ＵＺＨ２５－１６Ｔ－Ｍ１４ＣＳ
1001
ACAD
1000
ACAD_MTEXT_DEFINED_HEIGHT_BEGIN
1070
    46
1040
4.5
1000
ACAD_MTEXT_DEFINED_HEIGHT_END
  0
LINE
  5
164
330
1F
100
AcDbEntity
  8
NOLAYERNAME_001
  6
PHANTOM
 62
     7
100
AcDbLine
 10
31.17022530270322
 20
61.94039933967537
 30
0.0
 11
23.77022530270318
 21
61.94039933967537
 31
0.0
  0
DIMENSION
  5
165
330
1F
100
AcDbEntity
  8
NOLAYERNAME_001
  6
CONTINUOUS
 62
     7
100
AcDbDimension
  2
*D12
 10
-9.683494567871092
 20
71.03651727979839
 30
0.0
 11
-9.683494567871094
 21
59.53651719237559
 31
0.0
 70
   160
  3
STANDARD
100
AcDbAlignedDimension
 13
16.22108459472656
 23
48.03651727979837
 33
0.0
 14
31.17022530270322
 24
71.03651727979839
 34
0.0
 50
90.0
100
AcDbRotatedDimension
1001
ACAD
1000
DSTYLE
1002
{
1070
     5
1000
OPEN30
1070
    76
1070
     1
1070
   282
1070
     1
1070
   347
1005
16
1070
   372
1070
    25
1070
   346
1005
16
1070
   371
1070
    25
1070
   345
1005
16
1070
   178
1070
     0
1070
   177
1070
     0
1070
   176
1070
     0
1070
     3
1000
%%c<>
1070
    47
1040
0.0
1070
    48
1040
0.0
1070
    78
1070
     8
1070
   271
1070
     1
1070
    41
1040
1.5
1070
    44
1040
2.75
1070
   147
1040
1.0
1070
   140
1040
4.0
1002
}
  0
DIMENSION
  5
173
330
1F
100
AcDbEntity
  8
NOLAYERNAME_001
  6
CONTINUOUS
 62
     7
100
AcDbDimension
  2
*D13
 10
0.1132350256191903
 20
61.94039933967537
 30
0.0
 11
0.1132350256191899
 21
54.98845822231408
 31
0.0
 70
   160
  3
STANDARD
100
AcDbAlignedDimension
 13
16.22108459472656
 23
48.03651727979837
 33
0.0
 14
23.77022530270318
 24
61.94039933967537
 34
0.0
 50
90.0
100
AcDbRotatedDimension
1001
ACAD
1000
DSTYLE
1002
{
1070
     5
1000
OPEN30
1070
   347
1005
16
1070
   372
1070
    25
1070
   346
1005
16
1070
   371
1070
    25
1070
   345
1005
16
1070
   178
1070
     0
1070
   177
1070
     0
1070
   176
1070
     0
1070
     3
1000
%%c<>
1070
    47
1040
0.0
1070
    48
1040
0.0
1070
    78
1070
     8
1070
   271
1070
     0
1070
    41
1040
1.5
1070
    44
1040
2.75
1070
   147
1040
1.0
1070
   140
1040
4.0
1002
}
  0
ENDSEC
  0
SECTION
  2
OBJECTS
  0
DICTIONARY
  5
C
330
0
100
AcDbDictionary
  3
ACAD_GROUP
350
D
  3
ACAD_IMAGE_VARS
350
1CF
  3
ACAD_MLINESTYLE
350
17
  3
ACAD_SCALELIST
350
47
  3
ACDBVARIABLEDICTIONARY
350
183
  3
APPDATA
350
1CD
  3
DWGPROPS
350
1D0
  0
DICTIONARY
  5
D
102
{ACAD_REACTORS
330
C
102
}
330
C
100
AcDbDictionary
  0
RASTERVARIABLES
  5
1CF
102
{ACAD_REACTORS
330
C
102
}
330
C
100
AcDbRasterVariables
 90
        0
 70
     1
 71
     1
 72
     1
  0
DICTIONARY
  5
17
102
{ACAD_REACTORS
330
C
102
}
330
C
100
AcDbDictionary
  3
STANDARD
350
18
  0
DICTIONARY
  5
47
102
{ACAD_REACTORS
330
C
102
}
330
C
100
AcDbDictionary
  0
DICTIONARY
  5
183
102
{ACAD_REACTORS
330
C
102
}
330
C
100
AcDbDictionary
  3
DIMASSOC
350
18A
  3
HIDETEXT
350
18B
  0
DICTIONARY
  5
1CD
102
{ACAD_REACTORS
330
C
102
}
330
C
100
AcDbDictionary
  0
XRECORD
  5
1D0
102
{ACAD_REACTORS
330
C
102
}
330
C
100
AcDbXrecord
  1
DWGPROPS COOKIE
  2

  3

  4

  6
File was created by TR2_DExp
  7

  8
kaihatu03
  9

300
=
301
=
302
=
303
=
304
=
305
=
306
=
307
=
308
=
309
=
 40
0.0
 41
2455188.375
 42
2457855.220791412
  1

 90
        0
  0
MLINESTYLE
  5
18
102
{ACAD_REACTORS
330
17
102
}
330
17
100
AcDbMlineStyle
  2
Standard
 70
     0
  3

 62
   256
 51
90.0
 52
90.0
 71
     2
 49
0.5
 62
   256
  6
BYLAYER
 49
-0.5
 62
   256
  6
BYLAYER
  0
DICTIONARYVAR
  5
18A
102
{ACAD_REACTORS
330
183
102
}
330
183
100
DictionaryVariables
280
     0
  1
2
  0
DICTIONARYVAR
  5
18B
102
{ACAD_REACTORS
330
183
102
}
330
183
100
DictionaryVariables
280
     0
  1
1
  0
ENDSEC
  0
EOF
