  0
SECTION
  2
HEADER
  9
$ACADVER
  1
AC1014
  9
$ACADMAINTVER
 70
     9
  9
$DWGCODEPAGE
  3
ANSI_932
  9
$INSBASE
 10
0.0
 20
0.0
 30
0.0
  9
$EXTMIN
 10
5.238651275634766
 20
12.48549721373702
 30
0.0
  9
$EXTMAX
 10
256.5286372140505
 20
111.0328933914503
 30
0.0
  9
$LIMMIN
 10
5.238651275634766
 20
12.48549721373702
  9
$LIMMAX
 10
256.5286372140505
 20
111.1828933914503
  9
$ORTHOMODE
 70
     0
  9
$REGENMODE
 70
     1
  9
$FILLMODE
 70
     1
  9
$QTEXTMODE
 70
     0
  9
$MIRRTEXT
 70
     1
  9
$DRAGMODE
 70
     2
  9
$LTSCALE
 40
0.1088263718630934
  9
$OSMODE
 70
   511
  9
$ATTMODE
 70
     1
  9
$TEXTSIZE
 40
2.5
  9
$TRACEWID
 40
1.0
  9
$TEXTSTYLE
  7
STANDARD
  9
$CLAYER
  8
0
  9
$CELTYPE
  6
BYLAYER
  9
$CECOLOR
 62
   256
  9
$CELTSCALE
 40
1.0
  9
$DELOBJ
 70
     1
  9
$DISPSILH
 70
     0
  9
$DIMSCALE
 40
1.0
  9
$DIMASZ
 40
2.5
  9
$DIMEXO
 40
0.625
  9
$DIMDLI
 40
3.75
  9
$DIMRND
 40
0.0
  9
$DIMDLE
 40
0.0
  9
$DIMEXE
 40
1.25
  9
$DIMTP
 40
0.0
  9
$DIMTM
 40
0.0
  9
$DIMTXT
 40
2.5
  9
$DIMCEN
 40
2.5
  9
$DIMTSZ
 40
0.0
  9
$DIMTOL
 70
     0
  9
$DIMLIM
 70
     0
  9
$DIMTIH
 70
     0
  9
$DIMTOH
 70
     0
  9
$DIMSE1
 70
     0
  9
$DIMSE2
 70
     0
  9
$DIMTAD
 70
     1
  9
$DIMZIN
 70
     0
  9
$DIMBLK
  1

  9
$DIMASO
 70
     1
  9
$DIMSHO
 70
     1
  9
$DIMPOST
  1

  9
$DIMAPOST
  1

  9
$DIMALT
 70
     0
  9
$DIMALTD
 70
     3
  9
$DIMALTF
 40
0.03937007874016
  9
$DIMLFAC
 40
1.0
  9
$DIMTOFL
 70
     1
  9
$DIMTVP
 40
0.0
  9
$DIMTIX
 70
     0
  9
$DIMSOXD
 70
     0
  9
$DIMSAH
 70
     0
  9
$DIMBLK1
  1

  9
$DIMBLK2
  1

  9
$DIMSTYLE
  2
STANDARD
  9
$DIMCLRD
 70
     0
  9
$DIMCLRE
 70
     0
  9
$DIMCLRT
 70
     0
  9
$DIMTFAC
 40
0.75
  9
$DIMGAP
 40
0.625
  9
$DIMJUST
 70
     0
  9
$DIMSD1
 70
     0
  9
$DIMSD2
 70
     0
  9
$DIMTOLJ
 70
     0
  9
$DIMTZIN
 70
     8
  9
$DIMALTZ
 70
     0
  9
$DIMALTTZ
 70
     0
  9
$DIMFIT
 70
     3
  9
$DIMUPT
 70
     0
  9
$DIMUNIT
 70
     2
  9
$DIMDEC
 70
     2
  9
$DIMTDEC
 70
     2
  9
$DIMALTU
 70
     2
  9
$DIMALTTD
 70
     3
  9
$DIMTXSTY
  7
STANDARD
  9
$DIMAUNIT
 70
     0
  9
$LUNITS
 70
     2
  9
$LUPREC
 70
     4
  9
$SKETCHINC
 40
1.0
  9
$FILLETRAD
 40
10.0
  9
$AUNITS
 70
     0
  9
$AUPREC
 70
     0
  9
$MENU
  1
.
  9
$ELEVATION
 40
0.0
  9
$PELEVATION
 40
0.0
  9
$THICKNESS
 40
0.0
  9
$LIMCHECK
 70
     0
  9
$CHAMFERA
 40
10.0
  9
$CHAMFERB
 40
10.0
  9
$CHAMFERC
 40
20.0
  9
$CHAMFERD
 40
0.0
  9
$SKPOLY
 70
     0
  9
$TDCREATE
 40
2455188.75
  9
$TDUPDATE
 40
2457855.59829125
  9
$TDINDWG
 40
0.000594456
  9
$TDUSRTIMER
 40
2457855.222696979
  9
$USRTIMER
 70
     1
  9
$ANGBASE
 50
0.0
  9
$ANGDIR
 70
     0
  9
$PDMODE
 70
     0
  9
$PDSIZE
 40
0.0
  9
$PLINEWID
 40
0.0
  9
$COORDS
 70
     1
  9
$SPLFRAME
 70
     0
  9
$SPLINETYPE
 70
     6
  9
$SPLINESEGS
 70
     8
  9
$ATTDIA
 70
     0
  9
$ATTREQ
 70
     1
  9
$HANDLING
 70
     1
  9
$HANDSEED
  5
1CD
  9
$SURFTAB1
 70
     6
  9
$SURFTAB2
 70
     6
  9
$SURFTYPE
 70
     6
  9
$SURFU
 70
     6
  9
$SURFV
 70
     6
  9
$UCSNAME
  2

  9
$UCSORG
 10
0.0
 20
0.0
 30
0.0
  9
$UCSXDIR
 10
1.0
 20
0.0
 30
0.0
  9
$UCSYDIR
 10
0.0
 20
1.0
 30
0.0
  9
$PUCSNAME
  2

  9
$PUCSORG
 10
0.0
 20
0.0
 30
0.0
  9
$PUCSXDIR
 10
1.0
 20
0.0
 30
0.0
  9
$PUCSYDIR
 10
0.0
 20
1.0
 30
0.0
  9
$USERI1
 70
     0
  9
$USERI2
 70
     0
  9
$USERI3
 70
     0
  9
$USERI4
 70
     0
  9
$USERI5
 70
     0
  9
$USERR1
 40
0.0
  9
$USERR2
 40
0.0
  9
$USERR3
 40
0.0
  9
$USERR4
 40
0.0
  9
$USERR5
 40
0.0
  9
$WORLDVIEW
 70
     1
  9
$SHADEDGE
 70
     3
  9
$SHADEDIF
 70
    70
  9
$TILEMODE
 70
     1
  9
$MAXACTVP
 70
    64
  9
$PINSBASE
 10
0.0
 20
0.0
 30
0.0
  9
$PLIMCHECK
 70
     0
  9
$PEXTMIN
 10
1.000000000000000E+20
 20
1.000000000000000E+20
 30
1.000000000000000E+20
  9
$PEXTMAX
 10
-1.000000000000000E+20
 20
-1.000000000000000E+20
 30
-1.000000000000000E+20
  9
$PLIMMIN
 10
0.0
 20
0.0
  9
$PLIMMAX
 10
0.0
 20
0.0
  9
$UNITMODE
 70
     0
  9
$VISRETAIN
 70
     1
  9
$PLINEGEN
 70
     0
  9
$PSLTSCALE
 70
     0
  9
$TREEDEPTH
 70
  3020
  9
$PICKSTYLE
 70
     1
  9
$CMLSTYLE
  2
STANDARD
  9
$CMLJUST
 70
     0
  9
$CMLSCALE
 40
20.0
  9
$PROXYGRAPHICS
 70
     1
  9
$MEASUREMENT
 70
     1
  0
ENDSEC
  0
SECTION
  2
CLASSES
  0
CLASS
  1
ACDBDICTIONARYWDFLT
  2
AcDbDictionaryWithDefault
  3
ObjectDBX Classes
 90
        0
280
     0
281
     0
  0
CLASS
  1
VISUALSTYLE
  2
AcDbVisualStyle
  3
ObjectDBX Classes
 90
     4095
280
     0
281
     0
  0
CLASS
  1
MATERIAL
  2
AcDbMaterial
  3
ObjectDBX Classes
 90
     1153
280
     0
281
     0
  0
CLASS
  1
SCALE
  2
AcDbScale
  3
ObjectDBX Classes
 90
     1153
280
     0
281
     0
  0
CLASS
  1
TABLESTYLE
  2
AcDbTableStyle
  3
ObjectDBX Classes
 90
     4095
280
     0
281
     0
  0
CLASS
  1
MLEADERSTYLE
  2
AcDbMLeaderStyle
  3
ACDB_MLEADERSTYLE_CLASS
 90
     4095
280
     0
281
     0
  0
CLASS
  1
SUN
  2
AcDbSun
  3
SCENEOE
 90
     1153
280
     0
281
     0
  0
CLASS
  1
DICTIONARYVAR
  2
AcDbDictionaryVar
  3
ObjectDBX Classes
 90
        0
280
     0
281
     0
  0
CLASS
  1
ACDBPLACEHOLDER
  2
AcDbPlaceHolder
  3
ObjectDBX Classes
 90
        0
280
     0
281
     0
  0
CLASS
  1
LAYOUT
  2
AcDbLayout
  3
ObjectDBX Classes
 90
        0
280
     0
281
     0
  0
CLASS
  1
RASTERVARIABLES
  2
AcDbRasterVariables
  3
ISM
 90
        0
280
     0
281
     0
  0
CLASS
  1
XRECORD
  2
AcDbXrecord
  3
ObjectDBX Classes
 90
        0
280
     0
281
     0
  0
CLASS
  1
LWPOLYLINE
  2
AcDbPolyline
  3
ObjectDBX Classes
 90
        0
280
     0
281
     1
  0
CLASS
  1
HATCH
  2
AcDbHatch
  3
ObjectDBX Classes
 90
        0
280
     0
281
     1
  0
ENDSEC
  0
SECTION
  2
TABLES
  0
TABLE
  2
VPORT
  5
8
330
0
100
AcDbSymbolTable
 70
     1
  0
VPORT
  5
29
330
8
100
AcDbSymbolTableRecord
100
AcDbViewportTableRecord
  2
*ACTIVE
 70
     0
 10
0.0
 20
0.0
 11
1.0
 21
1.0
 12
81.01240680357141
 22
50.60655468270317
 13
0.0
 23
0.0
 14
10.0
 24
10.0
 15
10.0
 25
10.0
 16
0.0
 26
0.0
 36
1.0
 17
0.0
 27
0.0
 37
0.0
 40
77.85676800000002
 41
2.08803611738149
 42
50.0
 43
0.0
 44
0.0
 50
0.0
 51
0.0
 71
    16
 72
   100
 73
     1
 74
     3
 75
     0
 76
     0
 77
     0
 78
     0
  0
ENDTAB
  0
TABLE
  2
LTYPE
  5
5
330
0
100
AcDbSymbolTable
 70
     7
  0
LTYPE
  5
14
330
5
100
AcDbSymbolTableRecord
100
AcDbLinetypeTableRecord
  2
BYBLOCK
 70
     0
  3

 72
    65
 73
     0
 40
0.0
  0
LTYPE
  5
15
330
5
100
AcDbSymbolTableRecord
100
AcDbLinetypeTableRecord
  2
BYLAYER
 70
     0
  3

 72
    65
 73
     0
 40
0.0
  0
LTYPE
  5
16
330
5
100
AcDbSymbolTableRecord
100
AcDbLinetypeTableRecord
  2
CONTINUOUS
 70
     0
  3
Solid line
 72
    65
 73
     0
 40
0.0
  0
LTYPE
  5
6F
330
5
100
AcDbSymbolTableRecord
100
AcDbLinetypeTableRecord
  2
DASHED
 70
     0
  3
ICAD/SX(2) Dashed __ __ __ __ __ __ __ __ __ __ __ __ __ _
 72
    65
 73
     2
 40
19.05
 49
12.7
 74
     0
 49
-6.35
 74
     0
  0
LTYPE
  5
70
330
5
100
AcDbSymbolTableRecord
100
AcDbLinetypeTableRecord
  2
CENTER
 70
     0
  3
ICAD/SX(3) Center ____ _ ____ _ ____ _ ____ _ ____ _ ____
 72
    65
 73
     4
 40
50.8
 49
31.75
 74
     0
 49
-6.35
 74
     0
 49
6.35
 74
     0
 49
-6.35
 74
     0
  0
LTYPE
  5
71
330
5
100
AcDbSymbolTableRecord
100
AcDbLinetypeTableRecord
  2
PHANTOM
 70
     0
  3
ICAD/SX(4) Phantom ______  __  __  ______  __  __  ______
 72
    65
 73
     6
 40
63.5
 49
31.75
 74
     0
 49
-6.35
 74
     0
 49
6.35
 74
     0
 49
-6.35
 74
     0
 49
6.35
 74
     0
 49
-6.35
 74
     0
  0
LTYPE
  5
72
330
5
100
AcDbSymbolTableRecord
100
AcDbLinetypeTableRecord
  2
DOT
 70
     0
  3
ICAD/SX(5) Dot . . . . . . . . . . . . . . . . . . . . . . . .
 72
    65
 73
     2
 40
6.35
 49
0.0
 74
     0
 49
-6.35
 74
     0
  0
LTYPE
  5
73
330
5
100
AcDbSymbolTableRecord
100
AcDbLinetypeTableRecord
  2
HIDDEN
 70
     0
  3
ICAD/SX(6) Hidden __ __ __ __ __ __ __ __ __ __ __ __ __ __
 72
    65
 73
     2
 40
9.525
 49
6.35
 74
     0
 49
-3.175
 74
     0
  0
LTYPE
  5
74
330
5
100
AcDbSymbolTableRecord
100
AcDbLinetypeTableRecord
  2
DOTSX
 70
     0
  3
ICAD/SX(5) Dot . . . . . . . . . . . . . . . . . . . . . . . .
 72
    65
 73
     2
 40
6.35
 49
3.175
 74
     0
 49
-3.175
 74
     0
  0
ENDTAB
  0
TABLE
  2
LAYER
  5
2
330
0
100
AcDbSymbolTable
 70
     3
  0
LAYER
  5
10
330
2
100
AcDbSymbolTableRecord
100
AcDbLayerTableRecord
  2
0
 70
     0
 62
     7
  6
CONTINUOUS
  0
LAYER
  5
75
330
2
100
AcDbSymbolTableRecord
100
AcDbLayerTableRecord
  2
NOLAYERNAME_001
 70
     0
 62
     7
  6
CONTINUOUS
  0
LAYER
  5
76
330
2
100
AcDbSymbolTableRecord
100
AcDbLayerTableRecord
  2
DEFPOINTS
 70
     0
 62
     7
  6
CONTINUOUS
  0
ENDTAB
  0
TABLE
  2
STYLE
  5
3
330
0
100
AcDbSymbolTable
 70
     2
  0
STYLE
  5
11
330
3
100
AcDbSymbolTableRecord
100
AcDbTextStyleTableRecord
  2
STANDARD
 70
     0
 40
0.0
 41
1.0
 50
0.0
 71
     0
 42
2.5
  3
txt
  4
extfont2
  0
STYLE
  5
6E
330
3
100
AcDbSymbolTableRecord
100
AcDbTextStyleTableRecord
  2

 70
     1
 40
0.0
 41
1.0
 50
0.0
 71
     0
 42
2.5
  3
ltypeshp.shx
  4

  0
ENDTAB
  0
TABLE
  2
VIEW
  5
6
330
0
100
AcDbSymbolTable
 70
     0
  0
ENDTAB
  0
TABLE
  2
UCS
  5
7
330
0
100
AcDbSymbolTable
 70
     0
  0
ENDTAB
  0
TABLE
  2
APPID
  5
9
330
0
100
AcDbSymbolTable
 70
     5
  0
APPID
  5
12
330
9
100
AcDbSymbolTableRecord
100
AcDbRegAppTableRecord
  2
ACAD
 70
     0
  0
APPID
  5
189
330
9
100
AcDbSymbolTableRecord
100
AcDbRegAppTableRecord
  2
ACAD_DSTYLE_DIM_LINETYPE
 70
     0
  0
APPID
  5
18A
330
9
100
AcDbSymbolTableRecord
100
AcDbRegAppTableRecord
  2
ACAD_DSTYLE_DIM_EXT1_LINET
 70
     0
  0
APPID
  5
18B
330
9
100
AcDbSymbolTableRecord
100
AcDbRegAppTableRecord
  2
ACAD_DSTYLE_DIM_EXT2_LINET
 70
     0
  0
APPID
  5
1C6
330
9
100
AcDbSymbolTableRecord
100
AcDbRegAppTableRecord
  2
ACAD_MLEADERVER
 70
     0
  0
ENDTAB
  0
TABLE
  2
DIMSTYLE
  5
A
330
0
100
AcDbSymbolTable
 70
     1
  0
DIMSTYLE
105
27
102
{ACAD_REACTORS
330
C5
330
DF
330
F1
330
FF
330
10D
330
11B
330
129
330
137
330
146
330
154
330
161
330
170
102
}
330
A
100
AcDbSymbolTableRecord
100
AcDbDimStyleTableRecord
  2
STANDARD
 70
     0
  3

  4

  5

  6

  7

 40
1.0
 41
2.5
 42
0.625
 43
3.75
 44
1.25
 45
0.0
 46
0.0
 47
0.0
 48
0.0
140
2.5
141
2.5
142
0.0
143
0.03937007874016
144
1.0
145
0.0
146
0.75
147
0.625
 71
     0
 72
     0
 73
     0
 74
     0
 75
     0
 76
     0
 77
     1
 78
     0
170
     0
171
     3
172
     1
173
     0
174
     0
175
     0
176
     0
177
     0
178
     0
270
     2
271
     2
272
     2
273
     2
274
     3
340
11
275
     0
280
     0
281
     0
282
     0
283
     0
284
     8
285
     0
286
     0
287
     3
288
     0
  0
ENDTAB
  0
TABLE
  2
BLOCK_RECORD
  5
1
330
0
100
AcDbSymbolTable
 70
    14
  0
BLOCK_RECORD
  5
1F
330
1
100
AcDbSymbolTableRecord
100
AcDbBlockTableRecord
  2
*MODEL_SPACE
  0
BLOCK_RECORD
  5
1B
330
1
100
AcDbSymbolTableRecord
100
AcDbBlockTableRecord
  2
*PAPER_SPACE
  0
BLOCK_RECORD
  5
23
330
1
100
AcDbSymbolTableRecord
100
AcDbBlockTableRecord
  2
*PAPER_SPACE0
  0
BLOCK_RECORD
  5
C7
330
1
100
AcDbSymbolTableRecord
100
AcDbBlockTableRecord
  2
_OPEN30
  0
BLOCK_RECORD
  5
CD
330
1
100
AcDbSymbolTableRecord
100
AcDbBlockTableRecord
  2
*D2
  0
BLOCK_RECORD
  5
E1
330
1
100
AcDbSymbolTableRecord
100
AcDbBlockTableRecord
  2
*D3
  0
BLOCK_RECORD
  5
F3
330
1
100
AcDbSymbolTableRecord
100
AcDbBlockTableRecord
  2
*D4
  0
BLOCK_RECORD
  5
101
330
1
100
AcDbSymbolTableRecord
100
AcDbBlockTableRecord
  2
*D5
  0
BLOCK_RECORD
  5
10F
330
1
100
AcDbSymbolTableRecord
100
AcDbBlockTableRecord
  2
*D6
  0
BLOCK_RECORD
  5
11D
330
1
100
AcDbSymbolTableRecord
100
AcDbBlockTableRecord
  2
*D7
  0
BLOCK_RECORD
  5
12B
330
1
100
AcDbSymbolTableRecord
100
AcDbBlockTableRecord
  2
*D8
  0
BLOCK_RECORD
  5
139
330
1
100
AcDbSymbolTableRecord
100
AcDbBlockTableRecord
  2
*D9
  0
BLOCK_RECORD
  5
148
330
1
100
AcDbSymbolTableRecord
100
AcDbBlockTableRecord
  2
*D10
  0
BLOCK_RECORD
  5
156
330
1
100
AcDbSymbolTableRecord
100
AcDbBlockTableRecord
  2
*D11
  0
BLOCK_RECORD
  5
163
330
1
100
AcDbSymbolTableRecord
100
AcDbBlockTableRecord
  2
*D12
  0
BLOCK_RECORD
  5
172
330
1
100
AcDbSymbolTableRecord
100
AcDbBlockTableRecord
  2
*D13
  0
ENDTAB
  0
ENDSEC
  0
SECTION
  2
BLOCKS
  0
BLOCK
  5
20
330
1F
100
AcDbEntity
  8
0
100
AcDbBlockBegin
  2
*MODEL_SPACE
 70
     0
 10
0.0
 20
0.0
 30
0.0
  3
*MODEL_SPACE
  1

  0
ENDBLK
  5
21
330
1F
100
AcDbEntity
  8
0
100
AcDbBlockEnd
  0
BLOCK
  5
1C
330
1B
100
AcDbEntity
 67
     1
  8
0
100
AcDbBlockBegin
  2
*PAPER_SPACE
 70
     0
 10
0.0
 20
0.0
 30
0.0
  3
*PAPER_SPACE
  1

  0
ENDBLK
  5
1D
330
1B
100
AcDbEntity
 67
     1
  8
0
100
AcDbBlockEnd
  0
BLOCK
  5
24
330
23
100
AcDbEntity
  8
0
100
AcDbBlockBegin
  2
*PAPER_SPACE0
 70
     0
 10
0.0
 20
0.0
 30
0.0
  3
*PAPER_SPACE0
  1
*Paper_Space0
  0
ENDBLK
  5
25
330
23
100
AcDbEntity
  8
0
100
AcDbBlockEnd
  0
BLOCK
  5
CB
330
C7
100
AcDbEntity
  8
0
100
AcDbBlockBegin
  2
_OPEN30
 70
     0
 10
0.0
 20
0.0
 30
0.0
  3
_OPEN30
  1
_OPEN30
  0
LINE
  5
C8
330
C7
100
AcDbEntity
  8
0
  6
BYBLOCK
 62
     0
100
AcDbLine
 10
-1.0
 20
0.267949
 30
0.0
 11
0.0
 21
0.0
 31
0.0
  0
LINE
  5
C9
330
C7
100
AcDbEntity
  8
0
  6
BYBLOCK
 62
     0
100
AcDbLine
 10
0.0
 20
0.0
 30
0.0
 11
-1.0
 21
-0.267949
 31
0.0
  0
LINE
  5
CA
330
C7
100
AcDbEntity
  8
0
  6
BYBLOCK
 62
     0
100
AcDbLine
 10
0.0
 20
0.0
 30
0.0
 11
-1.0
 21
0.0
 31
0.0
  0
ENDBLK
  5
CC
330
C7
100
AcDbEntity
  8
0
100
AcDbBlockEnd
  0
BLOCK
  5
CE
330
CD
100
AcDbEntity
  8
0
100
AcDbBlockBegin
  2
*D2
 70
     1
 10
0.0
 20
0.0
 30
0.0
  3
*D2
  1
*D2
  0
LINE
  5
D0
330
CD
100
AcDbEntity
  8
NOLAYERNAME_001
  6
CONTINUOUS
 62
     0
100
AcDbLine
 10
253.2303194934266
 20
65.77180504151349
 30
0.0
 11
253.2303194934266
 21
39.24159866172239
 31
0.0
  0
LINE
  5
D1
330
CD
100
AcDbEntity
  8
NOLAYERNAME_001
  6
CONTINUOUS
 62
     0
100
AcDbLine
 10
222.2303194934266
 20
60.20404067868353
 30
0.0
 11
222.2303194934266
 21
39.2415986617224
 31
0.0
  0
LINE
  5
D2
330
CD
100
AcDbEntity
  8
NOLAYERNAME_001
  6
CONTINUOUS
 62
     0
100
AcDbLine
 10
251.7303194934266
 20
41.9915986617224
 30
0.0
 11
223.7303194934266
 21
41.99159866172241
 31
0.0
  0
INSERT
  5
D3
330
CD
100
AcDbEntity
  8
NOLAYERNAME_001
 62
     0
100
AcDbBlockReference
  2
_OPEN30
 10
253.2303194934266
 20
41.9915986617224
 30
0.0
 41
1.5
 42
1.5
 43
1.5
 50
360.0
  0
INSERT
  5
D4
330
CD
100
AcDbEntity
  8
NOLAYERNAME_001
 62
     0
100
AcDbBlockReference
  2
_OPEN30
 10
222.2303194934266
 20
41.99159866172241
 30
0.0
 41
1.5
 42
1.5
 43
1.5
 50
180.0
  0
MTEXT
  5
D5
330
CD
100
AcDbEntity
  8
NOLAYERNAME_001
 62
     0
100
AcDbMText
 10
237.7303194934266
 20
44.99159866172241
 30
0.0
 40
4.0
 41
0.0
 71
     5
 72
     1
  1
31
  0
POINT
  5
D6
330
CD
100
AcDbEntity
  8
DEFPOINTS
 62
     0
100
AcDbPoint
 10
253.2303194934266
 20
66.39680504151349
 30
0.0
  0
POINT
  5
D7
330
CD
100
AcDbEntity
  8
DEFPOINTS
 62
     0
100
AcDbPoint
 10
222.2303194934266
 20
60.82904067868353
 30
0.0
  0
POINT
  5
D8
330
CD
100
AcDbEntity
  8
DEFPOINTS
 62
     0
100
AcDbPoint
 10
222.2303194934266
 20
41.99159866172241
 30
0.0
  0
ENDBLK
  5
CF
330
CD
100
AcDbEntity
  8
0
100
AcDbBlockEnd
  0
BLOCK
  5
E2
330
E1
100
AcDbEntity
  8
0
100
AcDbBlockBegin
  2
*D3
 70
     1
 10
0.0
 20
0.0
 30
0.0
  3
*D3
  1
*D3
  0
LINE
  5
E4
330
E1
100
AcDbEntity
  8
NOLAYERNAME_001
  6
CONTINUOUS
 62
     0
100
AcDbLine
 10
50.80631429570735
 20
51.33019848268495
 30
0.0
 11
50.80631429570735
 21
41.6366456007223
 31
0.0
  0
LINE
  5
E5
330
E1
100
AcDbEntity
  8
NOLAYERNAME_001
  6
CONTINUOUS
 62
     0
100
AcDbLine
 10
50.82267488839978
 20
51.33041265457523
 30
0.0
 11
51.07642252111074
 21
41.64018151108334
 31
0.0
  0
ARC
  5
E6
330
E1
100
AcDbEntity
  8
NOLAYERNAME_001
  6
CONTINUOUS
 62
     0
100
AcDbCircle
 10
50.80631429570735
 20
51.95519848268495
 30
0.0
 40
7.568552881962667
100
AcDbArc
 50
247.2519391224
 51
258.6259695612
  0
ARC
  5
E7
330
E1
100
AcDbEntity
  8
NOLAYERNAME_001
  6
CONTINUOUS
 62
     0
100
AcDbCircle
 10
50.80631429570735
 20
51.95519848268495
 30
0.0
 40
7.568552881962667
100
AcDbArc
 50
282.8740304388011
 51
294.2480608776011
  0
ARC
  5
E8
330
E1
100
AcDbEntity
  8
NOLAYERNAME_001
  6
CONTINUOUS
 62
     0
100
AcDbCircle
 10
50.80631429570735
 20
51.95519848268495
 30
0.0
 40
7.568552881962667
100
AcDbArc
 50
270.0
 51
271.500000000001
  0
INSERT
  5
E9
330
E1
100
AcDbEntity
  8
NOLAYERNAME_001
 62
     0
100
AcDbBlockReference
  2
_OPEN30
 10
50.80631429570735
 20
44.38664560072228
 30
0.0
 41
1.5
 42
1.5
 43
1.5
 50
354.3129847805998
  0
INSERT
  5
EA
330
E1
100
AcDbEntity
  8
NOLAYERNAME_001
 62
     0
100
AcDbBlockReference
  2
_OPEN30
 10
51.00443591326403
 20
44.38923915476611
 30
0.0
 41
1.5
 42
1.5
 43
1.5
 50
187.187015219401
  0
MTEXT
  5
EB
330
E1
100
AcDbEntity
  8
NOLAYERNAME_001
 62
     0
100
AcDbMText
 10
53.9919444441603
 20
48.81476766217698
 30
0.0
 40
4.0
 41
0.0
 71
     5
 72
     1
  1
０°
 11
0.7020366261341168
 21
0.7121408396983187
 31
0.0
  0
POINT
  5
EC
330
E1
100
AcDbEntity
  8
DEFPOINTS
 62
     0
100
AcDbPoint
 10
50.87236154110317
 20
44.38693378802469
 30
0.0
  0
POINT
  5
ED
330
E1
100
AcDbEntity
  8
DEFPOINTS
 62
     0
100
AcDbPoint
 10
50.80631429570735
 20
52.55519848268497
 30
0.0
  0
POINT
  5
EE
330
E1
100
AcDbEntity
  8
DEFPOINTS
 62
     0
100
AcDbPoint
 10
50.80631429570735
 20
51.95519848268495
 30
0.0
  0
POINT
  5
EF
330
E1
100
AcDbEntity
  8
DEFPOINTS
 62
     0
100
AcDbPoint
 10
50.80369660087656
 20
52.05516421518251
 30
0.0
  0
POINT
  5
F0
330
E1
100
AcDbEntity
  8
DEFPOINTS
 62
     0
100
AcDbPoint
 10
50.80631429570735
 20
52.65519848268497
 30
0.0
  0
ENDBLK
  5
E3
330
E1
100
AcDbEntity
  8
0
100
AcDbBlockEnd
  0
BLOCK
  5
F4
330
F3
100
AcDbEntity
  8
0
100
AcDbBlockBegin
  2
*D4
 70
     1
 10
0.0
 20
0.0
 30
0.0
  3
*D4
  1
*D4
  0
LINE
  5
F6
330
F3
100
AcDbEntity
  8
NOLAYERNAME_001
  6
CONTINUOUS
 62
     0
100
AcDbLine
 10
112.8063142957074
 20
48.24791668154867
 30
0.0
 11
112.8063142957074
 21
35.95346709655589
 31
0.0
  0
LINE
  5
F7
330
F3
100
AcDbEntity
  8
NOLAYERNAME_001
  6
CONTINUOUS
 62
     0
100
AcDbLine
 10
50.80631429570735
 20
51.93019848268497
 30
0.0
 11
50.80631429570735
 21
35.95346709655589
 31
0.0
  0
LINE
  5
F8
330
F3
100
AcDbEntity
  8
NOLAYERNAME_001
  6
CONTINUOUS
 62
     0
100
AcDbLine
 10
111.3063142957074
 20
38.7034670965559
 30
0.0
 11
52.30631429570735
 21
38.7034670965559
 31
0.0
  0
INSERT
  5
F9
330
F3
100
AcDbEntity
  8
NOLAYERNAME_001
 62
     0
100
AcDbBlockReference
  2
_OPEN30
 10
112.8063142957074
 20
38.7034670965559
 30
0.0
 41
1.5
 42
1.5
 43
1.5
 50
360.0
  0
INSERT
  5
FA
330
F3
100
AcDbEntity
  8
NOLAYERNAME_001
 62
     0
100
AcDbBlockReference
  2
_OPEN30
 10
50.80631429570735
 20
38.7034670965559
 30
0.0
 41
1.5
 42
1.5
 43
1.5
 50
180.0
  0
MTEXT
  5
FB
330
F3
100
AcDbEntity
  8
NOLAYERNAME_001
 62
     0
100
AcDbMText
 10
81.80631429570735
 20
41.7034670965559
 30
0.0
 40
4.0
 41
0.0
 71
     5
 72
     1
  1
62
  0
POINT
  5
FC
330
F3
100
AcDbEntity
  8
DEFPOINTS
 62
     0
100
AcDbPoint
 10
112.8063142957074
 20
48.87291668154867
 30
0.0
  0
POINT
  5
FD
330
F3
100
AcDbEntity
  8
DEFPOINTS
 62
     0
100
AcDbPoint
 10
50.80631429570735
 20
52.55519848268497
 30
0.0
  0
POINT
  5
FE
330
F3
100
AcDbEntity
  8
DEFPOINTS
 62
     0
100
AcDbPoint
 10
50.80631429570735
 20
38.7034670965559
 30
0.0
  0
ENDBLK
  5
F5
330
F3
100
AcDbEntity
  8
0
100
AcDbBlockEnd
  0
BLOCK
  5
102
330
101
100
AcDbEntity
  8
0
100
AcDbBlockBegin
  2
*D5
 70
     1
 10
0.0
 20
0.0
 30
0.0
  3
*D5
  1
*D5
  0
LINE
  5
104
330
101
100
AcDbEntity
  8
NOLAYERNAME_001
  6
CONTINUOUS
 62
     0
100
AcDbLine
 10
50.80631429570735
 20
51.93019848268497
 30
0.0
 11
50.80631429570735
 21
26.67803176663818
 31
0.0
  0
LINE
  5
105
330
101
100
AcDbEntity
  8
NOLAYERNAME_001
  6
CONTINUOUS
 62
     0
100
AcDbLine
 10
39.80631429570735
 20
51.77180504151349
 30
0.0
 11
39.80631429570735
 21
26.67803176663818
 31
0.0
  0
LINE
  5
106
330
101
100
AcDbEntity
  8
NOLAYERNAME_001
  6
CONTINUOUS
 62
     0
100
AcDbLine
 10
49.30631429570735
 20
29.42803176663818
 30
0.0
 11
41.30631429570735
 21
29.42803176663818
 31
0.0
  0
INSERT
  5
107
330
101
100
AcDbEntity
  8
NOLAYERNAME_001
 62
     0
100
AcDbBlockReference
  2
_OPEN30
 10
50.80631429570735
 20
29.42803176663818
 30
0.0
 41
1.5
 42
1.5
 43
1.5
  0
INSERT
  5
108
330
101
100
AcDbEntity
  8
NOLAYERNAME_001
 62
     0
100
AcDbBlockReference
  2
_OPEN30
 10
39.80631429570735
 20
29.42803176663818
 30
0.0
 41
1.5
 42
1.5
 43
1.5
 50
180.0
  0
MTEXT
  5
109
330
101
100
AcDbEntity
  8
NOLAYERNAME_001
 62
     0
100
AcDbMText
 10
45.30631429570741
 20
32.42803176663818
 30
0.0
 40
4.0
 41
0.0
 71
     5
 72
     1
  1
11
  0
POINT
  5
10A
330
101
100
AcDbEntity
  8
DEFPOINTS
 62
     0
100
AcDbPoint
 10
50.80631429570735
 20
52.55519848268497
 30
0.0
  0
POINT
  5
10B
330
101
100
AcDbEntity
  8
DEFPOINTS
 62
     0
100
AcDbPoint
 10
39.80631429570735
 20
52.39680504151349
 30
0.0
  0
POINT
  5
10C
330
101
100
AcDbEntity
  8
DEFPOINTS
 62
     0
100
AcDbPoint
 10
39.80631429570735
 20
29.42803176663818
 30
0.0
  0
ENDBLK
  5
103
330
101
100
AcDbEntity
  8
0
100
AcDbBlockEnd
  0
BLOCK
  5
110
330
10F
100
AcDbEntity
  8
0
100
AcDbBlockBegin
  2
*D6
 70
     1
 10
0.0
 20
0.0
 30
0.0
  3
*D6
  1
*D6
  0
LINE
  5
112
330
10F
100
AcDbEntity
  8
NOLAYERNAME_001
  6
CONTINUOUS
 62
     0
100
AcDbLine
 10
117.8063142957074
 20
57.27180504151349
 30
0.0
 11
117.8063142957074
 21
26.67803176663817
 31
0.0
  0
LINE
  5
113
330
10F
100
AcDbEntity
  8
NOLAYERNAME_001
  6
CONTINUOUS
 62
     0
100
AcDbLine
 10
50.80631429570735
 20
51.93019848268497
 30
0.0
 11
50.80631429570735
 21
26.67803176663818
 31
0.0
  0
LINE
  5
114
330
10F
100
AcDbEntity
  8
NOLAYERNAME_001
  6
CONTINUOUS
 62
     0
100
AcDbLine
 10
116.3063142957074
 20
29.42803176663818
 30
0.0
 11
52.30631429570735
 21
29.42803176663819
 31
0.0
  0
INSERT
  5
115
330
10F
100
AcDbEntity
  8
NOLAYERNAME_001
 62
     0
100
AcDbBlockReference
  2
_OPEN30
 10
117.8063142957074
 20
29.42803176663818
 30
0.0
 41
1.5
 42
1.5
 43
1.5
 50
360.0
  0
INSERT
  5
116
330
10F
100
AcDbEntity
  8
NOLAYERNAME_001
 62
     0
100
AcDbBlockReference
  2
_OPEN30
 10
50.80631429570735
 20
29.42803176663819
 30
0.0
 41
1.5
 42
1.5
 43
1.5
 50
180.0
  0
MTEXT
  5
117
330
10F
100
AcDbEntity
  8
NOLAYERNAME_001
 62
     0
100
AcDbMText
 10
84.30631429570735
 20
32.42803176663818
 30
0.0
 40
4.0
 41
0.0
 71
     5
 72
     1
  1
67
  0
POINT
  5
118
330
10F
100
AcDbEntity
  8
DEFPOINTS
 62
     0
100
AcDbPoint
 10
117.8063142957074
 20
57.89680504151349
 30
0.0
  0
POINT
  5
119
330
10F
100
AcDbEntity
  8
DEFPOINTS
 62
     0
100
AcDbPoint
 10
50.80631429570735
 20
52.55519848268497
 30
0.0
  0
POINT
  5
11A
330
10F
100
AcDbEntity
  8
DEFPOINTS
 62
     0
100
AcDbPoint
 10
50.80631429570735
 20
29.42803176663818
 30
0.0
  0
ENDBLK
  5
111
330
10F
100
AcDbEntity
  8
0
100
AcDbBlockEnd
  0
BLOCK
  5
11E
330
11D
100
AcDbEntity
  8
0
100
AcDbBlockBegin
  2
*D7
 70
     1
 10
0.0
 20
0.0
 30
0.0
  3
*D7
  1
*D7
  0
LINE
  5
120
330
11D
100
AcDbEntity
  8
NOLAYERNAME_001
  6
CONTINUOUS
 62
     0
100
AcDbLine
 10
117.8063142957074
 20
57.27180504151349
 30
0.0
 11
117.8063142957074
 21
19.97290033749563
 31
0.0
  0
LINE
  5
121
330
11D
100
AcDbEntity
  8
NOLAYERNAME_001
  6
CONTINUOUS
 62
     0
100
AcDbLine
 10
39.80631429570735
 20
51.77180504151349
 30
0.0
 11
39.80631429570735
 21
19.97290033749564
 31
0.0
  0
LINE
  5
122
330
11D
100
AcDbEntity
  8
NOLAYERNAME_001
  6
CONTINUOUS
 62
     0
100
AcDbLine
 10
116.3063142957074
 20
22.72290033749564
 30
0.0
 11
41.30631429570735
 21
22.72290033749565
 31
0.0
  0
INSERT
  5
123
330
11D
100
AcDbEntity
  8
NOLAYERNAME_001
 62
     0
100
AcDbBlockReference
  2
_OPEN30
 10
117.8063142957074
 20
22.72290033749564
 30
0.0
 41
1.5
 42
1.5
 43
1.5
 50
360.0
  0
INSERT
  5
124
330
11D
100
AcDbEntity
  8
NOLAYERNAME_001
 62
     0
100
AcDbBlockReference
  2
_OPEN30
 10
39.80631429570735
 20
22.72290033749565
 30
0.0
 41
1.5
 42
1.5
 43
1.5
 50
180.0
  0
MTEXT
  5
125
330
11D
100
AcDbEntity
  8
NOLAYERNAME_001
 62
     0
100
AcDbMText
 10
78.80631429570735
 20
25.72290033749564
 30
0.0
 40
4.0
 41
0.0
 71
     5
 72
     1
  1
78
  0
POINT
  5
126
330
11D
100
AcDbEntity
  8
DEFPOINTS
 62
     0
100
AcDbPoint
 10
117.8063142957074
 20
57.89680504151349
 30
0.0
  0
POINT
  5
127
330
11D
100
AcDbEntity
  8
DEFPOINTS
 62
     0
100
AcDbPoint
 10
39.80631429570735
 20
52.39680504151349
 30
0.0
  0
POINT
  5
128
330
11D
100
AcDbEntity
  8
DEFPOINTS
 62
     0
100
AcDbPoint
 10
39.80631429570735
 20
22.72290033749564
 30
0.0
  0
ENDBLK
  5
11F
330
11D
100
AcDbEntity
  8
0
100
AcDbBlockEnd
  0
BLOCK
  5
12C
330
12B
100
AcDbEntity
  8
0
100
AcDbBlockBegin
  2
*D8
 70
     1
 10
0.0
 20
0.0
 30
0.0
  3
*D8
  1
*D8
  0
LINE
  5
12E
330
12B
100
AcDbEntity
  8
NOLAYERNAME_001
  6
CONTINUOUS
 62
     0
100
AcDbLine
 10
197.8063142957074
 20
52.77180504151349
 30
0.0
 11
197.8063142957074
 21
19.97290033749563
 31
0.0
  0
LINE
  5
12F
330
12B
100
AcDbEntity
  8
NOLAYERNAME_001
  6
CONTINUOUS
 62
     0
100
AcDbLine
 10
117.8063142957074
 20
57.27180504151349
 30
0.0
 11
117.8063142957074
 21
19.97290033749564
 31
0.0
  0
LINE
  5
130
330
12B
100
AcDbEntity
  8
NOLAYERNAME_001
  6
CONTINUOUS
 62
     0
100
AcDbLine
 10
196.3063142957074
 20
22.72290033749564
 30
0.0
 11
119.3063142957074
 21
22.72290033749565
 31
0.0
  0
INSERT
  5
131
330
12B
100
AcDbEntity
  8
NOLAYERNAME_001
 62
     0
100
AcDbBlockReference
  2
_OPEN30
 10
197.8063142957074
 20
22.72290033749564
 30
0.0
 41
1.5
 42
1.5
 43
1.5
 50
360.0
  0
INSERT
  5
132
330
12B
100
AcDbEntity
  8
NOLAYERNAME_001
 62
     0
100
AcDbBlockReference
  2
_OPEN30
 10
117.8063142957074
 20
22.72290033749565
 30
0.0
 41
1.5
 42
1.5
 43
1.5
 50
180.0
  0
MTEXT
  5
133
330
12B
100
AcDbEntity
  8
NOLAYERNAME_001
 62
     0
100
AcDbMText
 10
157.8063142957074
 20
25.72290033749564
 30
0.0
 40
4.0
 41
0.0
 71
     5
 72
     1
  1
80
  0
POINT
  5
134
330
12B
100
AcDbEntity
  8
DEFPOINTS
 62
     0
100
AcDbPoint
 10
197.8063142957074
 20
53.39680504151349
 30
0.0
  0
POINT
  5
135
330
12B
100
AcDbEntity
  8
DEFPOINTS
 62
     0
100
AcDbPoint
 10
117.8063142957074
 20
57.89680504151349
 30
0.0
  0
POINT
  5
136
330
12B
100
AcDbEntity
  8
DEFPOINTS
 62
     0
100
AcDbPoint
 10
117.8063142957074
 20
22.72290033749564
 30
0.0
  0
ENDBLK
  5
12D
330
12B
100
AcDbEntity
  8
0
100
AcDbBlockEnd
  0
BLOCK
  5
13A
330
139
100
AcDbEntity
  8
0
100
AcDbBlockBegin
  2
*D9
 70
     1
 10
0.0
 20
0.0
 30
0.0
  3
*D9
  1
*D9
  0
LINE
  5
13C
330
139
100
AcDbEntity
  8
NOLAYERNAME_001
  6
CONTINUOUS
 62
     0
100
AcDbLine
 10
197.8063142957074
 20
52.77180504151349
 30
0.0
 11
197.8063142957074
 21
12.48549721373702
 31
0.0
  0
LINE
  5
13D
330
139
100
AcDbEntity
  8
NOLAYERNAME_001
  6
CONTINUOUS
 62
     0
100
AcDbLine
 10
39.80631429570735
 20
51.77180504151349
 30
0.0
 11
39.80631429570735
 21
12.48549721373704
 31
0.0
  0
LINE
  5
13E
330
139
100
AcDbEntity
  8
NOLAYERNAME_001
  6
CONTINUOUS
 62
     0
100
AcDbLine
 10
196.3063142957074
 20
15.23549721373702
 30
0.0
 11
41.30631429570735
 21
15.23549721373704
 31
0.0
  0
INSERT
  5
13F
330
139
100
AcDbEntity
  8
NOLAYERNAME_001
 62
     0
100
AcDbBlockReference
  2
_OPEN30
 10
197.8063142957074
 20
15.23549721373702
 30
0.0
 41
1.5
 42
1.5
 43
1.5
 50
360.0
  0
INSERT
  5
140
330
139
100
AcDbEntity
  8
NOLAYERNAME_001
 62
     0
100
AcDbBlockReference
  2
_OPEN30
 10
39.80631429570735
 20
15.23549721373704
 30
0.0
 41
1.5
 42
1.5
 43
1.5
 50
180.0
  0
MTEXT
  5
141
330
139
100
AcDbEntity
  8
NOLAYERNAME_001
 62
     0
100
AcDbMText
 10
118.8063142957074
 20
18.23549721373703
 30
0.0
 40
4.0
 41
0.0
 71
     5
 72
     1
  1
158
  0
POINT
  5
142
330
139
100
AcDbEntity
  8
DEFPOINTS
 62
     0
100
AcDbPoint
 10
197.8063142957074
 20
53.39680504151349
 30
0.0
  0
POINT
  5
143
330
139
100
AcDbEntity
  8
DEFPOINTS
 62
     0
100
AcDbPoint
 10
39.80631429570735
 20
52.39680504151349
 30
0.0
  0
POINT
  5
144
330
139
100
AcDbEntity
  8
DEFPOINTS
 62
     0
100
AcDbPoint
 10
39.80631429570735
 20
15.23549721373703
 30
0.0
  0
ENDBLK
  5
13B
330
139
100
AcDbEntity
  8
0
100
AcDbBlockEnd
  0
BLOCK
  5
149
330
148
100
AcDbEntity
  8
0
100
AcDbBlockBegin
  2
*D10
 70
     1
 10
0.0
 20
0.0
 30
0.0
  3
*D10
  1
*D10
  0
LINE
  5
14B
330
148
100
AcDbEntity
  8
NOLAYERNAME_001
  6
CONTINUOUS
 62
     0
100
AcDbLine
 10
49.58131429570733
 20
51.89680504151349
 30
0.0
 11
7.488651275634762
 21
51.89680504151349
 31
0.0
  0
LINE
  5
14C
330
148
100
AcDbEntity
  8
NOLAYERNAME_001
  6
CONTINUOUS
 62
     0
100
AcDbLine
 10
10.23865127563477
 20
53.39680504151349
 30
0.0
 11
10.23865127563477
 21
72.73013828742403
 31
0.0
  0
INSERT
  5
14D
330
148
100
AcDbEntity
  8
NOLAYERNAME_001
 62
     0
100
AcDbBlockReference
  2
_OPEN30
 10
10.23865127563477
 20
51.89680504151349
 30
0.0
 41
1.5
 42
1.5
 43
1.5
 50
270.0
  0
MTEXT
  5
14E
330
148
100
AcDbEntity
  8
NOLAYERNAME_001
 62
     0
100
AcDbMText
 10
7.238651275634769
 20
66.3968049540907
 30
0.0
 40
4.0
 41
0.0
 71
     5
 72
     1
  1
%%c29
 11
6.125368411725002E-17
 21
1.0
 31
0.0
  0
POINT
  5
14F
330
148
100
AcDbEntity
  8
DEFPOINTS
 62
     0
100
AcDbPoint
 10
50.20631429570733
 20
51.89680504151349
 30
0.0
  0
POINT
  5
150
330
148
100
AcDbEntity
  8
DEFPOINTS
 62
     0
100
AcDbPoint
 10
50.20631429570733
 20
80.89680504151349
 30
0.0
  0
POINT
  5
151
330
148
100
AcDbEntity
  8
DEFPOINTS
 62
     0
100
AcDbPoint
 10
10.23865127563477
 20
80.89680504151349
 30
0.0
  0
ENDBLK
  5
14A
330
148
100
AcDbEntity
  8
0
100
AcDbBlockEnd
  0
BLOCK
  5
157
330
156
100
AcDbEntity
  8
0
100
AcDbBlockBegin
  2
*D11
 70
     1
 10
0.0
 20
0.0
 30
0.0
  3
*D11
  1
*D11
  0
LINE
  5
159
330
156
100
AcDbEntity
  8
NOLAYERNAME_001
  6
CONTINUOUS
 62
     0
100
AcDbLine
 10
39.18131429570735
 20
69.89680504151349
 30
0.0
 11
17.74774169921874
 21
69.89680504151349
 31
0.0
  0
LINE
  5
15A
330
156
100
AcDbEntity
  8
NOLAYERNAME_001
  6
CONTINUOUS
 62
     0
100
AcDbLine
 10
20.49774169921875
 20
68.39680504151349
 30
0.0
 11
20.49774169921875
 21
53.39680504151349
 31
0.0
  0
INSERT
  5
15B
330
156
100
AcDbEntity
  8
NOLAYERNAME_001
 62
     0
100
AcDbBlockReference
  2
_OPEN30
 10
20.49774169921875
 20
69.89680504151349
 30
0.0
 41
1.5
 42
1.5
 43
1.5
 50
90.0
  0
INSERT
  5
15C
330
156
100
AcDbEntity
  8
NOLAYERNAME_001
 62
     0
100
AcDbBlockReference
  2
_OPEN30
 10
20.49774169921875
 20
51.89680504151349
 30
0.0
 41
1.5
 42
1.5
 43
1.5
 50
270.0
  0
MTEXT
  5
15D
330
156
100
AcDbEntity
  8
NOLAYERNAME_001
 62
     0
100
AcDbMText
 10
17.49774169921875
 20
60.8968049540907
 30
0.0
 40
4.0
 41
0.0
 71
     5
 72
     1
  1
%%c18
 11
0.0
 21
1.0
 31
0.0
  0
POINT
  5
15E
330
156
100
AcDbEntity
  8
DEFPOINTS
 62
     0
100
AcDbPoint
 10
39.80631429570735
 20
69.89680504151349
 30
0.0
  0
POINT
  5
15F
330
156
100
AcDbEntity
  8
DEFPOINTS
 62
     0
100
AcDbPoint
 10
24.73288726806641
 20
51.89680504151349
 30
0.0
  0
POINT
  5
160
330
156
100
AcDbEntity
  8
DEFPOINTS
 62
     0
100
AcDbPoint
 10
20.49774169921875
 20
51.89680504151349
 30
0.0
  0
ENDBLK
  5
158
330
156
100
AcDbEntity
  8
0
100
AcDbBlockEnd
  0
BLOCK
  5
164
330
163
100
AcDbEntity
  8
0
100
AcDbBlockBegin
  2
*D12
 70
     1
 10
0.0
 20
0.0
 30
0.0
  3
*D12
  1
*D12
  0
LINE
  5
166
330
163
100
AcDbEntity
  8
NOLAYERNAME_001
  6
CONTINUOUS
 62
     0
100
AcDbLine
 10
36.68258290867573
 20
66.39680504151349
 30
0.0
 11
26.45446667721307
 21
66.39680504151349
 31
0.0
  0
LINE
  5
167
330
163
100
AcDbEntity
  8
NOLAYERNAME_001
  6
CONTINUOUS
 62
     0
100
AcDbLine
 10
36.08003673299072
 20
60.86081468820382
 30
0.0
 11
26.45446667721307
 21
60.86081468820382
 31
0.0
  0
LINE
  5
168
330
163
100
AcDbEntity
  8
NOLAYERNAME_001
  6
CONTINUOUS
 62
     0
100
AcDbLine
 10
29.20446667721308
 20
66.39680504151349
 30
0.0
 11
29.20446667721308
 21
89.38372335997961
 31
0.0
  0
LINE
  5
169
330
163
100
AcDbEntity
  8
NOLAYERNAME_001
  6
CONTINUOUS
 62
     0
100
AcDbLine
 10
29.20446667721308
 20
64.89680504151349
 30
0.0
 11
29.20446667721308
 21
62.36081468820382
 31
0.0
  0
INSERT
  5
16A
330
163
100
AcDbEntity
  8
NOLAYERNAME_001
 62
     0
100
AcDbBlockReference
  2
_OPEN30
 10
29.20446667721308
 20
66.39680504151349
 30
0.0
 41
1.5
 42
1.5
 43
1.5
 50
90.0
  0
INSERT
  5
16B
330
163
100
AcDbEntity
  8
NOLAYERNAME_001
 62
     0
100
AcDbBlockReference
  2
_OPEN30
 10
29.20446667721308
 20
60.86081468820382
 30
0.0
 41
1.5
 42
1.5
 43
1.5
 50
270.0
  0
MTEXT
  5
16C
330
163
100
AcDbEntity
  8
NOLAYERNAME_001
 62
     0
100
AcDbMText
 10
26.20446667721308
 20
82.19324716950342
 30
0.0
 40
4.0
 41
0.0
 71
     5
 72
     1
  1
5.54
 11
0.0
 21
1.0
 31
0.0
  0
POINT
  5
16D
330
163
100
AcDbEntity
  8
DEFPOINTS
 62
     0
100
AcDbPoint
 10
37.30758290867573
 20
66.39680504151349
 30
0.0
  0
POINT
  5
16E
330
163
100
AcDbEntity
  8
DEFPOINTS
 62
     0
100
AcDbPoint
 10
36.70503673299072
 20
60.86081468820382
 30
0.0
  0
POINT
  5
16F
330
163
100
AcDbEntity
  8
DEFPOINTS
 62
     0
100
AcDbPoint
 10
29.20446667721308
 20
60.86081468820382
 30
0.0
  0
ENDBLK
  5
165
330
163
100
AcDbEntity
  8
0
100
AcDbBlockEnd
  0
BLOCK
  5
173
330
172
100
AcDbEntity
  8
0
100
AcDbBlockBegin
  2
*D13
 70
     1
 10
0.0
 20
0.0
 30
0.0
  3
*D13
  1
*D13
  0
LINE
  5
175
330
172
100
AcDbEntity
  8
NOLAYERNAME_001
  6
CONTINUOUS
 62
     0
100
AcDbLine
 10
195.4313142957074
 20
50.39680504151349
 30
0.0
 11
213.5636722957678
 21
50.39680504151349
 31
0.0
  0
LINE
  5
176
330
172
100
AcDbEntity
  8
NOLAYERNAME_001
  6
CONTINUOUS
 62
     0
100
AcDbLine
 10
195.4313142957074
 20
82.39680504151349
 30
0.0
 11
213.5636722957678
 21
82.39680504151349
 31
0.0
  0
LINE
  5
177
330
172
100
AcDbEntity
  8
NOLAYERNAME_001
  6
CONTINUOUS
 62
     0
100
AcDbLine
 10
210.8136722957678
 20
51.89680504151349
 30
0.0
 11
210.8136722957678
 21
80.89680504151349
 31
0.0
  0
INSERT
  5
178
330
172
100
AcDbEntity
  8
NOLAYERNAME_001
 62
     0
100
AcDbBlockReference
  2
_OPEN30
 10
210.8136722957678
 20
50.39680504151349
 30
0.0
 41
1.5
 42
1.5
 43
1.5
 50
270.0
  0
INSERT
  5
179
330
172
100
AcDbEntity
  8
NOLAYERNAME_001
 62
     0
100
AcDbBlockReference
  2
_OPEN30
 10
210.8136722957678
 20
82.39680504151349
 30
0.0
 41
1.5
 42
1.5
 43
1.5
 50
90.0
  0
MTEXT
  5
17A
330
172
100
AcDbEntity
  8
NOLAYERNAME_001
 62
     0
100
AcDbMText
 10
207.8136722957678
 20
66.3968049540907
 30
0.0
 40
4.0
 41
0.0
 71
     5
 72
     1
  1
%%c32
 11
0.0
 21
1.0
 31
0.0
  0
POINT
  5
17B
330
172
100
AcDbEntity
  8
DEFPOINTS
 62
     0
100
AcDbPoint
 10
194.8063142957074
 20
50.39680504151349
 30
0.0
  0
POINT
  5
17C
330
172
100
AcDbEntity
  8
DEFPOINTS
 62
     0
100
AcDbPoint
 10
194.8063142957074
 20
82.39680504151349
 30
0.0
  0
POINT
  5
17D
330
172
100
AcDbEntity
  8
DEFPOINTS
 62
     0
100
AcDbPoint
 10
210.8136722957678
 20
82.39680504151349
 30
0.0
  0
ENDBLK
  5
174
330
172
100
AcDbEntity
  8
0
100
AcDbBlockEnd
  0
ENDSEC
  0
SECTION
  2
ENTITIES
  0
LINE
  5
77
330
1F
100
AcDbEntity
  8
NOLAYERNAME_001
  6
CENTER
 62
     7
100
AcDbLine
 10
237.2303194934266
 20
84.2319259257516
 30
0.0
 11
237.2303194934266
 21
47.83383300963811
 31
0.0
  0
LINE
  5
78
330
1F
100
AcDbEntity
  8
NOLAYERNAME_001
  6
CENTER
 62
     7
100
AcDbLine
 10
218.9091317839735
 20
66.39680504151349
 30
0.0
 11
256.5286372140505
 21
66.39680504151349
 31
0.0
  0
LINE
  5
79
330
1F
100
AcDbEntity
  8
NOLAYERNAME_001
  6
CONTINUOUS
 62
     7
100
AcDbLine
 10
222.2303194934266
 20
60.82904067868353
 30
0.0
 11
222.2303194934266
 21
71.96456940434356
 31
0.0
  0
ARC
  5
7A
330
1F
100
AcDbEntity
  8
NOLAYERNAME_001
  6
CONTINUOUS
 62
     7
100
AcDbCircle
 10
237.2303194934266
 20
66.39680504151349
 30
0.0
 40
16.0
100
AcDbArc
 50
200.3641348063178
 51
159.6358651936822
  0
LINE
  5
7B
330
1F
100
AcDbEntity
  8
NOLAYERNAME_001
  6
PHANTOM
 62
     7
100
AcDbLine
 10
160.3063142957074
 20
89.76434167454673
 30
0.0
 11
160.3063142957074
 21
39.81257684548731
 31
0.0
  0
LINE
  5
7C
330
1F
100
AcDbEntity
  8
NOLAYERNAME_001
  6
CONTINUOUS
 62
     7
100
AcDbLine
 10
50.80631429570735
 20
52.49680504151348
 30
0.0
 11
50.80631429570735
 21
61.4168667004932
 31
0.0
  0
ARC
  5
7D
330
1F
100
AcDbEntity
  8
NOLAYERNAME_001
  6
CONTINUOUS
 62
     7
100
AcDbCircle
 10
50.20631429570733
 20
52.49680504151348
 30
0.0
 40
0.5999999999999982
100
AcDbArc
 50
240.0000000000001
 51
0.0
  0
LINE
  5
7E
330
1F
100
AcDbEntity
  8
NOLAYERNAME_001
  6
CONTINUOUS
 62
     7
100
AcDbLine
 10
42.18131429570735
 20
56.43722062873263
 30
0.0
 11
49.90631429570735
 21
51.97718979924278
 31
0.0
  0
ARC
  5
7F
330
1F
100
AcDbEntity
  8
NOLAYERNAME_001
  6
CONTINUOUS
 62
     7
100
AcDbCircle
 10
50.20631429570739
 20
61.41686670049319
 30
0.0
 40
0.5999999999999982
100
AcDbArc
 50
0.0
 51
120.0000000000011
  0
CIRCLE
  5
80
330
1F
100
AcDbEntity
  8
NOLAYERNAME_001
  6
CONTINUOUS
 62
     7
100
AcDbCircle
 10
47.63131429570734
 20
56.95683587100331
 30
0.0
 40
1.9
  0
ARC
  5
81
330
1F
100
AcDbEntity
  8
NOLAYERNAME_001
  6
CONTINUOUS
 62
     7
100
AcDbCircle
 10
42.48131429570736
 20
56.95683587100331
 30
0.0
 40
0.5999999999999982
100
AcDbArc
 50
119.9999999999999
 51
240.0000000000001
  0
LINE
  5
82
330
1F
100
AcDbEntity
  8
NOLAYERNAME_001
  6
CONTINUOUS
 62
     7
100
AcDbLine
 10
49.90631429570732
 20
61.93648194276381
 30
0.0
 11
42.18131429570732
 21
57.47645111327395
 31
0.0
  0
LINE
  5
83
330
1F
100
AcDbEntity
  8
NOLAYERNAME_001
  6
CONTINUOUS
 62
     7
100
AcDbLine
 10
125.3063142957074
 20
50.39680504151349
 30
0.0
 11
194.8063142957074
 21
50.39680504151349
 31
0.0
  0
LINE
  5
84
330
1F
100
AcDbEntity
  8
NOLAYERNAME_001
  6
CONTINUOUS
 62
     7
100
AcDbLine
 10
194.8063142957074
 20
82.39680504151349
 30
0.0
 11
125.3063142957074
 21
82.39680504151349
 31
0.0
  0
LINE
  5
85
330
1F
100
AcDbEntity
  8
NOLAYERNAME_001
  6
CONTINUOUS
 62
     7
100
AcDbLine
 10
125.3063142957074
 20
50.39680504151349
 30
0.0
 11
125.3063142957074
 21
82.39680504151349
 31
0.0
  0
LINE
  5
86
330
1F
100
AcDbEntity
  8
NOLAYERNAME_001
  6
CONTINUOUS
 62
     7
100
AcDbLine
 10
125.3063142957074
 20
82.39680504151349
 30
0.0
 11
117.8063142957074
 21
74.8968050415135
 31
0.0
  0
LINE
  5
87
330
1F
100
AcDbEntity
  8
NOLAYERNAME_001
  6
CONTINUOUS
 62
     7
100
AcDbLine
 10
117.8063142957074
 20
57.89680504151349
 30
0.0
 11
125.3063142957074
 21
50.3968050415135
 31
0.0
  0
ARC
  5
88
330
1F
100
AcDbEntity
  8
NOLAYERNAME_001
  6
CONTINUOUS
 62
     7
100
AcDbCircle
 10
194.8063142957074
 20
79.39680504151349
 30
0.0
 40
2.999999999999998
100
AcDbArc
 50
0.0
 51
90.0
  0
ARC
  5
89
330
1F
100
AcDbEntity
  8
NOLAYERNAME_001
  6
CONTINUOUS
 62
     7
100
AcDbCircle
 10
194.8063142957074
 20
53.39680504151349
 30
0.0
 40
2.999999999999998
100
AcDbArc
 50
270.0
 51
0.0
  0
LINE
  5
8A
330
1F
100
AcDbEntity
  8
NOLAYERNAME_001
  6
CONTINUOUS
 62
     7
100
AcDbLine
 10
197.8063142957074
 20
79.39680504151349
 30
0.0
 11
197.8063142957074
 21
53.39680504151349
 31
0.0
  0
ELLIPSE
  5
8B
330
1F
100
AcDbEntity
  8
NOLAYERNAME_001
  6
CONTINUOUS
 62
     7
100
AcDbEllipse
 10
51.04669436653359
 20
66.3968050415135
 30
0.0
 11
0.0
 21
8.500000000000014
 31
0.0
210
0.0
220
0.0
230
1.0
 40
0.1227845609029052
 41
2.919175132953879
 42
3.141592653589792
  0
LINE
  5
8C
330
1F
100
AcDbEntity
  8
NOLAYERNAME_001
  6
CONTINUOUS
 62
     7
100
AcDbLine
 10
51.04669436653359
 20
57.89680504151349
 30
0.0
 11
117.8063142957074
 21
57.89680504151349
 31
0.0
  0
LINE
  5
8D
330
1F
100
AcDbEntity
  8
NOLAYERNAME_001
  6
CONTINUOUS
 62
     7
100
AcDbLine
 10
50.80631429570735
 20
58.10618534211832
 30
0.0
 11
50.81647331484062
 21
58.10618534211832
 31
0.0
  0
ELLIPSE
  5
8E
330
1F
100
AcDbEntity
  8
NOLAYERNAME_001
  6
CONTINUOUS
 62
     7
100
AcDbEllipse
 10
51.04669436653359
 20
66.3968050415135
 30
0.0
 11
0.0
 21
8.500000000000014
 31
0.0
210
0.0
220
0.0
230
1.0
 40
0.1227845609029052
 41
3.141592653589792
 42
3.271368386544976
  0
LINE
  5
8F
330
1F
100
AcDbEntity
  8
NOLAYERNAME_001
  6
CONTINUOUS
 62
     7
100
AcDbLine
 10
53.80631429570735
 20
57.9682820392313
 30
0.0
 11
51.18175738352677
 21
57.9682820392313
 31
0.0
  0
LINE
  5
90
330
1F
100
AcDbEntity
  8
NOLAYERNAME_001
  6
CONTINUOUS
 62
     7
100
AcDbLine
 10
53.80631429570735
 20
60.89680504151349
 30
0.0
 11
53.80631429570735
 21
57.96828203923128
 31
0.0
  0
LINE
  5
91
330
1F
100
AcDbEntity
  8
NOLAYERNAME_001
  6
CONTINUOUS
 62
     7
100
AcDbLine
 10
112.8063142957074
 20
63.62880986485865
 30
0.0
 11
52.72798327853531
 21
63.62880986485865
 31
0.0
  0
SPLINE
  5
92
330
1F
100
AcDbEntity
  8
NOLAYERNAME_001
  6
CONTINUOUS
 62
     7
100
AcDbSpline
210
0.0
220
0.0
230
1.0
 70
  1064
 71
     3
 72
    28
 73
    24
 74
    22
 42
0.000000001
 43
0.0000000001
 44
0.0
 12
0.9980071144642602
 22
0.06310150139831038
 32
0.0
 13
0.008673373288947539
 23
0.9999623855904735
 33
0.0
 40
0.0
 40
0.0
 40
0.0
 40
0.0
 40
0.4029410086980904
 40
0.8069799201967188
 40
1.208449492790206
 40
1.605765533060423
 40
2.003501696626401
 40
2.399947301736121
 40
2.945837703548333
 40
3.49512274733207
 40
4.04495860008103
 40
4.761302187458091
 40
5.480625551900088
 40
6.194887808930782
 40
6.912358729833362
 40
7.618476595307049
 40
8.304558612531654
 40
9.064610885024228
 40
9.787546568144709
 40
10.46229166406467
 40
11.11594472813697
 40
11.70533004382763
 40
12.22090707094658
 40
12.22090707094658
 40
12.22090707094658
 40
12.22090707094658
 10
112.8063142957074
 20
63.62880986485865
 30
0.0
 10
112.9403602935041
 20
63.63728525906659
 30
0.0
 10
113.2100113921381
 20
63.64228219985859
 30
0.0
 10
113.606651955548
 20
63.72160453921379
 30
0.0
 10
113.9902894398525
 20
63.84023098971899
 30
0.0
 10
114.3549483450399
 20
64.00418685991679
 30
0.0
 10
114.6985653611152
 20
64.20465864030963
 30
0.0
 10
115.0604664772554
 20
64.46769700393155
 30
0.0
 10
115.4281408725275
 20
64.80433268401313
 30
0.0
 10
115.7891494984547
 20
65.2183638892808
 30
0.0
 10
116.140656408706
 20
65.71199951121092
 30
0.0
 10
116.4697481659682
 20
66.2876031960348
 30
0.0
 10
116.7674550368554
 20
66.94036078338351
 30
0.0
 10
117.0147475681207
 20
67.6140018797756
 30
0.0
 10
117.217196128526
 20
68.29768242895904
 30
0.0
 10
117.3803306828891
 20
68.98201790276288
 30
0.0
 10
117.5147811994461
 20
69.68693085868298
 30
0.0
 10
117.620955886909
 20
70.40232253991375
 30
0.0
 10
117.6999226058337
 20
71.11735668644889
 30
0.0
 10
117.7536663093443
 20
71.79911898977196
 30
0.0
 10
117.78644044519
 20
72.43759360228503
 30
0.0
 10
117.804017628032
 20
73.0236062098563
 30
0.0
 10
117.8048236983689
 20
73.39194573055431
 30
0.0
 10
117.8063142957074
 20
73.56379827521882
 30
0.0
 11
112.8063142957074
 21
63.62880986485865
 31
0.0
 11
113.2084522890975
 21
63.65423604748246
 31
0.0
 11
113.6056154560958
 21
63.72845774771136
 31
0.0
 11
113.9887526977707
 21
63.84838969408156
 31
0.0
 11
114.3515690032108
 21
64.01032907892295
 31
0.0
 11
114.6952863919964
 21
64.21046006716462
 31
0.0
 11
115.0161764916034
 21
64.44326612762057
 31
0.0
 11
115.4199474958067
 21
64.81064237475063
 31
0.0
 11
115.7819358377241
 21
65.22377491963228
 31
0.0
 11
116.101762898261
 21
65.67102218493024
 31
0.0
 11
116.4595056155851
 21
66.29164145902492
 31
0.0
 11
116.75967051521
 21
66.94534409452926
 31
0.0
 11
117.0071572680444
 21
67.61535967568396
 31
0.0
 11
117.2119902282707
 21
68.30297001646261
 31
0.0
 11
117.376558990375
 21
68.9896428370115
 31
0.0
 11
117.5057595262
 21
69.66344974993353
 31
0.0
 11
117.6179610254661
 21
70.41517462013776
 31
0.0
 11
117.6977982262698
 21
71.13368838012897
 31
0.0
 11
117.7510967116988
 21
71.80632514385736
 31
0.0
 11
117.7851001374524
 21
72.45909316942857
 31
0.0
 11
117.8018425036919
 21
73.0482406412253
 31
0.0
 11
117.8063142957074
 21
73.56379827521882
 31
0.0
  0
ARC
  5
93
330
1F
100
AcDbEntity
  8
NOLAYERNAME_001
  6
CONTINUOUS
 62
     7
100
AcDbCircle
 10
112.8063142957074
 20
74.36081468820382
 30
0.0
 40
5.0
100
AcDbArc
 50
270.0
 51
0.0
  0
LINE
  5
94
330
1F
100
AcDbEntity
  8
NOLAYERNAME_001
  6
CONTINUOUS
 62
     7
100
AcDbLine
 10
112.8063142957074
 20
69.36081468820382
 30
0.0
 11
39.80631429570735
 21
69.36081468820382
 31
0.0
  0
LINE
  5
95
330
1F
100
AcDbEntity
  8
NOLAYERNAME_001
  6
CONTINUOUS
 62
     7
100
AcDbLine
 10
49.80631429570735
 20
64.89680504151349
 30
0.0
 11
39.80631429570734
 21
64.89680504151349
 31
0.0
  0
LINE
  5
96
330
1F
100
AcDbEntity
  8
NOLAYERNAME_001
  6
CONTINUOUS
 62
     7
100
AcDbLine
 10
50.81647331484061
 20
58.10618534211832
 30
0.0
 11
50.81647331484061
 21
59.77010182883541
 31
0.0
  0
LINE
  5
97
330
1F
100
AcDbEntity
  8
NOLAYERNAME_001
  6
CONTINUOUS
 62
     7
100
AcDbLine
 10
51.18175738352676
 20
57.9682820392313
 30
0.0
 11
51.18175738352676
 21
59.90101856146102
 31
0.0
  0
ARC
  5
98
330
1F
100
AcDbEntity
  8
NOLAYERNAME_001
  6
CONTINUOUS
 62
     7
100
AcDbCircle
 10
50.41233441322765
 20
61.41440382378954
 30
0.0
 40
1.75
100
AcDbArc
 50
283.3522145719231
 51
296.0828448817255
  0
ARC
  5
99
330
1F
100
AcDbEntity
  8
NOLAYERNAME_001
  6
CONTINUOUS
 62
     7
100
AcDbCircle
 10
50.41233441322765
 20
61.41440382378954
 30
0.0
 40
1.75
100
AcDbArc
 50
296.0828448817255
 51
186.237971325021
  0
ARC
  5
9A
330
1F
100
AcDbEntity
  8
NOLAYERNAME_001
  6
CONTINUOUS
 62
     7
100
AcDbCircle
 10
42.78131429570732
 20
56.95683587100331
 30
0.0
 40
1.75
100
AcDbArc
 50
55.37693352515184
 51
304.6230664748476
  0
LINE
  5
9B
330
1F
100
AcDbEntity
  8
NOLAYERNAME_001
  6
CONTINUOUS
 62
     7
100
AcDbLine
 10
39.80631429570735
 20
52.39680504151349
 30
0.0
 11
39.80631429570735
 21
69.3608146882038
 31
0.0
  0
ARC
  5
9C
330
1F
100
AcDbEntity
  8
NOLAYERNAME_001
  6
CONTINUOUS
 62
     7
100
AcDbCircle
 10
47.63131429570734
 20
57.91683587100334
 30
0.0
 40
0.24
100
AcDbArc
 50
15.49770896877726
 51
164.5022910312227
  0
ARC
  5
9D
330
1F
100
AcDbEntity
  8
NOLAYERNAME_001
  6
CONTINUOUS
 62
     7
100
AcDbCircle
 10
46.97141586100008
 20
58.09981348775148
 30
0.0
 40
0.4447968694145122
100
AcDbArc
 50
255.4977089687773
 51
344.5022910312226
  0
ARC
  5
9E
330
1F
100
AcDbEntity
  8
NOLAYERNAME_001
  6
CONTINUOUS
 62
     7
100
AcDbCircle
 10
46.79992990807426
 20
57.43683587100332
 30
0.0
 40
0.24
100
AcDbArc
 50
75.49770896877726
 51
224.5022910312227
  0
ARC
  5
9F
330
1F
100
AcDbEntity
  8
NOLAYERNAME_001
  6
CONTINUOUS
 62
     7
100
AcDbCircle
 10
46.31151742629282
 20
56.95683587100331
 30
0.0
 40
0.4447968694145122
100
AcDbArc
 50
315.4977089687773
 51
44.50229103122272
  0
ARC
  5
A0
330
1F
100
AcDbEntity
  8
NOLAYERNAME_001
  6
CONTINUOUS
 62
     7
100
AcDbCircle
 10
46.79992990807426
 20
56.47683587100329
 30
0.0
 40
0.24
100
AcDbArc
 50
135.4977089687772
 51
284.5022910312226
  0
ARC
  5
A1
330
1F
100
AcDbEntity
  8
NOLAYERNAME_001
  6
CONTINUOUS
 62
     7
100
AcDbCircle
 10
46.97141586100008
 20
55.81385825425519
 30
0.0
 40
0.4447968694145122
100
AcDbArc
 50
15.49770896877726
 51
104.5022910312227
  0
ARC
  5
A2
330
1F
100
AcDbEntity
  8
NOLAYERNAME_001
  6
CONTINUOUS
 62
     7
100
AcDbCircle
 10
47.63131429570734
 20
55.99683587100333
 30
0.0
 40
0.24
100
AcDbArc
 50
195.4977089687773
 51
344.5022910312226
  0
ARC
  5
A3
330
1F
100
AcDbEntity
  8
NOLAYERNAME_001
  6
CONTINUOUS
 62
     7
100
AcDbCircle
 10
48.2912127304146
 20
55.81385825425519
 30
0.0
 40
0.4447968694145122
100
AcDbArc
 50
75.49770896877726
 51
164.5022910312227
  0
ARC
  5
A4
330
1F
100
AcDbEntity
  8
NOLAYERNAME_001
  6
CONTINUOUS
 62
     7
100
AcDbCircle
 10
48.46269868334042
 20
56.47683587100329
 30
0.0
 40
0.24
100
AcDbArc
 50
255.4977089687772
 51
44.50229103122267
  0
ARC
  5
A5
330
1F
100
AcDbEntity
  8
NOLAYERNAME_001
  6
CONTINUOUS
 62
     7
100
AcDbCircle
 10
48.95111116512186
 20
56.95683587100331
 30
0.0
 40
0.4447968694145122
100
AcDbArc
 50
135.4977089687772
 51
224.5022910312227
  0
ARC
  5
A6
330
1F
100
AcDbEntity
  8
NOLAYERNAME_001
  6
CONTINUOUS
 62
     7
100
AcDbCircle
 10
48.46269868334042
 20
57.43683587100332
 30
0.0
 40
0.24
100
AcDbArc
 50
315.4977089687772
 51
104.5022910312227
  0
ARC
  5
A7
330
1F
100
AcDbEntity
  8
NOLAYERNAME_001
  6
CONTINUOUS
 62
     7
100
AcDbCircle
 10
48.2912127304146
 20
58.09981348775148
 30
0.0
 40
0.4447968694145122
100
AcDbArc
 50
195.4977089687773
 51
284.5022910312226
  0
CIRCLE
  5
A8
330
1F
100
AcDbEntity
  8
NOLAYERNAME_001
  6
CONTINUOUS
 62
     7
100
AcDbCircle
 10
47.63131429570734
 20
56.95683587100331
 30
0.0
 40
1.55
  0
LINE
  5
A9
330
1F
100
AcDbEntity
  8
NOLAYERNAME_001
  6
CONTINUOUS
 62
     7
100
AcDbLine
 10
39.80631429570735
 20
66.39680504151349
 30
0.0
 11
37.20823808435404
 21
64.89680504151349
 31
0.0
  0
LINE
  5
AA
330
1F
100
AcDbEntity
  8
NOLAYERNAME_001
  6
CONTINUOUS
 62
     7
100
AcDbLine
 10
39.80631429570735
 20
66.39680504151349
 30
0.0
 11
37.20823808435404
 21
67.89680504151349
 31
0.0
  0
LINE
  5
AB
330
1F
100
AcDbEntity
  8
NOLAYERNAME_001
  6
CONTINUOUS
 62
     7
100
AcDbLine
 10
39.80631429570735
 20
60.86081468820382
 30
0.0
 11
37.20823808435404
 21
59.36081468820382
 31
0.0
  0
LINE
  5
AC
330
1F
100
AcDbEntity
  8
NOLAYERNAME_001
  6
CONTINUOUS
 62
     7
100
AcDbLine
 10
39.80631429570735
 20
60.86081468820382
 30
0.0
 11
37.20823808435404
 21
62.36081468820382
 31
0.0
  0
LINE
  5
AD
330
1F
100
AcDbEntity
  8
NOLAYERNAME_001
  6
CENTER
 62
     7
100
AcDbLine
 10
36.70503673299072
 20
60.86081468820382
 30
0.0
 11
55.22329114431508
 21
60.86081468820382
 31
0.0
  0
ARC
  5
AE
330
1F
100
AcDbEntity
  8
NOLAYERNAME_001
  6
CONTINUOUS
 62
     7
100
AcDbCircle
 10
49.80631429570735
 20
60.89680504151349
 30
0.0
 40
4.0
100
AcDbArc
 50
0.0
 51
90.0
  0
LINE
  5
AF
330
1F
100
AcDbEntity
  8
NOLAYERNAME_001
  6
CONTINUOUS
 62
     7
100
AcDbLine
 10
117.8063142957074
 20
57.89680504151349
 30
0.0
 11
117.8063142957074
 21
74.89680504151352
 31
0.0
  0
LINE
  5
B0
330
1F
100
AcDbEntity
  8
NOLAYERNAME_001
  6
CONTINUOUS
 62
     7
100
AcDbLine
 10
197.8063142957074
 20
66.39680504151349
 30
0.0
 11
200.4043905070607
 21
64.89680504151349
 31
0.0
  0
LINE
  5
B1
330
1F
100
AcDbEntity
  8
NOLAYERNAME_001
  6
CONTINUOUS
 62
     7
100
AcDbLine
 10
197.8063142957074
 20
66.39680504151349
 30
0.0
 11
200.4043905070607
 21
67.89680504151349
 31
0.0
  0
LINE
  5
B2
330
1F
100
AcDbEntity
  8
NOLAYERNAME_001
  6
CENTER
 62
     7
100
AcDbLine
 10
37.30758290867573
 20
66.39680504151349
 30
0.0
 11
200.5494304981064
 21
66.39680504151349
 31
0.0
  0
LINE
  5
B3
330
1F
100
AcDbEntity
  8
NOLAYERNAME_001
  6
CONTINUOUS
 62
     7
100
AcDbLine
 10
132.8063142957074
 20
71.96456940434356
 30
0.0
 11
187.8063142957074
 21
71.96456940434356
 31
0.0
  0
LINE
  5
B4
330
1F
100
AcDbEntity
  8
NOLAYERNAME_001
  6
CONTINUOUS
 62
     7
100
AcDbLine
 10
132.8063142957074
 20
60.82904067868353
 30
0.0
 11
187.8063142957074
 21
60.82904067868353
 31
0.0
  0
LINE
  5
B5
330
1F
100
AcDbEntity
  8
NOLAYERNAME_001
  6
CONTINUOUS
 62
     7
100
AcDbLine
 10
187.8063142957074
 20
60.82904067868353
 30
0.0
 11
187.8063142957074
 21
71.96456940434356
 31
0.0
  0
LINE
  5
B6
330
1F
100
AcDbEntity
  8
NOLAYERNAME_001
  6
CONTINUOUS
 62
     7
100
AcDbLine
 10
132.8063142957074
 20
71.96456940434356
 30
0.0
 11
132.8063142957074
 21
60.82904067868353
 31
0.0
  0
LINE
  5
B7
330
1F
100
AcDbEntity
  8
NOLAYERNAME_001
  6
CONTINUOUS
 62
     7
100
AcDbLine
 10
132.8063142957074
 20
71.96456940434356
 30
0.0
 11
187.8063142957074
 21
60.82904067868353
 31
0.0
  0
LINE
  5
B8
330
1F
100
AcDbEntity
  8
NOLAYERNAME_001
  6
CONTINUOUS
 62
     7
100
AcDbLine
 10
187.8063142957074
 20
71.96456940434356
 30
0.0
 11
132.8063142957074
 21
60.82904067868353
 31
0.0
  0
LINE
  5
B9
330
1F
100
AcDbEntity
  8
NOLAYERNAME_001
  6
PHANTOM
 62
     7
100
AcDbLine
 10
112.8063142957074
 20
48.87291668154867
 30
0.0
 11
112.8063142957074
 21
76.47569759990574
 31
0.0
  0
LINE
  5
BA
330
1F
100
AcDbEntity
  8
NOLAYERNAME_001
  6
CONTINUOUS
 62
     7
100
AcDbLine
 10
39.80631429570735
 20
52.39680504151349
 30
0.0
 11
49.11718225594944
 21
52.39680504151349
 31
0.0
  0
LINE
  5
BB
330
1F
100
AcDbEntity
  8
NOLAYERNAME_001
  6
CONTINUOUS
 62
     7
100
AcDbLine
 10
49.04221703949305
 20
52.44008622941445
 30
0.0
 11
39.80631429570735
 21
52.44008622941445
 31
0.0
  0
LINE
  5
C3
330
1F
100
AcDbEntity
  8
NOLAYERNAME_001
  6
PHANTOM
 62
     7
100
AcDbLine
 10
39.80631429570735
 20
69.89680504151349
 30
0.0
 11
50.80631429570735
 21
69.89680504151349
 31
0.0
  0
DIMENSION
  5
C5
330
1F
100
AcDbEntity
  8
NOLAYERNAME_001
  6
CONTINUOUS
 62
     7
100
AcDbDimension
  2
*D2
 10
222.2303194934266
 20
41.99159866172241
 30
0.0
 11
237.7303194934266
 21
41.99159866172241
 31
0.0
 70
   160
  3
STANDARD
100
AcDbAlignedDimension
 13
253.2303194934266
 23
66.39680504151349
 33
0.0
 14
222.2303194934266
 24
60.82904067868353
 34
0.0
 50
180.0
100
AcDbRotatedDimension
1001
ACAD
1000
DSTYLE
1002
{
1070
     5
1000
OPEN30
1070
   347
1005
16
1070
   372
1070
    25
1070
   346
1005
16
1070
   371
1070
    25
1070
   345
1005
16
1070
   178
1070
     0
1070
   177
1070
     0
1070
   176
1070
     0
1070
    47
1040
0.0
1070
    48
1040
0.0
1070
    78
1070
     8
1070
   271
1070
     1
1070
    41
1040
1.5
1070
    44
1040
2.750000000000007
1070
   147
1040
1.0
1070
   140
1040
4.0
1002
}
  0
LWPOLYLINE
  5
D9
330
1F
100
AcDbEntity
  8
NOLAYERNAME_001
  6
CONTINUOUS
 62
     7
100
AcDbPolyline
 90
        2
 70
     0
 43
0.992
 10
160.3063143436736
 20
44.48661367197725
 10
160.3063143436736
 20
39.91861367197725
  0
LWPOLYLINE
  5
DA
330
1F
100
AcDbEntity
  8
NOLAYERNAME_001
  6
CONTINUOUS
 62
     7
100
AcDbPolyline
 90
        2
 70
     0
 43
0.992
 10
160.3063143436736
 20
86.28532360899885
 10
160.3063143436736
 20
90.85332360899886
  0
LEADER
  5
DB
330
1F
100
AcDbEntity
  8
NOLAYERNAME_001
  6
CONTINUOUS
 62
     7
100
AcDbLeader
  3
STANDARD
 76
     2
 10
160.8023143436736
 20
42.20261367789199
 30
0.0
 10
166.8023143436736
 20
42.20261374944127
 30
0.0
1001
ACAD
1000
DSTYLE
1002
{
1070
     5
1000
OPEN30
1070
    41
1040
2.992
1070
   341
1005
C7
1002
}
  0
MTEXT
  5
DC
330
1F
100
AcDbEntity
  8
NOLAYERNAME_001
  6
CONTINUOUS
 62
     7
100
AcDbMText
 10
167.9063142957074
 20
39.00261344017915
 30
0.0
 40
8.0
 41
0.0
 71
     7
 72
     5
  1
\W0.8333;Ａ
1001
ACAD
1000
MTEXTBEGIN
1070
    44
1040
0.6
1000
MTEXTEND
1000
ACAD_MTEXT_DEFINED_HEIGHT_BEGIN
1070
    46
1040
8.0
1000
ACAD_MTEXT_DEFINED_HEIGHT_END
  0
LEADER
  5
DD
330
1F
100
AcDbEntity
  8
NOLAYERNAME_001
  6
CONTINUOUS
 62
     7
100
AcDbLeader
  3
STANDARD
 76
     2
 10
160.8023143436736
 20
88.5693236149136
 30
0.0
 10
166.8023143436736
 20
88.56932368646288
 30
0.0
1001
ACAD
1000
DSTYLE
1002
{
1070
     5
1000
OPEN30
1070
    41
1040
2.992
1070
   341
1005
C7
1002
}
  0
MTEXT
  5
DE
330
1F
100
AcDbEntity
  8
NOLAYERNAME_001
  6
CONTINUOUS
 62
     7
100
AcDbMText
 10
167.9063142957074
 20
85.36932337720074
 30
0.0
 40
8.0
 41
0.0
 71
     7
 72
     5
  1
\W0.8333;Ａ
1001
ACAD
1000
MTEXTBEGIN
1070
    44
1040
0.6
1000
MTEXTEND
1000
ACAD_MTEXT_DEFINED_HEIGHT_BEGIN
1070
    46
1040
8.0
1000
ACAD_MTEXT_DEFINED_HEIGHT_END
  0
DIMENSION
  5
DF
330
1F
100
AcDbEntity
  8
NOLAYERNAME_001
  6
CONTINUOUS
 62
     7
100
AcDbDimension
  2
*D3
 10
50.80631429570735
 20
52.65519848268497
 30
0.0
 11
56.19618990036938
 21
46.64179715271423
 31
0.0
 70
   162
  1
０°
  3
STANDARD
100
AcDb2LineAngularDimension
 13
50.80631429570735
 23
51.95519848268495
 33
0.0
 14
50.80369660087656
 24
52.05516421518251
 34
0.0
 15
50.80631429570735
 25
52.55519848268497
 35
0.0
 16
50.87236154110317
 26
44.38693378802469
 36
0.0
1001
ACAD
1000
DSTYLE
1002
{
1070
     5
1000
OPEN30
1070
   347
1005
16
1070
   372
1070
    25
1070
   346
1005
16
1070
   371
1070
    25
1070
   345
1005
16
1070
   178
1070
     0
1070
   177
1070
     0
1070
   176
1070
     0
1070
    47
1040
0.0
1070
    48
1040
0.0
1070
    79
1070
     2
1070
   179
1070
     1
1070
    41
1040
1.5
1070
    44
1040
2.749999999999989
1070
   147
1040
1.0
1070
   140
1040
4.0
1002
}
  0
DIMENSION
  5
F1
330
1F
100
AcDbEntity
  8
NOLAYERNAME_001
  6
CONTINUOUS
 62
     7
100
AcDbDimension
  2
*D4
 10
50.80631429570735
 20
38.7034670965559
 30
0.0
 11
81.80631429570735
 21
38.7034670965559
 31
0.0
 70
   160
  3
STANDARD
100
AcDbAlignedDimension
 13
112.8063142957074
 23
48.87291668154867
 33
0.0
 14
50.80631429570735
 24
52.55519848268497
 34
0.0
 50
180.0
100
AcDbRotatedDimension
1001
ACAD
1000
DSTYLE
1002
{
1070
     5
1000
OPEN30
1070
   347
1005
16
1070
   372
1070
    25
1070
   346
1005
16
1070
   371
1070
    25
1070
   345
1005
16
1070
   178
1070
     0
1070
   177
1070
     0
1070
   176
1070
     0
1070
    47
1040
0.0
1070
    48
1040
0.0
1070
    78
1070
     8
1070
   271
1070
     1
1070
    41
1040
1.5
1070
    44
1040
2.750000000000007
1070
   147
1040
1.0
1070
   140
1040
4.0
1002
}
  0
DIMENSION
  5
FF
330
1F
100
AcDbEntity
  8
NOLAYERNAME_001
  6
CONTINUOUS
 62
     7
100
AcDbDimension
  2
*D5
 10
39.80631429570735
 20
29.42803176663818
 30
0.0
 11
45.30631429570741
 21
29.42803176663818
 31
0.0
 70
   160
  3
STANDARD
100
AcDbAlignedDimension
 13
50.80631429570735
 23
52.55519848268497
 33
0.0
 14
39.80631429570735
 24
52.39680504151349
 34
0.0
 50
180.0
100
AcDbRotatedDimension
1001
ACAD
1000
DSTYLE
1002
{
1070
     5
1000
OPEN30
1070
   347
1005
16
1070
   372
1070
    25
1070
   346
1005
16
1070
   371
1070
    25
1070
   345
1005
16
1070
   178
1070
     0
1070
   177
1070
     0
1070
   176
1070
     0
1070
    47
1040
0.0
1070
    48
1040
0.0
1070
    78
1070
     8
1070
   271
1070
     1
1070
    41
1040
1.5
1070
    44
1040
2.750000000000007
1070
   147
1040
1.0
1070
   140
1040
4.0
1002
}
  0
DIMENSION
  5
10D
330
1F
100
AcDbEntity
  8
NOLAYERNAME_001
  6
CONTINUOUS
 62
     7
100
AcDbDimension
  2
*D6
 10
50.80631429570735
 20
29.42803176663819
 30
0.0
 11
84.30631429570735
 21
29.42803176663818
 31
0.0
 70
   160
  3
STANDARD
100
AcDbAlignedDimension
 13
117.8063142957074
 23
57.89680504151349
 33
0.0
 14
50.80631429570735
 24
52.55519848268497
 34
0.0
 50
180.0
100
AcDbRotatedDimension
1001
ACAD
1000
DSTYLE
1002
{
1070
     5
1000
OPEN30
1070
   347
1005
16
1070
   372
1070
    25
1070
   346
1005
16
1070
   371
1070
    25
1070
   345
1005
16
1070
   178
1070
     0
1070
   177
1070
     0
1070
   176
1070
     0
1070
    47
1040
0.0
1070
    48
1040
0.0
1070
    78
1070
     8
1070
   271
1070
     1
1070
    41
1040
1.5
1070
    44
1040
2.750000000000007
1070
   147
1040
1.0
1070
   140
1040
4.0
1002
}
  0
DIMENSION
  5
11B
330
1F
100
AcDbEntity
  8
NOLAYERNAME_001
  6
CONTINUOUS
 62
     7
100
AcDbDimension
  2
*D7
 10
39.80631429570735
 20
22.72290033749565
 30
0.0
 11
78.80631429570735
 21
22.72290033749564
 31
0.0
 70
   160
  3
STANDARD
100
AcDbAlignedDimension
 13
117.8063142957074
 23
57.89680504151349
 33
0.0
 14
39.80631429570735
 24
52.39680504151349
 34
0.0
 50
180.0
100
AcDbRotatedDimension
1001
ACAD
1000
DSTYLE
1002
{
1070
     5
1000
OPEN30
1070
   347
1005
16
1070
   372
1070
    25
1070
   346
1005
16
1070
   371
1070
    25
1070
   345
1005
16
1070
   178
1070
     0
1070
   177
1070
     0
1070
   176
1070
     0
1070
    47
1040
0.0
1070
    48
1040
0.0
1070
    78
1070
     8
1070
   271
1070
     1
1070
    41
1040
1.5
1070
    44
1040
2.750000000000007
1070
   147
1040
1.0
1070
   140
1040
4.0
1002
}
  0
DIMENSION
  5
129
330
1F
100
AcDbEntity
  8
NOLAYERNAME_001
  6
CONTINUOUS
 62
     7
100
AcDbDimension
  2
*D8
 10
117.8063142957074
 20
22.72290033749565
 30
0.0
 11
157.8063142957074
 21
22.72290033749564
 31
0.0
 70
   160
  3
STANDARD
100
AcDbAlignedDimension
 13
197.8063142957074
 23
53.39680504151349
 33
0.0
 14
117.8063142957074
 24
57.89680504151349
 34
0.0
 50
180.0
100
AcDbRotatedDimension
1001
ACAD
1000
DSTYLE
1002
{
1070
     5
1000
OPEN30
1070
   347
1005
16
1070
   372
1070
    25
1070
   346
1005
16
1070
   371
1070
    25
1070
   345
1005
16
1070
   178
1070
     0
1070
   177
1070
     0
1070
   176
1070
     0
1070
    47
1040
0.0
1070
    48
1040
0.0
1070
    78
1070
     8
1070
   271
1070
     1
1070
    41
1040
1.5
1070
    44
1040
2.750000000000007
1070
   147
1040
1.0
1070
   140
1040
4.0
1002
}
  0
DIMENSION
  5
137
330
1F
100
AcDbEntity
  8
NOLAYERNAME_001
  6
CONTINUOUS
 62
     7
100
AcDbDimension
  2
*D9
 10
39.80631429570735
 20
15.23549721373704
 30
0.0
 11
118.8063142957074
 21
15.23549721373703
 31
0.0
 70
   160
  3
STANDARD
100
AcDbAlignedDimension
 13
197.8063142957074
 23
53.39680504151349
 33
0.0
 14
39.80631429570735
 24
52.39680504151349
 34
0.0
 50
180.0
100
AcDbRotatedDimension
1001
ACAD
1000
DSTYLE
1002
{
1070
     5
1000
OPEN30
1070
   347
1005
16
1070
   372
1070
    25
1070
   346
1005
16
1070
   371
1070
    25
1070
   345
1005
16
1070
   178
1070
     0
1070
   177
1070
     0
1070
   176
1070
     0
1070
    47
1040
0.0
1070
    48
1040
0.0
1070
    78
1070
     8
1070
   271
1070
     1
1070
    41
1040
1.5
1070
    44
1040
2.750000000000007
1070
   147
1040
1.0
1070
   140
1040
4.0
1002
}
  0
MTEXT
  5
145
330
1F
100
AcDbEntity
  8
NOLAYERNAME_001
 62
     7
100
AcDbMText
 10
232.4303194219011
 20
33.811192157508
 30
0.0
 40
4.0
 41
0.0
 71
     4
 72
     5
  1
\A1;\W0.8333;\LＡ－Ａ\l
1001
ACAD
1000
ACAD_MTEXT_DEFINED_HEIGHT_BEGIN
1070
    46
1040
4.0
1000
ACAD_MTEXT_DEFINED_HEIGHT_END
  0
DIMENSION
  5
146
330
1F
100
AcDbEntity
  8
NOLAYERNAME_001
  6
CONTINUOUS
 62
     7
100
AcDbDimension
  2
*D10
 10
10.23865127563477
 20
80.89680504151349
 30
0.0
 11
10.23865127563477
 21
66.3968049540907
 31
0.0
 70
   160
  3
STANDARD
100
AcDbAlignedDimension
 13
50.20631429570733
 23
51.89680504151349
 33
0.0
 14
50.20631429570733
 24
80.89680504151349
 34
0.0
 50
90.0
100
AcDbRotatedDimension
1001
ACAD
1000
DSTYLE
1002
{
1070
     5
1000
OPEN30
1070
    76
1070
     1
1070
   282
1070
     1
1070
   347
1005
16
1070
   372
1070
    25
1070
   346
1005
16
1070
   371
1070
    25
1070
   345
1005
16
1070
   178
1070
     0
1070
   177
1070
     0
1070
   176
1070
     0
1070
     3
1000
%%c<>
1070
    47
1040
0.0
1070
    48
1040
0.0
1070
    78
1070
     8
1070
   271
1070
     1
1070
    41
1040
1.5
1070
    44
1040
2.750000000000007
1070
   147
1040
1.0
1070
   140
1040
4.0
1002
}
  0
DIMENSION
  5
154
330
1F
100
AcDbEntity
  8
NOLAYERNAME_001
  6
CONTINUOUS
 62
     7
100
AcDbDimension
  2
*D11
 10
20.49774169921875
 20
51.89680504151349
 30
0.0
 11
20.49774169921875
 21
60.8968049540907
 31
0.0
 70
   160
  3
STANDARD
100
AcDbAlignedDimension
 13
39.80631429570735
 23
69.89680504151349
 33
0.0
 14
24.73288726806641
 24
51.89680504151349
 34
0.0
 50
-90.0
100
AcDbRotatedDimension
1001
ACAD
1000
DSTYLE
1002
{
1070
     5
1000
OPEN30
1070
   347
1005
16
1070
   372
1070
    25
1070
   346
1005
16
1070
   371
1070
    25
1070
   345
1005
16
1070
   178
1070
     0
1070
   177
1070
     0
1070
   176
1070
     0
1070
     3
1000
%%c<>
1070
    47
1040
0.0
1070
    48
1040
0.0
1070
    78
1070
     8
1070
   271
1070
     1
1070
    41
1040
1.5
1070
    76
1070
     1
1070
    44
1040
2.750000000000007
1070
   147
1040
1.0
1070
   140
1040
4.0
1002
}
  0
DIMENSION
  5
161
330
1F
100
AcDbEntity
  8
NOLAYERNAME_001
  6
CONTINUOUS
 62
     7
100
AcDbDimension
  2
*D12
 10
29.20446667721308
 20
60.86081468820382
 30
0.0
 11
29.20446667721308
 21
82.19324716950342
 31
0.0
 70
   160
  3
STANDARD
100
AcDbAlignedDimension
 13
37.30758290867573
 23
66.39680504151349
 33
0.0
 14
36.70503673299072
 24
60.86081468820382
 34
0.0
 50
-90.0
100
AcDbRotatedDimension
1001
ACAD
1000
DSTYLE
1002
{
1070
     5
1000
OPEN30
1070
   347
1005
16
1070
   372
1070
    25
1070
   346
1005
16
1070
   371
1070
    25
1070
   345
1005
16
1070
   178
1070
     0
1070
   177
1070
     0
1070
   176
1070
     0
1070
    47
1040
0.0
1070
    48
1040
0.0
1070
    78
1070
     8
1070
    41
1040
1.5
1070
    44
1040
2.750000000000007
1070
   147
1040
1.0
1070
   140
1040
4.0
1002
}
  0
DIMENSION
  5
170
330
1F
100
AcDbEntity
  8
NOLAYERNAME_001
  6
CONTINUOUS
 62
     7
100
AcDbDimension
  2
*D13
 10
210.8136722957678
 20
82.39680504151349
 30
0.0
 11
210.8136722957678
 21
66.3968049540907
 31
0.0
 70
   160
  3
STANDARD
100
AcDbAlignedDimension
 13
194.8063142957074
 23
50.39680504151349
 33
0.0
 14
194.8063142957074
 24
82.39680504151349
 34
0.0
 50
90.0
100
AcDbRotatedDimension
1001
ACAD
1000
DSTYLE
1002
{
1070
     5
1000
OPEN30
1070
   347
1005
16
1070
   372
1070
    25
1070
   346
1005
16
1070
   371
1070
    25
1070
   345
1005
16
1070
   178
1070
     0
1070
   177
1070
     0
1070
   176
1070
     0
1070
     3
1000
%%c<>
1070
    47
1040
0.0
1070
    48
1040
0.0
1070
    78
1070
     8
1070
   271
1070
     1
1070
    41
1040
1.5
1070
    44
1040
2.75
1070
   147
1040
1.0
1070
   140
1040
4.0
1002
}
  0
MTEXT
  5
17E
330
1F
100
AcDbEntity
  8
NOLAYERNAME_001
 62
     7
100
AcDbMText
 10
130.1853408813477
 20
108.9328933914503
 30
0.0
 40
4.5
 41
0.0
 71
     5
 72
     5
  1
\A1;\W0.8333;ウラザグル　ＵＺＨ３２－２０Ｔ－Ｍ１８ＣＳ
1001
ACAD
1000
ACAD_MTEXT_DEFINED_HEIGHT_BEGIN
1070
    46
1040
4.5
1000
ACAD_MTEXT_DEFINED_HEIGHT_END
  0
ENDSEC
  0
SECTION
  2
OBJECTS
  0
DICTIONARY
  5
C
330
0
100
AcDbDictionary
  3
ACAD_GROUP
350
D
  3
ACAD_IMAGE_VARS
350
1CB
  3
ACAD_MLINESTYLE
350
17
  3
ACAD_SCALELIST
350
47
  3
ACDBVARIABLEDICTIONARY
350
17F
  3
APPDATA
350
1C9
  3
DWGPROPS
350
1CC
  0
DICTIONARY
  5
D
102
{ACAD_REACTORS
330
C
102
}
330
C
100
AcDbDictionary
  0
RASTERVARIABLES
  5
1CB
102
{ACAD_REACTORS
330
C
102
}
330
C
100
AcDbRasterVariables
 90
        0
 70
     1
 71
     1
 72
     1
  0
DICTIONARY
  5
17
102
{ACAD_REACTORS
330
C
102
}
330
C
100
AcDbDictionary
  3
STANDARD
350
18
  0
DICTIONARY
  5
47
102
{ACAD_REACTORS
330
C
102
}
330
C
100
AcDbDictionary
  0
DICTIONARY
  5
17F
102
{ACAD_REACTORS
330
C
102
}
330
C
100
AcDbDictionary
  3
DIMASSOC
350
186
  3
HIDETEXT
350
187
  0
DICTIONARY
  5
1C9
102
{ACAD_REACTORS
330
C
102
}
330
C
100
AcDbDictionary
  0
XRECORD
  5
1CC
102
{ACAD_REACTORS
330
C
102
}
330
C
100
AcDbXrecord
  1
DWGPROPS COOKIE
  2

  3

  4

  6
File was created by TR2_DExp
  7

  8
kaihatu03
  9

300
=
301
=
302
=
303
=
304
=
305
=
306
=
307
=
308
=
309
=
 40
0.0
 41
2455188.375
 42
2457855.22329125
  1

 90
        0
  0
MLINESTYLE
  5
18
102
{ACAD_REACTORS
330
17
102
}
330
17
100
AcDbMlineStyle
  2
Standard
 70
     0
  3

 62
   256
 51
90.0
 52
90.0
 71
     2
 49
0.5
 62
   256
  6
BYLAYER
 49
-0.5
 62
   256
  6
BYLAYER
  0
DICTIONARYVAR
  5
186
102
{ACAD_REACTORS
330
17F
102
}
330
17F
100
DictionaryVariables
280
     0
  1
2
  0
DICTIONARYVAR
  5
187
102
{ACAD_REACTORS
330
17F
102
}
330
17F
100
DictionaryVariables
280
     0
  1
1
  0
ENDSEC
  0
EOF
