  0
SECTION
  2
HEADER
  9
$ACADVER
  1
AC1015
  9
$ACADMAINTVER
 70
     6
  9
$DWGCODEPAGE
  3
ANSI_932
  9
$INSBASE
 10
0.0
 20
0.0
 30
0.0
  9
$EXTMIN
 10
17.278046
 20
1.506096
 30
0.0
  9
$EXTMAX
 10
167.278046
 20
113.784889
 30
0.0
  9
$LIMMIN
 10
0.0
 20
0.0
  9
$LIMMAX
 10
12.0
 20
9.0
  9
$ORTHOMODE
 70
     0
  9
$REGENMODE
 70
     1
  9
$FILLMODE
 70
     1
  9
$QTEXTMODE
 70
     0
  9
$MIRRTEXT
 70
     1
  9
$LTSCALE
 40
1.873674
  9
$ATTMODE
 70
     1
  9
$TEXTSIZE
 40
3.2
  9
$TRACEWID
 40
1.0
  9
$TEXTSTYLE
  7
Standard
  9
$CLAYER
  8
0
  9
$CELTYPE
  6
ByLayer
  9
$CECOLOR
 62
   256
  9
$CELTSCALE
 40
1.0
  9
$DISPSILH
 70
     0
  9
$DIMSCALE
 40
1.0
  9
$DIMASZ
 40
2.5
  9
$DIMEXO
 40
0.625
  9
$DIMDLI
 40
3.75
  9
$DIMRND
 40
0.0
  9
$DIMDLE
 40
0.0
  9
$DIMEXE
 40
1.25
  9
$DIMTP
 40
0.0
  9
$DIMTM
 40
0.0
  9
$DIMTXT
 40
2.5
  9
$DIMCEN
 40
0.09
  9
$DIMTSZ
 40
0.0
  9
$DIMTOL
 70
     0
  9
$DIMLIM
 70
     0
  9
$DIMTIH
 70
     0
  9
$DIMTOH
 70
     0
  9
$DIMSE1
 70
     0
  9
$DIMSE2
 70
     0
  9
$DIMTAD
 70
     0
  9
$DIMZIN
 70
     8
  9
$DIMBLK
  1

  9
$DIMASO
 70
     1
  9
$DIMSHO
 70
     0
  9
$DIMPOST
  1

  9
$DIMAPOST
  1

  9
$DIMALT
 70
     0
  9
$DIMALTD
 70
     3
  9
$DIMALTF
 40
0.03937
  9
$DIMLFAC
 40
1.0
  9
$DIMTOFL
 70
     1
  9
$DIMTVP
 40
0.0
  9
$DIMTIX
 70
     0
  9
$DIMSOXD
 70
     0
  9
$DIMSAH
 70
     0
  9
$DIMBLK1
  1

  9
$DIMBLK2
  1

  9
$DIMSTYLE
  2
ISO-25
  9
$DIMCLRD
 70
     0
  9
$DIMCLRE
 70
     0
  9
$DIMCLRT
 70
     0
  9
$DIMTFAC
 40
1.0
  9
$DIMGAP
 40
0.625
  9
$DIMJUST
 70
     0
  9
$DIMSD1
 70
     0
  9
$DIMSD2
 70
     0
  9
$DIMTOLJ
 70
     0
  9
$DIMTZIN
 70
     8
  9
$DIMALTZ
 70
     0
  9
$DIMALTTZ
 70
     0
  9
$DIMUPT
 70
     0
  9
$DIMDEC
 70
     2
  9
$DIMTDEC
 70
     2
  9
$DIMALTU
 70
     2
  9
$DIMALTTD
 70
     3
  9
$DIMTXSTY
  7
Standard
  9
$DIMAUNIT
 70
     0
  9
$DIMADEC
 70
     0
  9
$DIMALTRND
 40
0.0
  9
$DIMAZIN
 70
     0
  9
$DIMDSEP
 70
    44
  9
$DIMATFIT
 70
     3
  9
$DIMFRAC
 70
     0
  9
$DIMLDRBLK
  1

  9
$DIMLUNIT
 70
     2
  9
$DIMLWD
 70
    -2
  9
$DIMLWE
 70
    -2
  9
$DIMTMOVE
 70
     0
  9
$LUNITS
 70
     2
  9
$LUPREC
 70
     4
  9
$SKETCHINC
 40
1.0
  9
$FILLETRAD
 40
0.0
  9
$AUNITS
 70
     0
  9
$AUPREC
 70
     0
  9
$MENU
  1
.
  9
$ELEVATION
 40
0.0
  9
$PELEVATION
 40
0.0
  9
$THICKNESS
 40
0.0
  9
$LIMCHECK
 70
     0
  9
$CHAMFERA
 40
10.0
  9
$CHAMFERB
 40
10.0
  9
$CHAMFERC
 40
20.0
  9
$CHAMFERD
 40
0.0
  9
$SKPOLY
 70
     0
  9
$TDCREATE
 40
2454805.757595845
  9
$TDUCREATE
 40
2454805.382595845
  9
$TDUPDATE
 40
2454805.757595857
  9
$TDUUPDATE
 40
2454805.382595857
  9
$TDINDWG
 40
0.0000000116
  9
$TDUSRTIMER
 40
0.0000000116
  9
$USRTIMER
 70
     1
  9
$ANGBASE
 50
0.0
  9
$ANGDIR
 70
     0
  9
$PDMODE
 70
     0
  9
$PDSIZE
 40
0.0
  9
$PLINEWID
 40
0.0
  9
$SPLFRAME
 70
     0
  9
$SPLINETYPE
 70
     6
  9
$SPLINESEGS
 70
     8
  9
$HANDSEED
  5
458
  9
$SURFTAB1
 70
     6
  9
$SURFTAB2
 70
     6
  9
$SURFTYPE
 70
     6
  9
$SURFU
 70
     6
  9
$SURFV
 70
     6
  9
$UCSBASE
  2

  9
$UCSNAME
  2

  9
$UCSORG
 10
0.0
 20
0.0
 30
0.0
  9
$UCSXDIR
 10
1.0
 20
0.0
 30
0.0
  9
$UCSYDIR
 10
0.0
 20
1.0
 30
0.0
  9
$UCSORTHOREF
  2

  9
$UCSORTHOVIEW
 70
     0
  9
$UCSORGTOP
 10
0.0
 20
0.0
 30
0.0
  9
$UCSORGBOTTOM
 10
0.0
 20
0.0
 30
0.0
  9
$UCSORGLEFT
 10
0.0
 20
0.0
 30
0.0
  9
$UCSORGRIGHT
 10
0.0
 20
0.0
 30
0.0
  9
$UCSORGFRONT
 10
0.0
 20
0.0
 30
0.0
  9
$UCSORGBACK
 10
0.0
 20
0.0
 30
0.0
  9
$PUCSBASE
  2

  9
$PUCSNAME
  2

  9
$PUCSORG
 10
0.0
 20
0.0
 30
0.0
  9
$PUCSXDIR
 10
1.0
 20
0.0
 30
0.0
  9
$PUCSYDIR
 10
0.0
 20
1.0
 30
0.0
  9
$PUCSORTHOREF
  2

  9
$PUCSORTHOVIEW
 70
     0
  9
$PUCSORGTOP
 10
0.0
 20
0.0
 30
0.0
  9
$PUCSORGBOTTOM
 10
0.0
 20
0.0
 30
0.0
  9
$PUCSORGLEFT
 10
0.0
 20
0.0
 30
0.0
  9
$PUCSORGRIGHT
 10
0.0
 20
0.0
 30
0.0
  9
$PUCSORGFRONT
 10
0.0
 20
0.0
 30
0.0
  9
$PUCSORGBACK
 10
0.0
 20
0.0
 30
0.0
  9
$USERI1
 70
     0
  9
$USERI2
 70
     0
  9
$USERI3
 70
     0
  9
$USERI4
 70
     0
  9
$USERI5
 70
     0
  9
$USERR1
 40
0.0
  9
$USERR2
 40
0.0
  9
$USERR3
 40
0.0
  9
$USERR4
 40
0.0
  9
$USERR5
 40
0.0
  9
$WORLDVIEW
 70
     1
  9
$SHADEDGE
 70
     3
  9
$SHADEDIF
 70
    70
  9
$TILEMODE
 70
     1
  9
$MAXACTVP
 70
    64
  9
$PINSBASE
 10
0.0
 20
0.0
 30
0.0
  9
$PLIMCHECK
 70
     0
  9
$PEXTMIN
 10
1.000000E+20
 20
1.000000E+20
 30
0.0
  9
$PEXTMAX
 10
-1.000000E+20
 20
-1.000000E+20
 30
0.0
  9
$PLIMMIN
 10
0.0
 20
0.0
  9
$PLIMMAX
 10
12.0
 20
9.0
  9
$UNITMODE
 70
     0
  9
$VISRETAIN
 70
     1
  9
$PLINEGEN
 70
     0
  9
$PSLTSCALE
 70
     1
  9
$TREEDEPTH
 70
  3020
  9
$CMLSTYLE
  2
Standard
  9
$CMLJUST
 70
     0
  9
$CMLSCALE
 40
20.0
  9
$PROXYGRAPHICS
 70
     1
  9
$MEASUREMENT
 70
     1
  9
$CELWEIGHT
370
    -1
  9
$ENDCAPS
280
     0
  9
$JOINSTYLE
280
     0
  9
$LWDISPLAY
290
     0
  9
$INSUNITS
 70
     4
  9
$HYPERLINKBASE
  1

  9
$STYLESHEET
  1

  9
$XEDIT
290
     1
  9
$CEPSNTYPE
380
     0
  9
$PSTYLEMODE
290
     1
  9
$FINGERPRINTGUID
  2
{5CC1F618-E8DF-492C-8D9F-15F3149F0DDA}
  9
$VERSIONGUID
  2
{FAEB1C32-E019-11D5-929B-00C0DF256EC4}
  9
$EXTNAMES
290
     1
  9
$PSVPSCALE
 40
0.0
  9
$OLESTARTUP
290
     0
  0
ENDSEC
  0
SECTION
  2
CLASSES
  0
CLASS
  1
ACDBDICTIONARYWDFLT
  2
AcDbDictionaryWithDefault
  3
ObjectDBX Classes
 90
        0
280
     0
281
     0
  0
CLASS
  1
VISUALSTYLE
  2
AcDbVisualStyle
  3
ObjectDBX Classes
 90
     4095
280
     0
281
     0
  0
CLASS
  1
SCALE
  2
AcDbScale
  3
ObjectDBX Classes
 90
     1153
280
     0
281
     0
  0
CLASS
  1
DICTIONARYVAR
  2
AcDbDictionaryVar
  3
ObjectDBX Classes
 90
        0
280
     0
281
     0
  0
CLASS
  1
ACDBPLACEHOLDER
  2
AcDbPlaceHolder
  3
ObjectDBX Classes
 90
        0
280
     0
281
     0
  0
CLASS
  1
LAYOUT
  2
AcDbLayout
  3
ObjectDBX Classes
 90
        0
280
     0
281
     0
  0
ENDSEC
  0
SECTION
  2
TABLES
  0
TABLE
  2
VPORT
  5
8
330
0
100
AcDbSymbolTable
 70
     1
  0
VPORT
  5
29
330
8
100
AcDbSymbolTableRecord
100
AcDbViewportTableRecord
  2
*Active
 70
     0
 10
0.0
 20
0.0
 11
1.0
 21
1.0
 12
92.278046
 22
57.645493
 13
0.0
 23
0.0
 14
1.0
 24
1.0
 15
0.0
 25
0.0
 16
0.0
 26
0.0
 36
1.0
 17
0.0
 27
0.0
 37
0.0
 40
113.401581
 41
1.691288
 42
50.0
 43
0.0
 44
0.0
 50
0.0
 51
0.0
 71
     0
 72
   100
 73
     1
 74
     3
 75
     0
 76
     0
 77
     0
 78
     0
281
     0
 65
     1
110
0.0
120
0.0
130
0.0
111
1.0
121
0.0
131
0.0
112
0.0
122
1.0
132
0.0
 79
     0
146
0.0
  0
ENDTAB
  0
TABLE
  2
LTYPE
  5
5
330
0
100
AcDbSymbolTable
 70
     5
  0
LTYPE
  5
14
330
5
100
AcDbSymbolTableRecord
100
AcDbLinetypeTableRecord
  2
ByBlock
 70
     0
  3

 72
    65
 73
     0
 40
0.0
  0
LTYPE
  5
15
330
5
100
AcDbSymbolTableRecord
100
AcDbLinetypeTableRecord
  2
ByLayer
 70
     0
  3

 72
    65
 73
     0
 40
0.0
  0
LTYPE
  5
16
330
5
100
AcDbSymbolTableRecord
100
AcDbLinetypeTableRecord
  2
Continuous
 70
     0
  3
Solid line
 72
    65
 73
     0
 40
0.0
  0
LTYPE
  5
5D
330
5
100
AcDbSymbolTableRecord
100
AcDbLinetypeTableRecord
  2
DASHED
 70
     0
  3
DASHED
 72
    83
 73
     2
 40
0.75
 49
0.5
 74
     0
 49
-0.25
 74
     0
  0
LTYPE
  5
5E
330
5
100
AcDbSymbolTableRecord
100
AcDbLinetypeTableRecord
  2
HIDDEN
 70
     0
  3
HIDDEN
 72
    83
 73
     2
 40
0.375
 49
0.25
 74
     0
 49
-0.125
 74
     0
  0
LTYPE
  5
5F
330
5
100
AcDbSymbolTableRecord
100
AcDbLinetypeTableRecord
  2
CENTER
 70
     0
  3
CENTER
 72
    83
 73
     4
 40
2.0
 49
1.25
 74
     0
 49
-0.25
 74
     0
 49
0.25
 74
     0
 49
-0.25
 74
     0
  0
LTYPE
  5
60
330
5
100
AcDbSymbolTableRecord
100
AcDbLinetypeTableRecord
  2
PHANTOM
 70
     0
  3
PHANTOM
 72
    83
 73
     6
 40
2.5
 49
1.25
 74
     0
 49
-0.25
 74
     0
 49
0.25
 74
     0
 49
-0.25
 74
     0
 49
0.25
 74
     0
 49
-0.25
 74
     0
  0
ENDTAB
  0
TABLE
  2
LAYER
  5
2
330
0
100
AcDbSymbolTable
 70
     2
  0
LAYER
  5
10
330
2
100
AcDbSymbolTableRecord
100
AcDbLayerTableRecord
  2
0
 70
     0
 62
     7
  6
Continuous
370
    -3
390
F
  0
LAYER
  5
61
330
2
100
AcDbSymbolTableRecord
100
AcDbLayerTableRecord
  2
001
 70
     0
 62
     7
  6
Continuous
370
    -3
390
F
  0
ENDTAB
  0
TABLE
  2
STYLE
  5
3
330
0
100
AcDbSymbolTable
 70
     2
  0
STYLE
  5
11
330
3
100
AcDbSymbolTableRecord
100
AcDbTextStyleTableRecord
  2
Standard
 70
     0
 40
0.0
 41
1.0
 50
0.0
 71
     0
 42
0.2
  3
TXT
  4
BIGFONT
  0
STYLE
  5
62
330
3
100
AcDbSymbolTableRecord
100
AcDbTextStyleTableRecord
  2
TATEGAKI
 70
     4
 40
1.0
 41
1.0
 50
0.0
 71
     0
 42
0.2
  3
TXT
  4
BIGFONT
  0
ENDTAB
  0
TABLE
  2
VIEW
  5
6
330
0
100
AcDbSymbolTable
 70
     0
  0
ENDTAB
  0
TABLE
  2
UCS
  5
7
330
0
100
AcDbSymbolTable
 70
     0
  0
ENDTAB
  0
TABLE
  2
APPID
  5
9
330
0
100
AcDbSymbolTable
 70
     1
  0
APPID
  5
12
330
9
100
AcDbSymbolTableRecord
100
AcDbRegAppTableRecord
  2
ACAD
 70
     0
  0
ENDTAB
  0
TABLE
  2
DIMSTYLE
  5
A
330
0
100
AcDbSymbolTable
 70
     2
100
AcDbDimStyleTable
  0
DIMSTYLE
105
27
330
A
100
AcDbSymbolTableRecord
100
AcDbDimStyleTableRecord
  2
ISO-25
 70
     0
 41
2.5
 42
0.625
 43
3.75
 44
1.25
 73
     0
 74
     0
 77
     1
 78
     8
140
2.5
141
2.5
143
0.03937
147
0.625
171
     3
172
     1
271
     2
272
     2
274
     3
278
    44
283
     0
284
     8
340
11
  0
DIMSTYLE
105
63
102
{ACAD_REACTORS
330
10A
330
10B
330
10C
330
10D
330
10E
330
10F
330
110
330
111
102
}
330
A
100
AcDbSymbolTableRecord
100
AcDbDimStyleTableRecord
  2
Standard
 70
     0
 41
1.5
 42
0.0
 44
2.75
 73
     0
 74
     0
 77
     1
 78
     8
 79
     2
140
4.0
146
0.8
147
1.0
172
     1
179
     1
271
     1
340
11
  0
ENDTAB
  0
TABLE
  2
BLOCK_RECORD
  5
1
330
0
100
AcDbSymbolTable
 70
     9
  0
BLOCK_RECORD
  5
1F
330
1
100
AcDbSymbolTableRecord
100
AcDbBlockTableRecord
  2
*Model_Space
340
22
  0
BLOCK_RECORD
  5
1B
330
1
100
AcDbSymbolTableRecord
100
AcDbBlockTableRecord
  2
*Paper_Space
340
1E
  0
BLOCK_RECORD
  5
23
330
1
100
AcDbSymbolTableRecord
100
AcDbBlockTableRecord
  2
*Paper_Space0
340
26
  0
BLOCK_RECORD
  5
64
330
1
100
AcDbSymbolTableRecord
100
AcDbBlockTableRecord
  2
*D1
340
0
  0
BLOCK_RECORD
  5
78
330
1
100
AcDbSymbolTableRecord
100
AcDbBlockTableRecord
  2
*D2
340
0
  0
BLOCK_RECORD
  5
8E
330
1
100
AcDbSymbolTableRecord
100
AcDbBlockTableRecord
  2
*D3
340
0
  0
BLOCK_RECORD
  5
A4
330
1
100
AcDbSymbolTableRecord
100
AcDbBlockTableRecord
  2
*D4
340
0
  0
BLOCK_RECORD
  5
B8
330
1
100
AcDbSymbolTableRecord
100
AcDbBlockTableRecord
  2
*D5
340
0
  0
BLOCK_RECORD
  5
CC
330
1
100
AcDbSymbolTableRecord
100
AcDbBlockTableRecord
  2
*D6
340
0
  0
BLOCK_RECORD
  5
E0
330
1
100
AcDbSymbolTableRecord
100
AcDbBlockTableRecord
  2
*D7
340
0
  0
BLOCK_RECORD
  5
F6
330
1
100
AcDbSymbolTableRecord
100
AcDbBlockTableRecord
  2
*D8
340
0
  0
ENDTAB
  0
ENDSEC
  0
SECTION
  2
BLOCKS
  0
BLOCK
  5
20
330
1F
100
AcDbEntity
  8
0
100
AcDbBlockBegin
  2
*Model_Space
 70
     0
 10
0.0
 20
0.0
 30
0.0
  3
*Model_Space
  1

  0
ENDBLK
  5
21
330
1F
100
AcDbEntity
  8
0
100
AcDbBlockEnd
  0
BLOCK
  5
1C
330
1B
100
AcDbEntity
 67
     1
  8
0
100
AcDbBlockBegin
  2
*Paper_Space
 70
     0
 10
0.0
 20
0.0
 30
0.0
  3
*Paper_Space
  1

  0
ENDBLK
  5
1D
330
1B
100
AcDbEntity
 67
     1
  8
0
100
AcDbBlockEnd
  0
BLOCK
  5
24
330
23
100
AcDbEntity
  8
0
100
AcDbBlockBegin
  2
*Paper_Space0
 70
     0
 10
0.0
 20
0.0
 30
0.0
  3
*Paper_Space0
  1

  0
ENDBLK
  5
25
330
23
100
AcDbEntity
  8
0
100
AcDbBlockEnd
  0
BLOCK
  5
65
330
64
100
AcDbEntity
  8
0
100
AcDbBlockBegin
  2
*D1
 70
     1
 10
0.0
 20
0.0
 30
0.0
  3
*D1
  1

  0
LINE
  5
67
330
64
100
AcDbEntity
  8
001
370
     9
100
AcDbLine
 10
49.723339
 20
45.032153
 30
0.0
 11
34.348438
 21
45.032153
 31
0.0
  0
LINE
  5
68
330
64
100
AcDbEntity
  8
001
370
     9
100
AcDbLine
 10
49.723339
 20
85.032153
 30
0.0
 11
34.348438
 21
85.032153
 31
0.0
  0
LINE
  5
69
330
64
100
AcDbEntity
  8
001
370
     9
100
AcDbLine
 10
37.098438
 20
45.032153
 30
0.0
 11
37.098438
 21
85.032153
 31
0.0
  0
POLYLINE
  5
6A
330
64
100
AcDbEntity
  8
001
370
     9
100
AcDb2dPolyline
 66
     1
 10
0.0
 20
0.0
 30
0.0
  0
VERTEX
  5
6C
330
6A
100
AcDbEntity
  8
001
370
     9
100
AcDbVertex
100
AcDb2dVertex
 10
37.500361
 20
46.532153
 30
0.0
  0
VERTEX
  5
6D
330
6A
100
AcDbEntity
  8
001
370
     9
100
AcDbVertex
100
AcDb2dVertex
 10
37.098438
 20
45.032153
 30
0.0
  0
VERTEX
  5
6E
330
6A
100
AcDbEntity
  8
001
370
     9
100
AcDbVertex
100
AcDb2dVertex
 10
36.696514
 20
46.532153
 30
0.0
  0
SEQEND
  5
6B
330
6A
100
AcDbEntity
  8
001
370
     9
  0
POLYLINE
  5
6F
330
64
100
AcDbEntity
  8
001
370
     9
100
AcDb2dPolyline
 66
     1
 10
0.0
 20
0.0
 30
0.0
  0
VERTEX
  5
71
330
6F
100
AcDbEntity
  8
001
370
     9
100
AcDbVertex
100
AcDb2dVertex
 10
36.696514
 20
83.532153
 30
0.0
  0
VERTEX
  5
72
330
6F
100
AcDbEntity
  8
001
370
     9
100
AcDbVertex
100
AcDb2dVertex
 10
37.098438
 20
85.032153
 30
0.0
  0
VERTEX
  5
73
330
6F
100
AcDbEntity
  8
001
370
     9
100
AcDbVertex
100
AcDb2dVertex
 10
37.500361
 20
83.532153
 30
0.0
  0
SEQEND
  5
70
330
6F
100
AcDbEntity
  8
001
370
     9
  0
TEXT
  5
74
330
64
100
AcDbEntity
  8
001
370
    30
100
AcDbText
 10
36.098438
 20
59.032153
 30
0.0
 40
4.0
  1
%%c４０
 50
90.000003
 41
0.882353
100
AcDbText
  0
POINT
  5
75
330
64
100
AcDbEntity
  8
001
370
     9
100
AcDbPoint
 10
49.723339
 20
45.032153
 30
0.0
  0
POINT
  5
76
330
64
100
AcDbEntity
  8
001
370
     9
100
AcDbPoint
 10
49.723339
 20
85.032153
 30
0.0
  0
POINT
  5
77
330
64
100
AcDbEntity
  8
001
370
     9
100
AcDbPoint
 10
37.098438
 20
85.032153
 30
0.0
  0
ENDBLK
  5
66
330
64
100
AcDbEntity
  8
0
100
AcDbBlockEnd
  0
BLOCK
  5
79
330
78
100
AcDbEntity
  8
0
100
AcDbBlockBegin
  2
*D2
 70
     1
 10
0.0
 20
0.0
 30
0.0
  3
*D2
  1

  0
LINE
  5
7B
330
78
100
AcDbEntity
  8
001
370
     9
100
AcDbLine
 10
135.752345
 20
73.032153
 30
0.0
 11
163.3919
 21
73.032153
 31
0.0
  0
LINE
  5
7C
330
78
100
AcDbEntity
  8
001
370
     9
100
AcDbLine
 10
135.752345
 20
57.032153
 30
0.0
 11
163.3919
 21
57.032153
 31
0.0
  0
LINE
  5
7D
330
78
100
AcDbEntity
  8
001
370
     9
100
AcDbLine
 10
160.6419
 20
73.032153
 30
0.0
 11
160.6419
 21
57.032153
 31
0.0
  0
POLYLINE
  5
7E
330
78
100
AcDbEntity
  8
001
370
     9
100
AcDb2dPolyline
 66
     1
 10
0.0
 20
0.0
 30
0.0
  0
VERTEX
  5
80
330
7E
100
AcDbEntity
  8
001
370
     9
100
AcDbVertex
100
AcDb2dVertex
 10
161.043824
 20
74.532153
 30
0.0
  0
VERTEX
  5
81
330
7E
100
AcDbEntity
  8
001
370
     9
100
AcDbVertex
100
AcDb2dVertex
 10
160.6419
 20
73.032153
 30
0.0
  0
VERTEX
  5
82
330
7E
100
AcDbEntity
  8
001
370
     9
100
AcDbVertex
100
AcDb2dVertex
 10
160.239976
 20
74.532153
 30
0.0
  0
SEQEND
  5
7F
330
7E
100
AcDbEntity
  8
001
370
     9
  0
POLYLINE
  5
83
330
78
100
AcDbEntity
  8
001
370
     9
100
AcDb2dPolyline
 66
     1
 10
0.0
 20
0.0
 30
0.0
  0
VERTEX
  5
85
330
83
100
AcDbEntity
  8
001
370
     9
100
AcDbVertex
100
AcDb2dVertex
 10
160.239976
 20
55.532153
 30
0.0
  0
VERTEX
  5
86
330
83
100
AcDbEntity
  8
001
370
     9
100
AcDbVertex
100
AcDb2dVertex
 10
160.6419
 20
57.032153
 30
0.0
  0
VERTEX
  5
87
330
83
100
AcDbEntity
  8
001
370
     9
100
AcDbVertex
100
AcDb2dVertex
 10
161.043824
 20
55.532153
 30
0.0
  0
SEQEND
  5
84
330
83
100
AcDbEntity
  8
001
370
     9
  0
TEXT
  5
88
330
78
100
AcDbEntity
  8
001
370
    30
100
AcDbText
 10
159.6419
 20
41.532153
 30
0.0
 40
4.0
  1
%%c１６
 50
90.000003
 41
0.882353
100
AcDbText
  0
POINT
  5
89
330
78
100
AcDbEntity
  8
001
370
     9
100
AcDbPoint
 10
135.752345
 20
73.032153
 30
0.0
  0
POINT
  5
8A
330
78
100
AcDbEntity
  8
001
370
     9
100
AcDbPoint
 10
135.752345
 20
57.032153
 30
0.0
  0
POINT
  5
8B
330
78
100
AcDbEntity
  8
001
370
     9
100
AcDbPoint
 10
160.6419
 20
57.032153
 30
0.0
  0
LINE
  5
8C
330
78
100
AcDbEntity
  8
001
370
     9
100
AcDbLine
 10
160.6419
 20
73.032153
 30
0.0
 11
160.6419
 21
75.532153
 31
0.0
  0
LINE
  5
8D
330
78
100
AcDbEntity
  8
001
370
     9
100
AcDbLine
 10
160.6419
 20
57.032153
 30
0.0
 11
160.6419
 21
38.532153
 31
0.0
  0
ENDBLK
  5
7A
330
78
100
AcDbEntity
  8
0
100
AcDbBlockEnd
  0
BLOCK
  5
8F
330
8E
100
AcDbEntity
  8
0
100
AcDbBlockBegin
  2
*D3
 70
     1
 10
0.0
 20
0.0
 30
0.0
  3
*D3
  1

  0
LINE
  5
91
330
8E
100
AcDbEntity
  8
001
370
     9
100
AcDbLine
 10
58.717158
 20
39.246772
 30
0.0
 11
71.987934
 21
25.725905
 31
0.0
  0
ARC
  5
92
330
8E
100
AcDbEntity
  8
001
370
     9
100
AcDbCircle
 10
53.752345
 20
44.305148
 30
0.0
 40
23.28315171311835
100
AcDbArc
 50
270.0
 51
314.46518
  0
POLYLINE
  5
93
330
8E
100
AcDbEntity
  8
001
370
     9
100
AcDb2dPolyline
 66
     1
 10
0.0
 20
0.0
 30
0.0
  0
VERTEX
  5
95
330
93
100
AcDbEntity
  8
001
370
     9
100
AcDbVertex
100
AcDb2dVertex
 10
71.388375
 20
28.495533
 30
0.0
  0
VERTEX
  5
96
330
93
100
AcDbEntity
  8
001
370
     9
100
AcDbVertex
100
AcDb2dVertex
 10
70.061626
 20
27.688515
 30
0.0
  0
VERTEX
  5
97
330
93
100
AcDbEntity
  8
001
370
     9
100
AcDbVertex
100
AcDb2dVertex
 10
70.807115
 20
29.050788
 30
0.0
  0
SEQEND
  5
94
330
93
100
AcDbEntity
  8
001
370
     9
  0
POLYLINE
  5
98
330
8E
100
AcDbEntity
  8
001
370
     9
100
AcDb2dPolyline
 66
     1
 10
0.0
 20
0.0
 30
0.0
  0
VERTEX
  5
9A
330
98
100
AcDbEntity
  8
001
370
     9
100
AcDbVertex
100
AcDb2dVertex
 10
52.266068
 20
21.472021
 30
0.0
  0
VERTEX
  5
9B
330
98
100
AcDbEntity
  8
001
370
     9
100
AcDbVertex
100
AcDb2dVertex
 10
53.752345
 20
21.021996
 30
0.0
  0
VERTEX
  5
9C
330
98
100
AcDbEntity
  8
001
370
     9
100
AcDbVertex
100
AcDb2dVertex
 10
52.240178
 20
20.668591
 30
0.0
  0
SEQEND
  5
99
330
98
100
AcDbEntity
  8
001
370
     9
  0
TEXT
  5
9D
330
8E
100
AcDbEntity
  8
001
370
    30
100
AcDbText
 10
56.629629
 20
21.408421
 30
0.0
 40
4.0
  1
４５%%d
 50
22.23259
 41
0.978261
100
AcDbText
  0
POINT
  5
9E
330
8E
100
AcDbEntity
  8
001
370
     9
100
AcDbPoint
 10
58.717158
 20
39.246772
 30
0.0
  0
POINT
  5
9F
330
8E
100
AcDbEntity
  8
001
370
     9
100
AcDbPoint
 10
53.752345
 20
44.305148
 30
0.0
  0
POINT
  5
A0
330
8E
100
AcDbEntity
  8
001
370
     9
100
AcDbPoint
 10
53.752345
 20
44.305148
 30
0.0
  0
POINT
  5
A1
330
8E
100
AcDbEntity
  8
001
370
     9
100
AcDbPoint
 10
53.752345
 20
23.771996
 30
0.0
  0
ARC
  5
A2
330
8E
100
AcDbEntity
  8
001
370
     9
100
AcDbCircle
 10
53.752345
 20
44.305148
 30
0.0
 40
23.28315171311835
100
AcDbArc
 50
263.847936
 51
270.0
  0
ARC
  5
A3
330
8E
100
AcDbEntity
  8
001
370
     9
100
AcDbCircle
 10
53.752345
 20
44.305148
 30
0.0
 40
23.28315171311835
100
AcDbArc
 50
314.46518
 51
320.617244
  0
ENDBLK
  5
90
330
8E
100
AcDbEntity
  8
0
100
AcDbBlockEnd
  0
BLOCK
  5
A5
330
A4
100
AcDbEntity
  8
0
100
AcDbBlockBegin
  2
*D4
 70
     1
 10
0.0
 20
0.0
 30
0.0
  3
*D4
  1

  0
LINE
  5
A7
330
A4
100
AcDbEntity
  8
001
370
     9
100
AcDbLine
 10
53.752345
 20
16.233245
 30
0.0
 11
53.752345
 21
1.506097
 31
0.0
  0
LINE
  5
A8
330
A4
100
AcDbEntity
  8
001
370
     9
100
AcDbLine
 10
138.752345
 20
60.032153
 30
0.0
 11
138.752345
 21
1.506097
 31
0.0
  0
LINE
  5
A9
330
A4
100
AcDbEntity
  8
001
370
     9
100
AcDbLine
 10
53.752345
 20
4.256097
 30
0.0
 11
138.752345
 21
4.256097
 31
0.0
  0
POLYLINE
  5
AA
330
A4
100
AcDbEntity
  8
001
370
     9
100
AcDb2dPolyline
 66
     1
 10
0.0
 20
0.0
 30
0.0
  0
VERTEX
  5
AC
330
AA
100
AcDbEntity
  8
001
370
     9
100
AcDbVertex
100
AcDb2dVertex
 10
55.252345
 20
3.854173
 30
0.0
  0
VERTEX
  5
AD
330
AA
100
AcDbEntity
  8
001
370
     9
100
AcDbVertex
100
AcDb2dVertex
 10
53.752345
 20
4.256097
 30
0.0
  0
VERTEX
  5
AE
330
AA
100
AcDbEntity
  8
001
370
     9
100
AcDbVertex
100
AcDb2dVertex
 10
55.252345
 20
4.65802
 30
0.0
  0
SEQEND
  5
AB
330
AA
100
AcDbEntity
  8
001
370
     9
  0
POLYLINE
  5
AF
330
A4
100
AcDbEntity
  8
001
370
     9
100
AcDb2dPolyline
 66
     1
 10
0.0
 20
0.0
 30
0.0
  0
VERTEX
  5
B1
330
AF
100
AcDbEntity
  8
001
370
     9
100
AcDbVertex
100
AcDb2dVertex
 10
137.252345
 20
4.65802
 30
0.0
  0
VERTEX
  5
B2
330
AF
100
AcDbEntity
  8
001
370
     9
100
AcDbVertex
100
AcDb2dVertex
 10
138.752345
 20
4.256097
 30
0.0
  0
VERTEX
  5
B3
330
AF
100
AcDbEntity
  8
001
370
     9
100
AcDbVertex
100
AcDb2dVertex
 10
137.252345
 20
3.854173
 30
0.0
  0
SEQEND
  5
B0
330
AF
100
AcDbEntity
  8
001
370
     9
  0
TEXT
  5
B4
330
A4
100
AcDbEntity
  8
001
370
    30
100
AcDbText
 10
92.252345
 20
5.256097
 30
0.0
 40
4.0
  1
８５
 41
0.833333
100
AcDbText
  0
POINT
  5
B5
330
A4
100
AcDbEntity
  8
001
370
     9
100
AcDbPoint
 10
53.752345
 20
16.233245
 30
0.0
  0
POINT
  5
B6
330
A4
100
AcDbEntity
  8
001
370
     9
100
AcDbPoint
 10
138.752345
 20
60.032153
 30
0.0
  0
POINT
  5
B7
330
A4
100
AcDbEntity
  8
001
370
     9
100
AcDbPoint
 10
138.752345
 20
4.256097
 30
0.0
  0
ENDBLK
  5
A6
330
A4
100
AcDbEntity
  8
0
100
AcDbBlockEnd
  0
BLOCK
  5
B9
330
B8
100
AcDbEntity
  8
0
100
AcDbBlockBegin
  2
*D5
 70
     1
 10
0.0
 20
0.0
 30
0.0
  3
*D5
  1

  0
LINE
  5
BB
330
B8
100
AcDbEntity
  8
001
370
     9
100
AcDbLine
 10
138.752345
 20
60.032153
 30
0.0
 11
138.752345
 21
10.995514
 31
0.0
  0
LINE
  5
BC
330
B8
100
AcDbEntity
  8
001
370
     9
100
AcDbLine
 10
78.752345
 20
54.032153
 30
0.0
 11
78.752345
 21
10.995514
 31
0.0
  0
LINE
  5
BD
330
B8
100
AcDbEntity
  8
001
370
     9
100
AcDbLine
 10
138.752345
 20
13.745514
 30
0.0
 11
78.752345
 21
13.745514
 31
0.0
  0
POLYLINE
  5
BE
330
B8
100
AcDbEntity
  8
001
370
     9
100
AcDb2dPolyline
 66
     1
 10
0.0
 20
0.0
 30
0.0
  0
VERTEX
  5
C0
330
BE
100
AcDbEntity
  8
001
370
     9
100
AcDbVertex
100
AcDb2dVertex
 10
137.252345
 20
14.147438
 30
0.0
  0
VERTEX
  5
C1
330
BE
100
AcDbEntity
  8
001
370
     9
100
AcDbVertex
100
AcDb2dVertex
 10
138.752345
 20
13.745514
 30
0.0
  0
VERTEX
  5
C2
330
BE
100
AcDbEntity
  8
001
370
     9
100
AcDbVertex
100
AcDb2dVertex
 10
137.252345
 20
13.34359
 30
0.0
  0
SEQEND
  5
BF
330
BE
100
AcDbEntity
  8
001
370
     9
  0
POLYLINE
  5
C3
330
B8
100
AcDbEntity
  8
001
370
     9
100
AcDb2dPolyline
 66
     1
 10
0.0
 20
0.0
 30
0.0
  0
VERTEX
  5
C5
330
C3
100
AcDbEntity
  8
001
370
     9
100
AcDbVertex
100
AcDb2dVertex
 10
80.252345
 20
13.34359
 30
0.0
  0
VERTEX
  5
C6
330
C3
100
AcDbEntity
  8
001
370
     9
100
AcDbVertex
100
AcDb2dVertex
 10
78.752345
 20
13.745514
 30
0.0
  0
VERTEX
  5
C7
330
C3
100
AcDbEntity
  8
001
370
     9
100
AcDbVertex
100
AcDb2dVertex
 10
80.252345
 20
14.147438
 30
0.0
  0
SEQEND
  5
C4
330
C3
100
AcDbEntity
  8
001
370
     9
  0
TEXT
  5
C8
330
B8
100
AcDbEntity
  8
001
370
    30
100
AcDbText
 10
104.752345
 20
14.745514
 30
0.0
 40
4.0
  1
６０
 41
0.833333
100
AcDbText
  0
POINT
  5
C9
330
B8
100
AcDbEntity
  8
001
370
     9
100
AcDbPoint
 10
138.752345
 20
60.032153
 30
0.0
  0
POINT
  5
CA
330
B8
100
AcDbEntity
  8
001
370
     9
100
AcDbPoint
 10
78.752345
 20
54.032153
 30
0.0
  0
POINT
  5
CB
330
B8
100
AcDbEntity
  8
001
370
     9
100
AcDbPoint
 10
78.752345
 20
13.745514
 30
0.0
  0
ENDBLK
  5
BA
330
B8
100
AcDbEntity
  8
0
100
AcDbBlockEnd
  0
BLOCK
  5
CD
330
CC
100
AcDbEntity
  8
0
100
AcDbBlockBegin
  2
*D6
 70
     1
 10
0.0
 20
0.0
 30
0.0
  3
*D6
  1

  0
LINE
  5
CF
330
CC
100
AcDbEntity
  8
001
370
     9
100
AcDbLine
 10
78.752345
 20
54.032153
 30
0.0
 11
78.752345
 21
10.995514
 31
0.0
  0
LINE
  5
D0
330
CC
100
AcDbEntity
  8
001
370
     9
100
AcDbLine
 10
53.752345
 20
44.632153
 30
0.0
 11
53.752345
 21
10.995514
 31
0.0
  0
LINE
  5
D1
330
CC
100
AcDbEntity
  8
001
370
     9
100
AcDbLine
 10
78.752345
 20
13.745514
 30
0.0
 11
53.752345
 21
13.745514
 31
0.0
  0
POLYLINE
  5
D2
330
CC
100
AcDbEntity
  8
001
370
     9
100
AcDb2dPolyline
 66
     1
 10
0.0
 20
0.0
 30
0.0
  0
VERTEX
  5
D4
330
D2
100
AcDbEntity
  8
001
370
     9
100
AcDbVertex
100
AcDb2dVertex
 10
77.252345
 20
14.147438
 30
0.0
  0
VERTEX
  5
D5
330
D2
100
AcDbEntity
  8
001
370
     9
100
AcDbVertex
100
AcDb2dVertex
 10
78.752345
 20
13.745514
 30
0.0
  0
VERTEX
  5
D6
330
D2
100
AcDbEntity
  8
001
370
     9
100
AcDbVertex
100
AcDb2dVertex
 10
77.252345
 20
13.34359
 30
0.0
  0
SEQEND
  5
D3
330
D2
100
AcDbEntity
  8
001
370
     9
  0
POLYLINE
  5
D7
330
CC
100
AcDbEntity
  8
001
370
     9
100
AcDb2dPolyline
 66
     1
 10
0.0
 20
0.0
 30
0.0
  0
VERTEX
  5
D9
330
D7
100
AcDbEntity
  8
001
370
     9
100
AcDbVertex
100
AcDb2dVertex
 10
55.252345
 20
13.34359
 30
0.0
  0
VERTEX
  5
DA
330
D7
100
AcDbEntity
  8
001
370
     9
100
AcDbVertex
100
AcDb2dVertex
 10
53.752345
 20
13.745514
 30
0.0
  0
VERTEX
  5
DB
330
D7
100
AcDbEntity
  8
001
370
     9
100
AcDbVertex
100
AcDb2dVertex
 10
55.252345
 20
14.147438
 30
0.0
  0
SEQEND
  5
D8
330
D7
100
AcDbEntity
  8
001
370
     9
  0
TEXT
  5
DC
330
CC
100
AcDbEntity
  8
001
370
    30
100
AcDbText
 10
62.252345
 20
14.745514
 30
0.0
 40
4.0
  1
２５
 41
0.833333
100
AcDbText
  0
POINT
  5
DD
330
CC
100
AcDbEntity
  8
001
370
     9
100
AcDbPoint
 10
78.752345
 20
54.032153
 30
0.0
  0
POINT
  5
DE
330
CC
100
AcDbEntity
  8
001
370
     9
100
AcDbPoint
 10
53.752345
 20
44.632153
 30
0.0
  0
POINT
  5
DF
330
CC
100
AcDbEntity
  8
001
370
     9
100
AcDbPoint
 10
53.752345
 20
13.745514
 30
0.0
  0
ENDBLK
  5
CE
330
CC
100
AcDbEntity
  8
0
100
AcDbBlockEnd
  0
BLOCK
  5
E1
330
E0
100
AcDbEntity
  8
0
100
AcDbBlockBegin
  2
*D7
 70
     1
 10
0.0
 20
0.0
 30
0.0
  3
*D7
  1

  0
LINE
  5
E3
330
E0
100
AcDbEntity
  8
001
370
     9
100
AcDbLine
 10
58.952345
 20
39.007153
 30
0.0
 11
58.952345
 21
27.707501
 31
0.0
  0
LINE
  5
E4
330
E0
100
AcDbEntity
  8
001
370
     9
100
AcDbLine
 10
53.752345
 20
44.632153
 30
0.0
 11
53.752345
 21
27.707501
 31
0.0
  0
LINE
  5
E5
330
E0
100
AcDbEntity
  8
001
370
     9
100
AcDbLine
 10
58.952345
 20
30.457501
 30
0.0
 11
53.752345
 21
30.457501
 31
0.0
  0
POLYLINE
  5
E6
330
E0
100
AcDbEntity
  8
001
370
     9
100
AcDb2dPolyline
 66
     1
 10
0.0
 20
0.0
 30
0.0
  0
VERTEX
  5
E8
330
E6
100
AcDbEntity
  8
001
370
     9
100
AcDbVertex
100
AcDb2dVertex
 10
60.452345
 20
30.055577
 30
0.0
  0
VERTEX
  5
E9
330
E6
100
AcDbEntity
  8
001
370
     9
100
AcDbVertex
100
AcDb2dVertex
 10
58.952345
 20
30.457501
 30
0.0
  0
VERTEX
  5
EA
330
E6
100
AcDbEntity
  8
001
370
     9
100
AcDbVertex
100
AcDb2dVertex
 10
60.452345
 20
30.859425
 30
0.0
  0
SEQEND
  5
E7
330
E6
100
AcDbEntity
  8
001
370
     9
  0
POLYLINE
  5
EB
330
E0
100
AcDbEntity
  8
001
370
     9
100
AcDb2dPolyline
 66
     1
 10
0.0
 20
0.0
 30
0.0
  0
VERTEX
  5
ED
330
EB
100
AcDbEntity
  8
001
370
     9
100
AcDbVertex
100
AcDb2dVertex
 10
52.252345
 20
30.859425
 30
0.0
  0
VERTEX
  5
EE
330
EB
100
AcDbEntity
  8
001
370
     9
100
AcDbVertex
100
AcDb2dVertex
 10
53.752345
 20
30.457501
 30
0.0
  0
VERTEX
  5
EF
330
EB
100
AcDbEntity
  8
001
370
     9
100
AcDbVertex
100
AcDb2dVertex
 10
52.252345
 20
30.055577
 30
0.0
  0
SEQEND
  5
EC
330
EB
100
AcDbEntity
  8
001
370
     9
  0
TEXT
  5
F0
330
E0
100
AcDbEntity
  8
001
370
    30
100
AcDbText
 10
30.252345
 20
31.457501
 30
0.0
 40
4.0
  1
（５．２）
 41
0.833333
100
AcDbText
  0
POINT
  5
F1
330
E0
100
AcDbEntity
  8
001
370
     9
100
AcDbPoint
 10
58.952345
 20
39.007153
 30
0.0
  0
POINT
  5
F2
330
E0
100
AcDbEntity
  8
001
370
     9
100
AcDbPoint
 10
53.752345
 20
44.632153
 30
0.0
  0
POINT
  5
F3
330
E0
100
AcDbEntity
  8
001
370
     9
100
AcDbPoint
 10
53.752345
 20
30.457501
 30
0.0
  0
LINE
  5
F4
330
E0
100
AcDbEntity
  8
001
370
     9
100
AcDbLine
 10
58.952345
 20
30.457501
 30
0.0
 11
61.452345
 21
30.457501
 31
0.0
  0
LINE
  5
F5
330
E0
100
AcDbEntity
  8
001
370
     9
100
AcDbLine
 10
53.752345
 20
30.457501
 30
0.0
 11
27.252345
 21
30.457501
 31
0.0
  0
ENDBLK
  5
E2
330
E0
100
AcDbEntity
  8
0
100
AcDbBlockEnd
  0
BLOCK
  5
F7
330
F6
100
AcDbEntity
  8
0
100
AcDbBlockBegin
  2
*D8
 70
     1
 10
0.0
 20
0.0
 30
0.0
  3
*D8
  1

  0
LINE
  5
F9
330
F6
100
AcDbEntity
  8
001
370
     9
100
AcDbLine
 10
59.288099
 20
39.007153
 30
0.0
 11
23.309092
 21
39.007153
 31
0.0
  0
LINE
  5
FA
330
F6
100
AcDbEntity
  8
001
370
     9
100
AcDbLine
 10
59.288099
 20
91.057153
 30
0.0
 11
23.309092
 21
91.057153
 31
0.0
  0
LINE
  5
FB
330
F6
100
AcDbEntity
  8
001
370
     9
100
AcDbLine
 10
26.059092
 20
39.007153
 30
0.0
 11
26.059092
 21
91.057153
 31
0.0
  0
POLYLINE
  5
FC
330
F6
100
AcDbEntity
  8
001
370
     9
100
AcDb2dPolyline
 66
     1
 10
0.0
 20
0.0
 30
0.0
  0
VERTEX
  5
FE
330
FC
100
AcDbEntity
  8
001
370
     9
100
AcDbVertex
100
AcDb2dVertex
 10
26.461016
 20
40.507153
 30
0.0
  0
VERTEX
  5
FF
330
FC
100
AcDbEntity
  8
001
370
     9
100
AcDbVertex
100
AcDb2dVertex
 10
26.059092
 20
39.007153
 30
0.0
  0
VERTEX
  5
100
330
FC
100
AcDbEntity
  8
001
370
     9
100
AcDbVertex
100
AcDb2dVertex
 10
25.657168
 20
40.507153
 30
0.0
  0
SEQEND
  5
FD
330
FC
100
AcDbEntity
  8
001
370
     9
  0
POLYLINE
  5
101
330
F6
100
AcDbEntity
  8
001
370
     9
100
AcDb2dPolyline
 66
     1
 10
0.0
 20
0.0
 30
0.0
  0
VERTEX
  5
103
330
101
100
AcDbEntity
  8
001
370
     9
100
AcDbVertex
100
AcDb2dVertex
 10
25.657168
 20
89.557153
 30
0.0
  0
VERTEX
  5
104
330
101
100
AcDbEntity
  8
001
370
     9
100
AcDbVertex
100
AcDb2dVertex
 10
26.059092
 20
91.057153
 30
0.0
  0
VERTEX
  5
105
330
101
100
AcDbEntity
  8
001
370
     9
100
AcDbVertex
100
AcDb2dVertex
 10
26.461016
 20
89.557153
 30
0.0
  0
SEQEND
  5
102
330
101
100
AcDbEntity
  8
001
370
     9
  0
TEXT
  5
106
330
F6
100
AcDbEntity
  8
001
370
    30
100
AcDbText
 10
25.059092
 20
49.032153
 30
0.0
 40
4.0
  1
（%%c５２．０５）
 50
90.000003
 41
0.851064
100
AcDbText
  0
POINT
  5
107
330
F6
100
AcDbEntity
  8
001
370
     9
100
AcDbPoint
 10
59.288099
 20
39.007153
 30
0.0
  0
POINT
  5
108
330
F6
100
AcDbEntity
  8
001
370
     9
100
AcDbPoint
 10
59.288099
 20
91.057153
 30
0.0
  0
POINT
  5
109
330
F6
100
AcDbEntity
  8
001
370
     9
100
AcDbPoint
 10
26.059092
 20
91.057153
 30
0.0
  0
ENDBLK
  5
F8
330
F6
100
AcDbEntity
  8
0
100
AcDbBlockEnd
  0
ENDSEC
  0
SECTION
  2
ENTITIES
  0
DIMENSION
  5
10A
330
1F
100
AcDbEntity
  8
001
370
     9
100
AcDbDimension
  2
*D1
 10
37.098438
 20
85.032153
 30
0.0
 11
34.098437
 21
65.032153
 31
0.0
 70
   160
 71
     5
 42
-1.0
  3
Standard
100
AcDbAlignedDimension
 13
49.723339
 23
45.032153
 33
0.0
 14
49.723339
 24
85.032153
 34
0.0
 50
90.0
100
AcDbRotatedDimension
  0
DIMENSION
  5
10B
330
1F
100
AcDbEntity
  8
001
370
     9
100
AcDbDimension
  2
*D2
 10
160.6419
 20
57.032153
 30
0.0
 11
157.6419
 21
47.532153
 31
0.0
 70
   160
 71
     5
 42
-1.0
  3
Standard
100
AcDbAlignedDimension
 13
135.752345
 23
73.032153
 33
0.0
 14
135.752345
 24
57.032153
 34
0.0
 50
270.0
100
AcDbRotatedDimension
  0
DIMENSION
  5
10C
330
1F
100
AcDbEntity
  8
001
370
     9
100
AcDbDimension
  2
*D3
 10
53.752345
 20
44.305148
 30
0.0
 11
61.426827
 21
25.529936
 31
0.0
 70
    34
 71
     5
 42
-1.0
  3
Standard
100
AcDb2LineAngularDimension
 13
58.717158
 23
39.246772
 33
0.0
 14
53.752345
 24
44.305148
 34
0.0
 15
53.752345
 25
23.771996
 35
0.0
 16
62.561929
 26
22.75297
 36
0.0
  0
DIMENSION
  5
10D
330
1F
100
AcDbEntity
  8
001
370
     9
100
AcDbDimension
  2
*D4
 10
138.752345
 20
4.256097
 30
0.0
 11
96.252345
 21
7.256097
 31
0.0
 70
   160
 71
     5
 42
-1.0
  3
Standard
100
AcDbAlignedDimension
 13
53.752345
 23
16.233245
 33
0.0
 14
138.752345
 24
60.032153
 34
0.0
100
AcDbRotatedDimension
  0
DIMENSION
  5
10E
330
1F
100
AcDbEntity
  8
001
370
     9
100
AcDbDimension
  2
*D5
 10
78.752345
 20
13.745514
 30
0.0
 11
108.752345
 21
16.745514
 31
0.0
 70
   160
 71
     5
 42
-1.0
  3
Standard
100
AcDbAlignedDimension
 13
138.752345
 23
60.032153
 33
0.0
 14
78.752345
 24
54.032153
 34
0.0
 50
180.0
100
AcDbRotatedDimension
  0
DIMENSION
  5
10F
330
1F
100
AcDbEntity
  8
001
370
     9
100
AcDbDimension
  2
*D6
 10
53.752345
 20
13.745514
 30
0.0
 11
66.252345
 21
16.745514
 31
0.0
 70
   160
 71
     5
 42
-1.0
  3
Standard
100
AcDbAlignedDimension
 13
78.752345
 23
54.032153
 33
0.0
 14
53.752345
 24
44.632153
 34
0.0
 50
180.0
100
AcDbRotatedDimension
  0
DIMENSION
  5
110
330
1F
100
AcDbEntity
  8
001
370
     9
100
AcDbDimension
  2
*D7
 10
53.752345
 20
30.457501
 30
0.0
 11
40.252345
 21
33.457501
 31
0.0
 70
   160
 71
     5
 42
-1.0
  3
Standard
100
AcDbAlignedDimension
 13
58.952345
 23
39.007153
 33
0.0
 14
53.752345
 24
44.632153
 34
0.0
 50
180.0
100
AcDbRotatedDimension
  0
DIMENSION
  5
111
330
1F
100
AcDbEntity
  8
001
370
     9
100
AcDbDimension
  2
*D8
 10
26.059092
 20
91.057153
 30
0.0
 11
23.059091
 21
65.032153
 31
0.0
 70
   160
 71
     5
 42
-1.0
  3
Standard
100
AcDbAlignedDimension
 13
59.288099
 23
39.007153
 33
0.0
 14
59.288099
 24
91.057153
 34
0.0
 50
90.0
100
AcDbRotatedDimension
  0
TEXT
  5
112
330
1F
100
AcDbEntity
  8
001
370
    30
100
AcDbText
 10
17.278045
 20
103.784893
 30
0.0
 40
10.0
  1
エアロミル　ＡＲＮ１６－４０Ｓ
 41
0.833333
100
AcDbText
  0
LINE
  5
113
330
1F
100
AcDbEntity
  8
001
370
    50
100
AcDbLine
 10
54.084745
 20
74.578215
 30
0.0
 11
54.084745
 21
74.978215
 31
0.0
  0
POLYLINE
  5
114
330
1F
100
AcDbEntity
  8
001
370
    50
100
AcDb2dPolyline
 66
     1
 10
0.0
 20
0.0
 30
0.0
  0
VERTEX
  5
116
330
114
100
AcDbEntity
  8
001
370
    50
100
AcDbVertex
100
AcDb2dVertex
 10
54.317776
 20
75.282268
 30
0.0
  0
VERTEX
  5
117
330
114
100
AcDbEntity
  8
001
370
    50
100
AcDbVertex
100
AcDb2dVertex
 10
54.275007
 20
75.254493
 30
0.0
  0
VERTEX
  5
118
330
114
100
AcDbEntity
  8
001
370
    50
100
AcDbVertex
100
AcDb2dVertex
 10
54.218831
 20
75.212648
 30
0.0
  0
VERTEX
  5
119
330
114
100
AcDbEntity
  8
001
370
    50
100
AcDbVertex
100
AcDb2dVertex
 10
54.178247
 20
75.174973
 30
0.0
  0
VERTEX
  5
11A
330
114
100
AcDbEntity
  8
001
370
    50
100
AcDbVertex
100
AcDb2dVertex
 10
54.145308
 20
75.136801
 30
0.0
  0
VERTEX
  5
11B
330
114
100
AcDbEntity
  8
001
370
    50
100
AcDbVertex
100
AcDb2dVertex
 10
54.120156
 20
75.101177
 30
0.0
  0
VERTEX
  5
11C
330
114
100
AcDbEntity
  8
001
370
    50
100
AcDbVertex
100
AcDb2dVertex
 10
54.100033
 20
75.057642
 30
0.0
  0
VERTEX
  5
11D
330
114
100
AcDbEntity
  8
001
370
    50
100
AcDbVertex
100
AcDb2dVertex
 10
54.088718
 20
75.012
 30
0.0
  0
VERTEX
  5
11E
330
114
100
AcDbEntity
  8
001
370
    50
100
AcDbVertex
100
AcDb2dVertex
 10
54.084745
 20
74.978215
 30
0.0
  0
SEQEND
  5
115
330
114
100
AcDbEntity
  8
001
370
    50
  0
LINE
  5
11F
330
1F
100
AcDbEntity
  8
001
370
    50
100
AcDbLine
 10
54.317776
 20
75.282268
 30
0.0
 11
59.095282
 21
78.119042
 31
0.0
  0
POLYLINE
  5
120
330
1F
100
AcDbEntity
  8
001
370
    50
100
AcDb2dPolyline
 66
     1
 10
0.0
 20
0.0
 30
0.0
  0
VERTEX
  5
122
330
120
100
AcDbEntity
  8
001
370
    50
100
AcDbVertex
100
AcDb2dVertex
 10
59.657868
 20
78.287407
 30
0.0
  0
VERTEX
  5
123
330
120
100
AcDbEntity
  8
001
370
    50
100
AcDbVertex
100
AcDb2dVertex
 10
59.592505
 20
78.279621
 30
0.0
  0
VERTEX
  5
124
330
120
100
AcDbEntity
  8
001
370
    50
100
AcDbVertex
100
AcDb2dVertex
 10
59.502651
 20
78.265593
 30
0.0
  0
VERTEX
  5
125
330
120
100
AcDbEntity
  8
001
370
    50
100
AcDbVertex
100
AcDb2dVertex
 10
59.423581
 20
78.248565
 30
0.0
  0
VERTEX
  5
126
330
120
100
AcDbEntity
  8
001
370
    50
100
AcDbVertex
100
AcDb2dVertex
 10
59.353399
 20
78.229245
 30
0.0
  0
VERTEX
  5
127
330
120
100
AcDbEntity
  8
001
370
    50
100
AcDbVertex
100
AcDb2dVertex
 10
59.287489
 20
78.208166
 30
0.0
  0
VERTEX
  5
128
330
120
100
AcDbEntity
  8
001
370
    50
100
AcDbVertex
100
AcDb2dVertex
 10
59.215847
 20
78.179761
 30
0.0
  0
VERTEX
  5
129
330
120
100
AcDbEntity
  8
001
370
    50
100
AcDbVertex
100
AcDb2dVertex
 10
59.145128
 20
78.145867
 30
0.0
  0
VERTEX
  5
12A
330
120
100
AcDbEntity
  8
001
370
    50
100
AcDbVertex
100
AcDb2dVertex
 10
59.095282
 20
78.119042
 30
0.0
  0
SEQEND
  5
121
330
120
100
AcDbEntity
  8
001
370
    50
  0
LINE
  5
12B
330
1F
100
AcDbEntity
  8
001
370
    50
100
AcDbLine
 10
59.657868
 20
78.287407
 30
0.0
 11
60.453486
 21
78.359827
 31
0.0
  0
POLYLINE
  5
12C
330
1F
100
AcDbEntity
  8
001
370
    50
100
AcDb2dPolyline
 66
     1
 10
0.0
 20
0.0
 30
0.0
  0
VERTEX
  5
12E
330
12C
100
AcDbEntity
  8
001
370
    50
100
AcDbVertex
100
AcDb2dVertex
 10
61.016072
 20
78.293878
 30
0.0
  0
VERTEX
  5
12F
330
12C
100
AcDbEntity
  8
001
370
    50
100
AcDbVertex
100
AcDb2dVertex
 10
60.966046
 20
78.311673
 30
0.0
  0
VERTEX
  5
130
330
12C
100
AcDbEntity
  8
001
370
    50
100
AcDbVertex
100
AcDb2dVertex
 10
60.895507
 20
78.332649
 30
0.0
  0
VERTEX
  5
131
330
12C
100
AcDbEntity
  8
001
370
    50
100
AcDbVertex
100
AcDb2dVertex
 10
60.823484
 20
78.348119
 30
0.0
  0
VERTEX
  5
132
330
12C
100
AcDbEntity
  8
001
370
    50
100
AcDbVertex
100
AcDb2dVertex
 10
60.757955
 20
78.357092
 30
0.0
  0
VERTEX
  5
133
330
12C
100
AcDbEntity
  8
001
370
    50
100
AcDbVertex
100
AcDb2dVertex
 10
60.687368
 20
78.363624
 30
0.0
  0
VERTEX
  5
134
330
12C
100
AcDbEntity
  8
001
370
    50
100
AcDbVertex
100
AcDb2dVertex
 10
60.608703
 20
78.366269
 30
0.0
  0
VERTEX
  5
135
330
12C
100
AcDbEntity
  8
001
370
    50
100
AcDbVertex
100
AcDb2dVertex
 10
60.51862
 20
78.363944
 30
0.0
  0
VERTEX
  5
136
330
12C
100
AcDbEntity
  8
001
370
    50
100
AcDbVertex
100
AcDb2dVertex
 10
60.453486
 20
78.359827
 30
0.0
  0
SEQEND
  5
12D
330
12C
100
AcDbEntity
  8
001
370
    50
  0
LINE
  5
137
330
1F
100
AcDbEntity
  8
001
370
    50
100
AcDbLine
 10
61.016072
 20
78.293878
 30
0.0
 11
65.793578
 21
76.32683
 31
0.0
  0
POLYLINE
  5
138
330
1F
100
AcDbEntity
  8
001
370
    50
100
AcDb2dPolyline
 66
     1
 10
0.0
 20
0.0
 30
0.0
  0
VERTEX
  5
13A
330
138
100
AcDbEntity
  8
001
370
    50
100
AcDbVertex
100
AcDb2dVertex
 10
66.025164
 20
76.089162
 30
0.0
  0
VERTEX
  5
13B
330
138
100
AcDbEntity
  8
001
370
    50
100
AcDbVertex
100
AcDb2dVertex
 10
66.018172
 20
76.119043
 30
0.0
  0
VERTEX
  5
13C
330
138
100
AcDbEntity
  8
001
370
    50
100
AcDbVertex
100
AcDb2dVertex
 10
66.003509
 20
76.158781
 30
0.0
  0
VERTEX
  5
13D
330
138
100
AcDbEntity
  8
001
370
    50
100
AcDbVertex
100
AcDb2dVertex
 10
65.981864
 20
76.194549
 30
0.0
  0
VERTEX
  5
13E
330
138
100
AcDbEntity
  8
001
370
    50
100
AcDbVertex
100
AcDb2dVertex
 10
65.956537
 20
76.22296
 30
0.0
  0
VERTEX
  5
13F
330
138
100
AcDbEntity
  8
001
370
    50
100
AcDbVertex
100
AcDb2dVertex
 10
65.924513
 20
76.252075
 30
0.0
  0
VERTEX
  5
140
330
138
100
AcDbEntity
  8
001
370
    50
100
AcDbVertex
100
AcDb2dVertex
 10
65.885787
 20
76.279595
 30
0.0
  0
VERTEX
  5
141
330
138
100
AcDbEntity
  8
001
370
    50
100
AcDbVertex
100
AcDb2dVertex
 10
65.833212
 20
76.308475
 30
0.0
  0
VERTEX
  5
142
330
138
100
AcDbEntity
  8
001
370
    50
100
AcDbVertex
100
AcDb2dVertex
 10
65.793578
 20
76.32683
 30
0.0
  0
SEQEND
  5
139
330
138
100
AcDbEntity
  8
001
370
    50
  0
POLYLINE
  5
143
330
1F
100
AcDbEntity
  8
001
370
    50
100
AcDb2dPolyline
 66
     1
 10
0.0
 20
0.0
 30
0.0
  0
VERTEX
  5
145
330
143
100
AcDbEntity
  8
001
370
    50
100
AcDbVertex
100
AcDb2dVertex
 10
59.325468
 20
81.026281
 30
0.0
  0
VERTEX
  5
146
330
143
100
AcDbEntity
  8
001
370
    50
100
AcDbVertex
100
AcDb2dVertex
 10
59.260104
 20
81.018496
 30
0.0
  0
VERTEX
  5
147
330
143
100
AcDbEntity
  8
001
370
    50
100
AcDbVertex
100
AcDb2dVertex
 10
59.17025
 20
81.004467
 30
0.0
  0
VERTEX
  5
148
330
143
100
AcDbEntity
  8
001
370
    50
100
AcDbVertex
100
AcDb2dVertex
 10
59.091181
 20
80.987439
 30
0.0
  0
VERTEX
  5
149
330
143
100
AcDbEntity
  8
001
370
    50
100
AcDbVertex
100
AcDb2dVertex
 10
59.020998
 20
80.96812
 30
0.0
  0
VERTEX
  5
14A
330
143
100
AcDbEntity
  8
001
370
    50
100
AcDbVertex
100
AcDb2dVertex
 10
58.955089
 20
80.947041
 30
0.0
  0
VERTEX
  5
14B
330
143
100
AcDbEntity
  8
001
370
    50
100
AcDbVertex
100
AcDb2dVertex
 10
58.883446
 20
80.918635
 30
0.0
  0
VERTEX
  5
14C
330
143
100
AcDbEntity
  8
001
370
    50
100
AcDbVertex
100
AcDb2dVertex
 10
58.812728
 20
80.884741
 30
0.0
  0
VERTEX
  5
14D
330
143
100
AcDbEntity
  8
001
370
    50
100
AcDbVertex
100
AcDb2dVertex
 10
58.762881
 20
80.857916
 30
0.0
  0
SEQEND
  5
144
330
143
100
AcDbEntity
  8
001
370
    50
  0
LINE
  5
14E
330
1F
100
AcDbEntity
  8
001
370
    50
100
AcDbLine
 10
59.325468
 20
81.026281
 30
0.0
 11
60.121085
 21
81.098701
 31
0.0
  0
POLYLINE
  5
14F
330
1F
100
AcDbEntity
  8
001
370
    50
100
AcDb2dPolyline
 66
     1
 10
0.0
 20
0.0
 30
0.0
  0
VERTEX
  5
151
330
14F
100
AcDbEntity
  8
001
370
    50
100
AcDbVertex
100
AcDb2dVertex
 10
60.683672
 20
81.032752
 30
0.0
  0
VERTEX
  5
152
330
14F
100
AcDbEntity
  8
001
370
    50
100
AcDbVertex
100
AcDb2dVertex
 10
60.633646
 20
81.050547
 30
0.0
  0
VERTEX
  5
153
330
14F
100
AcDbEntity
  8
001
370
    50
100
AcDbVertex
100
AcDb2dVertex
 10
60.563107
 20
81.071523
 30
0.0
  0
VERTEX
  5
154
330
14F
100
AcDbEntity
  8
001
370
    50
100
AcDbVertex
100
AcDb2dVertex
 10
60.491084
 20
81.086994
 30
0.0
  0
VERTEX
  5
155
330
14F
100
AcDbEntity
  8
001
370
    50
100
AcDbVertex
100
AcDb2dVertex
 10
60.425555
 20
81.095966
 30
0.0
  0
VERTEX
  5
156
330
14F
100
AcDbEntity
  8
001
370
    50
100
AcDbVertex
100
AcDb2dVertex
 10
60.354967
 20
81.102498
 30
0.0
  0
VERTEX
  5
157
330
14F
100
AcDbEntity
  8
001
370
    50
100
AcDbVertex
100
AcDb2dVertex
 10
60.276303
 20
81.105143
 30
0.0
  0
VERTEX
  5
158
330
14F
100
AcDbEntity
  8
001
370
    50
100
AcDbVertex
100
AcDb2dVertex
 10
60.186219
 20
81.102818
 30
0.0
  0
VERTEX
  5
159
330
14F
100
AcDbEntity
  8
001
370
    50
100
AcDbVertex
100
AcDb2dVertex
 10
60.121085
 20
81.098701
 30
0.0
  0
SEQEND
  5
150
330
14F
100
AcDbEntity
  8
001
370
    50
  0
LINE
  5
15A
330
1F
100
AcDbEntity
  8
001
370
    50
100
AcDbLine
 10
53.985376
 20
78.021143
 30
0.0
 11
58.762881
 21
80.857916
 31
0.0
  0
LINE
  5
15B
330
1F
100
AcDbEntity
  8
001
370
    50
100
AcDbLine
 10
60.683672
 20
81.032752
 30
0.0
 11
65.461177
 21
79.065704
 31
0.0
  0
POLYLINE
  5
15C
330
1F
100
AcDbEntity
  8
001
370
    50
100
AcDb2dPolyline
 66
     1
 10
0.0
 20
0.0
 30
0.0
  0
VERTEX
  5
15E
330
15C
100
AcDbEntity
  8
001
370
    50
100
AcDbVertex
100
AcDb2dVertex
 10
53.985376
 20
78.021143
 30
0.0
  0
VERTEX
  5
15F
330
15C
100
AcDbEntity
  8
001
370
    50
100
AcDbVertex
100
AcDb2dVertex
 10
53.942607
 20
77.993368
 30
0.0
  0
VERTEX
  5
160
330
15C
100
AcDbEntity
  8
001
370
    50
100
AcDbVertex
100
AcDb2dVertex
 10
53.886431
 20
77.951522
 30
0.0
  0
VERTEX
  5
161
330
15C
100
AcDbEntity
  8
001
370
    50
100
AcDbVertex
100
AcDb2dVertex
 10
53.845846
 20
77.913848
 30
0.0
  0
VERTEX
  5
162
330
15C
100
AcDbEntity
  8
001
370
    50
100
AcDbVertex
100
AcDb2dVertex
 10
53.812908
 20
77.875675
 30
0.0
  0
VERTEX
  5
163
330
15C
100
AcDbEntity
  8
001
370
    50
100
AcDbVertex
100
AcDb2dVertex
 10
53.787756
 20
77.840051
 30
0.0
  0
VERTEX
  5
164
330
15C
100
AcDbEntity
  8
001
370
    50
100
AcDbVertex
100
AcDb2dVertex
 10
53.767632
 20
77.796516
 30
0.0
  0
VERTEX
  5
165
330
15C
100
AcDbEntity
  8
001
370
    50
100
AcDbVertex
100
AcDb2dVertex
 10
53.756317
 20
77.750874
 30
0.0
  0
VERTEX
  5
166
330
15C
100
AcDbEntity
  8
001
370
    50
100
AcDbVertex
100
AcDb2dVertex
 10
53.752345
 20
77.717089
 30
0.0
  0
SEQEND
  5
15D
330
15C
100
AcDbEntity
  8
001
370
    50
  0
LINE
  5
167
330
1F
100
AcDbEntity
  8
001
370
    50
100
AcDbLine
 10
53.752345
 20
77.317089
 30
0.0
 11
53.752345
 21
77.717089
 31
0.0
  0
LINE
  5
168
330
1F
100
AcDbEntity
  8
001
370
    50
100
AcDbLine
 10
66.025164
 20
76.089162
 30
0.0
 11
65.692763
 21
78.828037
 31
0.0
  0
POLYLINE
  5
169
330
1F
100
AcDbEntity
  8
001
370
    50
100
AcDb2dPolyline
 66
     1
 10
0.0
 20
0.0
 30
0.0
  0
VERTEX
  5
16B
330
169
100
AcDbEntity
  8
001
370
    50
100
AcDbVertex
100
AcDb2dVertex
 10
65.692763
 20
78.828037
 30
0.0
  0
VERTEX
  5
16C
330
169
100
AcDbEntity
  8
001
370
    50
100
AcDbVertex
100
AcDb2dVertex
 10
65.685772
 20
78.857917
 30
0.0
  0
VERTEX
  5
16D
330
169
100
AcDbEntity
  8
001
370
    50
100
AcDbVertex
100
AcDb2dVertex
 10
65.671109
 20
78.897656
 30
0.0
  0
VERTEX
  5
16E
330
169
100
AcDbEntity
  8
001
370
    50
100
AcDbVertex
100
AcDb2dVertex
 10
65.649463
 20
78.933423
 30
0.0
  0
VERTEX
  5
16F
330
169
100
AcDbEntity
  8
001
370
    50
100
AcDbVertex
100
AcDb2dVertex
 10
65.624137
 20
78.961834
 30
0.0
  0
VERTEX
  5
170
330
169
100
AcDbEntity
  8
001
370
    50
100
AcDbVertex
100
AcDb2dVertex
 10
65.592112
 20
78.990949
 30
0.0
  0
VERTEX
  5
171
330
169
100
AcDbEntity
  8
001
370
    50
100
AcDbVertex
100
AcDb2dVertex
 10
65.553387
 20
79.018469
 30
0.0
  0
VERTEX
  5
172
330
169
100
AcDbEntity
  8
001
370
    50
100
AcDbVertex
100
AcDb2dVertex
 10
65.500811
 20
79.047349
 30
0.0
  0
VERTEX
  5
173
330
169
100
AcDbEntity
  8
001
370
    50
100
AcDbVertex
100
AcDb2dVertex
 10
65.461177
 20
79.065704
 30
0.0
  0
SEQEND
  5
16A
330
169
100
AcDbEntity
  8
001
370
    50
  0
POLYLINE
  5
174
330
1F
100
AcDbEntity
  8
001
370
    50
100
AcDb2dPolyline
 66
     1
 10
0.0
 20
0.0
 30
0.0
  0
VERTEX
  5
176
330
174
100
AcDbEntity
  8
001
370
    50
100
AcDbVertex
100
AcDb2dVertex
 10
54.084745
 20
74.578215
 30
0.0
  0
VERTEX
  5
177
330
174
100
AcDbEntity
  8
001
370
    50
100
AcDbVertex
100
AcDb2dVertex
 10
54.084813
 20
74.573328
 30
0.0
  0
VERTEX
  5
178
330
174
100
AcDbEntity
  8
001
370
    50
100
AcDbVertex
100
AcDb2dVertex
 10
54.085107
 20
74.566194
 30
0.0
  0
VERTEX
  5
179
330
174
100
AcDbEntity
  8
001
370
    50
100
AcDbVertex
100
AcDb2dVertex
 10
54.085671
 20
74.559096
 30
0.0
  0
VERTEX
  5
17A
330
174
100
AcDbEntity
  8
001
370
    50
100
AcDbVertex
100
AcDb2dVertex
 10
54.08619
 20
74.55425
 30
0.0
  0
SEQEND
  5
175
330
174
100
AcDbEntity
  8
001
370
    50
  0
POLYLINE
  5
17B
330
1F
100
AcDbEntity
  8
001
370
    50
100
AcDb2dPolyline
 66
     1
 10
0.0
 20
0.0
 30
0.0
  0
VERTEX
  5
17D
330
17B
100
AcDbEntity
  8
001
370
    50
100
AcDbVertex
100
AcDb2dVertex
 10
53.752345
 20
77.317089
 30
0.0
  0
VERTEX
  5
17E
330
17B
100
AcDbEntity
  8
001
370
    50
100
AcDbVertex
100
AcDb2dVertex
 10
53.752412
 20
77.312202
 30
0.0
  0
VERTEX
  5
17F
330
17B
100
AcDbEntity
  8
001
370
    50
100
AcDbVertex
100
AcDb2dVertex
 10
53.752706
 20
77.305068
 30
0.0
  0
VERTEX
  5
180
330
17B
100
AcDbEntity
  8
001
370
    50
100
AcDbVertex
100
AcDb2dVertex
 10
53.75327
 20
77.29797
 30
0.0
  0
VERTEX
  5
181
330
17B
100
AcDbEntity
  8
001
370
    50
100
AcDbVertex
100
AcDb2dVertex
 10
53.75379
 20
77.293124
 30
0.0
  0
SEQEND
  5
17C
330
17B
100
AcDbEntity
  8
001
370
    50
  0
LINE
  5
182
330
1F
100
AcDbEntity
  8
001
370
    50
100
AcDbLine
 10
53.75379
 20
77.293124
 30
0.0
 11
54.08619
 21
74.55425
 31
0.0
  0
POLYLINE
  5
183
330
1F
100
AcDbEntity
  8
001
370
    50
100
AcDb2dPolyline
 66
     1
 10
0.0
 20
0.0
 30
0.0
  0
VERTEX
  5
185
330
183
100
AcDbEntity
  8
001
370
    50
100
AcDbVertex
100
AcDb2dVertex
 10
53.752345
 20
72.120936
 30
0.0
  0
VERTEX
  5
186
330
183
100
AcDbEntity
  8
001
370
    50
100
AcDbVertex
100
AcDb2dVertex
 10
53.756317
 20
72.087151
 30
0.0
  0
VERTEX
  5
187
330
183
100
AcDbEntity
  8
001
370
    50
100
AcDbVertex
100
AcDb2dVertex
 10
53.767632
 20
72.041509
 30
0.0
  0
VERTEX
  5
188
330
183
100
AcDbEntity
  8
001
370
    50
100
AcDbVertex
100
AcDb2dVertex
 10
53.787756
 20
71.997974
 30
0.0
  0
VERTEX
  5
189
330
183
100
AcDbEntity
  8
001
370
    50
100
AcDbVertex
100
AcDb2dVertex
 10
53.812908
 20
71.96235
 30
0.0
  0
VERTEX
  5
18A
330
183
100
AcDbEntity
  8
001
370
    50
100
AcDbVertex
100
AcDb2dVertex
 10
53.845846
 20
71.924177
 30
0.0
  0
VERTEX
  5
18B
330
183
100
AcDbEntity
  8
001
370
    50
100
AcDbVertex
100
AcDb2dVertex
 10
53.886431
 20
71.886503
 30
0.0
  0
VERTEX
  5
18C
330
183
100
AcDbEntity
  8
001
370
    50
100
AcDbVertex
100
AcDb2dVertex
 10
53.942607
 20
71.844658
 30
0.0
  0
VERTEX
  5
18D
330
183
100
AcDbEntity
  8
001
370
    50
100
AcDbVertex
100
AcDb2dVertex
 10
53.985376
 20
71.816883
 30
0.0
  0
SEQEND
  5
184
330
183
100
AcDbEntity
  8
001
370
    50
  0
LINE
  5
18E
330
1F
100
AcDbEntity
  8
001
370
    50
100
AcDbLine
 10
53.752345
 20
72.120936
 30
0.0
 11
53.752345
 21
72.520936
 31
0.0
  0
POLYLINE
  5
18F
330
1F
100
AcDbEntity
  8
001
370
    50
100
AcDb2dPolyline
 66
     1
 10
0.0
 20
0.0
 30
0.0
  0
VERTEX
  5
191
330
18F
100
AcDbEntity
  8
001
370
    50
100
AcDbVertex
100
AcDb2dVertex
 10
53.75379
 20
72.544901
 30
0.0
  0
VERTEX
  5
192
330
18F
100
AcDbEntity
  8
001
370
    50
100
AcDbVertex
100
AcDb2dVertex
 10
53.75327
 20
72.540055
 30
0.0
  0
VERTEX
  5
193
330
18F
100
AcDbEntity
  8
001
370
    50
100
AcDbVertex
100
AcDb2dVertex
 10
53.752706
 20
72.532957
 30
0.0
  0
VERTEX
  5
194
330
18F
100
AcDbEntity
  8
001
370
    50
100
AcDbVertex
100
AcDb2dVertex
 10
53.752412
 20
72.525823
 30
0.0
  0
VERTEX
  5
195
330
18F
100
AcDbEntity
  8
001
370
    50
100
AcDbVertex
100
AcDb2dVertex
 10
53.752345
 20
72.520936
 30
0.0
  0
SEQEND
  5
190
330
18F
100
AcDbEntity
  8
001
370
    50
  0
LINE
  5
196
330
1F
100
AcDbEntity
  8
001
370
    50
100
AcDbLine
 10
57.932646
 20
64.328799
 30
0.0
 11
67.929255
 21
63.418878
 31
0.0
  0
LINE
  5
197
330
1F
100
AcDbEntity
  8
001
370
    50
100
AcDbLine
 10
54.252345
 20
65.28482
 30
0.0
 11
57.932646
 21
64.328799
 31
0.0
  0
POLYLINE
  5
198
330
1F
100
AcDbEntity
  8
001
370
    50
100
AcDb2dPolyline
 66
     1
 10
0.0
 20
0.0
 30
0.0
  0
VERTEX
  5
19A
330
198
100
AcDbEntity
  8
001
370
    50
100
AcDbVertex
100
AcDb2dVertex
 10
54.544005
 20
66.425419
 30
0.0
  0
VERTEX
  5
19B
330
198
100
AcDbEntity
  8
001
370
    50
100
AcDbVertex
100
AcDb2dVertex
 10
54.454807
 20
66.376456
 30
0.0
  0
VERTEX
  5
19C
330
198
100
AcDbEntity
  8
001
370
    50
100
AcDbVertex
100
AcDb2dVertex
 10
54.373324
 20
66.317647
 30
0.0
  0
VERTEX
  5
19D
330
198
100
AcDbEntity
  8
001
370
    50
100
AcDbVertex
100
AcDb2dVertex
 10
54.33219
 20
66.27509
 30
0.0
  0
VERTEX
  5
19E
330
198
100
AcDbEntity
  8
001
370
    50
100
AcDbVertex
100
AcDb2dVertex
 10
54.297738
 20
66.226538
 30
0.0
  0
VERTEX
  5
19F
330
198
100
AcDbEntity
  8
001
370
    50
100
AcDbVertex
100
AcDb2dVertex
 10
54.273004
 20
66.176478
 30
0.0
  0
VERTEX
  5
1A0
330
198
100
AcDbEntity
  8
001
370
    50
100
AcDbVertex
100
AcDb2dVertex
 10
54.257864
 20
66.12318
 30
0.0
  0
VERTEX
  5
1A1
330
198
100
AcDbEntity
  8
001
370
    50
100
AcDbVertex
100
AcDb2dVertex
 10
54.25426
 20
66.094211
 30
0.0
  0
VERTEX
  5
1A2
330
198
100
AcDbEntity
  8
001
370
    50
100
AcDbVertex
100
AcDb2dVertex
 10
54.252345
 20
66.064975
 30
0.0
  0
SEQEND
  5
199
330
198
100
AcDbEntity
  8
001
370
    50
  0
LINE
  5
1A3
330
1F
100
AcDbEntity
  8
001
370
    50
100
AcDbLine
 10
59.141121
 20
68.426041
 30
0.0
 11
54.544005
 21
66.425419
 31
0.0
  0
POLYLINE
  5
1A4
330
1F
100
AcDbEntity
  8
001
370
    50
100
AcDb2dPolyline
 66
     1
 10
0.0
 20
0.0
 30
0.0
  0
VERTEX
  5
1A6
330
1A4
100
AcDbEntity
  8
001
370
    50
100
AcDbVertex
100
AcDb2dVertex
 10
59.849461
 20
68.505232
 30
0.0
  0
VERTEX
  5
1A7
330
1A4
100
AcDbEntity
  8
001
370
    50
100
AcDbVertex
100
AcDb2dVertex
 10
59.696183
 20
68.513649
 30
0.0
  0
VERTEX
  5
1A8
330
1A4
100
AcDbEntity
  8
001
370
    50
100
AcDbVertex
100
AcDb2dVertex
 10
59.542751
 20
68.513697
 30
0.0
  0
VERTEX
  5
1A9
330
1A4
100
AcDbEntity
  8
001
370
    50
100
AcDbVertex
100
AcDb2dVertex
 10
59.402886
 20
68.499923
 30
0.0
  0
VERTEX
  5
1AA
330
1A4
100
AcDbEntity
  8
001
370
    50
100
AcDbVertex
100
AcDb2dVertex
 10
59.265991
 20
68.469399
 30
0.0
  0
VERTEX
  5
1AB
330
1A4
100
AcDbEntity
  8
001
370
    50
100
AcDbVertex
100
AcDb2dVertex
 10
59.203212
 20
68.448806
 30
0.0
  0
VERTEX
  5
1AC
330
1A4
100
AcDbEntity
  8
001
370
    50
100
AcDbVertex
100
AcDb2dVertex
 10
59.141121
 20
68.426041
 30
0.0
  0
SEQEND
  5
1A5
330
1A4
100
AcDbEntity
  8
001
370
    50
  0
POLYLINE
  5
1AD
330
1F
100
AcDbEntity
  8
001
370
    50
100
AcDb2dPolyline
 66
     1
 10
0.0
 20
0.0
 30
0.0
  0
VERTEX
  5
1AF
330
1AD
100
AcDbEntity
  8
001
370
    50
100
AcDbVertex
100
AcDb2dVertex
 10
60.238131
 20
68.461497
 30
0.0
  0
VERTEX
  5
1B0
330
1AD
100
AcDbEntity
  8
001
370
    50
100
AcDbVertex
100
AcDb2dVertex
 10
60.159197
 20
68.470382
 30
0.0
  0
VERTEX
  5
1B1
330
1AD
100
AcDbEntity
  8
001
370
    50
100
AcDbVertex
100
AcDb2dVertex
 10
60.043831
 20
68.483366
 30
0.0
  0
VERTEX
  5
1B2
330
1AD
100
AcDbEntity
  8
001
370
    50
100
AcDbVertex
100
AcDb2dVertex
 10
59.928424
 20
68.49635
 30
0.0
  0
VERTEX
  5
1B3
330
1AD
100
AcDbEntity
  8
001
370
    50
100
AcDbVertex
100
AcDb2dVertex
 10
59.849461
 20
68.505232
 30
0.0
  0
SEQEND
  5
1AE
330
1AD
100
AcDbEntity
  8
001
370
    50
  0
POLYLINE
  5
1B4
330
1F
100
AcDbEntity
  8
001
370
    50
100
AcDb2dPolyline
 66
     1
 10
0.0
 20
0.0
 30
0.0
  0
VERTEX
  5
1B6
330
1B4
100
AcDbEntity
  8
001
370
    50
100
AcDbVertex
100
AcDb2dVertex
 10
60.945238
 20
68.223175
 30
0.0
  0
VERTEX
  5
1B7
330
1B4
100
AcDbEntity
  8
001
370
    50
100
AcDbVertex
100
AcDb2dVertex
 10
60.810775
 20
68.295274
 30
0.0
  0
VERTEX
  5
1B8
330
1B4
100
AcDbEntity
  8
001
370
    50
100
AcDbVertex
100
AcDb2dVertex
 10
60.672612
 20
68.358823
 30
0.0
  0
VERTEX
  5
1B9
330
1B4
100
AcDbEntity
  8
001
370
    50
100
AcDbVertex
100
AcDb2dVertex
 10
60.509111
 20
68.412195
 30
0.0
  0
VERTEX
  5
1BA
330
1B4
100
AcDbEntity
  8
001
370
    50
100
AcDbVertex
100
AcDb2dVertex
 10
60.340339
 20
68.447158
 30
0.0
  0
VERTEX
  5
1BB
330
1B4
100
AcDbEntity
  8
001
370
    50
100
AcDbVertex
100
AcDb2dVertex
 10
60.28926
 20
68.454666
 30
0.0
  0
VERTEX
  5
1BC
330
1B4
100
AcDbEntity
  8
001
370
    50
100
AcDbVertex
100
AcDb2dVertex
 10
60.238131
 20
68.461497
 30
0.0
  0
SEQEND
  5
1B5
330
1B4
100
AcDbEntity
  8
001
370
    50
  0
LINE
  5
1BD
330
1F
100
AcDbEntity
  8
001
370
    50
100
AcDbLine
 10
61.829504
 20
67.64125
 30
0.0
 11
60.945238
 21
68.223175
 31
0.0
  0
POLYLINE
  5
1BE
330
1F
100
AcDbEntity
  8
001
370
    50
100
AcDb2dPolyline
 66
     1
 10
0.0
 20
0.0
 30
0.0
  0
VERTEX
  5
1C0
330
1BE
100
AcDbEntity
  8
001
370
    50
100
AcDbVertex
100
AcDb2dVertex
 10
63.824991
 20
66.259138
 30
0.0
  0
VERTEX
  5
1C1
330
1BE
100
AcDbEntity
  8
001
370
    50
100
AcDbVertex
100
AcDb2dVertex
 10
63.823572
 20
66.269997
 30
0.0
  0
VERTEX
  5
1C2
330
1BE
100
AcDbEntity
  8
001
370
    50
100
AcDbVertex
100
AcDb2dVertex
 10
63.821221
 20
66.285827
 30
0.0
  0
VERTEX
  5
1C3
330
1BE
100
AcDbEntity
  8
001
370
    50
100
AcDbVertex
100
AcDb2dVertex
 10
63.818462
 20
66.301725
 30
0.0
  0
VERTEX
  5
1C4
330
1BE
100
AcDbEntity
  8
001
370
    50
100
AcDbVertex
100
AcDb2dVertex
 10
63.816385
 20
66.31257
 30
0.0
  0
SEQEND
  5
1BF
330
1BE
100
AcDbEntity
  8
001
370
    50
  0
POLYLINE
  5
1C5
330
1F
100
AcDbEntity
  8
001
370
    50
100
AcDb2dPolyline
 66
     1
 10
0.0
 20
0.0
 30
0.0
  0
VERTEX
  5
1C7
330
1C5
100
AcDbEntity
  8
001
370
    50
100
AcDbVertex
100
AcDb2dVertex
 10
67.926064
 20
63.421234
 30
0.0
  0
VERTEX
  5
1C8
330
1C5
100
AcDbEntity
  8
001
370
    50
100
AcDbVertex
100
AcDb2dVertex
 10
66.916698
 20
64.152476
 30
0.0
  0
VERTEX
  5
1C9
330
1C5
100
AcDbEntity
  8
001
370
    50
100
AcDbVertex
100
AcDb2dVertex
 10
65.901974
 20
64.876105
 30
0.0
  0
VERTEX
  5
1CA
330
1C5
100
AcDbEntity
  8
001
370
    50
100
AcDbVertex
100
AcDb2dVertex
 10
64.861944
 20
65.598267
 30
0.0
  0
VERTEX
  5
1CB
330
1C5
100
AcDbEntity
  8
001
370
    50
100
AcDbVertex
100
AcDb2dVertex
 10
63.816385
 20
66.31257
 30
0.0
  0
SEQEND
  5
1C6
330
1C5
100
AcDbEntity
  8
001
370
    50
  0
LINE
  5
1CC
330
1F
100
AcDbEntity
  8
001
370
    50
100
AcDbLine
 10
67.929255
 20
63.418878
 30
0.0
 11
67.926064
 21
63.421234
 31
0.0
  0
POLYLINE
  5
1CD
330
1F
100
AcDbEntity
  8
001
370
    50
100
AcDb2dPolyline
 66
     1
 10
0.0
 20
0.0
 30
0.0
  0
VERTEX
  5
1CF
330
1CD
100
AcDbEntity
  8
001
370
    50
100
AcDbVertex
100
AcDb2dVertex
 10
60.945238
 20
78.166289
 30
0.0
  0
VERTEX
  5
1D0
330
1CD
100
AcDbEntity
  8
001
370
    50
100
AcDbVertex
100
AcDb2dVertex
 10
60.808643
 20
78.207037
 30
0.0
  0
VERTEX
  5
1D1
330
1CD
100
AcDbEntity
  8
001
370
    50
100
AcDbVertex
100
AcDb2dVertex
 10
60.670275
 20
78.238942
 30
0.0
  0
VERTEX
  5
1D2
330
1CD
100
AcDbEntity
  8
001
370
    50
100
AcDbVertex
100
AcDb2dVertex
 10
60.508979
 20
78.256307
 30
0.0
  0
VERTEX
  5
1D3
330
1CD
100
AcDbEntity
  8
001
370
    50
100
AcDbVertex
100
AcDb2dVertex
 10
60.346296
 20
78.255967
 30
0.0
  0
VERTEX
  5
1D4
330
1CD
100
AcDbEntity
  8
001
370
    50
100
AcDbVertex
100
AcDb2dVertex
 10
60.292163
 20
78.252911
 30
0.0
  0
VERTEX
  5
1D5
330
1CD
100
AcDbEntity
  8
001
370
    50
100
AcDbVertex
100
AcDb2dVertex
 10
60.238131
 20
78.249164
 30
0.0
  0
SEQEND
  5
1CE
330
1CD
100
AcDbEntity
  8
001
370
    50
  0
POLYLINE
  5
1D6
330
1F
100
AcDbEntity
  8
001
370
    50
100
AcDb2dPolyline
 66
     1
 10
0.0
 20
0.0
 30
0.0
  0
VERTEX
  5
1D8
330
1D6
100
AcDbEntity
  8
001
370
    50
100
AcDbVertex
100
AcDb2dVertex
 10
59.849461
 20
78.214157
 30
0.0
  0
VERTEX
  5
1D9
330
1D6
100
AcDbEntity
  8
001
370
    50
100
AcDbVertex
100
AcDb2dVertex
 10
59.682716
 20
78.189472
 30
0.0
  0
VERTEX
  5
1DA
330
1D6
100
AcDbEntity
  8
001
370
    50
100
AcDbVertex
100
AcDb2dVertex
 10
59.517706
 20
78.155928
 30
0.0
  0
VERTEX
  5
1DB
330
1D6
100
AcDbEntity
  8
001
370
    50
100
AcDbVertex
100
AcDb2dVertex
 10
59.367207
 20
78.109878
 30
0.0
  0
VERTEX
  5
1DC
330
1D6
100
AcDbEntity
  8
001
370
    50
100
AcDbVertex
100
AcDb2dVertex
 10
59.222938
 20
78.047346
 30
0.0
  0
VERTEX
  5
1DD
330
1D6
100
AcDbEntity
  8
001
370
    50
100
AcDbVertex
100
AcDb2dVertex
 10
59.181823
 20
78.025653
 30
0.0
  0
VERTEX
  5
1DE
330
1D6
100
AcDbEntity
  8
001
370
    50
100
AcDbVertex
100
AcDb2dVertex
 10
59.141121
 20
78.003192
 30
0.0
  0
SEQEND
  5
1D7
330
1D6
100
AcDbEntity
  8
001
370
    50
  0
POLYLINE
  5
1DF
330
1F
100
AcDbEntity
  8
001
370
    50
100
AcDb2dPolyline
 66
     1
 10
0.0
 20
0.0
 30
0.0
  0
VERTEX
  5
1E1
330
1DF
100
AcDbEntity
  8
001
370
    50
100
AcDbVertex
100
AcDb2dVertex
 10
60.238131
 20
78.249164
 30
0.0
  0
VERTEX
  5
1E2
330
1DF
100
AcDbEntity
  8
001
370
    50
100
AcDbVertex
100
AcDb2dVertex
 10
60.159183
 20
78.242056
 30
0.0
  0
VERTEX
  5
1E3
330
1DF
100
AcDbEntity
  8
001
370
    50
100
AcDbVertex
100
AcDb2dVertex
 10
60.043798
 20
78.231665
 30
0.0
  0
VERTEX
  5
1E4
330
1DF
100
AcDbEntity
  8
001
370
    50
100
AcDbVertex
100
AcDb2dVertex
 10
59.92841
 20
78.22127
 30
0.0
  0
VERTEX
  5
1E5
330
1DF
100
AcDbEntity
  8
001
370
    50
100
AcDbVertex
100
AcDb2dVertex
 10
59.849461
 20
78.214157
 30
0.0
  0
SEQEND
  5
1E0
330
1DF
100
AcDbEntity
  8
001
370
    50
  0
LINE
  5
1E6
330
1F
100
AcDbEntity
  8
001
370
    50
100
AcDbLine
 10
67.926064
 20
77.654912
 30
0.0
 11
66.247483
 21
78.382239
 31
0.0
  0
POLYLINE
  5
1E7
330
1F
100
AcDbEntity
  8
001
370
    50
100
AcDb2dPolyline
 66
     1
 10
0.0
 20
0.0
 30
0.0
  0
VERTEX
  5
1E9
330
1E7
100
AcDbEntity
  8
001
370
    50
100
AcDbVertex
100
AcDb2dVertex
 10
63.816385
 20
66.31257
 30
0.0
  0
VERTEX
  5
1EA
330
1E7
100
AcDbEntity
  8
001
370
    50
100
AcDbVertex
100
AcDb2dVertex
 10
63.764481
 20
66.616461
 30
0.0
  0
VERTEX
  5
1EB
330
1E7
100
AcDbEntity
  8
001
370
    50
100
AcDbVertex
100
AcDb2dVertex
 10
63.702718
 20
66.918349
 30
0.0
  0
VERTEX
  5
1EC
330
1E7
100
AcDbEntity
  8
001
370
    50
100
AcDbVertex
100
AcDb2dVertex
 10
63.624034
 20
67.211226
 30
0.0
  0
VERTEX
  5
1ED
330
1E7
100
AcDbEntity
  8
001
370
    50
100
AcDbVertex
100
AcDb2dVertex
 10
63.524302
 20
67.497636
 30
0.0
  0
VERTEX
  5
1EE
330
1E7
100
AcDbEntity
  8
001
370
    50
100
AcDbVertex
100
AcDb2dVertex
 10
63.471643
 20
67.624028
 30
0.0
  0
VERTEX
  5
1EF
330
1E7
100
AcDbEntity
  8
001
370
    50
100
AcDbVertex
100
AcDb2dVertex
 10
63.412907
 20
67.747631
 30
0.0
  0
VERTEX
  5
1F0
330
1E7
100
AcDbEntity
  8
001
370
    50
100
AcDbVertex
100
AcDb2dVertex
 10
63.349188
 20
67.86326
 30
0.0
  0
VERTEX
  5
1F1
330
1E7
100
AcDbEntity
  8
001
370
    50
100
AcDbVertex
100
AcDb2dVertex
 10
63.277247
 20
67.974114
 30
0.0
  0
VERTEX
  5
1F2
330
1E7
100
AcDbEntity
  8
001
370
    50
100
AcDbVertex
100
AcDb2dVertex
 10
63.183066
 20
68.092153
 30
0.0
  0
VERTEX
  5
1F3
330
1E7
100
AcDbEntity
  8
001
370
    50
100
AcDbVertex
100
AcDb2dVertex
 10
63.072126
 20
68.194707
 30
0.0
  0
VERTEX
  5
1F4
330
1E7
100
AcDbEntity
  8
001
370
    50
100
AcDbVertex
100
AcDb2dVertex
 10
62.957027
 20
68.265996
 30
0.0
  0
VERTEX
  5
1F5
330
1E7
100
AcDbEntity
  8
001
370
    50
100
AcDbVertex
100
AcDb2dVertex
 10
62.829616
 20
68.308823
 30
0.0
  0
VERTEX
  5
1F6
330
1E7
100
AcDbEntity
  8
001
370
    50
100
AcDbVertex
100
AcDb2dVertex
 10
62.721752
 20
68.317031
 30
0.0
  0
VERTEX
  5
1F7
330
1E7
100
AcDbEntity
  8
001
370
    50
100
AcDbVertex
100
AcDb2dVertex
 10
62.614184
 20
68.302955
 30
0.0
  0
VERTEX
  5
1F8
330
1E7
100
AcDbEntity
  8
001
370
    50
100
AcDbVertex
100
AcDb2dVertex
 10
62.530025
 20
68.277087
 30
0.0
  0
VERTEX
  5
1F9
330
1E7
100
AcDbEntity
  8
001
370
    50
100
AcDbVertex
100
AcDb2dVertex
 10
62.449869
 20
68.240886
 30
0.0
  0
VERTEX
  5
1FA
330
1E7
100
AcDbEntity
  8
001
370
    50
100
AcDbVertex
100
AcDb2dVertex
 10
62.370976
 20
68.195019
 30
0.0
  0
VERTEX
  5
1FB
330
1E7
100
AcDbEntity
  8
001
370
    50
100
AcDbVertex
100
AcDb2dVertex
 10
62.29613
 20
68.142716
 30
0.0
  0
VERTEX
  5
1FC
330
1E7
100
AcDbEntity
  8
001
370
    50
100
AcDbVertex
100
AcDb2dVertex
 10
62.168079
 20
68.034928
 30
0.0
  0
VERTEX
  5
1FD
330
1E7
100
AcDbEntity
  8
001
370
    50
100
AcDbVertex
100
AcDb2dVertex
 10
62.050922
 20
67.915315
 30
0.0
  0
VERTEX
  5
1FE
330
1E7
100
AcDbEntity
  8
001
370
    50
100
AcDbVertex
100
AcDb2dVertex
 10
61.937464
 20
67.780556
 30
0.0
  0
VERTEX
  5
1FF
330
1E7
100
AcDbEntity
  8
001
370
    50
100
AcDbVertex
100
AcDb2dVertex
 10
61.829504
 20
67.64125
 30
0.0
  0
SEQEND
  5
1E8
330
1E7
100
AcDbEntity
  8
001
370
    50
  0
LINE
  5
200
330
1F
100
AcDbEntity
  8
001
370
    50
100
AcDbLine
 10
66.599803
 20
75.839862
 30
0.0
 11
60.945238
 21
78.166289
 31
0.0
  0
POLYLINE
  5
201
330
1F
100
AcDbEntity
  8
001
370
    50
100
AcDb2dPolyline
 66
     1
 10
0.0
 20
0.0
 30
0.0
  0
VERTEX
  5
203
330
201
100
AcDbEntity
  8
001
370
    50
100
AcDbVertex
100
AcDb2dVertex
 10
66.247483
 20
78.382239
 30
0.0
  0
VERTEX
  5
204
330
201
100
AcDbEntity
  8
001
370
    50
100
AcDbVertex
100
AcDb2dVertex
 10
66.354235
 20
77.75659
 30
0.0
  0
VERTEX
  5
205
330
201
100
AcDbEntity
  8
001
370
    50
100
AcDbVertex
100
AcDb2dVertex
 10
66.450434
 20
77.129477
 30
0.0
  0
VERTEX
  5
206
330
201
100
AcDbEntity
  8
001
370
    50
100
AcDbVertex
100
AcDb2dVertex
 10
66.530641
 20
76.485436
 30
0.0
  0
VERTEX
  5
207
330
201
100
AcDbEntity
  8
001
370
    50
100
AcDbVertex
100
AcDb2dVertex
 10
66.599803
 20
75.839862
 30
0.0
  0
SEQEND
  5
202
330
201
100
AcDbEntity
  8
001
370
    50
  0
LINE
  5
208
330
1F
100
AcDbEntity
  8
001
370
    50
100
AcDbLine
 10
59.141121
 20
78.003192
 30
0.0
 11
54.544005
 21
75.27934
 31
0.0
  0
POLYLINE
  5
209
330
1F
100
AcDbEntity
  8
001
370
    50
100
AcDb2dPolyline
 66
     1
 10
0.0
 20
0.0
 30
0.0
  0
VERTEX
  5
20B
330
209
100
AcDbEntity
  8
001
370
    50
100
AcDbVertex
100
AcDb2dVertex
 10
61.829504
 20
67.64125
 30
0.0
  0
VERTEX
  5
20C
330
209
100
AcDbEntity
  8
001
370
    50
100
AcDbVertex
100
AcDb2dVertex
 10
61.618999
 20
67.681839
 30
0.0
  0
VERTEX
  5
20D
330
209
100
AcDbEntity
  8
001
370
    50
100
AcDbVertex
100
AcDb2dVertex
 10
61.327593
 20
67.72827
 30
0.0
  0
VERTEX
  5
20E
330
209
100
AcDbEntity
  8
001
370
    50
100
AcDbVertex
100
AcDb2dVertex
 10
61.063125
 20
67.756755
 30
0.0
  0
VERTEX
  5
20F
330
209
100
AcDbEntity
  8
001
370
    50
100
AcDbVertex
100
AcDb2dVertex
 10
60.818831
 20
67.768765
 30
0.0
  0
VERTEX
  5
210
330
209
100
AcDbEntity
  8
001
370
    50
100
AcDbVertex
100
AcDb2dVertex
 10
60.572716
 20
67.770499
 30
0.0
  0
VERTEX
  5
211
330
209
100
AcDbEntity
  8
001
370
    50
100
AcDbVertex
100
AcDb2dVertex
 10
60.321366
 20
67.761292
 30
0.0
  0
VERTEX
  5
212
330
209
100
AcDbEntity
  8
001
370
    50
100
AcDbVertex
100
AcDb2dVertex
 10
60.085739
 20
67.740193
 30
0.0
  0
VERTEX
  5
213
330
209
100
AcDbEntity
  8
001
370
    50
100
AcDbVertex
100
AcDb2dVertex
 10
59.852946
 20
67.706116
 30
0.0
  0
VERTEX
  5
214
330
209
100
AcDbEntity
  8
001
370
    50
100
AcDbVertex
100
AcDb2dVertex
 10
59.640144
 20
67.662454
 30
0.0
  0
VERTEX
  5
215
330
209
100
AcDbEntity
  8
001
370
    50
100
AcDbVertex
100
AcDb2dVertex
 10
59.43028
 20
67.605207
 30
0.0
  0
VERTEX
  5
216
330
209
100
AcDbEntity
  8
001
370
    50
100
AcDbVertex
100
AcDb2dVertex
 10
59.246485
 20
67.540723
 30
0.0
  0
VERTEX
  5
217
330
209
100
AcDbEntity
  8
001
370
    50
100
AcDbVertex
100
AcDb2dVertex
 10
59.068447
 20
67.462163
 30
0.0
  0
VERTEX
  5
218
330
209
100
AcDbEntity
  8
001
370
    50
100
AcDbVertex
100
AcDb2dVertex
 10
58.919604
 20
67.380288
 30
0.0
  0
VERTEX
  5
219
330
209
100
AcDbEntity
  8
001
370
    50
100
AcDbVertex
100
AcDb2dVertex
 10
58.780356
 20
67.282088
 30
0.0
  0
VERTEX
  5
21A
330
209
100
AcDbEntity
  8
001
370
    50
100
AcDbVertex
100
AcDb2dVertex
 10
58.671084
 20
67.182062
 30
0.0
  0
VERTEX
  5
21B
330
209
100
AcDbEntity
  8
001
370
    50
100
AcDbVertex
100
AcDb2dVertex
 10
58.576282
 20
67.071407
 30
0.0
  0
VERTEX
  5
21C
330
209
100
AcDbEntity
  8
001
370
    50
100
AcDbVertex
100
AcDb2dVertex
 10
58.508789
 20
66.965156
 30
0.0
  0
VERTEX
  5
21D
330
209
100
AcDbEntity
  8
001
370
    50
100
AcDbVertex
100
AcDb2dVertex
 10
58.463507
 20
66.837634
 30
0.0
  0
VERTEX
  5
21E
330
209
100
AcDbEntity
  8
001
370
    50
100
AcDbVertex
100
AcDb2dVertex
 10
58.445291
 20
66.694337
 30
0.0
  0
VERTEX
  5
21F
330
209
100
AcDbEntity
  8
001
370
    50
100
AcDbVertex
100
AcDb2dVertex
 10
58.446054
 20
66.589109
 30
0.0
  0
SEQEND
  5
20A
330
209
100
AcDbEntity
  8
001
370
    50
  0
POLYLINE
  5
220
330
1F
100
AcDbEntity
  8
001
370
    50
100
AcDb2dPolyline
 66
     1
 10
0.0
 20
0.0
 30
0.0
  0
VERTEX
  5
222
330
220
100
AcDbEntity
  8
001
370
    50
100
AcDbVertex
100
AcDb2dVertex
 10
58.446054
 20
66.589109
 30
0.0
  0
VERTEX
  5
223
330
220
100
AcDbEntity
  8
001
370
    50
100
AcDbVertex
100
AcDb2dVertex
 10
58.468956
 20
66.488746
 30
0.0
  0
VERTEX
  5
224
330
220
100
AcDbEntity
  8
001
370
    50
100
AcDbVertex
100
AcDb2dVertex
 10
58.515098
 20
66.354371
 30
0.0
  0
VERTEX
  5
225
330
220
100
AcDbEntity
  8
001
370
    50
100
AcDbVertex
100
AcDb2dVertex
 10
58.582911
 20
66.22713
 30
0.0
  0
VERTEX
  5
226
330
220
100
AcDbEntity
  8
001
370
    50
100
AcDbVertex
100
AcDb2dVertex
 10
58.663762
 20
66.121753
 30
0.0
  0
VERTEX
  5
227
330
220
100
AcDbEntity
  8
001
370
    50
100
AcDbVertex
100
AcDb2dVertex
 10
58.77008
 20
66.006789
 30
0.0
  0
VERTEX
  5
228
330
220
100
AcDbEntity
  8
001
370
    50
100
AcDbVertex
100
AcDb2dVertex
 10
58.887529
 20
65.898321
 30
0.0
  0
VERTEX
  5
229
330
220
100
AcDbEntity
  8
001
370
    50
100
AcDbVertex
100
AcDb2dVertex
 10
59.029798
 20
65.788526
 30
0.0
  0
VERTEX
  5
22A
330
220
100
AcDbEntity
  8
001
370
    50
100
AcDbVertex
100
AcDb2dVertex
 10
59.1796
 20
65.690867
 30
0.0
  0
VERTEX
  5
22B
330
220
100
AcDbEntity
  8
001
370
    50
100
AcDbVertex
100
AcDb2dVertex
 10
59.352537
 20
65.5932
 30
0.0
  0
VERTEX
  5
22C
330
220
100
AcDbEntity
  8
001
370
    50
100
AcDbVertex
100
AcDb2dVertex
 10
59.531101
 20
65.505691
 30
0.0
  0
VERTEX
  5
22D
330
220
100
AcDbEntity
  8
001
370
    50
100
AcDbVertex
100
AcDb2dVertex
 10
59.729214
 20
65.42186
 30
0.0
  0
VERTEX
  5
22E
330
220
100
AcDbEntity
  8
001
370
    50
100
AcDbVertex
100
AcDb2dVertex
 10
59.931351
 20
65.348422
 30
0.0
  0
VERTEX
  5
22F
330
220
100
AcDbEntity
  8
001
370
    50
100
AcDbVertex
100
AcDb2dVertex
 10
60.148335
 20
65.281127
 30
0.0
  0
VERTEX
  5
230
330
220
100
AcDbEntity
  8
001
370
    50
100
AcDbVertex
100
AcDb2dVertex
 10
60.36819
 20
65.223838
 30
0.0
  0
VERTEX
  5
231
330
220
100
AcDbEntity
  8
001
370
    50
100
AcDbVertex
100
AcDb2dVertex
 10
60.597315
 20
65.174805
 30
0.0
  0
VERTEX
  5
232
330
220
100
AcDbEntity
  8
001
370
    50
100
AcDbVertex
100
AcDb2dVertex
 10
60.828344
 20
65.135723
 30
0.0
  0
VERTEX
  5
233
330
220
100
AcDbEntity
  8
001
370
    50
100
AcDbVertex
100
AcDb2dVertex
 10
61.062566
 20
65.106245
 30
0.0
  0
VERTEX
  5
234
330
220
100
AcDbEntity
  8
001
370
    50
100
AcDbVertex
100
AcDb2dVertex
 10
61.297831
 20
65.086756
 30
0.0
  0
VERTEX
  5
235
330
220
100
AcDbEntity
  8
001
370
    50
100
AcDbVertex
100
AcDb2dVertex
 10
61.530017
 20
65.077489
 30
0.0
  0
VERTEX
  5
236
330
220
100
AcDbEntity
  8
001
370
    50
100
AcDbVertex
100
AcDb2dVertex
 10
61.762386
 20
65.078424
 30
0.0
  0
VERTEX
  5
237
330
220
100
AcDbEntity
  8
001
370
    50
100
AcDbVertex
100
AcDb2dVertex
 10
61.985529
 20
65.089402
 30
0.0
  0
VERTEX
  5
238
330
220
100
AcDbEntity
  8
001
370
    50
100
AcDbVertex
100
AcDb2dVertex
 10
62.207895
 20
65.110981
 30
0.0
  0
VERTEX
  5
239
330
220
100
AcDbEntity
  8
001
370
    50
100
AcDbVertex
100
AcDb2dVertex
 10
62.415336
 20
65.14165
 30
0.0
  0
VERTEX
  5
23A
330
220
100
AcDbEntity
  8
001
370
    50
100
AcDbVertex
100
AcDb2dVertex
 10
62.62082
 20
65.183437
 30
0.0
  0
VERTEX
  5
23B
330
220
100
AcDbEntity
  8
001
370
    50
100
AcDbVertex
100
AcDb2dVertex
 10
62.806502
 20
65.232534
 30
0.0
  0
VERTEX
  5
23C
330
220
100
AcDbEntity
  8
001
370
    50
100
AcDbVertex
100
AcDb2dVertex
 10
62.988615
 20
65.29359
 30
0.0
  0
VERTEX
  5
23D
330
220
100
AcDbEntity
  8
001
370
    50
100
AcDbVertex
100
AcDb2dVertex
 10
63.147259
 20
65.359739
 30
0.0
  0
VERTEX
  5
23E
330
220
100
AcDbEntity
  8
001
370
    50
100
AcDbVertex
100
AcDb2dVertex
 10
63.300104
 20
65.438094
 30
0.0
  0
VERTEX
  5
23F
330
220
100
AcDbEntity
  8
001
370
    50
100
AcDbVertex
100
AcDb2dVertex
 10
63.427605
 20
65.518367
 30
0.0
  0
VERTEX
  5
240
330
220
100
AcDbEntity
  8
001
370
    50
100
AcDbVertex
100
AcDb2dVertex
 10
63.545824
 20
65.612558
 30
0.0
  0
VERTEX
  5
241
330
220
100
AcDbEntity
  8
001
370
    50
100
AcDbVertex
100
AcDb2dVertex
 10
63.638714
 20
65.707876
 30
0.0
  0
VERTEX
  5
242
330
220
100
AcDbEntity
  8
001
370
    50
100
AcDbVertex
100
AcDb2dVertex
 10
63.718309
 20
65.811681
 30
0.0
  0
VERTEX
  5
243
330
220
100
AcDbEntity
  8
001
370
    50
100
AcDbVertex
100
AcDb2dVertex
 10
63.775054
 20
65.911493
 30
0.0
  0
VERTEX
  5
244
330
220
100
AcDbEntity
  8
001
370
    50
100
AcDbVertex
100
AcDb2dVertex
 10
63.812316
 20
66.029413
 30
0.0
  0
VERTEX
  5
245
330
220
100
AcDbEntity
  8
001
370
    50
100
AcDbVertex
100
AcDb2dVertex
 10
63.826596
 20
66.162022
 30
0.0
  0
VERTEX
  5
246
330
220
100
AcDbEntity
  8
001
370
    50
100
AcDbVertex
100
AcDb2dVertex
 10
63.824991
 20
66.259138
 30
0.0
  0
SEQEND
  5
221
330
220
100
AcDbEntity
  8
001
370
    50
  0
LINE
  5
247
330
1F
100
AcDbEntity
  8
001
370
    50
100
AcDbLine
 10
54.252345
 20
65.28482
 30
0.0
 11
54.252345
 21
74.899751
 31
0.0
  0
POLYLINE
  5
248
330
1F
100
AcDbEntity
  8
001
370
    50
100
AcDb2dPolyline
 66
     1
 10
0.0
 20
0.0
 30
0.0
  0
VERTEX
  5
24A
330
248
100
AcDbEntity
  8
001
370
    50
100
AcDbVertex
100
AcDb2dVertex
 10
54.544005
 20
75.27934
 30
0.0
  0
VERTEX
  5
24B
330
248
100
AcDbEntity
  8
001
370
    50
100
AcDbVertex
100
AcDb2dVertex
 10
54.509878
 20
75.257691
 30
0.0
  0
VERTEX
  5
24C
330
248
100
AcDbEntity
  8
001
370
    50
100
AcDbVertex
100
AcDb2dVertex
 10
54.475895
 20
75.235273
 30
0.0
  0
VERTEX
  5
24D
330
248
100
AcDbEntity
  8
001
370
    50
100
AcDbVertex
100
AcDb2dVertex
 10
54.384134
 20
75.163258
 30
0.0
  0
VERTEX
  5
24E
330
248
100
AcDbEntity
  8
001
370
    50
100
AcDbVertex
100
AcDb2dVertex
 10
54.311778
 20
75.074991
 30
0.0
  0
VERTEX
  5
24F
330
248
100
AcDbEntity
  8
001
370
    50
100
AcDbVertex
100
AcDb2dVertex
 10
54.276484
 20
74.993233
 30
0.0
  0
VERTEX
  5
250
330
248
100
AcDbEntity
  8
001
370
    50
100
AcDbVertex
100
AcDb2dVertex
 10
54.252406
 20
74.905268
 30
0.0
  0
SEQEND
  5
249
330
248
100
AcDbEntity
  8
001
370
    50
  0
LINE
  5
251
330
1F
100
AcDbEntity
  8
001
370
    50
100
AcDbLine
 10
67.926064
 20
63.41407
 30
0.0
 11
67.926064
 21
61.629269
 31
0.0
  0
LINE
  5
252
330
1F
100
AcDbEntity
  8
001
370
    50
100
AcDbLine
 10
67.121823
 20
61.848206
 30
0.0
 11
67.926064
 21
61.629269
 31
0.0
  0
LINE
  5
253
330
1F
100
AcDbEntity
  8
001
370
    50
100
AcDbLine
 10
66.873853
 20
61.906972
 30
0.0
 11
67.121823
 21
61.848206
 31
0.0
  0
LINE
  5
254
330
1F
100
AcDbEntity
  8
001
370
    50
100
AcDbLine
 10
66.873853
 20
61.906972
 30
0.0
 11
67.926064
 21
63.41407
 31
0.0
  0
LINE
  5
255
330
1F
100
AcDbEntity
  8
001
370
    50
100
AcDbLine
 10
67.926064
 20
63.41407
 30
0.0
 11
67.929255
 21
63.418878
 31
0.0
  0
LINE
  5
256
330
1F
100
AcDbEntity
  8
001
370
    50
100
AcDbLine
 10
66.873853
 20
61.906972
 30
0.0
 11
57.932646
 21
64.328799
 31
0.0
  0
POLYLINE
  5
257
330
1F
100
AcDbEntity
  8
001
370
    50
100
AcDb2dPolyline
 66
     1
 10
0.0
 20
0.0
 30
0.0
  0
VERTEX
  5
259
330
257
100
AcDbEntity
  8
001
370
    50
100
AcDbVertex
100
AcDb2dVertex
 10
71.064078
 20
76.959639
 30
0.0
  0
VERTEX
  5
25A
330
257
100
AcDbEntity
  8
001
370
    50
100
AcDbVertex
100
AcDb2dVertex
 10
70.59488
 20
77.001846
 30
0.0
  0
VERTEX
  5
25B
330
257
100
AcDbEntity
  8
001
370
    50
100
AcDbVertex
100
AcDb2dVertex
 10
70.127328
 20
77.056659
 30
0.0
  0
VERTEX
  5
25C
330
257
100
AcDbEntity
  8
001
370
    50
100
AcDbVertex
100
AcDb2dVertex
 10
69.678282
 20
77.131148
 30
0.0
  0
VERTEX
  5
25D
330
257
100
AcDbEntity
  8
001
370
    50
100
AcDbVertex
100
AcDb2dVertex
 10
69.232883
 20
77.226584
 30
0.0
  0
VERTEX
  5
25E
330
257
100
AcDbEntity
  8
001
370
    50
100
AcDbVertex
100
AcDb2dVertex
 10
68.890388
 20
77.314369
 30
0.0
  0
VERTEX
  5
25F
330
257
100
AcDbEntity
  8
001
370
    50
100
AcDbVertex
100
AcDb2dVertex
 10
68.552585
 20
77.417651
 30
0.0
  0
VERTEX
  5
260
330
257
100
AcDbEntity
  8
001
370
    50
100
AcDbVertex
100
AcDb2dVertex
 10
68.237786
 20
77.531798
 30
0.0
  0
VERTEX
  5
261
330
257
100
AcDbEntity
  8
001
370
    50
100
AcDbVertex
100
AcDb2dVertex
 10
67.926064
 20
77.654912
 30
0.0
  0
SEQEND
  5
258
330
257
100
AcDbEntity
  8
001
370
    50
  0
POLYLINE
  5
262
330
1F
100
AcDbEntity
  8
001
370
    50
100
AcDb2dPolyline
 66
     1
 10
0.0
 20
0.0
 30
0.0
  0
VERTEX
  5
264
330
262
100
AcDbEntity
  8
001
370
    50
100
AcDbVertex
100
AcDb2dVertex
 10
67.926064
 20
61.629269
 30
0.0
  0
VERTEX
  5
265
330
262
100
AcDbEntity
  8
001
370
    50
100
AcDbVertex
100
AcDb2dVertex
 10
68.162491
 20
61.552285
 30
0.0
  0
VERTEX
  5
266
330
262
100
AcDbEntity
  8
001
370
    50
100
AcDbVertex
100
AcDb2dVertex
 10
68.397718
 20
61.471863
 30
0.0
  0
VERTEX
  5
267
330
262
100
AcDbEntity
  8
001
370
    50
100
AcDbVertex
100
AcDb2dVertex
 10
68.650032
 20
61.377799
 30
0.0
  0
VERTEX
  5
268
330
262
100
AcDbEntity
  8
001
370
    50
100
AcDbVertex
100
AcDb2dVertex
 10
68.899687
 20
61.27675
 30
0.0
  0
VERTEX
  5
269
330
262
100
AcDbEntity
  8
001
370
    50
100
AcDbVertex
100
AcDb2dVertex
 10
69.16747
 20
61.160261
 30
0.0
  0
VERTEX
  5
26A
330
262
100
AcDbEntity
  8
001
370
    50
100
AcDbVertex
100
AcDb2dVertex
 10
69.431924
 20
61.036484
 30
0.0
  0
VERTEX
  5
26B
330
262
100
AcDbEntity
  8
001
370
    50
100
AcDbVertex
100
AcDb2dVertex
 10
69.706547
 20
60.897995
 30
0.0
  0
VERTEX
  5
26C
330
262
100
AcDbEntity
  8
001
370
    50
100
AcDbVertex
100
AcDb2dVertex
 10
69.977079
 20
60.75157
 30
0.0
  0
VERTEX
  5
26D
330
262
100
AcDbEntity
  8
001
370
    50
100
AcDbVertex
100
AcDb2dVertex
 10
70.253148
 20
60.591583
 30
0.0
  0
VERTEX
  5
26E
330
262
100
AcDbEntity
  8
001
370
    50
100
AcDbVertex
100
AcDb2dVertex
 10
70.523549
 20
60.422371
 30
0.0
  0
VERTEX
  5
26F
330
262
100
AcDbEntity
  8
001
370
    50
100
AcDbVertex
100
AcDb2dVertex
 10
70.795663
 20
60.238225
 30
0.0
  0
VERTEX
  5
270
330
262
100
AcDbEntity
  8
001
370
    50
100
AcDbVertex
100
AcDb2dVertex
 10
71.064078
 20
60.048513
 30
0.0
  0
SEQEND
  5
263
330
262
100
AcDbEntity
  8
001
370
    50
  0
LINE
  5
271
330
1F
100
AcDbEntity
  8
001
370
    50
100
AcDbLine
 10
74.792491
 20
76.713349
 30
0.0
 11
71.064078
 21
76.959639
 31
0.0
  0
POLYLINE
  5
272
330
1F
100
AcDbEntity
  8
001
370
    50
100
AcDb2dPolyline
 66
     1
 10
0.0
 20
0.0
 30
0.0
  0
VERTEX
  5
274
330
272
100
AcDbEntity
  8
001
370
    50
100
AcDbVertex
100
AcDb2dVertex
 10
72.653949
 20
58.616824
 30
0.0
  0
VERTEX
  5
275
330
272
100
AcDbEntity
  8
001
370
    50
100
AcDbVertex
100
AcDb2dVertex
 10
73.099317
 20
58.132944
 30
0.0
  0
VERTEX
  5
276
330
272
100
AcDbEntity
  8
001
370
    50
100
AcDbVertex
100
AcDb2dVertex
 10
73.752714
 20
57.428029
 30
0.0
  0
VERTEX
  5
277
330
272
100
AcDbEntity
  8
001
370
    50
100
AcDbVertex
100
AcDb2dVertex
 10
74.369099
 20
56.76965
 30
0.0
  0
VERTEX
  5
278
330
272
100
AcDbEntity
  8
001
370
    50
100
AcDbVertex
100
AcDb2dVertex
 10
74.792491
 20
56.320731
 30
0.0
  0
SEQEND
  5
273
330
272
100
AcDbEntity
  8
001
370
    50
  0
POLYLINE
  5
279
330
1F
100
AcDbEntity
  8
001
370
    50
100
AcDb2dPolyline
 66
     1
 10
0.0
 20
0.0
 30
0.0
  0
VERTEX
  5
27B
330
279
100
AcDbEntity
  8
001
370
    50
100
AcDbVertex
100
AcDb2dVertex
 10
71.064078
 20
60.048513
 30
0.0
  0
VERTEX
  5
27C
330
279
100
AcDbEntity
  8
001
370
    50
100
AcDbVertex
100
AcDb2dVertex
 10
71.487225
 20
59.714971
 30
0.0
  0
VERTEX
  5
27D
330
279
100
AcDbEntity
  8
001
370
    50
100
AcDbVertex
100
AcDb2dVertex
 10
71.897387
 20
59.367016
 30
0.0
  0
VERTEX
  5
27E
330
279
100
AcDbEntity
  8
001
370
    50
100
AcDbVertex
100
AcDb2dVertex
 10
72.282028
 20
58.998979
 30
0.0
  0
VERTEX
  5
27F
330
279
100
AcDbEntity
  8
001
370
    50
100
AcDbVertex
100
AcDb2dVertex
 10
72.653949
 20
58.616824
 30
0.0
  0
SEQEND
  5
27A
330
279
100
AcDbEntity
  8
001
370
    50
  0
POLYLINE
  5
280
330
1F
100
AcDbEntity
  8
001
370
    50
100
AcDb2dPolyline
 66
     1
 10
0.0
 20
0.0
 30
0.0
  0
VERTEX
  5
282
330
280
100
AcDbEntity
  8
001
370
    50
100
AcDbVertex
100
AcDb2dVertex
 10
76.102943
 20
76.477327
 30
0.0
  0
VERTEX
  5
283
330
280
100
AcDbEntity
  8
001
370
    50
100
AcDbVertex
100
AcDb2dVertex
 10
75.910253
 20
76.531493
 30
0.0
  0
VERTEX
  5
284
330
280
100
AcDbEntity
  8
001
370
    50
100
AcDbVertex
100
AcDb2dVertex
 10
75.716423
 20
76.581108
 30
0.0
  0
VERTEX
  5
285
330
280
100
AcDbEntity
  8
001
370
    50
100
AcDbVertex
100
AcDb2dVertex
 10
75.50635
 20
76.625152
 30
0.0
  0
VERTEX
  5
286
330
280
100
AcDbEntity
  8
001
370
    50
100
AcDbVertex
100
AcDb2dVertex
 10
75.294442
 20
76.659536
 30
0.0
  0
VERTEX
  5
287
330
280
100
AcDbEntity
  8
001
370
    50
100
AcDbVertex
100
AcDb2dVertex
 10
75.043828
 20
76.689505
 30
0.0
  0
VERTEX
  5
288
330
280
100
AcDbEntity
  8
001
370
    50
100
AcDbVertex
100
AcDb2dVertex
 10
74.792491
 20
76.713349
 30
0.0
  0
SEQEND
  5
281
330
280
100
AcDbEntity
  8
001
370
    50
  0
POLYLINE
  5
289
330
1F
100
AcDbEntity
  8
001
370
    50
100
AcDb2dPolyline
 66
     1
 10
0.0
 20
0.0
 30
0.0
  0
VERTEX
  5
28B
330
289
100
AcDbEntity
  8
001
370
    50
100
AcDbVertex
100
AcDb2dVertex
 10
76.102943
 20
76.477327
 30
0.0
  0
VERTEX
  5
28C
330
289
100
AcDbEntity
  8
001
370
    50
100
AcDbVertex
100
AcDb2dVertex
 10
76.281843
 20
76.423995
 30
0.0
  0
VERTEX
  5
28D
330
289
100
AcDbEntity
  8
001
370
    50
100
AcDbVertex
100
AcDb2dVertex
 10
76.462058
 20
76.375009
 30
0.0
  0
VERTEX
  5
28E
330
289
100
AcDbEntity
  8
001
370
    50
100
AcDbVertex
100
AcDb2dVertex
 10
76.586726
 20
76.346339
 30
0.0
  0
VERTEX
  5
28F
330
289
100
AcDbEntity
  8
001
370
    50
100
AcDbVertex
100
AcDb2dVertex
 10
76.712428
 20
76.323793
 30
0.0
  0
VERTEX
  5
290
330
289
100
AcDbEntity
  8
001
370
    50
100
AcDbVertex
100
AcDb2dVertex
 10
76.815483
 20
76.311611
 30
0.0
  0
VERTEX
  5
291
330
289
100
AcDbEntity
  8
001
370
    50
100
AcDbVertex
100
AcDb2dVertex
 10
76.919754
 20
76.307308
 30
0.0
  0
VERTEX
  5
292
330
289
100
AcDbEntity
  8
001
370
    50
100
AcDbVertex
100
AcDb2dVertex
 10
77.009176
 20
76.312762
 30
0.0
  0
VERTEX
  5
293
330
289
100
AcDbEntity
  8
001
370
    50
100
AcDbVertex
100
AcDb2dVertex
 10
77.09503
 20
76.333577
 30
0.0
  0
VERTEX
  5
294
330
289
100
AcDbEntity
  8
001
370
    50
100
AcDbVertex
100
AcDb2dVertex
 10
77.137552
 20
76.352694
 30
0.0
  0
VERTEX
  5
295
330
289
100
AcDbEntity
  8
001
370
    50
100
AcDbVertex
100
AcDb2dVertex
 10
77.178889
 20
76.375045
 30
0.0
  0
SEQEND
  5
28A
330
289
100
AcDbEntity
  8
001
370
    50
  0
LINE
  5
296
330
1F
100
AcDbEntity
  8
001
370
    50
100
AcDbLine
 10
77.221316
 20
54.024489
 30
0.0
 11
77.171245
 21
54.069702
 31
0.0
  0
POLYLINE
  5
297
330
1F
100
AcDbEntity
  8
001
370
    50
100
AcDb2dPolyline
 66
     1
 10
0.0
 20
0.0
 30
0.0
  0
VERTEX
  5
299
330
297
100
AcDbEntity
  8
001
370
    50
100
AcDbVertex
100
AcDb2dVertex
 10
74.792491
 20
56.320731
 30
0.0
  0
VERTEX
  5
29A
330
297
100
AcDbEntity
  8
001
370
    50
100
AcDbVertex
100
AcDb2dVertex
 10
74.981156
 20
56.122975
 30
0.0
  0
VERTEX
  5
29B
330
297
100
AcDbEntity
  8
001
370
    50
100
AcDbVertex
100
AcDb2dVertex
 10
75.170548
 20
55.92592
 30
0.0
  0
VERTEX
  5
29C
330
297
100
AcDbEntity
  8
001
370
    50
100
AcDbVertex
100
AcDb2dVertex
 10
75.348088
 20
55.743577
 30
0.0
  0
VERTEX
  5
29D
330
297
100
AcDbEntity
  8
001
370
    50
100
AcDbVertex
100
AcDb2dVertex
 10
75.52684
 20
55.562417
 30
0.0
  0
VERTEX
  5
29E
330
297
100
AcDbEntity
  8
001
370
    50
100
AcDbVertex
100
AcDb2dVertex
 10
75.69714
 20
55.392046
 30
0.0
  0
VERTEX
  5
29F
330
297
100
AcDbEntity
  8
001
370
    50
100
AcDbVertex
100
AcDb2dVertex
 10
75.868656
 20
55.222901
 30
0.0
  0
VERTEX
  5
2A0
330
297
100
AcDbEntity
  8
001
370
    50
100
AcDbVertex
100
AcDb2dVertex
 10
76.025732
 20
55.070411
 30
0.0
  0
VERTEX
  5
2A1
330
297
100
AcDbEntity
  8
001
370
    50
100
AcDbVertex
100
AcDb2dVertex
 10
76.184102
 20
54.919262
 30
0.0
  0
VERTEX
  5
2A2
330
297
100
AcDbEntity
  8
001
370
    50
100
AcDbVertex
100
AcDb2dVertex
 10
76.327478
 20
54.784927
 30
0.0
  0
VERTEX
  5
2A3
330
297
100
AcDbEntity
  8
001
370
    50
100
AcDbVertex
100
AcDb2dVertex
 10
76.472266
 20
54.652123
 30
0.0
  0
VERTEX
  5
2A4
330
297
100
AcDbEntity
  8
001
370
    50
100
AcDbVertex
100
AcDb2dVertex
 10
76.601349
 20
54.536478
 30
0.0
  0
VERTEX
  5
2A5
330
297
100
AcDbEntity
  8
001
370
    50
100
AcDbVertex
100
AcDb2dVertex
 10
76.731824
 20
54.422386
 30
0.0
  0
VERTEX
  5
2A6
330
297
100
AcDbEntity
  8
001
370
    50
100
AcDbVertex
100
AcDb2dVertex
 10
76.848453
 20
54.32315
 30
0.0
  0
VERTEX
  5
2A7
330
297
100
AcDbEntity
  8
001
370
    50
100
AcDbVertex
100
AcDb2dVertex
 10
76.967075
 20
54.22635
 30
0.0
  0
VERTEX
  5
2A8
330
297
100
AcDbEntity
  8
001
370
    50
100
AcDbVertex
100
AcDb2dVertex
 10
77.068662
 20
54.147396
 30
0.0
  0
VERTEX
  5
2A9
330
297
100
AcDbEntity
  8
001
370
    50
100
AcDbVertex
100
AcDb2dVertex
 10
77.171245
 20
54.069702
 30
0.0
  0
SEQEND
  5
298
330
297
100
AcDbEntity
  8
001
370
    50
  0
LINE
  5
2AA
330
1F
100
AcDbEntity
  8
001
370
    50
100
AcDbLine
 10
78.752345
 20
76.032153
 30
0.0
 11
78.752345
 21
54.032153
 31
0.0
  0
LINE
  5
2AB
330
1F
100
AcDbEntity
  8
001
370
    50
100
AcDbLine
 10
77.221316
 20
51.380334
 30
0.0
 11
78.752345
 21
54.032153
 31
0.0
  0
LINE
  5
2AC
330
1F
100
AcDbEntity
  8
001
370
    50
100
AcDbLine
 10
78.752345
 20
76.032153
 30
0.0
 11
77.221316
 21
78.683972
 31
0.0
  0
POLYLINE
  5
2AD
330
1F
100
AcDbEntity
  8
001
370
    50
100
AcDb2dPolyline
 66
     1
 10
0.0
 20
0.0
 30
0.0
  0
VERTEX
  5
2AF
330
2AD
100
AcDbEntity
  8
001
370
    50
100
AcDbVertex
100
AcDb2dVertex
 10
77.221316
 20
76.410641
 30
0.0
  0
VERTEX
  5
2B0
330
2AD
100
AcDbEntity
  8
001
370
    50
100
AcDbVertex
100
AcDb2dVertex
 10
77.271179
 20
76.486357
 30
0.0
  0
VERTEX
  5
2B1
330
2AD
100
AcDbEntity
  8
001
370
    50
100
AcDbVertex
100
AcDb2dVertex
 10
77.31157
 20
76.565822
 30
0.0
  0
VERTEX
  5
2B2
330
2AD
100
AcDbEntity
  8
001
370
    50
100
AcDbVertex
100
AcDb2dVertex
 10
77.340033
 20
76.680546
 30
0.0
  0
VERTEX
  5
2B3
330
2AD
100
AcDbEntity
  8
001
370
    50
100
AcDbVertex
100
AcDb2dVertex
 10
77.347448
 20
76.800891
 30
0.0
  0
VERTEX
  5
2B4
330
2AD
100
AcDbEntity
  8
001
370
    50
100
AcDbVertex
100
AcDb2dVertex
 10
77.340942
 20
76.962687
 30
0.0
  0
VERTEX
  5
2B5
330
2AD
100
AcDbEntity
  8
001
370
    50
100
AcDbVertex
100
AcDb2dVertex
 10
77.320144
 20
77.121816
 30
0.0
  0
VERTEX
  5
2B6
330
2AD
100
AcDbEntity
  8
001
370
    50
100
AcDbVertex
100
AcDb2dVertex
 10
77.275947
 20
77.326191
 30
0.0
  0
VERTEX
  5
2B7
330
2AD
100
AcDbEntity
  8
001
370
    50
100
AcDbVertex
100
AcDb2dVertex
 10
77.221316
 20
77.529026
 30
0.0
  0
SEQEND
  5
2AE
330
2AD
100
AcDbEntity
  8
001
370
    50
  0
POLYLINE
  5
2B8
330
1F
100
AcDbEntity
  8
001
370
    50
100
AcDb2dPolyline
 66
     1
 10
0.0
 20
0.0
 30
0.0
  0
VERTEX
  5
2BA
330
2B8
100
AcDbEntity
  8
001
370
    50
100
AcDbVertex
100
AcDb2dVertex
 10
77.221316
 20
52.810174
 30
0.0
  0
VERTEX
  5
2BB
330
2B8
100
AcDbEntity
  8
001
370
    50
100
AcDbVertex
100
AcDb2dVertex
 10
77.270332
 20
53.002892
 30
0.0
  0
VERTEX
  5
2BC
330
2B8
100
AcDbEntity
  8
001
370
    50
100
AcDbVertex
100
AcDb2dVertex
 10
77.31157
 20
53.196782
 30
0.0
  0
VERTEX
  5
2BD
330
2B8
100
AcDbEntity
  8
001
370
    50
100
AcDbVertex
100
AcDb2dVertex
 10
77.335705
 20
53.366434
 30
0.0
  0
VERTEX
  5
2BE
330
2B8
100
AcDbEntity
  8
001
370
    50
100
AcDbVertex
100
AcDb2dVertex
 10
77.347448
 20
53.538521
 30
0.0
  0
VERTEX
  5
2BF
330
2B8
100
AcDbEntity
  8
001
370
    50
100
AcDbVertex
100
AcDb2dVertex
 10
77.345072
 20
53.682588
 30
0.0
  0
VERTEX
  5
2C0
330
2B8
100
AcDbEntity
  8
001
370
    50
100
AcDbVertex
100
AcDb2dVertex
 10
77.320144
 20
53.822453
 30
0.0
  0
VERTEX
  5
2C1
330
2B8
100
AcDbEntity
  8
001
370
    50
100
AcDbVertex
100
AcDb2dVertex
 10
77.288282
 20
53.906725
 30
0.0
  0
VERTEX
  5
2C2
330
2B8
100
AcDbEntity
  8
001
370
    50
100
AcDbVertex
100
AcDb2dVertex
 10
77.249167
 20
53.988875
 30
0.0
  0
SEQEND
  5
2B9
330
2B8
100
AcDbEntity
  8
001
370
    50
  0
LINE
  5
2C3
330
1F
100
AcDbEntity
  8
001
370
    50
100
AcDbLine
 10
77.249167
 20
53.988875
 30
0.0
 11
77.228858
 21
54.015767
 31
0.0
  0
LINE
  5
2C4
330
1F
100
AcDbEntity
  8
001
370
    50
100
AcDbLine
 10
77.178889
 20
76.375045
 30
0.0
 11
77.221316
 21
76.410641
 31
0.0
  0
LINE
  5
2C5
330
1F
100
AcDbEntity
  8
001
370
    50
100
AcDbLine
 10
77.221316
 20
77.529026
 30
0.0
 11
77.171245
 21
77.681339
 31
0.0
  0
LINE
  5
2C6
330
1F
100
AcDbEntity
  8
001
370
    50
100
AcDbLine
 10
77.228858
 20
54.015767
 30
0.0
 11
77.221316
 21
54.024489
 31
0.0
  0
POLYLINE
  5
2C7
330
1F
100
AcDbEntity
  8
001
370
    50
100
AcDb2dPolyline
 66
     1
 10
0.0
 20
0.0
 30
0.0
  0
VERTEX
  5
2C9
330
2C7
100
AcDbEntity
  8
001
370
    50
100
AcDbVertex
100
AcDb2dVertex
 10
76.102943
 20
51.058471
 30
0.0
  0
VERTEX
  5
2CA
330
2C7
100
AcDbEntity
  8
001
370
    50
100
AcDbVertex
100
AcDb2dVertex
 10
76.129252
 20
51.080153
 30
0.0
  0
VERTEX
  5
2CB
330
2C7
100
AcDbEntity
  8
001
370
    50
100
AcDbVertex
100
AcDb2dVertex
 10
76.155425
 20
51.102001
 30
0.0
  0
VERTEX
  5
2CC
330
2C7
100
AcDbEntity
  8
001
370
    50
100
AcDbVertex
100
AcDb2dVertex
 10
76.289789
 20
51.223045
 30
0.0
  0
VERTEX
  5
2CD
330
2C7
100
AcDbEntity
  8
001
370
    50
100
AcDbVertex
100
AcDb2dVertex
 10
76.416616
 20
51.352092
 30
0.0
  0
VERTEX
  5
2CE
330
2C7
100
AcDbEntity
  8
001
370
    50
100
AcDbVertex
100
AcDb2dVertex
 10
76.533331
 20
51.484763
 30
0.0
  0
VERTEX
  5
2CF
330
2C7
100
AcDbEntity
  8
001
370
    50
100
AcDbVertex
100
AcDb2dVertex
 10
76.642716
 20
51.623492
 30
0.0
  0
VERTEX
  5
2D0
330
2C7
100
AcDbEntity
  8
001
370
    50
100
AcDbVertex
100
AcDb2dVertex
 10
76.747769
 20
51.772829
 30
0.0
  0
VERTEX
  5
2D1
330
2C7
100
AcDbEntity
  8
001
370
    50
100
AcDbVertex
100
AcDb2dVertex
 10
76.844652
 20
51.9276
 30
0.0
  0
VERTEX
  5
2D2
330
2C7
100
AcDbEntity
  8
001
370
    50
100
AcDbVertex
100
AcDb2dVertex
 10
76.929498
 20
52.079672
 30
0.0
  0
VERTEX
  5
2D3
330
2C7
100
AcDbEntity
  8
001
370
    50
100
AcDbVertex
100
AcDb2dVertex
 10
77.007168
 20
52.235561
 30
0.0
  0
VERTEX
  5
2D4
330
2C7
100
AcDbEntity
  8
001
370
    50
100
AcDbVertex
100
AcDb2dVertex
 10
77.07166
 20
52.380472
 30
0.0
  0
VERTEX
  5
2D5
330
2C7
100
AcDbEntity
  8
001
370
    50
100
AcDbVertex
100
AcDb2dVertex
 10
77.129383
 20
52.528128
 30
0.0
  0
VERTEX
  5
2D6
330
2C7
100
AcDbEntity
  8
001
370
    50
100
AcDbVertex
100
AcDb2dVertex
 10
77.177056
 20
52.668553
 30
0.0
  0
VERTEX
  5
2D7
330
2C7
100
AcDbEntity
  8
001
370
    50
100
AcDbVertex
100
AcDb2dVertex
 10
77.221316
 20
52.810174
 30
0.0
  0
SEQEND
  5
2C8
330
2C7
100
AcDbEntity
  8
001
370
    50
  0
LINE
  5
2D8
330
1F
100
AcDbEntity
  8
001
370
    50
100
AcDbLine
 10
138.752345
 20
60.032153
 30
0.0
 11
138.752345
 21
70.032153
 31
0.0
  0
LINE
  5
2D9
330
1F
100
AcDbEntity
  8
001
370
    50
100
AcDbLine
 10
80.752345
 20
73.032153
 30
0.0
 11
135.752345
 21
73.032153
 31
0.0
  0
LINE
  5
2DA
330
1F
100
AcDbEntity
  8
001
370
    50
100
AcDbLine
 10
80.752345
 20
57.032153
 30
0.0
 11
135.752345
 21
57.032153
 31
0.0
  0
POLYLINE
  5
2DB
330
1F
100
AcDbEntity
  8
001
370
    50
100
AcDb2dPolyline
 66
     1
 10
0.0
 20
0.0
 30
0.0
  0
VERTEX
  5
2DD
330
2DB
100
AcDbEntity
  8
001
370
    50
100
AcDbVertex
100
AcDb2dVertex
 10
59.043863
 20
64.02937
 30
0.0
  0
VERTEX
  5
2DE
330
2DB
100
AcDbEntity
  8
001
370
    50
100
AcDbVertex
100
AcDb2dVertex
 10
59.094076
 20
63.934538
 30
0.0
  0
VERTEX
  5
2DF
330
2DB
100
AcDbEntity
  8
001
370
    50
100
AcDbVertex
100
AcDb2dVertex
 10
59.137824
 20
63.837123
 30
0.0
  0
VERTEX
  5
2E0
330
2DB
100
AcDbEntity
  8
001
370
    50
100
AcDbVertex
100
AcDb2dVertex
 10
59.174053
 20
63.720493
 30
0.0
  0
VERTEX
  5
2E1
330
2DB
100
AcDbEntity
  8
001
370
    50
100
AcDbVertex
100
AcDb2dVertex
 10
59.198425
 20
63.600231
 30
0.0
  0
VERTEX
  5
2E2
330
2DB
100
AcDbEntity
  8
001
370
    50
100
AcDbVertex
100
AcDb2dVertex
 10
59.219039
 20
63.445012
 30
0.0
  0
VERTEX
  5
2E3
330
2DB
100
AcDbEntity
  8
001
370
    50
100
AcDbVertex
100
AcDb2dVertex
 10
59.23126
 20
63.289179
 30
0.0
  0
VERTEX
  5
2E4
330
2DB
100
AcDbEntity
  8
001
370
    50
100
AcDbVertex
100
AcDb2dVertex
 10
59.238203
 20
63.115475
 30
0.0
  0
VERTEX
  5
2E5
330
2DB
100
AcDbEntity
  8
001
370
    50
100
AcDbVertex
100
AcDb2dVertex
 10
59.240944
 20
62.941555
 30
0.0
  0
VERTEX
  5
2E6
330
2DB
100
AcDbEntity
  8
001
370
    50
100
AcDbVertex
100
AcDb2dVertex
 10
59.241403
 20
62.712811
 30
0.0
  0
VERTEX
  5
2E7
330
2DB
100
AcDbEntity
  8
001
370
    50
100
AcDbVertex
100
AcDb2dVertex
 10
59.23744
 20
62.484176
 30
0.0
  0
VERTEX
  5
2E8
330
2DB
100
AcDbEntity
  8
001
370
    50
100
AcDbVertex
100
AcDb2dVertex
 10
59.226295
 20
62.239748
 30
0.0
  0
VERTEX
  5
2E9
330
2DB
100
AcDbEntity
  8
001
370
    50
100
AcDbVertex
100
AcDb2dVertex
 10
59.206395
 20
61.995754
 30
0.0
  0
VERTEX
  5
2EA
330
2DB
100
AcDbEntity
  8
001
370
    50
100
AcDbVertex
100
AcDb2dVertex
 10
59.185983
 20
61.8259
 30
0.0
  0
VERTEX
  5
2EB
330
2DB
100
AcDbEntity
  8
001
370
    50
100
AcDbVertex
100
AcDb2dVertex
 10
59.157036
 20
61.657507
 30
0.0
  0
VERTEX
  5
2EC
330
2DB
100
AcDbEntity
  8
001
370
    50
100
AcDbVertex
100
AcDb2dVertex
 10
59.117049
 20
61.489138
 30
0.0
  0
VERTEX
  5
2ED
330
2DB
100
AcDbEntity
  8
001
370
    50
100
AcDbVertex
100
AcDb2dVertex
 10
59.070879
 20
61.322095
 30
0.0
  0
SEQEND
  5
2DC
330
2DB
100
AcDbEntity
  8
001
370
    50
  0
ARC
  5
2EE
330
1F
100
AcDbEntity
  8
001
370
    50
100
AcDbCircle
 10
73.757215
 20
53.380334
 30
0.0
 40
4.0
100
AcDbArc
 50
285.0
 51
330.0
  0
POLYLINE
  5
2EF
330
1F
100
AcDbEntity
  8
001
370
    50
100
AcDb2dPolyline
 66
     1
 10
0.0
 20
0.0
 30
0.0
  0
VERTEX
  5
2F1
330
2EF
100
AcDbEntity
  8
001
370
    50
100
AcDbVertex
100
AcDb2dVertex
 10
76.102943
 20
51.058471
 30
0.0
  0
VERTEX
  5
2F2
330
2EF
100
AcDbEntity
  8
001
370
    50
100
AcDbVertex
100
AcDb2dVertex
 10
76.061631
 20
51.025652
 30
0.0
  0
VERTEX
  5
2F3
330
2EF
100
AcDbEntity
  8
001
370
    50
100
AcDbVertex
100
AcDb2dVertex
 10
76.020107
 20
50.993074
 30
0.0
  0
VERTEX
  5
2F4
330
2EF
100
AcDbEntity
  8
001
370
    50
100
AcDbVertex
100
AcDb2dVertex
 10
75.740217
 20
50.793914
 30
0.0
  0
VERTEX
  5
2F5
330
2EF
100
AcDbEntity
  8
001
370
    50
100
AcDbVertex
100
AcDb2dVertex
 10
75.443298
 20
50.621829
 30
0.0
  0
VERTEX
  5
2F6
330
2EF
100
AcDbEntity
  8
001
370
    50
100
AcDbVertex
100
AcDb2dVertex
 10
75.122143
 20
50.475883
 30
0.0
  0
VERTEX
  5
2F7
330
2EF
100
AcDbEntity
  8
001
370
    50
100
AcDbVertex
100
AcDb2dVertex
 10
74.792491
 20
50.347867
 30
0.0
  0
SEQEND
  5
2F0
330
2EF
100
AcDbEntity
  8
001
370
    50
  0
ARC
  5
2F8
330
1F
100
AcDbEntity
  8
001
  6
DASHED
370
    30
100
AcDbCircle
 10
57.252345
 20
60.86058
 30
0.0
 40
1.999999999999998
100
AcDbArc
 50
315.0
 51
0.0
  0
POLYLINE
  5
2F9
330
1F
100
AcDbEntity
  8
001
370
    50
100
AcDb2dPolyline
 66
     1
 10
0.0
 20
0.0
 30
0.0
  0
VERTEX
  5
2FB
330
2F9
100
AcDbEntity
  8
001
370
    50
100
AcDbVertex
100
AcDb2dVertex
 10
58.666558
 20
60.536698
 30
0.0
  0
VERTEX
  5
2FC
330
2F9
100
AcDbEntity
  8
001
370
    50
100
AcDbVertex
100
AcDb2dVertex
 10
58.788325
 20
60.718681
 30
0.0
  0
VERTEX
  5
2FD
330
2F9
100
AcDbEntity
  8
001
370
    50
100
AcDbVertex
100
AcDb2dVertex
 10
58.89825
 20
60.906779
 30
0.0
  0
VERTEX
  5
2FE
330
2F9
100
AcDbEntity
  8
001
370
    50
100
AcDbVertex
100
AcDb2dVertex
 10
58.990847
 20
61.111193
 30
0.0
  0
VERTEX
  5
2FF
330
2F9
100
AcDbEntity
  8
001
370
    50
100
AcDbVertex
100
AcDb2dVertex
 10
59.070879
 20
61.322095
 30
0.0
  0
SEQEND
  5
2FA
330
2F9
100
AcDbEntity
  8
001
370
    50
  0
ARC
  5
300
330
1F
100
AcDbEntity
  8
001
370
    50
100
AcDbCircle
 10
73.757215
 20
76.683972
 30
0.0
 40
4.0
100
AcDbArc
 50
30.0
 51
75.0
  0
POLYLINE
  5
301
330
1F
100
AcDbEntity
  8
001
370
    50
100
AcDb2dPolyline
 66
     1
 10
0.0
 20
0.0
 30
0.0
  0
VERTEX
  5
303
330
301
100
AcDbEntity
  8
001
370
    50
100
AcDbVertex
100
AcDb2dVertex
 10
74.792491
 20
80.506853
 30
0.0
  0
VERTEX
  5
304
330
301
100
AcDbEntity
  8
001
370
    50
100
AcDbVertex
100
AcDb2dVertex
 10
74.983601
 20
80.424469
 30
0.0
  0
VERTEX
  5
305
330
301
100
AcDbEntity
  8
001
370
    50
100
AcDbVertex
100
AcDb2dVertex
 10
75.170548
 20
80.333913
 30
0.0
  0
VERTEX
  5
306
330
301
100
AcDbEntity
  8
001
370
    50
100
AcDbVertex
100
AcDb2dVertex
 10
75.352753
 20
80.227131
 30
0.0
  0
VERTEX
  5
307
330
301
100
AcDbEntity
  8
001
370
    50
100
AcDbVertex
100
AcDb2dVertex
 10
75.52684
 20
80.107001
 30
0.0
  0
VERTEX
  5
308
330
301
100
AcDbEntity
  8
001
370
    50
100
AcDbVertex
100
AcDb2dVertex
 10
75.702186
 20
79.969001
 30
0.0
  0
VERTEX
  5
309
330
301
100
AcDbEntity
  8
001
370
    50
100
AcDbVertex
100
AcDb2dVertex
 10
75.868656
 20
79.820622
 30
0.0
  0
VERTEX
  5
30A
330
301
100
AcDbEntity
  8
001
370
    50
100
AcDbVertex
100
AcDb2dVertex
 10
76.03121
 20
79.656963
 30
0.0
  0
VERTEX
  5
30B
330
301
100
AcDbEntity
  8
001
370
    50
100
AcDbVertex
100
AcDb2dVertex
 10
76.184102
 20
79.48416
 30
0.0
  0
VERTEX
  5
30C
330
301
100
AcDbEntity
  8
001
370
    50
100
AcDbVertex
100
AcDb2dVertex
 10
76.333154
 20
79.296045
 30
0.0
  0
VERTEX
  5
30D
330
301
100
AcDbEntity
  8
001
370
    50
100
AcDbVertex
100
AcDb2dVertex
 10
76.472266
 20
79.1005
 30
0.0
  0
VERTEX
  5
30E
330
301
100
AcDbEntity
  8
001
370
    50
100
AcDbVertex
100
AcDb2dVertex
 10
76.606881
 20
78.890139
 30
0.0
  0
VERTEX
  5
30F
330
301
100
AcDbEntity
  8
001
370
    50
100
AcDbVertex
100
AcDb2dVertex
 10
76.731824
 20
78.673833
 30
0.0
  0
VERTEX
  5
310
330
301
100
AcDbEntity
  8
001
370
    50
100
AcDbVertex
100
AcDb2dVertex
 10
76.854941
 20
78.43771
 30
0.0
  0
VERTEX
  5
311
330
301
100
AcDbEntity
  8
001
370
    50
100
AcDbVertex
100
AcDb2dVertex
 10
76.967075
 20
78.19629
 30
0.0
  0
VERTEX
  5
312
330
301
100
AcDbEntity
  8
001
370
    50
100
AcDbVertex
100
AcDb2dVertex
 10
77.072376
 20
77.940167
 30
0.0
  0
VERTEX
  5
313
330
301
100
AcDbEntity
  8
001
370
    50
100
AcDbVertex
100
AcDb2dVertex
 10
77.171245
 20
77.681339
 30
0.0
  0
SEQEND
  5
302
330
301
100
AcDbEntity
  8
001
370
    50
  0
LINE
  5
314
330
1F
100
AcDbEntity
  8
001
370
    50
100
AcDbLine
 10
74.792491
 20
50.347867
 30
0.0
 11
71.064078
 21
49.176544
 31
0.0
  0
POLYLINE
  5
315
330
1F
100
AcDbEntity
  8
001
370
    50
100
AcDb2dPolyline
 66
     1
 10
0.0
 20
0.0
 30
0.0
  0
VERTEX
  5
317
330
315
100
AcDbEntity
  8
001
370
    50
100
AcDbVertex
100
AcDb2dVertex
 10
71.064078
 20
49.176544
 30
0.0
  0
VERTEX
  5
318
330
315
100
AcDbEntity
  8
001
370
    50
100
AcDbVertex
100
AcDb2dVertex
 10
70.77704
 20
49.078323
 30
0.0
  0
VERTEX
  5
319
330
315
100
AcDbEntity
  8
001
370
    50
100
AcDbVertex
100
AcDb2dVertex
 10
70.49295
 20
48.97247
 30
0.0
  0
VERTEX
  5
31A
330
315
100
AcDbEntity
  8
001
370
    50
100
AcDbVertex
100
AcDb2dVertex
 10
70.21213
 20
48.852066
 30
0.0
  0
VERTEX
  5
31B
330
315
100
AcDbEntity
  8
001
370
    50
100
AcDbVertex
100
AcDb2dVertex
 10
69.937062
 20
48.71864
 30
0.0
  0
VERTEX
  5
31C
330
315
100
AcDbEntity
  8
001
370
    50
100
AcDbVertex
100
AcDb2dVertex
 10
69.661634
 20
48.570804
 30
0.0
  0
VERTEX
  5
31D
330
315
100
AcDbEntity
  8
001
370
    50
100
AcDbVertex
100
AcDb2dVertex
 10
69.392741
 20
48.411589
 30
0.0
  0
VERTEX
  5
31E
330
315
100
AcDbEntity
  8
001
370
    50
100
AcDbVertex
100
AcDb2dVertex
 10
69.129005
 20
48.239493
 30
0.0
  0
VERTEX
  5
31F
330
315
100
AcDbEntity
  8
001
370
    50
100
AcDbVertex
100
AcDb2dVertex
 10
68.872624
 20
48.056443
 30
0.0
  0
VERTEX
  5
320
330
315
100
AcDbEntity
  8
001
370
    50
100
AcDbVertex
100
AcDb2dVertex
 10
68.623249
 20
47.862511
 30
0.0
  0
VERTEX
  5
321
330
315
100
AcDbEntity
  8
001
370
    50
100
AcDbVertex
100
AcDb2dVertex
 10
68.383284
 20
47.65732
 30
0.0
  0
VERTEX
  5
322
330
315
100
AcDbEntity
  8
001
370
    50
100
AcDbVertex
100
AcDb2dVertex
 10
68.15176
 20
47.439192
 30
0.0
  0
VERTEX
  5
323
330
315
100
AcDbEntity
  8
001
370
    50
100
AcDbVertex
100
AcDb2dVertex
 10
67.926064
 20
47.214736
 30
0.0
  0
SEQEND
  5
316
330
315
100
AcDbEntity
  8
001
370
    50
  0
LINE
  5
324
330
1F
100
AcDbEntity
  8
001
370
    50
100
AcDbLine
 10
66.160365
 20
45.363146
 30
0.0
 11
67.926064
 21
47.214736
 31
0.0
  0
POLYLINE
  5
325
330
1F
100
AcDbEntity
  8
001
370
    50
100
AcDb2dPolyline
 66
     1
 10
0.0
 20
0.0
 30
0.0
  0
VERTEX
  5
327
330
325
100
AcDbEntity
  8
001
370
    50
100
AcDbVertex
100
AcDb2dVertex
 10
54.252345
 20
54.585906
 30
0.0
  0
VERTEX
  5
328
330
325
100
AcDbEntity
  8
001
370
    50
100
AcDbVertex
100
AcDb2dVertex
 10
54.261501
 20
54.755434
 30
0.0
  0
VERTEX
  5
329
330
325
100
AcDbEntity
  8
001
370
    50
100
AcDbVertex
100
AcDb2dVertex
 10
54.278924
 20
54.923948
 30
0.0
  0
VERTEX
  5
32A
330
325
100
AcDbEntity
  8
001
370
    50
100
AcDbVertex
100
AcDb2dVertex
 10
54.312103
 20
55.094594
 30
0.0
  0
VERTEX
  5
32B
330
325
100
AcDbEntity
  8
001
370
    50
100
AcDbVertex
100
AcDb2dVertex
 10
54.360055
 20
55.261989
 30
0.0
  0
VERTEX
  5
32C
330
325
100
AcDbEntity
  8
001
370
    50
100
AcDbVertex
100
AcDb2dVertex
 10
54.423557
 20
55.432248
 30
0.0
  0
VERTEX
  5
32D
330
325
100
AcDbEntity
  8
001
370
    50
100
AcDbVertex
100
AcDb2dVertex
 10
54.500142
 20
55.597009
 30
0.0
  0
VERTEX
  5
32E
330
325
100
AcDbEntity
  8
001
370
    50
100
AcDbVertex
100
AcDb2dVertex
 10
54.592375
 20
55.759479
 30
0.0
  0
VERTEX
  5
32F
330
325
100
AcDbEntity
  8
001
370
    50
100
AcDbVertex
100
AcDb2dVertex
 10
54.698787
 20
55.912782
 30
0.0
  0
VERTEX
  5
330
330
325
100
AcDbEntity
  8
001
370
    50
100
AcDbVertex
100
AcDb2dVertex
 10
54.767204
 20
55.997372
 30
0.0
  0
VERTEX
  5
331
330
325
100
AcDbEntity
  8
001
370
    50
100
AcDbVertex
100
AcDb2dVertex
 10
54.838131
 20
56.079961
 30
0.0
  0
SEQEND
  5
326
330
325
100
AcDbEntity
  8
001
370
    50
  0
POLYLINE
  5
332
330
1F
100
AcDbEntity
  8
001
370
    50
100
AcDb2dPolyline
 66
     1
 10
0.0
 20
0.0
 30
0.0
  0
VERTEX
  5
334
330
332
100
AcDbEntity
  8
001
370
    50
100
AcDbVertex
100
AcDb2dVertex
 10
54.838131
 20
56.079961
 30
0.0
  0
VERTEX
  5
335
330
332
100
AcDbEntity
  8
001
370
    50
100
AcDbVertex
100
AcDb2dVertex
 10
55.82463
 20
57.166972
 30
0.0
  0
VERTEX
  5
336
330
332
100
AcDbEntity
  8
001
370
    50
100
AcDbVertex
100
AcDb2dVertex
 10
56.799979
 20
58.263975
 30
0.0
  0
VERTEX
  5
337
330
332
100
AcDbEntity
  8
001
370
    50
100
AcDbVertex
100
AcDb2dVertex
 10
57.280281
 20
58.820331
 30
0.0
  0
VERTEX
  5
338
330
332
100
AcDbEntity
  8
001
370
    50
100
AcDbVertex
100
AcDb2dVertex
 10
57.751472
 20
59.384326
 30
0.0
  0
VERTEX
  5
339
330
332
100
AcDbEntity
  8
001
370
    50
100
AcDbVertex
100
AcDb2dVertex
 10
58.21218
 20
59.957939
 30
0.0
  0
VERTEX
  5
33A
330
332
100
AcDbEntity
  8
001
370
    50
100
AcDbVertex
100
AcDb2dVertex
 10
58.666558
 20
60.536698
 30
0.0
  0
SEQEND
  5
333
330
332
100
AcDbEntity
  8
001
370
    50
  0
POLYLINE
  5
33B
330
1F
100
AcDbEntity
  8
001
370
    50
100
AcDb2dPolyline
 66
     1
 10
0.0
 20
0.0
 30
0.0
  0
VERTEX
  5
33D
330
33B
100
AcDbEntity
  8
001
370
    50
100
AcDbVertex
100
AcDb2dVertex
 10
73.995678
 20
80.76118
 30
0.0
  0
VERTEX
  5
33E
330
33B
100
AcDbEntity
  8
001
370
    50
100
AcDbVertex
100
AcDb2dVertex
 10
73.728568
 20
80.827785
 30
0.0
  0
VERTEX
  5
33F
330
33B
100
AcDbEntity
  8
001
370
    50
100
AcDbVertex
100
AcDb2dVertex
 10
73.335395
 20
80.912232
 30
0.0
  0
VERTEX
  5
340
330
33B
100
AcDbEntity
  8
001
370
    50
100
AcDbVertex
100
AcDb2dVertex
 10
72.931678
 20
80.979919
 30
0.0
  0
VERTEX
  5
341
330
33B
100
AcDbEntity
  8
001
370
    50
100
AcDbVertex
100
AcDb2dVertex
 10
72.653949
 20
81.017281
 30
0.0
  0
SEQEND
  5
33C
330
33B
100
AcDbEntity
  8
001
370
    50
  0
ARC
  5
342
330
1F
100
AcDbEntity
  8
001
370
    50
100
AcDbCircle
 10
72.875811
 20
41.756124
 30
0.0
 40
7.0
100
AcDbArc
 50
105.0
 51
135.0
  0
LINE
  5
343
330
1F
100
AcDbEntity
  8
001
370
    50
100
AcDbLine
 10
71.064078
 20
48.517605
 30
0.0
 11
74.792491
 21
49.51663
 31
0.0
  0
LINE
  5
344
330
1F
100
AcDbEntity
  8
001
  6
DASHED
370
    30
100
AcDbLine
 10
54.838131
 20
55.617939
 30
0.0
 11
58.666558
 21
59.446366
 31
0.0
  0
LINE
  5
345
330
1F
100
AcDbEntity
  8
001
370
    50
100
AcDbLine
 10
57.980124
 20
59.808443
 30
0.0
 11
54.838131
 21
56.70784
 31
0.0
  0
POLYLINE
  5
346
330
1F
100
AcDbEntity
  8
001
370
    50
100
AcDb2dPolyline
 66
     1
 10
0.0
 20
0.0
 30
0.0
  0
VERTEX
  5
348
330
346
100
AcDbEntity
  8
001
370
    50
100
AcDbVertex
100
AcDb2dVertex
 10
57.980124
 20
59.808443
 30
0.0
  0
VERTEX
  5
349
330
346
100
AcDbEntity
  8
001
370
    50
100
AcDbVertex
100
AcDb2dVertex
 10
58.155972
 20
59.989199
 30
0.0
  0
VERTEX
  5
34A
330
346
100
AcDbEntity
  8
001
370
    50
100
AcDbVertex
100
AcDb2dVertex
 10
58.328667
 20
60.172897
 30
0.0
  0
VERTEX
  5
34B
330
346
100
AcDbEntity
  8
001
370
    50
100
AcDbVertex
100
AcDb2dVertex
 10
58.340684
 20
60.186076
 30
0.0
  0
VERTEX
  5
34C
330
346
100
AcDbEntity
  8
001
370
    50
100
AcDbVertex
100
AcDb2dVertex
 10
58.352685
 20
60.19927
 30
0.0
  0
SEQEND
  5
347
330
346
100
AcDbEntity
  8
001
370
    50
  0
LINE
  5
34D
330
1F
100
AcDbEntity
  8
001
370
    50
100
AcDbLine
 10
58.352685
 20
60.19927
 30
0.0
 11
58.666558
 21
60.561637
 31
0.0
  0
ARC
  5
34E
330
1F
100
AcDbEntity
  8
001
  6
DASHED
370
    30
100
AcDbCircle
 10
56.252345
 20
54.203726
 30
0.0
 40
2.0
100
AcDbArc
 50
135.0
 51
180.0
  0
POLYLINE
  5
34F
330
1F
100
AcDbEntity
  8
001
370
    50
100
AcDb2dPolyline
 66
     1
 10
0.0
 20
0.0
 30
0.0
  0
VERTEX
  5
351
330
34F
100
AcDbEntity
  8
001
370
    50
100
AcDbVertex
100
AcDb2dVertex
 10
54.838131
 20
56.70784
 30
0.0
  0
VERTEX
  5
352
330
34F
100
AcDbEntity
  8
001
370
    50
100
AcDbVertex
100
AcDb2dVertex
 10
54.731208
 20
56.592785
 30
0.0
  0
VERTEX
  5
353
330
34F
100
AcDbEntity
  8
001
370
    50
100
AcDbVertex
100
AcDb2dVertex
 10
54.629923
 20
56.473087
 30
0.0
  0
VERTEX
  5
354
330
34F
100
AcDbEntity
  8
001
370
    50
100
AcDbVertex
100
AcDb2dVertex
 10
54.538754
 20
56.344853
 30
0.0
  0
VERTEX
  5
355
330
34F
100
AcDbEntity
  8
001
370
    50
100
AcDbVertex
100
AcDb2dVertex
 10
54.45885
 20
56.209117
 30
0.0
  0
VERTEX
  5
356
330
34F
100
AcDbEntity
  8
001
370
    50
100
AcDbVertex
100
AcDb2dVertex
 10
54.393876
 20
56.075661
 30
0.0
  0
VERTEX
  5
357
330
34F
100
AcDbEntity
  8
001
370
    50
100
AcDbVertex
100
AcDb2dVertex
 10
54.339561
 20
55.937474
 30
0.0
  0
VERTEX
  5
358
330
34F
100
AcDbEntity
  8
001
370
    50
100
AcDbVertex
100
AcDb2dVertex
 10
54.297154
 20
55.7956
 30
0.0
  0
VERTEX
  5
359
330
34F
100
AcDbEntity
  8
001
370
    50
100
AcDbVertex
100
AcDb2dVertex
 10
54.269094
 20
55.650517
 30
0.0
  0
VERTEX
  5
35A
330
34F
100
AcDbEntity
  8
001
370
    50
100
AcDbVertex
100
AcDb2dVertex
 10
54.258233
 20
55.539497
 30
0.0
  0
VERTEX
  5
35B
330
34F
100
AcDbEntity
  8
001
370
    50
100
AcDbVertex
100
AcDb2dVertex
 10
54.252345
 20
55.427895
 30
0.0
  0
SEQEND
  5
350
330
34F
100
AcDbEntity
  8
001
370
    50
  0
POLYLINE
  5
35C
330
1F
100
AcDbEntity
  8
001
370
    50
100
AcDb2dPolyline
 66
     1
 10
0.0
 20
0.0
 30
0.0
  0
VERTEX
  5
35E
330
35C
100
AcDbEntity
  8
001
370
    50
100
AcDbVertex
100
AcDb2dVertex
 10
71.064078
 20
81.159229
 30
0.0
  0
VERTEX
  5
35F
330
35C
100
AcDbEntity
  8
001
370
    50
100
AcDbVertex
100
AcDb2dVertex
 10
71.48088
 20
81.127685
 30
0.0
  0
VERTEX
  5
360
330
35C
100
AcDbEntity
  8
001
370
    50
100
AcDbVertex
100
AcDb2dVertex
 10
71.897387
 20
81.092858
 30
0.0
  0
VERTEX
  5
361
330
35C
100
AcDbEntity
  8
001
370
    50
100
AcDbVertex
100
AcDb2dVertex
 10
72.27579
 20
81.056428
 30
0.0
  0
VERTEX
  5
362
330
35C
100
AcDbEntity
  8
001
370
    50
100
AcDbVertex
100
AcDb2dVertex
 10
72.653949
 20
81.017281
 30
0.0
  0
SEQEND
  5
35D
330
35C
100
AcDbEntity
  8
001
370
    50
  0
LINE
  5
363
330
1F
100
AcDbEntity
  8
001
370
    50
100
AcDbLine
 10
67.121823
 20
82.960573
 30
0.0
 11
67.926064
 21
82.328617
 31
0.0
  0
POLYLINE
  5
364
330
1F
100
AcDbEntity
  8
001
370
    50
100
AcDb2dPolyline
 66
     1
 10
0.0
 20
0.0
 30
0.0
  0
VERTEX
  5
366
330
364
100
AcDbEntity
  8
001
370
    50
100
AcDbVertex
100
AcDb2dVertex
 10
67.926064
 20
82.328617
 30
0.0
  0
VERTEX
  5
367
330
364
100
AcDbEntity
  8
001
370
    50
100
AcDbVertex
100
AcDb2dVertex
 10
68.159248
 20
82.160603
 30
0.0
  0
VERTEX
  5
368
330
364
100
AcDbEntity
  8
001
370
    50
100
AcDbVertex
100
AcDb2dVertex
 10
68.397718
 20
82.000728
 30
0.0
  0
VERTEX
  5
369
330
364
100
AcDbEntity
  8
001
370
    50
100
AcDbVertex
100
AcDb2dVertex
 10
68.644634
 20
81.855929
 30
0.0
  0
VERTEX
  5
36A
330
364
100
AcDbEntity
  8
001
370
    50
100
AcDbVertex
100
AcDb2dVertex
 10
68.899687
 20
81.725449
 30
0.0
  0
VERTEX
  5
36B
330
364
100
AcDbEntity
  8
001
370
    50
100
AcDbVertex
100
AcDb2dVertex
 10
69.163051
 20
81.606951
 30
0.0
  0
VERTEX
  5
36C
330
364
100
AcDbEntity
  8
001
370
    50
100
AcDbVertex
100
AcDb2dVertex
 10
69.431924
 20
81.501912
 30
0.0
  0
VERTEX
  5
36D
330
364
100
AcDbEntity
  8
001
370
    50
100
AcDbVertex
100
AcDb2dVertex
 10
69.702441
 20
81.411888
 30
0.0
  0
VERTEX
  5
36E
330
364
100
AcDbEntity
  8
001
370
    50
100
AcDbVertex
100
AcDb2dVertex
 10
69.977079
 20
81.334969
 30
0.0
  0
VERTEX
  5
36F
330
364
100
AcDbEntity
  8
001
370
    50
100
AcDbVertex
100
AcDb2dVertex
 10
70.249011
 20
81.272028
 30
0.0
  0
VERTEX
  5
370
330
364
100
AcDbEntity
  8
001
370
    50
100
AcDbVertex
100
AcDb2dVertex
 10
70.523549
 20
81.222522
 30
0.0
  0
VERTEX
  5
371
330
364
100
AcDbEntity
  8
001
370
    50
100
AcDbVertex
100
AcDb2dVertex
 10
70.793307
 20
81.18729
 30
0.0
  0
VERTEX
  5
372
330
364
100
AcDbEntity
  8
001
370
    50
100
AcDbVertex
100
AcDb2dVertex
 10
71.064078
 20
81.159229
 30
0.0
  0
SEQEND
  5
365
330
364
100
AcDbEntity
  8
001
370
    50
  0
POLYLINE
  5
373
330
1F
100
AcDbEntity
  8
001
370
    50
100
AcDb2dPolyline
 66
     1
 10
0.0
 20
0.0
 30
0.0
  0
VERTEX
  5
375
330
373
100
AcDbEntity
  8
001
370
    50
100
AcDbVertex
100
AcDb2dVertex
 10
74.792491
 20
80.506853
 30
0.0
  0
VERTEX
  5
376
330
373
100
AcDbEntity
  8
001
370
    50
100
AcDbVertex
100
AcDb2dVertex
 10
74.633252
 20
80.564204
 30
0.0
  0
VERTEX
  5
377
330
373
100
AcDbEntity
  8
001
370
    50
100
AcDbVertex
100
AcDb2dVertex
 10
74.398812
 20
80.642953
 30
0.0
  0
VERTEX
  5
378
330
373
100
AcDbEntity
  8
001
370
    50
100
AcDbVertex
100
AcDb2dVertex
 10
74.160082
 20
80.715236
 30
0.0
  0
VERTEX
  5
379
330
373
100
AcDbEntity
  8
001
370
    50
100
AcDbVertex
100
AcDb2dVertex
 10
73.995678
 20
80.76118
 30
0.0
  0
SEQEND
  5
374
330
373
100
AcDbEntity
  8
001
370
    50
  0
LINE
  5
37A
330
1F
100
AcDbEntity
  8
001
370
    50
100
AcDbLine
 10
74.792491
 20
80.547675
 30
0.0
 11
73.995678
 21
80.76118
 31
0.0
  0
LINE
  5
37B
330
1F
100
AcDbEntity
  8
001
370
    50
100
AcDbLine
 10
66.873853
 20
83.157334
 30
0.0
 11
67.121823
 21
82.960573
 31
0.0
  0
LINE
  5
37C
330
1F
100
AcDbEntity
  8
001
370
    50
100
AcDbLine
 10
57.932646
 20
80.735506
 30
0.0
 11
54.252345
 21
81.021544
 31
0.0
  0
LINE
  5
37D
330
1F
100
AcDbEntity
  8
001
370
    50
100
AcDbLine
 10
66.873853
 20
83.157334
 30
0.0
 11
57.932646
 21
80.735506
 31
0.0
  0
POLYLINE
  5
37E
330
1F
100
AcDbEntity
  8
001
370
    50
100
AcDb2dPolyline
 66
     1
 10
0.0
 20
0.0
 30
0.0
  0
VERTEX
  5
380
330
37E
100
AcDbEntity
  8
001
370
    50
100
AcDbVertex
100
AcDb2dVertex
 10
54.544005
 20
82.215239
 30
0.0
  0
VERTEX
  5
381
330
37E
100
AcDbEntity
  8
001
370
    50
100
AcDbVertex
100
AcDb2dVertex
 10
54.479954
 20
82.170444
 30
0.0
  0
VERTEX
  5
382
330
37E
100
AcDbEntity
  8
001
370
    50
100
AcDbVertex
100
AcDb2dVertex
 10
54.419141
 20
82.121881
 30
0.0
  0
VERTEX
  5
383
330
37E
100
AcDbEntity
  8
001
370
    50
100
AcDbVertex
100
AcDb2dVertex
 10
54.370943
 20
82.073913
 30
0.0
  0
VERTEX
  5
384
330
37E
100
AcDbEntity
  8
001
370
    50
100
AcDbVertex
100
AcDb2dVertex
 10
54.328196
 20
82.020549
 30
0.0
  0
VERTEX
  5
385
330
37E
100
AcDbEntity
  8
001
370
    50
100
AcDbVertex
100
AcDb2dVertex
 10
54.295355
 20
81.968093
 30
0.0
  0
VERTEX
  5
386
330
37E
100
AcDbEntity
  8
001
370
    50
100
AcDbVertex
100
AcDb2dVertex
 10
54.271359
 20
81.911736
 30
0.0
  0
VERTEX
  5
387
330
37E
100
AcDbEntity
  8
001
370
    50
100
AcDbVertex
100
AcDb2dVertex
 10
54.259195
 20
81.857483
 30
0.0
  0
VERTEX
  5
388
330
37E
100
AcDbEntity
  8
001
370
    50
100
AcDbVertex
100
AcDb2dVertex
 10
54.252345
 20
81.801699
 30
0.0
  0
SEQEND
  5
37F
330
37E
100
AcDbEntity
  8
001
370
    50
  0
LINE
  5
389
330
1F
100
AcDbEntity
  8
001
370
    50
100
AcDbLine
 10
59.141121
 20
85.052747
 30
0.0
 11
54.544005
 21
82.215239
 31
0.0
  0
POLYLINE
  5
38A
330
1F
100
AcDbEntity
  8
001
370
    50
100
AcDb2dPolyline
 66
     1
 10
0.0
 20
0.0
 30
0.0
  0
VERTEX
  5
38C
330
38A
100
AcDbEntity
  8
001
370
    50
100
AcDbVertex
100
AcDb2dVertex
 10
59.849461
 20
85.260888
 30
0.0
  0
VERTEX
  5
38D
330
38A
100
AcDbEntity
  8
001
370
    50
100
AcDbVertex
100
AcDb2dVertex
 10
59.695418
 20
85.241198
 30
0.0
  0
VERTEX
  5
38E
330
38A
100
AcDbEntity
  8
001
370
    50
100
AcDbVertex
100
AcDb2dVertex
 10
59.542751
 20
85.213518
 30
0.0
  0
VERTEX
  5
38F
330
38A
100
AcDbEntity
  8
001
370
    50
100
AcDbVertex
100
AcDb2dVertex
 10
59.401661
 20
85.173859
 30
0.0
  0
VERTEX
  5
390
330
38A
100
AcDbEntity
  8
001
370
    50
100
AcDbVertex
100
AcDb2dVertex
 10
59.265991
 20
85.118837
 30
0.0
  0
VERTEX
  5
391
330
38A
100
AcDbEntity
  8
001
370
    50
100
AcDbVertex
100
AcDb2dVertex
 10
59.203067
 20
85.086756
 30
0.0
  0
VERTEX
  5
392
330
38A
100
AcDbEntity
  8
001
370
    50
100
AcDbVertex
100
AcDb2dVertex
 10
59.141121
 20
85.052747
 30
0.0
  0
SEQEND
  5
38B
330
38A
100
AcDbEntity
  8
001
370
    50
  0
POLYLINE
  5
393
330
1F
100
AcDbEntity
  8
001
370
    50
100
AcDb2dPolyline
 66
     1
 10
0.0
 20
0.0
 30
0.0
  0
VERTEX
  5
395
330
393
100
AcDbEntity
  8
001
370
    50
100
AcDbVertex
100
AcDb2dVertex
 10
60.238131
 20
85.287908
 30
0.0
  0
VERTEX
  5
396
330
393
100
AcDbEntity
  8
001
370
    50
100
AcDbVertex
100
AcDb2dVertex
 10
60.159197
 20
85.282424
 30
0.0
  0
VERTEX
  5
397
330
393
100
AcDbEntity
  8
001
370
    50
100
AcDbVertex
100
AcDb2dVertex
 10
60.043831
 20
85.274406
 30
0.0
  0
VERTEX
  5
398
330
393
100
AcDbEntity
  8
001
370
    50
100
AcDbVertex
100
AcDb2dVertex
 10
59.928424
 20
85.26638
 30
0.0
  0
VERTEX
  5
399
330
393
100
AcDbEntity
  8
001
370
    50
100
AcDbVertex
100
AcDb2dVertex
 10
59.849461
 20
85.260888
 30
0.0
  0
SEQEND
  5
394
330
393
100
AcDbEntity
  8
001
370
    50
  0
POLYLINE
  5
39A
330
1F
100
AcDbEntity
  8
001
370
    50
100
AcDb2dPolyline
 66
     1
 10
0.0
 20
0.0
 30
0.0
  0
VERTEX
  5
39C
330
39A
100
AcDbEntity
  8
001
370
    50
100
AcDbVertex
100
AcDb2dVertex
 10
60.945238
 20
85.178313
 30
0.0
  0
VERTEX
  5
39D
330
39A
100
AcDbEntity
  8
001
370
    50
100
AcDbVertex
100
AcDb2dVertex
 10
60.810079
 20
85.225996
 30
0.0
  0
VERTEX
  5
39E
330
39A
100
AcDbEntity
  8
001
370
    50
100
AcDbVertex
100
AcDb2dVertex
 10
60.672612
 20
85.26433
 30
0.0
  0
VERTEX
  5
39F
330
39A
100
AcDbEntity
  8
001
370
    50
100
AcDbVertex
100
AcDb2dVertex
 10
60.507571
 20
85.288171
 30
0.0
  0
VERTEX
  5
3A0
330
39A
100
AcDbEntity
  8
001
370
    50
100
AcDbVertex
100
AcDb2dVertex
 10
60.340339
 20
85.292176
 30
0.0
  0
VERTEX
  5
3A1
330
39A
100
AcDbEntity
  8
001
370
    50
100
AcDbVertex
100
AcDb2dVertex
 10
60.289191
 20
85.290377
 30
0.0
  0
VERTEX
  5
3A2
330
39A
100
AcDbEntity
  8
001
370
    50
100
AcDbVertex
100
AcDb2dVertex
 10
60.238131
 20
85.287908
 30
0.0
  0
SEQEND
  5
39B
330
39A
100
AcDbEntity
  8
001
370
    50
  0
LINE
  5
3A3
330
1F
100
AcDbEntity
  8
001
370
    50
100
AcDbLine
 10
61.829504
 20
84.757365
 30
0.0
 11
60.945238
 21
85.178313
 31
0.0
  0
POLYLINE
  5
3A4
330
1F
100
AcDbEntity
  8
001
370
    50
100
AcDb2dPolyline
 66
     1
 10
0.0
 20
0.0
 30
0.0
  0
VERTEX
  5
3A6
330
3A4
100
AcDbEntity
  8
001
370
    50
100
AcDbVertex
100
AcDb2dVertex
 10
61.829504
 20
84.757365
 30
0.0
  0
VERTEX
  5
3A7
330
3A4
100
AcDbEntity
  8
001
370
    50
100
AcDbVertex
100
AcDb2dVertex
 10
61.631987
 20
84.75983
 30
0.0
  0
VERTEX
  5
3A8
330
3A4
100
AcDbEntity
  8
001
370
    50
100
AcDbVertex
100
AcDb2dVertex
 10
61.359977
 20
84.754727
 30
0.0
  0
VERTEX
  5
3A9
330
3A4
100
AcDbEntity
  8
001
370
    50
100
AcDbVertex
100
AcDb2dVertex
 10
61.110977
 20
84.737997
 30
0.0
  0
VERTEX
  5
3AA
330
3A4
100
AcDbEntity
  8
001
370
    50
100
AcDbVertex
100
AcDb2dVertex
 10
60.883429
 20
84.710143
 30
0.0
  0
VERTEX
  5
3AB
330
3A4
100
AcDbEntity
  8
001
370
    50
100
AcDbVertex
100
AcDb2dVertex
 10
60.650884
 20
84.672589
 30
0.0
  0
VERTEX
  5
3AC
330
3A4
100
AcDbEntity
  8
001
370
    50
100
AcDbVertex
100
AcDb2dVertex
 10
60.414767
 20
84.625009
 30
0.0
  0
VERTEX
  5
3AD
330
3A4
100
AcDbEntity
  8
001
370
    50
100
AcDbVertex
100
AcDb2dVertex
 10
60.189589
 20
84.568669
 30
0.0
  0
VERTEX
  5
3AE
330
3A4
100
AcDbEntity
  8
001
370
    50
100
AcDbVertex
100
AcDb2dVertex
 10
59.968653
 20
84.501987
 30
0.0
  0
VERTEX
  5
3AF
330
3A4
100
AcDbEntity
  8
001
370
    50
100
AcDbVertex
100
AcDb2dVertex
 10
59.762001
 20
84.428789
 30
0.0
  0
VERTEX
  5
3B0
330
3A4
100
AcDbEntity
  8
001
370
    50
100
AcDbVertex
100
AcDb2dVertex
 10
59.559042
 20
84.344926
 30
0.0
  0
VERTEX
  5
3B1
330
3A4
100
AcDbEntity
  8
001
370
    50
100
AcDbVertex
100
AcDb2dVertex
 10
59.376019
 20
84.257055
 30
0.0
  0
VERTEX
  5
3B2
330
3A4
100
AcDbEntity
  8
001
370
    50
100
AcDbVertex
100
AcDb2dVertex
 10
59.198749
 20
84.158739
 30
0.0
  0
VERTEX
  5
3B3
330
3A4
100
AcDbEntity
  8
001
370
    50
100
AcDbVertex
100
AcDb2dVertex
 10
59.045092
 20
84.060237
 30
0.0
  0
VERTEX
  5
3B4
330
3A4
100
AcDbEntity
  8
001
370
    50
100
AcDbVertex
100
AcDb2dVertex
 10
58.899045
 20
83.949252
 30
0.0
  0
VERTEX
  5
3B5
330
3A4
100
AcDbEntity
  8
001
370
    50
100
AcDbVertex
100
AcDb2dVertex
 10
58.778509
 20
83.839506
 30
0.0
  0
VERTEX
  5
3B6
330
3A4
100
AcDbEntity
  8
001
370
    50
100
AcDbVertex
100
AcDb2dVertex
 10
58.669305
 20
83.723017
 30
0.0
  0
VERTEX
  5
3B7
330
3A4
100
AcDbEntity
  8
001
370
    50
100
AcDbVertex
100
AcDb2dVertex
 10
58.586337
 20
83.616282
 30
0.0
  0
VERTEX
  5
3B8
330
3A4
100
AcDbEntity
  8
001
370
    50
100
AcDbVertex
100
AcDb2dVertex
 10
58.516717
 20
83.487112
 30
0.0
  0
VERTEX
  5
3B9
330
3A4
100
AcDbEntity
  8
001
370
    50
100
AcDbVertex
100
AcDb2dVertex
 10
58.469468
 20
83.350792
 30
0.0
  0
VERTEX
  5
3BA
330
3A4
100
AcDbEntity
  8
001
370
    50
100
AcDbVertex
100
AcDb2dVertex
 10
58.446054
 20
83.248916
 30
0.0
  0
SEQEND
  5
3A5
330
3A4
100
AcDbEntity
  8
001
370
    50
  0
LINE
  5
3BB
330
1F
100
AcDbEntity
  8
001
370
    50
100
AcDbLine
 10
65.697915
 20
82.83937
 30
0.0
 11
63.816385
 21
83.790388
 31
0.0
  0
POLYLINE
  5
3BC
330
1F
100
AcDbEntity
  8
001
370
    50
100
AcDb2dPolyline
 66
     1
 10
0.0
 20
0.0
 30
0.0
  0
VERTEX
  5
3BE
330
3BC
100
AcDbEntity
  8
001
370
    50
100
AcDbVertex
100
AcDb2dVertex
 10
63.824991
 20
83.578887
 30
0.0
  0
VERTEX
  5
3BF
330
3BC
100
AcDbEntity
  8
001
370
    50
100
AcDbVertex
100
AcDb2dVertex
 10
63.828658
 20
83.622183
 30
0.0
  0
VERTEX
  5
3C0
330
3BC
100
AcDbEntity
  8
001
370
    50
100
AcDbVertex
100
AcDb2dVertex
 10
63.829349
 20
83.685511
 30
0.0
  0
VERTEX
  5
3C1
330
3BC
100
AcDbEntity
  8
001
370
    50
100
AcDbVertex
100
AcDb2dVertex
 10
63.823535
 20
83.747958
 30
0.0
  0
VERTEX
  5
3C2
330
3BC
100
AcDbEntity
  8
001
370
    50
100
AcDbVertex
100
AcDb2dVertex
 10
63.816385
 20
83.790388
 30
0.0
  0
SEQEND
  5
3BD
330
3BC
100
AcDbEntity
  8
001
370
    50
  0
POLYLINE
  5
3C3
330
1F
100
AcDbEntity
  8
001
370
    50
100
AcDb2dPolyline
 66
     1
 10
0.0
 20
0.0
 30
0.0
  0
VERTEX
  5
3C5
330
3C3
100
AcDbEntity
  8
001
370
    50
100
AcDbVertex
100
AcDb2dVertex
 10
58.446054
 20
83.248916
 30
0.0
  0
VERTEX
  5
3C6
330
3C3
100
AcDbEntity
  8
001
370
    50
100
AcDbVertex
100
AcDb2dVertex
 10
58.445023
 20
83.146106
 30
0.0
  0
VERTEX
  5
3C7
330
3C3
100
AcDbEntity
  8
001
370
    50
100
AcDbVertex
100
AcDb2dVertex
 10
58.462024
 20
83.005985
 30
0.0
  0
VERTEX
  5
3C8
330
3C3
100
AcDbEntity
  8
001
370
    50
100
AcDbVertex
100
AcDb2dVertex
 10
58.504833
 20
82.881317
 30
0.0
  0
VERTEX
  5
3C9
330
3C3
100
AcDbEntity
  8
001
370
    50
100
AcDbVertex
100
AcDb2dVertex
 10
58.569036
 20
82.776945
 30
0.0
  0
VERTEX
  5
3CA
330
3C3
100
AcDbEntity
  8
001
370
    50
100
AcDbVertex
100
AcDb2dVertex
 10
58.659175
 20
82.668284
 30
0.0
  0
VERTEX
  5
3CB
330
3C3
100
AcDbEntity
  8
001
370
    50
100
AcDbVertex
100
AcDb2dVertex
 10
58.763446
 20
82.569595
 30
0.0
  0
VERTEX
  5
3CC
330
3C3
100
AcDbEntity
  8
001
370
    50
100
AcDbVertex
100
AcDb2dVertex
 10
58.896277
 20
82.472496
 30
0.0
  0
VERTEX
  5
3CD
330
3C3
100
AcDbEntity
  8
001
370
    50
100
AcDbVertex
100
AcDb2dVertex
 10
59.038635
 20
82.390997
 30
0.0
  0
VERTEX
  5
3CE
330
3C3
100
AcDbEntity
  8
001
370
    50
100
AcDbVertex
100
AcDb2dVertex
 10
59.209068
 20
82.312364
 30
0.0
  0
VERTEX
  5
3CF
330
3C3
100
AcDbEntity
  8
001
370
    50
100
AcDbVertex
100
AcDb2dVertex
 10
59.385231
 20
82.247233
 30
0.0
  0
VERTEX
  5
3D0
330
3C3
100
AcDbEntity
  8
001
370
    50
100
AcDbVertex
100
AcDb2dVertex
 10
59.586653
 20
82.188645
 30
0.0
  0
VERTEX
  5
3D1
330
3C3
100
AcDbEntity
  8
001
370
    50
100
AcDbVertex
100
AcDb2dVertex
 10
59.791431
 20
82.143199
 30
0.0
  0
VERTEX
  5
3D2
330
3C3
100
AcDbEntity
  8
001
370
    50
100
AcDbVertex
100
AcDb2dVertex
 10
60.016594
 20
82.106715
 30
0.0
  0
VERTEX
  5
3D3
330
3C3
100
AcDbEntity
  8
001
370
    50
100
AcDbVertex
100
AcDb2dVertex
 10
60.243402
 20
82.082437
 30
0.0
  0
VERTEX
  5
3D4
330
3C3
100
AcDbEntity
  8
001
370
    50
100
AcDbVertex
100
AcDb2dVertex
 10
60.48439
 20
82.068891
 30
0.0
  0
VERTEX
  5
3D5
330
3C3
100
AcDbEntity
  8
001
370
    50
100
AcDbVertex
100
AcDb2dVertex
 10
60.725754
 20
82.067016
 30
0.0
  0
VERTEX
  5
3D6
330
3C3
100
AcDbEntity
  8
001
370
    50
100
AcDbVertex
100
AcDb2dVertex
 10
60.974253
 20
82.076593
 30
0.0
  0
VERTEX
  5
3D7
330
3C3
100
AcDbEntity
  8
001
370
    50
100
AcDbVertex
100
AcDb2dVertex
 10
61.22206
 20
82.097462
 30
0.0
  0
VERTEX
  5
3D8
330
3C3
100
AcDbEntity
  8
001
370
    50
100
AcDbVertex
100
AcDb2dVertex
 10
61.469589
 20
82.12952
 30
0.0
  0
VERTEX
  5
3D9
330
3C3
100
AcDbEntity
  8
001
370
    50
100
AcDbVertex
100
AcDb2dVertex
 10
61.715418
 20
82.172738
 30
0.0
  0
VERTEX
  5
3DA
330
3C3
100
AcDbEntity
  8
001
370
    50
100
AcDbVertex
100
AcDb2dVertex
 10
61.953617
 20
82.22593
 30
0.0
  0
VERTEX
  5
3DB
330
3C3
100
AcDbEntity
  8
001
370
    50
100
AcDbVertex
100
AcDb2dVertex
 10
62.189029
 20
82.29028
 30
0.0
  0
VERTEX
  5
3DC
330
3C3
100
AcDbEntity
  8
001
370
    50
100
AcDbVertex
100
AcDb2dVertex
 10
62.409923
 20
82.362405
 30
0.0
  0
VERTEX
  5
3DD
330
3C3
100
AcDbEntity
  8
001
370
    50
100
AcDbVertex
100
AcDb2dVertex
 10
62.626764
 20
82.446085
 30
0.0
  0
VERTEX
  5
3DE
330
3C3
100
AcDbEntity
  8
001
370
    50
100
AcDbVertex
100
AcDb2dVertex
 10
62.82314
 20
82.534812
 30
0.0
  0
VERTEX
  5
3DF
330
3C3
100
AcDbEntity
  8
001
370
    50
100
AcDbVertex
100
AcDb2dVertex
 10
63.013717
 20
82.634849
 30
0.0
  0
VERTEX
  5
3E0
330
3C3
100
AcDbEntity
  8
001
370
    50
100
AcDbVertex
100
AcDb2dVertex
 10
63.179163
 20
82.735725
 30
0.0
  0
VERTEX
  5
3E1
330
3C3
100
AcDbEntity
  8
001
370
    50
100
AcDbVertex
100
AcDb2dVertex
 10
63.33671
 20
82.850142
 30
0.0
  0
VERTEX
  5
3E2
330
3C3
100
AcDbEntity
  8
001
370
    50
100
AcDbVertex
100
AcDb2dVertex
 10
63.466682
 20
82.963634
 30
0.0
  0
VERTEX
  5
3E3
330
3C3
100
AcDbEntity
  8
001
370
    50
100
AcDbVertex
100
AcDb2dVertex
 10
63.584744
 20
83.084633
 30
0.0
  0
VERTEX
  5
3E4
330
3C3
100
AcDbEntity
  8
001
370
    50
100
AcDbVertex
100
AcDb2dVertex
 10
63.674204
 20
83.195387
 30
0.0
  0
VERTEX
  5
3E5
330
3C3
100
AcDbEntity
  8
001
370
    50
100
AcDbVertex
100
AcDb2dVertex
 10
63.749373
 20
83.330337
 30
0.0
  0
VERTEX
  5
3E6
330
3C3
100
AcDbEntity
  8
001
370
    50
100
AcDbVertex
100
AcDb2dVertex
 10
63.800009
 20
83.472476
 30
0.0
  0
VERTEX
  5
3E7
330
3C3
100
AcDbEntity
  8
001
370
    50
100
AcDbVertex
100
AcDb2dVertex
 10
63.824991
 20
83.578887
 30
0.0
  0
SEQEND
  5
3C4
330
3C3
100
AcDbEntity
  8
001
370
    50
  0
POLYLINE
  5
3E8
330
1F
100
AcDbEntity
  8
001
370
    50
100
AcDb2dPolyline
 66
     1
 10
0.0
 20
0.0
 30
0.0
  0
VERTEX
  5
3EA
330
3E8
100
AcDbEntity
  8
001
370
    50
100
AcDbVertex
100
AcDb2dVertex
 10
63.816385
 20
83.790388
 30
0.0
  0
VERTEX
  5
3EB
330
3E8
100
AcDbEntity
  8
001
370
    50
100
AcDbVertex
100
AcDb2dVertex
 10
63.76536
 20
83.666702
 30
0.0
  0
VERTEX
  5
3EC
330
3E8
100
AcDbEntity
  8
001
370
    50
100
AcDbVertex
100
AcDb2dVertex
 10
63.702718
 20
83.549048
 30
0.0
  0
VERTEX
  5
3ED
330
3E8
100
AcDbEntity
  8
001
370
    50
100
AcDbVertex
100
AcDb2dVertex
 10
63.623165
 20
83.448107
 30
0.0
  0
VERTEX
  5
3EE
330
3E8
100
AcDbEntity
  8
001
370
    50
100
AcDbVertex
100
AcDb2dVertex
 10
63.524302
 20
83.366322
 30
0.0
  0
VERTEX
  5
3EF
330
3E8
100
AcDbEntity
  8
001
370
    50
100
AcDbVertex
100
AcDb2dVertex
 10
63.470337
 20
83.336167
 30
0.0
  0
VERTEX
  5
3F0
330
3E8
100
AcDbEntity
  8
001
370
    50
100
AcDbVertex
100
AcDb2dVertex
 10
63.412907
 20
83.31363
 30
0.0
  0
VERTEX
  5
3F1
330
3E8
100
AcDbEntity
  8
001
370
    50
100
AcDbVertex
100
AcDb2dVertex
 10
63.345875
 20
83.298706
 30
0.0
  0
VERTEX
  5
3F2
330
3E8
100
AcDbEntity
  8
001
370
    50
100
AcDbVertex
100
AcDb2dVertex
 10
63.277247
 20
83.294393
 30
0.0
  0
VERTEX
  5
3F3
330
3E8
100
AcDbEntity
  8
001
370
    50
100
AcDbVertex
100
AcDb2dVertex
 10
63.172914
 20
83.306807
 30
0.0
  0
VERTEX
  5
3F4
330
3E8
100
AcDbEntity
  8
001
370
    50
100
AcDbVertex
100
AcDb2dVertex
 10
63.072126
 20
83.337821
 30
0.0
  0
VERTEX
  5
3F5
330
3E8
100
AcDbEntity
  8
001
370
    50
100
AcDbVertex
100
AcDb2dVertex
 10
62.94607
 20
83.400075
 30
0.0
  0
VERTEX
  5
3F6
330
3E8
100
AcDbEntity
  8
001
370
    50
100
AcDbVertex
100
AcDb2dVertex
 10
62.829616
 20
83.47903
 30
0.0
  0
VERTEX
  5
3F7
330
3E8
100
AcDbEntity
  8
001
370
    50
100
AcDbVertex
100
AcDb2dVertex
 10
62.718337
 20
83.571134
 30
0.0
  0
VERTEX
  5
3F8
330
3E8
100
AcDbEntity
  8
001
370
    50
100
AcDbVertex
100
AcDb2dVertex
 10
62.614184
 20
83.67108
 30
0.0
  0
VERTEX
  5
3F9
330
3E8
100
AcDbEntity
  8
001
370
    50
100
AcDbVertex
100
AcDb2dVertex
 10
62.530239
 20
83.760513
 30
0.0
  0
VERTEX
  5
3FA
330
3E8
100
AcDbEntity
  8
001
370
    50
100
AcDbVertex
100
AcDb2dVertex
 10
62.449869
 20
83.853169
 30
0.0
  0
VERTEX
  5
3FB
330
3E8
100
AcDbEntity
  8
001
370
    50
100
AcDbVertex
100
AcDb2dVertex
 10
62.371681
 20
83.949505
 30
0.0
  0
VERTEX
  5
3FC
330
3E8
100
AcDbEntity
  8
001
370
    50
100
AcDbVertex
100
AcDb2dVertex
 10
62.29613
 20
84.04793
 30
0.0
  0
VERTEX
  5
3FD
330
3E8
100
AcDbEntity
  8
001
370
    50
100
AcDbVertex
100
AcDb2dVertex
 10
62.170534
 20
84.222049
 30
0.0
  0
VERTEX
  5
3FE
330
3E8
100
AcDbEntity
  8
001
370
    50
100
AcDbVertex
100
AcDb2dVertex
 10
62.050922
 20
84.400323
 30
0.0
  0
VERTEX
  5
3FF
330
3E8
100
AcDbEntity
  8
001
370
    50
100
AcDbVertex
100
AcDb2dVertex
 10
61.93888
 20
84.578004
 30
0.0
  0
VERTEX
  5
400
330
3E8
100
AcDbEntity
  8
001
370
    50
100
AcDbVertex
100
AcDb2dVertex
 10
61.829504
 20
84.757365
 30
0.0
  0
SEQEND
  5
3E9
330
3E8
100
AcDbEntity
  8
001
370
    50
  0
POLYLINE
  5
401
330
1F
100
AcDbEntity
  8
001
370
    50
100
AcDb2dPolyline
 66
     1
 10
0.0
 20
0.0
 30
0.0
  0
VERTEX
  5
403
330
401
100
AcDbEntity
  8
001
370
    50
100
AcDbVertex
100
AcDb2dVertex
 10
58.666558
 20
60.561637
 30
0.0
  0
VERTEX
  5
404
330
401
100
AcDbEntity
  8
001
370
    50
100
AcDbVertex
100
AcDb2dVertex
 10
58.776548
 20
60.713848
 30
0.0
  0
VERTEX
  5
405
330
401
100
AcDbEntity
  8
001
370
    50
100
AcDbVertex
100
AcDb2dVertex
 10
58.87796
 20
60.871381
 30
0.0
  0
VERTEX
  5
406
330
401
100
AcDbEntity
  8
001
370
    50
100
AcDbVertex
100
AcDb2dVertex
 10
58.890022
 20
60.892441
 30
0.0
  0
VERTEX
  5
407
330
401
100
AcDbEntity
  8
001
370
    50
100
AcDbVertex
100
AcDb2dVertex
 10
58.901801
 20
60.913673
 30
0.0
  0
SEQEND
  5
402
330
401
100
AcDbEntity
  8
001
370
    50
  0
LINE
  5
408
330
1F
100
AcDbEntity
  8
001
370
    50
100
AcDbLine
 10
54.252345
 20
71.658362
 30
0.0
 11
53.985376
 21
71.816883
 31
0.0
  0
LINE
  5
409
330
1F
100
AcDbEntity
  8
001
370
    50
100
AcDbLine
 10
54.041921
 20
74.919013
 30
0.0
 11
53.75379
 21
72.544901
 31
0.0
  0
LINE
  5
40A
330
1F
100
AcDbEntity
  8
001
370
    50
100
AcDbLine
 10
54.252345
 20
78.179663
 30
0.0
 11
54.252345
 21
81.801699
 31
0.0
  0
POLYLINE
  5
40B
330
1F
100
AcDbEntity
  8
001
370
    50
100
AcDb2dPolyline
 66
     1
 10
0.0
 20
0.0
 30
0.0
  0
VERTEX
  5
40D
330
40B
100
AcDbEntity
  8
001
370
    50
100
AcDbVertex
100
AcDb2dVertex
 10
54.08619
 20
74.55425
 30
0.0
  0
VERTEX
  5
40E
330
40B
100
AcDbEntity
  8
001
370
    50
100
AcDbVertex
100
AcDb2dVertex
 10
54.093182
 20
74.524369
 30
0.0
  0
VERTEX
  5
40F
330
40B
100
AcDbEntity
  8
001
370
    50
100
AcDbVertex
100
AcDb2dVertex
 10
54.107845
 20
74.484631
 30
0.0
  0
VERTEX
  5
410
330
40B
100
AcDbEntity
  8
001
370
    50
100
AcDbVertex
100
AcDb2dVertex
 10
54.12949
 20
74.448864
 30
0.0
  0
VERTEX
  5
411
330
40B
100
AcDbEntity
  8
001
370
    50
100
AcDbVertex
100
AcDb2dVertex
 10
54.154817
 20
74.420453
 30
0.0
  0
VERTEX
  5
412
330
40B
100
AcDbEntity
  8
001
370
    50
100
AcDbVertex
100
AcDb2dVertex
 10
54.186841
 20
74.391338
 30
0.0
  0
VERTEX
  5
413
330
40B
100
AcDbEntity
  8
001
370
    50
100
AcDbVertex
100
AcDb2dVertex
 10
54.225567
 20
74.363818
 30
0.0
  0
VERTEX
  5
414
330
40B
100
AcDbEntity
  8
001
370
    50
100
AcDbVertex
100
AcDb2dVertex
 10
54.238706
 20
74.355971
 30
0.0
  0
VERTEX
  5
415
330
40B
100
AcDbEntity
  8
001
370
    50
100
AcDbVertex
100
AcDb2dVertex
 10
54.252345
 20
74.348341
 30
0.0
  0
SEQEND
  5
40C
330
40B
100
AcDbEntity
  8
001
370
    50
  0
POLYLINE
  5
416
330
1F
100
AcDbEntity
  8
001
370
    50
100
AcDb2dPolyline
 66
     1
 10
0.0
 20
0.0
 30
0.0
  0
VERTEX
  5
418
330
416
100
AcDbEntity
  8
001
370
    50
100
AcDbVertex
100
AcDb2dVertex
 10
66.026327
 20
76.075805
 30
0.0
  0
VERTEX
  5
419
330
416
100
AcDbEntity
  8
001
370
    50
100
AcDbVertex
100
AcDb2dVertex
 10
66.026289
 20
76.076511
 30
0.0
  0
VERTEX
  5
41A
330
416
100
AcDbEntity
  8
001
370
    50
100
AcDbVertex
100
AcDb2dVertex
 10
66.026247
 20
76.077219
 30
0.0
  0
VERTEX
  5
41B
330
416
100
AcDbEntity
  8
001
370
    50
100
AcDbVertex
100
AcDb2dVertex
 10
66.025683
 20
76.084317
 30
0.0
  0
VERTEX
  5
41C
330
416
100
AcDbEntity
  8
001
370
    50
100
AcDbVertex
100
AcDb2dVertex
 10
66.025164
 20
76.089162
 30
0.0
  0
SEQEND
  5
417
330
416
100
AcDbEntity
  8
001
370
    50
  0
LINE
  5
41D
330
1F
100
AcDbEntity
  8
001
370
    50
100
AcDbLine
 10
65.780518
 20
78.104966
 30
0.0
 11
66.247483
 21
78.382239
 31
0.0
  0
ARC
  5
41E
330
1F
100
AcDbEntity
  8
001
  6
DASHED
370
    30
100
AcDbCircle
 10
57.252345
 20
69.203726
 30
0.0
 40
1.999999999999998
100
AcDbArc
 50
0.0
 51
45.0
  0
LINE
  5
41F
330
1F
100
AcDbEntity
  8
001
  6
DASHED
370
    30
100
AcDbLine
 10
54.838131
 20
74.446366
 30
0.0
 11
58.666558
 21
70.617939
 31
0.0
  0
ARC
  5
420
330
1F
100
AcDbEntity
  8
001
  6
DASHED
370
    30
100
AcDbCircle
 10
56.252345
 20
75.86058
 30
0.0
 40
2.0
100
AcDbArc
 50
180.0
 51
225.0
  0
LINE
  5
421
330
1F
100
AcDbEntity
  8
001
  6
DASHED
370
    30
100
AcDbLine
 10
59.252345
 20
60.86058
 30
0.0
 11
59.252345
 21
69.203726
 31
0.0
  0
LINE
  5
422
330
1F
100
AcDbEntity
  8
001
370
    50
100
AcDbLine
 10
80.752345
 20
57.032153
 30
0.0
 11
80.752345
 21
73.032153
 31
0.0
  0
ARC
  5
423
330
1F
100
AcDbEntity
  8
001
370
    50
100
AcDbCircle
 10
135.752345
 20
70.032153
 30
0.0
 40
3.0
100
AcDbArc
 50
0.0
 51
90.0
  0
ARC
  5
424
330
1F
100
AcDbEntity
  8
001
370
    50
100
AcDbCircle
 10
135.752345
 20
60.032153
 30
0.0
 40
3.0
100
AcDbArc
 50
270.0
 51
0.0
  0
LINE
  5
425
330
1F
100
AcDbEntity
  8
001
370
    50
100
AcDbLine
 10
138.752345
 20
65.032153
 30
0.0
 11
142.216446
 21
63.032153
 31
0.0
  0
LINE
  5
426
330
1F
100
AcDbEntity
  8
001
370
    50
100
AcDbLine
 10
138.752345
 20
65.032153
 30
0.0
 11
142.216446
 21
67.032153
 31
0.0
  0
LINE
  5
427
330
1F
100
AcDbEntity
  8
001
  6
CENTER
370
     9
100
AcDbLine
 10
52.024987
 20
65.032153
 30
0.0
 11
141.632342
 21
65.032153
 31
0.0
  0
LINE
  5
428
330
1F
100
AcDbEntity
  8
001
370
    50
100
AcDbLine
 10
80.752345
 20
72.532153
 30
0.0
 11
78.752345
 21
72.532153
 31
0.0
  0
LINE
  5
429
330
1F
100
AcDbEntity
  8
001
370
    50
100
AcDbLine
 10
78.752345
 20
57.532153
 30
0.0
 11
80.752345
 21
57.532153
 31
0.0
  0
CIRCLE
  5
42A
330
1F
100
AcDbEntity
  8
001
370
    50
100
AcDbCircle
 10
59.756166
 20
45.032153
 30
0.0
 40
1.905
  0
LINE
  5
42B
330
1F
100
AcDbEntity
  8
001
370
    50
100
AcDbLine
 10
59.356166
 20
51.035974
 30
0.0
 11
60.156166
 21
51.035974
 31
0.0
  0
ARC
  5
42C
330
1F
100
AcDbEntity
  8
001
370
    50
100
AcDbCircle
 10
59.356166
 20
50.235974
 30
0.0
 40
0.8
100
AcDbArc
 50
90.0
 51
135.0
  0
ARC
  5
42D
330
1F
100
AcDbEntity
  8
001
370
    50
100
AcDbCircle
 10
60.156166
 20
50.235974
 30
0.0
 40
0.8
100
AcDbArc
 50
45.0
 51
90.0
  0
LINE
  5
42E
330
1F
100
AcDbEntity
  8
001
370
    50
100
AcDbLine
 10
53.752345
 20
45.432153
 30
0.0
 11
53.752345
 21
44.632153
 31
0.0
  0
ARC
  5
42F
330
1F
100
AcDbEntity
  8
001
370
    50
100
AcDbCircle
 10
54.552345
 20
44.632153
 30
0.0
 40
0.8
100
AcDbArc
 50
180.0
 51
224.46518
  0
ARC
  5
430
330
1F
100
AcDbEntity
  8
001
370
    50
100
AcDbCircle
 10
54.552345
 20
45.432153
 30
0.0
 40
0.8
100
AcDbArc
 50
135.0
 51
180.0
  0
LINE
  5
431
330
1F
100
AcDbEntity
  8
001
370
    50
100
AcDbLine
 10
59.288099
 20
39.007153
 30
0.0
 11
60.134987
 21
39.007153
 31
0.0
  0
LINE
  5
432
330
1F
100
AcDbEntity
  8
001
370
    50
100
AcDbLine
 10
65.759987
 20
45.432153
 30
0.0
 11
65.759987
 21
44.632153
 31
0.0
  0
ARC
  5
433
330
1F
100
AcDbEntity
  8
001
370
    50
100
AcDbCircle
 10
64.959987
 20
45.432153
 30
0.0
 40
0.8
100
AcDbArc
 50
0.0
 51
45.0
  0
ARC
  5
434
330
1F
100
AcDbEntity
  8
001
370
    50
100
AcDbCircle
 10
64.959987
 20
44.632153
 30
0.0
 40
0.8
100
AcDbArc
 50
315.0
 51
0.0
  0
LINE
  5
435
330
1F
100
AcDbEntity
  8
001
370
    50
100
AcDbLine
 10
53.986659
 20
45.997838
 30
0.0
 11
58.790481
 21
50.801659
 31
0.0
  0
LINE
  5
436
330
1F
100
AcDbEntity
  8
001
370
    50
100
AcDbLine
 10
60.700673
 20
39.241467
 30
0.0
 11
65.525673
 21
44.066467
 31
0.0
  0
POLYLINE
  5
437
330
1F
100
AcDbEntity
  8
001
370
    50
100
AcDb2dPolyline
 66
     1
 10
0.0
 20
0.0
 30
0.0
  0
VERTEX
  5
439
330
437
100
AcDbEntity
  8
001
370
    50
100
AcDbVertex
100
AcDb2dVertex
 10
66.160365
 20
45.363146
 30
0.0
  0
VERTEX
  5
43A
330
437
100
AcDbEntity
  8
001
370
    50
100
AcDbVertex
100
AcDb2dVertex
 10
66.261258
 20
45.333037
 30
0.0
  0
VERTEX
  5
43B
330
437
100
AcDbEntity
  8
001
370
    50
100
AcDbVertex
100
AcDb2dVertex
 10
66.363315
 20
45.315396
 30
0.0
  0
VERTEX
  5
43C
330
437
100
AcDbEntity
  8
001
370
    50
100
AcDbVertex
100
AcDb2dVertex
 10
66.4356
 20
45.315418
 30
0.0
  0
VERTEX
  5
43D
330
437
100
AcDbEntity
  8
001
370
    50
100
AcDbVertex
100
AcDb2dVertex
 10
66.508466
 20
45.321667
 30
0.0
  0
SEQEND
  5
438
330
437
100
AcDbEntity
  8
001
370
    50
  0
LINE
  5
43E
330
1F
100
AcDbEntity
  8
001
370
    50
100
AcDbLine
 10
65.525673
 20
45.997838
 30
0.0
 11
66.160365
 21
45.363146
 31
0.0
  0
LINE
  5
43F
330
1F
100
AcDbEntity
  8
001
370
    50
100
AcDbLine
 10
65.525673
 20
45.997838
 30
0.0
 11
60.721851
 21
50.801659
 31
0.0
  0
LINE
  5
440
330
1F
100
AcDbEntity
  8
001
370
    50
100
AcDbLine
 10
66.508466
 20
45.321667
 30
0.0
 11
65.757317
 21
44.566842
 31
0.0
  0
LINE
  5
441
330
1F
100
AcDbEntity
  8
001
370
    50
100
AcDbLine
 10
65.753908
 20
44.533716
 30
0.0
 11
67.926064
 21
46.705872
 31
0.0
  0
LINE
  5
442
330
1F
100
AcDbEntity
  8
001
370
     9
100
AcDbLine
 10
49.723339
 20
45.032153
 30
0.0
 11
55.330621
 21
45.032153
 31
0.0
  0
ARC
  5
443
330
1F
100
AcDbEntity
  8
001
370
    50
100
AcDbCircle
 10
60.134987
 20
39.807153
 30
0.0
 40
0.8
100
AcDbArc
 50
270.0
 51
315.0
  0
LINE
  5
444
330
1F
100
AcDbEntity
  8
001
370
    50
100
AcDbLine
 10
53.981404
 20
44.071772
 30
0.0
 11
58.717158
 21
39.246772
 31
0.0
  0
ARC
  5
445
330
1F
100
AcDbEntity
  8
001
370
    50
100
AcDbCircle
 10
59.288099
 20
39.807153
 30
0.0
 40
0.8
100
AcDbArc
 50
224.46518
 51
270.0
  0
LINE
  5
446
330
1F
100
AcDbEntity
  8
001
370
    50
100
AcDbLine
 10
54.252345
 20
46.263524
 30
0.0
 11
54.252345
 21
55.427895
 31
0.0
  0
ARC
  5
447
330
1F
100
AcDbEntity
  8
001
370
    50
100
AcDbCircle
 10
59.756166
 20
49.535974
 30
0.0
 40
2.5
100
AcDbArc
 50
354.133318
 51
185.866682
  0
LINE
  5
448
330
1F
100
AcDbEntity
  8
001
  6
PHANTOM
370
     9
100
AcDbLine
 10
59.288099
 20
91.057153
 30
0.0
 11
60.134987
 21
91.057153
 31
0.0
  0
LINE
  5
449
330
1F
100
AcDbEntity
  8
001
  6
PHANTOM
370
     9
100
AcDbLine
 10
60.700673
 20
90.822838
 30
0.0
 11
65.525673
 21
85.997838
 31
0.0
  0
ARC
  5
44A
330
1F
100
AcDbEntity
  8
001
  6
PHANTOM
370
     9
100
AcDbCircle
 10
60.134987
 20
90.257153
 30
0.0
 40
0.8
100
AcDbArc
 50
45.0
 51
90.0
  0
LINE
  5
44B
330
1F
100
AcDbEntity
  8
001
  6
PHANTOM
370
     9
100
AcDbLine
 10
53.981404
 20
85.992533
 30
0.0
 11
58.717158
 21
90.817533
 31
0.0
  0
ARC
  5
44C
330
1F
100
AcDbEntity
  8
001
  6
PHANTOM
370
     9
100
AcDbCircle
 10
59.288099
 20
90.257153
 30
0.0
 40
0.8
100
AcDbArc
 50
90.0
 51
135.53482
  0
LINE
  5
44D
330
1F
100
AcDbEntity
  8
001
  6
PHANTOM
370
     9
100
AcDbLine
 10
53.752345
 20
84.632153
 30
0.0
 11
53.752345
 21
85.432153
 31
0.0
  0
ARC
  5
44E
330
1F
100
AcDbEntity
  8
001
  6
PHANTOM
370
     9
100
AcDbCircle
 10
54.552345
 20
85.432153
 30
0.0
 40
0.8
100
AcDbArc
 50
135.53482
 51
180.0
  0
ARC
  5
44F
330
1F
100
AcDbEntity
  8
001
  6
PHANTOM
370
     9
100
AcDbCircle
 10
54.552345
 20
84.632153
 30
0.0
 40
0.8
100
AcDbArc
 50
180.0
 51
225.0
  0
LINE
  5
450
330
1F
100
AcDbEntity
  8
001
370
     9
100
AcDbLine
 10
49.723339
 20
85.032153
 30
0.0
 11
55.330621
 21
85.032153
 31
0.0
  0
LINE
  5
451
330
1F
100
AcDbEntity
  8
001
  6
DASHED
370
    30
100
AcDbLine
 10
54.252345
 20
75.86058
 30
0.0
 11
54.252345
 21
78.179663
 31
0.0
  0
ENDSEC
  0
SECTION
  2
OBJECTS
  0
DICTIONARY
  5
C
330
0
100
AcDbDictionary
281
     1
  3
ACAD_GROUP
350
D
  3
ACAD_LAYOUT
350
1A
  3
ACAD_MLEADERSTYLE
350
455
  3
ACAD_MLINESTYLE
350
17
  3
ACAD_PLOTSETTINGS
350
19
  3
ACAD_PLOTSTYLENAME
350
E
  3
ACAD_SCALELIST
350
3B
  3
ACAD_TABLESTYLE
350
454
  3
ACAD_VISUALSTYLE
350
2A
  3
AcDbVariableDictionary
350
452
  0
DICTIONARY
  5
D
102
{ACAD_REACTORS
330
C
102
}
330
C
100
AcDbDictionary
281
     1
  0
DICTIONARY
  5
1A
102
{ACAD_REACTORS
330
C
102
}
330
C
100
AcDbDictionary
281
     1
  3
Layout1
350
1E
  3
Layout2
350
26
  3
Model
350
22
  0
DICTIONARY
  5
455
102
{ACAD_REACTORS
330
C
102
}
330
C
100
AcDbDictionary
281
     1
  0
DICTIONARY
  5
17
102
{ACAD_REACTORS
330
C
102
}
330
C
100
AcDbDictionary
281
     1
  3
Standard
350
18
  0
DICTIONARY
  5
19
102
{ACAD_REACTORS
330
C
102
}
330
C
100
AcDbDictionary
281
     1
  0
ACDBDICTIONARYWDFLT
  5
E
102
{ACAD_REACTORS
330
C
102
}
330
C
100
AcDbDictionary
281
     1
  3
Normal
350
F
100
AcDbDictionaryWithDefault
340
F
  0
DICTIONARY
  5
3B
102
{ACAD_REACTORS
330
C
102
}
330
C
100
AcDbDictionary
281
     1
  3
A0
350
3C
  3
A1
350
3D
  3
A2
350
3E
  3
A3
350
3F
  3
A4
350
40
  3
A5
350
41
  3
A6
350
42
  3
A7
350
43
  3
A8
350
44
  3
A9
350
45
  3
B0
350
46
  3
B1
350
47
  3
B2
350
48
  3
B3
350
49
  3
B4
350
4A
  3
B5
350
4B
  3
B6
350
4C
  3
B7
350
4D
  3
B8
350
4E
  3
B9
350
4F
  3
C0
350
50
  3
C1
350
51
  3
C2
350
52
  3
C3
350
53
  3
C4
350
54
  3
C5
350
55
  3
C6
350
56
  3
C7
350
57
  3
C8
350
58
  3
C9
350
59
  3
D0
350
5A
  3
D1
350
5B
  3
D2
350
5C
  0
DICTIONARY
  5
454
102
{ACAD_REACTORS
330
C
102
}
330
C
100
AcDbDictionary
281
     1
  0
DICTIONARY
  5
2A
102
{ACAD_REACTORS
330
C
102
}
330
C
100
AcDbDictionary
281
     1
  3
2dWireframe
350
2F
  3
3D Hidden
350
31
  3
3dWireframe
350
30
  3
Basic
350
32
  3
Brighten
350
36
  3
ColorChange
350
3A
  3
Conceptual
350
34
  3
Dim
350
35
  3
Facepattern
350
39
  3
Flat
350
2B
  3
FlatWithEdges
350
2C
  3
Gouraud
350
2D
  3
GouraudWithEdges
350
2E
  3
Linepattern
350
38
  3
Realistic
350
33
  3
Thicken
350
37
  0
DICTIONARY
  5
452
102
{ACAD_REACTORS
330
C
102
}
330
C
100
AcDbDictionary
281
     1
  3
CANNOSCALE
350
453
  3
PSOLHEIGHT
350
457
  3
PSOLWIDTH
350
456
  0
LAYOUT
  5
1E
102
{ACAD_REACTORS
330
1A
102
}
330
1A
100
AcDbPlotSettings
  1

  2
none_device
  4

  6

 40
0.0
 41
0.0
 42
0.0
 43
0.0
 44
0.0
 45
0.0
 46
0.0
 47
0.0
 48
0.0
 49
0.0
140
0.0
141
0.0
142
1.0
143
1.0
 70
   688
 72
     0
 73
     0
 74
     5
  7

 75
    16
147
1.0
148
0.0
149
0.0
100
AcDbLayout
  1
Layout1
 70
     1
 71
     1
 10
0.0
 20
0.0
 11
12.0
 21
9.0
 12
0.0
 22
0.0
 32
0.0
 14
1.000000E+20
 24
1.000000E+20
 34
0.0
 15
-1.000000E+20
 25
-1.000000E+20
 35
0.0
146
0.0
 13
0.0
 23
0.0
 33
0.0
 16
1.0
 26
0.0
 36
0.0
 17
0.0
 27
1.0
 37
0.0
 76
     0
330
1B
  0
LAYOUT
  5
26
102
{ACAD_REACTORS
330
1A
102
}
330
1A
100
AcDbPlotSettings
  1

  2
none_device
  4

  6

 40
0.0
 41
0.0
 42
0.0
 43
0.0
 44
0.0
 45
0.0
 46
0.0
 47
0.0
 48
0.0
 49
0.0
140
0.0
141
0.0
142
1.0
143
1.0
 70
   688
 72
     0
 73
     0
 74
     5
  7

 75
    16
147
1.0
148
0.0
149
0.0
100
AcDbLayout
  1
Layout2
 70
     1
 71
     2
 10
0.0
 20
0.0
 11
0.0
 21
0.0
 12
0.0
 22
0.0
 32
0.0
 14
0.0
 24
0.0
 34
0.0
 15
0.0
 25
0.0
 35
0.0
146
0.0
 13
0.0
 23
0.0
 33
0.0
 16
1.0
 26
0.0
 36
0.0
 17
0.0
 27
1.0
 37
0.0
 76
     0
330
23
  0
LAYOUT
  5
22
102
{ACAD_REACTORS
330
1A
102
}
330
1A
100
AcDbPlotSettings
  1

  2
none_device
  4

  6

 40
0.0
 41
0.0
 42
0.0
 43
0.0
 44
0.0
 45
0.0
 46
0.0
 47
0.0
 48
0.0
 49
0.0
140
0.0
141
0.0
142
1.0
143
1.0
 70
  1712
 72
     0
 73
     0
 74
     0
  7

 75
     0
147
1.0
148
0.0
149
0.0
100
AcDbLayout
  1
Model
 70
     1
 71
     0
 10
0.0
 20
0.0
 11
12.0
 21
9.0
 12
0.0
 22
0.0
 32
0.0
 14
17.278046
 24
1.506096
 34
0.0
 15
167.278046
 25
113.784889
 35
0.0
146
0.0
 13
0.0
 23
0.0
 33
0.0
 16
1.0
 26
0.0
 36
0.0
 17
0.0
 27
1.0
 37
0.0
 76
     0
330
1F
331
29
  0
MLINESTYLE
  5
18
102
{ACAD_REACTORS
330
17
102
}
330
17
100
AcDbMlineStyle
  2
Standard
 70
     0
  3

 62
   256
 51
90.0
 52
90.0
 71
     2
 49
0.5
 62
   256
  6
BYLAYER
 49
-0.5
 62
   256
  6
BYLAYER
  0
ACDBPLACEHOLDER
  5
F
102
{ACAD_REACTORS
330
E
102
}
330
E
  0
SCALE
  5
3C
102
{ACAD_REACTORS
330
3B
102
}
330
3B
100
AcDbScale
 70
     0
300
1:1
140
1.0
141
1.0
290
     1
  0
SCALE
  5
3D
102
{ACAD_REACTORS
330
3B
102
}
330
3B
100
AcDbScale
 70
     0
300
1:2
140
1.0
141
2.0
290
     0
  0
SCALE
  5
3E
102
{ACAD_REACTORS
330
3B
102
}
330
3B
100
AcDbScale
 70
     0
300
1:4
140
1.0
141
4.0
290
     0
  0
SCALE
  5
3F
102
{ACAD_REACTORS
330
3B
102
}
330
3B
100
AcDbScale
 70
     0
300
1:5
140
1.0
141
5.0
290
     0
  0
SCALE
  5
40
102
{ACAD_REACTORS
330
3B
102
}
330
3B
100
AcDbScale
 70
     0
300
1:8
140
1.0
141
8.0
290
     0
  0
SCALE
  5
41
102
{ACAD_REACTORS
330
3B
102
}
330
3B
100
AcDbScale
 70
     0
300
1:10
140
1.0
141
10.0
290
     0
  0
SCALE
  5
42
102
{ACAD_REACTORS
330
3B
102
}
330
3B
100
AcDbScale
 70
     0
300
1:16
140
1.0
141
16.0
290
     0
  0
SCALE
  5
43
102
{ACAD_REACTORS
330
3B
102
}
330
3B
100
AcDbScale
 70
     0
300
1:20
140
1.0
141
20.0
290
     0
  0
SCALE
  5
44
102
{ACAD_REACTORS
330
3B
102
}
330
3B
100
AcDbScale
 70
     0
300
1:30
140
1.0
141
30.0
290
     0
  0
SCALE
  5
45
102
{ACAD_REACTORS
330
3B
102
}
330
3B
100
AcDbScale
 70
     0
300
1:40
140
1.0
141
40.0
290
     0
  0
SCALE
  5
46
102
{ACAD_REACTORS
330
3B
102
}
330
3B
100
AcDbScale
 70
     0
300
1:50
140
1.0
141
50.0
290
     0
  0
SCALE
  5
47
102
{ACAD_REACTORS
330
3B
102
}
330
3B
100
AcDbScale
 70
     0
300
1:100
140
1.0
141
100.0
290
     0
  0
SCALE
  5
48
102
{ACAD_REACTORS
330
3B
102
}
330
3B
100
AcDbScale
 70
     0
300
2:1
140
2.0
141
1.0
290
     0
  0
SCALE
  5
49
102
{ACAD_REACTORS
330
3B
102
}
330
3B
100
AcDbScale
 70
     0
300
4:1
140
4.0
141
1.0
290
     0
  0
SCALE
  5
4A
102
{ACAD_REACTORS
330
3B
102
}
330
3B
100
AcDbScale
 70
     0
300
8:1
140
8.0
141
1.0
290
     0
  0
SCALE
  5
4B
102
{ACAD_REACTORS
330
3B
102
}
330
3B
100
AcDbScale
 70
     0
300
10:1
140
10.0
141
1.0
290
     0
  0
SCALE
  5
4C
102
{ACAD_REACTORS
330
3B
102
}
330
3B
100
AcDbScale
 70
     0
300
100:1
140
100.0
141
1.0
290
     0
  0
SCALE
  5
4D
102
{ACAD_REACTORS
330
3B
102
}
330
3B
100
AcDbScale
 70
     0
300
1/128" = 1'-0"
140
0.007812
141
12.0
290
     0
  0
SCALE
  5
4E
102
{ACAD_REACTORS
330
3B
102
}
330
3B
100
AcDbScale
 70
     0
300
1/64" = 1'-0"
140
0.015625
141
12.0
290
     0
  0
SCALE
  5
4F
102
{ACAD_REACTORS
330
3B
102
}
330
3B
100
AcDbScale
 70
     0
300
1/32" = 1'-0"
140
0.03125
141
12.0
290
     0
  0
SCALE
  5
50
102
{ACAD_REACTORS
330
3B
102
}
330
3B
100
AcDbScale
 70
     0
300
1/16" = 1'-0"
140
0.0625
141
12.0
290
     0
  0
SCALE
  5
51
102
{ACAD_REACTORS
330
3B
102
}
330
3B
100
AcDbScale
 70
     0
300
3/32" = 1'-0"
140
0.09375
141
12.0
290
     0
  0
SCALE
  5
52
102
{ACAD_REACTORS
330
3B
102
}
330
3B
100
AcDbScale
 70
     0
300
1/8" = 1'-0"
140
0.125
141
12.0
290
     0
  0
SCALE
  5
53
102
{ACAD_REACTORS
330
3B
102
}
330
3B
100
AcDbScale
 70
     0
300
3/16" = 1'-0"
140
0.1875
141
12.0
290
     0
  0
SCALE
  5
54
102
{ACAD_REACTORS
330
3B
102
}
330
3B
100
AcDbScale
 70
     0
300
1/4" = 1'-0"
140
0.25
141
12.0
290
     0
  0
SCALE
  5
55
102
{ACAD_REACTORS
330
3B
102
}
330
3B
100
AcDbScale
 70
     0
300
3/8" = 1'-0"
140
0.375
141
12.0
290
     0
  0
SCALE
  5
56
102
{ACAD_REACTORS
330
3B
102
}
330
3B
100
AcDbScale
 70
     0
300
1/2" = 1'-0"
140
0.5
141
12.0
290
     0
  0
SCALE
  5
57
102
{ACAD_REACTORS
330
3B
102
}
330
3B
100
AcDbScale
 70
     0
300
3/4" = 1'-0"
140
0.75
141
12.0
290
     0
  0
SCALE
  5
58
102
{ACAD_REACTORS
330
3B
102
}
330
3B
100
AcDbScale
 70
     0
300
1" = 1'-0"
140
1.0
141
12.0
290
     0
  0
SCALE
  5
59
102
{ACAD_REACTORS
330
3B
102
}
330
3B
100
AcDbScale
 70
     0
300
1-1/2" = 1'-0"
140
1.5
141
12.0
290
     0
  0
SCALE
  5
5A
102
{ACAD_REACTORS
330
3B
102
}
330
3B
100
AcDbScale
 70
     0
300
3" = 1'-0"
140
3.0
141
12.0
290
     0
  0
SCALE
  5
5B
102
{ACAD_REACTORS
330
3B
102
}
330
3B
100
AcDbScale
 70
     0
300
6" = 1'-0"
140
6.0
141
12.0
290
     0
  0
SCALE
  5
5C
102
{ACAD_REACTORS
330
3B
102
}
330
3B
100
AcDbScale
 70
     0
300
1'-0" = 1'-0"
140
12.0
141
12.0
290
     0
  0
VISUALSTYLE
  5
2F
102
{ACAD_REACTORS
330
2A
102
}
330
2A
100
AcDbVisualStyle
  2
2dWireframe
 70
     4
 71
     0
 72
     2
 73
     0
 90
        0
 40
-0.6
 41
-30.0
 62
     5
 63
     7
 74
     1
 91
        4
 64
     7
 65
   257
 75
     1
175
     1
 42
1.0
 92
        0
 66
   257
 43
1.0
 76
     1
 77
     6
 78
     2
 67
     7
 79
     5
170
     0
171
     0
290
     0
174
     0
 93
        1
 44
0.0
173
     0
291
     0
 45
0.0
1001
ACAD
1000
AcDbSavedByObjectVersion
1070
     0
  0
VISUALSTYLE
  5
31
102
{ACAD_REACTORS
330
2A
102
}
330
2A
100
AcDbVisualStyle
  2
3D Hidden
 70
     6
 71
     1
 72
     2
 73
     2
 90
        0
 40
-0.6
 41
-30.0
 62
     5
 63
     7
 74
     2
 91
        2
 64
     7
 65
   257
 75
     2
175
     1
 42
40.0
 92
        0
 66
   257
 43
1.0
 76
     1
 77
     6
 78
     2
 67
     7
 79
     3
170
     0
171
     0
290
     0
174
     0
 93
        1
 44
0.0
173
     0
291
     0
 45
0.0
1001
ACAD
1000
AcDbSavedByObjectVersion
1070
     0
  0
VISUALSTYLE
  5
30
102
{ACAD_REACTORS
330
2A
102
}
330
2A
100
AcDbVisualStyle
  2
3dWireframe
 70
     5
 71
     0
 72
     2
 73
     0
 90
        0
 40
-0.6
 41
-30.0
 62
     5
 63
     7
 74
     1
 91
        4
 64
     7
 65
   257
 75
     1
175
     1
 42
1.0
 92
        0
 66
   257
 43
1.0
 76
     1
 77
     6
 78
     2
 67
     7
 79
     5
170
     0
171
     0
290
     0
174
     0
 93
        1
 44
0.0
173
     0
291
     0
 45
0.0
1001
ACAD
1000
AcDbSavedByObjectVersion
1070
     0
  0
VISUALSTYLE
  5
32
102
{ACAD_REACTORS
330
2A
102
}
330
2A
100
AcDbVisualStyle
  2
Basic
 70
     7
 71
     1
 72
     0
 73
     1
 90
        0
 40
-0.6
 41
-30.0
 62
     5
 63
     7
 74
     0
 91
        4
 64
     7
 65
   257
 75
     1
175
     1
 42
1.0
 92
        8
 66
     7
 43
1.0
 76
     1
 77
     6
 78
     2
 67
     7
 79
     5
170
     0
171
     0
290
     0
174
     0
 93
        1
 44
0.0
173
     0
291
     1
 45
0.0
1001
ACAD
1000
AcDbSavedByObjectVersion
1070
     0
  0
VISUALSTYLE
  5
36
102
{ACAD_REACTORS
330
2A
102
}
330
2A
100
AcDbVisualStyle
  2
Brighten
 70
    12
 71
     2
 72
     2
 73
     0
 90
        0
 40
-0.6
 41
-30.0
 62
     5
 63
     7
 74
     1
 91
        4
 64
     7
 65
   257
 75
     1
175
     1
 42
1.0
 92
        8
 66
     7
 43
1.0
 76
     1
 77
     6
 78
     2
 67
     7
 79
     5
170
     0
171
     0
290
     0
174
     0
 93
        1
 44
50.0
173
     0
291
     1
 45
0.0
1001
ACAD
1000
AcDbSavedByObjectVersion
1070
     0
  0
VISUALSTYLE
  5
3A
102
{ACAD_REACTORS
330
2A
102
}
330
2A
100
AcDbVisualStyle
  2
ColorChange
 70
    16
 71
     2
 72
     2
 73
     3
 90
        0
 40
-0.6
 41
-30.0
 62
     5
 63
     8
 74
     1
 91
        4
 64
     7
 65
   257
 75
     1
175
     1
 42
1.0
 92
        8
 66
     8
 43
1.0
 76
     1
 77
     6
 78
     2
 67
     7
 79
     5
170
     0
171
     0
290
     0
174
     0
 93
        1
 44
0.0
173
     0
291
     1
 45
0.0
1001
ACAD
1000
AcDbSavedByObjectVersion
1070
     0
  0
VISUALSTYLE
  5
34
102
{ACAD_REACTORS
330
2A
102
}
330
2A
100
AcDbVisualStyle
  2
Conceptual
 70
     9
 71
     3
 72
     2
 73
     0
 90
        0
 40
-0.6
 41
-30.0
 62
     5
 63
     7
 74
     2
 91
        2
 64
     7
 65
   257
 75
     1
175
     1
 42
40.0
 92
        8
 66
     7
 43
1.0
 76
     1
 77
     6
 78
     2
 67
     7
 79
     3
170
     0
171
     0
290
     0
174
     0
 93
        1
 44
0.0
173
     0
291
     0
 45
0.0
1001
ACAD
1000
AcDbSavedByObjectVersion
1070
     0
  0
VISUALSTYLE
  5
35
102
{ACAD_REACTORS
330
2A
102
}
330
2A
100
AcDbVisualStyle
  2
Dim
 70
    11
 71
     2
 72
     2
 73
     0
 90
        0
 40
-0.6
 41
-30.0
 62
     5
 63
     7
 74
     1
 91
        4
 64
     7
 65
   257
 75
     1
175
     1
 42
1.0
 92
        8
 66
     7
 43
1.0
 76
     1
 77
     6
 78
     2
 67
     7
 79
     5
170
     0
171
     0
290
     0
174
     0
 93
        1
 44
-50.0
173
     0
291
     1
 45
0.0
1001
ACAD
1000
AcDbSavedByObjectVersion
1070
     0
  0
VISUALSTYLE
  5
39
102
{ACAD_REACTORS
330
2A
102
}
330
2A
100
AcDbVisualStyle
  2
Facepattern
 70
    15
 71
     2
 72
     2
 73
     0
 90
        0
 40
-0.6
 41
-30.0
 62
     5
 63
     7
 74
     1
 91
        4
 64
     7
 65
   257
 75
     1
175
     1
 42
1.0
 92
        8
 66
     7
 43
1.0
 76
     1
 77
     6
 78
     2
 67
     7
 79
     5
170
     0
171
     0
290
     0
174
     0
 93
        1
 44
0.0
173
     0
291
     1
 45
0.0
1001
ACAD
1000
AcDbSavedByObjectVersion
1070
     0
  0
VISUALSTYLE
  5
2B
102
{ACAD_REACTORS
330
2A
102
}
330
2A
100
AcDbVisualStyle
  2
Flat
 70
     0
 71
     2
 72
     1
 73
     1
 90
        2
 40
-0.6
 41
30.0
 62
     5
 63
     7
 74
     0
 91
        4
 64
     7
 65
   257
 75
     1
175
     1
 42
1.0
 92
        8
 66
     7
 43
1.0
 76
     1
 77
     6
 78
     2
 67
     7
 79
     5
170
     0
171
     0
290
     0
174
     0
 93
       13
 44
0.0
173
     0
291
     1
 45
0.0
1001
ACAD
1000
AcDbSavedByObjectVersion
1070
     0
  0
VISUALSTYLE
  5
2C
102
{ACAD_REACTORS
330
2A
102
}
330
2A
100
AcDbVisualStyle
  2
FlatWithEdges
 70
     1
 71
     2
 72
     1
 73
     1
 90
        2
 40
-0.6
 41
30.0
 62
     5
 63
     7
 74
     1
 91
        4
 64
     7
 65
   257
 75
     1
175
     1
 42
1.0
 92
        0
 66
   257
 43
1.0
 76
     1
 77
     6
 78
     2
 67
     7
 79
     5
170
     0
171
     0
290
     0
174
     0
 93
       13
 44
0.0
173
     0
291
     1
 45
0.0
1001
ACAD
1000
AcDbSavedByObjectVersion
1070
     0
  0
VISUALSTYLE
  5
2D
102
{ACAD_REACTORS
330
2A
102
}
330
2A
100
AcDbVisualStyle
  2
Gouraud
 70
     2
 71
     2
 72
     2
 73
     1
 90
        2
 40
-0.6
 41
30.0
 62
     5
 63
     7
 74
     0
 91
        4
 64
     7
 65
   257
 75
     1
175
     1
 42
1.0
 92
        0
 66
     7
 43
1.0
 76
     1
 77
     6
 78
     2
 67
     7
 79
     5
170
     0
171
     0
290
     0
174
     0
 93
       13
 44
0.0
173
     0
291
     1
 45
0.0
1001
ACAD
1000
AcDbSavedByObjectVersion
1070
     0
  0
VISUALSTYLE
  5
2E
102
{ACAD_REACTORS
330
2A
102
}
330
2A
100
AcDbVisualStyle
  2
GouraudWithEdges
 70
     3
 71
     2
 72
     2
 73
     1
 90
        2
 40
-0.6
 41
30.0
 62
     5
 63
     7
 74
     1
 91
        4
 64
     7
 65
   257
 75
     1
175
     1
 42
1.0
 92
        0
 66
   257
 43
1.0
 76
     1
 77
     6
 78
     2
 67
     7
 79
     5
170
     0
171
     0
290
     0
174
     0
 93
       13
 44
0.0
173
     0
291
     1
 45
0.0
1001
ACAD
1000
AcDbSavedByObjectVersion
1070
     0
  0
VISUALSTYLE
  5
38
102
{ACAD_REACTORS
330
2A
102
}
330
2A
100
AcDbVisualStyle
  2
Linepattern
 70
    14
 71
     2
 72
     2
 73
     0
 90
        0
 40
-0.6
 41
-30.0
 62
     5
 63
     7
 74
     1
 91
        4
 64
     7
 65
   257
 75
     7
175
     7
 42
1.0
 92
        8
 66
     7
 43
1.0
 76
     1
 77
     6
 78
     2
 67
     7
 79
     5
170
     0
171
     0
290
     0
174
     0
 93
        1
 44
0.0
173
     0
291
     1
 45
0.0
1001
ACAD
1000
AcDbSavedByObjectVersion
1070
     0
  0
VISUALSTYLE
  5
33
102
{ACAD_REACTORS
330
2A
102
}
330
2A
100
AcDbVisualStyle
  2
Realistic
 70
     8
 71
     2
 72
     2
 73
     0
 90
        0
 40
-0.6
 41
-30.0
 62
     5
 63
     7
 74
     1
 91
        0
 64
     7
 65
   257
 75
     1
175
     1
 42
1.0
 92
        8
 66
     8
 43
1.0
 76
     1
 77
     6
 78
     2
 67
     7
 79
     5
170
     0
171
     0
290
     0
174
     0
 93
       13
 44
0.0
173
     0
291
     0
 45
0.0
1001
ACAD
1000
AcDbSavedByObjectVersion
1070
     0
  0
VISUALSTYLE
  5
37
102
{ACAD_REACTORS
330
2A
102
}
330
2A
100
AcDbVisualStyle
  2
Thicken
 70
    13
 71
     2
 72
     2
 73
     0
 90
        0
 40
-0.6
 41
-30.0
 62
     5
 63
     7
 74
     1
 91
        4
 64
     7
 65
   257
 75
     1
175
     1
 42
1.0
 92
       12
 66
     7
 43
1.0
 76
     1
 77
     6
 78
     2
 67
     7
 79
     5
170
     0
171
     0
290
     0
174
     0
 93
        1
 44
0.0
173
     0
291
     1
 45
0.0
1001
ACAD
1000
AcDbSavedByObjectVersion
1070
     0
  0
DICTIONARYVAR
  5
453
102
{ACAD_REACTORS
330
452
102
}
330
452
100
DictionaryVariables
280
     0
  1
1:1
  0
DICTIONARYVAR
  5
457
102
{ACAD_REACTORS
330
452
102
}
330
452
100
DictionaryVariables
280
     0
  1
80.000000
  0
DICTIONARYVAR
  5
456
102
{ACAD_REACTORS
330
452
102
}
330
452
100
DictionaryVariables
280
     0
  1
5.000000
  0
ENDSEC
  0
EOF
