  0
SECTION
  2
HEADER
  9
$ACADVER
  1
AC1015
  9
$ACADMAINTVER
 70
     6
  9
$DWGCODEPAGE
  3
ANSI_932
  9
$INSBASE
 10
0.0
 20
0.0
 30
0.0
  9
$EXTMIN
 10
39.07589
 20
-22.564682
 30
0.0
  9
$EXTMAX
 10
227.106049
 20
147.004837
 30
0.0
  9
$LIMMIN
 10
0.0
 20
0.0
  9
$LIMMAX
 10
12.0
 20
9.0
  9
$ORTHOMODE
 70
     0
  9
$REGENMODE
 70
     1
  9
$FILLMODE
 70
     1
  9
$QTEXTMODE
 70
     0
  9
$MIRRTEXT
 70
     1
  9
$LTSCALE
 40
2.531979
  9
$ATTMODE
 70
     1
  9
$TEXTSIZE
 40
3.2
  9
$TRACEWID
 40
1.0
  9
$TEXTSTYLE
  7
Standard
  9
$CLAYER
  8
0
  9
$CELTYPE
  6
ByLayer
  9
$CECOLOR
 62
   256
  9
$CELTSCALE
 40
1.0
  9
$DISPSILH
 70
     0
  9
$DIMSCALE
 40
1.0
  9
$DIMASZ
 40
2.5
  9
$DIMEXO
 40
0.625
  9
$DIMDLI
 40
3.75
  9
$DIMRND
 40
0.0
  9
$DIMDLE
 40
0.0
  9
$DIMEXE
 40
1.25
  9
$DIMTP
 40
0.0
  9
$DIMTM
 40
0.0
  9
$DIMTXT
 40
2.5
  9
$DIMCEN
 40
0.09
  9
$DIMTSZ
 40
0.0
  9
$DIMTOL
 70
     0
  9
$DIMLIM
 70
     0
  9
$DIMTIH
 70
     0
  9
$DIMTOH
 70
     0
  9
$DIMSE1
 70
     0
  9
$DIMSE2
 70
     0
  9
$DIMTAD
 70
     0
  9
$DIMZIN
 70
     8
  9
$DIMBLK
  1

  9
$DIMASO
 70
     1
  9
$DIMSHO
 70
     0
  9
$DIMPOST
  1

  9
$DIMAPOST
  1

  9
$DIMALT
 70
     0
  9
$DIMALTD
 70
     3
  9
$DIMALTF
 40
0.03937
  9
$DIMLFAC
 40
1.0
  9
$DIMTOFL
 70
     1
  9
$DIMTVP
 40
0.0
  9
$DIMTIX
 70
     0
  9
$DIMSOXD
 70
     0
  9
$DIMSAH
 70
     0
  9
$DIMBLK1
  1

  9
$DIMBLK2
  1

  9
$DIMSTYLE
  2
ISO-25
  9
$DIMCLRD
 70
     0
  9
$DIMCLRE
 70
     0
  9
$DIMCLRT
 70
     0
  9
$DIMTFAC
 40
1.0
  9
$DIMGAP
 40
0.625
  9
$DIMJUST
 70
     0
  9
$DIMSD1
 70
     0
  9
$DIMSD2
 70
     0
  9
$DIMTOLJ
 70
     0
  9
$DIMTZIN
 70
     8
  9
$DIMALTZ
 70
     0
  9
$DIMALTTZ
 70
     0
  9
$DIMUPT
 70
     0
  9
$DIMDEC
 70
     2
  9
$DIMTDEC
 70
     2
  9
$DIMALTU
 70
     2
  9
$DIMALTTD
 70
     3
  9
$DIMTXSTY
  7
Standard
  9
$DIMAUNIT
 70
     0
  9
$DIMADEC
 70
     0
  9
$DIMALTRND
 40
0.0
  9
$DIMAZIN
 70
     0
  9
$DIMDSEP
 70
    44
  9
$DIMATFIT
 70
     3
  9
$DIMFRAC
 70
     0
  9
$DIMLDRBLK
  1

  9
$DIMLUNIT
 70
     2
  9
$DIMLWD
 70
    -2
  9
$DIMLWE
 70
    -2
  9
$DIMTMOVE
 70
     0
  9
$LUNITS
 70
     2
  9
$LUPREC
 70
     4
  9
$SKETCHINC
 40
1.0
  9
$FILLETRAD
 40
0.0
  9
$AUNITS
 70
     0
  9
$AUPREC
 70
     0
  9
$MENU
  1
.
  9
$ELEVATION
 40
0.0
  9
$PELEVATION
 40
0.0
  9
$THICKNESS
 40
0.0
  9
$LIMCHECK
 70
     0
  9
$CHAMFERA
 40
10.0
  9
$CHAMFERB
 40
10.0
  9
$CHAMFERC
 40
20.0
  9
$CHAMFERD
 40
0.0
  9
$SKPOLY
 70
     0
  9
$TDCREATE
 40
2455356.49701316
  9
$TDUCREATE
 40
2455356.12201316
  9
$TDUPDATE
 40
2455356.497013171
  9
$TDUUPDATE
 40
2455356.122013171
  9
$TDINDWG
 40
0.0000000116
  9
$TDUSRTIMER
 40
0.0000000116
  9
$USRTIMER
 70
     1
  9
$ANGBASE
 50
0.0
  9
$ANGDIR
 70
     0
  9
$PDMODE
 70
     0
  9
$PDSIZE
 40
0.0
  9
$PLINEWID
 40
0.0
  9
$SPLFRAME
 70
     0
  9
$SPLINETYPE
 70
     6
  9
$SPLINESEGS
 70
     8
  9
$HANDSEED
  5
5F2
  9
$SURFTAB1
 70
     6
  9
$SURFTAB2
 70
     6
  9
$SURFTYPE
 70
     6
  9
$SURFU
 70
     6
  9
$SURFV
 70
     6
  9
$UCSBASE
  2

  9
$UCSNAME
  2

  9
$UCSORG
 10
0.0
 20
0.0
 30
0.0
  9
$UCSXDIR
 10
1.0
 20
0.0
 30
0.0
  9
$UCSYDIR
 10
0.0
 20
1.0
 30
0.0
  9
$UCSORTHOREF
  2

  9
$UCSORTHOVIEW
 70
     0
  9
$UCSORGTOP
 10
0.0
 20
0.0
 30
0.0
  9
$UCSORGBOTTOM
 10
0.0
 20
0.0
 30
0.0
  9
$UCSORGLEFT
 10
0.0
 20
0.0
 30
0.0
  9
$UCSORGRIGHT
 10
0.0
 20
0.0
 30
0.0
  9
$UCSORGFRONT
 10
0.0
 20
0.0
 30
0.0
  9
$UCSORGBACK
 10
0.0
 20
0.0
 30
0.0
  9
$PUCSBASE
  2

  9
$PUCSNAME
  2

  9
$PUCSORG
 10
0.0
 20
0.0
 30
0.0
  9
$PUCSXDIR
 10
1.0
 20
0.0
 30
0.0
  9
$PUCSYDIR
 10
0.0
 20
1.0
 30
0.0
  9
$PUCSORTHOREF
  2

  9
$PUCSORTHOVIEW
 70
     0
  9
$PUCSORGTOP
 10
0.0
 20
0.0
 30
0.0
  9
$PUCSORGBOTTOM
 10
0.0
 20
0.0
 30
0.0
  9
$PUCSORGLEFT
 10
0.0
 20
0.0
 30
0.0
  9
$PUCSORGRIGHT
 10
0.0
 20
0.0
 30
0.0
  9
$PUCSORGFRONT
 10
0.0
 20
0.0
 30
0.0
  9
$PUCSORGBACK
 10
0.0
 20
0.0
 30
0.0
  9
$USERI1
 70
     0
  9
$USERI2
 70
     0
  9
$USERI3
 70
     0
  9
$USERI4
 70
     0
  9
$USERI5
 70
     0
  9
$USERR1
 40
0.0
  9
$USERR2
 40
0.0
  9
$USERR3
 40
0.0
  9
$USERR4
 40
0.0
  9
$USERR5
 40
0.0
  9
$WORLDVIEW
 70
     1
  9
$SHADEDGE
 70
     3
  9
$SHADEDIF
 70
    70
  9
$TILEMODE
 70
     1
  9
$MAXACTVP
 70
    64
  9
$PINSBASE
 10
0.0
 20
0.0
 30
0.0
  9
$PLIMCHECK
 70
     0
  9
$PEXTMIN
 10
1.000000E+20
 20
1.000000E+20
 30
0.0
  9
$PEXTMAX
 10
-1.000000E+20
 20
-1.000000E+20
 30
0.0
  9
$PLIMMIN
 10
0.0
 20
0.0
  9
$PLIMMAX
 10
12.0
 20
9.0
  9
$UNITMODE
 70
     0
  9
$VISRETAIN
 70
     1
  9
$PLINEGEN
 70
     0
  9
$PSLTSCALE
 70
     1
  9
$TREEDEPTH
 70
  3020
  9
$CMLSTYLE
  2
Standard
  9
$CMLJUST
 70
     0
  9
$CMLSCALE
 40
20.0
  9
$PROXYGRAPHICS
 70
     1
  9
$MEASUREMENT
 70
     1
  9
$CELWEIGHT
370
    -1
  9
$ENDCAPS
280
     0
  9
$JOINSTYLE
280
     0
  9
$LWDISPLAY
290
     0
  9
$INSUNITS
 70
     4
  9
$HYPERLINKBASE
  1

  9
$STYLESHEET
  1

  9
$XEDIT
290
     1
  9
$CEPSNTYPE
380
     0
  9
$PSTYLEMODE
290
     1
  9
$FINGERPRINTGUID
  2
{2C96D783-ADFB-47A5-B66B-85F054E53B49}
  9
$VERSIONGUID
  2
{FAEB1C32-E019-11D5-929B-00C0DF256EC4}
  9
$EXTNAMES
290
     1
  9
$PSVPSCALE
 40
0.0
  9
$OLESTARTUP
290
     0
  0
ENDSEC
  0
SECTION
  2
CLASSES
  0
CLASS
  1
ACDBDICTIONARYWDFLT
  2
AcDbDictionaryWithDefault
  3
ObjectDBX Classes
 90
        0
280
     0
281
     0
  0
CLASS
  1
VISUALSTYLE
  2
AcDbVisualStyle
  3
ObjectDBX Classes
 90
     4095
280
     0
281
     0
  0
CLASS
  1
SCALE
  2
AcDbScale
  3
ObjectDBX Classes
 90
     1153
280
     0
281
     0
  0
CLASS
  1
DICTIONARYVAR
  2
AcDbDictionaryVar
  3
ObjectDBX Classes
 90
        0
280
     0
281
     0
  0
CLASS
  1
ACDBPLACEHOLDER
  2
AcDbPlaceHolder
  3
ObjectDBX Classes
 90
        0
280
     0
281
     0
  0
CLASS
  1
LAYOUT
  2
AcDbLayout
  3
ObjectDBX Classes
 90
        0
280
     0
281
     0
  0
ENDSEC
  0
SECTION
  2
TABLES
  0
TABLE
  2
VPORT
  5
8
330
0
100
AcDbSymbolTable
 70
     1
  0
VPORT
  5
29
330
8
100
AcDbSymbolTableRecord
100
AcDbViewportTableRecord
  2
*Active
 70
     0
 10
0.0
 20
0.0
 11
1.0
 21
1.0
 12
133.090969
 22
62.220078
 13
0.0
 23
0.0
 14
1.0
 24
1.0
 15
0.0
 25
0.0
 16
0.0
 26
0.0
 36
1.0
 17
0.0
 27
0.0
 37
0.0
 40
171.265214
 41
1.691288
 42
50.0
 43
0.0
 44
0.0
 50
0.0
 51
0.0
 71
     0
 72
   100
 73
     1
 74
     3
 75
     0
 76
     0
 77
     0
 78
     0
281
     0
 65
     1
110
0.0
120
0.0
130
0.0
111
1.0
121
0.0
131
0.0
112
0.0
122
1.0
132
0.0
 79
     0
146
0.0
  0
ENDTAB
  0
TABLE
  2
LTYPE
  5
5
330
0
100
AcDbSymbolTable
 70
     5
  0
LTYPE
  5
14
330
5
100
AcDbSymbolTableRecord
100
AcDbLinetypeTableRecord
  2
ByBlock
 70
     0
  3

 72
    65
 73
     0
 40
0.0
  0
LTYPE
  5
15
330
5
100
AcDbSymbolTableRecord
100
AcDbLinetypeTableRecord
  2
ByLayer
 70
     0
  3

 72
    65
 73
     0
 40
0.0
  0
LTYPE
  5
16
330
5
100
AcDbSymbolTableRecord
100
AcDbLinetypeTableRecord
  2
Continuous
 70
     0
  3
Solid line
 72
    65
 73
     0
 40
0.0
  0
LTYPE
  5
5D
330
5
100
AcDbSymbolTableRecord
100
AcDbLinetypeTableRecord
  2
DASHED
 70
     0
  3
DASHED
 72
    83
 73
     2
 40
0.75
 49
0.5
 74
     0
 49
-0.25
 74
     0
  0
LTYPE
  5
5E
330
5
100
AcDbSymbolTableRecord
100
AcDbLinetypeTableRecord
  2
HIDDEN
 70
     0
  3
HIDDEN
 72
    83
 73
     2
 40
0.375
 49
0.25
 74
     0
 49
-0.125
 74
     0
  0
LTYPE
  5
5F
330
5
100
AcDbSymbolTableRecord
100
AcDbLinetypeTableRecord
  2
CENTER
 70
     0
  3
CENTER
 72
    83
 73
     4
 40
2.0
 49
1.25
 74
     0
 49
-0.25
 74
     0
 49
0.25
 74
     0
 49
-0.25
 74
     0
  0
LTYPE
  5
60
330
5
100
AcDbSymbolTableRecord
100
AcDbLinetypeTableRecord
  2
PHANTOM
 70
     0
  3
PHANTOM
 72
    83
 73
     6
 40
2.5
 49
1.25
 74
     0
 49
-0.25
 74
     0
 49
0.25
 74
     0
 49
-0.25
 74
     0
 49
0.25
 74
     0
 49
-0.25
 74
     0
  0
ENDTAB
  0
TABLE
  2
LAYER
  5
2
330
0
100
AcDbSymbolTable
 70
     2
  0
LAYER
  5
10
330
2
100
AcDbSymbolTableRecord
100
AcDbLayerTableRecord
  2
0
 70
     0
 62
     7
  6
Continuous
370
    -3
390
F
  0
LAYER
  5
61
330
2
100
AcDbSymbolTableRecord
100
AcDbLayerTableRecord
  2
001
 70
     0
 62
     7
  6
Continuous
370
    -3
390
F
  0
ENDTAB
  0
TABLE
  2
STYLE
  5
3
330
0
100
AcDbSymbolTable
 70
     2
  0
STYLE
  5
11
330
3
100
AcDbSymbolTableRecord
100
AcDbTextStyleTableRecord
  2
Standard
 70
     0
 40
0.0
 41
1.0
 50
0.0
 71
     0
 42
0.2
  3
TXT
  4
BIGFONT
  0
STYLE
  5
62
330
3
100
AcDbSymbolTableRecord
100
AcDbTextStyleTableRecord
  2
TATEGAKI
 70
     4
 40
1.0
 41
1.0
 50
0.0
 71
     0
 42
0.2
  3
TXT
  4
BIGFONT
  0
ENDTAB
  0
TABLE
  2
VIEW
  5
6
330
0
100
AcDbSymbolTable
 70
     0
  0
ENDTAB
  0
TABLE
  2
UCS
  5
7
330
0
100
AcDbSymbolTable
 70
     0
  0
ENDTAB
  0
TABLE
  2
APPID
  5
9
330
0
100
AcDbSymbolTable
 70
     1
  0
APPID
  5
12
330
9
100
AcDbSymbolTableRecord
100
AcDbRegAppTableRecord
  2
ACAD
 70
     0
  0
ENDTAB
  0
TABLE
  2
DIMSTYLE
  5
A
330
0
100
AcDbSymbolTable
 70
     2
100
AcDbDimStyleTable
  0
DIMSTYLE
105
27
330
A
100
AcDbSymbolTableRecord
100
AcDbDimStyleTableRecord
  2
ISO-25
 70
     0
 41
2.5
 42
0.625
 43
3.75
 44
1.25
 73
     0
 74
     0
 77
     1
 78
     8
140
2.5
141
2.5
143
0.03937
147
0.625
171
     3
172
     1
271
     2
272
     2
274
     3
278
    44
283
     0
284
     8
340
11
  0
DIMSTYLE
105
63
102
{ACAD_REACTORS
330
B4
330
B5
330
B6
330
C3
102
}
330
A
100
AcDbSymbolTableRecord
100
AcDbDimStyleTableRecord
  2
Standard
 70
     0
 41
1.5
 42
0.0
 44
2.75
 73
     0
 74
     0
 77
     1
 78
     8
 79
     2
140
4.0
146
0.8
147
1.0
172
     1
179
     1
271
     1
340
11
  0
ENDTAB
  0
TABLE
  2
BLOCK_RECORD
  5
1
330
0
100
AcDbSymbolTable
 70
     5
  0
BLOCK_RECORD
  5
1F
330
1
100
AcDbSymbolTableRecord
100
AcDbBlockTableRecord
  2
*Model_Space
340
22
  0
BLOCK_RECORD
  5
1B
330
1
100
AcDbSymbolTableRecord
100
AcDbBlockTableRecord
  2
*Paper_Space
340
1E
  0
BLOCK_RECORD
  5
23
330
1
100
AcDbSymbolTableRecord
100
AcDbBlockTableRecord
  2
*Paper_Space0
340
26
  0
BLOCK_RECORD
  5
64
330
1
100
AcDbSymbolTableRecord
100
AcDbBlockTableRecord
  2
*D1
340
0
  0
BLOCK_RECORD
  5
78
330
1
100
AcDbSymbolTableRecord
100
AcDbBlockTableRecord
  2
*D2
340
0
  0
BLOCK_RECORD
  5
8C
330
1
100
AcDbSymbolTableRecord
100
AcDbBlockTableRecord
  2
*D3
340
0
  0
BLOCK_RECORD
  5
A0
330
1
100
AcDbSymbolTableRecord
100
AcDbBlockTableRecord
  2
*D4
340
0
  0
ENDTAB
  0
ENDSEC
  0
SECTION
  2
BLOCKS
  0
BLOCK
  5
20
330
1F
100
AcDbEntity
  8
0
100
AcDbBlockBegin
  2
*Model_Space
 70
     0
 10
0.0
 20
0.0
 30
0.0
  3
*Model_Space
  1

  0
ENDBLK
  5
21
330
1F
100
AcDbEntity
  8
0
100
AcDbBlockEnd
  0
BLOCK
  5
1C
330
1B
100
AcDbEntity
 67
     1
  8
0
100
AcDbBlockBegin
  2
*Paper_Space
 70
     0
 10
0.0
 20
0.0
 30
0.0
  3
*Paper_Space
  1

  0
ENDBLK
  5
1D
330
1B
100
AcDbEntity
 67
     1
  8
0
100
AcDbBlockEnd
  0
BLOCK
  5
24
330
23
100
AcDbEntity
  8
0
100
AcDbBlockBegin
  2
*Paper_Space0
 70
     0
 10
0.0
 20
0.0
 30
0.0
  3
*Paper_Space0
  1

  0
ENDBLK
  5
25
330
23
100
AcDbEntity
  8
0
100
AcDbBlockEnd
  0
BLOCK
  5
65
330
64
100
AcDbEntity
  8
0
100
AcDbBlockBegin
  2
*D1
 70
     1
 10
0.0
 20
0.0
 30
0.0
  3
*D1
  1

  0
LINE
  5
67
330
64
100
AcDbEntity
  8
001
370
     9
100
AcDbLine
 10
118.49425
 20
41.054847
 30
0.0
 11
118.49425
 21
-10.33645
 31
0.0
  0
LINE
  5
68
330
64
100
AcDbEntity
  8
001
370
     9
100
AcDbLine
 10
74.99425
 20
20.454299
 30
0.0
 11
74.99425
 21
-10.33645
 31
0.0
  0
LINE
  5
69
330
64
100
AcDbEntity
  8
001
370
     9
100
AcDbLine
 10
118.49425
 20
-7.58645
 30
0.0
 11
74.99425
 21
-7.58645
 31
0.0
  0
POLYLINE
  5
6A
330
64
100
AcDbEntity
  8
001
370
     9
100
AcDb2dPolyline
 66
     1
 10
0.0
 20
0.0
 30
0.0
  0
VERTEX
  5
6C
330
6A
100
AcDbEntity
  8
001
370
     9
100
AcDbVertex
100
AcDb2dVertex
 10
116.99425
 20
-7.184526
 30
0.0
  0
VERTEX
  5
6D
330
6A
100
AcDbEntity
  8
001
370
     9
100
AcDbVertex
100
AcDb2dVertex
 10
118.49425
 20
-7.58645
 30
0.0
  0
VERTEX
  5
6E
330
6A
100
AcDbEntity
  8
001
370
     9
100
AcDbVertex
100
AcDb2dVertex
 10
116.99425
 20
-7.988374
 30
0.0
  0
SEQEND
  5
6B
330
6A
100
AcDbEntity
  8
001
370
     9
  0
POLYLINE
  5
6F
330
64
100
AcDbEntity
  8
001
370
     9
100
AcDb2dPolyline
 66
     1
 10
0.0
 20
0.0
 30
0.0
  0
VERTEX
  5
71
330
6F
100
AcDbEntity
  8
001
370
     9
100
AcDbVertex
100
AcDb2dVertex
 10
76.49425
 20
-7.988374
 30
0.0
  0
VERTEX
  5
72
330
6F
100
AcDbEntity
  8
001
370
     9
100
AcDbVertex
100
AcDb2dVertex
 10
74.99425
 20
-7.58645
 30
0.0
  0
VERTEX
  5
73
330
6F
100
AcDbEntity
  8
001
370
     9
100
AcDbVertex
100
AcDb2dVertex
 10
76.49425
 20
-7.184526
 30
0.0
  0
SEQEND
  5
70
330
6F
100
AcDbEntity
  8
001
370
     9
  0
TEXT
  5
74
330
64
100
AcDbEntity
  8
001
370
    30
100
AcDbText
 10
88.74425
 20
-6.58645
 30
0.0
 40
4.0
  1
４３．５
 41
0.833333
100
AcDbText
  0
POINT
  5
75
330
64
100
AcDbEntity
  8
001
370
     9
100
AcDbPoint
 10
118.49425
 20
41.054847
 30
0.0
  0
POINT
  5
76
330
64
100
AcDbEntity
  8
001
370
     9
100
AcDbPoint
 10
74.99425
 20
20.454299
 30
0.0
  0
POINT
  5
77
330
64
100
AcDbEntity
  8
001
370
     9
100
AcDbPoint
 10
74.99425
 20
-7.58645
 30
0.0
  0
ENDBLK
  5
66
330
64
100
AcDbEntity
  8
0
100
AcDbBlockEnd
  0
BLOCK
  5
79
330
78
100
AcDbEntity
  8
0
100
AcDbBlockBegin
  2
*D2
 70
     1
 10
0.0
 20
0.0
 30
0.0
  3
*D2
  1

  0
LINE
  5
7B
330
78
100
AcDbEntity
  8
001
370
     9
100
AcDbLine
 10
198.49425
 20
62.054847
 30
0.0
 11
198.49425
 21
-10.33645
 31
0.0
  0
LINE
  5
7C
330
78
100
AcDbEntity
  8
001
370
     9
100
AcDbLine
 10
118.49425
 20
41.054847
 30
0.0
 11
118.49425
 21
-10.33645
 31
0.0
  0
LINE
  5
7D
330
78
100
AcDbEntity
  8
001
370
     9
100
AcDbLine
 10
198.49425
 20
-7.58645
 30
0.0
 11
118.49425
 21
-7.58645
 31
0.0
  0
POLYLINE
  5
7E
330
78
100
AcDbEntity
  8
001
370
     9
100
AcDb2dPolyline
 66
     1
 10
0.0
 20
0.0
 30
0.0
  0
VERTEX
  5
80
330
7E
100
AcDbEntity
  8
001
370
     9
100
AcDbVertex
100
AcDb2dVertex
 10
196.99425
 20
-7.184526
 30
0.0
  0
VERTEX
  5
81
330
7E
100
AcDbEntity
  8
001
370
     9
100
AcDbVertex
100
AcDb2dVertex
 10
198.49425
 20
-7.58645
 30
0.0
  0
VERTEX
  5
82
330
7E
100
AcDbEntity
  8
001
370
     9
100
AcDbVertex
100
AcDb2dVertex
 10
196.99425
 20
-7.988374
 30
0.0
  0
SEQEND
  5
7F
330
7E
100
AcDbEntity
  8
001
370
     9
  0
POLYLINE
  5
83
330
78
100
AcDbEntity
  8
001
370
     9
100
AcDb2dPolyline
 66
     1
 10
0.0
 20
0.0
 30
0.0
  0
VERTEX
  5
85
330
83
100
AcDbEntity
  8
001
370
     9
100
AcDbVertex
100
AcDb2dVertex
 10
119.99425
 20
-7.988374
 30
0.0
  0
VERTEX
  5
86
330
83
100
AcDbEntity
  8
001
370
     9
100
AcDbVertex
100
AcDb2dVertex
 10
118.49425
 20
-7.58645
 30
0.0
  0
VERTEX
  5
87
330
83
100
AcDbEntity
  8
001
370
     9
100
AcDbVertex
100
AcDb2dVertex
 10
119.99425
 20
-7.184526
 30
0.0
  0
SEQEND
  5
84
330
83
100
AcDbEntity
  8
001
370
     9
  0
TEXT
  5
88
330
78
100
AcDbEntity
  8
001
370
    30
100
AcDbText
 10
154.49425
 20
-6.58645
 30
0.0
 40
4.0
  1
８０
 41
0.833333
100
AcDbText
  0
POINT
  5
89
330
78
100
AcDbEntity
  8
001
370
     9
100
AcDbPoint
 10
198.49425
 20
62.054847
 30
0.0
  0
POINT
  5
8A
330
78
100
AcDbEntity
  8
001
370
     9
100
AcDbPoint
 10
118.49425
 20
41.054847
 30
0.0
  0
POINT
  5
8B
330
78
100
AcDbEntity
  8
001
370
     9
100
AcDbPoint
 10
118.49425
 20
-7.58645
 30
0.0
  0
ENDBLK
  5
7A
330
78
100
AcDbEntity
  8
0
100
AcDbBlockEnd
  0
BLOCK
  5
8D
330
8C
100
AcDbEntity
  8
0
100
AcDbBlockBegin
  2
*D3
 70
     1
 10
0.0
 20
0.0
 30
0.0
  3
*D3
  1

  0
LINE
  5
8F
330
8C
100
AcDbEntity
  8
001
370
     9
100
AcDbLine
 10
198.49425
 20
62.054847
 30
0.0
 11
198.49425
 21
-22.564685
 31
0.0
  0
LINE
  5
90
330
8C
100
AcDbEntity
  8
001
370
     9
100
AcDbLine
 10
74.99425
 20
19.655395
 30
0.0
 11
74.99425
 21
-22.564685
 31
0.0
  0
LINE
  5
91
330
8C
100
AcDbEntity
  8
001
370
     9
100
AcDbLine
 10
198.49425
 20
-19.814685
 30
0.0
 11
74.99425
 21
-19.814685
 31
0.0
  0
POLYLINE
  5
92
330
8C
100
AcDbEntity
  8
001
370
     9
100
AcDb2dPolyline
 66
     1
 10
0.0
 20
0.0
 30
0.0
  0
VERTEX
  5
94
330
92
100
AcDbEntity
  8
001
370
     9
100
AcDbVertex
100
AcDb2dVertex
 10
196.99425
 20
-19.412762
 30
0.0
  0
VERTEX
  5
95
330
92
100
AcDbEntity
  8
001
370
     9
100
AcDbVertex
100
AcDb2dVertex
 10
198.49425
 20
-19.814685
 30
0.0
  0
VERTEX
  5
96
330
92
100
AcDbEntity
  8
001
370
     9
100
AcDbVertex
100
AcDb2dVertex
 10
196.99425
 20
-20.216609
 30
0.0
  0
SEQEND
  5
93
330
92
100
AcDbEntity
  8
001
370
     9
  0
POLYLINE
  5
97
330
8C
100
AcDbEntity
  8
001
370
     9
100
AcDb2dPolyline
 66
     1
 10
0.0
 20
0.0
 30
0.0
  0
VERTEX
  5
99
330
97
100
AcDbEntity
  8
001
370
     9
100
AcDbVertex
100
AcDb2dVertex
 10
76.49425
 20
-20.216609
 30
0.0
  0
VERTEX
  5
9A
330
97
100
AcDbEntity
  8
001
370
     9
100
AcDbVertex
100
AcDb2dVertex
 10
74.99425
 20
-19.814685
 30
0.0
  0
VERTEX
  5
9B
330
97
100
AcDbEntity
  8
001
370
     9
100
AcDbVertex
100
AcDb2dVertex
 10
76.49425
 20
-19.412762
 30
0.0
  0
SEQEND
  5
98
330
97
100
AcDbEntity
  8
001
370
     9
  0
TEXT
  5
9C
330
8C
100
AcDbEntity
  8
001
370
    30
100
AcDbText
 10
126.74425
 20
-18.814685
 30
0.0
 40
4.0
  1
１２３．５
 41
0.833333
100
AcDbText
  0
POINT
  5
9D
330
8C
100
AcDbEntity
  8
001
370
     9
100
AcDbPoint
 10
198.49425
 20
62.054847
 30
0.0
  0
POINT
  5
9E
330
8C
100
AcDbEntity
  8
001
370
     9
100
AcDbPoint
 10
74.99425
 20
19.655395
 30
0.0
  0
POINT
  5
9F
330
8C
100
AcDbEntity
  8
001
370
     9
100
AcDbPoint
 10
74.99425
 20
-19.814685
 30
0.0
  0
ENDBLK
  5
8E
330
8C
100
AcDbEntity
  8
0
100
AcDbBlockEnd
  0
BLOCK
  5
A1
330
A0
100
AcDbEntity
  8
0
100
AcDbBlockBegin
  2
*D4
 70
     1
 10
0.0
 20
0.0
 30
0.0
  3
*D4
  1

  0
LINE
  5
A3
330
A0
100
AcDbEntity
  8
001
370
     9
100
AcDbLine
 10
190.49425
 20
86.054847
 30
0.0
 11
227.106069
 21
86.054847
 31
0.0
  0
LINE
  5
A4
330
A0
100
AcDbEntity
  8
001
370
     9
100
AcDbLine
 10
190.49425
 20
54.054847
 30
0.0
 11
227.106069
 21
54.054847
 31
0.0
  0
LINE
  5
A5
330
A0
100
AcDbEntity
  8
001
370
     9
100
AcDbLine
 10
224.356069
 20
86.054847
 30
0.0
 11
224.356069
 21
54.054847
 31
0.0
  0
POLYLINE
  5
A6
330
A0
100
AcDbEntity
  8
001
370
     9
100
AcDb2dPolyline
 66
     1
 10
0.0
 20
0.0
 30
0.0
  0
VERTEX
  5
A8
330
A6
100
AcDbEntity
  8
001
370
     9
100
AcDbVertex
100
AcDb2dVertex
 10
223.954146
 20
84.554847
 30
0.0
  0
VERTEX
  5
A9
330
A6
100
AcDbEntity
  8
001
370
     9
100
AcDbVertex
100
AcDb2dVertex
 10
224.356069
 20
86.054847
 30
0.0
  0
VERTEX
  5
AA
330
A6
100
AcDbEntity
  8
001
370
     9
100
AcDbVertex
100
AcDb2dVertex
 10
224.757993
 20
84.554847
 30
0.0
  0
SEQEND
  5
A7
330
A6
100
AcDbEntity
  8
001
370
     9
  0
POLYLINE
  5
AB
330
A0
100
AcDbEntity
  8
001
370
     9
100
AcDb2dPolyline
 66
     1
 10
0.0
 20
0.0
 30
0.0
  0
VERTEX
  5
AD
330
AB
100
AcDbEntity
  8
001
370
     9
100
AcDbVertex
100
AcDb2dVertex
 10
224.757993
 20
55.554847
 30
0.0
  0
VERTEX
  5
AE
330
AB
100
AcDbEntity
  8
001
370
     9
100
AcDbVertex
100
AcDb2dVertex
 10
224.356069
 20
54.054847
 30
0.0
  0
VERTEX
  5
AF
330
AB
100
AcDbEntity
  8
001
370
     9
100
AcDbVertex
100
AcDb2dVertex
 10
223.954146
 20
55.554847
 30
0.0
  0
SEQEND
  5
AC
330
AB
100
AcDbEntity
  8
001
370
     9
  0
TEXT
  5
B0
330
A0
100
AcDbEntity
  8
001
370
    30
100
AcDbText
 10
223.356069
 20
64.054847
 30
0.0
 40
4.0
  1
%%c３２
 50
90.000003
 41
0.882353
100
AcDbText
  0
POINT
  5
B1
330
A0
100
AcDbEntity
  8
001
370
     9
100
AcDbPoint
 10
190.49425
 20
86.054847
 30
0.0
  0
POINT
  5
B2
330
A0
100
AcDbEntity
  8
001
370
     9
100
AcDbPoint
 10
190.49425
 20
54.054847
 30
0.0
  0
POINT
  5
B3
330
A0
100
AcDbEntity
  8
001
370
     9
100
AcDbPoint
 10
224.356069
 20
54.054847
 30
0.0
  0
ENDBLK
  5
A2
330
A0
100
AcDbEntity
  8
0
100
AcDbBlockEnd
  0
ENDSEC
  0
SECTION
  2
ENTITIES
  0
DIMENSION
  5
B4
330
1F
100
AcDbEntity
  8
001
370
     9
100
AcDbDimension
  2
*D1
 10
74.99425
 20
-7.58645
 30
0.0
 11
96.74425
 21
-4.58645
 31
0.0
 70
   160
 71
     5
 42
-1.0
  3
Standard
100
AcDbAlignedDimension
 13
118.49425
 23
41.054847
 33
0.0
 14
74.99425
 24
20.454299
 34
0.0
 50
180.0
100
AcDbRotatedDimension
  0
DIMENSION
  5
B5
330
1F
100
AcDbEntity
  8
001
370
     9
100
AcDbDimension
  2
*D2
 10
118.49425
 20
-7.58645
 30
0.0
 11
158.49425
 21
-4.58645
 31
0.0
 70
   160
 71
     5
 42
-1.0
  3
Standard
100
AcDbAlignedDimension
 13
198.49425
 23
62.054847
 33
0.0
 14
118.49425
 24
41.054847
 34
0.0
 50
180.0
100
AcDbRotatedDimension
  0
DIMENSION
  5
B6
330
1F
100
AcDbEntity
  8
001
370
     9
100
AcDbDimension
  2
*D3
 10
74.99425
 20
-19.814685
 30
0.0
 11
136.74425
 21
-16.814685
 31
0.0
 70
   160
 71
     5
 42
-1.0
  3
Standard
100
AcDbAlignedDimension
 13
198.49425
 23
62.054847
 33
0.0
 14
74.99425
 24
19.655395
 34
0.0
 50
180.0
100
AcDbRotatedDimension
  0
TEXT
  5
B7
330
1F
100
AcDbEntity
  8
001
370
    30
100
AcDbText
 10
43.075897
 20
62.054847
 30
0.0
 40
4.0
  1
%%c１００
 50
90.000003
 41
0.869565
100
AcDbText
  0
POLYLINE
  5
B8
330
1F
100
AcDbEntity
  8
001
370
     9
100
AcDb2dPolyline
 66
     1
 10
0.0
 20
0.0
 30
0.0
  0
VERTEX
  5
BA
330
B8
100
AcDbEntity
  8
001
370
     9
100
AcDbVertex
100
AcDb2dVertex
 10
44.47782
 20
21.554847
 30
0.0
  0
VERTEX
  5
BB
330
B8
100
AcDbEntity
  8
001
370
     9
100
AcDbVertex
100
AcDb2dVertex
 10
44.075897
 20
20.054847
 30
0.0
  0
VERTEX
  5
BC
330
B8
100
AcDbEntity
  8
001
370
     9
100
AcDbVertex
100
AcDb2dVertex
 10
43.673973
 20
21.554847
 30
0.0
  0
SEQEND
  5
B9
330
B8
100
AcDbEntity
  8
001
370
     9
  0
LINE
  5
BD
330
1F
100
AcDbEntity
  8
001
370
     9
100
AcDbLine
 10
44.075897
 20
120.054847
 30
0.0
 11
44.075897
 21
20.054847
 31
0.0
  0
POLYLINE
  5
BE
330
1F
100
AcDbEntity
  8
001
370
     9
100
AcDb2dPolyline
 66
     1
 10
0.0
 20
0.0
 30
0.0
  0
VERTEX
  5
C0
330
BE
100
AcDbEntity
  8
001
370
     9
100
AcDbVertex
100
AcDb2dVertex
 10
74.99425
 20
20.054847
 30
0.0
  0
VERTEX
  5
C1
330
BE
100
AcDbEntity
  8
001
370
     9
100
AcDbVertex
100
AcDb2dVertex
 10
44.075897
 20
20.054847
 30
0.0
  0
VERTEX
  5
C2
330
BE
100
AcDbEntity
  8
001
370
     9
100
AcDbVertex
100
AcDb2dVertex
 10
41.325897
 20
20.054847
 30
0.0
  0
SEQEND
  5
BF
330
BE
100
AcDbEntity
  8
001
370
     9
  0
DIMENSION
  5
C3
330
1F
100
AcDbEntity
  8
001
370
     9
100
AcDbDimension
  2
*D4
 10
224.356069
 20
54.054847
 30
0.0
 11
221.356069
 21
70.054847
 31
0.0
 70
   160
 71
     5
 42
-1.0
  3
Standard
100
AcDbAlignedDimension
 13
190.49425
 23
86.054847
 33
0.0
 14
190.49425
 24
54.054847
 34
0.0
 50
270.0
100
AcDbRotatedDimension
  0
LINE
  5
C4
330
1F
100
AcDbEntity
  8
001
370
    50
100
AcDbLine
 10
198.49425
 20
70.054847
 30
0.0
 11
204.161711
 21
73.326957
 31
0.0
  0
LINE
  5
C5
330
1F
100
AcDbEntity
  8
001
370
    50
100
AcDbLine
 10
198.49425
 20
70.054847
 30
0.0
 11
204.161711
 21
66.782737
 31
0.0
  0
LINE
  5
C6
330
1F
100
AcDbEntity
  8
001
370
    50
100
AcDbLine
 10
78.49425
 20
70.054847
 30
0.0
 11
72.826789
 21
73.326957
 31
0.0
  0
LINE
  5
C7
330
1F
100
AcDbEntity
  8
001
370
    50
100
AcDbLine
 10
78.49425
 20
70.054847
 30
0.0
 11
72.826789
 21
66.782737
 31
0.0
  0
LINE
  5
C8
330
1F
100
AcDbEntity
  8
001
 62
   200
370
    50
100
AcDbLine
 10
93.49425
 20
107.081849
 30
0.0
 11
78.49425
 21
107.081849
 31
0.0
  0
LINE
  5
C9
330
1F
100
AcDbEntity
  8
001
 62
   200
370
    50
100
AcDbLine
 10
93.49425
 20
115.153051
 30
0.0
 11
85.367474
 21
123.102432
 31
0.0
  0
LINE
  5
CA
330
1F
100
AcDbEntity
  8
001
 62
   200
370
    50
100
AcDbLine
 10
93.49425
 20
104.903746
 30
0.0
 11
93.49425
 21
115.153051
 31
0.0
  0
LINE
  5
CB
330
1F
100
AcDbEntity
  8
001
 62
   200
370
    50
100
AcDbLine
 10
75.99425
 20
114.054847
 30
0.0
 11
78.49425
 21
111.554847
 31
0.0
  0
POLYLINE
  5
CC
330
1F
100
AcDbEntity
  8
001
 62
   200
370
    50
100
AcDb2dPolyline
 66
     1
 10
0.0
 20
0.0
 30
0.0
  0
VERTEX
  5
CE
330
CC
100
AcDbEntity
  8
001
 62
   200
370
    50
100
AcDbVertex
100
AcDb2dVertex
 10
80.638674
 20
123.102432
 30
0.0
  0
VERTEX
  5
CF
330
CC
100
AcDbEntity
  8
001
 62
   200
370
    50
100
AcDbVertex
100
AcDb2dVertex
 10
79.598635
 20
121.807281
 30
0.0
  0
VERTEX
  5
D0
330
CC
100
AcDbEntity
  8
001
 62
   200
370
    50
100
AcDbVertex
100
AcDb2dVertex
 10
78.567299
 20
120.505228
 30
0.0
  0
VERTEX
  5
D1
330
CC
100
AcDbEntity
  8
001
 62
   200
370
    50
100
AcDbVertex
100
AcDb2dVertex
 10
77.552587
 20
119.190929
 30
0.0
  0
VERTEX
  5
D2
330
CC
100
AcDbEntity
  8
001
 62
   200
370
    50
100
AcDbVertex
100
AcDb2dVertex
 10
76.556925
 20
117.862157
 30
0.0
  0
VERTEX
  5
D3
330
CC
100
AcDbEntity
  8
001
 62
   200
370
    50
100
AcDbVertex
100
AcDb2dVertex
 10
76.275162
 20
117.478669
 30
0.0
  0
VERTEX
  5
D4
330
CC
100
AcDbEntity
  8
001
 62
   200
370
    50
100
AcDbVertex
100
AcDb2dVertex
 10
75.99425
 20
117.094559
 30
0.0
  0
SEQEND
  5
CD
330
CC
100
AcDbEntity
  8
001
370
    50
  0
LINE
  5
D5
330
1F
100
AcDbEntity
  8
001
 62
   200
370
    50
100
AcDbLine
 10
85.367474
 20
123.102432
 30
0.0
 11
80.638674
 21
123.102432
 31
0.0
  0
POLYLINE
  5
D6
330
1F
100
AcDbEntity
  8
001
 62
   200
370
    50
100
AcDb2dPolyline
 66
     1
 10
0.0
 20
0.0
 30
0.0
  0
VERTEX
  5
D8
330
D6
100
AcDbEntity
  8
001
 62
   200
370
    50
100
AcDbVertex
100
AcDb2dVertex
 10
81.572929
 20
122.209481
 30
0.0
  0
VERTEX
  5
D9
330
D6
100
AcDbEntity
  8
001
 62
   200
370
    50
100
AcDbVertex
100
AcDb2dVertex
 10
81.386213
 20
122.144502
 30
0.0
  0
VERTEX
  5
DA
330
D6
100
AcDbEntity
  8
001
 62
   200
370
    50
100
AcDbVertex
100
AcDb2dVertex
 10
81.134008
 20
122.040333
 30
0.0
  0
VERTEX
  5
DB
330
D6
100
AcDbEntity
  8
001
 62
   200
370
    50
100
AcDbVertex
100
AcDb2dVertex
 10
80.894145
 20
121.913711
 30
0.0
  0
VERTEX
  5
DC
330
D6
100
AcDbEntity
  8
001
 62
   200
370
    50
100
AcDbVertex
100
AcDb2dVertex
 10
80.688488
 20
121.773493
 30
0.0
  0
VERTEX
  5
DD
330
D6
100
AcDbEntity
  8
001
 62
   200
370
    50
100
AcDbVertex
100
AcDb2dVertex
 10
80.488585
 20
121.611888
 30
0.0
  0
VERTEX
  5
DE
330
D6
100
AcDbEntity
  8
001
 62
   200
370
    50
100
AcDbVertex
100
AcDb2dVertex
 10
80.298239
 20
121.430858
 30
0.0
  0
VERTEX
  5
DF
330
D6
100
AcDbEntity
  8
001
 62
   200
370
    50
100
AcDbVertex
100
AcDb2dVertex
 10
80.126719
 20
121.233811
 30
0.0
  0
VERTEX
  5
E0
330
D6
100
AcDbEntity
  8
001
 62
   200
370
    50
100
AcDbVertex
100
AcDb2dVertex
 10
79.97512
 20
121.022841
 30
0.0
  0
VERTEX
  5
E1
330
D6
100
AcDbEntity
  8
001
 62
   200
370
    50
100
AcDbVertex
100
AcDb2dVertex
 10
79.841899
 20
120.798172
 30
0.0
  0
VERTEX
  5
E2
330
D6
100
AcDbEntity
  8
001
 62
   200
370
    50
100
AcDbVertex
100
AcDb2dVertex
 10
79.728947
 20
120.561838
 30
0.0
  0
VERTEX
  5
E3
330
D6
100
AcDbEntity
  8
001
 62
   200
370
    50
100
AcDbVertex
100
AcDb2dVertex
 10
79.521518
 20
119.798979
 30
0.0
  0
VERTEX
  5
E4
330
D6
100
AcDbEntity
  8
001
 62
   200
370
    50
100
AcDbVertex
100
AcDb2dVertex
 10
79.513935
 20
119.006448
 30
0.0
  0
VERTEX
  5
E5
330
D6
100
AcDbEntity
  8
001
 62
   200
370
    50
100
AcDbVertex
100
AcDb2dVertex
 10
79.62282
 20
118.481924
 30
0.0
  0
VERTEX
  5
E6
330
D6
100
AcDbEntity
  8
001
 62
   200
370
    50
100
AcDbVertex
100
AcDb2dVertex
 10
79.821745
 20
117.983914
 30
0.0
  0
VERTEX
  5
E7
330
D6
100
AcDbEntity
  8
001
 62
   200
370
    50
100
AcDbVertex
100
AcDb2dVertex
 10
79.954037
 20
117.746883
 30
0.0
  0
VERTEX
  5
E8
330
D6
100
AcDbEntity
  8
001
 62
   200
370
    50
100
AcDbVertex
100
AcDb2dVertex
 10
80.101064
 20
117.52409
 30
0.0
  0
VERTEX
  5
E9
330
D6
100
AcDbEntity
  8
001
 62
   200
370
    50
100
AcDbVertex
100
AcDb2dVertex
 10
80.260882
 20
117.317534
 30
0.0
  0
VERTEX
  5
EA
330
D6
100
AcDbEntity
  8
001
 62
   200
370
    50
100
AcDbVertex
100
AcDb2dVertex
 10
80.453504
 20
117.117587
 30
0.0
  0
VERTEX
  5
EB
330
D6
100
AcDbEntity
  8
001
 62
   200
370
    50
100
AcDbVertex
100
AcDb2dVertex
 10
80.864343
 20
116.790912
 30
0.0
  0
VERTEX
  5
EC
330
D6
100
AcDbEntity
  8
001
 62
   200
370
    50
100
AcDbVertex
100
AcDb2dVertex
 10
81.191751
 20
116.58155
 30
0.0
  0
SEQEND
  5
D7
330
D6
100
AcDbEntity
  8
001
370
    50
  0
LINE
  5
ED
330
1F
100
AcDbEntity
  8
001
 62
   200
370
    50
100
AcDbLine
 10
78.49425
 20
111.554847
 30
0.0
 11
78.49425
 21
97.295015
 31
0.0
  0
POLYLINE
  5
EE
330
1F
100
AcDbEntity
  8
001
 62
   200
370
    50
100
AcDb2dPolyline
 66
     1
 10
0.0
 20
0.0
 30
0.0
  0
VERTEX
  5
F0
330
EE
100
AcDbEntity
  8
001
 62
   200
370
    50
100
AcDbVertex
100
AcDb2dVertex
 10
84.269349
 20
119.920449
 30
0.0
  0
VERTEX
  5
F1
330
EE
100
AcDbEntity
  8
001
 62
   200
370
    50
100
AcDbVertex
100
AcDb2dVertex
 10
84.268964
 20
119.973356
 30
0.0
  0
VERTEX
  5
F2
330
EE
100
AcDbEntity
  8
001
 62
   200
370
    50
100
AcDbVertex
100
AcDb2dVertex
 10
84.267227
 20
120.050037
 30
0.0
  0
VERTEX
  5
F3
330
EE
100
AcDbEntity
  8
001
 62
   200
370
    50
100
AcDbVertex
100
AcDb2dVertex
 10
84.126068
 20
120.876903
 30
0.0
  0
VERTEX
  5
F4
330
EE
100
AcDbEntity
  8
001
 62
   200
370
    50
100
AcDbVertex
100
AcDb2dVertex
 10
83.810782
 20
121.529239
 30
0.0
  0
VERTEX
  5
F5
330
EE
100
AcDbEntity
  8
001
 62
   200
370
    50
100
AcDbVertex
100
AcDb2dVertex
 10
83.673164
 20
121.732277
 30
0.0
  0
VERTEX
  5
F6
330
EE
100
AcDbEntity
  8
001
 62
   200
370
    50
100
AcDbVertex
100
AcDb2dVertex
 10
83.496318
 20
121.943663
 30
0.0
  0
VERTEX
  5
F7
330
EE
100
AcDbEntity
  8
001
 62
   200
370
    50
100
AcDbVertex
100
AcDb2dVertex
 10
83.333371
 20
122.107269
 30
0.0
  0
VERTEX
  5
F8
330
EE
100
AcDbEntity
  8
001
 62
   200
370
    50
100
AcDbVertex
100
AcDb2dVertex
 10
83.210903
 20
122.218863
 30
0.0
  0
SEQEND
  5
EF
330
EE
100
AcDbEntity
  8
001
370
    50
  0
POLYLINE
  5
F9
330
1F
100
AcDbEntity
  8
001
 62
   200
370
    50
100
AcDb2dPolyline
 66
     1
 10
0.0
 20
0.0
 30
0.0
  0
VERTEX
  5
FB
330
F9
100
AcDbEntity
  8
001
 62
   200
370
    50
100
AcDbVertex
100
AcDb2dVertex
 10
83.82338
 20
121.976456
 30
0.0
  0
VERTEX
  5
FC
330
F9
100
AcDbEntity
  8
001
 62
   200
370
    50
100
AcDbVertex
100
AcDb2dVertex
 10
83.765995
 20
122.005507
 30
0.0
  0
VERTEX
  5
FD
330
F9
100
AcDbEntity
  8
001
 62
   200
370
    50
100
AcDbVertex
100
AcDb2dVertex
 10
83.682119
 20
122.046048
 30
0.0
  0
VERTEX
  5
FE
330
F9
100
AcDbEntity
  8
001
 62
   200
370
    50
100
AcDbVertex
100
AcDb2dVertex
 10
82.864761
 20
122.299561
 30
0.0
  0
VERTEX
  5
FF
330
F9
100
AcDbEntity
  8
001
 62
   200
370
    50
100
AcDbVertex
100
AcDb2dVertex
 10
82.135449
 20
122.316751
 30
0.0
  0
VERTEX
  5
100
330
F9
100
AcDbEntity
  8
001
 62
   200
370
    50
100
AcDbVertex
100
AcDb2dVertex
 10
81.897695
 20
122.286551
 30
0.0
  0
VERTEX
  5
101
330
F9
100
AcDbEntity
  8
001
 62
   200
370
    50
100
AcDbVertex
100
AcDb2dVertex
 10
81.621264
 20
122.223273
 30
0.0
  0
VERTEX
  5
102
330
F9
100
AcDbEntity
  8
001
 62
   200
370
    50
100
AcDbVertex
100
AcDb2dVertex
 10
81.592649
 20
122.215184
 30
0.0
  0
VERTEX
  5
103
330
F9
100
AcDbEntity
  8
001
 62
   200
370
    50
100
AcDbVertex
100
AcDb2dVertex
 10
81.572929
 20
122.209481
 30
0.0
  0
SEQEND
  5
FA
330
F9
100
AcDbEntity
  8
001
370
    50
  0
POLYLINE
  5
104
330
1F
100
AcDbEntity
  8
001
 62
   200
370
    50
100
AcDb2dPolyline
 66
     1
 10
0.0
 20
0.0
 30
0.0
  0
VERTEX
  5
106
330
104
100
AcDbEntity
  8
001
 62
   200
370
    50
100
AcDbVertex
100
AcDb2dVertex
 10
81.191751
 20
116.58155
 30
0.0
  0
VERTEX
  5
107
330
104
100
AcDbEntity
  8
001
 62
   200
370
    50
100
AcDbVertex
100
AcDb2dVertex
 10
81.249209
 20
116.552523
 30
0.0
  0
VERTEX
  5
108
330
104
100
AcDbEntity
  8
001
 62
   200
370
    50
100
AcDbVertex
100
AcDb2dVertex
 10
81.333013
 20
116.511959
 30
0.0
  0
VERTEX
  5
109
330
104
100
AcDbEntity
  8
001
 62
   200
370
    50
100
AcDbVertex
100
AcDb2dVertex
 10
82.133666
 20
116.253171
 30
0.0
  0
VERTEX
  5
10A
330
104
100
AcDbEntity
  8
001
 62
   200
370
    50
100
AcDbVertex
100
AcDb2dVertex
 10
82.879682
 20
116.241255
 30
0.0
  0
VERTEX
  5
10B
330
104
100
AcDbEntity
  8
001
 62
   200
370
    50
100
AcDbVertex
100
AcDb2dVertex
 10
83.136847
 20
116.277586
 30
0.0
  0
VERTEX
  5
10C
330
104
100
AcDbEntity
  8
001
 62
   200
370
    50
100
AcDbVertex
100
AcDb2dVertex
 10
83.393868
 20
116.334734
 30
0.0
  0
VERTEX
  5
10D
330
104
100
AcDbEntity
  8
001
 62
   200
370
    50
100
AcDbVertex
100
AcDb2dVertex
 10
83.642149
 20
116.414957
 30
0.0
  0
VERTEX
  5
10E
330
104
100
AcDbEntity
  8
001
 62
   200
370
    50
100
AcDbVertex
100
AcDb2dVertex
 10
83.881123
 20
116.517673
 30
0.0
  0
VERTEX
  5
10F
330
104
100
AcDbEntity
  8
001
 62
   200
370
    50
100
AcDbVertex
100
AcDb2dVertex
 10
84.109768
 20
116.641107
 30
0.0
  0
VERTEX
  5
110
330
104
100
AcDbEntity
  8
001
 62
   200
370
    50
100
AcDbVertex
100
AcDb2dVertex
 10
84.326643
 20
116.784514
 30
0.0
  0
VERTEX
  5
111
330
104
100
AcDbEntity
  8
001
 62
   200
370
    50
100
AcDbVertex
100
AcDb2dVertex
 10
84.529555
 20
116.946974
 30
0.0
  0
VERTEX
  5
112
330
104
100
AcDbEntity
  8
001
 62
   200
370
    50
100
AcDbVertex
100
AcDb2dVertex
 10
84.716892
 20
117.127149
 30
0.0
  0
VERTEX
  5
113
330
104
100
AcDbEntity
  8
001
 62
   200
370
    50
100
AcDbVertex
100
AcDb2dVertex
 10
84.887597
 20
117.323964
 30
0.0
  0
VERTEX
  5
114
330
104
100
AcDbEntity
  8
001
 62
   200
370
    50
100
AcDbVertex
100
AcDb2dVertex
 10
85.040012
 20
117.535166
 30
0.0
  0
VERTEX
  5
115
330
104
100
AcDbEntity
  8
001
 62
   200
370
    50
100
AcDbVertex
100
AcDb2dVertex
 10
85.173479
 20
117.759905
 30
0.0
  0
VERTEX
  5
116
330
104
100
AcDbEntity
  8
001
 62
   200
370
    50
100
AcDbVertex
100
AcDb2dVertex
 10
85.286184
 20
117.996169
 30
0.0
  0
VERTEX
  5
117
330
104
100
AcDbEntity
  8
001
 62
   200
370
    50
100
AcDbVertex
100
AcDb2dVertex
 10
85.493363
 20
118.758956
 30
0.0
  0
VERTEX
  5
118
330
104
100
AcDbEntity
  8
001
 62
   200
370
    50
100
AcDbVertex
100
AcDb2dVertex
 10
85.501196
 20
119.551559
 30
0.0
  0
VERTEX
  5
119
330
104
100
AcDbEntity
  8
001
 62
   200
370
    50
100
AcDbVertex
100
AcDb2dVertex
 10
85.392347
 20
120.076093
 30
0.0
  0
VERTEX
  5
11A
330
104
100
AcDbEntity
  8
001
 62
   200
370
    50
100
AcDbVertex
100
AcDb2dVertex
 10
85.193387
 20
120.574093
 30
0.0
  0
VERTEX
  5
11B
330
104
100
AcDbEntity
  8
001
 62
   200
370
    50
100
AcDbVertex
100
AcDb2dVertex
 10
85.061091
 20
120.811122
 30
0.0
  0
VERTEX
  5
11C
330
104
100
AcDbEntity
  8
001
 62
   200
370
    50
100
AcDbVertex
100
AcDb2dVertex
 10
84.914068
 20
121.033917
 30
0.0
  0
VERTEX
  5
11D
330
104
100
AcDbEntity
  8
001
 62
   200
370
    50
100
AcDbVertex
100
AcDb2dVertex
 10
84.75425
 20
121.240473
 30
0.0
  0
VERTEX
  5
11E
330
104
100
AcDbEntity
  8
001
 62
   200
370
    50
100
AcDbVertex
100
AcDb2dVertex
 10
84.561628
 20
121.44042
 30
0.0
  0
VERTEX
  5
11F
330
104
100
AcDbEntity
  8
001
 62
   200
370
    50
100
AcDbVertex
100
AcDb2dVertex
 10
84.150788
 20
121.767095
 30
0.0
  0
VERTEX
  5
120
330
104
100
AcDbEntity
  8
001
 62
   200
370
    50
100
AcDbVertex
100
AcDb2dVertex
 10
83.82338
 20
121.976456
 30
0.0
  0
SEQEND
  5
105
330
104
100
AcDbEntity
  8
001
370
    50
  0
POLYLINE
  5
121
330
1F
100
AcDbEntity
  8
001
 62
   200
370
    50
100
AcDb2dPolyline
 66
     1
 10
0.0
 20
0.0
 30
0.0
  0
VERTEX
  5
123
330
121
100
AcDbEntity
  8
001
 62
   200
370
    50
100
AcDbVertex
100
AcDb2dVertex
 10
80.572821
 20
117.00716
 30
0.0
  0
VERTEX
  5
124
330
121
100
AcDbEntity
  8
001
 62
   200
370
    50
100
AcDbVertex
100
AcDb2dVertex
 10
80.699469
 20
116.980835
 30
0.0
  0
VERTEX
  5
125
330
121
100
AcDbEntity
  8
001
 62
   200
370
    50
100
AcDbVertex
100
AcDb2dVertex
 10
80.878101
 20
116.950294
 30
0.0
  0
VERTEX
  5
126
330
121
100
AcDbEntity
  8
001
 62
   200
370
    50
100
AcDbVertex
100
AcDb2dVertex
 10
81.151986
 20
116.923694
 30
0.0
  0
VERTEX
  5
127
330
121
100
AcDbEntity
  8
001
 62
   200
370
    50
100
AcDbVertex
100
AcDb2dVertex
 10
81.39782
 20
116.927324
 30
0.0
  0
VERTEX
  5
128
330
121
100
AcDbEntity
  8
001
 62
   200
370
    50
100
AcDbVertex
100
AcDb2dVertex
 10
82.15029
 20
117.068672
 30
0.0
  0
VERTEX
  5
129
330
121
100
AcDbEntity
  8
001
 62
   200
370
    50
100
AcDbVertex
100
AcDb2dVertex
 10
82.874103
 20
117.393121
 30
0.0
  0
VERTEX
  5
12A
330
121
100
AcDbEntity
  8
001
 62
   200
370
    50
100
AcDbVertex
100
AcDb2dVertex
 10
83.29168
 20
117.709289
 30
0.0
  0
VERTEX
  5
12B
330
121
100
AcDbEntity
  8
001
 62
   200
370
    50
100
AcDbVertex
100
AcDb2dVertex
 10
83.642356
 20
118.095776
 30
0.0
  0
VERTEX
  5
12C
330
121
100
AcDbEntity
  8
001
 62
   200
370
    50
100
AcDbVertex
100
AcDb2dVertex
 10
83.79275
 20
118.312394
 30
0.0
  0
VERTEX
  5
12D
330
121
100
AcDbEntity
  8
001
 62
   200
370
    50
100
AcDbVertex
100
AcDb2dVertex
 10
83.924379
 20
118.536113
 30
0.0
  0
VERTEX
  5
12E
330
121
100
AcDbEntity
  8
001
 62
   200
370
    50
100
AcDbVertex
100
AcDb2dVertex
 10
84.035746
 20
118.764451
 30
0.0
  0
VERTEX
  5
12F
330
121
100
AcDbEntity
  8
001
 62
   200
370
    50
100
AcDbVertex
100
AcDb2dVertex
 10
84.126183
 20
119.018513
 30
0.0
  0
VERTEX
  5
130
330
121
100
AcDbEntity
  8
001
 62
   200
370
    50
100
AcDbVertex
100
AcDb2dVertex
 10
84.23232
 20
119.532877
 30
0.0
  0
VERTEX
  5
131
330
121
100
AcDbEntity
  8
001
 62
   200
370
    50
100
AcDbVertex
100
AcDb2dVertex
 10
84.269349
 20
119.920449
 30
0.0
  0
SEQEND
  5
122
330
121
100
AcDbEntity
  8
001
370
    50
  0
LINE
  5
132
330
1F
100
AcDbEntity
  8
001
 62
   200
370
    50
100
AcDbLine
 10
75.99425
 20
120.557724
 30
0.0
 11
80.63359
 21
124.962069
 31
0.0
  0
POLYLINE
  5
133
330
1F
100
AcDbEntity
  8
001
 62
   200
370
    50
100
AcDb2dPolyline
 66
     1
 10
0.0
 20
0.0
 30
0.0
  0
VERTEX
  5
135
330
133
100
AcDbEntity
  8
001
 62
   200
370
    50
100
AcDbVertex
100
AcDb2dVertex
 10
80.63359
 20
124.962069
 30
0.0
  0
VERTEX
  5
136
330
133
100
AcDbEntity
  8
001
 62
   200
370
    50
100
AcDbVertex
100
AcDb2dVertex
 10
80.634368
 20
124.56209
 30
0.0
  0
VERTEX
  5
137
330
133
100
AcDbEntity
  8
001
 62
   200
370
    50
100
AcDbVertex
100
AcDb2dVertex
 10
80.635286
 20
124.162111
 30
0.0
  0
VERTEX
  5
138
330
133
100
AcDbEntity
  8
001
 62
   200
370
    50
100
AcDbVertex
100
AcDb2dVertex
 10
80.636858
 20
123.632271
 30
0.0
  0
VERTEX
  5
139
330
133
100
AcDbEntity
  8
001
 62
   200
370
    50
100
AcDbVertex
100
AcDb2dVertex
 10
80.638674
 20
123.102432
 30
0.0
  0
SEQEND
  5
134
330
133
100
AcDbEntity
  8
001
370
    50
  0
POLYLINE
  5
13A
330
1F
100
AcDbEntity
  8
001
 62
   200
370
    50
100
AcDb2dPolyline
 66
     1
 10
0.0
 20
0.0
 30
0.0
  0
VERTEX
  5
13C
330
13A
100
AcDbEntity
  8
001
 62
   200
370
    50
100
AcDbVertex
100
AcDb2dVertex
 10
80.63359
 20
124.962069
 30
0.0
  0
VERTEX
  5
13D
330
13A
100
AcDbEntity
  8
001
 62
   200
370
    50
100
AcDbVertex
100
AcDb2dVertex
 10
80.690035
 20
125.145747
 30
0.0
  0
VERTEX
  5
13E
330
13A
100
AcDbEntity
  8
001
 62
   200
370
    50
100
AcDbVertex
100
AcDb2dVertex
 10
80.719525
 20
125.418331
 30
0.0
  0
VERTEX
  5
13F
330
13A
100
AcDbEntity
  8
001
 62
   200
370
    50
100
AcDbVertex
100
AcDb2dVertex
 10
80.685959
 20
125.595035
 30
0.0
  0
VERTEX
  5
140
330
13A
100
AcDbEntity
  8
001
 62
   200
370
    50
100
AcDbVertex
100
AcDb2dVertex
 10
80.634364
 20
125.707116
 30
0.0
  0
SEQEND
  5
13B
330
13A
100
AcDbEntity
  8
001
370
    50
  0
LINE
  5
141
330
1F
100
AcDbEntity
  8
001
 62
   200
370
    50
100
AcDbLine
 10
80.634369
 20
125.7078
 30
0.0
 11
80.634364
 21
125.707116
 31
0.0
  0
POLYLINE
  5
142
330
1F
100
AcDbEntity
  8
001
 62
   200
370
    50
100
AcDb2dPolyline
 66
     1
 10
0.0
 20
0.0
 30
0.0
  0
VERTEX
  5
144
330
142
100
AcDbEntity
  8
001
 62
   200
370
    50
100
AcDbVertex
100
AcDb2dVertex
 10
82.211686
 20
125.720462
 30
0.0
  0
VERTEX
  5
145
330
142
100
AcDbEntity
  8
001
 62
   200
370
    50
100
AcDbVertex
100
AcDb2dVertex
 10
81.891283
 20
125.717944
 30
0.0
  0
VERTEX
  5
146
330
142
100
AcDbEntity
  8
001
 62
   200
370
    50
100
AcDbVertex
100
AcDb2dVertex
 10
81.423003
 20
125.714217
 30
0.0
  0
VERTEX
  5
147
330
142
100
AcDbEntity
  8
001
 62
   200
370
    50
100
AcDbVertex
100
AcDb2dVertex
 10
80.954752
 20
125.710426
 30
0.0
  0
VERTEX
  5
148
330
142
100
AcDbEntity
  8
001
 62
   200
370
    50
100
AcDbVertex
100
AcDb2dVertex
 10
80.634369
 20
125.7078
 30
0.0
  0
SEQEND
  5
143
330
142
100
AcDbEntity
  8
001
370
    50
  0
POLYLINE
  5
149
330
1F
100
AcDbEntity
  8
001
 62
   200
370
    50
100
AcDb2dPolyline
 66
     1
 10
0.0
 20
0.0
 30
0.0
  0
VERTEX
  5
14B
330
149
100
AcDbEntity
  8
001
 62
   200
370
    50
100
AcDbVertex
100
AcDb2dVertex
 10
85.367474
 20
123.102432
 30
0.0
  0
VERTEX
  5
14C
330
149
100
AcDbEntity
  8
001
 62
   200
370
    50
100
AcDbVertex
100
AcDb2dVertex
 10
84.966895
 20
123.455517
 30
0.0
  0
VERTEX
  5
14D
330
149
100
AcDbEntity
  8
001
 62
   200
370
    50
100
AcDbVertex
100
AcDb2dVertex
 10
84.417104
 20
123.940204
 30
0.0
  0
VERTEX
  5
14E
330
149
100
AcDbEntity
  8
001
 62
   200
370
    50
100
AcDbVertex
100
AcDb2dVertex
 10
83.560492
 20
124.692985
 30
0.0
  0
VERTEX
  5
14F
330
149
100
AcDbEntity
  8
001
 62
   200
370
    50
100
AcDbVertex
100
AcDb2dVertex
 10
82.635979
 20
125.42118
 30
0.0
  0
VERTEX
  5
150
330
149
100
AcDbEntity
  8
001
 62
   200
370
    50
100
AcDbVertex
100
AcDb2dVertex
 10
82.388975
 20
125.599486
 30
0.0
  0
VERTEX
  5
151
330
149
100
AcDbEntity
  8
001
 62
   200
370
    50
100
AcDbVertex
100
AcDb2dVertex
 10
82.211686
 20
125.720462
 30
0.0
  0
SEQEND
  5
14A
330
149
100
AcDbEntity
  8
001
370
    50
  0
LINE
  5
152
330
1F
100
AcDbEntity
  8
001
 62
   200
370
    50
100
AcDbLine
 10
80.202277
 20
125.272472
 30
0.0
 11
75.99425
 21
121.02735
 31
0.0
  0
LINE
  5
153
330
1F
100
AcDbEntity
  8
001
 62
   200
370
    50
100
AcDbLine
 10
80.634364
 20
125.707116
 30
0.0
 11
80.202277
 21
125.272472
 31
0.0
  0
LINE
  5
154
330
1F
100
AcDbEntity
  8
001
 62
   200
370
    50
100
AcDbLine
 10
75.99425
 20
114.054847
 30
0.0
 11
75.99425
 21
121.02735
 31
0.0
  0
LINE
  5
155
330
1F
100
AcDbEntity
  8
001
 62
   200
370
    50
100
AcDbLine
 10
80.202277
 20
125.272472
 30
0.0
 11
80.634369
 21
125.7078
 31
0.0
  0
POLYLINE
  5
156
330
1F
100
AcDbEntity
  8
001
 62
    40
370
    50
100
AcDb2dPolyline
 66
     1
 10
0.0
 20
0.0
 30
0.0
  0
VERTEX
  5
158
330
156
100
AcDbEntity
  8
001
 62
    40
370
    50
100
AcDbVertex
100
AcDb2dVertex
 10
75.543243
 20
120.854822
 30
0.0
  0
VERTEX
  5
159
330
156
100
AcDbEntity
  8
001
 62
    40
370
    50
100
AcDbVertex
100
AcDb2dVertex
 10
75.514871
 20
120.824051
 30
0.0
  0
VERTEX
  5
15A
330
156
100
AcDbEntity
  8
001
 62
    40
370
    50
100
AcDbVertex
100
AcDb2dVertex
 10
75.477296
 20
120.779431
 30
0.0
  0
VERTEX
  5
15B
330
156
100
AcDbEntity
  8
001
 62
    40
370
    50
100
AcDbVertex
100
AcDb2dVertex
 10
75.434743
 20
120.719367
 30
0.0
  0
VERTEX
  5
15C
330
156
100
AcDbEntity
  8
001
 62
    40
370
    50
100
AcDbVertex
100
AcDb2dVertex
 10
75.40209
 20
120.662008
 30
0.0
  0
VERTEX
  5
15D
330
156
100
AcDbEntity
  8
001
 62
    40
370
    50
100
AcDbVertex
100
AcDb2dVertex
 10
75.373072
 20
120.601747
 30
0.0
  0
VERTEX
  5
15E
330
156
100
AcDbEntity
  8
001
 62
    40
370
    50
100
AcDbVertex
100
AcDb2dVertex
 10
75.348276
 20
120.533368
 30
0.0
  0
VERTEX
  5
15F
330
156
100
AcDbEntity
  8
001
 62
    40
370
    50
100
AcDbVertex
100
AcDb2dVertex
 10
75.31945
 20
120.393589
 30
0.0
  0
VERTEX
  5
160
330
156
100
AcDbEntity
  8
001
 62
    40
370
    50
100
AcDbVertex
100
AcDb2dVertex
 10
75.310087
 20
120.288693
 30
0.0
  0
SEQEND
  5
157
330
156
100
AcDbEntity
  8
001
370
    50
  0
POLYLINE
  5
161
330
1F
100
AcDbEntity
  8
001
 62
    40
370
    50
100
AcDb2dPolyline
 66
     1
 10
0.0
 20
0.0
 30
0.0
  0
VERTEX
  5
163
330
161
100
AcDbEntity
  8
001
 62
    40
370
    50
100
AcDbVertex
100
AcDb2dVertex
 10
75.227406
 20
121.020427
 30
0.0
  0
VERTEX
  5
164
330
161
100
AcDbEntity
  8
001
 62
    40
370
    50
100
AcDbVertex
100
AcDb2dVertex
 10
75.199034
 20
120.989656
 30
0.0
  0
VERTEX
  5
165
330
161
100
AcDbEntity
  8
001
 62
    40
370
    50
100
AcDbVertex
100
AcDb2dVertex
 10
75.161459
 20
120.945037
 30
0.0
  0
VERTEX
  5
166
330
161
100
AcDbEntity
  8
001
 62
    40
370
    50
100
AcDbVertex
100
AcDb2dVertex
 10
75.118906
 20
120.884973
 30
0.0
  0
VERTEX
  5
167
330
161
100
AcDbEntity
  8
001
 62
    40
370
    50
100
AcDbVertex
100
AcDb2dVertex
 10
75.086253
 20
120.827614
 30
0.0
  0
VERTEX
  5
168
330
161
100
AcDbEntity
  8
001
 62
    40
370
    50
100
AcDbVertex
100
AcDb2dVertex
 10
75.057235
 20
120.767353
 30
0.0
  0
VERTEX
  5
169
330
161
100
AcDbEntity
  8
001
 62
    40
370
    50
100
AcDbVertex
100
AcDb2dVertex
 10
75.032439
 20
120.698974
 30
0.0
  0
VERTEX
  5
16A
330
161
100
AcDbEntity
  8
001
 62
    40
370
    50
100
AcDbVertex
100
AcDb2dVertex
 10
75.003613
 20
120.559195
 30
0.0
  0
VERTEX
  5
16B
330
161
100
AcDbEntity
  8
001
 62
    40
370
    50
100
AcDbVertex
100
AcDb2dVertex
 10
74.99425
 20
120.454299
 30
0.0
  0
SEQEND
  5
162
330
161
100
AcDbEntity
  8
001
370
    50
  0
LINE
  5
16C
330
1F
100
AcDbEntity
  8
001
 62
    40
370
    50
100
AcDbLine
 10
75.99425
 20
118.475826
 30
0.0
 11
75.543243
 21
118.926098
 31
0.0
  0
POLYLINE
  5
16D
330
1F
100
AcDbEntity
  8
001
 62
    40
370
    50
100
AcDb2dPolyline
 66
     1
 10
0.0
 20
0.0
 30
0.0
  0
VERTEX
  5
16F
330
16D
100
AcDbEntity
  8
001
 62
    40
370
    50
100
AcDbVertex
100
AcDb2dVertex
 10
75.310087
 20
119.48979
 30
0.0
  0
VERTEX
  5
170
330
16D
100
AcDbEntity
  8
001
 62
    40
370
    50
100
AcDbVertex
100
AcDb2dVertex
 10
75.310222
 20
119.477388
 30
0.0
  0
VERTEX
  5
171
330
16D
100
AcDbEntity
  8
001
 62
    40
370
    50
100
AcDbVertex
100
AcDb2dVertex
 10
75.310664
 20
119.459391
 30
0.0
  0
VERTEX
  5
172
330
16D
100
AcDbEntity
  8
001
 62
    40
370
    50
100
AcDbVertex
100
AcDb2dVertex
 10
75.348868
 20
119.237978
 30
0.0
  0
VERTEX
  5
173
330
16D
100
AcDbEntity
  8
001
 62
    40
370
    50
100
AcDbVertex
100
AcDb2dVertex
 10
75.432382
 20
119.064938
 30
0.0
  0
VERTEX
  5
174
330
16D
100
AcDbEntity
  8
001
 62
    40
370
    50
100
AcDbVertex
100
AcDb2dVertex
 10
75.468474
 20
119.011767
 30
0.0
  0
VERTEX
  5
175
330
16D
100
AcDbEntity
  8
001
 62
    40
370
    50
100
AcDbVertex
100
AcDb2dVertex
 10
75.51624
 20
118.954424
 30
0.0
  0
VERTEX
  5
176
330
16D
100
AcDbEntity
  8
001
 62
    40
370
    50
100
AcDbVertex
100
AcDb2dVertex
 10
75.532002
 20
118.937647
 30
0.0
  0
VERTEX
  5
177
330
16D
100
AcDbEntity
  8
001
 62
    40
370
    50
100
AcDbVertex
100
AcDb2dVertex
 10
75.543243
 20
118.926098
 30
0.0
  0
SEQEND
  5
16E
330
16D
100
AcDbEntity
  8
001
370
    50
  0
LINE
  5
178
330
1F
100
AcDbEntity
  8
001
 62
    40
370
    50
100
AcDbLine
 10
75.310087
 20
119.48979
 30
0.0
 11
75.310087
 21
120.288693
 31
0.0
  0
LINE
  5
179
330
1F
100
AcDbEntity
  8
001
 62
    40
370
    50
100
AcDbLine
 10
75.543243
 20
120.854822
 30
0.0
 11
80.323312
 21
125.67703
 31
0.0
  0
POLYLINE
  5
17A
330
1F
100
AcDbEntity
  8
001
 62
    40
370
    50
100
AcDb2dPolyline
 66
     1
 10
0.0
 20
0.0
 30
0.0
  0
VERTEX
  5
17C
330
17A
100
AcDbEntity
  8
001
 62
    40
370
    50
100
AcDbVertex
100
AcDb2dVertex
 10
80.886201
 20
125.913963
 30
0.0
  0
VERTEX
  5
17D
330
17A
100
AcDbEntity
  8
001
 62
    40
370
    50
100
AcDbVertex
100
AcDb2dVertex
 10
80.873819
 20
125.91374
 30
0.0
  0
VERTEX
  5
17E
330
17A
100
AcDbEntity
  8
001
 62
    40
370
    50
100
AcDbVertex
100
AcDb2dVertex
 10
80.855908
 20
125.913227
 30
0.0
  0
VERTEX
  5
17F
330
17A
100
AcDbEntity
  8
001
 62
    40
370
    50
100
AcDbVertex
100
AcDb2dVertex
 10
80.644043
 20
125.883236
 30
0.0
  0
VERTEX
  5
180
330
17A
100
AcDbEntity
  8
001
 62
    40
370
    50
100
AcDbVertex
100
AcDb2dVertex
 10
80.462232
 20
125.789014
 30
0.0
  0
VERTEX
  5
181
330
17A
100
AcDbEntity
  8
001
 62
    40
370
    50
100
AcDbVertex
100
AcDb2dVertex
 10
80.379688
 20
125.726147
 30
0.0
  0
VERTEX
  5
182
330
17A
100
AcDbEntity
  8
001
 62
    40
370
    50
100
AcDbVertex
100
AcDb2dVertex
 10
80.323312
 20
125.67703
 30
0.0
  0
SEQEND
  5
17B
330
17A
100
AcDbEntity
  8
001
370
    50
  0
LINE
  5
183
330
1F
100
AcDbEntity
  8
001
 62
    40
370
    50
100
AcDbLine
 10
80.886201
 20
125.913963
 30
0.0
 11
81.682245
 21
125.918122
 31
0.0
  0
POLYLINE
  5
184
330
1F
100
AcDbEntity
  8
001
 62
    40
370
    50
100
AcDb2dPolyline
 66
     1
 10
0.0
 20
0.0
 30
0.0
  0
VERTEX
  5
186
330
184
100
AcDbEntity
  8
001
 62
    40
370
    50
100
AcDbVertex
100
AcDb2dVertex
 10
82.053745
 20
125.827729
 30
0.0
  0
VERTEX
  5
187
330
184
100
AcDbEntity
  8
001
 62
    40
370
    50
100
AcDbVertex
100
AcDb2dVertex
 10
82.000049
 20
125.852104
 30
0.0
  0
VERTEX
  5
188
330
184
100
AcDbEntity
  8
001
 62
    40
370
    50
100
AcDbVertex
100
AcDb2dVertex
 10
81.925845
 20
125.881069
 30
0.0
  0
VERTEX
  5
189
330
184
100
AcDbEntity
  8
001
 62
    40
370
    50
100
AcDbVertex
100
AcDb2dVertex
 10
81.859587
 20
125.90045
 30
0.0
  0
VERTEX
  5
18A
330
184
100
AcDbEntity
  8
001
 62
    40
370
    50
100
AcDbVertex
100
AcDb2dVertex
 10
81.790544
 20
125.91126
 30
0.0
  0
VERTEX
  5
18B
330
184
100
AcDbEntity
  8
001
 62
    40
370
    50
100
AcDbVertex
100
AcDb2dVertex
 10
81.728051
 20
125.916318
 30
0.0
  0
VERTEX
  5
18C
330
184
100
AcDbEntity
  8
001
 62
    40
370
    50
100
AcDbVertex
100
AcDb2dVertex
 10
81.682245
 20
125.918122
 30
0.0
  0
SEQEND
  5
185
330
184
100
AcDbEntity
  8
001
370
    50
  0
POLYLINE
  5
18D
330
1F
100
AcDbEntity
  8
001
 62
    40
370
    50
100
AcDb2dPolyline
 66
     1
 10
0.0
 20
0.0
 30
0.0
  0
VERTEX
  5
18F
330
18D
100
AcDbEntity
  8
001
 62
    40
370
    50
100
AcDbVertex
100
AcDb2dVertex
 10
80.399589
 20
118.233307
 30
0.0
  0
VERTEX
  5
190
330
18D
100
AcDbEntity
  8
001
 62
    40
370
    50
100
AcDbVertex
100
AcDb2dVertex
 10
80.525842
 20
118.175289
 30
0.0
  0
VERTEX
  5
191
330
18D
100
AcDbEntity
  8
001
 62
    40
370
    50
100
AcDbVertex
100
AcDb2dVertex
 10
80.70415
 20
118.106293
 30
0.0
  0
VERTEX
  5
192
330
18D
100
AcDbEntity
  8
001
 62
    40
370
    50
100
AcDbVertex
100
AcDb2dVertex
 10
80.869985
 20
118.060019
 30
0.0
  0
VERTEX
  5
193
330
18D
100
AcDbEntity
  8
001
 62
    40
370
    50
100
AcDbVertex
100
AcDb2dVertex
 10
81.026336
 20
118.034401
 30
0.0
  0
VERTEX
  5
194
330
18D
100
AcDbEntity
  8
001
 62
    40
370
    50
100
AcDbVertex
100
AcDb2dVertex
 10
81.189001
 20
118.020741
 30
0.0
  0
VERTEX
  5
195
330
18D
100
AcDbEntity
  8
001
 62
    40
370
    50
100
AcDbVertex
100
AcDb2dVertex
 10
81.356357
 20
118.019815
 30
0.0
  0
VERTEX
  5
196
330
18D
100
AcDbEntity
  8
001
 62
    40
370
    50
100
AcDbVertex
100
AcDb2dVertex
 10
81.845451
 20
118.106328
 30
0.0
  0
VERTEX
  5
197
330
18D
100
AcDbEntity
  8
001
 62
    40
370
    50
100
AcDbVertex
100
AcDb2dVertex
 10
82.293797
 20
118.315596
 30
0.0
  0
VERTEX
  5
198
330
18D
100
AcDbEntity
  8
001
 62
    40
370
    50
100
AcDbVertex
100
AcDb2dVertex
 10
82.557389
 20
118.516824
 30
0.0
  0
VERTEX
  5
199
330
18D
100
AcDbEntity
  8
001
 62
    40
370
    50
100
AcDbVertex
100
AcDb2dVertex
 10
82.781637
 20
118.761782
 30
0.0
  0
VERTEX
  5
19A
330
18D
100
AcDbEntity
  8
001
 62
    40
370
    50
100
AcDbVertex
100
AcDb2dVertex
 10
82.877286
 20
118.899275
 30
0.0
  0
VERTEX
  5
19B
330
18D
100
AcDbEntity
  8
001
 62
    40
370
    50
100
AcDbVertex
100
AcDb2dVertex
 10
82.960722
 20
119.041396
 30
0.0
  0
VERTEX
  5
19C
330
18D
100
AcDbEntity
  8
001
 62
    40
370
    50
100
AcDbVertex
100
AcDb2dVertex
 10
83.031424
 20
119.186452
 30
0.0
  0
VERTEX
  5
19D
330
18D
100
AcDbEntity
  8
001
 62
    40
370
    50
100
AcDbVertex
100
AcDb2dVertex
 10
83.088867
 20
119.34772
 30
0.0
  0
VERTEX
  5
19E
330
18D
100
AcDbEntity
  8
001
 62
    40
370
    50
100
AcDbVertex
100
AcDb2dVertex
 10
83.156819
 20
119.679897
 30
0.0
  0
VERTEX
  5
19F
330
18D
100
AcDbEntity
  8
001
 62
    40
370
    50
100
AcDbVertex
100
AcDb2dVertex
 10
83.179804
 20
119.930352
 30
0.0
  0
SEQEND
  5
18E
330
18D
100
AcDbEntity
  8
001
370
    50
  0
LINE
  5
1A0
330
1F
100
AcDbEntity
  8
001
 62
    40
370
    50
100
AcDbLine
 10
75.227406
 20
121.020427
 30
0.0
 11
80.007475
 21
125.842635
 31
0.0
  0
LINE
  5
1A1
330
1F
100
AcDbEntity
  8
001
 62
    40
370
    50
100
AcDbLine
 10
74.99425
 20
119.655395
 30
0.0
 11
74.99425
 21
120.454299
 31
0.0
  0
POLYLINE
  5
1A2
330
1F
100
AcDbEntity
  8
001
 62
    40
370
    50
100
AcDb2dPolyline
 66
     1
 10
0.0
 20
0.0
 30
0.0
  0
VERTEX
  5
1A4
330
1A2
100
AcDbEntity
  8
001
 62
    40
370
    50
100
AcDbVertex
100
AcDb2dVertex
 10
74.99425
 20
119.655395
 30
0.0
  0
VERTEX
  5
1A5
330
1A2
100
AcDbEntity
  8
001
 62
    40
370
    50
100
AcDbVertex
100
AcDb2dVertex
 10
74.994385
 20
119.642993
 30
0.0
  0
VERTEX
  5
1A6
330
1A2
100
AcDbEntity
  8
001
 62
    40
370
    50
100
AcDbVertex
100
AcDb2dVertex
 10
74.994827
 20
119.624997
 30
0.0
  0
VERTEX
  5
1A7
330
1A2
100
AcDbEntity
  8
001
 62
    40
370
    50
100
AcDbVertex
100
AcDb2dVertex
 10
75.033032
 20
119.403584
 30
0.0
  0
VERTEX
  5
1A8
330
1A2
100
AcDbEntity
  8
001
 62
    40
370
    50
100
AcDbVertex
100
AcDb2dVertex
 10
75.116546
 20
119.230543
 30
0.0
  0
VERTEX
  5
1A9
330
1A2
100
AcDbEntity
  8
001
 62
    40
370
    50
100
AcDbVertex
100
AcDb2dVertex
 10
75.152637
 20
119.177372
 30
0.0
  0
VERTEX
  5
1AA
330
1A2
100
AcDbEntity
  8
001
 62
    40
370
    50
100
AcDbVertex
100
AcDb2dVertex
 10
75.200403
 20
119.12003
 30
0.0
  0
VERTEX
  5
1AB
330
1A2
100
AcDbEntity
  8
001
 62
    40
370
    50
100
AcDbVertex
100
AcDb2dVertex
 10
75.216166
 20
119.103253
 30
0.0
  0
VERTEX
  5
1AC
330
1A2
100
AcDbEntity
  8
001
 62
    40
370
    50
100
AcDbVertex
100
AcDb2dVertex
 10
75.227406
 20
119.091703
 30
0.0
  0
SEQEND
  5
1A3
330
1A2
100
AcDbEntity
  8
001
370
    50
  0
LINE
  5
1AD
330
1F
100
AcDbEntity
  8
001
 62
    40
370
    50
100
AcDbLine
 10
75.99425
 20
118.326111
 30
0.0
 11
75.227406
 21
119.091703
 31
0.0
  0
POLYLINE
  5
1AE
330
1F
100
AcDbEntity
  8
001
 62
    40
370
    50
100
AcDb2dPolyline
 66
     1
 10
0.0
 20
0.0
 30
0.0
  0
VERTEX
  5
1B0
330
1AE
100
AcDbEntity
  8
001
 62
    40
370
    50
100
AcDbVertex
100
AcDb2dVertex
 10
80.570364
 20
126.079569
 30
0.0
  0
VERTEX
  5
1B1
330
1AE
100
AcDbEntity
  8
001
 62
    40
370
    50
100
AcDbVertex
100
AcDb2dVertex
 10
80.557982
 20
126.079346
 30
0.0
  0
VERTEX
  5
1B2
330
1AE
100
AcDbEntity
  8
001
 62
    40
370
    50
100
AcDbVertex
100
AcDb2dVertex
 10
80.540071
 20
126.078832
 30
0.0
  0
VERTEX
  5
1B3
330
1AE
100
AcDbEntity
  8
001
 62
    40
370
    50
100
AcDbVertex
100
AcDb2dVertex
 10
80.328207
 20
126.048842
 30
0.0
  0
VERTEX
  5
1B4
330
1AE
100
AcDbEntity
  8
001
 62
    40
370
    50
100
AcDbVertex
100
AcDb2dVertex
 10
80.146396
 20
125.95462
 30
0.0
  0
VERTEX
  5
1B5
330
1AE
100
AcDbEntity
  8
001
 62
    40
370
    50
100
AcDbVertex
100
AcDb2dVertex
 10
80.063851
 20
125.891752
 30
0.0
  0
VERTEX
  5
1B6
330
1AE
100
AcDbEntity
  8
001
 62
    40
370
    50
100
AcDbVertex
100
AcDb2dVertex
 10
80.007475
 20
125.842635
 30
0.0
  0
SEQEND
  5
1AF
330
1AE
100
AcDbEntity
  8
001
370
    50
  0
LINE
  5
1B7
330
1F
100
AcDbEntity
  8
001
 62
    40
370
    50
100
AcDbLine
 10
80.570364
 20
126.079569
 30
0.0
 11
81.366408
 21
126.083727
 31
0.0
  0
POLYLINE
  5
1B8
330
1F
100
AcDbEntity
  8
001
 62
    40
370
    50
100
AcDb2dPolyline
 66
     1
 10
0.0
 20
0.0
 30
0.0
  0
VERTEX
  5
1BA
330
1B8
100
AcDbEntity
  8
001
 62
    40
370
    50
100
AcDbVertex
100
AcDb2dVertex
 10
82.209575
 20
125.720445
 30
0.0
  0
VERTEX
  5
1BB
330
1B8
100
AcDbEntity
  8
001
 62
    40
370
    50
100
AcDbVertex
100
AcDb2dVertex
 10
82.193865
 20
125.733895
 30
0.0
  0
VERTEX
  5
1BC
330
1B8
100
AcDbEntity
  8
001
 62
    40
370
    50
100
AcDbVertex
100
AcDb2dVertex
 10
82.170356
 20
125.752862
 30
0.0
  0
VERTEX
  5
1BD
330
1B8
100
AcDbEntity
  8
001
 62
    40
370
    50
100
AcDbVertex
100
AcDb2dVertex
 10
82.102606
 20
125.799516
 30
0.0
  0
VERTEX
  5
1BE
330
1B8
100
AcDbEntity
  8
001
 62
    40
370
    50
100
AcDbVertex
100
AcDb2dVertex
 10
82.053745
 20
125.827729
 30
0.0
  0
SEQEND
  5
1B9
330
1B8
100
AcDbEntity
  8
001
370
    50
  0
LINE
  5
1BF
330
1F
100
AcDbEntity
  8
001
 62
    40
370
    50
100
AcDbLine
 10
82.053745
 20
125.827729
 30
0.0
 11
81.737908
 21
125.993335
 31
0.0
  0
POLYLINE
  5
1C0
330
1F
100
AcDbEntity
  8
001
 62
    40
370
    50
100
AcDb2dPolyline
 66
     1
 10
0.0
 20
0.0
 30
0.0
  0
VERTEX
  5
1C2
330
1C0
100
AcDbEntity
  8
001
 62
    40
370
    50
100
AcDbVertex
100
AcDb2dVertex
 10
81.737908
 20
125.993335
 30
0.0
  0
VERTEX
  5
1C3
330
1C0
100
AcDbEntity
  8
001
 62
    40
370
    50
100
AcDbVertex
100
AcDb2dVertex
 10
81.684212
 20
126.01771
 30
0.0
  0
VERTEX
  5
1C4
330
1C0
100
AcDbEntity
  8
001
 62
    40
370
    50
100
AcDbVertex
100
AcDb2dVertex
 10
81.610009
 20
126.046674
 30
0.0
  0
VERTEX
  5
1C5
330
1C0
100
AcDbEntity
  8
001
 62
    40
370
    50
100
AcDbVertex
100
AcDb2dVertex
 10
81.54375
 20
126.066056
 30
0.0
  0
VERTEX
  5
1C6
330
1C0
100
AcDbEntity
  8
001
 62
    40
370
    50
100
AcDbVertex
100
AcDb2dVertex
 10
81.474707
 20
126.076865
 30
0.0
  0
VERTEX
  5
1C7
330
1C0
100
AcDbEntity
  8
001
 62
    40
370
    50
100
AcDbVertex
100
AcDb2dVertex
 10
81.412214
 20
126.081923
 30
0.0
  0
VERTEX
  5
1C8
330
1C0
100
AcDbEntity
  8
001
 62
    40
370
    50
100
AcDbVertex
100
AcDb2dVertex
 10
81.366408
 20
126.083727
 30
0.0
  0
SEQEND
  5
1C1
330
1C0
100
AcDbEntity
  8
001
370
    50
  0
POLYLINE
  5
1C9
330
1F
100
AcDbEntity
  8
001
 62
    40
370
    50
100
AcDb2dPolyline
 66
     1
 10
0.0
 20
0.0
 30
0.0
  0
VERTEX
  5
1CB
330
1C9
100
AcDbEntity
  8
001
 62
    40
370
    50
100
AcDbVertex
100
AcDb2dVertex
 10
83.179804
 20
119.930352
 30
0.0
  0
VERTEX
  5
1CC
330
1C9
100
AcDbEntity
  8
001
 62
    40
370
    50
100
AcDbVertex
100
AcDb2dVertex
 10
83.179462
 20
119.959902
 30
0.0
  0
VERTEX
  5
1CD
330
1C9
100
AcDbEntity
  8
001
 62
    40
370
    50
100
AcDbVertex
100
AcDb2dVertex
 10
83.178431
 20
120.002738
 30
0.0
  0
VERTEX
  5
1CE
330
1C9
100
AcDbEntity
  8
001
 62
    40
370
    50
100
AcDbVertex
100
AcDb2dVertex
 10
83.095873
 20
120.522539
 30
0.0
  0
VERTEX
  5
1CF
330
1C9
100
AcDbEntity
  8
001
 62
    40
370
    50
100
AcDbVertex
100
AcDb2dVertex
 10
82.888588
 20
120.942031
 30
0.0
  0
VERTEX
  5
1D0
330
1C9
100
AcDbEntity
  8
001
 62
    40
370
    50
100
AcDbVertex
100
AcDb2dVertex
 10
82.792633
 20
121.077491
 30
0.0
  0
VERTEX
  5
1D1
330
1C9
100
AcDbEntity
  8
001
 62
    40
370
    50
100
AcDbVertex
100
AcDb2dVertex
 10
82.688903
 20
121.20519
 30
0.0
  0
VERTEX
  5
1D2
330
1C9
100
AcDbEntity
  8
001
 62
    40
370
    50
100
AcDbVertex
100
AcDb2dVertex
 10
82.578917
 20
121.319664
 30
0.0
  0
VERTEX
  5
1D3
330
1C9
100
AcDbEntity
  8
001
 62
    40
370
    50
100
AcDbVertex
100
AcDb2dVertex
 10
82.446538
 20
121.429314
 30
0.0
  0
VERTEX
  5
1D4
330
1C9
100
AcDbEntity
  8
001
 62
    40
370
    50
100
AcDbVertex
100
AcDb2dVertex
 10
82.28838
 20
121.536652
 30
0.0
  0
VERTEX
  5
1D5
330
1C9
100
AcDbEntity
  8
001
 62
    40
370
    50
100
AcDbVertex
100
AcDb2dVertex
 10
82.168857
 20
121.607591
 30
0.0
  0
SEQEND
  5
1CA
330
1C9
100
AcDbEntity
  8
001
370
    50
  0
POLYLINE
  5
1D6
330
1F
100
AcDbEntity
  8
001
 62
    40
370
    50
100
AcDb2dPolyline
 66
     1
 10
0.0
 20
0.0
 30
0.0
  0
VERTEX
  5
1D8
330
1D6
100
AcDbEntity
  8
001
 62
    40
370
    50
100
AcDbVertex
100
AcDb2dVertex
 10
79.492287
 20
119.290651
 30
0.0
  0
VERTEX
  5
1D9
330
1D6
100
AcDbEntity
  8
001
 62
    40
370
    50
100
AcDbVertex
100
AcDb2dVertex
 10
79.563387
 20
119.121414
 30
0.0
  0
VERTEX
  5
1DA
330
1D6
100
AcDbEntity
  8
001
 62
    40
370
    50
100
AcDbVertex
100
AcDb2dVertex
 10
79.679858
 20
118.898868
 30
0.0
  0
VERTEX
  5
1DB
330
1D6
100
AcDbEntity
  8
001
 62
    40
370
    50
100
AcDbVertex
100
AcDb2dVertex
 10
79.77764
 20
118.756199
 30
0.0
  0
VERTEX
  5
1DC
330
1D6
100
AcDbEntity
  8
001
 62
    40
370
    50
100
AcDbVertex
100
AcDb2dVertex
 10
79.879542
 20
118.635709
 30
0.0
  0
VERTEX
  5
1DD
330
1D6
100
AcDbEntity
  8
001
 62
    40
370
    50
100
AcDbVertex
100
AcDb2dVertex
 10
79.989048
 20
118.52313
 30
0.0
  0
VERTEX
  5
1DE
330
1D6
100
AcDbEntity
  8
001
 62
    40
370
    50
100
AcDbVertex
100
AcDb2dVertex
 10
80.121908
 20
118.411585
 30
0.0
  0
VERTEX
  5
1DF
330
1D6
100
AcDbEntity
  8
001
 62
    40
370
    50
100
AcDbVertex
100
AcDb2dVertex
 10
80.280162
 20
118.303868
 30
0.0
  0
VERTEX
  5
1E0
330
1D6
100
AcDbEntity
  8
001
 62
    40
370
    50
100
AcDbVertex
100
AcDb2dVertex
 10
80.399589
 20
118.233307
 30
0.0
  0
SEQEND
  5
1D7
330
1D6
100
AcDbEntity
  8
001
370
    50
  0
POLYLINE
  5
1E1
330
1F
100
AcDbEntity
  8
001
 62
    40
370
    50
100
AcDb2dPolyline
 66
     1
 10
0.0
 20
0.0
 30
0.0
  0
VERTEX
  5
1E3
330
1E1
100
AcDbEntity
  8
001
 62
    40
370
    50
100
AcDbVertex
100
AcDb2dVertex
 10
82.168856
 20
121.607592
 30
0.0
  0
VERTEX
  5
1E4
330
1E1
100
AcDbEntity
  8
001
 62
    40
370
    50
100
AcDbVertex
100
AcDb2dVertex
 10
82.042827
 20
121.665705
 30
0.0
  0
VERTEX
  5
1E5
330
1E1
100
AcDbEntity
  8
001
 62
    40
370
    50
100
AcDbVertex
100
AcDb2dVertex
 10
81.864296
 20
121.734606
 30
0.0
  0
VERTEX
  5
1E6
330
1E1
100
AcDbEntity
  8
001
 62
    40
370
    50
100
AcDbVertex
100
AcDb2dVertex
 10
81.697339
 20
121.780404
 30
0.0
  0
VERTEX
  5
1E7
330
1E1
100
AcDbEntity
  8
001
 62
    40
370
    50
100
AcDbVertex
100
AcDb2dVertex
 10
81.54211
 20
121.806498
 30
0.0
  0
VERTEX
  5
1E8
330
1E1
100
AcDbEntity
  8
001
 62
    40
370
    50
100
AcDbVertex
100
AcDb2dVertex
 10
81.383713
 20
121.821968
 30
0.0
  0
VERTEX
  5
1E9
330
1E1
100
AcDbEntity
  8
001
 62
    40
370
    50
100
AcDbVertex
100
AcDb2dVertex
 10
81.212089
 20
121.821084
 30
0.0
  0
VERTEX
  5
1EA
330
1E1
100
AcDbEntity
  8
001
 62
    40
370
    50
100
AcDbVertex
100
AcDb2dVertex
 10
80.833815
 20
121.75819
 30
0.0
  0
VERTEX
  5
1EB
330
1E1
100
AcDbEntity
  8
001
 62
    40
370
    50
100
AcDbVertex
100
AcDb2dVertex
 10
80.561564
 20
121.675393
 30
0.0
  0
SEQEND
  5
1E2
330
1E1
100
AcDbEntity
  8
001
370
    50
  0
POLYLINE
  5
1EC
330
1F
100
AcDbEntity
  8
001
 62
    40
370
    50
100
AcDb2dPolyline
 66
     1
 10
0.0
 20
0.0
 30
0.0
  0
VERTEX
  5
1EE
330
1EC
100
AcDbEntity
  8
001
 62
    40
370
    50
100
AcDbVertex
100
AcDb2dVertex
 10
82.863967
 20
120.095957
 30
0.0
  0
VERTEX
  5
1EF
330
1EC
100
AcDbEntity
  8
001
 62
    40
370
    50
100
AcDbVertex
100
AcDb2dVertex
 10
82.863624
 20
120.125509
 30
0.0
  0
VERTEX
  5
1F0
330
1EC
100
AcDbEntity
  8
001
 62
    40
370
    50
100
AcDbVertex
100
AcDb2dVertex
 10
82.862594
 20
120.168343
 30
0.0
  0
VERTEX
  5
1F1
330
1EC
100
AcDbEntity
  8
001
 62
    40
370
    50
100
AcDbVertex
100
AcDb2dVertex
 10
82.780435
 20
120.687675
 30
0.0
  0
VERTEX
  5
1F2
330
1EC
100
AcDbEntity
  8
001
 62
    40
370
    50
100
AcDbVertex
100
AcDb2dVertex
 10
82.572751
 20
121.107636
 30
0.0
  0
VERTEX
  5
1F3
330
1EC
100
AcDbEntity
  8
001
 62
    40
370
    50
100
AcDbVertex
100
AcDb2dVertex
 10
82.476322
 20
121.243655
 30
0.0
  0
VERTEX
  5
1F4
330
1EC
100
AcDbEntity
  8
001
 62
    40
370
    50
100
AcDbVertex
100
AcDb2dVertex
 10
82.373066
 20
121.370796
 30
0.0
  0
VERTEX
  5
1F5
330
1EC
100
AcDbEntity
  8
001
 62
    40
370
    50
100
AcDbVertex
100
AcDb2dVertex
 10
82.26467
 20
121.483392
 30
0.0
  0
VERTEX
  5
1F6
330
1EC
100
AcDbEntity
  8
001
 62
    40
370
    50
100
AcDbVertex
100
AcDb2dVertex
 10
82.130701
 20
121.594919
 30
0.0
  0
VERTEX
  5
1F7
330
1EC
100
AcDbEntity
  8
001
 62
    40
370
    50
100
AcDbVertex
100
AcDb2dVertex
 10
82.058939
 20
121.647177
 30
0.0
  0
VERTEX
  5
1F8
330
1EC
100
AcDbEntity
  8
001
 62
    40
370
    50
100
AcDbVertex
100
AcDb2dVertex
 10
82.007005
 20
121.682893
 30
0.0
  0
SEQEND
  5
1ED
330
1EC
100
AcDbEntity
  8
001
370
    50
  0
POLYLINE
  5
1F9
330
1F
100
AcDbEntity
  8
001
 62
    40
370
    50
100
AcDb2dPolyline
 66
     1
 10
0.0
 20
0.0
 30
0.0
  0
VERTEX
  5
1FB
330
1F9
100
AcDbEntity
  8
001
 62
    40
370
    50
100
AcDbVertex
100
AcDb2dVertex
 10
80.245604
 20
118.323612
 30
0.0
  0
VERTEX
  5
1FC
330
1F9
100
AcDbEntity
  8
001
 62
    40
370
    50
100
AcDbVertex
100
AcDb2dVertex
 10
80.304496
 20
118.301192
 30
0.0
  0
VERTEX
  5
1FD
330
1F9
100
AcDbEntity
  8
001
 62
    40
370
    50
100
AcDbVertex
100
AcDb2dVertex
 10
80.388313
 20
118.271898
 30
0.0
  0
VERTEX
  5
1FE
330
1F9
100
AcDbEntity
  8
001
 62
    40
370
    50
100
AcDbVertex
100
AcDb2dVertex
 10
80.556563
 20
118.225359
 30
0.0
  0
VERTEX
  5
1FF
330
1F9
100
AcDbEntity
  8
001
 62
    40
370
    50
100
AcDbVertex
100
AcDb2dVertex
 10
80.710499
 20
118.200006
 30
0.0
  0
VERTEX
  5
200
330
1F9
100
AcDbEntity
  8
001
 62
    40
370
    50
100
AcDbVertex
100
AcDb2dVertex
 10
80.872439
 20
118.186426
 30
0.0
  0
VERTEX
  5
201
330
1F9
100
AcDbEntity
  8
001
 62
    40
370
    50
100
AcDbVertex
100
AcDb2dVertex
 10
81.04052
 20
118.18542
 30
0.0
  0
VERTEX
  5
202
330
1F9
100
AcDbEntity
  8
001
 62
    40
370
    50
100
AcDbVertex
100
AcDb2dVertex
 10
81.530341
 20
118.271854
 30
0.0
  0
VERTEX
  5
203
330
1F9
100
AcDbEntity
  8
001
 62
    40
370
    50
100
AcDbVertex
100
AcDb2dVertex
 10
81.97796
 20
118.481201
 30
0.0
  0
VERTEX
  5
204
330
1F9
100
AcDbEntity
  8
001
 62
    40
370
    50
100
AcDbVertex
100
AcDb2dVertex
 10
82.24145
 20
118.682441
 30
0.0
  0
VERTEX
  5
205
330
1F9
100
AcDbEntity
  8
001
 62
    40
370
    50
100
AcDbVertex
100
AcDb2dVertex
 10
82.4658
 20
118.927387
 30
0.0
  0
VERTEX
  5
206
330
1F9
100
AcDbEntity
  8
001
 62
    40
370
    50
100
AcDbVertex
100
AcDb2dVertex
 10
82.561459
 20
119.06488
 30
0.0
  0
VERTEX
  5
207
330
1F9
100
AcDbEntity
  8
001
 62
    40
370
    50
100
AcDbVertex
100
AcDb2dVertex
 10
82.644885
 20
119.207001
 30
0.0
  0
VERTEX
  5
208
330
1F9
100
AcDbEntity
  8
001
 62
    40
370
    50
100
AcDbVertex
100
AcDb2dVertex
 10
82.715584
 20
119.352058
 30
0.0
  0
VERTEX
  5
209
330
1F9
100
AcDbEntity
  8
001
 62
    40
370
    50
100
AcDbVertex
100
AcDb2dVertex
 10
82.773031
 20
119.513325
 30
0.0
  0
VERTEX
  5
20A
330
1F9
100
AcDbEntity
  8
001
 62
    40
370
    50
100
AcDbVertex
100
AcDb2dVertex
 10
82.840983
 20
119.845502
 30
0.0
  0
VERTEX
  5
20B
330
1F9
100
AcDbEntity
  8
001
 62
    40
370
    50
100
AcDbVertex
100
AcDb2dVertex
 10
82.863967
 20
120.095957
 30
0.0
  0
SEQEND
  5
1FA
330
1F9
100
AcDbEntity
  8
001
370
    50
  0
POLYLINE
  5
20C
330
1F
100
AcDbEntity
  8
001
 62
    40
370
    50
100
AcDb2dPolyline
 66
     1
 10
0.0
 20
0.0
 30
0.0
  0
VERTEX
  5
20E
330
20C
100
AcDbEntity
  8
001
 62
    40
370
    50
100
AcDbVertex
100
AcDb2dVertex
 10
80.886201
 20
95.457041
 30
0.0
  0
VERTEX
  5
20F
330
20C
100
AcDbEntity
  8
001
 62
    40
370
    50
100
AcDbVertex
100
AcDb2dVertex
 10
80.869618
 20
95.455457
 30
0.0
  0
VERTEX
  5
210
330
20C
100
AcDbEntity
  8
001
 62
    40
370
    50
100
AcDbVertex
100
AcDb2dVertex
 10
80.845968
 20
95.452999
 30
0.0
  0
VERTEX
  5
211
330
20C
100
AcDbEntity
  8
001
 62
    40
370
    50
100
AcDbVertex
100
AcDb2dVertex
 10
80.771882
 20
95.443208
 30
0.0
  0
VERTEX
  5
212
330
20C
100
AcDbEntity
  8
001
 62
    40
370
    50
100
AcDbVertex
100
AcDb2dVertex
 10
80.708524
 20
95.432077
 30
0.0
  0
VERTEX
  5
213
330
20C
100
AcDbEntity
  8
001
 62
    40
370
    50
100
AcDbVertex
100
AcDb2dVertex
 10
80.587956
 20
95.405179
 30
0.0
  0
VERTEX
  5
214
330
20C
100
AcDbEntity
  8
001
 62
    40
370
    50
100
AcDbVertex
100
AcDb2dVertex
 10
80.453844
 20
95.360351
 30
0.0
  0
VERTEX
  5
215
330
20C
100
AcDbEntity
  8
001
 62
    40
370
    50
100
AcDbVertex
100
AcDb2dVertex
 10
80.376835
 20
95.32687
 30
0.0
  0
VERTEX
  5
216
330
20C
100
AcDbEntity
  8
001
 62
    40
370
    50
100
AcDbVertex
100
AcDb2dVertex
 10
80.323312
 20
95.300605
 30
0.0
  0
SEQEND
  5
20D
330
20C
100
AcDbEntity
  8
001
370
    50
  0
POLYLINE
  5
217
330
1F
100
AcDbEntity
  8
001
 62
    40
370
    50
100
AcDb2dPolyline
 66
     1
 10
0.0
 20
0.0
 30
0.0
  0
VERTEX
  5
219
330
217
100
AcDbEntity
  8
001
 62
    40
370
    50
100
AcDbVertex
100
AcDb2dVertex
 10
80.570364
 20
98.276432
 30
0.0
  0
VERTEX
  5
21A
330
217
100
AcDbEntity
  8
001
 62
    40
370
    50
100
AcDbVertex
100
AcDb2dVertex
 10
80.553782
 20
98.274849
 30
0.0
  0
VERTEX
  5
21B
330
217
100
AcDbEntity
  8
001
 62
    40
370
    50
100
AcDbVertex
100
AcDb2dVertex
 10
80.530131
 20
98.27239
 30
0.0
  0
VERTEX
  5
21C
330
217
100
AcDbEntity
  8
001
 62
    40
370
    50
100
AcDbVertex
100
AcDb2dVertex
 10
80.456046
 20
98.262599
 30
0.0
  0
VERTEX
  5
21D
330
217
100
AcDbEntity
  8
001
 62
    40
370
    50
100
AcDbVertex
100
AcDb2dVertex
 10
80.392687
 20
98.251469
 30
0.0
  0
VERTEX
  5
21E
330
217
100
AcDbEntity
  8
001
 62
    40
370
    50
100
AcDbVertex
100
AcDb2dVertex
 10
80.272119
 20
98.22457
 30
0.0
  0
VERTEX
  5
21F
330
217
100
AcDbEntity
  8
001
 62
    40
370
    50
100
AcDbVertex
100
AcDb2dVertex
 10
80.138007
 20
98.179743
 30
0.0
  0
VERTEX
  5
220
330
217
100
AcDbEntity
  8
001
 62
    40
370
    50
100
AcDbVertex
100
AcDb2dVertex
 10
80.060998
 20
98.146262
 30
0.0
  0
VERTEX
  5
221
330
217
100
AcDbEntity
  8
001
 62
    40
370
    50
100
AcDbVertex
100
AcDb2dVertex
 10
80.007475
 20
98.119996
 30
0.0
  0
SEQEND
  5
218
330
217
100
AcDbEntity
  8
001
370
    50
  0
LINE
  5
222
330
1F
100
AcDbEntity
  8
001
 62
    40
370
    50
100
AcDbLine
 10
75.99425
 20
91.652119
 30
0.0
 11
75.543243
 21
91.817779
 31
0.0
  0
POLYLINE
  5
223
330
1F
100
AcDbEntity
  8
001
 62
    40
370
    50
100
AcDb2dPolyline
 66
     1
 10
0.0
 20
0.0
 30
0.0
  0
VERTEX
  5
225
330
223
100
AcDbEntity
  8
001
 62
    40
370
    50
100
AcDbVertex
100
AcDb2dVertex
 10
75.311104
 20
92.035594
 30
0.0
  0
VERTEX
  5
226
330
223
100
AcDbEntity
  8
001
 62
    40
370
    50
100
AcDbVertex
100
AcDb2dVertex
 10
75.317185
 20
92.009379
 30
0.0
  0
VERTEX
  5
227
330
223
100
AcDbEntity
  8
001
 62
    40
370
    50
100
AcDbVertex
100
AcDb2dVertex
 10
75.330169
 20
91.974581
 30
0.0
  0
VERTEX
  5
228
330
223
100
AcDbEntity
  8
001
 62
    40
370
    50
100
AcDbVertex
100
AcDb2dVertex
 10
75.349771
 20
91.943016
 30
0.0
  0
VERTEX
  5
229
330
223
100
AcDbEntity
  8
001
 62
    40
370
    50
100
AcDbVertex
100
AcDb2dVertex
 10
75.372811
 20
91.918128
 30
0.0
  0
VERTEX
  5
22A
330
223
100
AcDbEntity
  8
001
 62
    40
370
    50
100
AcDbVertex
100
AcDb2dVertex
 10
75.402433
 20
91.892217
 30
0.0
  0
VERTEX
  5
22B
330
223
100
AcDbEntity
  8
001
 62
    40
370
    50
100
AcDbVertex
100
AcDb2dVertex
 10
75.437734
 20
91.867951
 30
0.0
  0
VERTEX
  5
22C
330
223
100
AcDbEntity
  8
001
 62
    40
370
    50
100
AcDbVertex
100
AcDb2dVertex
 10
75.497638
 20
91.836968
 30
0.0
  0
VERTEX
  5
22D
330
223
100
AcDbEntity
  8
001
 62
    40
370
    50
100
AcDbVertex
100
AcDb2dVertex
 10
75.543243
 20
91.817779
 30
0.0
  0
SEQEND
  5
224
330
223
100
AcDbEntity
  8
001
370
    50
  0
LINE
  5
22E
330
1F
100
AcDbEntity
  8
001
 62
    40
370
    50
100
AcDbLine
 10
75.310087
 20
92.05386
 30
0.0
 11
75.310087
 21
92.417052
 31
0.0
  0
POLYLINE
  5
22F
330
1F
100
AcDbEntity
  8
001
 62
    40
370
    50
100
AcDb2dPolyline
 66
     1
 10
0.0
 20
0.0
 30
0.0
  0
VERTEX
  5
231
330
22F
100
AcDbEntity
  8
001
 62
    40
370
    50
100
AcDbVertex
100
AcDb2dVertex
 10
75.543243
 20
92.694603
 30
0.0
  0
VERTEX
  5
232
330
22F
100
AcDbEntity
  8
001
 62
    40
370
    50
100
AcDbVertex
100
AcDb2dVertex
 10
75.478248
 20
92.654098
 30
0.0
  0
VERTEX
  5
233
330
22F
100
AcDbEntity
  8
001
 62
    40
370
    50
100
AcDbVertex
100
AcDb2dVertex
 10
75.397501
 20
92.590293
 30
0.0
  0
VERTEX
  5
234
330
22F
100
AcDbEntity
  8
001
 62
    40
370
    50
100
AcDbVertex
100
AcDb2dVertex
 10
75.36862
 20
92.558959
 30
0.0
  0
VERTEX
  5
235
330
22F
100
AcDbEntity
  8
001
 62
    40
370
    50
100
AcDbVertex
100
AcDb2dVertex
 10
75.34529
 20
92.526994
 30
0.0
  0
VERTEX
  5
236
330
22F
100
AcDbEntity
  8
001
 62
    40
370
    50
100
AcDbVertex
100
AcDb2dVertex
 10
75.328459
 20
92.497779
 30
0.0
  0
VERTEX
  5
237
330
22F
100
AcDbEntity
  8
001
 62
    40
370
    50
100
AcDbVertex
100
AcDb2dVertex
 10
75.316196
 20
92.462505
 30
0.0
  0
VERTEX
  5
238
330
22F
100
AcDbEntity
  8
001
 62
    40
370
    50
100
AcDbVertex
100
AcDb2dVertex
 10
75.311642
 20
92.436152
 30
0.0
  0
VERTEX
  5
239
330
22F
100
AcDbEntity
  8
001
 62
    40
370
    50
100
AcDbVertex
100
AcDb2dVertex
 10
75.310087
 20
92.417052
 30
0.0
  0
SEQEND
  5
230
330
22F
100
AcDbEntity
  8
001
370
    50
  0
LINE
  5
23A
330
1F
100
AcDbEntity
  8
001
 62
    40
370
    50
100
AcDbLine
 10
75.543243
 20
92.694603
 30
0.0
 11
80.323312
 21
95.300605
 31
0.0
  0
LINE
  5
23B
330
1F
100
AcDbEntity
  8
001
 62
    40
370
    50
100
AcDbLine
 10
80.886201
 20
95.457041
 30
0.0
 11
81.682245
 21
95.527837
 31
0.0
  0
POLYLINE
  5
23C
330
1F
100
AcDbEntity
  8
001
 62
    40
370
    50
100
AcDb2dPolyline
 66
     1
 10
0.0
 20
0.0
 30
0.0
  0
VERTEX
  5
23E
330
23C
100
AcDbEntity
  8
001
 62
    40
370
    50
100
AcDbVertex
100
AcDb2dVertex
 10
82.209575
 20
95.483616
 30
0.0
  0
VERTEX
  5
23F
330
23C
100
AcDbEntity
  8
001
 62
    40
370
    50
100
AcDbVertex
100
AcDb2dVertex
 10
82.140483
 20
95.500991
 30
0.0
  0
VERTEX
  5
240
330
23C
100
AcDbEntity
  8
001
 62
    40
370
    50
100
AcDbVertex
100
AcDb2dVertex
 10
82.044916
 20
95.520208
 30
0.0
  0
VERTEX
  5
241
330
23C
100
AcDbEntity
  8
001
 62
    40
370
    50
100
AcDbVertex
100
AcDb2dVertex
 10
81.914824
 20
95.535243
 30
0.0
  0
VERTEX
  5
242
330
23C
100
AcDbEntity
  8
001
 62
    40
370
    50
100
AcDbVertex
100
AcDb2dVertex
 10
81.780678
 20
95.533804
 30
0.0
  0
VERTEX
  5
243
330
23C
100
AcDbEntity
  8
001
 62
    40
370
    50
100
AcDbVertex
100
AcDb2dVertex
 10
81.723227
 20
95.530684
 30
0.0
  0
VERTEX
  5
244
330
23C
100
AcDbEntity
  8
001
 62
    40
370
    50
100
AcDbVertex
100
AcDb2dVertex
 10
81.682245
 20
95.527837
 30
0.0
  0
SEQEND
  5
23D
330
23C
100
AcDbEntity
  8
001
370
    50
  0
POLYLINE
  5
245
330
1F
100
AcDbEntity
  8
001
 62
    40
370
    50
100
AcDb2dPolyline
 66
     1
 10
0.0
 20
0.0
 30
0.0
  0
VERTEX
  5
247
330
245
100
AcDbEntity
  8
001
 62
    40
370
    50
100
AcDbVertex
100
AcDb2dVertex
 10
82.245133
 20
95.47152
 30
0.0
  0
VERTEX
  5
248
330
245
100
AcDbEntity
  8
001
 62
    40
370
    50
100
AcDbVertex
100
AcDb2dVertex
 10
82.238031
 20
95.474083
 30
0.0
  0
VERTEX
  5
249
330
245
100
AcDbEntity
  8
001
 62
    40
370
    50
100
AcDbVertex
100
AcDb2dVertex
 10
82.227611
 20
95.477715
 30
0.0
  0
VERTEX
  5
24A
330
245
100
AcDbEntity
  8
001
 62
    40
370
    50
100
AcDbVertex
100
AcDb2dVertex
 10
82.216917
 20
95.481265
 30
0.0
  0
VERTEX
  5
24B
330
245
100
AcDbEntity
  8
001
 62
    40
370
    50
100
AcDbVertex
100
AcDb2dVertex
 10
82.209575
 20
95.483616
 30
0.0
  0
SEQEND
  5
246
330
245
100
AcDbEntity
  8
001
370
    50
  0
LINE
  5
24C
330
1F
100
AcDbEntity
  8
001
 62
    40
370
    50
100
AcDbLine
 10
82.245133
 20
95.47152
 30
0.0
 11
87.025203
 21
93.715743
 31
0.0
  0
LINE
  5
24D
330
1F
100
AcDbEntity
  8
001
 62
    40
370
    50
100
AcDbLine
 10
80.570364
 20
98.276432
 30
0.0
 11
81.366408
 21
98.347228
 31
0.0
  0
POLYLINE
  5
24E
330
1F
100
AcDbEntity
  8
001
 62
    40
370
    50
100
AcDb2dPolyline
 66
     1
 10
0.0
 20
0.0
 30
0.0
  0
VERTEX
  5
250
330
24E
100
AcDbEntity
  8
001
 62
    40
370
    50
100
AcDbVertex
100
AcDb2dVertex
 10
81.929297
 20
98.290912
 30
0.0
  0
VERTEX
  5
251
330
24E
100
AcDbEntity
  8
001
 62
    40
370
    50
100
AcDbVertex
100
AcDb2dVertex
 10
81.845111
 20
98.314628
 30
0.0
  0
VERTEX
  5
252
330
24E
100
AcDbEntity
  8
001
 62
    40
370
    50
100
AcDbVertex
100
AcDb2dVertex
 10
81.729079
 20
98.3396
 30
0.0
  0
VERTEX
  5
253
330
24E
100
AcDbEntity
  8
001
 62
    40
370
    50
100
AcDbVertex
100
AcDb2dVertex
 10
81.599634
 20
98.354749
 30
0.0
  0
VERTEX
  5
254
330
24E
100
AcDbEntity
  8
001
 62
    40
370
    50
100
AcDbVertex
100
AcDb2dVertex
 10
81.464841
 20
98.353195
 30
0.0
  0
VERTEX
  5
255
330
24E
100
AcDbEntity
  8
001
 62
    40
370
    50
100
AcDbVertex
100
AcDb2dVertex
 10
81.407361
 20
98.35007
 30
0.0
  0
VERTEX
  5
256
330
24E
100
AcDbEntity
  8
001
 62
    40
370
    50
100
AcDbVertex
100
AcDb2dVertex
 10
81.366408
 20
98.347228
 30
0.0
  0
SEQEND
  5
24F
330
24E
100
AcDbEntity
  8
001
370
    50
  0
LINE
  5
257
330
1F
100
AcDbEntity
  8
001
 62
    40
370
    50
100
AcDbLine
 10
75.227406
 20
95.513995
 30
0.0
 11
80.007475
 21
98.119996
 31
0.0
  0
LINE
  5
258
330
1F
100
AcDbEntity
  8
001
 62
    40
370
    50
100
AcDbLine
 10
81.929297
 20
98.290912
 30
0.0
 11
86.709366
 21
96.535134
 31
0.0
  0
POLYLINE
  5
259
330
1F
100
AcDbEntity
  8
001
 62
    40
370
    50
100
AcDb2dPolyline
 66
     1
 10
0.0
 20
0.0
 30
0.0
  0
VERTEX
  5
25B
330
259
100
AcDbEntity
  8
001
 62
    40
370
    50
100
AcDbVertex
100
AcDb2dVertex
 10
75.227406
 20
95.513995
 30
0.0
  0
VERTEX
  5
25C
330
259
100
AcDbEntity
  8
001
 62
    40
370
    50
100
AcDbVertex
100
AcDb2dVertex
 10
75.162411
 20
95.47349
 30
0.0
  0
VERTEX
  5
25D
330
259
100
AcDbEntity
  8
001
 62
    40
370
    50
100
AcDbVertex
100
AcDb2dVertex
 10
75.081665
 20
95.409685
 30
0.0
  0
VERTEX
  5
25E
330
259
100
AcDbEntity
  8
001
 62
    40
370
    50
100
AcDbVertex
100
AcDb2dVertex
 10
75.052783
 20
95.37835
 30
0.0
  0
VERTEX
  5
25F
330
259
100
AcDbEntity
  8
001
 62
    40
370
    50
100
AcDbVertex
100
AcDb2dVertex
 10
75.029453
 20
95.346385
 30
0.0
  0
VERTEX
  5
260
330
259
100
AcDbEntity
  8
001
 62
    40
370
    50
100
AcDbVertex
100
AcDb2dVertex
 10
75.012622
 20
95.31717
 30
0.0
  0
VERTEX
  5
261
330
259
100
AcDbEntity
  8
001
 62
    40
370
    50
100
AcDbVertex
100
AcDb2dVertex
 10
75.000359
 20
95.281896
 30
0.0
  0
VERTEX
  5
262
330
259
100
AcDbEntity
  8
001
 62
    40
370
    50
100
AcDbVertex
100
AcDb2dVertex
 10
74.995805
 20
95.255543
 30
0.0
  0
VERTEX
  5
263
330
259
100
AcDbEntity
  8
001
 62
    40
370
    50
100
AcDbVertex
100
AcDb2dVertex
 10
74.99425
 20
95.236443
 30
0.0
  0
SEQEND
  5
25A
330
259
100
AcDbEntity
  8
001
370
    50
  0
LINE
  5
264
330
1F
100
AcDbEntity
  8
001
 62
    40
370
    50
100
AcDbLine
 10
87.241856
 20
93.636164
 30
0.0
 11
86.941504
 21
96.31732
 31
0.0
  0
POLYLINE
  5
265
330
1F
100
AcDbEntity
  8
001
 62
    40
370
    50
100
AcDb2dPolyline
 66
     1
 10
0.0
 20
0.0
 30
0.0
  0
VERTEX
  5
267
330
265
100
AcDbEntity
  8
001
 62
    40
370
    50
100
AcDbVertex
100
AcDb2dVertex
 10
86.941504
 20
96.31732
 30
0.0
  0
VERTEX
  5
268
330
265
100
AcDbEntity
  8
001
 62
    40
370
    50
100
AcDbVertex
100
AcDb2dVertex
 10
86.935424
 20
96.343535
 30
0.0
  0
VERTEX
  5
269
330
265
100
AcDbEntity
  8
001
 62
    40
370
    50
100
AcDbVertex
100
AcDb2dVertex
 10
86.92244
 20
96.378333
 30
0.0
  0
VERTEX
  5
26A
330
265
100
AcDbEntity
  8
001
 62
    40
370
    50
100
AcDbVertex
100
AcDb2dVertex
 10
86.902838
 20
96.409898
 30
0.0
  0
VERTEX
  5
26B
330
265
100
AcDbEntity
  8
001
 62
    40
370
    50
100
AcDbVertex
100
AcDb2dVertex
 10
86.879798
 20
96.434785
 30
0.0
  0
VERTEX
  5
26C
330
265
100
AcDbEntity
  8
001
 62
    40
370
    50
100
AcDbVertex
100
AcDb2dVertex
 10
86.850176
 20
96.460697
 30
0.0
  0
VERTEX
  5
26D
330
265
100
AcDbEntity
  8
001
 62
    40
370
    50
100
AcDbVertex
100
AcDb2dVertex
 10
86.814874
 20
96.484963
 30
0.0
  0
VERTEX
  5
26E
330
265
100
AcDbEntity
  8
001
 62
    40
370
    50
100
AcDbVertex
100
AcDb2dVertex
 10
86.75497
 20
96.515946
 30
0.0
  0
VERTEX
  5
26F
330
265
100
AcDbEntity
  8
001
 62
    40
370
    50
100
AcDbVertex
100
AcDb2dVertex
 10
86.709366
 20
96.535134
 30
0.0
  0
SEQEND
  5
266
330
265
100
AcDbEntity
  8
001
370
    50
  0
POLYLINE
  5
270
330
1F
100
AcDbEntity
  8
001
 62
    40
370
    50
100
AcDb2dPolyline
 66
     1
 10
0.0
 20
0.0
 30
0.0
  0
VERTEX
  5
272
330
270
100
AcDbEntity
  8
001
 62
    40
370
    50
100
AcDbVertex
100
AcDb2dVertex
 10
75.310087
 20
92.05386
 30
0.0
  0
VERTEX
  5
273
330
270
100
AcDbEntity
  8
001
 62
    40
370
    50
100
AcDbVertex
100
AcDb2dVertex
 10
75.310135
 20
92.050137
 30
0.0
  0
VERTEX
  5
274
330
270
100
AcDbEntity
  8
001
 62
    40
370
    50
100
AcDbVertex
100
AcDb2dVertex
 10
75.310341
 20
92.044701
 30
0.0
  0
VERTEX
  5
275
330
270
100
AcDbEntity
  8
001
 62
    40
370
    50
100
AcDbVertex
100
AcDb2dVertex
 10
75.310739
 20
92.03929
 30
0.0
  0
VERTEX
  5
276
330
270
100
AcDbEntity
  8
001
 62
    40
370
    50
100
AcDbVertex
100
AcDb2dVertex
 10
75.311104
 20
92.035594
 30
0.0
  0
SEQEND
  5
271
330
270
100
AcDbEntity
  8
001
370
    50
  0
POLYLINE
  5
277
330
1F
100
AcDbEntity
  8
001
 62
    40
370
    50
100
AcDb2dPolyline
 66
     1
 10
0.0
 20
0.0
 30
0.0
  0
VERTEX
  5
279
330
277
100
AcDbEntity
  8
001
 62
    40
370
    50
100
AcDbVertex
100
AcDb2dVertex
 10
74.99425
 20
94.873251
 30
0.0
  0
VERTEX
  5
27A
330
277
100
AcDbEntity
  8
001
 62
    40
370
    50
100
AcDbVertex
100
AcDb2dVertex
 10
74.994298
 20
94.869528
 30
0.0
  0
VERTEX
  5
27B
330
277
100
AcDbEntity
  8
001
 62
    40
370
    50
100
AcDbVertex
100
AcDb2dVertex
 10
74.994505
 20
94.864092
 30
0.0
  0
VERTEX
  5
27C
330
277
100
AcDbEntity
  8
001
 62
    40
370
    50
100
AcDbVertex
100
AcDb2dVertex
 10
74.994902
 20
94.858681
 30
0.0
  0
VERTEX
  5
27D
330
277
100
AcDbEntity
  8
001
 62
    40
370
    50
100
AcDbVertex
100
AcDb2dVertex
 10
74.995268
 20
94.854985
 30
0.0
  0
SEQEND
  5
278
330
277
100
AcDbEntity
  8
001
370
    50
  0
LINE
  5
27E
330
1F
100
AcDbEntity
  8
001
 62
    40
370
    50
100
AcDbLine
 10
74.995268
 20
94.854985
 30
0.0
 11
75.311104
 21
92.035594
 31
0.0
  0
LINE
  5
27F
330
1F
100
AcDbEntity
  8
001
 62
   200
370
    50
100
AcDbLine
 10
93.49425
 20
78.758736
 30
0.0
 11
85.367474
 21
84.707486
 31
0.0
  0
LINE
  5
280
330
1F
100
AcDbEntity
  8
001
 62
   200
370
    50
100
AcDbLine
 10
93.49425
 20
72.718822
 30
0.0
 11
78.49425
 21
72.718822
 31
0.0
  0
LINE
  5
281
330
1F
100
AcDbEntity
  8
001
 62
   200
370
    50
100
AcDbLine
 10
75.99425
 20
77.936918
 30
0.0
 11
78.49425
 21
76.066096
 31
0.0
  0
POLYLINE
  5
282
330
1F
100
AcDbEntity
  8
001
 62
   200
370
    50
100
AcDb2dPolyline
 66
     1
 10
0.0
 20
0.0
 30
0.0
  0
VERTEX
  5
284
330
282
100
AcDbEntity
  8
001
 62
   200
370
    50
100
AcDbVertex
100
AcDb2dVertex
 10
80.638674
 20
84.707486
 30
0.0
  0
VERTEX
  5
285
330
282
100
AcDbEntity
  8
001
 62
   200
370
    50
100
AcDbVertex
100
AcDb2dVertex
 10
79.599637
 20
83.739255
 30
0.0
  0
VERTEX
  5
286
330
282
100
AcDbEntity
  8
001
 62
   200
370
    50
100
AcDbVertex
100
AcDb2dVertex
 10
78.567299
 20
82.763924
 30
0.0
  0
VERTEX
  5
287
330
282
100
AcDbEntity
  8
001
 62
   200
370
    50
100
AcDbVertex
100
AcDb2dVertex
 10
77.554715
 20
81.782487
 30
0.0
  0
VERTEX
  5
288
330
282
100
AcDbEntity
  8
001
 62
   200
370
    50
100
AcDbVertex
100
AcDb2dVertex
 10
76.556925
 20
80.786038
 30
0.0
  0
VERTEX
  5
289
330
282
100
AcDbEntity
  8
001
 62
   200
370
    50
100
AcDbVertex
100
AcDb2dVertex
 10
76.275255
 20
80.499155
 30
0.0
  0
VERTEX
  5
28A
330
282
100
AcDbEntity
  8
001
 62
   200
370
    50
100
AcDbVertex
100
AcDb2dVertex
 10
75.99425
 20
80.211622
 30
0.0
  0
SEQEND
  5
283
330
282
100
AcDbEntity
  8
001
370
    50
  0
LINE
  5
28B
330
1F
100
AcDbEntity
  8
001
 62
   200
370
    50
100
AcDbLine
 10
85.367474
 20
84.707486
 30
0.0
 11
80.638674
 21
84.707486
 31
0.0
  0
POLYLINE
  5
28C
330
1F
100
AcDbEntity
  8
001
 62
   200
370
    50
100
AcDb2dPolyline
 66
     1
 10
0.0
 20
0.0
 30
0.0
  0
VERTEX
  5
28E
330
28C
100
AcDbEntity
  8
001
 62
   200
370
    50
100
AcDbVertex
100
AcDb2dVertex
 10
81.572929
 20
84.039265
 30
0.0
  0
VERTEX
  5
28F
330
28C
100
AcDbEntity
  8
001
 62
   200
370
    50
100
AcDbVertex
100
AcDb2dVertex
 10
81.384056
 20
83.989895
 30
0.0
  0
VERTEX
  5
290
330
28C
100
AcDbEntity
  8
001
 62
   200
370
    50
100
AcDbVertex
100
AcDb2dVertex
 10
81.119517
 20
83.907421
 30
0.0
  0
VERTEX
  5
291
330
28C
100
AcDbEntity
  8
001
 62
   200
370
    50
100
AcDbVertex
100
AcDb2dVertex
 10
80.456992
 20
83.586632
 30
0.0
  0
VERTEX
  5
292
330
28C
100
AcDbEntity
  8
001
 62
   200
370
    50
100
AcDbVertex
100
AcDb2dVertex
 10
79.9663
 20
83.141132
 30
0.0
  0
VERTEX
  5
293
330
28C
100
AcDbEntity
  8
001
 62
   200
370
    50
100
AcDbVertex
100
AcDb2dVertex
 10
79.837083
 20
82.975466
 30
0.0
  0
VERTEX
  5
294
330
28C
100
AcDbEntity
  8
001
 62
   200
370
    50
100
AcDbVertex
100
AcDb2dVertex
 10
79.722642
 20
82.795084
 30
0.0
  0
VERTEX
  5
295
330
28C
100
AcDbEntity
  8
001
 62
   200
370
    50
100
AcDbVertex
100
AcDb2dVertex
 10
79.632734
 20
82.609252
 30
0.0
  0
VERTEX
  5
296
330
28C
100
AcDbEntity
  8
001
 62
   200
370
    50
100
AcDbVertex
100
AcDb2dVertex
 10
79.563602
 20
82.420209
 30
0.0
  0
VERTEX
  5
297
330
28C
100
AcDbEntity
  8
001
 62
   200
370
    50
100
AcDbVertex
100
AcDb2dVertex
 10
79.516589
 20
82.235619
 30
0.0
  0
VERTEX
  5
298
330
28C
100
AcDbEntity
  8
001
 62
   200
370
    50
100
AcDbVertex
100
AcDb2dVertex
 10
79.494013
 20
82.027895
 30
0.0
  0
VERTEX
  5
299
330
28C
100
AcDbEntity
  8
001
 62
   200
370
    50
100
AcDbVertex
100
AcDb2dVertex
 10
79.494175
 20
81.855126
 30
0.0
  0
VERTEX
  5
29A
330
28C
100
AcDbEntity
  8
001
 62
   200
370
    50
100
AcDbVertex
100
AcDb2dVertex
 10
79.501723
 20
81.730951
 30
0.0
  0
SEQEND
  5
28D
330
28C
100
AcDbEntity
  8
001
370
    50
  0
POLYLINE
  5
29B
330
1F
100
AcDbEntity
  8
001
 62
   200
370
    50
100
AcDb2dPolyline
 66
     1
 10
0.0
 20
0.0
 30
0.0
  0
VERTEX
  5
29D
330
29B
100
AcDbEntity
  8
001
 62
   200
370
    50
100
AcDbVertex
100
AcDb2dVertex
 10
82.211686
 20
95.483806
 30
0.0
  0
VERTEX
  5
29E
330
29B
100
AcDbEntity
  8
001
 62
   200
370
    50
100
AcDbVertex
100
AcDb2dVertex
 10
82.599426
 20
93.326953
 30
0.0
  0
VERTEX
  5
29F
330
29B
100
AcDbEntity
  8
001
 62
   200
370
    50
100
AcDbVertex
100
AcDb2dVertex
 10
83.361317
 20
90.221265
 30
0.0
  0
VERTEX
  5
2A0
330
29B
100
AcDbEntity
  8
001
 62
   200
370
    50
100
AcDbVertex
100
AcDb2dVertex
 10
84.473238
 20
86.920999
 30
0.0
  0
VERTEX
  5
2A1
330
29B
100
AcDbEntity
  8
001
 62
   200
370
    50
100
AcDbVertex
100
AcDb2dVertex
 10
85.367474
 20
84.707486
 30
0.0
  0
SEQEND
  5
29C
330
29B
100
AcDbEntity
  8
001
370
    50
  0
POLYLINE
  5
2A2
330
1F
100
AcDbEntity
  8
001
 62
   200
370
    50
100
AcDb2dPolyline
 66
     1
 10
0.0
 20
0.0
 30
0.0
  0
VERTEX
  5
2A4
330
2A2
100
AcDbEntity
  8
001
 62
   200
370
    50
100
AcDbVertex
100
AcDb2dVertex
 10
80.63359
 20
90.7355
 30
0.0
  0
VERTEX
  5
2A5
330
2A2
100
AcDbEntity
  8
001
 62
   200
370
    50
100
AcDbVertex
100
AcDb2dVertex
 10
80.63429
 20
89.248379
 30
0.0
  0
VERTEX
  5
2A6
330
2A2
100
AcDbEntity
  8
001
 62
   200
370
    50
100
AcDbVertex
100
AcDb2dVertex
 10
80.635286
 20
87.761259
 30
0.0
  0
VERTEX
  5
2A7
330
2A2
100
AcDbEntity
  8
001
 62
   200
370
    50
100
AcDbVertex
100
AcDb2dVertex
 10
80.636824
 20
86.234373
 30
0.0
  0
VERTEX
  5
2A8
330
2A2
100
AcDbEntity
  8
001
 62
   200
370
    50
100
AcDbVertex
100
AcDb2dVertex
 10
80.638674
 20
84.707486
 30
0.0
  0
SEQEND
  5
2A3
330
2A2
100
AcDbEntity
  8
001
370
    50
  0
POLYLINE
  5
2A9
330
1F
100
AcDbEntity
  8
001
 62
   200
370
    50
100
AcDb2dPolyline
 66
     1
 10
0.0
 20
0.0
 30
0.0
  0
VERTEX
  5
2AB
330
2A9
100
AcDbEntity
  8
001
 62
   200
370
    50
100
AcDbVertex
100
AcDb2dVertex
 10
80.63359
 20
90.7355
 30
0.0
  0
VERTEX
  5
2AC
330
2A9
100
AcDbEntity
  8
001
 62
   200
370
    50
100
AcDbVertex
100
AcDb2dVertex
 10
80.708915
 20
92.532997
 30
0.0
  0
VERTEX
  5
2AD
330
2A9
100
AcDbEntity
  8
001
 62
   200
370
    50
100
AcDbVertex
100
AcDb2dVertex
 10
80.64729
 20
95.157642
 30
0.0
  0
VERTEX
  5
2AE
330
2A9
100
AcDbEntity
  8
001
 62
   200
370
    50
100
AcDbVertex
100
AcDb2dVertex
 10
80.639732
 20
95.262385
 30
0.0
  0
VERTEX
  5
2AF
330
2A9
100
AcDbEntity
  8
001
 62
   200
370
    50
100
AcDbVertex
100
AcDb2dVertex
 10
80.634364
 20
95.33404
 30
0.0
  0
SEQEND
  5
2AA
330
2A9
100
AcDbEntity
  8
001
370
    50
  0
LINE
  5
2B0
330
1F
100
AcDbEntity
  8
001
 62
   200
370
    50
100
AcDbLine
 10
80.634369
 20
95.341518
 30
0.0
 11
80.634364
 21
95.33404
 31
0.0
  0
POLYLINE
  5
2B1
330
1F
100
AcDbEntity
  8
001
 62
   200
370
    50
100
AcDb2dPolyline
 66
     1
 10
0.0
 20
0.0
 30
0.0
  0
VERTEX
  5
2B3
330
2B1
100
AcDbEntity
  8
001
 62
   200
370
    50
100
AcDbVertex
100
AcDb2dVertex
 10
82.211686
 20
95.483806
 30
0.0
  0
VERTEX
  5
2B4
330
2B1
100
AcDbEntity
  8
001
 62
   200
370
    50
100
AcDbVertex
100
AcDb2dVertex
 10
81.891283
 20
95.454927
 30
0.0
  0
VERTEX
  5
2B5
330
2B1
100
AcDbEntity
  8
001
 62
   200
370
    50
100
AcDbVertex
100
AcDb2dVertex
 10
81.423003
 20
95.412699
 30
0.0
  0
VERTEX
  5
2B6
330
2B1
100
AcDbEntity
  8
001
 62
   200
370
    50
100
AcDbVertex
100
AcDb2dVertex
 10
80.954751
 20
95.370444
 30
0.0
  0
VERTEX
  5
2B7
330
2B1
100
AcDbEntity
  8
001
 62
   200
370
    50
100
AcDbVertex
100
AcDb2dVertex
 10
80.634369
 20
95.341518
 30
0.0
  0
SEQEND
  5
2B2
330
2B1
100
AcDbEntity
  8
001
370
    50
  0
LINE
  5
2B8
330
1F
100
AcDbEntity
  8
001
 62
   200
370
    50
100
AcDbLine
 10
75.99425
 20
89.910699
 30
0.0
 11
80.63359
 21
90.7355
 31
0.0
  0
LINE
  5
2B9
330
1F
100
AcDbEntity
  8
001
 62
   200
370
    50
100
AcDbLine
 10
87.986113
 20
93.362789
 30
0.0
 11
87.025203
 21
93.715743
 31
0.0
  0
LINE
  5
2BA
330
1F
100
AcDbEntity
  8
001
 62
   200
370
    50
100
AcDbLine
 10
82.245133
 20
95.47152
 30
0.0
 11
82.211686
 21
95.483806
 31
0.0
  0
LINE
  5
2BB
330
1F
100
AcDbEntity
  8
001
 62
   200
370
    50
100
AcDbLine
 10
87.700361
 20
95.913623
 30
0.0
 11
87.986113
 21
93.362789
 31
0.0
  0
LINE
  5
2BC
330
1F
100
AcDbEntity
  8
001
 62
   200
370
    50
100
AcDbLine
 10
87.700361
 20
95.913623
 30
0.0
 11
93.49425
 21
92.620288
 31
0.0
  0
POLYLINE
  5
2BD
330
1F
100
AcDbEntity
  8
001
 62
   200
370
    50
100
AcDb2dPolyline
 66
     1
 10
0.0
 20
0.0
 30
0.0
  0
VERTEX
  5
2BF
330
2BD
100
AcDbEntity
  8
001
 62
   200
370
    50
100
AcDbVertex
100
AcDb2dVertex
 10
85.513409
 20
81.961658
 30
0.0
  0
VERTEX
  5
2C0
330
2BD
100
AcDbEntity
  8
001
 62
   200
370
    50
100
AcDbVertex
100
AcDb2dVertex
 10
85.508007
 20
82.003266
 30
0.0
  0
VERTEX
  5
2C1
330
2BD
100
AcDbEntity
  8
001
 62
   200
370
    50
100
AcDbVertex
100
AcDb2dVertex
 10
85.499142
 20
82.062545
 30
0.0
  0
VERTEX
  5
2C2
330
2BD
100
AcDbEntity
  8
001
 62
   200
370
    50
100
AcDbVertex
100
AcDb2dVertex
 10
85.451949
 20
82.274511
 30
0.0
  0
VERTEX
  5
2C3
330
2BD
100
AcDbEntity
  8
001
 62
   200
370
    50
100
AcDbVertex
100
AcDb2dVertex
 10
85.386268
 20
82.453806
 30
0.0
  0
VERTEX
  5
2C4
330
2BD
100
AcDbEntity
  8
001
 62
   200
370
    50
100
AcDbVertex
100
AcDb2dVertex
 10
85.296144
 20
82.641064
 30
0.0
  0
VERTEX
  5
2C5
330
2BD
100
AcDbEntity
  8
001
 62
   200
370
    50
100
AcDbVertex
100
AcDb2dVertex
 10
85.185926
 20
82.826608
 30
0.0
  0
VERTEX
  5
2C6
330
2BD
100
AcDbEntity
  8
001
 62
   200
370
    50
100
AcDbVertex
100
AcDb2dVertex
 10
84.717043
 20
83.344956
 30
0.0
  0
VERTEX
  5
2C7
330
2BD
100
AcDbEntity
  8
001
 62
   200
370
    50
100
AcDbVertex
100
AcDb2dVertex
 10
84.13307
 20
83.72583
 30
0.0
  0
VERTEX
  5
2C8
330
2BD
100
AcDbEntity
  8
001
 62
   200
370
    50
100
AcDbVertex
100
AcDb2dVertex
 10
83.662119
 20
83.924738
 30
0.0
  0
VERTEX
  5
2C9
330
2BD
100
AcDbEntity
  8
001
 62
   200
370
    50
100
AcDbVertex
100
AcDb2dVertex
 10
83.165876
 20
84.055338
 30
0.0
  0
VERTEX
  5
2CA
330
2BD
100
AcDbEntity
  8
001
 62
   200
370
    50
100
AcDbVertex
100
AcDb2dVertex
 10
82.903241
 20
84.096339
 30
0.0
  0
VERTEX
  5
2CB
330
2BD
100
AcDbEntity
  8
001
 62
   200
370
    50
100
AcDbVertex
100
AcDb2dVertex
 10
82.64466
 20
84.121435
 30
0.0
  0
VERTEX
  5
2CC
330
2BD
100
AcDbEntity
  8
001
 62
   200
370
    50
100
AcDbVertex
100
AcDb2dVertex
 10
82.392657
 20
84.130973
 30
0.0
  0
VERTEX
  5
2CD
330
2BD
100
AcDbEntity
  8
001
 62
   200
370
    50
100
AcDbVertex
100
AcDb2dVertex
 10
82.11928
 20
84.118404
 30
0.0
  0
VERTEX
  5
2CE
330
2BD
100
AcDbEntity
  8
001
 62
   200
370
    50
100
AcDbVertex
100
AcDb2dVertex
 10
81.802063
 20
84.079335
 30
0.0
  0
VERTEX
  5
2CF
330
2BD
100
AcDbEntity
  8
001
 62
   200
370
    50
100
AcDbVertex
100
AcDb2dVertex
 10
81.572929
 20
84.039265
 30
0.0
  0
SEQEND
  5
2BE
330
2BD
100
AcDbEntity
  8
001
370
    50
  0
POLYLINE
  5
2D0
330
1F
100
AcDbEntity
  8
001
 62
   200
370
    50
100
AcDb2dPolyline
 66
     1
 10
0.0
 20
0.0
 30
0.0
  0
VERTEX
  5
2D2
330
2D0
100
AcDbEntity
  8
001
 62
   200
370
    50
100
AcDbVertex
100
AcDb2dVertex
 10
79.501723
 20
81.730951
 30
0.0
  0
VERTEX
  5
2D3
330
2D0
100
AcDbEntity
  8
001
 62
   200
370
    50
100
AcDbVertex
100
AcDb2dVertex
 10
79.507125
 20
81.689344
 30
0.0
  0
VERTEX
  5
2D4
330
2D0
100
AcDbEntity
  8
001
 62
   200
370
    50
100
AcDbVertex
100
AcDb2dVertex
 10
79.515989
 20
81.630064
 30
0.0
  0
VERTEX
  5
2D5
330
2D0
100
AcDbEntity
  8
001
 62
   200
370
    50
100
AcDbVertex
100
AcDb2dVertex
 10
79.563176
 20
81.418097
 30
0.0
  0
VERTEX
  5
2D6
330
2D0
100
AcDbEntity
  8
001
 62
   200
370
    50
100
AcDbVertex
100
AcDb2dVertex
 10
79.628863
 20
81.238803
 30
0.0
  0
VERTEX
  5
2D7
330
2D0
100
AcDbEntity
  8
001
 62
   200
370
    50
100
AcDbVertex
100
AcDb2dVertex
 10
79.719018
 20
81.051553
 30
0.0
  0
VERTEX
  5
2D8
330
2D0
100
AcDbEntity
  8
001
 62
   200
370
    50
100
AcDbVertex
100
AcDb2dVertex
 10
79.829205
 20
80.866001
 30
0.0
  0
VERTEX
  5
2D9
330
2D0
100
AcDbEntity
  8
001
 62
   200
370
    50
100
AcDbVertex
100
AcDb2dVertex
 10
80.297382
 20
80.347492
 30
0.0
  0
VERTEX
  5
2DA
330
2D0
100
AcDbEntity
  8
001
 62
   200
370
    50
100
AcDbVertex
100
AcDb2dVertex
 10
80.882062
 20
79.966779
 30
0.0
  0
VERTEX
  5
2DB
330
2D0
100
AcDbEntity
  8
001
 62
   200
370
    50
100
AcDbVertex
100
AcDb2dVertex
 10
81.355034
 20
79.768331
 30
0.0
  0
VERTEX
  5
2DC
330
2D0
100
AcDbEntity
  8
001
 62
   200
370
    50
100
AcDbVertex
100
AcDb2dVertex
 10
81.849256
 20
79.637271
 30
0.0
  0
VERTEX
  5
2DD
330
2D0
100
AcDbEntity
  8
001
 62
   200
370
    50
100
AcDbVertex
100
AcDb2dVertex
 10
82.108779
 20
79.595561
 30
0.0
  0
VERTEX
  5
2DE
330
2D0
100
AcDbEntity
  8
001
 62
   200
370
    50
100
AcDbVertex
100
AcDb2dVertex
 10
82.370471
 20
79.571174
 30
0.0
  0
VERTEX
  5
2DF
330
2D0
100
AcDbEntity
  8
001
 62
   200
370
    50
100
AcDbVertex
100
AcDb2dVertex
 10
82.633213
 20
79.564081
 30
0.0
  0
VERTEX
  5
2E0
330
2D0
100
AcDbEntity
  8
001
 62
   200
370
    50
100
AcDbVertex
100
AcDb2dVertex
 10
82.895852
 20
79.574205
 30
0.0
  0
VERTEX
  5
2E1
330
2D0
100
AcDbEntity
  8
001
 62
   200
370
    50
100
AcDbVertex
100
AcDb2dVertex
 10
83.402076
 20
79.644049
 30
0.0
  0
VERTEX
  5
2E2
330
2D0
100
AcDbEntity
  8
001
 62
   200
370
    50
100
AcDbVertex
100
AcDb2dVertex
 10
83.895615
 20
79.785188
 30
0.0
  0
VERTEX
  5
2E3
330
2D0
100
AcDbEntity
  8
001
 62
   200
370
    50
100
AcDbVertex
100
AcDb2dVertex
 10
84.522777
 20
80.098578
 30
0.0
  0
VERTEX
  5
2E4
330
2D0
100
AcDbEntity
  8
001
 62
   200
370
    50
100
AcDbVertex
100
AcDb2dVertex
 10
85.048832
 20
80.551477
 30
0.0
  0
VERTEX
  5
2E5
330
2D0
100
AcDbEntity
  8
001
 62
   200
370
    50
100
AcDbVertex
100
AcDb2dVertex
 10
85.17962
 20
80.717472
 30
0.0
  0
VERTEX
  5
2E6
330
2D0
100
AcDbEntity
  8
001
 62
   200
370
    50
100
AcDbVertex
100
AcDb2dVertex
 10
85.29249
 20
80.897525
 30
0.0
  0
VERTEX
  5
2E7
330
2D0
100
AcDbEntity
  8
001
 62
   200
370
    50
100
AcDbVertex
100
AcDb2dVertex
 10
85.382001
 20
81.083274
 30
0.0
  0
VERTEX
  5
2E8
330
2D0
100
AcDbEntity
  8
001
 62
   200
370
    50
100
AcDbVertex
100
AcDb2dVertex
 10
85.45153
 20
81.2724
 30
0.0
  0
VERTEX
  5
2E9
330
2D0
100
AcDbEntity
  8
001
 62
   200
370
    50
100
AcDbVertex
100
AcDb2dVertex
 10
85.49864
 20
81.457011
 30
0.0
  0
VERTEX
  5
2EA
330
2D0
100
AcDbEntity
  8
001
 62
   200
370
    50
100
AcDbVertex
100
AcDb2dVertex
 10
85.521118
 20
81.664714
 30
0.0
  0
VERTEX
  5
2EB
330
2D0
100
AcDbEntity
  8
001
 62
   200
370
    50
100
AcDbVertex
100
AcDb2dVertex
 10
85.520943
 20
81.837481
 30
0.0
  0
VERTEX
  5
2EC
330
2D0
100
AcDbEntity
  8
001
 62
   200
370
    50
100
AcDbVertex
100
AcDb2dVertex
 10
85.513409
 20
81.961658
 30
0.0
  0
SEQEND
  5
2D1
330
2D0
100
AcDbEntity
  8
001
370
    50
  0
LINE
  5
2ED
330
1F
100
AcDbEntity
  8
001
 62
   200
370
    50
100
AcDbLine
 10
80.202277
 20
95.106211
 30
0.0
 11
75.99425
 21
92.812076
 31
0.0
  0
LINE
  5
2EE
330
1F
100
AcDbEntity
  8
001
 62
   200
370
    50
100
AcDbLine
 10
80.634364
 20
95.33404
 30
0.0
 11
80.202277
 21
95.106211
 31
0.0
  0
LINE
  5
2EF
330
1F
100
AcDbEntity
  8
001
 62
   200
370
    50
100
AcDbLine
 10
75.99425
 20
77.936918
 30
0.0
 11
75.99425
 21
92.812076
 31
0.0
  0
LINE
  5
2F0
330
1F
100
AcDbEntity
  8
001
 62
   200
370
    50
100
AcDbLine
 10
80.202277
 20
95.106211
 30
0.0
 11
80.634369
 21
95.341518
 31
0.0
  0
LINE
  5
2F1
330
1F
100
AcDbEntity
  8
001
 62
   200
370
    50
100
AcDbLine
 10
87.030584
 20
95.522132
 30
0.0
 11
87.700361
 21
95.913623
 31
0.0
  0
LINE
  5
2F2
330
1F
100
AcDbEntity
  8
001
 62
   200
370
    50
100
AcDbLine
 10
78.49425
 20
76.066096
 30
0.0
 11
78.49425
 21
72.14146
 31
0.0
  0
LINE
  5
2F3
330
1F
100
AcDbEntity
  8
001
 62
   200
370
    50
100
AcDbLine
 10
93.49425
 20
72.316325
 30
0.0
 11
93.49425
 21
92.620288
 31
0.0
  0
POLYLINE
  5
2F4
330
1F
100
AcDbEntity
  8
001
 62
   200
370
    50
100
AcDb2dPolyline
 66
     1
 10
0.0
 20
0.0
 30
0.0
  0
VERTEX
  5
2F6
330
2F4
100
AcDbEntity
  8
001
 62
   200
370
    50
100
AcDbVertex
100
AcDb2dVertex
 10
82.211686
 20
39.818191
 30
0.0
  0
VERTEX
  5
2F7
330
2F4
100
AcDbEntity
  8
001
 62
   200
370
    50
100
AcDbVertex
100
AcDb2dVertex
 10
82.351011
 20
39.049127
 30
0.0
  0
VERTEX
  5
2F8
330
2F4
100
AcDbEntity
  8
001
 62
   200
370
    50
100
AcDbVertex
100
AcDb2dVertex
 10
82.571047
 20
37.979654
 30
0.0
  0
VERTEX
  5
2F9
330
2F4
100
AcDbEntity
  8
001
 62
   200
370
    50
100
AcDbVertex
100
AcDb2dVertex
 10
83.234305
 20
35.608013
 30
0.0
  0
VERTEX
  5
2FA
330
2F4
100
AcDbEntity
  8
001
 62
   200
370
    50
100
AcDbVertex
100
AcDb2dVertex
 10
84.295453
 20
33.399018
 30
0.0
  0
VERTEX
  5
2FB
330
2F4
100
AcDbEntity
  8
001
 62
   200
370
    50
100
AcDbVertex
100
AcDb2dVertex
 10
84.904315
 20
32.377807
 30
0.0
  0
VERTEX
  5
2FC
330
2F4
100
AcDbEntity
  8
001
 62
   200
370
    50
100
AcDbVertex
100
AcDb2dVertex
 10
85.367474
 20
31.659901
 30
0.0
  0
SEQEND
  5
2F5
330
2F4
100
AcDbEntity
  8
001
370
    50
  0
LINE
  5
2FD
330
1F
100
AcDbEntity
  8
001
 62
   200
370
    50
100
AcDbLine
 10
85.367474
 20
31.659901
 30
0.0
 11
80.638674
 21
31.659901
 31
0.0
  0
POLYLINE
  5
2FE
330
1F
100
AcDbEntity
  8
001
 62
   200
370
    50
100
AcDb2dPolyline
 66
     1
 10
0.0
 20
0.0
 30
0.0
  0
VERTEX
  5
300
330
2FE
100
AcDbEntity
  8
001
 62
   200
370
    50
100
AcDbVertex
100
AcDb2dVertex
 10
80.63359
 20
35.828277
 30
0.0
  0
VERTEX
  5
301
330
2FE
100
AcDbEntity
  8
001
 62
   200
370
    50
100
AcDbVertex
100
AcDb2dVertex
 10
80.634243
 20
34.741136
 30
0.0
  0
VERTEX
  5
302
330
2FE
100
AcDbEntity
  8
001
 62
   200
370
    50
100
AcDbVertex
100
AcDb2dVertex
 10
80.635286
 20
33.653995
 30
0.0
  0
VERTEX
  5
303
330
2FE
100
AcDbEntity
  8
001
 62
   200
370
    50
100
AcDbVertex
100
AcDb2dVertex
 10
80.636816
 20
32.656948
 30
0.0
  0
VERTEX
  5
304
330
2FE
100
AcDbEntity
  8
001
 62
   200
370
    50
100
AcDbVertex
100
AcDb2dVertex
 10
80.638674
 20
31.659901
 30
0.0
  0
SEQEND
  5
2FF
330
2FE
100
AcDbEntity
  8
001
370
    50
  0
POLYLINE
  5
305
330
1F
100
AcDbEntity
  8
001
 62
   200
370
    50
100
AcDb2dPolyline
 66
     1
 10
0.0
 20
0.0
 30
0.0
  0
VERTEX
  5
307
330
305
100
AcDbEntity
  8
001
 62
   200
370
    50
100
AcDbVertex
100
AcDb2dVertex
 10
80.63359
 20
35.828277
 30
0.0
  0
VERTEX
  5
308
330
305
100
AcDbEntity
  8
001
 62
   200
370
    50
100
AcDbVertex
100
AcDb2dVertex
 10
80.686325
 20
36.57286
 30
0.0
  0
VERTEX
  5
309
330
305
100
AcDbEntity
  8
001
 62
   200
370
    50
100
AcDbVertex
100
AcDb2dVertex
 10
80.719481
 20
37.662539
 30
0.0
  0
VERTEX
  5
30A
330
305
100
AcDbEntity
  8
001
 62
   200
370
    50
100
AcDbVertex
100
AcDb2dVertex
 10
80.691142
 20
38.812479
 30
0.0
  0
VERTEX
  5
30B
330
305
100
AcDbEntity
  8
001
 62
   200
370
    50
100
AcDbVertex
100
AcDb2dVertex
 10
80.641223
 20
39.598563
 30
0.0
  0
SEQEND
  5
306
330
305
100
AcDbEntity
  8
001
370
    50
  0
LINE
  5
30C
330
1F
100
AcDbEntity
  8
001
 62
   200
370
    50
100
AcDbLine
 10
93.49425
 20
33.660531
 30
0.0
 11
85.367474
 21
31.659901
 31
0.0
  0
LINE
  5
30D
330
1F
100
AcDbEntity
  8
001
 62
   200
370
    50
100
AcDbLine
 10
87.986113
 20
43.462177
 30
0.0
 11
82.211686
 21
39.818191
 31
0.0
  0
LINE
  5
30E
330
1F
100
AcDbEntity
  8
001
 62
   200
370
    50
100
AcDbLine
 10
87.700361
 20
45.86318
 30
0.0
 11
87.986113
 21
43.462177
 31
0.0
  0
LINE
  5
30F
330
1F
100
AcDbEntity
  8
001
 62
   200
370
    50
100
AcDbLine
 10
87.700361
 20
45.86318
 30
0.0
 11
93.49425
 21
48.28975
 31
0.0
  0
LINE
  5
310
330
1F
100
AcDbEntity
  8
001
 62
   200
370
    50
100
AcDbLine
 10
87.986113
 20
43.462177
 30
0.0
 11
87.237393
 21
43.80931
 31
0.0
  0
LINE
  5
311
330
1F
100
AcDbEntity
  8
001
 62
   200
370
    50
100
AcDbLine
 10
75.99425
 20
39.407823
 30
0.0
 11
80.63359
 21
35.828277
 31
0.0
  0
LINE
  5
312
330
1F
100
AcDbEntity
  8
001
 62
   200
370
    50
100
AcDbLine
 10
76.911641
 20
48.819162
 30
0.0
 11
78.865529
 21
48.226945
 31
0.0
  0
LINE
  5
313
330
1F
100
AcDbEntity
  8
001
 62
   200
370
    50
100
AcDbLine
 10
78.49425
 20
49.490556
 30
0.0
 11
76.911641
 21
48.819162
 31
0.0
  0
LINE
  5
314
330
1F
100
AcDbEntity
  8
001
 62
   200
370
    50
100
AcDbLine
 10
78.49425
 20
50.975417
 30
0.0
 11
78.49425
 21
49.490556
 31
0.0
  0
LINE
  5
315
330
1F
100
AcDbEntity
  8
001
 62
   200
370
    50
100
AcDbLine
 10
93.49425
 20
33.660531
 30
0.0
 11
93.49425
 21
50.551138
 31
0.0
  0
LINE
  5
316
330
1F
100
AcDbEntity
  8
001
 62
   200
370
    50
100
AcDbLine
 10
86.954737
 20
46.1843
 30
0.0
 11
87.700361
 21
45.86318
 31
0.0
  0
POLYLINE
  5
317
330
1F
100
AcDbEntity
  8
001
 62
   200
370
    50
100
AcDb2dPolyline
 66
     1
 10
0.0
 20
0.0
 30
0.0
  0
VERTEX
  5
319
330
317
100
AcDbEntity
  8
001
 62
   200
370
    50
100
AcDbVertex
100
AcDb2dVertex
 10
80.638674
 20
31.659901
 30
0.0
  0
VERTEX
  5
31A
330
317
100
AcDbEntity
  8
001
 62
   200
370
    50
100
AcDbVertex
100
AcDb2dVertex
 10
79.602331
 20
31.984654
 30
0.0
  0
VERTEX
  5
31B
330
317
100
AcDbEntity
  8
001
 62
   200
370
    50
100
AcDbVertex
100
AcDb2dVertex
 10
78.567299
 20
32.313543
 30
0.0
  0
VERTEX
  5
31C
330
317
100
AcDbEntity
  8
001
 62
   200
370
    50
100
AcDbVertex
100
AcDb2dVertex
 10
77.560625
 20
32.641653
 30
0.0
  0
VERTEX
  5
31D
330
317
100
AcDbEntity
  8
001
 62
   200
370
    50
100
AcDbVertex
100
AcDb2dVertex
 10
76.556925
 20
32.978727
 30
0.0
  0
VERTEX
  5
31E
330
317
100
AcDbEntity
  8
001
 62
   200
370
    50
100
AcDbVertex
100
AcDb2dVertex
 10
76.27552
 20
33.07512
 30
0.0
  0
VERTEX
  5
31F
330
317
100
AcDbEntity
  8
001
 62
   200
370
    50
100
AcDbVertex
100
AcDb2dVertex
 10
75.99425
 20
33.17191
 30
0.0
  0
SEQEND
  5
318
330
317
100
AcDbEntity
  8
001
370
    50
  0
LINE
  5
320
330
1F
100
AcDbEntity
  8
001
 62
   200
370
    50
100
AcDbLine
 10
75.99425
 20
33.17191
 30
0.0
 11
75.99425
 21
41.685526
 31
0.0
  0
LINE
  5
321
330
1F
100
AcDbEntity
  8
001
 62
   200
370
    50
100
AcDbLine
 10
75.99425
 20
48.239421
 30
0.0
 11
76.911641
 21
48.819162
 31
0.0
  0
POLYLINE
  5
322
330
1F
100
AcDbEntity
  8
001
 62
   200
370
    50
100
AcDb2dPolyline
 66
     1
 10
0.0
 20
0.0
 30
0.0
  0
VERTEX
  5
324
330
322
100
AcDbEntity
  8
001
 62
   200
370
    50
100
AcDbVertex
100
AcDb2dVertex
 10
78.865529
 20
48.226945
 30
0.0
  0
VERTEX
  5
325
330
322
100
AcDbEntity
  8
001
 62
   200
370
    50
100
AcDbVertex
100
AcDb2dVertex
 10
78.819781
 20
48.179226
 30
0.0
  0
VERTEX
  5
326
330
322
100
AcDbEntity
  8
001
 62
   200
370
    50
100
AcDbVertex
100
AcDb2dVertex
 10
78.7583
 20
48.11151
 30
0.0
  0
VERTEX
  5
327
330
322
100
AcDbEntity
  8
001
 62
   200
370
    50
100
AcDbVertex
100
AcDb2dVertex
 10
78.669325
 20
47.999829
 30
0.0
  0
VERTEX
  5
328
330
322
100
AcDbEntity
  8
001
 62
   200
370
    50
100
AcDbVertex
100
AcDb2dVertex
 10
78.600718
 20
47.877203
 30
0.0
  0
VERTEX
  5
329
330
322
100
AcDbEntity
  8
001
 62
   200
370
    50
100
AcDbVertex
100
AcDb2dVertex
 10
78.554253
 20
47.765669
 30
0.0
  0
VERTEX
  5
32A
330
322
100
AcDbEntity
  8
001
 62
   200
370
    50
100
AcDbVertex
100
AcDb2dVertex
 10
78.525786
 20
47.681776
 30
0.0
  0
SEQEND
  5
323
330
322
100
AcDbEntity
  8
001
370
    50
  0
POLYLINE
  5
32B
330
1F
100
AcDbEntity
  8
001
 62
   200
370
    50
100
AcDb2dPolyline
 66
     1
 10
0.0
 20
0.0
 30
0.0
  0
VERTEX
  5
32D
330
32B
100
AcDbEntity
  8
001
 62
   200
370
    50
100
AcDbVertex
100
AcDb2dVertex
 10
83.211404
 20
48.183252
 30
0.0
  0
VERTEX
  5
32E
330
32B
100
AcDbEntity
  8
001
 62
   200
370
    50
100
AcDbVertex
100
AcDb2dVertex
 10
83.191998
 20
48.198289
 30
0.0
  0
VERTEX
  5
32F
330
32B
100
AcDbEntity
  8
001
 62
   200
370
    50
100
AcDbVertex
100
AcDb2dVertex
 10
83.16328
 20
48.219759
 30
0.0
  0
VERTEX
  5
330
330
32B
100
AcDbEntity
  8
001
 62
   200
370
    50
100
AcDbVertex
100
AcDb2dVertex
 10
82.71774
 20
48.457581
 30
0.0
  0
VERTEX
  5
331
330
32B
100
AcDbEntity
  8
001
 62
   200
370
    50
100
AcDbVertex
100
AcDb2dVertex
 10
82.384359
 20
48.566699
 30
0.0
  0
SEQEND
  5
32C
330
32B
100
AcDbEntity
  8
001
370
    50
  0
POLYLINE
  5
332
330
1F
100
AcDbEntity
  8
001
 62
   200
370
    50
100
AcDb2dPolyline
 66
     1
 10
0.0
 20
0.0
 30
0.0
  0
VERTEX
  5
334
330
332
100
AcDbEntity
  8
001
 62
   200
370
    50
100
AcDbVertex
100
AcDb2dVertex
 10
80.084282
 20
48.66019
 30
0.0
  0
VERTEX
  5
335
330
332
100
AcDbEntity
  8
001
 62
   200
370
    50
100
AcDbVertex
100
AcDb2dVertex
 10
79.93879
 20
48.633249
 30
0.0
  0
VERTEX
  5
336
330
332
100
AcDbEntity
  8
001
 62
   200
370
    50
100
AcDbVertex
100
AcDb2dVertex
 10
79.728106
 20
48.58541
 30
0.0
  0
VERTEX
  5
337
330
332
100
AcDbEntity
  8
001
 62
   200
370
    50
100
AcDbVertex
100
AcDb2dVertex
 10
79.20389
 20
48.402371
 30
0.0
  0
VERTEX
  5
338
330
332
100
AcDbEntity
  8
001
 62
   200
370
    50
100
AcDbVertex
100
AcDb2dVertex
 10
78.865529
 20
48.226945
 30
0.0
  0
SEQEND
  5
333
330
332
100
AcDbEntity
  8
001
370
    50
  0
POLYLINE
  5
339
330
1F
100
AcDbEntity
  8
001
 62
    40
370
    50
100
AcDb2dPolyline
 66
     1
 10
0.0
 20
0.0
 30
0.0
  0
VERTEX
  5
33B
330
339
100
AcDbEntity
  8
001
 62
    40
370
    50
100
AcDbVertex
100
AcDb2dVertex
 10
81.682245
 20
39.664562
 30
0.0
  0
VERTEX
  5
33C
330
339
100
AcDbEntity
  8
001
 62
    40
370
    50
100
AcDbVertex
100
AcDb2dVertex
 10
81.70343
 20
39.666549
 30
0.0
  0
VERTEX
  5
33D
330
339
100
AcDbEntity
  8
001
 62
    40
370
    50
100
AcDbVertex
100
AcDb2dVertex
 10
81.733483
 20
39.669755
 30
0.0
  0
VERTEX
  5
33E
330
339
100
AcDbEntity
  8
001
 62
    40
370
    50
100
AcDbVertex
100
AcDb2dVertex
 10
81.80726
 20
39.680295
 30
0.0
  0
VERTEX
  5
33F
330
339
100
AcDbEntity
  8
001
 62
    40
370
    50
100
AcDbVertex
100
AcDb2dVertex
 10
81.870649
 20
39.692713
 30
0.0
  0
VERTEX
  5
340
330
339
100
AcDbEntity
  8
001
 62
    40
370
    50
100
AcDbVertex
100
AcDb2dVertex
 10
81.99124
 20
39.723347
 30
0.0
  0
VERTEX
  5
341
330
339
100
AcDbEntity
  8
001
 62
    40
370
    50
100
AcDbVertex
100
AcDb2dVertex
 10
82.123815
 20
39.774705
 30
0.0
  0
VERTEX
  5
342
330
339
100
AcDbEntity
  8
001
 62
    40
370
    50
100
AcDbVertex
100
AcDb2dVertex
 10
82.195566
 20
39.81104
 30
0.0
  0
VERTEX
  5
343
330
339
100
AcDbEntity
  8
001
 62
    40
370
    50
100
AcDbVertex
100
AcDb2dVertex
 10
82.245133
 20
39.839299
 30
0.0
  0
SEQEND
  5
33A
330
339
100
AcDbEntity
  8
001
370
    50
  0
POLYLINE
  5
344
330
1F
100
AcDbEntity
  8
001
 62
    40
370
    50
100
AcDb2dPolyline
 66
     1
 10
0.0
 20
0.0
 30
0.0
  0
VERTEX
  5
346
330
344
100
AcDbEntity
  8
001
 62
    40
370
    50
100
AcDbVertex
100
AcDb2dVertex
 10
81.366408
 20
42.318348
 30
0.0
  0
VERTEX
  5
347
330
344
100
AcDbEntity
  8
001
 62
    40
370
    50
100
AcDbVertex
100
AcDb2dVertex
 10
81.387593
 20
42.320335
 30
0.0
  0
VERTEX
  5
348
330
344
100
AcDbEntity
  8
001
 62
    40
370
    50
100
AcDbVertex
100
AcDb2dVertex
 10
81.417646
 20
42.32354
 30
0.0
  0
VERTEX
  5
349
330
344
100
AcDbEntity
  8
001
 62
    40
370
    50
100
AcDbVertex
100
AcDb2dVertex
 10
81.491423
 20
42.334081
 30
0.0
  0
VERTEX
  5
34A
330
344
100
AcDbEntity
  8
001
 62
    40
370
    50
100
AcDbVertex
100
AcDb2dVertex
 10
81.554812
 20
42.346498
 30
0.0
  0
VERTEX
  5
34B
330
344
100
AcDbEntity
  8
001
 62
    40
370
    50
100
AcDbVertex
100
AcDb2dVertex
 10
81.675403
 20
42.377132
 30
0.0
  0
VERTEX
  5
34C
330
344
100
AcDbEntity
  8
001
 62
    40
370
    50
100
AcDbVertex
100
AcDb2dVertex
 10
81.807978
 20
42.428491
 30
0.0
  0
VERTEX
  5
34D
330
344
100
AcDbEntity
  8
001
 62
    40
370
    50
100
AcDbVertex
100
AcDb2dVertex
 10
81.879729
 20
42.464826
 30
0.0
  0
VERTEX
  5
34E
330
344
100
AcDbEntity
  8
001
 62
    40
370
    50
100
AcDbVertex
100
AcDb2dVertex
 10
81.929297
 20
42.493084
 30
0.0
  0
SEQEND
  5
345
330
344
100
AcDbEntity
  8
001
370
    50
  0
POLYLINE
  5
34F
330
1F
100
AcDbEntity
  8
001
 62
    40
370
    50
100
AcDb2dPolyline
 66
     1
 10
0.0
 20
0.0
 30
0.0
  0
VERTEX
  5
351
330
34F
100
AcDbEntity
  8
001
 62
    40
370
    50
100
AcDbVertex
100
AcDb2dVertex
 10
86.942522
 20
46.272898
 30
0.0
  0
VERTEX
  5
352
330
34F
100
AcDbEntity
  8
001
 62
    40
370
    50
100
AcDbVertex
100
AcDb2dVertex
 10
86.942445
 20
46.278587
 30
0.0
  0
VERTEX
  5
353
330
34F
100
AcDbEntity
  8
001
 62
    40
370
    50
100
AcDbVertex
100
AcDb2dVertex
 10
86.942109
 20
46.286893
 30
0.0
  0
VERTEX
  5
354
330
34F
100
AcDbEntity
  8
001
 62
    40
370
    50
100
AcDbVertex
100
AcDb2dVertex
 10
86.941464
 20
46.29516
 30
0.0
  0
VERTEX
  5
355
330
34F
100
AcDbEntity
  8
001
 62
    40
370
    50
100
AcDbVertex
100
AcDb2dVertex
 10
86.940871
 20
46.300804
 30
0.0
  0
SEQEND
  5
350
330
34F
100
AcDbEntity
  8
001
370
    50
  0
LINE
  5
356
330
1F
100
AcDbEntity
  8
001
 62
    40
370
    50
100
AcDbLine
 10
86.942522
 20
45.837187
 30
0.0
 11
86.942522
 21
46.272898
 31
0.0
  0
POLYLINE
  5
357
330
1F
100
AcDbEntity
  8
001
 62
    40
370
    50
100
AcDb2dPolyline
 66
     1
 10
0.0
 20
0.0
 30
0.0
  0
VERTEX
  5
359
330
357
100
AcDbEntity
  8
001
 62
    40
370
    50
100
AcDbVertex
100
AcDb2dVertex
 10
86.709366
 20
45.509575
 30
0.0
  0
VERTEX
  5
35A
330
357
100
AcDbEntity
  8
001
 62
    40
370
    50
100
AcDbVertex
100
AcDb2dVertex
 10
86.777453
 20
45.559467
 30
0.0
  0
VERTEX
  5
35B
330
357
100
AcDbEntity
  8
001
 62
    40
370
    50
100
AcDbVertex
100
AcDb2dVertex
 10
86.860061
 20
45.637167
 30
0.0
  0
VERTEX
  5
35C
330
357
100
AcDbEntity
  8
001
 62
    40
370
    50
100
AcDbVertex
100
AcDb2dVertex
 10
86.888423
 20
45.674611
 30
0.0
  0
VERTEX
  5
35D
330
357
100
AcDbEntity
  8
001
 62
    40
370
    50
100
AcDbVertex
100
AcDb2dVertex
 10
86.910488
 20
45.712145
 30
0.0
  0
VERTEX
  5
35E
330
357
100
AcDbEntity
  8
001
 62
    40
370
    50
100
AcDbVertex
100
AcDb2dVertex
 10
86.926532
 20
45.7473
 30
0.0
  0
VERTEX
  5
35F
330
357
100
AcDbEntity
  8
001
 62
    40
370
    50
100
AcDbVertex
100
AcDb2dVertex
 10
86.9377
 20
45.788898
 30
0.0
  0
VERTEX
  5
360
330
357
100
AcDbEntity
  8
001
 62
    40
370
    50
100
AcDbVertex
100
AcDb2dVertex
 10
86.941316
 20
45.81699
 30
0.0
  0
VERTEX
  5
361
330
357
100
AcDbEntity
  8
001
 62
    40
370
    50
100
AcDbVertex
100
AcDb2dVertex
 10
86.942522
 20
45.837187
 30
0.0
  0
SEQEND
  5
358
330
357
100
AcDbEntity
  8
001
370
    50
  0
LINE
  5
362
330
1F
100
AcDbEntity
  8
001
 62
    40
370
    50
100
AcDbLine
 10
81.929297
 20
42.493084
 30
0.0
 11
86.709366
 21
45.509575
 31
0.0
  0
LINE
  5
363
330
1F
100
AcDbEntity
  8
001
 62
    40
370
    50
100
AcDbLine
 10
80.570364
 20
42.251711
 30
0.0
 11
81.366408
 21
42.318348
 31
0.0
  0
POLYLINE
  5
364
330
1F
100
AcDbEntity
  8
001
 62
    40
370
    50
100
AcDb2dPolyline
 66
     1
 10
0.0
 20
0.0
 30
0.0
  0
VERTEX
  5
366
330
364
100
AcDbEntity
  8
001
 62
    40
370
    50
100
AcDbVertex
100
AcDb2dVertex
 10
80.007475
 20
42.332208
 30
0.0
  0
VERTEX
  5
367
330
364
100
AcDbEntity
  8
001
 62
    40
370
    50
100
AcDbVertex
100
AcDb2dVertex
 10
80.095542
 20
42.300773
 30
0.0
  0
VERTEX
  5
368
330
364
100
AcDbEntity
  8
001
 62
    40
370
    50
100
AcDbVertex
100
AcDb2dVertex
 10
80.21754
 20
42.26731
 30
0.0
  0
VERTEX
  5
369
330
364
100
AcDbEntity
  8
001
 62
    40
370
    50
100
AcDbVertex
100
AcDb2dVertex
 10
80.346672
 20
42.247383
 30
0.0
  0
VERTEX
  5
36A
330
364
100
AcDbEntity
  8
001
 62
    40
370
    50
100
AcDbVertex
100
AcDb2dVertex
 10
80.482878
 20
42.247026
 30
0.0
  0
VERTEX
  5
36B
330
364
100
AcDbEntity
  8
001
 62
    40
370
    50
100
AcDbVertex
100
AcDb2dVertex
 10
80.534057
 20
42.249426
 30
0.0
  0
VERTEX
  5
36C
330
364
100
AcDbEntity
  8
001
 62
    40
370
    50
100
AcDbVertex
100
AcDb2dVertex
 10
80.570364
 20
42.251711
 30
0.0
  0
SEQEND
  5
365
330
364
100
AcDbEntity
  8
001
370
    50
  0
LINE
  5
36D
330
1F
100
AcDbEntity
  8
001
 62
    40
370
    50
100
AcDbLine
 10
75.227406
 20
44.548415
 30
0.0
 11
80.007475
 21
42.332208
 31
0.0
  0
POLYLINE
  5
36E
330
1F
100
AcDbEntity
  8
001
 62
    40
370
    50
100
AcDb2dPolyline
 66
     1
 10
0.0
 20
0.0
 30
0.0
  0
VERTEX
  5
370
330
36E
100
AcDbEntity
  8
001
 62
    40
370
    50
100
AcDbVertex
100
AcDb2dVertex
 10
74.99425
 20
44.836991
 30
0.0
  0
VERTEX
  5
371
330
36E
100
AcDbEntity
  8
001
 62
    40
370
    50
100
AcDbVertex
100
AcDb2dVertex
 10
74.994327
 20
44.831302
 30
0.0
  0
VERTEX
  5
372
330
36E
100
AcDbEntity
  8
001
 62
    40
370
    50
100
AcDbVertex
100
AcDb2dVertex
 10
74.994663
 20
44.822996
 30
0.0
  0
VERTEX
  5
373
330
36E
100
AcDbEntity
  8
001
 62
    40
370
    50
100
AcDbVertex
100
AcDb2dVertex
 10
74.995308
 20
44.814729
 30
0.0
  0
VERTEX
  5
374
330
36E
100
AcDbEntity
  8
001
 62
    40
370
    50
100
AcDbVertex
100
AcDb2dVertex
 10
74.995901
 20
44.809085
 30
0.0
  0
SEQEND
  5
36F
330
36E
100
AcDbEntity
  8
001
370
    50
  0
LINE
  5
375
330
1F
100
AcDbEntity
  8
001
 62
    40
370
    50
100
AcDbLine
 10
74.99425
 20
45.272703
 30
0.0
 11
74.99425
 21
44.836991
 31
0.0
  0
POLYLINE
  5
376
330
1F
100
AcDbEntity
  8
001
 62
    40
370
    50
100
AcDb2dPolyline
 66
     1
 10
0.0
 20
0.0
 30
0.0
  0
VERTEX
  5
378
330
376
100
AcDbEntity
  8
001
 62
    40
370
    50
100
AcDbVertex
100
AcDb2dVertex
 10
75.227406
 20
45.600315
 30
0.0
  0
VERTEX
  5
379
330
376
100
AcDbEntity
  8
001
 62
    40
370
    50
100
AcDbVertex
100
AcDb2dVertex
 10
75.159319
 20
45.550423
 30
0.0
  0
VERTEX
  5
37A
330
376
100
AcDbEntity
  8
001
 62
    40
370
    50
100
AcDbVertex
100
AcDb2dVertex
 10
75.076711
 20
45.472722
 30
0.0
  0
VERTEX
  5
37B
330
376
100
AcDbEntity
  8
001
 62
    40
370
    50
100
AcDbVertex
100
AcDb2dVertex
 10
75.048349
 20
45.435279
 30
0.0
  0
VERTEX
  5
37C
330
376
100
AcDbEntity
  8
001
 62
    40
370
    50
100
AcDbVertex
100
AcDb2dVertex
 10
75.026284
 20
45.397744
 30
0.0
  0
VERTEX
  5
37D
330
376
100
AcDbEntity
  8
001
 62
    40
370
    50
100
AcDbVertex
100
AcDb2dVertex
 10
75.01024
 20
45.36259
 30
0.0
  0
VERTEX
  5
37E
330
376
100
AcDbEntity
  8
001
 62
    40
370
    50
100
AcDbVertex
100
AcDb2dVertex
 10
74.999072
 20
45.320991
 30
0.0
  0
VERTEX
  5
37F
330
376
100
AcDbEntity
  8
001
 62
    40
370
    50
100
AcDbVertex
100
AcDb2dVertex
 10
74.995456
 20
45.292899
 30
0.0
  0
VERTEX
  5
380
330
376
100
AcDbEntity
  8
001
 62
    40
370
    50
100
AcDbVertex
100
AcDb2dVertex
 10
74.99425
 20
45.272703
 30
0.0
  0
SEQEND
  5
377
330
376
100
AcDbEntity
  8
001
370
    50
  0
LINE
  5
381
330
1F
100
AcDbEntity
  8
001
 62
    40
370
    50
100
AcDbLine
 10
80.007475
 20
48.616805
 30
0.0
 11
75.227406
 21
45.600315
 31
0.0
  0
POLYLINE
  5
382
330
1F
100
AcDbEntity
  8
001
 62
    40
370
    50
100
AcDb2dPolyline
 66
     1
 10
0.0
 20
0.0
 30
0.0
  0
VERTEX
  5
384
330
382
100
AcDbEntity
  8
001
 62
    40
370
    50
100
AcDbVertex
100
AcDb2dVertex
 10
80.570364
 20
48.791541
 30
0.0
  0
VERTEX
  5
385
330
382
100
AcDbEntity
  8
001
 62
    40
370
    50
100
AcDbVertex
100
AcDb2dVertex
 10
80.549179
 20
48.789554
 30
0.0
  0
VERTEX
  5
386
330
382
100
AcDbEntity
  8
001
 62
    40
370
    50
100
AcDbVertex
100
AcDb2dVertex
 10
80.519126
 20
48.786349
 30
0.0
  0
VERTEX
  5
387
330
382
100
AcDbEntity
  8
001
 62
    40
370
    50
100
AcDbVertex
100
AcDb2dVertex
 10
80.445349
 20
48.775809
 30
0.0
  0
VERTEX
  5
388
330
382
100
AcDbEntity
  8
001
 62
    40
370
    50
100
AcDbVertex
100
AcDb2dVertex
 10
80.38196
 20
48.763391
 30
0.0
  0
VERTEX
  5
389
330
382
100
AcDbEntity
  8
001
 62
    40
370
    50
100
AcDbVertex
100
AcDb2dVertex
 10
80.261369
 20
48.732757
 30
0.0
  0
VERTEX
  5
38A
330
382
100
AcDbEntity
  8
001
 62
    40
370
    50
100
AcDbVertex
100
AcDb2dVertex
 10
80.128794
 20
48.681398
 30
0.0
  0
VERTEX
  5
38B
330
382
100
AcDbEntity
  8
001
 62
    40
370
    50
100
AcDbVertex
100
AcDb2dVertex
 10
80.057043
 20
48.645064
 30
0.0
  0
VERTEX
  5
38C
330
382
100
AcDbEntity
  8
001
 62
    40
370
    50
100
AcDbVertex
100
AcDb2dVertex
 10
80.007475
 20
48.616805
 30
0.0
  0
SEQEND
  5
383
330
382
100
AcDbEntity
  8
001
370
    50
  0
LINE
  5
38D
330
1F
100
AcDbEntity
  8
001
 62
    40
370
    50
100
AcDbLine
 10
81.366408
 20
48.858179
 30
0.0
 11
80.570364
 21
48.791541
 31
0.0
  0
POLYLINE
  5
38E
330
1F
100
AcDbEntity
  8
001
 62
    40
370
    50
100
AcDb2dPolyline
 66
     1
 10
0.0
 20
0.0
 30
0.0
  0
VERTEX
  5
390
330
38E
100
AcDbEntity
  8
001
 62
    40
370
    50
100
AcDbVertex
100
AcDb2dVertex
 10
81.929297
 20
48.777681
 30
0.0
  0
VERTEX
  5
391
330
38E
100
AcDbEntity
  8
001
 62
    40
370
    50
100
AcDbVertex
100
AcDb2dVertex
 10
81.84123
 20
48.809116
 30
0.0
  0
VERTEX
  5
392
330
38E
100
AcDbEntity
  8
001
 62
    40
370
    50
100
AcDbVertex
100
AcDb2dVertex
 10
81.719232
 20
48.842579
 30
0.0
  0
VERTEX
  5
393
330
38E
100
AcDbEntity
  8
001
 62
    40
370
    50
100
AcDbVertex
100
AcDb2dVertex
 10
81.5901
 20
48.862506
 30
0.0
  0
VERTEX
  5
394
330
38E
100
AcDbEntity
  8
001
 62
    40
370
    50
100
AcDbVertex
100
AcDb2dVertex
 10
81.453894
 20
48.862863
 30
0.0
  0
VERTEX
  5
395
330
38E
100
AcDbEntity
  8
001
 62
    40
370
    50
100
AcDbVertex
100
AcDb2dVertex
 10
81.402715
 20
48.860463
 30
0.0
  0
VERTEX
  5
396
330
38E
100
AcDbEntity
  8
001
 62
    40
370
    50
100
AcDbVertex
100
AcDb2dVertex
 10
81.366408
 20
48.858179
 30
0.0
  0
SEQEND
  5
38F
330
38E
100
AcDbEntity
  8
001
370
    50
  0
LINE
  5
397
330
1F
100
AcDbEntity
  8
001
 62
    40
370
    50
100
AcDbLine
 10
86.709366
 20
46.561475
 30
0.0
 11
81.929297
 21
48.777681
 31
0.0
  0
POLYLINE
  5
398
330
1F
100
AcDbEntity
  8
001
 62
    40
370
    50
100
AcDb2dPolyline
 66
     1
 10
0.0
 20
0.0
 30
0.0
  0
VERTEX
  5
39A
330
398
100
AcDbEntity
  8
001
 62
    40
370
    50
100
AcDbVertex
100
AcDb2dVertex
 10
82.863967
 20
45.713625
 30
0.0
  0
VERTEX
  5
39B
330
398
100
AcDbEntity
  8
001
 62
    40
370
    50
100
AcDbVertex
100
AcDb2dVertex
 10
82.863783
 20
45.727172
 30
0.0
  0
VERTEX
  5
39C
330
398
100
AcDbEntity
  8
001
 62
    40
370
    50
100
AcDbVertex
100
AcDb2dVertex
 10
82.862984
 20
45.74695
 30
0.0
  0
VERTEX
  5
39D
330
398
100
AcDbEntity
  8
001
 62
    40
370
    50
100
AcDbVertex
100
AcDb2dVertex
 10
82.861449
 20
45.766636
 30
0.0
  0
VERTEX
  5
39E
330
398
100
AcDbEntity
  8
001
 62
    40
370
    50
100
AcDbVertex
100
AcDb2dVertex
 10
82.860036
 20
45.780077
 30
0.0
  0
SEQEND
  5
399
330
398
100
AcDbEntity
  8
001
370
    50
  0
LINE
  5
39F
330
1F
100
AcDbEntity
  8
001
 62
    40
370
    50
100
AcDbLine
 10
80.886201
 20
39.597925
 30
0.0
 11
81.682245
 21
39.664562
 31
0.0
  0
POLYLINE
  5
3A0
330
1F
100
AcDbEntity
  8
001
 62
    40
370
    50
100
AcDb2dPolyline
 66
     1
 10
0.0
 20
0.0
 30
0.0
  0
VERTEX
  5
3A2
330
3A0
100
AcDbEntity
  8
001
 62
    40
370
    50
100
AcDbVertex
100
AcDb2dVertex
 10
80.323312
 20
39.678422
 30
0.0
  0
VERTEX
  5
3A3
330
3A0
100
AcDbEntity
  8
001
 62
    40
370
    50
100
AcDbVertex
100
AcDb2dVertex
 10
80.411379
 20
39.646987
 30
0.0
  0
VERTEX
  5
3A4
330
3A0
100
AcDbEntity
  8
001
 62
    40
370
    50
100
AcDbVertex
100
AcDb2dVertex
 10
80.533377
 20
39.613524
 30
0.0
  0
VERTEX
  5
3A5
330
3A0
100
AcDbEntity
  8
001
 62
    40
370
    50
100
AcDbVertex
100
AcDb2dVertex
 10
80.662509
 20
39.593598
 30
0.0
  0
VERTEX
  5
3A6
330
3A0
100
AcDbEntity
  8
001
 62
    40
370
    50
100
AcDbVertex
100
AcDb2dVertex
 10
80.798715
 20
39.593241
 30
0.0
  0
VERTEX
  5
3A7
330
3A0
100
AcDbEntity
  8
001
 62
    40
370
    50
100
AcDbVertex
100
AcDb2dVertex
 10
80.849894
 20
39.59564
 30
0.0
  0
VERTEX
  5
3A8
330
3A0
100
AcDbEntity
  8
001
 62
    40
370
    50
100
AcDbVertex
100
AcDb2dVertex
 10
80.886201
 20
39.597925
 30
0.0
  0
SEQEND
  5
3A1
330
3A0
100
AcDbEntity
  8
001
370
    50
  0
LINE
  5
3A9
330
1F
100
AcDbEntity
  8
001
 62
    40
370
    50
100
AcDbLine
 10
75.543243
 20
41.894629
 30
0.0
 11
80.323312
 21
39.678422
 31
0.0
  0
POLYLINE
  5
3AA
330
1F
100
AcDbEntity
  8
001
 62
    40
370
    50
100
AcDb2dPolyline
 66
     1
 10
0.0
 20
0.0
 30
0.0
  0
VERTEX
  5
3AC
330
3AA
100
AcDbEntity
  8
001
 62
    40
370
    50
100
AcDbVertex
100
AcDb2dVertex
 10
79.076736
 20
45.329812
 30
0.0
  0
VERTEX
  5
3AD
330
3AA
100
AcDbEntity
  8
001
 62
    40
370
    50
100
AcDbVertex
100
AcDb2dVertex
 10
79.093123
 20
45.255082
 30
0.0
  0
VERTEX
  5
3AE
330
3AA
100
AcDbEntity
  8
001
 62
    40
370
    50
100
AcDbVertex
100
AcDb2dVertex
 10
79.126661
 20
45.155213
 30
0.0
  0
VERTEX
  5
3AF
330
3AA
100
AcDbEntity
  8
001
 62
    40
370
    50
100
AcDbVertex
100
AcDb2dVertex
 10
79.174459
 20
45.065979
 30
0.0
  0
VERTEX
  5
3B0
330
3AA
100
AcDbEntity
  8
001
 62
    40
370
    50
100
AcDbVertex
100
AcDb2dVertex
 10
79.232546
 20
44.99276
 30
0.0
  0
VERTEX
  5
3B1
330
3AA
100
AcDbEntity
  8
001
 62
    40
370
    50
100
AcDbVertex
100
AcDb2dVertex
 10
79.307639
 20
44.917202
 30
0.0
  0
VERTEX
  5
3B2
330
3AA
100
AcDbEntity
  8
001
 62
    40
370
    50
100
AcDbVertex
100
AcDb2dVertex
 10
79.391174
 20
44.847388
 30
0.0
  0
VERTEX
  5
3B3
330
3AA
100
AcDbEntity
  8
001
 62
    40
370
    50
100
AcDbVertex
100
AcDb2dVertex
 10
79.74108
 20
44.658009
 30
0.0
  0
VERTEX
  5
3B4
330
3AA
100
AcDbEntity
  8
001
 62
    40
370
    50
100
AcDbVertex
100
AcDb2dVertex
 10
80.128224
 20
44.554553
 30
0.0
  0
VERTEX
  5
3B5
330
3AA
100
AcDbEntity
  8
001
 62
    40
370
    50
100
AcDbVertex
100
AcDb2dVertex
 10
80.443727
 20
44.514368
 30
0.0
  0
VERTEX
  5
3B6
330
3AA
100
AcDbEntity
  8
001
 62
    40
370
    50
100
AcDbVertex
100
AcDb2dVertex
 10
80.76006
 20
44.506253
 30
0.0
  0
VERTEX
  5
3B7
330
3AA
100
AcDbEntity
  8
001
 62
    40
370
    50
100
AcDbVertex
100
AcDb2dVertex
 10
80.925442
 20
44.514058
 30
0.0
  0
VERTEX
  5
3B8
330
3AA
100
AcDbEntity
  8
001
 62
    40
370
    50
100
AcDbVertex
100
AcDb2dVertex
 10
81.090396
 20
44.529772
 30
0.0
  0
VERTEX
  5
3B9
330
3AA
100
AcDbEntity
  8
001
 62
    40
370
    50
100
AcDbVertex
100
AcDb2dVertex
 10
81.254427
 20
44.553204
 30
0.0
  0
VERTEX
  5
3BA
330
3AA
100
AcDbEntity
  8
001
 62
    40
370
    50
100
AcDbVertex
100
AcDb2dVertex
 10
81.417024
 20
44.584441
 30
0.0
  0
VERTEX
  5
3BB
330
3AA
100
AcDbEntity
  8
001
 62
    40
370
    50
100
AcDbVertex
100
AcDb2dVertex
 10
81.722659
 20
44.66664
 30
0.0
  0
VERTEX
  5
3BC
330
3AA
100
AcDbEntity
  8
001
 62
    40
370
    50
100
AcDbVertex
100
AcDb2dVertex
 10
82.019874
 20
44.779685
 30
0.0
  0
VERTEX
  5
3BD
330
3AA
100
AcDbEntity
  8
001
 62
    40
370
    50
100
AcDbVertex
100
AcDb2dVertex
 10
82.371679
 20
44.97075
 30
0.0
  0
VERTEX
  5
3BE
330
3AA
100
AcDbEntity
  8
001
 62
    40
370
    50
100
AcDbVertex
100
AcDb2dVertex
 10
82.667608
 20
45.237329
 30
0.0
  0
VERTEX
  5
3BF
330
3AA
100
AcDbEntity
  8
001
 62
    40
370
    50
100
AcDbVertex
100
AcDb2dVertex
 10
82.732611
 20
45.325077
 30
0.0
  0
VERTEX
  5
3C0
330
3AA
100
AcDbEntity
  8
001
 62
    40
370
    50
100
AcDbVertex
100
AcDb2dVertex
 10
82.787685
 20
45.41587
 30
0.0
  0
VERTEX
  5
3C1
330
3AA
100
AcDbEntity
  8
001
 62
    40
370
    50
100
AcDbVertex
100
AcDb2dVertex
 10
82.826431
 20
45.499883
 30
0.0
  0
VERTEX
  5
3C2
330
3AA
100
AcDbEntity
  8
001
 62
    40
370
    50
100
AcDbVertex
100
AcDb2dVertex
 10
82.852485
 20
45.598637
 30
0.0
  0
VERTEX
  5
3C3
330
3AA
100
AcDbEntity
  8
001
 62
    40
370
    50
100
AcDbVertex
100
AcDb2dVertex
 10
82.861046
 20
45.665503
 30
0.0
  0
VERTEX
  5
3C4
330
3AA
100
AcDbEntity
  8
001
 62
    40
370
    50
100
AcDbVertex
100
AcDb2dVertex
 10
82.863967
 20
45.713625
 30
0.0
  0
SEQEND
  5
3AB
330
3AA
100
AcDbEntity
  8
001
370
    50
  0
POLYLINE
  5
3C5
330
1F
100
AcDbEntity
  8
001
 62
    40
370
    50
100
AcDb2dPolyline
 66
     1
 10
0.0
 20
0.0
 30
0.0
  0
VERTEX
  5
3C7
330
3C5
100
AcDbEntity
  8
001
 62
    40
370
    50
100
AcDbVertex
100
AcDb2dVertex
 10
82.860036
 20
45.780077
 30
0.0
  0
VERTEX
  5
3C8
330
3C5
100
AcDbEntity
  8
001
 62
    40
370
    50
100
AcDbVertex
100
AcDb2dVertex
 10
82.843649
 20
45.854807
 30
0.0
  0
VERTEX
  5
3C9
330
3C5
100
AcDbEntity
  8
001
 62
    40
370
    50
100
AcDbVertex
100
AcDb2dVertex
 10
82.810111
 20
45.954676
 30
0.0
  0
VERTEX
  5
3CA
330
3C5
100
AcDbEntity
  8
001
 62
    40
370
    50
100
AcDbVertex
100
AcDb2dVertex
 10
82.762313
 20
46.04391
 30
0.0
  0
VERTEX
  5
3CB
330
3C5
100
AcDbEntity
  8
001
 62
    40
370
    50
100
AcDbVertex
100
AcDb2dVertex
 10
82.704226
 20
46.117129
 30
0.0
  0
VERTEX
  5
3CC
330
3C5
100
AcDbEntity
  8
001
 62
    40
370
    50
100
AcDbVertex
100
AcDb2dVertex
 10
82.629133
 20
46.192688
 30
0.0
  0
VERTEX
  5
3CD
330
3C5
100
AcDbEntity
  8
001
 62
    40
370
    50
100
AcDbVertex
100
AcDb2dVertex
 10
82.545598
 20
46.262501
 30
0.0
  0
VERTEX
  5
3CE
330
3C5
100
AcDbEntity
  8
001
 62
    40
370
    50
100
AcDbVertex
100
AcDb2dVertex
 10
82.195692
 20
46.451881
 30
0.0
  0
VERTEX
  5
3CF
330
3C5
100
AcDbEntity
  8
001
 62
    40
370
    50
100
AcDbVertex
100
AcDb2dVertex
 10
81.808548
 20
46.555336
 30
0.0
  0
VERTEX
  5
3D0
330
3C5
100
AcDbEntity
  8
001
 62
    40
370
    50
100
AcDbVertex
100
AcDb2dVertex
 10
81.493044
 20
46.59552
 30
0.0
  0
VERTEX
  5
3D1
330
3C5
100
AcDbEntity
  8
001
 62
    40
370
    50
100
AcDbVertex
100
AcDb2dVertex
 10
81.176712
 20
46.603636
 30
0.0
  0
VERTEX
  5
3D2
330
3C5
100
AcDbEntity
  8
001
 62
    40
370
    50
100
AcDbVertex
100
AcDb2dVertex
 10
81.011331
 20
46.595833
 30
0.0
  0
VERTEX
  5
3D3
330
3C5
100
AcDbEntity
  8
001
 62
    40
370
    50
100
AcDbVertex
100
AcDb2dVertex
 10
80.846376
 20
46.580117
 30
0.0
  0
VERTEX
  5
3D4
330
3C5
100
AcDbEntity
  8
001
 62
    40
370
    50
100
AcDbVertex
100
AcDb2dVertex
 10
80.682341
 20
46.556679
 30
0.0
  0
VERTEX
  5
3D5
330
3C5
100
AcDbEntity
  8
001
 62
    40
370
    50
100
AcDbVertex
100
AcDb2dVertex
 10
80.519748
 20
46.525449
 30
0.0
  0
VERTEX
  5
3D6
330
3C5
100
AcDbEntity
  8
001
 62
    40
370
    50
100
AcDbVertex
100
AcDb2dVertex
 10
80.214157
 20
46.443315
 30
0.0
  0
VERTEX
  5
3D7
330
3C5
100
AcDbEntity
  8
001
 62
    40
370
    50
100
AcDbVertex
100
AcDb2dVertex
 10
79.916898
 20
46.330204
 30
0.0
  0
VERTEX
  5
3D8
330
3C5
100
AcDbEntity
  8
001
 62
    40
370
    50
100
AcDbVertex
100
AcDb2dVertex
 10
79.564848
 20
46.138774
 30
0.0
  0
VERTEX
  5
3D9
330
3C5
100
AcDbEntity
  8
001
 62
    40
370
    50
100
AcDbVertex
100
AcDb2dVertex
 10
79.269164
 20
45.872561
 30
0.0
  0
VERTEX
  5
3DA
330
3C5
100
AcDbEntity
  8
001
 62
    40
370
    50
100
AcDbVertex
100
AcDb2dVertex
 10
79.204348
 20
45.785091
 30
0.0
  0
VERTEX
  5
3DB
330
3C5
100
AcDbEntity
  8
001
 62
    40
370
    50
100
AcDbVertex
100
AcDb2dVertex
 10
79.149087
 20
45.694019
 30
0.0
  0
VERTEX
  5
3DC
330
3C5
100
AcDbEntity
  8
001
 62
    40
370
    50
100
AcDbVertex
100
AcDb2dVertex
 10
79.109807
 20
45.609212
 30
0.0
  0
VERTEX
  5
3DD
330
3C5
100
AcDbEntity
  8
001
 62
    40
370
    50
100
AcDbVertex
100
AcDb2dVertex
 10
79.084288
 20
45.511252
 30
0.0
  0
VERTEX
  5
3DE
330
3C5
100
AcDbEntity
  8
001
 62
    40
370
    50
100
AcDbVertex
100
AcDb2dVertex
 10
79.075126
 20
45.406302
 30
0.0
  0
VERTEX
  5
3DF
330
3C5
100
AcDbEntity
  8
001
 62
    40
370
    50
100
AcDbVertex
100
AcDb2dVertex
 10
79.076736
 20
45.329812
 30
0.0
  0
SEQEND
  5
3C6
330
3C5
100
AcDbEntity
  8
001
370
    50
  0
POLYLINE
  5
3E0
330
1F
100
AcDbEntity
  8
001
 62
    40
370
    50
100
AcDb2dPolyline
 66
     1
 10
0.0
 20
0.0
 30
0.0
  0
VERTEX
  5
3E2
330
3E0
100
AcDbEntity
  8
001
 62
    40
370
    50
100
AcDbVertex
100
AcDb2dVertex
 10
87.025203
 20
42.855789
 30
0.0
  0
VERTEX
  5
3E3
330
3E0
100
AcDbEntity
  8
001
 62
    40
370
    50
100
AcDbVertex
100
AcDb2dVertex
 10
87.09329
 20
42.905681
 30
0.0
  0
VERTEX
  5
3E4
330
3E0
100
AcDbEntity
  8
001
 62
    40
370
    50
100
AcDbVertex
100
AcDb2dVertex
 10
87.175898
 20
42.983382
 30
0.0
  0
VERTEX
  5
3E5
330
3E0
100
AcDbEntity
  8
001
 62
    40
370
    50
100
AcDbVertex
100
AcDb2dVertex
 10
87.20426
 20
43.020825
 30
0.0
  0
VERTEX
  5
3E6
330
3E0
100
AcDbEntity
  8
001
 62
    40
370
    50
100
AcDbVertex
100
AcDb2dVertex
 10
87.226324
 20
43.05836
 30
0.0
  0
VERTEX
  5
3E7
330
3E0
100
AcDbEntity
  8
001
 62
    40
370
    50
100
AcDbVertex
100
AcDb2dVertex
 10
87.242369
 20
43.093514
 30
0.0
  0
VERTEX
  5
3E8
330
3E0
100
AcDbEntity
  8
001
 62
    40
370
    50
100
AcDbVertex
100
AcDb2dVertex
 10
87.253537
 20
43.135112
 30
0.0
  0
VERTEX
  5
3E9
330
3E0
100
AcDbEntity
  8
001
 62
    40
370
    50
100
AcDbVertex
100
AcDb2dVertex
 10
87.257153
 20
43.163204
 30
0.0
  0
VERTEX
  5
3EA
330
3E0
100
AcDbEntity
  8
001
 62
    40
370
    50
100
AcDbVertex
100
AcDb2dVertex
 10
87.258359
 20
43.183401
 30
0.0
  0
SEQEND
  5
3E1
330
3E0
100
AcDbEntity
  8
001
370
    50
  0
LINE
  5
3EB
330
1F
100
AcDbEntity
  8
001
 62
    40
370
    50
100
AcDbLine
 10
87.258359
 20
43.183401
 30
0.0
 11
87.258359
 21
43.619112
 31
0.0
  0
POLYLINE
  5
3EC
330
1F
100
AcDbEntity
  8
001
 62
    40
370
    50
100
AcDb2dPolyline
 66
     1
 10
0.0
 20
0.0
 30
0.0
  0
VERTEX
  5
3EE
330
3EC
100
AcDbEntity
  8
001
 62
    40
370
    50
100
AcDbVertex
100
AcDb2dVertex
 10
75.311738
 20
42.155299
 30
0.0
  0
VERTEX
  5
3EF
330
3EC
100
AcDbEntity
  8
001
 62
    40
370
    50
100
AcDbVertex
100
AcDb2dVertex
 10
75.318556
 20
42.123941
 30
0.0
  0
VERTEX
  5
3F0
330
3EC
100
AcDbEntity
  8
001
 62
    40
370
    50
100
AcDbVertex
100
AcDb2dVertex
 10
75.332704
 20
42.081977
 30
0.0
  0
VERTEX
  5
3F1
330
3EC
100
AcDbEntity
  8
001
 62
    40
370
    50
100
AcDbVertex
100
AcDb2dVertex
 10
75.353126
 20
42.044367
 30
0.0
  0
VERTEX
  5
3F2
330
3EC
100
AcDbEntity
  8
001
 62
    40
370
    50
100
AcDbVertex
100
AcDb2dVertex
 10
75.37717
 20
42.013755
 30
0.0
  0
VERTEX
  5
3F3
330
3EC
100
AcDbEntity
  8
001
 62
    40
370
    50
100
AcDbVertex
100
AcDb2dVertex
 10
75.407158
 20
41.982625
 30
0.0
  0
VERTEX
  5
3F4
330
3EC
100
AcDbEntity
  8
001
 62
    40
370
    50
100
AcDbVertex
100
AcDb2dVertex
 10
75.443785
 20
41.952706
 30
0.0
  0
VERTEX
  5
3F5
330
3EC
100
AcDbEntity
  8
001
 62
    40
370
    50
100
AcDbVertex
100
AcDb2dVertex
 10
75.500161
 20
41.917258
 30
0.0
  0
VERTEX
  5
3F6
330
3EC
100
AcDbEntity
  8
001
 62
    40
370
    50
100
AcDbVertex
100
AcDb2dVertex
 10
75.543243
 20
41.894629
 30
0.0
  0
SEQEND
  5
3ED
330
3EC
100
AcDbEntity
  8
001
370
    50
  0
POLYLINE
  5
3F7
330
1F
100
AcDbEntity
  8
001
 62
    40
370
    50
100
AcDb2dPolyline
 66
     1
 10
0.0
 20
0.0
 30
0.0
  0
VERTEX
  5
3F9
330
3F7
100
AcDbEntity
  8
001
 62
    40
370
    50
100
AcDbVertex
100
AcDb2dVertex
 10
74.995901
 20
44.809085
 30
0.0
  0
VERTEX
  5
3FA
330
3F7
100
AcDbEntity
  8
001
 62
    40
370
    50
100
AcDbVertex
100
AcDb2dVertex
 10
75.002719
 20
44.777727
 30
0.0
  0
VERTEX
  5
3FB
330
3F7
100
AcDbEntity
  8
001
 62
    40
370
    50
100
AcDbVertex
100
AcDb2dVertex
 10
75.016867
 20
44.735763
 30
0.0
  0
VERTEX
  5
3FC
330
3F7
100
AcDbEntity
  8
001
 62
    40
370
    50
100
AcDbVertex
100
AcDb2dVertex
 10
75.037289
 20
44.698153
 30
0.0
  0
VERTEX
  5
3FD
330
3F7
100
AcDbEntity
  8
001
 62
    40
370
    50
100
AcDbVertex
100
AcDb2dVertex
 10
75.061333
 20
44.667541
 30
0.0
  0
VERTEX
  5
3FE
330
3F7
100
AcDbEntity
  8
001
 62
    40
370
    50
100
AcDbVertex
100
AcDb2dVertex
 10
75.091321
 20
44.636411
 30
0.0
  0
VERTEX
  5
3FF
330
3F7
100
AcDbEntity
  8
001
 62
    40
370
    50
100
AcDbVertex
100
AcDb2dVertex
 10
75.127948
 20
44.606492
 30
0.0
  0
VERTEX
  5
400
330
3F7
100
AcDbEntity
  8
001
 62
    40
370
    50
100
AcDbVertex
100
AcDb2dVertex
 10
75.184324
 20
44.571044
 30
0.0
  0
VERTEX
  5
401
330
3F7
100
AcDbEntity
  8
001
 62
    40
370
    50
100
AcDbVertex
100
AcDb2dVertex
 10
75.227406
 20
44.548415
 30
0.0
  0
SEQEND
  5
3F8
330
3F7
100
AcDbEntity
  8
001
370
    50
  0
LINE
  5
402
330
1F
100
AcDbEntity
  8
001
 62
    40
370
    50
100
AcDbLine
 10
74.995901
 20
44.809085
 30
0.0
 11
75.311738
 21
42.155299
 31
0.0
  0
POLYLINE
  5
403
330
1F
100
AcDbEntity
  8
001
 62
    40
370
    50
100
AcDb2dPolyline
 66
     1
 10
0.0
 20
0.0
 30
0.0
  0
VERTEX
  5
405
330
403
100
AcDbEntity
  8
001
 62
    40
370
    50
100
AcDbVertex
100
AcDb2dVertex
 10
86.940871
 20
46.300804
 30
0.0
  0
VERTEX
  5
406
330
403
100
AcDbEntity
  8
001
 62
    40
370
    50
100
AcDbVertex
100
AcDb2dVertex
 10
86.934053
 20
46.332163
 30
0.0
  0
VERTEX
  5
407
330
403
100
AcDbEntity
  8
001
 62
    40
370
    50
100
AcDbVertex
100
AcDb2dVertex
 10
86.919905
 20
46.374127
 30
0.0
  0
VERTEX
  5
408
330
403
100
AcDbEntity
  8
001
 62
    40
370
    50
100
AcDbVertex
100
AcDb2dVertex
 10
86.899483
 20
46.411736
 30
0.0
  0
VERTEX
  5
409
330
403
100
AcDbEntity
  8
001
 62
    40
370
    50
100
AcDbVertex
100
AcDb2dVertex
 10
86.875439
 20
46.442349
 30
0.0
  0
VERTEX
  5
40A
330
403
100
AcDbEntity
  8
001
 62
    40
370
    50
100
AcDbVertex
100
AcDb2dVertex
 10
86.845451
 20
46.473478
 30
0.0
  0
VERTEX
  5
40B
330
403
100
AcDbEntity
  8
001
 62
    40
370
    50
100
AcDbVertex
100
AcDb2dVertex
 10
86.808824
 20
46.503397
 30
0.0
  0
VERTEX
  5
40C
330
403
100
AcDbEntity
  8
001
 62
    40
370
    50
100
AcDbVertex
100
AcDb2dVertex
 10
86.752448
 20
46.538845
 30
0.0
  0
VERTEX
  5
40D
330
403
100
AcDbEntity
  8
001
 62
    40
370
    50
100
AcDbVertex
100
AcDb2dVertex
 10
86.709366
 20
46.561475
 30
0.0
  0
SEQEND
  5
404
330
403
100
AcDbEntity
  8
001
370
    50
  0
LINE
  5
40E
330
1F
100
AcDbEntity
  8
001
 62
    40
370
    50
100
AcDbLine
 10
87.256708
 20
43.647019
 30
0.0
 11
86.940871
 21
46.300804
 31
0.0
  0
POLYLINE
  5
40F
330
1F
100
AcDbEntity
  8
001
 62
    40
370
    50
100
AcDb2dPolyline
 66
     1
 10
0.0
 20
0.0
 30
0.0
  0
VERTEX
  5
411
330
40F
100
AcDbEntity
  8
001
 62
    40
370
    50
100
AcDbVertex
100
AcDb2dVertex
 10
87.258359
 20
43.619112
 30
0.0
  0
VERTEX
  5
412
330
40F
100
AcDbEntity
  8
001
 62
    40
370
    50
100
AcDbVertex
100
AcDb2dVertex
 10
87.258281
 20
43.624801
 30
0.0
  0
VERTEX
  5
413
330
40F
100
AcDbEntity
  8
001
 62
    40
370
    50
100
AcDbVertex
100
AcDb2dVertex
 10
87.257946
 20
43.633107
 30
0.0
  0
VERTEX
  5
414
330
40F
100
AcDbEntity
  8
001
 62
    40
370
    50
100
AcDbVertex
100
AcDb2dVertex
 10
87.257301
 20
43.641374
 30
0.0
  0
VERTEX
  5
415
330
40F
100
AcDbEntity
  8
001
 62
    40
370
    50
100
AcDbVertex
100
AcDb2dVertex
 10
87.256708
 20
43.647019
 30
0.0
  0
SEQEND
  5
410
330
40F
100
AcDbEntity
  8
001
370
    50
  0
POLYLINE
  5
416
330
1F
100
AcDbEntity
  8
001
 62
    40
370
    50
100
AcDb2dPolyline
 66
     1
 10
0.0
 20
0.0
 30
0.0
  0
VERTEX
  5
418
330
416
100
AcDbEntity
  8
001
 62
    40
370
    50
100
AcDbVertex
100
AcDb2dVertex
 10
86.942522
 20
20.391883
 30
0.0
  0
VERTEX
  5
419
330
416
100
AcDbEntity
  8
001
 62
    40
370
    50
100
AcDbVertex
100
AcDb2dVertex
 10
86.933159
 20
20.496779
 30
0.0
  0
VERTEX
  5
41A
330
416
100
AcDbEntity
  8
001
 62
    40
370
    50
100
AcDbVertex
100
AcDb2dVertex
 10
86.904333
 20
20.636558
 30
0.0
  0
VERTEX
  5
41B
330
416
100
AcDbEntity
  8
001
 62
    40
370
    50
100
AcDbVertex
100
AcDb2dVertex
 10
86.879537
 20
20.704937
 30
0.0
  0
VERTEX
  5
41C
330
416
100
AcDbEntity
  8
001
 62
    40
370
    50
100
AcDbVertex
100
AcDb2dVertex
 10
86.850519
 20
20.765198
 30
0.0
  0
VERTEX
  5
41D
330
416
100
AcDbEntity
  8
001
 62
    40
370
    50
100
AcDbVertex
100
AcDb2dVertex
 10
86.817866
 20
20.822557
 30
0.0
  0
VERTEX
  5
41E
330
416
100
AcDbEntity
  8
001
 62
    40
370
    50
100
AcDbVertex
100
AcDb2dVertex
 10
86.775313
 20
20.882621
 30
0.0
  0
VERTEX
  5
41F
330
416
100
AcDbEntity
  8
001
 62
    40
370
    50
100
AcDbVertex
100
AcDb2dVertex
 10
86.737738
 20
20.927241
 30
0.0
  0
VERTEX
  5
420
330
416
100
AcDbEntity
  8
001
 62
    40
370
    50
100
AcDbVertex
100
AcDb2dVertex
 10
86.709366
 20
20.958011
 30
0.0
  0
SEQEND
  5
417
330
416
100
AcDbEntity
  8
001
370
    50
  0
LINE
  5
421
330
1F
100
AcDbEntity
  8
001
 62
    40
370
    50
100
AcDbLine
 10
86.942522
 20
19.59298
 30
0.0
 11
86.942522
 21
20.391883
 31
0.0
  0
POLYLINE
  5
422
330
1F
100
AcDbEntity
  8
001
 62
    40
370
    50
100
AcDb2dPolyline
 66
     1
 10
0.0
 20
0.0
 30
0.0
  0
VERTEX
  5
424
330
422
100
AcDbEntity
  8
001
 62
    40
370
    50
100
AcDbVertex
100
AcDb2dVertex
 10
86.709366
 20
19.029287
 30
0.0
  0
VERTEX
  5
425
330
422
100
AcDbEntity
  8
001
 62
    40
370
    50
100
AcDbVertex
100
AcDb2dVertex
 10
86.720607
 20
19.040837
 30
0.0
  0
VERTEX
  5
426
330
422
100
AcDbEntity
  8
001
 62
    40
370
    50
100
AcDbVertex
100
AcDb2dVertex
 10
86.736369
 20
19.057614
 30
0.0
  0
VERTEX
  5
427
330
422
100
AcDbEntity
  8
001
 62
    40
370
    50
100
AcDbVertex
100
AcDb2dVertex
 10
86.784135
 20
19.114957
 30
0.0
  0
VERTEX
  5
428
330
422
100
AcDbEntity
  8
001
 62
    40
370
    50
100
AcDbVertex
100
AcDb2dVertex
 10
86.820226
 20
19.168128
 30
0.0
  0
VERTEX
  5
429
330
422
100
AcDbEntity
  8
001
 62
    40
370
    50
100
AcDbVertex
100
AcDb2dVertex
 10
86.90374
 20
19.341168
 30
0.0
  0
VERTEX
  5
42A
330
422
100
AcDbEntity
  8
001
 62
    40
370
    50
100
AcDbVertex
100
AcDb2dVertex
 10
86.941945
 20
19.562581
 30
0.0
  0
VERTEX
  5
42B
330
422
100
AcDbEntity
  8
001
 62
    40
370
    50
100
AcDbVertex
100
AcDb2dVertex
 10
86.942387
 20
19.580578
 30
0.0
  0
VERTEX
  5
42C
330
422
100
AcDbEntity
  8
001
 62
    40
370
    50
100
AcDbVertex
100
AcDb2dVertex
 10
86.942522
 20
19.59298
 30
0.0
  0
SEQEND
  5
423
330
422
100
AcDbEntity
  8
001
370
    50
  0
LINE
  5
42D
330
1F
100
AcDbEntity
  8
001
 62
    40
370
    50
100
AcDbLine
 10
81.929297
 20
14.25702
 30
0.0
 11
86.709366
 21
19.029287
 31
0.0
  0
POLYLINE
  5
42E
330
1F
100
AcDbEntity
  8
001
 62
    40
370
    50
100
AcDb2dPolyline
 66
     1
 10
0.0
 20
0.0
 30
0.0
  0
VERTEX
  5
430
330
42E
100
AcDbEntity
  8
001
 62
    40
370
    50
100
AcDbVertex
100
AcDb2dVertex
 10
81.366408
 20
14.025967
 30
0.0
  0
VERTEX
  5
431
330
42E
100
AcDbEntity
  8
001
 62
    40
370
    50
100
AcDbVertex
100
AcDb2dVertex
 10
81.412214
 20
14.027771
 30
0.0
  0
VERTEX
  5
432
330
42E
100
AcDbEntity
  8
001
 62
    40
370
    50
100
AcDbVertex
100
AcDb2dVertex
 10
81.474707
 20
14.032829
 30
0.0
  0
VERTEX
  5
433
330
42E
100
AcDbEntity
  8
001
 62
    40
370
    50
100
AcDbVertex
100
AcDb2dVertex
 10
81.54375
 20
14.043638
 30
0.0
  0
VERTEX
  5
434
330
42E
100
AcDbEntity
  8
001
 62
    40
370
    50
100
AcDbVertex
100
AcDb2dVertex
 10
81.610009
 20
14.06302
 30
0.0
  0
VERTEX
  5
435
330
42E
100
AcDbEntity
  8
001
 62
    40
370
    50
100
AcDbVertex
100
AcDb2dVertex
 10
81.684212
 20
14.091984
 30
0.0
  0
VERTEX
  5
436
330
42E
100
AcDbEntity
  8
001
 62
    40
370
    50
100
AcDbVertex
100
AcDb2dVertex
 10
81.737908
 20
14.116359
 30
0.0
  0
SEQEND
  5
42F
330
42E
100
AcDbEntity
  8
001
370
    50
  0
LINE
  5
437
330
1F
100
AcDbEntity
  8
001
 62
    40
370
    50
100
AcDbLine
 10
80.570364
 20
14.030125
 30
0.0
 11
81.366408
 21
14.025967
 31
0.0
  0
POLYLINE
  5
438
330
1F
100
AcDbEntity
  8
001
 62
    40
370
    50
100
AcDb2dPolyline
 66
     1
 10
0.0
 20
0.0
 30
0.0
  0
VERTEX
  5
43A
330
438
100
AcDbEntity
  8
001
 62
    40
370
    50
100
AcDbVertex
100
AcDb2dVertex
 10
80.007475
 20
14.267059
 30
0.0
  0
VERTEX
  5
43B
330
438
100
AcDbEntity
  8
001
 62
    40
370
    50
100
AcDbVertex
100
AcDb2dVertex
 10
80.063851
 20
14.217942
 30
0.0
  0
VERTEX
  5
43C
330
438
100
AcDbEntity
  8
001
 62
    40
370
    50
100
AcDbVertex
100
AcDb2dVertex
 10
80.146396
 20
14.155075
 30
0.0
  0
VERTEX
  5
43D
330
438
100
AcDbEntity
  8
001
 62
    40
370
    50
100
AcDbVertex
100
AcDb2dVertex
 10
80.328207
 20
14.060852
 30
0.0
  0
VERTEX
  5
43E
330
438
100
AcDbEntity
  8
001
 62
    40
370
    50
100
AcDbVertex
100
AcDb2dVertex
 10
80.540071
 20
14.030862
 30
0.0
  0
VERTEX
  5
43F
330
438
100
AcDbEntity
  8
001
 62
    40
370
    50
100
AcDbVertex
100
AcDb2dVertex
 10
80.557982
 20
14.030348
 30
0.0
  0
VERTEX
  5
440
330
438
100
AcDbEntity
  8
001
 62
    40
370
    50
100
AcDbVertex
100
AcDb2dVertex
 10
80.570364
 20
14.030125
 30
0.0
  0
SEQEND
  5
439
330
438
100
AcDbEntity
  8
001
370
    50
  0
LINE
  5
441
330
1F
100
AcDbEntity
  8
001
 62
    40
370
    50
100
AcDbLine
 10
75.227406
 20
19.089267
 30
0.0
 11
80.007475
 21
14.267059
 31
0.0
  0
POLYLINE
  5
442
330
1F
100
AcDbEntity
  8
001
 62
    40
370
    50
100
AcDb2dPolyline
 66
     1
 10
0.0
 20
0.0
 30
0.0
  0
VERTEX
  5
444
330
442
100
AcDbEntity
  8
001
 62
    40
370
    50
100
AcDbVertex
100
AcDb2dVertex
 10
74.99425
 20
19.655395
 30
0.0
  0
VERTEX
  5
445
330
442
100
AcDbEntity
  8
001
 62
    40
370
    50
100
AcDbVertex
100
AcDb2dVertex
 10
75.003613
 20
19.550499
 30
0.0
  0
VERTEX
  5
446
330
442
100
AcDbEntity
  8
001
 62
    40
370
    50
100
AcDbVertex
100
AcDb2dVertex
 10
75.032439
 20
19.410721
 30
0.0
  0
VERTEX
  5
447
330
442
100
AcDbEntity
  8
001
 62
    40
370
    50
100
AcDbVertex
100
AcDb2dVertex
 10
75.057235
 20
19.342341
 30
0.0
  0
VERTEX
  5
448
330
442
100
AcDbEntity
  8
001
 62
    40
370
    50
100
AcDbVertex
100
AcDb2dVertex
 10
75.086253
 20
19.282081
 30
0.0
  0
VERTEX
  5
449
330
442
100
AcDbEntity
  8
001
 62
    40
370
    50
100
AcDbVertex
100
AcDb2dVertex
 10
75.118906
 20
19.224721
 30
0.0
  0
VERTEX
  5
44A
330
442
100
AcDbEntity
  8
001
 62
    40
370
    50
100
AcDbVertex
100
AcDb2dVertex
 10
75.161459
 20
19.164657
 30
0.0
  0
VERTEX
  5
44B
330
442
100
AcDbEntity
  8
001
 62
    40
370
    50
100
AcDbVertex
100
AcDb2dVertex
 10
75.199034
 20
19.120038
 30
0.0
  0
VERTEX
  5
44C
330
442
100
AcDbEntity
  8
001
 62
    40
370
    50
100
AcDbVertex
100
AcDb2dVertex
 10
75.227406
 20
19.089267
 30
0.0
  0
SEQEND
  5
443
330
442
100
AcDbEntity
  8
001
370
    50
  0
LINE
  5
44D
330
1F
100
AcDbEntity
  8
001
 62
    40
370
    50
100
AcDbLine
 10
74.99425
 20
20.454299
 30
0.0
 11
74.99425
 21
19.655395
 31
0.0
  0
POLYLINE
  5
44E
330
1F
100
AcDbEntity
  8
001
 62
    40
370
    50
100
AcDb2dPolyline
 66
     1
 10
0.0
 20
0.0
 30
0.0
  0
VERTEX
  5
450
330
44E
100
AcDbEntity
  8
001
 62
    40
370
    50
100
AcDbVertex
100
AcDb2dVertex
 10
75.227406
 20
21.017991
 30
0.0
  0
VERTEX
  5
451
330
44E
100
AcDbEntity
  8
001
 62
    40
370
    50
100
AcDbVertex
100
AcDb2dVertex
 10
75.216166
 20
21.006441
 30
0.0
  0
VERTEX
  5
452
330
44E
100
AcDbEntity
  8
001
 62
    40
370
    50
100
AcDbVertex
100
AcDb2dVertex
 10
75.200403
 20
20.989664
 30
0.0
  0
VERTEX
  5
453
330
44E
100
AcDbEntity
  8
001
 62
    40
370
    50
100
AcDbVertex
100
AcDb2dVertex
 10
75.152637
 20
20.932322
 30
0.0
  0
VERTEX
  5
454
330
44E
100
AcDbEntity
  8
001
 62
    40
370
    50
100
AcDbVertex
100
AcDb2dVertex
 10
75.116546
 20
20.879151
 30
0.0
  0
VERTEX
  5
455
330
44E
100
AcDbEntity
  8
001
 62
    40
370
    50
100
AcDbVertex
100
AcDb2dVertex
 10
75.033032
 20
20.70611
 30
0.0
  0
VERTEX
  5
456
330
44E
100
AcDbEntity
  8
001
 62
    40
370
    50
100
AcDbVertex
100
AcDb2dVertex
 10
74.994827
 20
20.484697
 30
0.0
  0
VERTEX
  5
457
330
44E
100
AcDbEntity
  8
001
 62
    40
370
    50
100
AcDbVertex
100
AcDb2dVertex
 10
74.994385
 20
20.466701
 30
0.0
  0
VERTEX
  5
458
330
44E
100
AcDbEntity
  8
001
 62
    40
370
    50
100
AcDbVertex
100
AcDb2dVertex
 10
74.99425
 20
20.454299
 30
0.0
  0
SEQEND
  5
44F
330
44E
100
AcDbEntity
  8
001
370
    50
  0
LINE
  5
459
330
1F
100
AcDbEntity
  8
001
 62
    40
370
    50
100
AcDbLine
 10
80.007475
 20
25.790259
 30
0.0
 11
75.227406
 21
21.017991
 31
0.0
  0
POLYLINE
  5
45A
330
1F
100
AcDbEntity
  8
001
 62
    40
370
    50
100
AcDb2dPolyline
 66
     1
 10
0.0
 20
0.0
 30
0.0
  0
VERTEX
  5
45C
330
45A
100
AcDbEntity
  8
001
 62
    40
370
    50
100
AcDbVertex
100
AcDb2dVertex
 10
80.570364
 20
26.021312
 30
0.0
  0
VERTEX
  5
45D
330
45A
100
AcDbEntity
  8
001
 62
    40
370
    50
100
AcDbVertex
100
AcDb2dVertex
 10
80.524558
 20
26.019507
 30
0.0
  0
VERTEX
  5
45E
330
45A
100
AcDbEntity
  8
001
 62
    40
370
    50
100
AcDbVertex
100
AcDb2dVertex
 10
80.462065
 20
26.01445
 30
0.0
  0
VERTEX
  5
45F
330
45A
100
AcDbEntity
  8
001
 62
    40
370
    50
100
AcDbVertex
100
AcDb2dVertex
 10
80.393022
 20
26.00364
 30
0.0
  0
VERTEX
  5
460
330
45A
100
AcDbEntity
  8
001
 62
    40
370
    50
100
AcDbVertex
100
AcDb2dVertex
 10
80.326764
 20
25.984259
 30
0.0
  0
VERTEX
  5
461
330
45A
100
AcDbEntity
  8
001
 62
    40
370
    50
100
AcDbVertex
100
AcDb2dVertex
 10
80.25256
 20
25.955294
 30
0.0
  0
VERTEX
  5
462
330
45A
100
AcDbEntity
  8
001
 62
    40
370
    50
100
AcDbVertex
100
AcDb2dVertex
 10
80.198864
 20
25.930919
 30
0.0
  0
SEQEND
  5
45B
330
45A
100
AcDbEntity
  8
001
370
    50
  0
LINE
  5
463
330
1F
100
AcDbEntity
  8
001
 62
    40
370
    50
100
AcDbLine
 10
81.366408
 20
26.017153
 30
0.0
 11
80.570364
 21
26.021312
 31
0.0
  0
POLYLINE
  5
464
330
1F
100
AcDbEntity
  8
001
 62
    40
370
    50
100
AcDb2dPolyline
 66
     1
 10
0.0
 20
0.0
 30
0.0
  0
VERTEX
  5
466
330
464
100
AcDbEntity
  8
001
 62
    40
370
    50
100
AcDbVertex
100
AcDb2dVertex
 10
81.929297
 20
25.780219
 30
0.0
  0
VERTEX
  5
467
330
464
100
AcDbEntity
  8
001
 62
    40
370
    50
100
AcDbVertex
100
AcDb2dVertex
 10
81.872921
 20
25.829336
 30
0.0
  0
VERTEX
  5
468
330
464
100
AcDbEntity
  8
001
 62
    40
370
    50
100
AcDbVertex
100
AcDb2dVertex
 10
81.790376
 20
25.892204
 30
0.0
  0
VERTEX
  5
469
330
464
100
AcDbEntity
  8
001
 62
    40
370
    50
100
AcDbVertex
100
AcDb2dVertex
 10
81.608565
 20
25.986426
 30
0.0
  0
VERTEX
  5
46A
330
464
100
AcDbEntity
  8
001
 62
    40
370
    50
100
AcDbVertex
100
AcDb2dVertex
 10
81.396701
 20
26.016416
 30
0.0
  0
VERTEX
  5
46B
330
464
100
AcDbEntity
  8
001
 62
    40
370
    50
100
AcDbVertex
100
AcDb2dVertex
 10
81.37879
 20
26.01693
 30
0.0
  0
VERTEX
  5
46C
330
464
100
AcDbEntity
  8
001
 62
    40
370
    50
100
AcDbVertex
100
AcDb2dVertex
 10
81.366408
 20
26.017153
 30
0.0
  0
SEQEND
  5
465
330
464
100
AcDbEntity
  8
001
370
    50
  0
LINE
  5
46D
330
1F
100
AcDbEntity
  8
001
 62
    40
370
    50
100
AcDbLine
 10
86.709366
 20
20.958011
 30
0.0
 11
81.929297
 21
25.780219
 31
0.0
  0
POLYLINE
  5
46E
330
1F
100
AcDbEntity
  8
001
 62
    40
370
    50
100
AcDb2dPolyline
 66
     1
 10
0.0
 20
0.0
 30
0.0
  0
VERTEX
  5
470
330
46E
100
AcDbEntity
  8
001
 62
    40
370
    50
100
AcDbVertex
100
AcDb2dVertex
 10
82.863967
 20
20.013737
 30
0.0
  0
VERTEX
  5
471
330
46E
100
AcDbEntity
  8
001
 62
    40
370
    50
100
AcDbVertex
100
AcDb2dVertex
 10
82.840982
 20
20.264192
 30
0.0
  0
VERTEX
  5
472
330
46E
100
AcDbEntity
  8
001
 62
    40
370
    50
100
AcDbVertex
100
AcDb2dVertex
 10
82.773031
 20
20.596369
 30
0.0
  0
VERTEX
  5
473
330
46E
100
AcDbEntity
  8
001
 62
    40
370
    50
100
AcDbVertex
100
AcDb2dVertex
 10
82.715587
 20
20.757636
 30
0.0
  0
VERTEX
  5
474
330
46E
100
AcDbEntity
  8
001
 62
    40
370
    50
100
AcDbVertex
100
AcDb2dVertex
 10
82.644885
 20
20.902693
 30
0.0
  0
VERTEX
  5
475
330
46E
100
AcDbEntity
  8
001
 62
    40
370
    50
100
AcDbVertex
100
AcDb2dVertex
 10
82.561449
 20
21.044813
 30
0.0
  0
VERTEX
  5
476
330
46E
100
AcDbEntity
  8
001
 62
    40
370
    50
100
AcDbVertex
100
AcDb2dVertex
 10
82.4658
 20
21.182307
 30
0.0
  0
VERTEX
  5
477
330
46E
100
AcDbEntity
  8
001
 62
    40
370
    50
100
AcDbVertex
100
AcDb2dVertex
 10
82.241552
 20
21.427264
 30
0.0
  0
VERTEX
  5
478
330
46E
100
AcDbEntity
  8
001
 62
    40
370
    50
100
AcDbVertex
100
AcDb2dVertex
 10
81.97796
 20
21.628493
 30
0.0
  0
VERTEX
  5
479
330
46E
100
AcDbEntity
  8
001
 62
    40
370
    50
100
AcDbVertex
100
AcDb2dVertex
 10
81.529614
 20
21.83776
 30
0.0
  0
VERTEX
  5
47A
330
46E
100
AcDbEntity
  8
001
 62
    40
370
    50
100
AcDbVertex
100
AcDb2dVertex
 10
81.04052
 20
21.924274
 30
0.0
  0
VERTEX
  5
47B
330
46E
100
AcDbEntity
  8
001
 62
    40
370
    50
100
AcDbVertex
100
AcDb2dVertex
 10
80.873164
 20
21.923347
 30
0.0
  0
VERTEX
  5
47C
330
46E
100
AcDbEntity
  8
001
 62
    40
370
    50
100
AcDbVertex
100
AcDb2dVertex
 10
80.710499
 20
21.909688
 30
0.0
  0
VERTEX
  5
47D
330
46E
100
AcDbEntity
  8
001
 62
    40
370
    50
100
AcDbVertex
100
AcDb2dVertex
 10
80.554148
 20
21.88407
 30
0.0
  0
VERTEX
  5
47E
330
46E
100
AcDbEntity
  8
001
 62
    40
370
    50
100
AcDbVertex
100
AcDb2dVertex
 10
80.388313
 20
21.837796
 30
0.0
  0
VERTEX
  5
47F
330
46E
100
AcDbEntity
  8
001
 62
    40
370
    50
100
AcDbVertex
100
AcDb2dVertex
 10
80.210006
 20
21.7688
 30
0.0
  0
VERTEX
  5
480
330
46E
100
AcDbEntity
  8
001
 62
    40
370
    50
100
AcDbVertex
100
AcDb2dVertex
 10
80.083752
 20
21.710781
 30
0.0
  0
SEQEND
  5
46F
330
46E
100
AcDbEntity
  8
001
370
    50
  0
LINE
  5
481
330
1F
100
AcDbEntity
  8
001
 62
    40
370
    50
100
AcDbLine
 10
83.470074
 20
24.710086
 30
0.0
 11
82.245133
 21
25.945825
 31
0.0
  0
LINE
  5
482
330
1F
100
AcDbEntity
  8
001
 62
    40
370
    50
100
AcDbLine
 10
87.258359
 20
19.758585
 30
0.0
 11
87.258359
 21
20.453117
 31
0.0
  0
POLYLINE
  5
483
330
1F
100
AcDbEntity
  8
001
 62
    40
370
    50
100
AcDb2dPolyline
 66
     1
 10
0.0
 20
0.0
 30
0.0
  0
VERTEX
  5
485
330
483
100
AcDbEntity
  8
001
 62
    40
370
    50
100
AcDbVertex
100
AcDb2dVertex
 10
87.025203
 20
19.194893
 30
0.0
  0
VERTEX
  5
486
330
483
100
AcDbEntity
  8
001
 62
    40
370
    50
100
AcDbVertex
100
AcDb2dVertex
 10
87.036443
 20
19.206442
 30
0.0
  0
VERTEX
  5
487
330
483
100
AcDbEntity
  8
001
 62
    40
370
    50
100
AcDbVertex
100
AcDb2dVertex
 10
87.052206
 20
19.22322
 30
0.0
  0
VERTEX
  5
488
330
483
100
AcDbEntity
  8
001
 62
    40
370
    50
100
AcDbVertex
100
AcDb2dVertex
 10
87.099972
 20
19.280562
 30
0.0
  0
VERTEX
  5
489
330
483
100
AcDbEntity
  8
001
 62
    40
370
    50
100
AcDbVertex
100
AcDb2dVertex
 10
87.136063
 20
19.333733
 30
0.0
  0
VERTEX
  5
48A
330
483
100
AcDbEntity
  8
001
 62
    40
370
    50
100
AcDbVertex
100
AcDb2dVertex
 10
87.219577
 20
19.506774
 30
0.0
  0
VERTEX
  5
48B
330
483
100
AcDbEntity
  8
001
 62
    40
370
    50
100
AcDbVertex
100
AcDb2dVertex
 10
87.257782
 20
19.728187
 30
0.0
  0
VERTEX
  5
48C
330
483
100
AcDbEntity
  8
001
 62
    40
370
    50
100
AcDbVertex
100
AcDb2dVertex
 10
87.258224
 20
19.746183
 30
0.0
  0
VERTEX
  5
48D
330
483
100
AcDbEntity
  8
001
 62
    40
370
    50
100
AcDbVertex
100
AcDb2dVertex
 10
87.258359
 20
19.758585
 30
0.0
  0
SEQEND
  5
484
330
483
100
AcDbEntity
  8
001
370
    50
  0
LINE
  5
48E
330
1F
100
AcDbEntity
  8
001
 62
    40
370
    50
100
AcDbLine
 10
82.245133
 20
14.422625
 30
0.0
 11
87.025203
 21
19.194893
 31
0.0
  0
POLYLINE
  5
48F
330
1F
100
AcDbEntity
  8
001
 62
    40
370
    50
100
AcDb2dPolyline
 66
     1
 10
0.0
 20
0.0
 30
0.0
  0
VERTEX
  5
491
330
48F
100
AcDbEntity
  8
001
 62
    40
370
    50
100
AcDbVertex
100
AcDb2dVertex
 10
82.245133
 20
25.945825
 30
0.0
  0
VERTEX
  5
492
330
48F
100
AcDbEntity
  8
001
 62
    40
370
    50
100
AcDbVertex
100
AcDb2dVertex
 10
82.188758
 20
25.994942
 30
0.0
  0
VERTEX
  5
493
330
48F
100
AcDbEntity
  8
001
 62
    40
370
    50
100
AcDbVertex
100
AcDb2dVertex
 10
82.106213
 20
26.057809
 30
0.0
  0
VERTEX
  5
494
330
48F
100
AcDbEntity
  8
001
 62
    40
370
    50
100
AcDbVertex
100
AcDb2dVertex
 10
81.924402
 20
26.152032
 30
0.0
  0
VERTEX
  5
495
330
48F
100
AcDbEntity
  8
001
 62
    40
370
    50
100
AcDbVertex
100
AcDb2dVertex
 10
81.712538
 20
26.182022
 30
0.0
  0
VERTEX
  5
496
330
48F
100
AcDbEntity
  8
001
 62
    40
370
    50
100
AcDbVertex
100
AcDb2dVertex
 10
81.694627
 20
26.182535
 30
0.0
  0
VERTEX
  5
497
330
48F
100
AcDbEntity
  8
001
 62
    40
370
    50
100
AcDbVertex
100
AcDb2dVertex
 10
81.682245
 20
26.182759
 30
0.0
  0
SEQEND
  5
490
330
48F
100
AcDbEntity
  8
001
370
    50
  0
LINE
  5
498
330
1F
100
AcDbEntity
  8
001
 62
    40
370
    50
100
AcDbLine
 10
81.682245
 20
26.182759
 30
0.0
 11
80.886201
 21
26.186917
 31
0.0
  0
POLYLINE
  5
499
330
1F
100
AcDbEntity
  8
001
 62
    40
370
    50
100
AcDb2dPolyline
 66
     1
 10
0.0
 20
0.0
 30
0.0
  0
VERTEX
  5
49B
330
499
100
AcDbEntity
  8
001
 62
    40
370
    50
100
AcDbVertex
100
AcDb2dVertex
 10
80.198864
 20
25.930919
 30
0.0
  0
VERTEX
  5
49C
330
499
100
AcDbEntity
  8
001
 62
    40
370
    50
100
AcDbVertex
100
AcDb2dVertex
 10
80.149994
 20
25.902699
 30
0.0
  0
VERTEX
  5
49D
330
499
100
AcDbEntity
  8
001
 62
    40
370
    50
100
AcDbVertex
100
AcDb2dVertex
 10
80.082252
 20
25.856052
 30
0.0
  0
VERTEX
  5
49E
330
499
100
AcDbEntity
  8
001
 62
    40
370
    50
100
AcDbVertex
100
AcDb2dVertex
 10
80.036974
 20
25.818041
 30
0.0
  0
VERTEX
  5
49F
330
499
100
AcDbEntity
  8
001
 62
    40
370
    50
100
AcDbVertex
100
AcDb2dVertex
 10
80.007475
 20
25.790259
 30
0.0
  0
SEQEND
  5
49A
330
499
100
AcDbEntity
  8
001
370
    50
  0
LINE
  5
4A0
330
1F
100
AcDbEntity
  8
001
 62
    40
370
    50
100
AcDbLine
 10
80.514701
 20
26.096525
 30
0.0
 11
80.198864
 21
25.930919
 31
0.0
  0
POLYLINE
  5
4A1
330
1F
100
AcDbEntity
  8
001
 62
    40
370
    50
100
AcDb2dPolyline
 66
     1
 10
0.0
 20
0.0
 30
0.0
  0
VERTEX
  5
4A3
330
4A1
100
AcDbEntity
  8
001
 62
    40
370
    50
100
AcDbVertex
100
AcDb2dVertex
 10
80.886201
 20
26.186917
 30
0.0
  0
VERTEX
  5
4A4
330
4A1
100
AcDbEntity
  8
001
 62
    40
370
    50
100
AcDbVertex
100
AcDb2dVertex
 10
80.840395
 20
26.185113
 30
0.0
  0
VERTEX
  5
4A5
330
4A1
100
AcDbEntity
  8
001
 62
    40
370
    50
100
AcDbVertex
100
AcDb2dVertex
 10
80.777901
 20
26.180055
 30
0.0
  0
VERTEX
  5
4A6
330
4A1
100
AcDbEntity
  8
001
 62
    40
370
    50
100
AcDbVertex
100
AcDb2dVertex
 10
80.708858
 20
26.169246
 30
0.0
  0
VERTEX
  5
4A7
330
4A1
100
AcDbEntity
  8
001
 62
    40
370
    50
100
AcDbVertex
100
AcDb2dVertex
 10
80.6426
 20
26.149864
 30
0.0
  0
VERTEX
  5
4A8
330
4A1
100
AcDbEntity
  8
001
 62
    40
370
    50
100
AcDbVertex
100
AcDb2dVertex
 10
80.568397
 20
26.1209
 30
0.0
  0
VERTEX
  5
4A9
330
4A1
100
AcDbEntity
  8
001
 62
    40
370
    50
100
AcDbVertex
100
AcDb2dVertex
 10
80.514701
 20
26.096525
 30
0.0
  0
SEQEND
  5
4A2
330
4A1
100
AcDbEntity
  8
001
370
    50
  0
POLYLINE
  5
4AA
330
1F
100
AcDbEntity
  8
001
 62
    40
370
    50
100
AcDb2dPolyline
 66
     1
 10
0.0
 20
0.0
 30
0.0
  0
VERTEX
  5
4AC
330
4AA
100
AcDbEntity
  8
001
 62
    40
370
    50
100
AcDbVertex
100
AcDb2dVertex
 10
80.245604
 20
21.786082
 30
0.0
  0
VERTEX
  5
4AD
330
4AA
100
AcDbEntity
  8
001
 62
    40
370
    50
100
AcDbVertex
100
AcDb2dVertex
 10
80.19367
 20
21.750392
 30
0.0
  0
VERTEX
  5
4AE
330
4AA
100
AcDbEntity
  8
001
 62
    40
370
    50
100
AcDbVertex
100
AcDb2dVertex
 10
80.121908
 20
21.698109
 30
0.0
  0
VERTEX
  5
4AF
330
4AA
100
AcDbEntity
  8
001
 62
    40
370
    50
100
AcDbVertex
100
AcDb2dVertex
 10
79.987937
 20
21.586188
 30
0.0
  0
VERTEX
  5
4B0
330
4AA
100
AcDbEntity
  8
001
 62
    40
370
    50
100
AcDbVertex
100
AcDb2dVertex
 10
79.879542
 20
21.473986
 30
0.0
  0
VERTEX
  5
4B1
330
4AA
100
AcDbEntity
  8
001
 62
    40
370
    50
100
AcDbVertex
100
AcDb2dVertex
 10
79.776293
 20
21.348495
 30
0.0
  0
VERTEX
  5
4B2
330
4AA
100
AcDbEntity
  8
001
 62
    40
370
    50
100
AcDbVertex
100
AcDb2dVertex
 10
79.679858
 20
21.210826
 30
0.0
  0
VERTEX
  5
4B3
330
4AA
100
AcDbEntity
  8
001
 62
    40
370
    50
100
AcDbVertex
100
AcDb2dVertex
 10
79.472047
 20
20.75901
 30
0.0
  0
VERTEX
  5
4B4
330
4AA
100
AcDbEntity
  8
001
 62
    40
370
    50
100
AcDbVertex
100
AcDb2dVertex
 10
79.390015
 20
20.271533
 30
0.0
  0
VERTEX
  5
4B5
330
4AA
100
AcDbEntity
  8
001
 62
    40
370
    50
100
AcDbVertex
100
AcDb2dVertex
 10
79.406541
 20
19.939765
 30
0.0
  0
VERTEX
  5
4B6
330
4AA
100
AcDbEntity
  8
001
 62
    40
370
    50
100
AcDbVertex
100
AcDb2dVertex
 10
79.479578
 20
19.616515
 30
0.0
  0
VERTEX
  5
4B7
330
4AA
100
AcDbEntity
  8
001
 62
    40
370
    50
100
AcDbVertex
100
AcDb2dVertex
 10
79.537013
 20
19.460512
 30
0.0
  0
VERTEX
  5
4B8
330
4AA
100
AcDbEntity
  8
001
 62
    40
370
    50
100
AcDbVertex
100
AcDb2dVertex
 10
79.607724
 20
19.310191
 30
0.0
  0
VERTEX
  5
4B9
330
4AA
100
AcDbEntity
  8
001
 62
    40
370
    50
100
AcDbVertex
100
AcDb2dVertex
 10
79.691154
 20
19.16654
 30
0.0
  0
VERTEX
  5
4BA
330
4AA
100
AcDbEntity
  8
001
 62
    40
370
    50
100
AcDbVertex
100
AcDb2dVertex
 10
79.786808
 20
19.030577
 30
0.0
  0
VERTEX
  5
4BB
330
4AA
100
AcDbEntity
  8
001
 62
    40
370
    50
100
AcDbVertex
100
AcDb2dVertex
 10
80.011156
 20
18.786665
 30
0.0
  0
VERTEX
  5
4BC
330
4AA
100
AcDbEntity
  8
001
 62
    40
370
    50
100
AcDbVertex
100
AcDb2dVertex
 10
80.274649
 20
18.584391
 30
0.0
  0
VERTEX
  5
4BD
330
4AA
100
AcDbEntity
  8
001
 62
    40
370
    50
100
AcDbVertex
100
AcDb2dVertex
 10
80.722269
 20
18.374631
 30
0.0
  0
VERTEX
  5
4BE
330
4AA
100
AcDbEntity
  8
001
 62
    40
370
    50
100
AcDbVertex
100
AcDb2dVertex
 10
81.212089
 20
18.28861
 30
0.0
  0
VERTEX
  5
4BF
330
4AA
100
AcDbEntity
  8
001
 62
    40
370
    50
100
AcDbVertex
100
AcDb2dVertex
 10
81.38017
 20
18.289638
 30
0.0
  0
VERTEX
  5
4C0
330
4AA
100
AcDbEntity
  8
001
 62
    40
370
    50
100
AcDbVertex
100
AcDb2dVertex
 10
81.54211
 20
18.303196
 30
0.0
  0
VERTEX
  5
4C1
330
4AA
100
AcDbEntity
  8
001
 62
    40
370
    50
100
AcDbVertex
100
AcDb2dVertex
 10
81.696046
 20
18.328543
 30
0.0
  0
VERTEX
  5
4C2
330
4AA
100
AcDbEntity
  8
001
 62
    40
370
    50
100
AcDbVertex
100
AcDb2dVertex
 10
81.864296
 20
18.375088
 30
0.0
  0
VERTEX
  5
4C3
330
4AA
100
AcDbEntity
  8
001
 62
    40
370
    50
100
AcDbVertex
100
AcDb2dVertex
 10
81.948113
 20
18.404382
 30
0.0
  0
VERTEX
  5
4C4
330
4AA
100
AcDbEntity
  8
001
 62
    40
370
    50
100
AcDbVertex
100
AcDb2dVertex
 10
82.007005
 20
18.426801
 30
0.0
  0
SEQEND
  5
4AB
330
4AA
100
AcDbEntity
  8
001
370
    50
  0
POLYLINE
  5
4C5
330
1F
100
AcDbEntity
  8
001
 62
    40
370
    50
100
AcDb2dPolyline
 66
     1
 10
0.0
 20
0.0
 30
0.0
  0
VERTEX
  5
4C7
330
4C5
100
AcDbEntity
  8
001
 62
    40
370
    50
100
AcDbVertex
100
AcDb2dVertex
 10
81.85302
 20
18.336497
 30
0.0
  0
VERTEX
  5
4C8
330
4C5
100
AcDbEntity
  8
001
 62
    40
370
    50
100
AcDbVertex
100
AcDb2dVertex
 10
81.972543
 20
18.407437
 30
0.0
  0
VERTEX
  5
4C9
330
4C5
100
AcDbEntity
  8
001
 62
    40
370
    50
100
AcDbVertex
100
AcDb2dVertex
 10
82.130701
 20
18.514775
 30
0.0
  0
VERTEX
  5
4CA
330
4C5
100
AcDbEntity
  8
001
 62
    40
370
    50
100
AcDbVertex
100
AcDb2dVertex
 10
82.26308
 20
18.624424
 30
0.0
  0
VERTEX
  5
4CB
330
4C5
100
AcDbEntity
  8
001
 62
    40
370
    50
100
AcDbVertex
100
AcDb2dVertex
 10
82.373066
 20
18.738898
 30
0.0
  0
VERTEX
  5
4CC
330
4C5
100
AcDbEntity
  8
001
 62
    40
370
    50
100
AcDbVertex
100
AcDb2dVertex
 10
82.476796
 20
18.866598
 30
0.0
  0
VERTEX
  5
4CD
330
4C5
100
AcDbEntity
  8
001
 62
    40
370
    50
100
AcDbVertex
100
AcDb2dVertex
 10
82.572751
 20
19.002058
 30
0.0
  0
VERTEX
  5
4CE
330
4C5
100
AcDbEntity
  8
001
 62
    40
370
    50
100
AcDbVertex
100
AcDb2dVertex
 10
82.780037
 20
19.421549
 30
0.0
  0
VERTEX
  5
4CF
330
4C5
100
AcDbEntity
  8
001
 62
    40
370
    50
100
AcDbVertex
100
AcDb2dVertex
 10
82.862594
 20
19.941351
 30
0.0
  0
VERTEX
  5
4D0
330
4C5
100
AcDbEntity
  8
001
 62
    40
370
    50
100
AcDbVertex
100
AcDb2dVertex
 10
82.863625
 20
19.984187
 30
0.0
  0
VERTEX
  5
4D1
330
4C5
100
AcDbEntity
  8
001
 62
    40
370
    50
100
AcDbVertex
100
AcDb2dVertex
 10
82.863967
 20
20.013737
 30
0.0
  0
SEQEND
  5
4C6
330
4C5
100
AcDbEntity
  8
001
370
    50
  0
POLYLINE
  5
4D2
330
1F
100
AcDbEntity
  8
001
 62
    40
370
    50
100
AcDb2dPolyline
 66
     1
 10
0.0
 20
0.0
 30
0.0
  0
VERTEX
  5
4D4
330
4D2
100
AcDbEntity
  8
001
 62
    40
370
    50
100
AcDbVertex
100
AcDb2dVertex
 10
80.083752
 20
21.710781
 30
0.0
  0
VERTEX
  5
4D5
330
4D2
100
AcDbEntity
  8
001
 62
    40
370
    50
100
AcDbVertex
100
AcDb2dVertex
 10
79.964229
 20
21.639928
 30
0.0
  0
VERTEX
  5
4D6
330
4D2
100
AcDbEntity
  8
001
 62
    40
370
    50
100
AcDbVertex
100
AcDb2dVertex
 10
79.806071
 20
21.532504
 30
0.0
  0
VERTEX
  5
4D7
330
4D2
100
AcDbEntity
  8
001
 62
    40
370
    50
100
AcDbVertex
100
AcDb2dVertex
 10
79.673691
 20
21.422418
 30
0.0
  0
VERTEX
  5
4D8
330
4D2
100
AcDbEntity
  8
001
 62
    40
370
    50
100
AcDbVertex
100
AcDb2dVertex
 10
79.563706
 20
21.30838
 30
0.0
  0
VERTEX
  5
4D9
330
4D2
100
AcDbEntity
  8
001
 62
    40
370
    50
100
AcDbVertex
100
AcDb2dVertex
 10
79.459978
 20
21.182338
 30
0.0
  0
VERTEX
  5
4DA
330
4D2
100
AcDbEntity
  8
001
 62
    40
370
    50
100
AcDbVertex
100
AcDb2dVertex
 10
79.364021
 20
21.04522
 30
0.0
  0
VERTEX
  5
4DB
330
4D2
100
AcDbEntity
  8
001
 62
    40
370
    50
100
AcDbVertex
100
AcDb2dVertex
 10
79.156689
 20
20.593957
 30
0.0
  0
VERTEX
  5
4DC
330
4D2
100
AcDbEntity
  8
001
 62
    40
370
    50
100
AcDbVertex
100
AcDb2dVertex
 10
79.074178
 20
20.105928
 30
0.0
  0
VERTEX
  5
4DD
330
4D2
100
AcDbEntity
  8
001
 62
    40
370
    50
100
AcDbVertex
100
AcDb2dVertex
 10
79.090639
 20
19.774083
 30
0.0
  0
VERTEX
  5
4DE
330
4D2
100
AcDbEntity
  8
001
 62
    40
370
    50
100
AcDbVertex
100
AcDb2dVertex
 10
79.163741
 20
19.45091
 30
0.0
  0
VERTEX
  5
4DF
330
4D2
100
AcDbEntity
  8
001
 62
    40
370
    50
100
AcDbVertex
100
AcDb2dVertex
 10
79.22118
 20
19.294914
 30
0.0
  0
VERTEX
  5
4E0
330
4D2
100
AcDbEntity
  8
001
 62
    40
370
    50
100
AcDbVertex
100
AcDb2dVertex
 10
79.291887
 20
19.144586
 30
0.0
  0
VERTEX
  5
4E1
330
4D2
100
AcDbEntity
  8
001
 62
    40
370
    50
100
AcDbVertex
100
AcDb2dVertex
 10
79.375325
 20
19.000933
 30
0.0
  0
VERTEX
  5
4E2
330
4D2
100
AcDbEntity
  8
001
 62
    40
370
    50
100
AcDbVertex
100
AcDb2dVertex
 10
79.470972
 20
18.864971
 30
0.0
  0
VERTEX
  5
4E3
330
4D2
100
AcDbEntity
  8
001
 62
    40
370
    50
100
AcDbVertex
100
AcDb2dVertex
 10
79.695219
 20
18.62105
 30
0.0
  0
VERTEX
  5
4E4
330
4D2
100
AcDbEntity
  8
001
 62
    40
370
    50
100
AcDbVertex
100
AcDb2dVertex
 10
79.958812
 20
18.418786
 30
0.0
  0
VERTEX
  5
4E5
330
4D2
100
AcDbEntity
  8
001
 62
    40
370
    50
100
AcDbVertex
100
AcDb2dVertex
 10
80.407159
 20
18.209105
 30
0.0
  0
VERTEX
  5
4E6
330
4D2
100
AcDbEntity
  8
001
 62
    40
370
    50
100
AcDbVertex
100
AcDb2dVertex
 10
80.896252
 20
18.123005
 30
0.0
  0
VERTEX
  5
4E7
330
4D2
100
AcDbEntity
  8
001
 62
    40
370
    50
100
AcDbVertex
100
AcDb2dVertex
 10
81.063608
 20
18.123953
 30
0.0
  0
VERTEX
  5
4E8
330
4D2
100
AcDbEntity
  8
001
 62
    40
370
    50
100
AcDbVertex
100
AcDb2dVertex
 10
81.226273
 20
18.13759
 30
0.0
  0
VERTEX
  5
4E9
330
4D2
100
AcDbEntity
  8
001
 62
    40
370
    50
100
AcDbVertex
100
AcDb2dVertex
 10
81.382624
 20
18.163203
 30
0.0
  0
VERTEX
  5
4EA
330
4D2
100
AcDbEntity
  8
001
 62
    40
370
    50
100
AcDbVertex
100
AcDb2dVertex
 10
81.548459
 20
18.209483
 30
0.0
  0
VERTEX
  5
4EB
330
4D2
100
AcDbEntity
  8
001
 62
    40
370
    50
100
AcDbVertex
100
AcDb2dVertex
 10
81.726766
 20
18.27848
 30
0.0
  0
VERTEX
  5
4EC
330
4D2
100
AcDbEntity
  8
001
 62
    40
370
    50
100
AcDbVertex
100
AcDb2dVertex
 10
81.85302
 20
18.336497
 30
0.0
  0
SEQEND
  5
4D3
330
4D2
100
AcDbEntity
  8
001
370
    50
  0
POLYLINE
  5
4ED
330
1F
100
AcDbEntity
  8
001
 62
    40
370
    50
100
AcDb2dPolyline
 66
     1
 10
0.0
 20
0.0
 30
0.0
  0
VERTEX
  5
4EF
330
4ED
100
AcDbEntity
  8
001
 62
    40
370
    50
100
AcDbVertex
100
AcDb2dVertex
 10
82.053745
 20
14.281965
 30
0.0
  0
VERTEX
  5
4F0
330
4ED
100
AcDbEntity
  8
001
 62
    40
370
    50
100
AcDbVertex
100
AcDb2dVertex
 10
82.102606
 20
14.310178
 30
0.0
  0
VERTEX
  5
4F1
330
4ED
100
AcDbEntity
  8
001
 62
    40
370
    50
100
AcDbVertex
100
AcDb2dVertex
 10
82.170356
 20
14.356832
 30
0.0
  0
VERTEX
  5
4F2
330
4ED
100
AcDbEntity
  8
001
 62
    40
370
    50
100
AcDbVertex
100
AcDb2dVertex
 10
82.193865
 20
14.375799
 30
0.0
  0
VERTEX
  5
4F3
330
4ED
100
AcDbEntity
  8
001
 62
    40
370
    50
100
AcDbVertex
100
AcDb2dVertex
 10
82.209575
 20
14.389249
 30
0.0
  0
SEQEND
  5
4EE
330
4ED
100
AcDbEntity
  8
001
370
    50
  0
POLYLINE
  5
4F4
330
1F
100
AcDbEntity
  8
001
 62
    40
370
    50
100
AcDb2dPolyline
 66
     1
 10
0.0
 20
0.0
 30
0.0
  0
VERTEX
  5
4F6
330
4F4
100
AcDbEntity
  8
001
 62
    40
370
    50
100
AcDbVertex
100
AcDb2dVertex
 10
82.209575
 20
14.389249
 30
0.0
  0
VERTEX
  5
4F7
330
4F4
100
AcDbEntity
  8
001
 62
    40
370
    50
100
AcDbVertex
100
AcDb2dVertex
 10
82.216957
 20
14.395856
 30
0.0
  0
VERTEX
  5
4F8
330
4F4
100
AcDbEntity
  8
001
 62
    40
370
    50
100
AcDbVertex
100
AcDb2dVertex
 10
82.227611
 20
14.405662
 30
0.0
  0
VERTEX
  5
4F9
330
4F4
100
AcDbEntity
  8
001
 62
    40
370
    50
100
AcDbVertex
100
AcDb2dVertex
 10
82.238072
 20
14.415675
 30
0.0
  0
VERTEX
  5
4FA
330
4F4
100
AcDbEntity
  8
001
 62
    40
370
    50
100
AcDbVertex
100
AcDb2dVertex
 10
82.245133
 20
14.422625
 30
0.0
  0
SEQEND
  5
4F5
330
4F4
100
AcDbEntity
  8
001
370
    50
  0
POLYLINE
  5
4FB
330
1F
100
AcDbEntity
  8
001
 62
    40
370
    50
100
AcDb2dPolyline
 66
     1
 10
0.0
 20
0.0
 30
0.0
  0
VERTEX
  5
4FD
330
4FB
100
AcDbEntity
  8
001
 62
    40
370
    50
100
AcDbVertex
100
AcDb2dVertex
 10
81.737908
 20
14.116359
 30
0.0
  0
VERTEX
  5
4FE
330
4FB
100
AcDbEntity
  8
001
 62
    40
370
    50
100
AcDbVertex
100
AcDb2dVertex
 10
81.786778
 20
14.14458
 30
0.0
  0
VERTEX
  5
4FF
330
4FB
100
AcDbEntity
  8
001
 62
    40
370
    50
100
AcDbVertex
100
AcDb2dVertex
 10
81.85452
 20
14.191227
 30
0.0
  0
VERTEX
  5
500
330
4FB
100
AcDbEntity
  8
001
 62
    40
370
    50
100
AcDbVertex
100
AcDb2dVertex
 10
81.899798
 20
14.229238
 30
0.0
  0
VERTEX
  5
501
330
4FB
100
AcDbEntity
  8
001
 62
    40
370
    50
100
AcDbVertex
100
AcDb2dVertex
 10
81.929297
 20
14.25702
 30
0.0
  0
SEQEND
  5
4FC
330
4FB
100
AcDbEntity
  8
001
370
    50
  0
LINE
  5
502
330
1F
100
AcDbEntity
  8
001
 62
    40
370
    50
100
AcDbLine
 10
81.737908
 20
14.116359
 30
0.0
 11
82.053745
 21
14.281965
 31
0.0
  0
LINE
  5
503
330
1F
100
AcDbEntity
  8
001
 62
   200
370
    50
100
AcDbLine
 10
75.99425
 20
62.172776
 30
0.0
 11
78.49425
 21
64.043598
 31
0.0
  0
LINE
  5
504
330
1F
100
AcDbEntity
  8
001
 62
   200
370
    50
100
AcDbLine
 10
75.99425
 20
46.084236
 30
0.0
 11
75.99425
 21
62.172776
 31
0.0
  0
LINE
  5
505
330
1F
100
AcDbEntity
  8
001
 62
   200
370
    50
100
AcDbLine
 10
75.99425
 20
106.172776
 30
0.0
 11
78.49425
 21
105.543598
 31
0.0
  0
POLYLINE
  5
506
330
1F
100
AcDbEntity
  8
001
 62
   200
370
    50
100
AcDb2dPolyline
 66
     1
 10
0.0
 20
0.0
 30
0.0
  0
VERTEX
  5
508
330
506
100
AcDbEntity
  8
001
 62
   200
370
    50
100
AcDbVertex
100
AcDb2dVertex
 10
78.493077
 20
107.772194
 30
0.0
  0
VERTEX
  5
509
330
506
100
AcDbEntity
  8
001
 62
   200
370
    50
100
AcDbVertex
100
AcDb2dVertex
 10
77.52397
 20
107.454639
 30
0.0
  0
VERTEX
  5
50A
330
506
100
AcDbEntity
  8
001
 62
   200
370
    50
100
AcDbVertex
100
AcDb2dVertex
 10
76.556925
 20
107.130967
 30
0.0
  0
VERTEX
  5
50B
330
506
100
AcDbEntity
  8
001
 62
   200
370
    50
100
AcDbVertex
100
AcDb2dVertex
 10
76.2755
 20
107.034636
 30
0.0
  0
VERTEX
  5
50C
330
506
100
AcDbEntity
  8
001
 62
   200
370
    50
100
AcDbVertex
100
AcDb2dVertex
 10
75.99425
 20
106.937784
 30
0.0
  0
SEQEND
  5
507
330
506
100
AcDbEntity
  8
001
370
    50
  0
LINE
  5
50D
330
1F
100
AcDbEntity
  8
001
 62
   200
370
    50
100
AcDbLine
 10
75.99425
 20
95.932063
 30
0.0
 11
75.99425
 21
106.937784
 31
0.0
  0
LINE
  5
50E
330
1F
100
AcDbEntity
  8
001
 62
    40
370
    50
100
AcDbLine
 10
75.99425
 20
96.878555
 30
0.0
 11
75.543243
 21
97.163165
 31
0.0
  0
POLYLINE
  5
50F
330
1F
100
AcDbEntity
  8
001
 62
    40
370
    50
100
AcDb2dPolyline
 66
     1
 10
0.0
 20
0.0
 30
0.0
  0
VERTEX
  5
511
330
50F
100
AcDbEntity
  8
001
 62
    40
370
    50
100
AcDbVertex
100
AcDb2dVertex
 10
75.310087
 20
97.490777
 30
0.0
  0
VERTEX
  5
512
330
50F
100
AcDbEntity
  8
001
 62
    40
370
    50
100
AcDbVertex
100
AcDb2dVertex
 10
75.311293
 20
97.47058
 30
0.0
  0
VERTEX
  5
513
330
50F
100
AcDbEntity
  8
001
 62
    40
370
    50
100
AcDbVertex
100
AcDb2dVertex
 10
75.314909
 20
97.442489
 30
0.0
  0
VERTEX
  5
514
330
50F
100
AcDbEntity
  8
001
 62
    40
370
    50
100
AcDbVertex
100
AcDb2dVertex
 10
75.326077
 20
97.40089
 30
0.0
  0
VERTEX
  5
515
330
50F
100
AcDbEntity
  8
001
 62
    40
370
    50
100
AcDbVertex
100
AcDb2dVertex
 10
75.342121
 20
97.365736
 30
0.0
  0
VERTEX
  5
516
330
50F
100
AcDbEntity
  8
001
 62
    40
370
    50
100
AcDbVertex
100
AcDb2dVertex
 10
75.364186
 20
97.328201
 30
0.0
  0
VERTEX
  5
517
330
50F
100
AcDbEntity
  8
001
 62
    40
370
    50
100
AcDbVertex
100
AcDb2dVertex
 10
75.392548
 20
97.290758
 30
0.0
  0
VERTEX
  5
518
330
50F
100
AcDbEntity
  8
001
 62
    40
370
    50
100
AcDbVertex
100
AcDb2dVertex
 10
75.475155
 20
97.213057
 30
0.0
  0
VERTEX
  5
519
330
50F
100
AcDbEntity
  8
001
 62
    40
370
    50
100
AcDbVertex
100
AcDb2dVertex
 10
75.543243
 20
97.163165
 30
0.0
  0
SEQEND
  5
510
330
50F
100
AcDbEntity
  8
001
370
    50
  0
LINE
  5
51A
330
1F
100
AcDbEntity
  8
001
 62
    40
370
    50
100
AcDbLine
 10
75.310087
 20
97.490777
 30
0.0
 11
75.310087
 21
97.926488
 31
0.0
  0
POLYLINE
  5
51B
330
1F
100
AcDbEntity
  8
001
 62
    40
370
    50
100
AcDb2dPolyline
 66
     1
 10
0.0
 20
0.0
 30
0.0
  0
VERTEX
  5
51D
330
51B
100
AcDbEntity
  8
001
 62
    40
370
    50
100
AcDbVertex
100
AcDb2dVertex
 10
75.311738
 20
97.954395
 30
0.0
  0
VERTEX
  5
51E
330
51B
100
AcDbEntity
  8
001
 62
    40
370
    50
100
AcDbVertex
100
AcDb2dVertex
 10
75.311145
 20
97.94875
 30
0.0
  0
VERTEX
  5
51F
330
51B
100
AcDbEntity
  8
001
 62
    40
370
    50
100
AcDbVertex
100
AcDb2dVertex
 10
75.3105
 20
97.940483
 30
0.0
  0
VERTEX
  5
520
330
51B
100
AcDbEntity
  8
001
 62
    40
370
    50
100
AcDbVertex
100
AcDb2dVertex
 10
75.310164
 20
97.932178
 30
0.0
  0
VERTEX
  5
521
330
51B
100
AcDbEntity
  8
001
 62
    40
370
    50
100
AcDbVertex
100
AcDb2dVertex
 10
75.310087
 20
97.926488
 30
0.0
  0
SEQEND
  5
51C
330
51B
100
AcDbEntity
  8
001
370
    50
  0
LINE
  5
522
330
1F
100
AcDbEntity
  8
001
 62
    40
370
    50
100
AcDbLine
 10
75.543243
 20
98.215065
 30
0.0
 11
75.99425
 21
98.424168
 31
0.0
  0
POLYLINE
  5
523
330
1F
100
AcDbEntity
  8
001
 62
    40
370
    50
100
AcDb2dPolyline
 66
     1
 10
0.0
 20
0.0
 30
0.0
  0
VERTEX
  5
525
330
523
100
AcDbEntity
  8
001
 62
    40
370
    50
100
AcDbVertex
100
AcDb2dVertex
 10
74.99425
 20
94.836991
 30
0.0
  0
VERTEX
  5
526
330
523
100
AcDbEntity
  8
001
 62
    40
370
    50
100
AcDbVertex
100
AcDb2dVertex
 10
74.995195
 20
94.817246
 30
0.0
  0
VERTEX
  5
527
330
523
100
AcDbEntity
  8
001
 62
    40
370
    50
100
AcDbVertex
100
AcDb2dVertex
 10
74.999072
 20
94.788703
 30
0.0
  0
VERTEX
  5
528
330
523
100
AcDbEntity
  8
001
 62
    40
370
    50
100
AcDbVertex
100
AcDb2dVertex
 10
75.002661
 20
94.773207
 30
0.0
  0
VERTEX
  5
529
330
523
100
AcDbEntity
  8
001
 62
    40
370
    50
100
AcDbVertex
100
AcDb2dVertex
 10
75.005604
 20
94.762714
 30
0.0
  0
SEQEND
  5
524
330
523
100
AcDbEntity
  8
001
370
    50
  0
LINE
  5
52A
330
1F
100
AcDbEntity
  8
001
 62
    40
370
    50
100
AcDbLine
 10
74.99425
 20
94.836991
 30
0.0
 11
74.99425
 21
95.272703
 31
0.0
  0
POLYLINE
  5
52B
330
1F
100
AcDbEntity
  8
001
 62
    40
370
    50
100
AcDb2dPolyline
 66
     1
 10
0.0
 20
0.0
 30
0.0
  0
VERTEX
  5
52D
330
52B
100
AcDbEntity
  8
001
 62
    40
370
    50
100
AcDbVertex
100
AcDb2dVertex
 10
75.543243
 20
98.215065
 30
0.0
  0
VERTEX
  5
52E
330
52B
100
AcDbEntity
  8
001
 62
    40
370
    50
100
AcDbVertex
100
AcDb2dVertex
 10
75.500161
 20
98.192436
 30
0.0
  0
VERTEX
  5
52F
330
52B
100
AcDbEntity
  8
001
 62
    40
370
    50
100
AcDbVertex
100
AcDb2dVertex
 10
75.443785
 20
98.156988
 30
0.0
  0
VERTEX
  5
530
330
52B
100
AcDbEntity
  8
001
 62
    40
370
    50
100
AcDbVertex
100
AcDb2dVertex
 10
75.407158
 20
98.127069
 30
0.0
  0
VERTEX
  5
531
330
52B
100
AcDbEntity
  8
001
 62
    40
370
    50
100
AcDbVertex
100
AcDb2dVertex
 10
75.37717
 20
98.095939
 30
0.0
  0
VERTEX
  5
532
330
52B
100
AcDbEntity
  8
001
 62
    40
370
    50
100
AcDbVertex
100
AcDb2dVertex
 10
75.353126
 20
98.065327
 30
0.0
  0
VERTEX
  5
533
330
52B
100
AcDbEntity
  8
001
 62
    40
370
    50
100
AcDbVertex
100
AcDb2dVertex
 10
75.332704
 20
98.027717
 30
0.0
  0
VERTEX
  5
534
330
52B
100
AcDbEntity
  8
001
 62
    40
370
    50
100
AcDbVertex
100
AcDb2dVertex
 10
75.318556
 20
97.985753
 30
0.0
  0
VERTEX
  5
535
330
52B
100
AcDbEntity
  8
001
 62
    40
370
    50
100
AcDbVertex
100
AcDb2dVertex
 10
75.311738
 20
97.954395
 30
0.0
  0
SEQEND
  5
52C
330
52B
100
AcDbEntity
  8
001
370
    50
  0
LINE
  5
536
330
1F
100
AcDbEntity
  8
001
 62
    40
370
    50
100
AcDbLine
 10
75.311738
 20
97.954395
 30
0.0
 11
74.995901
 21
95.300609
 31
0.0
  0
POLYLINE
  5
537
330
1F
100
AcDbEntity
  8
001
 62
    40
370
    50
100
AcDb2dPolyline
 66
     1
 10
0.0
 20
0.0
 30
0.0
  0
VERTEX
  5
539
330
537
100
AcDbEntity
  8
001
 62
    40
370
    50
100
AcDbVertex
100
AcDb2dVertex
 10
74.995901
 20
95.300609
 30
0.0
  0
VERTEX
  5
53A
330
537
100
AcDbEntity
  8
001
 62
    40
370
    50
100
AcDbVertex
100
AcDb2dVertex
 10
74.995308
 20
95.294965
 30
0.0
  0
VERTEX
  5
53B
330
537
100
AcDbEntity
  8
001
 62
    40
370
    50
100
AcDbVertex
100
AcDb2dVertex
 10
74.994663
 20
95.286698
 30
0.0
  0
VERTEX
  5
53C
330
537
100
AcDbEntity
  8
001
 62
    40
370
    50
100
AcDbVertex
100
AcDb2dVertex
 10
74.994327
 20
95.278392
 30
0.0
  0
VERTEX
  5
53D
330
537
100
AcDbEntity
  8
001
 62
    40
370
    50
100
AcDbVertex
100
AcDb2dVertex
 10
74.99425
 20
95.272703
 30
0.0
  0
SEQEND
  5
538
330
537
100
AcDbEntity
  8
001
370
    50
  0
LINE
  5
53E
330
1F
100
AcDbEntity
  8
001
 62
    40
370
    50
100
AcDbLine
 10
75.99425
 20
48.457575
 30
0.0
 11
75.543243
 21
48.291915
 31
0.0
  0
LINE
  5
53F
330
1F
100
AcDbEntity
  8
001
 62
    40
370
    50
100
AcDbLine
 10
75.311104
 20
48.0741
 30
0.0
 11
75.005604
 21
45.34698
 31
0.0
  0
POLYLINE
  5
540
330
1F
100
AcDbEntity
  8
001
 62
    40
370
    50
100
AcDb2dPolyline
 66
     1
 10
0.0
 20
0.0
 30
0.0
  0
VERTEX
  5
542
330
540
100
AcDbEntity
  8
001
 62
    40
370
    50
100
AcDbVertex
100
AcDb2dVertex
 10
75.543243
 20
48.291915
 30
0.0
  0
VERTEX
  5
543
330
540
100
AcDbEntity
  8
001
 62
    40
370
    50
100
AcDbVertex
100
AcDb2dVertex
 10
75.497638
 20
48.272727
 30
0.0
  0
VERTEX
  5
544
330
540
100
AcDbEntity
  8
001
 62
    40
370
    50
100
AcDbVertex
100
AcDb2dVertex
 10
75.437734
 20
48.241743
 30
0.0
  0
VERTEX
  5
545
330
540
100
AcDbEntity
  8
001
 62
    40
370
    50
100
AcDbVertex
100
AcDb2dVertex
 10
75.402433
 20
48.217477
 30
0.0
  0
VERTEX
  5
546
330
540
100
AcDbEntity
  8
001
 62
    40
370
    50
100
AcDbVertex
100
AcDb2dVertex
 10
75.372811
 20
48.191566
 30
0.0
  0
VERTEX
  5
547
330
540
100
AcDbEntity
  8
001
 62
    40
370
    50
100
AcDbVertex
100
AcDb2dVertex
 10
75.349771
 20
48.166678
 30
0.0
  0
VERTEX
  5
548
330
540
100
AcDbEntity
  8
001
 62
    40
370
    50
100
AcDbVertex
100
AcDb2dVertex
 10
75.330169
 20
48.135113
 30
0.0
  0
VERTEX
  5
549
330
540
100
AcDbEntity
  8
001
 62
    40
370
    50
100
AcDbVertex
100
AcDb2dVertex
 10
75.317185
 20
48.100315
 30
0.0
  0
VERTEX
  5
54A
330
540
100
AcDbEntity
  8
001
 62
    40
370
    50
100
AcDbVertex
100
AcDb2dVertex
 10
75.311104
 20
48.0741
 30
0.0
  0
SEQEND
  5
541
330
540
100
AcDbEntity
  8
001
370
    50
  0
LINE
  5
54B
330
1F
100
AcDbEntity
  8
001
 62
   200
370
    50
100
AcDbLine
 10
76.911641
 20
26.972238
 30
0.0
 11
78.865529
 21
25.576265
 31
0.0
  0
LINE
  5
54C
330
1F
100
AcDbEntity
  8
001
 62
   200
370
    50
100
AcDbLine
 10
78.49425
 20
32.054847
 30
0.0
 11
78.49425
 21
28.554847
 31
0.0
  0
LINE
  5
54D
330
1F
100
AcDbEntity
  8
001
 62
   200
370
    50
100
AcDbLine
 10
87.700361
 20
20.004404
 30
0.0
 11
93.49425
 21
25.724309
 31
0.0
  0
LINE
  5
54E
330
1F
100
AcDbEntity
  8
001
 62
   200
370
    50
100
AcDbLine
 10
83.503535
 20
24.264943
 30
0.0
 11
87.700361
 21
20.004404
 31
0.0
  0
POLYLINE
  5
54F
330
1F
100
AcDbEntity
  8
001
 62
   200
370
    50
100
AcDb2dPolyline
 66
     1
 10
0.0
 20
0.0
 30
0.0
  0
VERTEX
  5
551
330
54F
100
AcDbEntity
  8
001
 62
   200
370
    50
100
AcDbVertex
100
AcDb2dVertex
 10
83.503535
 20
24.264943
 30
0.0
  0
VERTEX
  5
552
330
54F
100
AcDbEntity
  8
001
 62
   200
370
    50
100
AcDbVertex
100
AcDb2dVertex
 10
83.479452
 20
24.585337
 30
0.0
  0
VERTEX
  5
553
330
54F
100
AcDbEntity
  8
001
 62
   200
370
    50
100
AcDbVertex
100
AcDb2dVertex
 10
83.400666
 20
25.011609
 30
0.0
  0
VERTEX
  5
554
330
54F
100
AcDbEntity
  8
001
 62
   200
370
    50
100
AcDbVertex
100
AcDb2dVertex
 10
83.329537
 20
25.225026
 30
0.0
  0
VERTEX
  5
555
330
54F
100
AcDbEntity
  8
001
 62
   200
370
    50
100
AcDbVertex
100
AcDb2dVertex
 10
83.240349
 20
25.417293
 30
0.0
  0
VERTEX
  5
556
330
54F
100
AcDbEntity
  8
001
 62
   200
370
    50
100
AcDbVertex
100
AcDb2dVertex
 10
83.13417
 20
25.60579
 30
0.0
  0
VERTEX
  5
557
330
54F
100
AcDbEntity
  8
001
 62
   200
370
    50
100
AcDbVertex
100
AcDb2dVertex
 10
83.01169
 20
25.787964
 30
0.0
  0
VERTEX
  5
558
330
54F
100
AcDbEntity
  8
001
 62
   200
370
    50
100
AcDbVertex
100
AcDb2dVertex
 10
82.87387
 20
25.957095
 30
0.0
  0
VERTEX
  5
559
330
54F
100
AcDbEntity
  8
001
 62
   200
370
    50
100
AcDbVertex
100
AcDb2dVertex
 10
82.721636
 20
26.112358
 30
0.0
  0
VERTEX
  5
55A
330
54F
100
AcDbEntity
  8
001
 62
   200
370
    50
100
AcDbVertex
100
AcDb2dVertex
 10
82.556153
 20
26.253879
 30
0.0
  0
VERTEX
  5
55B
330
54F
100
AcDbEntity
  8
001
 62
   200
370
    50
100
AcDbVertex
100
AcDb2dVertex
 10
82.379001
 20
26.38062
 30
0.0
  0
VERTEX
  5
55C
330
54F
100
AcDbEntity
  8
001
 62
   200
370
    50
100
AcDbVertex
100
AcDb2dVertex
 10
82.191465
 20
26.491341
 30
0.0
  0
VERTEX
  5
55D
330
54F
100
AcDbEntity
  8
001
 62
   200
370
    50
100
AcDbVertex
100
AcDb2dVertex
 10
81.994196
 20
26.584598
 30
0.0
  0
VERTEX
  5
55E
330
54F
100
AcDbEntity
  8
001
 62
   200
370
    50
100
AcDbVertex
100
AcDb2dVertex
 10
81.78814
 20
26.659731
 30
0.0
  0
VERTEX
  5
55F
330
54F
100
AcDbEntity
  8
001
 62
   200
370
    50
100
AcDbVertex
100
AcDb2dVertex
 10
81.578913
 20
26.718094
 30
0.0
  0
VERTEX
  5
560
330
54F
100
AcDbEntity
  8
001
 62
   200
370
    50
100
AcDbVertex
100
AcDb2dVertex
 10
80.956455
 20
26.792355
 30
0.0
  0
VERTEX
  5
561
330
54F
100
AcDbEntity
  8
001
 62
   200
370
    50
100
AcDbVertex
100
AcDb2dVertex
 10
80.27869
 20
26.666511
 30
0.0
  0
VERTEX
  5
562
330
54F
100
AcDbEntity
  8
001
 62
   200
370
    50
100
AcDbVertex
100
AcDb2dVertex
 10
80.02446
 20
26.569136
 30
0.0
  0
VERTEX
  5
563
330
54F
100
AcDbEntity
  8
001
 62
   200
370
    50
100
AcDbVertex
100
AcDb2dVertex
 10
79.849626
 20
26.489239
 30
0.0
  0
SEQEND
  5
550
330
54F
100
AcDbEntity
  8
001
370
    50
  0
LINE
  5
564
330
1F
100
AcDbEntity
  8
001
 62
   200
370
    50
100
AcDbLine
 10
93.49425
 20
24.956643
 30
0.0
 11
93.49425
 21
31.054847
 31
0.0
  0
LINE
  5
565
330
1F
100
AcDbEntity
  8
001
 62
   200
370
    50
100
AcDbLine
 10
93.49425
 20
24.956643
 30
0.0
 11
85.367474
 21
17.007262
 31
0.0
  0
POLYLINE
  5
566
330
1F
100
AcDbEntity
  8
001
 62
   200
370
    50
100
AcDb2dPolyline
 66
     1
 10
0.0
 20
0.0
 30
0.0
  0
VERTEX
  5
568
330
566
100
AcDbEntity
  8
001
 62
   200
370
    50
100
AcDbVertex
100
AcDb2dVertex
 10
82.211686
 20
14.389232
 30
0.0
  0
VERTEX
  5
569
330
566
100
AcDbEntity
  8
001
 62
   200
370
    50
100
AcDbVertex
100
AcDb2dVertex
 10
82.388975
 20
14.510208
 30
0.0
  0
VERTEX
  5
56A
330
566
100
AcDbEntity
  8
001
 62
   200
370
    50
100
AcDbVertex
100
AcDb2dVertex
 10
82.635979
 20
14.688515
 30
0.0
  0
VERTEX
  5
56B
330
566
100
AcDbEntity
  8
001
 62
   200
370
    50
100
AcDbVertex
100
AcDb2dVertex
 10
83.560492
 20
15.416709
 30
0.0
  0
VERTEX
  5
56C
330
566
100
AcDbEntity
  8
001
 62
   200
370
    50
100
AcDbVertex
100
AcDb2dVertex
 10
84.417104
 20
16.16949
 30
0.0
  0
VERTEX
  5
56D
330
566
100
AcDbEntity
  8
001
 62
   200
370
    50
100
AcDbVertex
100
AcDb2dVertex
 10
84.966895
 20
16.654177
 30
0.0
  0
VERTEX
  5
56E
330
566
100
AcDbEntity
  8
001
 62
   200
370
    50
100
AcDbVertex
100
AcDb2dVertex
 10
85.367474
 20
17.007262
 30
0.0
  0
SEQEND
  5
567
330
566
100
AcDbEntity
  8
001
370
    50
  0
LINE
  5
56F
330
1F
100
AcDbEntity
  8
001
 62
   200
370
    50
100
AcDbLine
 10
87.986113
 20
20.154235
 30
0.0
 11
87.025203
 21
19.194893
 31
0.0
  0
LINE
  5
570
330
1F
100
AcDbEntity
  8
001
 62
   200
370
    50
100
AcDbLine
 10
82.245133
 20
14.422625
 30
0.0
 11
82.211686
 21
14.389232
 31
0.0
  0
LINE
  5
571
330
1F
100
AcDbEntity
  8
001
 62
   200
370
    50
100
AcDbLine
 10
87.700361
 20
20.004404
 30
0.0
 11
87.986113
 21
20.154235
 31
0.0
  0
POLYLINE
  5
572
330
1F
100
AcDbEntity
  8
001
 62
   200
370
    50
100
AcDb2dPolyline
 66
     1
 10
0.0
 20
0.0
 30
0.0
  0
VERTEX
  5
574
330
572
100
AcDbEntity
  8
001
 62
   200
370
    50
100
AcDbVertex
100
AcDb2dVertex
 10
79.989827
 20
26.55738
 30
0.0
  0
VERTEX
  5
575
330
572
100
AcDbEntity
  8
001
 62
   200
370
    50
100
AcDbVertex
100
AcDb2dVertex
 10
79.891917
 20
26.493502
 30
0.0
  0
VERTEX
  5
576
330
572
100
AcDbEntity
  8
001
 62
   200
370
    50
100
AcDbVertex
100
AcDb2dVertex
 10
79.758875
 20
26.39877
 30
0.0
  0
VERTEX
  5
577
330
572
100
AcDbEntity
  8
001
 62
   200
370
    50
100
AcDbVertex
100
AcDb2dVertex
 10
79.583848
 20
26.25165
 30
0.0
  0
VERTEX
  5
578
330
572
100
AcDbEntity
  8
001
 62
   200
370
    50
100
AcDbVertex
100
AcDb2dVertex
 10
79.44081
 20
26.104644
 30
0.0
  0
VERTEX
  5
579
330
572
100
AcDbEntity
  8
001
 62
   200
370
    50
100
AcDbVertex
100
AcDb2dVertex
 10
79.305346
 20
25.944622
 30
0.0
  0
VERTEX
  5
57A
330
572
100
AcDbEntity
  8
001
 62
   200
370
    50
100
AcDbVertex
100
AcDb2dVertex
 10
79.178757
 20
25.75929
 30
0.0
  0
VERTEX
  5
57B
330
572
100
AcDbEntity
  8
001
 62
   200
370
    50
100
AcDbVertex
100
AcDb2dVertex
 10
78.909791
 20
25.105969
 30
0.0
  0
VERTEX
  5
57C
330
572
100
AcDbEntity
  8
001
 62
   200
370
    50
100
AcDbVertex
100
AcDb2dVertex
 10
78.801352
 20
24.586104
 30
0.0
  0
SEQEND
  5
573
330
572
100
AcDbEntity
  8
001
370
    50
  0
POLYLINE
  5
57D
330
1F
100
AcDbEntity
  8
001
 62
   200
370
    50
100
AcDb2dPolyline
 66
     1
 10
0.0
 20
0.0
 30
0.0
  0
VERTEX
  5
57F
330
57D
100
AcDbEntity
  8
001
 62
   200
370
    50
100
AcDbVertex
100
AcDb2dVertex
 10
79.849626
 20
26.489239
 30
0.0
  0
VERTEX
  5
580
330
57D
100
AcDbEntity
  8
001
 62
   200
370
    50
100
AcDbVertex
100
AcDb2dVertex
 10
79.698894
 20
26.401028
 30
0.0
  0
VERTEX
  5
581
330
57D
100
AcDbEntity
  8
001
 62
   200
370
    50
100
AcDbVertex
100
AcDb2dVertex
 10
79.497538
 20
26.266304
 30
0.0
  0
VERTEX
  5
582
330
57D
100
AcDbEntity
  8
001
 62
   200
370
    50
100
AcDbVertex
100
AcDb2dVertex
 10
79.31654
 20
26.118064
 30
0.0
  0
VERTEX
  5
583
330
57D
100
AcDbEntity
  8
001
 62
   200
370
    50
100
AcDbVertex
100
AcDb2dVertex
 10
79.169359
 20
25.971429
 30
0.0
  0
VERTEX
  5
584
330
57D
100
AcDbEntity
  8
001
 62
   200
370
    50
100
AcDbVertex
100
AcDb2dVertex
 10
79.03555
 20
25.818121
 30
0.0
  0
VERTEX
  5
585
330
57D
100
AcDbEntity
  8
001
 62
   200
370
    50
100
AcDbVertex
100
AcDb2dVertex
 10
78.896533
 20
25.624704
 30
0.0
  0
VERTEX
  5
586
330
57D
100
AcDbEntity
  8
001
 62
   200
370
    50
100
AcDbVertex
100
AcDb2dVertex
 10
78.878123
 20
25.596145
 30
0.0
  0
VERTEX
  5
587
330
57D
100
AcDbEntity
  8
001
 62
   200
370
    50
100
AcDbVertex
100
AcDb2dVertex
 10
78.865529
 20
25.576265
 30
0.0
  0
SEQEND
  5
57E
330
57D
100
AcDbEntity
  8
001
370
    50
  0
POLYLINE
  5
588
330
1F
100
AcDbEntity
  8
001
 62
   200
370
    50
100
AcDb2dPolyline
 66
     1
 10
0.0
 20
0.0
 30
0.0
  0
VERTEX
  5
58A
330
588
100
AcDbEntity
  8
001
 62
   200
370
    50
100
AcDbVertex
100
AcDb2dVertex
 10
78.865529
 20
25.576265
 30
0.0
  0
VERTEX
  5
58B
330
588
100
AcDbEntity
  8
001
 62
   200
370
    50
100
AcDbVertex
100
AcDb2dVertex
 10
78.650477
 20
25.103011
 30
0.0
  0
VERTEX
  5
58C
330
588
100
AcDbEntity
  8
001
 62
   200
370
    50
100
AcDbVertex
100
AcDb2dVertex
 10
78.502413
 20
24.371433
 30
0.0
  0
VERTEX
  5
58D
330
588
100
AcDbEntity
  8
001
 62
   200
370
    50
100
AcDbVertex
100
AcDb2dVertex
 10
78.500946
 20
24.315053
 30
0.0
  0
VERTEX
  5
58E
330
588
100
AcDbEntity
  8
001
 62
   200
370
    50
100
AcDbVertex
100
AcDb2dVertex
 10
78.500611
 20
24.276438
 30
0.0
  0
SEQEND
  5
589
330
588
100
AcDbEntity
  8
001
370
    50
  0
LINE
  5
58F
330
1F
100
AcDbEntity
  8
001
 62
   200
370
    50
100
AcDbLine
 10
75.99425
 20
26.054847
 30
0.0
 11
78.49425
 21
28.554847
 31
0.0
  0
LINE
  5
590
330
1F
100
AcDbEntity
  8
001
 62
   200
370
    50
100
AcDbLine
 10
75.99425
 20
21.783583
 30
0.0
 11
75.99425
 21
26.054847
 31
0.0
  0
POLYLINE
  5
591
330
1F
100
AcDbEntity
  8
001
 62
   200
370
    50
100
AcDb2dPolyline
 66
     1
 10
0.0
 20
0.0
 30
0.0
  0
VERTEX
  5
593
330
591
100
AcDbEntity
  8
001
 62
   200
370
    50
100
AcDbVertex
100
AcDb2dVertex
 10
79.492287
 20
20.819043
 30
0.0
  0
VERTEX
  5
594
330
591
100
AcDbEntity
  8
001
 62
   200
370
    50
100
AcDbVertex
100
AcDb2dVertex
 10
79.543443
 20
20.266568
 30
0.0
  0
VERTEX
  5
595
330
591
100
AcDbEntity
  8
001
 62
   200
370
    50
100
AcDbVertex
100
AcDb2dVertex
 10
79.728947
 20
19.547857
 30
0.0
  0
VERTEX
  5
596
330
591
100
AcDbEntity
  8
001
 62
   200
370
    50
100
AcDbVertex
100
AcDb2dVertex
 10
79.844489
 20
19.302631
 30
0.0
  0
VERTEX
  5
597
330
591
100
AcDbEntity
  8
001
 62
   200
370
    50
100
AcDbVertex
100
AcDb2dVertex
 10
79.97512
 20
19.086853
 30
0.0
  0
VERTEX
  5
598
330
591
100
AcDbEntity
  8
001
 62
   200
370
    50
100
AcDbVertex
100
AcDb2dVertex
 10
80.117511
 20
18.885496
 30
0.0
  0
VERTEX
  5
599
330
591
100
AcDbEntity
  8
001
 62
   200
370
    50
100
AcDbVertex
100
AcDb2dVertex
 10
80.298239
 20
18.678836
 30
0.0
  0
VERTEX
  5
59A
330
591
100
AcDbEntity
  8
001
 62
   200
370
    50
100
AcDbVertex
100
AcDb2dVertex
 10
80.448939
 20
18.533539
 30
0.0
  0
VERTEX
  5
59B
330
591
100
AcDbEntity
  8
001
 62
   200
370
    50
100
AcDbVertex
100
AcDb2dVertex
 10
80.561564
 20
18.434301
 30
0.0
  0
SEQEND
  5
592
330
591
100
AcDbEntity
  8
001
370
    50
  0
LINE
  5
59C
330
1F
100
AcDbEntity
  8
001
 62
   134
370
    50
100
AcDbLine
 10
78.49425
 20
50.975417
 30
0.0
 11
78.49425
 21
72.14146
 31
0.0
  0
POLYLINE
  5
59D
330
1F
100
AcDbEntity
  8
001
 62
   134
370
    50
100
AcDb2dPolyline
 66
     1
 10
0.0
 20
0.0
 30
0.0
  0
VERTEX
  5
59F
330
59D
100
AcDbEntity
  8
001
 62
   134
370
    50
100
AcDbVertex
100
AcDb2dVertex
 10
78.49425
 20
72.14146
 30
0.0
  0
VERTEX
  5
5A0
330
59D
100
AcDbEntity
  8
001
 62
   134
370
    50
100
AcDbVertex
100
AcDb2dVertex
 10
78.496938
 20
72.151315
 30
0.0
  0
VERTEX
  5
5A1
330
59D
100
AcDbEntity
  8
001
 62
   134
370
    50
100
AcDbVertex
100
AcDb2dVertex
 10
78.500305
 20
72.160677
 30
0.0
  0
VERTEX
  5
5A2
330
59D
100
AcDbEntity
  8
001
 62
   134
370
    50
100
AcDbVertex
100
AcDb2dVertex
 10
78.538064
 20
72.197004
 30
0.0
  0
VERTEX
  5
5A3
330
59D
100
AcDbEntity
  8
001
 62
   134
370
    50
100
AcDbVertex
100
AcDb2dVertex
 10
78.593838
 20
72.217541
 30
0.0
  0
VERTEX
  5
5A4
330
59D
100
AcDbEntity
  8
001
 62
   134
370
    50
100
AcDbVertex
100
AcDb2dVertex
 10
78.694538
 20
72.24505
 30
0.0
  0
VERTEX
  5
5A5
330
59D
100
AcDbEntity
  8
001
 62
   134
370
    50
100
AcDbVertex
100
AcDb2dVertex
 10
78.790488
 20
72.265697
 30
0.0
  0
VERTEX
  5
5A6
330
59D
100
AcDbEntity
  8
001
 62
   134
370
    50
100
AcDbVertex
100
AcDb2dVertex
 10
78.92686
 20
72.285933
 30
0.0
  0
VERTEX
  5
5A7
330
59D
100
AcDbEntity
  8
001
 62
   134
370
    50
100
AcDbVertex
100
AcDb2dVertex
 10
79.066748
 20
72.299543
 30
0.0
  0
VERTEX
  5
5A8
330
59D
100
AcDbEntity
  8
001
 62
   134
370
    50
100
AcDbVertex
100
AcDb2dVertex
 10
79.228628
 20
72.31007
 30
0.0
  0
VERTEX
  5
5A9
330
59D
100
AcDbEntity
  8
001
 62
   134
370
    50
100
AcDbVertex
100
AcDb2dVertex
 10
79.389942
 20
72.315371
 30
0.0
  0
VERTEX
  5
5AA
330
59D
100
AcDbEntity
  8
001
 62
   134
370
    50
100
AcDbVertex
100
AcDb2dVertex
 10
79.44207
 20
72.315988
 30
0.0
  0
VERTEX
  5
5AB
330
59D
100
AcDbEntity
  8
001
 62
   134
370
    50
100
AcDbVertex
100
AcDb2dVertex
 10
79.49425
 20
72.316325
 30
0.0
  0
SEQEND
  5
59E
330
59D
100
AcDbEntity
  8
001
370
    50
  0
POLYLINE
  5
5AC
330
1F
100
AcDbEntity
  8
001
 62
   134
370
    50
100
AcDb2dPolyline
 66
     1
 10
0.0
 20
0.0
 30
0.0
  0
VERTEX
  5
5AE
330
5AC
100
AcDbEntity
  8
001
 62
   134
370
    50
100
AcDbVertex
100
AcDb2dVertex
 10
79.49425
 20
50.551138
 30
0.0
  0
VERTEX
  5
5AF
330
5AC
100
AcDbEntity
  8
001
 62
   134
370
    50
100
AcDbVertex
100
AcDb2dVertex
 10
79.356636
 20
50.556662
 30
0.0
  0
VERTEX
  5
5B0
330
5AC
100
AcDbEntity
  8
001
 62
   134
370
    50
100
AcDbVertex
100
AcDb2dVertex
 10
79.219253
 20
50.567494
 30
0.0
  0
VERTEX
  5
5B1
330
5AC
100
AcDbEntity
  8
001
 62
   134
370
    50
100
AcDbVertex
100
AcDb2dVertex
 10
79.066718
 20
50.591255
 30
0.0
  0
VERTEX
  5
5B2
330
5AC
100
AcDbEntity
  8
001
 62
   134
370
    50
100
AcDbVertex
100
AcDb2dVertex
 10
78.917595
 20
50.62878
 30
0.0
  0
VERTEX
  5
5B3
330
5AC
100
AcDbEntity
  8
001
 62
   134
370
    50
100
AcDbVertex
100
AcDb2dVertex
 10
78.797163
 20
50.671747
 30
0.0
  0
VERTEX
  5
5B4
330
5AC
100
AcDbEntity
  8
001
 62
   134
370
    50
100
AcDbVertex
100
AcDb2dVertex
 10
78.680402
 20
50.728868
 30
0.0
  0
VERTEX
  5
5B5
330
5AC
100
AcDbEntity
  8
001
 62
   134
370
    50
100
AcDbVertex
100
AcDb2dVertex
 10
78.597313
 20
50.784625
 30
0.0
  0
VERTEX
  5
5B6
330
5AC
100
AcDbEntity
  8
001
 62
   134
370
    50
100
AcDbVertex
100
AcDb2dVertex
 10
78.534077
 20
50.856863
 30
0.0
  0
VERTEX
  5
5B7
330
5AC
100
AcDbEntity
  8
001
 62
   134
370
    50
100
AcDbVertex
100
AcDb2dVertex
 10
78.510231
 20
50.913811
 30
0.0
  0
VERTEX
  5
5B8
330
5AC
100
AcDbEntity
  8
001
 62
   134
370
    50
100
AcDbVertex
100
AcDb2dVertex
 10
78.49425
 20
50.975417
 30
0.0
  0
SEQEND
  5
5AD
330
5AC
100
AcDbEntity
  8
001
370
    50
  0
ARC
  5
5B9
330
1F
100
AcDbEntity
  8
001
 62
   134
370
    50
100
AcDbCircle
 10
102.49425
 20
108.054847
 30
0.0
 40
0.9999999999999929
100
AcDbArc
 50
0.0
 51
90.0
  0
ARC
  5
5BA
330
1F
100
AcDbEntity
  8
001
 62
   134
370
    50
100
AcDbCircle
 10
102.49425
 20
32.054847
 30
0.0
 40
0.9999999999999929
100
AcDbArc
 50
270.0
 51
0.0
  0
LINE
  5
5BB
330
1F
100
AcDbEntity
  8
001
 62
   134
370
    50
100
AcDbLine
 10
103.49425
 20
32.054847
 30
0.0
 11
103.49425
 21
108.054847
 31
0.0
  0
LINE
  5
5BC
330
1F
100
AcDbEntity
  8
001
 62
   134
370
    50
100
AcDbLine
 10
102.49425
 20
109.054847
 30
0.0
 11
93.49425
 21
109.054847
 31
0.0
  0
LINE
  5
5BD
330
1F
100
AcDbEntity
  8
001
 62
   134
370
    50
100
AcDbLine
 10
79.49425
 20
31.054847
 30
0.0
 11
102.49425
 21
31.054847
 31
0.0
  0
LINE
  5
5BE
330
1F
100
AcDbEntity
  8
001
 62
   134
370
    50
100
AcDbLine
 10
93.49425
 20
50.551138
 30
0.0
 11
79.49425
 21
50.551138
 31
0.0
  0
LINE
  5
5BF
330
1F
100
AcDbEntity
  8
001
 62
   134
370
    50
100
AcDbLine
 10
79.49425
 20
72.316325
 30
0.0
 11
93.49425
 21
72.316325
 31
0.0
  0
LINE
  5
5C0
330
1F
100
AcDbEntity
  8
001
 62
   134
370
    50
100
AcDbLine
 10
79.49425
 20
104.903746
 30
0.0
 11
93.49425
 21
104.903746
 31
0.0
  0
ARC
  5
5C1
330
1F
100
AcDbEntity
  8
001
 62
   134
370
    50
100
AcDbCircle
 10
111.49425
 20
108.054847
 30
0.0
 40
8.000000000000007
100
AcDbArc
 50
180.0
 51
270.0
  0
ARC
  5
5C2
330
1F
100
AcDbEntity
  8
001
 62
   134
370
    50
100
AcDbCircle
 10
111.49425
 20
32.054847
 30
0.0
 40
8.000000000000007
100
AcDbArc
 50
90.0
 51
180.0
  0
POLYLINE
  5
5C3
330
1F
100
AcDbEntity
  8
001
 62
   134
370
    50
100
AcDb2dPolyline
 66
     1
 10
0.0
 20
0.0
 30
0.0
  0
VERTEX
  5
5C5
330
5C3
100
AcDbEntity
  8
001
 62
   134
370
    50
100
AcDbVertex
100
AcDb2dVertex
 10
78.49425
 20
103.957468
 30
0.0
  0
VERTEX
  5
5C6
330
5C3
100
AcDbEntity
  8
001
 62
   134
370
    50
100
AcDbVertex
100
AcDb2dVertex
 10
78.494732
 20
103.981854
 30
0.0
  0
VERTEX
  5
5C7
330
5C3
100
AcDbEntity
  8
001
 62
   134
370
    50
100
AcDbVertex
100
AcDb2dVertex
 10
78.495579
 20
104.006234
 30
0.0
  0
VERTEX
  5
5C8
330
5C3
100
AcDbEntity
  8
001
 62
   134
370
    50
100
AcDbVertex
100
AcDb2dVertex
 10
78.518418
 20
104.165434
 30
0.0
  0
VERTEX
  5
5C9
330
5C3
100
AcDbEntity
  8
001
 62
   134
370
    50
100
AcDbVertex
100
AcDb2dVertex
 10
78.569871
 20
104.31849
 30
0.0
  0
VERTEX
  5
5CA
330
5C3
100
AcDbEntity
  8
001
 62
   134
370
    50
100
AcDbVertex
100
AcDb2dVertex
 10
78.648296
 20
104.461993
 30
0.0
  0
VERTEX
  5
5CB
330
5C3
100
AcDbEntity
  8
001
 62
   134
370
    50
100
AcDbVertex
100
AcDb2dVertex
 10
78.750082
 20
104.589612
 30
0.0
  0
VERTEX
  5
5CC
330
5C3
100
AcDbEntity
  8
001
 62
   134
370
    50
100
AcDbVertex
100
AcDb2dVertex
 10
78.874056
 20
104.699568
 30
0.0
  0
VERTEX
  5
5CD
330
5C3
100
AcDbEntity
  8
001
 62
   134
370
    50
100
AcDbVertex
100
AcDb2dVertex
 10
79.014749
 20
104.787884
 30
0.0
  0
VERTEX
  5
5CE
330
5C3
100
AcDbEntity
  8
001
 62
   134
370
    50
100
AcDbVertex
100
AcDb2dVertex
 10
79.16952
 20
104.853288
 30
0.0
  0
VERTEX
  5
5CF
330
5C3
100
AcDbEntity
  8
001
 62
   134
370
    50
100
AcDbVertex
100
AcDb2dVertex
 10
79.332419
 20
104.891274
 30
0.0
  0
VERTEX
  5
5D0
330
5C3
100
AcDbEntity
  8
001
 62
   134
370
    50
100
AcDbVertex
100
AcDb2dVertex
 10
79.413129
 20
104.899358
 30
0.0
  0
VERTEX
  5
5D1
330
5C3
100
AcDbEntity
  8
001
 62
   134
370
    50
100
AcDbVertex
100
AcDb2dVertex
 10
79.49425
 20
104.903746
 30
0.0
  0
SEQEND
  5
5C4
330
5C3
100
AcDbEntity
  8
001
370
    50
  0
ARC
  5
5D2
330
1F
100
AcDbEntity
  8
001
 62
   134
370
    50
100
AcDbCircle
 10
117.49425
 20
99.054847
 30
0.0
 40
1.0
100
AcDbArc
 50
0.0
 51
90.0
  0
ARC
  5
5D3
330
1F
100
AcDbEntity
  8
001
 62
   134
370
    50
100
AcDbCircle
 10
117.49425
 20
41.054847
 30
0.0
 40
1.0
100
AcDbArc
 50
270.0
 51
0.0
  0
LINE
  5
5D4
330
1F
100
AcDbEntity
  8
001
 62
   134
370
    50
100
AcDbLine
 10
118.49425
 20
99.054847
 30
0.0
 11
118.49425
 21
41.054847
 31
0.0
  0
LINE
  5
5D5
330
1F
100
AcDbEntity
  8
001
 62
   134
370
    50
100
AcDbLine
 10
117.49425
 20
100.054847
 30
0.0
 11
111.49425
 21
100.054847
 31
0.0
  0
LINE
  5
5D6
330
1F
100
AcDbEntity
  8
001
 62
   134
370
    50
100
AcDbLine
 10
111.49425
 20
40.054847
 30
0.0
 11
117.49425
 21
40.054847
 31
0.0
  0
ARC
  5
5D7
330
1F
100
AcDbEntity
  8
001
 62
   134
370
    50
100
AcDbCircle
 10
79.49425
 20
32.054847
 30
0.0
 40
1.0
100
AcDbArc
 50
180.0
 51
229.690072
  0
LINE
  5
5D8
330
1F
100
AcDbEntity
  8
001
 62
   134
370
    50
100
AcDbLine
 10
78.49425
 20
32.054847
 30
0.0
 11
78.49425
 21
32.307887
 31
0.0
  0
POLYLINE
  5
5D9
330
1F
100
AcDbEntity
  8
001
 62
   134
370
    50
100
AcDb2dPolyline
 66
     1
 10
0.0
 20
0.0
 30
0.0
  0
VERTEX
  5
5DB
330
5D9
100
AcDbEntity
  8
001
 62
   134
370
    50
100
AcDbVertex
100
AcDb2dVertex
 10
79.49425
 20
31.054847
 30
0.0
  0
VERTEX
  5
5DC
330
5D9
100
AcDbEntity
  8
001
 62
   134
370
    50
100
AcDbVertex
100
AcDb2dVertex
 10
79.327078
 20
31.074106
 30
0.0
  0
VERTEX
  5
5DD
330
5D9
100
AcDbEntity
  8
001
 62
   134
370
    50
100
AcDbVertex
100
AcDb2dVertex
 10
79.164387
 20
31.110819
 30
0.0
  0
VERTEX
  5
5DE
330
5D9
100
AcDbEntity
  8
001
 62
   134
370
    50
100
AcDbVertex
100
AcDb2dVertex
 10
79.010831
 20
31.178176
 30
0.0
  0
VERTEX
  5
5DF
330
5D9
100
AcDbEntity
  8
001
 62
   134
370
    50
100
AcDbVertex
100
AcDb2dVertex
 10
78.871519
 20
31.272418
 30
0.0
  0
VERTEX
  5
5E0
330
5D9
100
AcDbEntity
  8
001
 62
   134
370
    50
100
AcDbVertex
100
AcDb2dVertex
 10
78.859316
 20
31.282372
 30
0.0
  0
VERTEX
  5
5E1
330
5D9
100
AcDbEntity
  8
001
 62
   134
370
    50
100
AcDbVertex
100
AcDb2dVertex
 10
78.847199
 20
31.292408
 30
0.0
  0
SEQEND
  5
5DA
330
5D9
100
AcDbEntity
  8
001
370
    50
  0
LINE
  5
5E2
330
1F
100
AcDbEntity
  8
001
 62
   134
370
    50
100
AcDbLine
 10
198.49425
 20
62.054847
 30
0.0
 11
198.49425
 21
78.054847
 31
0.0
  0
LINE
  5
5E3
330
1F
100
AcDbEntity
  8
001
 62
   134
370
    50
100
AcDbLine
 10
190.49425
 20
86.054847
 30
0.0
 11
121.49425
 21
86.054847
 31
0.0
  0
LINE
  5
5E4
330
1F
100
AcDbEntity
  8
001
 62
   134
370
    50
100
AcDbLine
 10
190.49425
 20
54.054847
 30
0.0
 11
121.49425
 21
54.054847
 31
0.0
  0
LINE
  5
5E5
330
1F
100
AcDbEntity
  8
001
 62
   134
370
    50
100
AcDbLine
 10
121.49425
 20
86.054847
 30
0.0
 11
121.49425
 21
54.054847
 31
0.0
  0
LINE
  5
5E6
330
1F
100
AcDbEntity
  8
001
 62
   134
370
    50
100
AcDbLine
 10
121.49425
 20
85.554847
 30
0.0
 11
118.49425
 21
85.554847
 31
0.0
  0
LINE
  5
5E7
330
1F
100
AcDbEntity
  8
001
 62
   134
370
    50
100
AcDbLine
 10
118.49425
 20
54.554847
 30
0.0
 11
121.49425
 21
54.554847
 31
0.0
  0
ARC
  5
5E8
330
1F
100
AcDbEntity
  8
001
 62
   134
370
    50
100
AcDbCircle
 10
190.49425
 20
78.054847
 30
0.0
 40
8.0
100
AcDbArc
 50
0.0
 51
90.0
  0
ARC
  5
5E9
330
1F
100
AcDbEntity
  8
001
 62
   134
370
    50
100
AcDbCircle
 10
190.49425
 20
62.054847
 30
0.0
 40
8.0
100
AcDbArc
 50
270.0
 51
0.0
  0
LINE
  5
5EA
330
1F
100
AcDbEntity
  8
001
  6
CENTER
370
     9
100
AcDbLine
 10
68.941002
 20
70.054847
 30
0.0
 11
206.85012
 21
70.054847
 31
0.0
  0
TEXT
  5
5EB
330
1F
100
AcDbEntity
  8
001
370
    30
100
AcDbText
 10
80.794503
 20
139.004843
 30
0.0
 40
8.0
  1
ＮＫＮ３２－１００Ｓ－０６
 41
0.833333
100
AcDbText
  0
ENDSEC
  0
SECTION
  2
OBJECTS
  0
DICTIONARY
  5
C
330
0
100
AcDbDictionary
281
     1
  3
ACAD_GROUP
350
D
  3
ACAD_LAYOUT
350
1A
  3
ACAD_MLEADERSTYLE
350
5EF
  3
ACAD_MLINESTYLE
350
17
  3
ACAD_PLOTSETTINGS
350
19
  3
ACAD_PLOTSTYLENAME
350
E
  3
ACAD_SCALELIST
350
3B
  3
ACAD_TABLESTYLE
350
5EE
  3
ACAD_VISUALSTYLE
350
2A
  3
AcDbVariableDictionary
350
5EC
  0
DICTIONARY
  5
D
102
{ACAD_REACTORS
330
C
102
}
330
C
100
AcDbDictionary
281
     1
  0
DICTIONARY
  5
1A
102
{ACAD_REACTORS
330
C
102
}
330
C
100
AcDbDictionary
281
     1
  3
Layout1
350
1E
  3
Layout2
350
26
  3
Model
350
22
  0
DICTIONARY
  5
5EF
102
{ACAD_REACTORS
330
C
102
}
330
C
100
AcDbDictionary
281
     1
  0
DICTIONARY
  5
17
102
{ACAD_REACTORS
330
C
102
}
330
C
100
AcDbDictionary
281
     1
  3
Standard
350
18
  0
DICTIONARY
  5
19
102
{ACAD_REACTORS
330
C
102
}
330
C
100
AcDbDictionary
281
     1
  0
ACDBDICTIONARYWDFLT
  5
E
102
{ACAD_REACTORS
330
C
102
}
330
C
100
AcDbDictionary
281
     1
  3
Normal
350
F
100
AcDbDictionaryWithDefault
340
F
  0
DICTIONARY
  5
3B
102
{ACAD_REACTORS
330
C
102
}
330
C
100
AcDbDictionary
281
     1
  3
A0
350
3C
  3
A1
350
3D
  3
A2
350
3E
  3
A3
350
3F
  3
A4
350
40
  3
A5
350
41
  3
A6
350
42
  3
A7
350
43
  3
A8
350
44
  3
A9
350
45
  3
B0
350
46
  3
B1
350
47
  3
B2
350
48
  3
B3
350
49
  3
B4
350
4A
  3
B5
350
4B
  3
B6
350
4C
  3
B7
350
4D
  3
B8
350
4E
  3
B9
350
4F
  3
C0
350
50
  3
C1
350
51
  3
C2
350
52
  3
C3
350
53
  3
C4
350
54
  3
C5
350
55
  3
C6
350
56
  3
C7
350
57
  3
C8
350
58
  3
C9
350
59
  3
D0
350
5A
  3
D1
350
5B
  3
D2
350
5C
  0
DICTIONARY
  5
5EE
102
{ACAD_REACTORS
330
C
102
}
330
C
100
AcDbDictionary
281
     1
  0
DICTIONARY
  5
2A
102
{ACAD_REACTORS
330
C
102
}
330
C
100
AcDbDictionary
281
     1
  3
2dWireframe
350
2F
  3
3D Hidden
350
31
  3
3dWireframe
350
30
  3
Basic
350
32
  3
Brighten
350
36
  3
ColorChange
350
3A
  3
Conceptual
350
34
  3
Dim
350
35
  3
Facepattern
350
39
  3
Flat
350
2B
  3
FlatWithEdges
350
2C
  3
Gouraud
350
2D
  3
GouraudWithEdges
350
2E
  3
Linepattern
350
38
  3
Realistic
350
33
  3
Thicken
350
37
  0
DICTIONARY
  5
5EC
102
{ACAD_REACTORS
330
C
102
}
330
C
100
AcDbDictionary
281
     1
  3
CANNOSCALE
350
5ED
  3
PSOLHEIGHT
350
5F1
  3
PSOLWIDTH
350
5F0
  0
LAYOUT
  5
1E
102
{ACAD_REACTORS
330
1A
102
}
330
1A
100
AcDbPlotSettings
  1

  2
none_device
  4

  6

 40
0.0
 41
0.0
 42
0.0
 43
0.0
 44
0.0
 45
0.0
 46
0.0
 47
0.0
 48
0.0
 49
0.0
140
0.0
141
0.0
142
1.0
143
1.0
 70
   688
 72
     0
 73
     0
 74
     5
  7

 75
    16
147
1.0
148
0.0
149
0.0
100
AcDbLayout
  1
Layout1
 70
     1
 71
     1
 10
0.0
 20
0.0
 11
12.0
 21
9.0
 12
0.0
 22
0.0
 32
0.0
 14
1.000000E+20
 24
1.000000E+20
 34
0.0
 15
-1.000000E+20
 25
-1.000000E+20
 35
0.0
146
0.0
 13
0.0
 23
0.0
 33
0.0
 16
1.0
 26
0.0
 36
0.0
 17
0.0
 27
1.0
 37
0.0
 76
     0
330
1B
  0
LAYOUT
  5
26
102
{ACAD_REACTORS
330
1A
102
}
330
1A
100
AcDbPlotSettings
  1

  2
none_device
  4

  6

 40
0.0
 41
0.0
 42
0.0
 43
0.0
 44
0.0
 45
0.0
 46
0.0
 47
0.0
 48
0.0
 49
0.0
140
0.0
141
0.0
142
1.0
143
1.0
 70
   688
 72
     0
 73
     0
 74
     5
  7

 75
    16
147
1.0
148
0.0
149
0.0
100
AcDbLayout
  1
Layout2
 70
     1
 71
     2
 10
0.0
 20
0.0
 11
0.0
 21
0.0
 12
0.0
 22
0.0
 32
0.0
 14
0.0
 24
0.0
 34
0.0
 15
0.0
 25
0.0
 35
0.0
146
0.0
 13
0.0
 23
0.0
 33
0.0
 16
1.0
 26
0.0
 36
0.0
 17
0.0
 27
1.0
 37
0.0
 76
     0
330
23
  0
LAYOUT
  5
22
102
{ACAD_REACTORS
330
1A
102
}
330
1A
100
AcDbPlotSettings
  1

  2
none_device
  4

  6

 40
0.0
 41
0.0
 42
0.0
 43
0.0
 44
0.0
 45
0.0
 46
0.0
 47
0.0
 48
0.0
 49
0.0
140
0.0
141
0.0
142
1.0
143
1.0
 70
  1712
 72
     0
 73
     0
 74
     0
  7

 75
     0
147
1.0
148
0.0
149
0.0
100
AcDbLayout
  1
Model
 70
     1
 71
     0
 10
0.0
 20
0.0
 11
12.0
 21
9.0
 12
0.0
 22
0.0
 32
0.0
 14
39.07589
 24
-22.564682
 34
0.0
 15
227.106049
 25
147.004837
 35
0.0
146
0.0
 13
0.0
 23
0.0
 33
0.0
 16
1.0
 26
0.0
 36
0.0
 17
0.0
 27
1.0
 37
0.0
 76
     0
330
1F
331
29
  0
MLINESTYLE
  5
18
102
{ACAD_REACTORS
330
17
102
}
330
17
100
AcDbMlineStyle
  2
Standard
 70
     0
  3

 62
   256
 51
90.0
 52
90.0
 71
     2
 49
0.5
 62
   256
  6
BYLAYER
 49
-0.5
 62
   256
  6
BYLAYER
  0
ACDBPLACEHOLDER
  5
F
102
{ACAD_REACTORS
330
E
102
}
330
E
  0
SCALE
  5
3C
102
{ACAD_REACTORS
330
3B
102
}
330
3B
100
AcDbScale
 70
     0
300
1:1
140
1.0
141
1.0
290
     1
  0
SCALE
  5
3D
102
{ACAD_REACTORS
330
3B
102
}
330
3B
100
AcDbScale
 70
     0
300
1:2
140
1.0
141
2.0
290
     0
  0
SCALE
  5
3E
102
{ACAD_REACTORS
330
3B
102
}
330
3B
100
AcDbScale
 70
     0
300
1:4
140
1.0
141
4.0
290
     0
  0
SCALE
  5
3F
102
{ACAD_REACTORS
330
3B
102
}
330
3B
100
AcDbScale
 70
     0
300
1:5
140
1.0
141
5.0
290
     0
  0
SCALE
  5
40
102
{ACAD_REACTORS
330
3B
102
}
330
3B
100
AcDbScale
 70
     0
300
1:8
140
1.0
141
8.0
290
     0
  0
SCALE
  5
41
102
{ACAD_REACTORS
330
3B
102
}
330
3B
100
AcDbScale
 70
     0
300
1:10
140
1.0
141
10.0
290
     0
  0
SCALE
  5
42
102
{ACAD_REACTORS
330
3B
102
}
330
3B
100
AcDbScale
 70
     0
300
1:16
140
1.0
141
16.0
290
     0
  0
SCALE
  5
43
102
{ACAD_REACTORS
330
3B
102
}
330
3B
100
AcDbScale
 70
     0
300
1:20
140
1.0
141
20.0
290
     0
  0
SCALE
  5
44
102
{ACAD_REACTORS
330
3B
102
}
330
3B
100
AcDbScale
 70
     0
300
1:30
140
1.0
141
30.0
290
     0
  0
SCALE
  5
45
102
{ACAD_REACTORS
330
3B
102
}
330
3B
100
AcDbScale
 70
     0
300
1:40
140
1.0
141
40.0
290
     0
  0
SCALE
  5
46
102
{ACAD_REACTORS
330
3B
102
}
330
3B
100
AcDbScale
 70
     0
300
1:50
140
1.0
141
50.0
290
     0
  0
SCALE
  5
47
102
{ACAD_REACTORS
330
3B
102
}
330
3B
100
AcDbScale
 70
     0
300
1:100
140
1.0
141
100.0
290
     0
  0
SCALE
  5
48
102
{ACAD_REACTORS
330
3B
102
}
330
3B
100
AcDbScale
 70
     0
300
2:1
140
2.0
141
1.0
290
     0
  0
SCALE
  5
49
102
{ACAD_REACTORS
330
3B
102
}
330
3B
100
AcDbScale
 70
     0
300
4:1
140
4.0
141
1.0
290
     0
  0
SCALE
  5
4A
102
{ACAD_REACTORS
330
3B
102
}
330
3B
100
AcDbScale
 70
     0
300
8:1
140
8.0
141
1.0
290
     0
  0
SCALE
  5
4B
102
{ACAD_REACTORS
330
3B
102
}
330
3B
100
AcDbScale
 70
     0
300
10:1
140
10.0
141
1.0
290
     0
  0
SCALE
  5
4C
102
{ACAD_REACTORS
330
3B
102
}
330
3B
100
AcDbScale
 70
     0
300
100:1
140
100.0
141
1.0
290
     0
  0
SCALE
  5
4D
102
{ACAD_REACTORS
330
3B
102
}
330
3B
100
AcDbScale
 70
     0
300
1/128" = 1'-0"
140
0.007812
141
12.0
290
     0
  0
SCALE
  5
4E
102
{ACAD_REACTORS
330
3B
102
}
330
3B
100
AcDbScale
 70
     0
300
1/64" = 1'-0"
140
0.015625
141
12.0
290
     0
  0
SCALE
  5
4F
102
{ACAD_REACTORS
330
3B
102
}
330
3B
100
AcDbScale
 70
     0
300
1/32" = 1'-0"
140
0.03125
141
12.0
290
     0
  0
SCALE
  5
50
102
{ACAD_REACTORS
330
3B
102
}
330
3B
100
AcDbScale
 70
     0
300
1/16" = 1'-0"
140
0.0625
141
12.0
290
     0
  0
SCALE
  5
51
102
{ACAD_REACTORS
330
3B
102
}
330
3B
100
AcDbScale
 70
     0
300
3/32" = 1'-0"
140
0.09375
141
12.0
290
     0
  0
SCALE
  5
52
102
{ACAD_REACTORS
330
3B
102
}
330
3B
100
AcDbScale
 70
     0
300
1/8" = 1'-0"
140
0.125
141
12.0
290
     0
  0
SCALE
  5
53
102
{ACAD_REACTORS
330
3B
102
}
330
3B
100
AcDbScale
 70
     0
300
3/16" = 1'-0"
140
0.1875
141
12.0
290
     0
  0
SCALE
  5
54
102
{ACAD_REACTORS
330
3B
102
}
330
3B
100
AcDbScale
 70
     0
300
1/4" = 1'-0"
140
0.25
141
12.0
290
     0
  0
SCALE
  5
55
102
{ACAD_REACTORS
330
3B
102
}
330
3B
100
AcDbScale
 70
     0
300
3/8" = 1'-0"
140
0.375
141
12.0
290
     0
  0
SCALE
  5
56
102
{ACAD_REACTORS
330
3B
102
}
330
3B
100
AcDbScale
 70
     0
300
1/2" = 1'-0"
140
0.5
141
12.0
290
     0
  0
SCALE
  5
57
102
{ACAD_REACTORS
330
3B
102
}
330
3B
100
AcDbScale
 70
     0
300
3/4" = 1'-0"
140
0.75
141
12.0
290
     0
  0
SCALE
  5
58
102
{ACAD_REACTORS
330
3B
102
}
330
3B
100
AcDbScale
 70
     0
300
1" = 1'-0"
140
1.0
141
12.0
290
     0
  0
SCALE
  5
59
102
{ACAD_REACTORS
330
3B
102
}
330
3B
100
AcDbScale
 70
     0
300
1-1/2" = 1'-0"
140
1.5
141
12.0
290
     0
  0
SCALE
  5
5A
102
{ACAD_REACTORS
330
3B
102
}
330
3B
100
AcDbScale
 70
     0
300
3" = 1'-0"
140
3.0
141
12.0
290
     0
  0
SCALE
  5
5B
102
{ACAD_REACTORS
330
3B
102
}
330
3B
100
AcDbScale
 70
     0
300
6" = 1'-0"
140
6.0
141
12.0
290
     0
  0
SCALE
  5
5C
102
{ACAD_REACTORS
330
3B
102
}
330
3B
100
AcDbScale
 70
     0
300
1'-0" = 1'-0"
140
12.0
141
12.0
290
     0
  0
VISUALSTYLE
  5
2F
102
{ACAD_REACTORS
330
2A
102
}
330
2A
100
AcDbVisualStyle
  2
2dWireframe
 70
     4
 71
     0
 72
     2
 73
     0
 90
        0
 40
-0.6
 41
-30.0
 62
     5
 63
     7
 74
     1
 91
        4
 64
     7
 65
   257
 75
     1
175
     1
 42
1.0
 92
        0
 66
   257
 43
1.0
 76
     1
 77
     6
 78
     2
 67
     7
 79
     5
170
     0
171
     0
290
     0
174
     0
 93
        1
 44
0.0
173
     0
291
     0
 45
0.0
1001
ACAD
1000
AcDbSavedByObjectVersion
1070
     0
  0
VISUALSTYLE
  5
31
102
{ACAD_REACTORS
330
2A
102
}
330
2A
100
AcDbVisualStyle
  2
3D Hidden
 70
     6
 71
     1
 72
     2
 73
     2
 90
        0
 40
-0.6
 41
-30.0
 62
     5
 63
     7
 74
     2
 91
        2
 64
     7
 65
   257
 75
     2
175
     1
 42
40.0
 92
        0
 66
   257
 43
1.0
 76
     1
 77
     6
 78
     2
 67
     7
 79
     3
170
     0
171
     0
290
     0
174
     0
 93
        1
 44
0.0
173
     0
291
     0
 45
0.0
1001
ACAD
1000
AcDbSavedByObjectVersion
1070
     0
  0
VISUALSTYLE
  5
30
102
{ACAD_REACTORS
330
2A
102
}
330
2A
100
AcDbVisualStyle
  2
3dWireframe
 70
     5
 71
     0
 72
     2
 73
     0
 90
        0
 40
-0.6
 41
-30.0
 62
     5
 63
     7
 74
     1
 91
        4
 64
     7
 65
   257
 75
     1
175
     1
 42
1.0
 92
        0
 66
   257
 43
1.0
 76
     1
 77
     6
 78
     2
 67
     7
 79
     5
170
     0
171
     0
290
     0
174
     0
 93
        1
 44
0.0
173
     0
291
     0
 45
0.0
1001
ACAD
1000
AcDbSavedByObjectVersion
1070
     0
  0
VISUALSTYLE
  5
32
102
{ACAD_REACTORS
330
2A
102
}
330
2A
100
AcDbVisualStyle
  2
Basic
 70
     7
 71
     1
 72
     0
 73
     1
 90
        0
 40
-0.6
 41
-30.0
 62
     5
 63
     7
 74
     0
 91
        4
 64
     7
 65
   257
 75
     1
175
     1
 42
1.0
 92
        8
 66
     7
 43
1.0
 76
     1
 77
     6
 78
     2
 67
     7
 79
     5
170
     0
171
     0
290
     0
174
     0
 93
        1
 44
0.0
173
     0
291
     1
 45
0.0
1001
ACAD
1000
AcDbSavedByObjectVersion
1070
     0
  0
VISUALSTYLE
  5
36
102
{ACAD_REACTORS
330
2A
102
}
330
2A
100
AcDbVisualStyle
  2
Brighten
 70
    12
 71
     2
 72
     2
 73
     0
 90
        0
 40
-0.6
 41
-30.0
 62
     5
 63
     7
 74
     1
 91
        4
 64
     7
 65
   257
 75
     1
175
     1
 42
1.0
 92
        8
 66
     7
 43
1.0
 76
     1
 77
     6
 78
     2
 67
     7
 79
     5
170
     0
171
     0
290
     0
174
     0
 93
        1
 44
50.0
173
     0
291
     1
 45
0.0
1001
ACAD
1000
AcDbSavedByObjectVersion
1070
     0
  0
VISUALSTYLE
  5
3A
102
{ACAD_REACTORS
330
2A
102
}
330
2A
100
AcDbVisualStyle
  2
ColorChange
 70
    16
 71
     2
 72
     2
 73
     3
 90
        0
 40
-0.6
 41
-30.0
 62
     5
 63
     8
 74
     1
 91
        4
 64
     7
 65
   257
 75
     1
175
     1
 42
1.0
 92
        8
 66
     8
 43
1.0
 76
     1
 77
     6
 78
     2
 67
     7
 79
     5
170
     0
171
     0
290
     0
174
     0
 93
        1
 44
0.0
173
     0
291
     1
 45
0.0
1001
ACAD
1000
AcDbSavedByObjectVersion
1070
     0
  0
VISUALSTYLE
  5
34
102
{ACAD_REACTORS
330
2A
102
}
330
2A
100
AcDbVisualStyle
  2
Conceptual
 70
     9
 71
     3
 72
     2
 73
     0
 90
        0
 40
-0.6
 41
-30.0
 62
     5
 63
     7
 74
     2
 91
        2
 64
     7
 65
   257
 75
     1
175
     1
 42
40.0
 92
        8
 66
     7
 43
1.0
 76
     1
 77
     6
 78
     2
 67
     7
 79
     3
170
     0
171
     0
290
     0
174
     0
 93
        1
 44
0.0
173
     0
291
     0
 45
0.0
1001
ACAD
1000
AcDbSavedByObjectVersion
1070
     0
  0
VISUALSTYLE
  5
35
102
{ACAD_REACTORS
330
2A
102
}
330
2A
100
AcDbVisualStyle
  2
Dim
 70
    11
 71
     2
 72
     2
 73
     0
 90
        0
 40
-0.6
 41
-30.0
 62
     5
 63
     7
 74
     1
 91
        4
 64
     7
 65
   257
 75
     1
175
     1
 42
1.0
 92
        8
 66
     7
 43
1.0
 76
     1
 77
     6
 78
     2
 67
     7
 79
     5
170
     0
171
     0
290
     0
174
     0
 93
        1
 44
-50.0
173
     0
291
     1
 45
0.0
1001
ACAD
1000
AcDbSavedByObjectVersion
1070
     0
  0
VISUALSTYLE
  5
39
102
{ACAD_REACTORS
330
2A
102
}
330
2A
100
AcDbVisualStyle
  2
Facepattern
 70
    15
 71
     2
 72
     2
 73
     0
 90
        0
 40
-0.6
 41
-30.0
 62
     5
 63
     7
 74
     1
 91
        4
 64
     7
 65
   257
 75
     1
175
     1
 42
1.0
 92
        8
 66
     7
 43
1.0
 76
     1
 77
     6
 78
     2
 67
     7
 79
     5
170
     0
171
     0
290
     0
174
     0
 93
        1
 44
0.0
173
     0
291
     1
 45
0.0
1001
ACAD
1000
AcDbSavedByObjectVersion
1070
     0
  0
VISUALSTYLE
  5
2B
102
{ACAD_REACTORS
330
2A
102
}
330
2A
100
AcDbVisualStyle
  2
Flat
 70
     0
 71
     2
 72
     1
 73
     1
 90
        2
 40
-0.6
 41
30.0
 62
     5
 63
     7
 74
     0
 91
        4
 64
     7
 65
   257
 75
     1
175
     1
 42
1.0
 92
        8
 66
     7
 43
1.0
 76
     1
 77
     6
 78
     2
 67
     7
 79
     5
170
     0
171
     0
290
     0
174
     0
 93
       13
 44
0.0
173
     0
291
     1
 45
0.0
1001
ACAD
1000
AcDbSavedByObjectVersion
1070
     0
  0
VISUALSTYLE
  5
2C
102
{ACAD_REACTORS
330
2A
102
}
330
2A
100
AcDbVisualStyle
  2
FlatWithEdges
 70
     1
 71
     2
 72
     1
 73
     1
 90
        2
 40
-0.6
 41
30.0
 62
     5
 63
     7
 74
     1
 91
        4
 64
     7
 65
   257
 75
     1
175
     1
 42
1.0
 92
        0
 66
   257
 43
1.0
 76
     1
 77
     6
 78
     2
 67
     7
 79
     5
170
     0
171
     0
290
     0
174
     0
 93
       13
 44
0.0
173
     0
291
     1
 45
0.0
1001
ACAD
1000
AcDbSavedByObjectVersion
1070
     0
  0
VISUALSTYLE
  5
2D
102
{ACAD_REACTORS
330
2A
102
}
330
2A
100
AcDbVisualStyle
  2
Gouraud
 70
     2
 71
     2
 72
     2
 73
     1
 90
        2
 40
-0.6
 41
30.0
 62
     5
 63
     7
 74
     0
 91
        4
 64
     7
 65
   257
 75
     1
175
     1
 42
1.0
 92
        0
 66
     7
 43
1.0
 76
     1
 77
     6
 78
     2
 67
     7
 79
     5
170
     0
171
     0
290
     0
174
     0
 93
       13
 44
0.0
173
     0
291
     1
 45
0.0
1001
ACAD
1000
AcDbSavedByObjectVersion
1070
     0
  0
VISUALSTYLE
  5
2E
102
{ACAD_REACTORS
330
2A
102
}
330
2A
100
AcDbVisualStyle
  2
GouraudWithEdges
 70
     3
 71
     2
 72
     2
 73
     1
 90
        2
 40
-0.6
 41
30.0
 62
     5
 63
     7
 74
     1
 91
        4
 64
     7
 65
   257
 75
     1
175
     1
 42
1.0
 92
        0
 66
   257
 43
1.0
 76
     1
 77
     6
 78
     2
 67
     7
 79
     5
170
     0
171
     0
290
     0
174
     0
 93
       13
 44
0.0
173
     0
291
     1
 45
0.0
1001
ACAD
1000
AcDbSavedByObjectVersion
1070
     0
  0
VISUALSTYLE
  5
38
102
{ACAD_REACTORS
330
2A
102
}
330
2A
100
AcDbVisualStyle
  2
Linepattern
 70
    14
 71
     2
 72
     2
 73
     0
 90
        0
 40
-0.6
 41
-30.0
 62
     5
 63
     7
 74
     1
 91
        4
 64
     7
 65
   257
 75
     7
175
     7
 42
1.0
 92
        8
 66
     7
 43
1.0
 76
     1
 77
     6
 78
     2
 67
     7
 79
     5
170
     0
171
     0
290
     0
174
     0
 93
        1
 44
0.0
173
     0
291
     1
 45
0.0
1001
ACAD
1000
AcDbSavedByObjectVersion
1070
     0
  0
VISUALSTYLE
  5
33
102
{ACAD_REACTORS
330
2A
102
}
330
2A
100
AcDbVisualStyle
  2
Realistic
 70
     8
 71
     2
 72
     2
 73
     0
 90
        0
 40
-0.6
 41
-30.0
 62
     5
 63
     7
 74
     1
 91
        0
 64
     7
 65
   257
 75
     1
175
     1
 42
1.0
 92
        8
 66
     8
 43
1.0
 76
     1
 77
     6
 78
     2
 67
     7
 79
     5
170
     0
171
     0
290
     0
174
     0
 93
       13
 44
0.0
173
     0
291
     0
 45
0.0
1001
ACAD
1000
AcDbSavedByObjectVersion
1070
     0
  0
VISUALSTYLE
  5
37
102
{ACAD_REACTORS
330
2A
102
}
330
2A
100
AcDbVisualStyle
  2
Thicken
 70
    13
 71
     2
 72
     2
 73
     0
 90
        0
 40
-0.6
 41
-30.0
 62
     5
 63
     7
 74
     1
 91
        4
 64
     7
 65
   257
 75
     1
175
     1
 42
1.0
 92
       12
 66
     7
 43
1.0
 76
     1
 77
     6
 78
     2
 67
     7
 79
     5
170
     0
171
     0
290
     0
174
     0
 93
        1
 44
0.0
173
     0
291
     1
 45
0.0
1001
ACAD
1000
AcDbSavedByObjectVersion
1070
     0
  0
DICTIONARYVAR
  5
5ED
102
{ACAD_REACTORS
330
5EC
102
}
330
5EC
100
DictionaryVariables
280
     0
  1
1:1
  0
DICTIONARYVAR
  5
5F1
102
{ACAD_REACTORS
330
5EC
102
}
330
5EC
100
DictionaryVariables
280
     0
  1
80.000000
  0
DICTIONARYVAR
  5
5F0
102
{ACAD_REACTORS
330
5EC
102
}
330
5EC
100
DictionaryVariables
280
     0
  1
5.000000
  0
ENDSEC
  0
EOF
