  0
SECTION
  2
HEADER
  9
$ACADVER
  1
AC1015
  9
$ACADMAINTVER
 70
     6
  9
$DWGCODEPAGE
  3
ANSI_932
  9
$INSBASE
 10
0.0
 20
0.0
 30
0.0
  9
$EXTMIN
 10
201.132675
 20
89.287201
 30
0.0
  9
$EXTMAX
 10
393.280518
 20
284.093506
 30
0.0
  9
$LIMMIN
 10
0.0
 20
0.0
  9
$LIMMAX
 10
12.0
 20
9.0
  9
$ORTHOMODE
 70
     0
  9
$REGENMODE
 70
     1
  9
$FILLMODE
 70
     1
  9
$QTEXTMODE
 70
     0
  9
$MIRRTEXT
 70
     1
  9
$LTSCALE
 40
2.736244
  9
$ATTMODE
 70
     1
  9
$TEXTSIZE
 40
3.2
  9
$TRACEWID
 40
1.0
  9
$TEXTSTYLE
  7
Standard
  9
$CLAYER
  8
0
  9
$CELTYPE
  6
ByLayer
  9
$CECOLOR
 62
   256
  9
$CELTSCALE
 40
1.0
  9
$DISPSILH
 70
     0
  9
$DIMSCALE
 40
1.0
  9
$DIMASZ
 40
2.5
  9
$DIMEXO
 40
0.625
  9
$DIMDLI
 40
3.75
  9
$DIMRND
 40
0.0
  9
$DIMDLE
 40
0.0
  9
$DIMEXE
 40
1.25
  9
$DIMTP
 40
0.0
  9
$DIMTM
 40
0.0
  9
$DIMTXT
 40
2.5
  9
$DIMCEN
 40
0.09
  9
$DIMTSZ
 40
0.0
  9
$DIMTOL
 70
     0
  9
$DIMLIM
 70
     0
  9
$DIMTIH
 70
     0
  9
$DIMTOH
 70
     0
  9
$DIMSE1
 70
     0
  9
$DIMSE2
 70
     0
  9
$DIMTAD
 70
     0
  9
$DIMZIN
 70
     8
  9
$DIMBLK
  1

  9
$DIMASO
 70
     1
  9
$DIMSHO
 70
     0
  9
$DIMPOST
  1

  9
$DIMAPOST
  1

  9
$DIMALT
 70
     0
  9
$DIMALTD
 70
     3
  9
$DIMALTF
 40
0.03937
  9
$DIMLFAC
 40
1.0
  9
$DIMTOFL
 70
     1
  9
$DIMTVP
 40
0.0
  9
$DIMTIX
 70
     0
  9
$DIMSOXD
 70
     0
  9
$DIMSAH
 70
     0
  9
$DIMBLK1
  1

  9
$DIMBLK2
  1

  9
$DIMSTYLE
  2
ISO-25
  9
$DIMCLRD
 70
     0
  9
$DIMCLRE
 70
     0
  9
$DIMCLRT
 70
     0
  9
$DIMTFAC
 40
1.0
  9
$DIMGAP
 40
0.625
  9
$DIMJUST
 70
     0
  9
$DIMSD1
 70
     0
  9
$DIMSD2
 70
     0
  9
$DIMTOLJ
 70
     0
  9
$DIMTZIN
 70
     8
  9
$DIMALTZ
 70
     0
  9
$DIMALTTZ
 70
     0
  9
$DIMUPT
 70
     0
  9
$DIMDEC
 70
     2
  9
$DIMTDEC
 70
     2
  9
$DIMALTU
 70
     2
  9
$DIMALTTD
 70
     3
  9
$DIMTXSTY
  7
Standard
  9
$DIMAUNIT
 70
     0
  9
$DIMADEC
 70
     0
  9
$DIMALTRND
 40
0.0
  9
$DIMAZIN
 70
     0
  9
$DIMDSEP
 70
    44
  9
$DIMATFIT
 70
     3
  9
$DIMFRAC
 70
     0
  9
$DIMLDRBLK
  1

  9
$DIMLUNIT
 70
     2
  9
$DIMLWD
 70
    -2
  9
$DIMLWE
 70
    -2
  9
$DIMTMOVE
 70
     0
  9
$LUNITS
 70
     2
  9
$LUPREC
 70
     4
  9
$SKETCHINC
 40
1.0
  9
$FILLETRAD
 40
0.0
  9
$AUNITS
 70
     0
  9
$AUPREC
 70
     0
  9
$MENU
  1
.
  9
$ELEVATION
 40
0.0
  9
$PELEVATION
 40
0.0
  9
$THICKNESS
 40
0.0
  9
$LIMCHECK
 70
     0
  9
$CHAMFERA
 40
10.0
  9
$CHAMFERB
 40
10.0
  9
$CHAMFERC
 40
20.0
  9
$CHAMFERD
 40
0.0
  9
$SKPOLY
 70
     0
  9
$TDCREATE
 40
2455356.588478541
  9
$TDUCREATE
 40
2455356.213478541
  9
$TDUPDATE
 40
2455356.588478553
  9
$TDUUPDATE
 40
2455356.213478553
  9
$TDINDWG
 40
0.0000000116
  9
$TDUSRTIMER
 40
0.0000000116
  9
$USRTIMER
 70
     1
  9
$ANGBASE
 50
0.0
  9
$ANGDIR
 70
     0
  9
$PDMODE
 70
     0
  9
$PDSIZE
 40
0.0
  9
$PLINEWID
 40
0.0
  9
$SPLFRAME
 70
     0
  9
$SPLINETYPE
 70
     6
  9
$SPLINESEGS
 70
     8
  9
$HANDSEED
  5
5EE
  9
$SURFTAB1
 70
     6
  9
$SURFTAB2
 70
     6
  9
$SURFTYPE
 70
     6
  9
$SURFU
 70
     6
  9
$SURFV
 70
     6
  9
$UCSBASE
  2

  9
$UCSNAME
  2

  9
$UCSORG
 10
0.0
 20
0.0
 30
0.0
  9
$UCSXDIR
 10
1.0
 20
0.0
 30
0.0
  9
$UCSYDIR
 10
0.0
 20
1.0
 30
0.0
  9
$UCSORTHOREF
  2

  9
$UCSORTHOVIEW
 70
     0
  9
$UCSORGTOP
 10
0.0
 20
0.0
 30
0.0
  9
$UCSORGBOTTOM
 10
0.0
 20
0.0
 30
0.0
  9
$UCSORGLEFT
 10
0.0
 20
0.0
 30
0.0
  9
$UCSORGRIGHT
 10
0.0
 20
0.0
 30
0.0
  9
$UCSORGFRONT
 10
0.0
 20
0.0
 30
0.0
  9
$UCSORGBACK
 10
0.0
 20
0.0
 30
0.0
  9
$PUCSBASE
  2

  9
$PUCSNAME
  2

  9
$PUCSORG
 10
0.0
 20
0.0
 30
0.0
  9
$PUCSXDIR
 10
1.0
 20
0.0
 30
0.0
  9
$PUCSYDIR
 10
0.0
 20
1.0
 30
0.0
  9
$PUCSORTHOREF
  2

  9
$PUCSORTHOVIEW
 70
     0
  9
$PUCSORGTOP
 10
0.0
 20
0.0
 30
0.0
  9
$PUCSORGBOTTOM
 10
0.0
 20
0.0
 30
0.0
  9
$PUCSORGLEFT
 10
0.0
 20
0.0
 30
0.0
  9
$PUCSORGRIGHT
 10
0.0
 20
0.0
 30
0.0
  9
$PUCSORGFRONT
 10
0.0
 20
0.0
 30
0.0
  9
$PUCSORGBACK
 10
0.0
 20
0.0
 30
0.0
  9
$USERI1
 70
     0
  9
$USERI2
 70
     0
  9
$USERI3
 70
     0
  9
$USERI4
 70
     0
  9
$USERI5
 70
     0
  9
$USERR1
 40
0.0
  9
$USERR2
 40
0.0
  9
$USERR3
 40
0.0
  9
$USERR4
 40
0.0
  9
$USERR5
 40
0.0
  9
$WORLDVIEW
 70
     1
  9
$SHADEDGE
 70
     3
  9
$SHADEDIF
 70
    70
  9
$TILEMODE
 70
     1
  9
$MAXACTVP
 70
    64
  9
$PINSBASE
 10
0.0
 20
0.0
 30
0.0
  9
$PLIMCHECK
 70
     0
  9
$PEXTMIN
 10
1.000000E+20
 20
1.000000E+20
 30
0.0
  9
$PEXTMAX
 10
-1.000000E+20
 20
-1.000000E+20
 30
0.0
  9
$PLIMMIN
 10
0.0
 20
0.0
  9
$PLIMMAX
 10
12.0
 20
9.0
  9
$UNITMODE
 70
     0
  9
$VISRETAIN
 70
     1
  9
$PLINEGEN
 70
     0
  9
$PSLTSCALE
 70
     1
  9
$TREEDEPTH
 70
  3020
  9
$CMLSTYLE
  2
Standard
  9
$CMLJUST
 70
     0
  9
$CMLSCALE
 40
20.0
  9
$PROXYGRAPHICS
 70
     1
  9
$MEASUREMENT
 70
     1
  9
$CELWEIGHT
370
    -1
  9
$ENDCAPS
280
     0
  9
$JOINSTYLE
280
     0
  9
$LWDISPLAY
290
     0
  9
$INSUNITS
 70
     4
  9
$HYPERLINKBASE
  1

  9
$STYLESHEET
  1

  9
$XEDIT
290
     1
  9
$CEPSNTYPE
380
     0
  9
$PSTYLEMODE
290
     1
  9
$FINGERPRINTGUID
  2
{2190FCEA-1415-4C75-B5C8-F1DC22516057}
  9
$VERSIONGUID
  2
{FAEB1C32-E019-11D5-929B-00C0DF256EC4}
  9
$EXTNAMES
290
     1
  9
$PSVPSCALE
 40
0.0
  9
$OLESTARTUP
290
     0
  0
ENDSEC
  0
SECTION
  2
CLASSES
  0
CLASS
  1
ACDBDICTIONARYWDFLT
  2
AcDbDictionaryWithDefault
  3
ObjectDBX Classes
 90
        0
280
     0
281
     0
  0
CLASS
  1
VISUALSTYLE
  2
AcDbVisualStyle
  3
ObjectDBX Classes
 90
     4095
280
     0
281
     0
  0
CLASS
  1
SCALE
  2
AcDbScale
  3
ObjectDBX Classes
 90
     1153
280
     0
281
     0
  0
CLASS
  1
DICTIONARYVAR
  2
AcDbDictionaryVar
  3
ObjectDBX Classes
 90
        0
280
     0
281
     0
  0
CLASS
  1
ACDBPLACEHOLDER
  2
AcDbPlaceHolder
  3
ObjectDBX Classes
 90
        0
280
     0
281
     0
  0
CLASS
  1
LAYOUT
  2
AcDbLayout
  3
ObjectDBX Classes
 90
        0
280
     0
281
     0
  0
ENDSEC
  0
SECTION
  2
TABLES
  0
TABLE
  2
VPORT
  5
8
330
0
100
AcDbSymbolTable
 70
     1
  0
VPORT
  5
29
330
8
100
AcDbSymbolTableRecord
100
AcDbViewportTableRecord
  2
*Active
 70
     0
 10
0.0
 20
0.0
 11
1.0
 21
1.0
 12
297.206596
 22
186.690353
 13
0.0
 23
0.0
 14
1.0
 24
1.0
 15
0.0
 25
0.0
 16
0.0
 26
0.0
 36
1.0
 17
0.0
 27
0.0
 37
0.0
 40
196.754368
 41
1.691288
 42
50.0
 43
0.0
 44
0.0
 50
0.0
 51
0.0
 71
     0
 72
   100
 73
     1
 74
     3
 75
     0
 76
     0
 77
     0
 78
     0
281
     0
 65
     1
110
0.0
120
0.0
130
0.0
111
1.0
121
0.0
131
0.0
112
0.0
122
1.0
132
0.0
 79
     0
146
0.0
  0
ENDTAB
  0
TABLE
  2
LTYPE
  5
5
330
0
100
AcDbSymbolTable
 70
     5
  0
LTYPE
  5
14
330
5
100
AcDbSymbolTableRecord
100
AcDbLinetypeTableRecord
  2
ByBlock
 70
     0
  3

 72
    65
 73
     0
 40
0.0
  0
LTYPE
  5
15
330
5
100
AcDbSymbolTableRecord
100
AcDbLinetypeTableRecord
  2
ByLayer
 70
     0
  3

 72
    65
 73
     0
 40
0.0
  0
LTYPE
  5
16
330
5
100
AcDbSymbolTableRecord
100
AcDbLinetypeTableRecord
  2
Continuous
 70
     0
  3
Solid line
 72
    65
 73
     0
 40
0.0
  0
LTYPE
  5
5D
330
5
100
AcDbSymbolTableRecord
100
AcDbLinetypeTableRecord
  2
DASHED
 70
     0
  3
DASHED
 72
    83
 73
     2
 40
0.75
 49
0.5
 74
     0
 49
-0.25
 74
     0
  0
LTYPE
  5
5E
330
5
100
AcDbSymbolTableRecord
100
AcDbLinetypeTableRecord
  2
HIDDEN
 70
     0
  3
HIDDEN
 72
    83
 73
     2
 40
0.375
 49
0.25
 74
     0
 49
-0.125
 74
     0
  0
LTYPE
  5
5F
330
5
100
AcDbSymbolTableRecord
100
AcDbLinetypeTableRecord
  2
CENTER
 70
     0
  3
CENTER
 72
    83
 73
     4
 40
2.0
 49
1.25
 74
     0
 49
-0.25
 74
     0
 49
0.25
 74
     0
 49
-0.25
 74
     0
  0
LTYPE
  5
60
330
5
100
AcDbSymbolTableRecord
100
AcDbLinetypeTableRecord
  2
PHANTOM
 70
     0
  3
PHANTOM
 72
    83
 73
     6
 40
2.5
 49
1.25
 74
     0
 49
-0.25
 74
     0
 49
0.25
 74
     0
 49
-0.25
 74
     0
 49
0.25
 74
     0
 49
-0.25
 74
     0
  0
ENDTAB
  0
TABLE
  2
LAYER
  5
2
330
0
100
AcDbSymbolTable
 70
     2
  0
LAYER
  5
10
330
2
100
AcDbSymbolTableRecord
100
AcDbLayerTableRecord
  2
0
 70
     0
 62
     7
  6
Continuous
370
    -3
390
F
  0
LAYER
  5
61
330
2
100
AcDbSymbolTableRecord
100
AcDbLayerTableRecord
  2
001
 70
     0
 62
     7
  6
Continuous
370
    -3
390
F
  0
ENDTAB
  0
TABLE
  2
STYLE
  5
3
330
0
100
AcDbSymbolTable
 70
     2
  0
STYLE
  5
11
330
3
100
AcDbSymbolTableRecord
100
AcDbTextStyleTableRecord
  2
Standard
 70
     0
 40
0.0
 41
1.0
 50
0.0
 71
     0
 42
0.2
  3
TXT
  4
BIGFONT
  0
STYLE
  5
62
330
3
100
AcDbSymbolTableRecord
100
AcDbTextStyleTableRecord
  2
TATEGAKI
 70
     4
 40
1.0
 41
1.0
 50
0.0
 71
     0
 42
0.2
  3
TXT
  4
BIGFONT
  0
ENDTAB
  0
TABLE
  2
VIEW
  5
6
330
0
100
AcDbSymbolTable
 70
     0
  0
ENDTAB
  0
TABLE
  2
UCS
  5
7
330
0
100
AcDbSymbolTable
 70
     0
  0
ENDTAB
  0
TABLE
  2
APPID
  5
9
330
0
100
AcDbSymbolTable
 70
     1
  0
APPID
  5
12
330
9
100
AcDbSymbolTableRecord
100
AcDbRegAppTableRecord
  2
ACAD
 70
     0
  0
ENDTAB
  0
TABLE
  2
DIMSTYLE
  5
A
330
0
100
AcDbSymbolTable
 70
     2
100
AcDbDimStyleTable
  0
DIMSTYLE
105
27
330
A
100
AcDbSymbolTableRecord
100
AcDbDimStyleTableRecord
  2
ISO-25
 70
     0
 41
2.5
 42
0.625
 43
3.75
 44
1.25
 73
     0
 74
     0
 77
     1
 78
     8
140
2.5
141
2.5
143
0.03937
147
0.625
171
     3
172
     1
271
     2
272
     2
274
     3
278
    44
283
     0
284
     8
340
11
  0
DIMSTYLE
105
63
102
{ACAD_REACTORS
330
B4
330
B5
330
C2
330
C3
102
}
330
A
100
AcDbSymbolTableRecord
100
AcDbDimStyleTableRecord
  2
Standard
 70
     0
 41
1.5
 42
0.0
 44
2.75
 73
     0
 74
     0
 77
     1
 78
     8
 79
     2
140
4.0
146
0.8
147
1.0
172
     1
179
     1
271
     1
340
11
  0
ENDTAB
  0
TABLE
  2
BLOCK_RECORD
  5
1
330
0
100
AcDbSymbolTable
 70
     5
  0
BLOCK_RECORD
  5
1F
330
1
100
AcDbSymbolTableRecord
100
AcDbBlockTableRecord
  2
*Model_Space
340
22
  0
BLOCK_RECORD
  5
1B
330
1
100
AcDbSymbolTableRecord
100
AcDbBlockTableRecord
  2
*Paper_Space
340
1E
  0
BLOCK_RECORD
  5
23
330
1
100
AcDbSymbolTableRecord
100
AcDbBlockTableRecord
  2
*Paper_Space0
340
26
  0
BLOCK_RECORD
  5
64
330
1
100
AcDbSymbolTableRecord
100
AcDbBlockTableRecord
  2
*D1
340
0
  0
BLOCK_RECORD
  5
78
330
1
100
AcDbSymbolTableRecord
100
AcDbBlockTableRecord
  2
*D2
340
0
  0
BLOCK_RECORD
  5
8C
330
1
100
AcDbSymbolTableRecord
100
AcDbBlockTableRecord
  2
*D3
340
0
  0
BLOCK_RECORD
  5
A0
330
1
100
AcDbSymbolTableRecord
100
AcDbBlockTableRecord
  2
*D4
340
0
  0
ENDTAB
  0
ENDSEC
  0
SECTION
  2
BLOCKS
  0
BLOCK
  5
20
330
1F
100
AcDbEntity
  8
0
100
AcDbBlockBegin
  2
*Model_Space
 70
     0
 10
0.0
 20
0.0
 30
0.0
  3
*Model_Space
  1

  0
ENDBLK
  5
21
330
1F
100
AcDbEntity
  8
0
100
AcDbBlockEnd
  0
BLOCK
  5
1C
330
1B
100
AcDbEntity
 67
     1
  8
0
100
AcDbBlockBegin
  2
*Paper_Space
 70
     0
 10
0.0
 20
0.0
 30
0.0
  3
*Paper_Space
  1

  0
ENDBLK
  5
1D
330
1B
100
AcDbEntity
 67
     1
  8
0
100
AcDbBlockEnd
  0
BLOCK
  5
24
330
23
100
AcDbEntity
  8
0
100
AcDbBlockBegin
  2
*Paper_Space0
 70
     0
 10
0.0
 20
0.0
 30
0.0
  3
*Paper_Space0
  1

  0
ENDBLK
  5
25
330
23
100
AcDbEntity
  8
0
100
AcDbBlockEnd
  0
BLOCK
  5
65
330
64
100
AcDbEntity
  8
0
100
AcDbBlockBegin
  2
*D1
 70
     1
 10
0.0
 20
0.0
 30
0.0
  3
*D1
  1

  0
LINE
  5
67
330
64
100
AcDbEntity
  8
001
370
     9
100
AcDbLine
 10
235.766225
 20
131.513792
 30
0.0
 11
235.766225
 21
89.287206
 31
0.0
  0
LINE
  5
68
330
64
100
AcDbEntity
  8
001
370
     9
100
AcDbLine
 10
359.266225
 20
186.913244
 30
0.0
 11
359.266225
 21
89.287206
 31
0.0
  0
LINE
  5
69
330
64
100
AcDbEntity
  8
001
370
     9
100
AcDbLine
 10
235.766225
 20
92.037206
 30
0.0
 11
359.266225
 21
92.037206
 31
0.0
  0
POLYLINE
  5
6A
330
64
100
AcDbEntity
  8
001
370
     9
100
AcDb2dPolyline
 66
     1
 10
0.0
 20
0.0
 30
0.0
  0
VERTEX
  5
6C
330
6A
100
AcDbEntity
  8
001
370
     9
100
AcDbVertex
100
AcDb2dVertex
 10
237.266225
 20
91.635283
 30
0.0
  0
VERTEX
  5
6D
330
6A
100
AcDbEntity
  8
001
370
     9
100
AcDbVertex
100
AcDb2dVertex
 10
235.766225
 20
92.037206
 30
0.0
  0
VERTEX
  5
6E
330
6A
100
AcDbEntity
  8
001
370
     9
100
AcDbVertex
100
AcDb2dVertex
 10
237.266225
 20
92.43913
 30
0.0
  0
SEQEND
  5
6B
330
6A
100
AcDbEntity
  8
001
370
     9
  0
POLYLINE
  5
6F
330
64
100
AcDbEntity
  8
001
370
     9
100
AcDb2dPolyline
 66
     1
 10
0.0
 20
0.0
 30
0.0
  0
VERTEX
  5
71
330
6F
100
AcDbEntity
  8
001
370
     9
100
AcDbVertex
100
AcDb2dVertex
 10
357.766225
 20
92.43913
 30
0.0
  0
VERTEX
  5
72
330
6F
100
AcDbEntity
  8
001
370
     9
100
AcDbVertex
100
AcDb2dVertex
 10
359.266225
 20
92.037206
 30
0.0
  0
VERTEX
  5
73
330
6F
100
AcDbEntity
  8
001
370
     9
100
AcDbVertex
100
AcDb2dVertex
 10
357.766225
 20
91.635283
 30
0.0
  0
SEQEND
  5
70
330
6F
100
AcDbEntity
  8
001
370
     9
  0
TEXT
  5
74
330
64
100
AcDbEntity
  8
001
370
    30
100
AcDbText
 10
287.516225
 20
93.037206
 30
0.0
 40
4.0
  1
１２３．５
 41
0.833333
100
AcDbText
  0
POINT
  5
75
330
64
100
AcDbEntity
  8
001
370
     9
100
AcDbPoint
 10
235.766225
 20
131.513792
 30
0.0
  0
POINT
  5
76
330
64
100
AcDbEntity
  8
001
370
     9
100
AcDbPoint
 10
359.266225
 20
186.913244
 30
0.0
  0
POINT
  5
77
330
64
100
AcDbEntity
  8
001
370
     9
100
AcDbPoint
 10
359.266225
 20
92.037206
 30
0.0
  0
ENDBLK
  5
66
330
64
100
AcDbEntity
  8
0
100
AcDbBlockEnd
  0
BLOCK
  5
79
330
78
100
AcDbEntity
  8
0
100
AcDbBlockBegin
  2
*D2
 70
     1
 10
0.0
 20
0.0
 30
0.0
  3
*D2
  1

  0
LINE
  5
7B
330
78
100
AcDbEntity
  8
001
370
     9
100
AcDbLine
 10
235.766225
 20
132.312696
 30
0.0
 11
235.766225
 21
103.463083
 31
0.0
  0
LINE
  5
7C
330
78
100
AcDbEntity
  8
001
370
     9
100
AcDbLine
 10
279.266225
 20
152.913244
 30
0.0
 11
279.266225
 21
103.463083
 31
0.0
  0
LINE
  5
7D
330
78
100
AcDbEntity
  8
001
370
     9
100
AcDbLine
 10
235.766225
 20
106.213083
 30
0.0
 11
279.266225
 21
106.213083
 31
0.0
  0
POLYLINE
  5
7E
330
78
100
AcDbEntity
  8
001
370
     9
100
AcDb2dPolyline
 66
     1
 10
0.0
 20
0.0
 30
0.0
  0
VERTEX
  5
80
330
7E
100
AcDbEntity
  8
001
370
     9
100
AcDbVertex
100
AcDb2dVertex
 10
237.266225
 20
105.811159
 30
0.0
  0
VERTEX
  5
81
330
7E
100
AcDbEntity
  8
001
370
     9
100
AcDbVertex
100
AcDb2dVertex
 10
235.766225
 20
106.213083
 30
0.0
  0
VERTEX
  5
82
330
7E
100
AcDbEntity
  8
001
370
     9
100
AcDbVertex
100
AcDb2dVertex
 10
237.266225
 20
106.615006
 30
0.0
  0
SEQEND
  5
7F
330
7E
100
AcDbEntity
  8
001
370
     9
  0
POLYLINE
  5
83
330
78
100
AcDbEntity
  8
001
370
     9
100
AcDb2dPolyline
 66
     1
 10
0.0
 20
0.0
 30
0.0
  0
VERTEX
  5
85
330
83
100
AcDbEntity
  8
001
370
     9
100
AcDbVertex
100
AcDb2dVertex
 10
277.766225
 20
106.615006
 30
0.0
  0
VERTEX
  5
86
330
83
100
AcDbEntity
  8
001
370
     9
100
AcDbVertex
100
AcDb2dVertex
 10
279.266225
 20
106.213083
 30
0.0
  0
VERTEX
  5
87
330
83
100
AcDbEntity
  8
001
370
     9
100
AcDbVertex
100
AcDb2dVertex
 10
277.766225
 20
105.811159
 30
0.0
  0
SEQEND
  5
84
330
83
100
AcDbEntity
  8
001
370
     9
  0
TEXT
  5
88
330
78
100
AcDbEntity
  8
001
370
    30
100
AcDbText
 10
249.516225
 20
107.213083
 30
0.0
 40
4.0
  1
４３．５
 41
0.833333
100
AcDbText
  0
POINT
  5
89
330
78
100
AcDbEntity
  8
001
370
     9
100
AcDbPoint
 10
235.766225
 20
132.312696
 30
0.0
  0
POINT
  5
8A
330
78
100
AcDbEntity
  8
001
370
     9
100
AcDbPoint
 10
279.266225
 20
152.913244
 30
0.0
  0
POINT
  5
8B
330
78
100
AcDbEntity
  8
001
370
     9
100
AcDbPoint
 10
279.266225
 20
106.213083
 30
0.0
  0
ENDBLK
  5
7A
330
78
100
AcDbEntity
  8
0
100
AcDbBlockEnd
  0
BLOCK
  5
8D
330
8C
100
AcDbEntity
  8
0
100
AcDbBlockBegin
  2
*D3
 70
     1
 10
0.0
 20
0.0
 30
0.0
  3
*D3
  1

  0
LINE
  5
8F
330
8C
100
AcDbEntity
  8
001
370
     9
100
AcDbLine
 10
351.266225
 20
212.913244
 30
0.0
 11
393.280535
 21
212.913244
 31
0.0
  0
LINE
  5
90
330
8C
100
AcDbEntity
  8
001
370
     9
100
AcDbLine
 10
351.266225
 20
180.913244
 30
0.0
 11
393.280535
 21
180.913244
 31
0.0
  0
LINE
  5
91
330
8C
100
AcDbEntity
  8
001
370
     9
100
AcDbLine
 10
390.530535
 20
212.913244
 30
0.0
 11
390.530535
 21
180.913244
 31
0.0
  0
POLYLINE
  5
92
330
8C
100
AcDbEntity
  8
001
370
     9
100
AcDb2dPolyline
 66
     1
 10
0.0
 20
0.0
 30
0.0
  0
VERTEX
  5
94
330
92
100
AcDbEntity
  8
001
370
     9
100
AcDbVertex
100
AcDb2dVertex
 10
390.128611
 20
211.413244
 30
0.0
  0
VERTEX
  5
95
330
92
100
AcDbEntity
  8
001
370
     9
100
AcDbVertex
100
AcDb2dVertex
 10
390.530535
 20
212.913244
 30
0.0
  0
VERTEX
  5
96
330
92
100
AcDbEntity
  8
001
370
     9
100
AcDbVertex
100
AcDb2dVertex
 10
390.932458
 20
211.413244
 30
0.0
  0
SEQEND
  5
93
330
92
100
AcDbEntity
  8
001
370
     9
  0
POLYLINE
  5
97
330
8C
100
AcDbEntity
  8
001
370
     9
100
AcDb2dPolyline
 66
     1
 10
0.0
 20
0.0
 30
0.0
  0
VERTEX
  5
99
330
97
100
AcDbEntity
  8
001
370
     9
100
AcDbVertex
100
AcDb2dVertex
 10
390.932458
 20
182.413244
 30
0.0
  0
VERTEX
  5
9A
330
97
100
AcDbEntity
  8
001
370
     9
100
AcDbVertex
100
AcDb2dVertex
 10
390.530535
 20
180.913244
 30
0.0
  0
VERTEX
  5
9B
330
97
100
AcDbEntity
  8
001
370
     9
100
AcDbVertex
100
AcDb2dVertex
 10
390.128611
 20
182.413244
 30
0.0
  0
SEQEND
  5
98
330
97
100
AcDbEntity
  8
001
370
     9
  0
TEXT
  5
9C
330
8C
100
AcDbEntity
  8
001
370
    30
100
AcDbText
 10
389.530535
 20
190.913244
 30
0.0
 40
4.0
  1
%%c３２
 50
90.000003
 41
0.882353
100
AcDbText
  0
POINT
  5
9D
330
8C
100
AcDbEntity
  8
001
370
     9
100
AcDbPoint
 10
351.266225
 20
212.913244
 30
0.0
  0
POINT
  5
9E
330
8C
100
AcDbEntity
  8
001
370
     9
100
AcDbPoint
 10
351.266225
 20
180.913244
 30
0.0
  0
POINT
  5
9F
330
8C
100
AcDbEntity
  8
001
370
     9
100
AcDbPoint
 10
390.530535
 20
180.913244
 30
0.0
  0
ENDBLK
  5
8E
330
8C
100
AcDbEntity
  8
0
100
AcDbBlockEnd
  0
BLOCK
  5
A1
330
A0
100
AcDbEntity
  8
0
100
AcDbBlockBegin
  2
*D4
 70
     1
 10
0.0
 20
0.0
 30
0.0
  3
*D4
  1

  0
LINE
  5
A3
330
A0
100
AcDbEntity
  8
001
370
     9
100
AcDbLine
 10
359.266225
 20
188.913244
 30
0.0
 11
359.266225
 21
103.463083
 31
0.0
  0
LINE
  5
A4
330
A0
100
AcDbEntity
  8
001
370
     9
100
AcDbLine
 10
279.266225
 20
152.913244
 30
0.0
 11
279.266225
 21
103.463083
 31
0.0
  0
LINE
  5
A5
330
A0
100
AcDbEntity
  8
001
370
     9
100
AcDbLine
 10
359.266225
 20
106.213083
 30
0.0
 11
279.266225
 21
106.213083
 31
0.0
  0
POLYLINE
  5
A6
330
A0
100
AcDbEntity
  8
001
370
     9
100
AcDb2dPolyline
 66
     1
 10
0.0
 20
0.0
 30
0.0
  0
VERTEX
  5
A8
330
A6
100
AcDbEntity
  8
001
370
     9
100
AcDbVertex
100
AcDb2dVertex
 10
357.766225
 20
106.615006
 30
0.0
  0
VERTEX
  5
A9
330
A6
100
AcDbEntity
  8
001
370
     9
100
AcDbVertex
100
AcDb2dVertex
 10
359.266225
 20
106.213083
 30
0.0
  0
VERTEX
  5
AA
330
A6
100
AcDbEntity
  8
001
370
     9
100
AcDbVertex
100
AcDb2dVertex
 10
357.766225
 20
105.811159
 30
0.0
  0
SEQEND
  5
A7
330
A6
100
AcDbEntity
  8
001
370
     9
  0
POLYLINE
  5
AB
330
A0
100
AcDbEntity
  8
001
370
     9
100
AcDb2dPolyline
 66
     1
 10
0.0
 20
0.0
 30
0.0
  0
VERTEX
  5
AD
330
AB
100
AcDbEntity
  8
001
370
     9
100
AcDbVertex
100
AcDb2dVertex
 10
280.766225
 20
105.811159
 30
0.0
  0
VERTEX
  5
AE
330
AB
100
AcDbEntity
  8
001
370
     9
100
AcDbVertex
100
AcDb2dVertex
 10
279.266225
 20
106.213083
 30
0.0
  0
VERTEX
  5
AF
330
AB
100
AcDbEntity
  8
001
370
     9
100
AcDbVertex
100
AcDb2dVertex
 10
280.766225
 20
106.615006
 30
0.0
  0
SEQEND
  5
AC
330
AB
100
AcDbEntity
  8
001
370
     9
  0
TEXT
  5
B0
330
A0
100
AcDbEntity
  8
001
370
    30
100
AcDbText
 10
315.266225
 20
107.213083
 30
0.0
 40
4.0
  1
８０
 41
0.833333
100
AcDbText
  0
POINT
  5
B1
330
A0
100
AcDbEntity
  8
001
370
     9
100
AcDbPoint
 10
359.266225
 20
188.913244
 30
0.0
  0
POINT
  5
B2
330
A0
100
AcDbEntity
  8
001
370
     9
100
AcDbPoint
 10
279.266225
 20
152.913244
 30
0.0
  0
POINT
  5
B3
330
A0
100
AcDbEntity
  8
001
370
     9
100
AcDbPoint
 10
279.266225
 20
106.213083
 30
0.0
  0
ENDBLK
  5
A2
330
A0
100
AcDbEntity
  8
0
100
AcDbBlockEnd
  0
ENDSEC
  0
SECTION
  2
ENTITIES
  0
DIMENSION
  5
B4
330
1F
100
AcDbEntity
  8
001
370
     9
100
AcDbDimension
  2
*D1
 10
359.266225
 20
92.037206
 30
0.0
 11
297.516225
 21
95.037206
 31
0.0
 70
   160
 71
     5
 42
-1.0
  3
Standard
100
AcDbAlignedDimension
 13
235.766225
 23
131.513792
 33
0.0
 14
359.266225
 24
186.913244
 34
0.0
100
AcDbRotatedDimension
  0
DIMENSION
  5
B5
330
1F
100
AcDbEntity
  8
001
370
     9
100
AcDbDimension
  2
*D2
 10
279.266225
 20
106.213083
 30
0.0
 11
257.516225
 21
109.213083
 31
0.0
 70
   160
 71
     5
 42
-1.0
  3
Standard
100
AcDbAlignedDimension
 13
235.766225
 23
132.312696
 33
0.0
 14
279.266225
 24
152.913244
 34
0.0
 50
360.0
100
AcDbRotatedDimension
  0
TEXT
  5
B6
330
1F
100
AcDbEntity
  8
001
370
    30
100
AcDbText
 10
205.132696
 20
188.913244
 30
0.0
 40
4.0
  1
%%c１３０
 50
90.000003
 41
0.869565
100
AcDbText
  0
POLYLINE
  5
B7
330
1F
100
AcDbEntity
  8
001
370
     9
100
AcDb2dPolyline
 66
     1
 10
0.0
 20
0.0
 30
0.0
  0
VERTEX
  5
B9
330
B7
100
AcDbEntity
  8
001
370
     9
100
AcDbVertex
100
AcDb2dVertex
 10
206.534619
 20
133.413244
 30
0.0
  0
VERTEX
  5
BA
330
B7
100
AcDbEntity
  8
001
370
     9
100
AcDbVertex
100
AcDb2dVertex
 10
206.132696
 20
131.913244
 30
0.0
  0
VERTEX
  5
BB
330
B7
100
AcDbEntity
  8
001
370
     9
100
AcDbVertex
100
AcDb2dVertex
 10
205.730772
 20
133.413244
 30
0.0
  0
SEQEND
  5
B8
330
B7
100
AcDbEntity
  8
001
370
     9
  0
LINE
  5
BC
330
1F
100
AcDbEntity
  8
001
370
     9
100
AcDbLine
 10
206.132696
 20
261.913244
 30
0.0
 11
206.132696
 21
131.913244
 31
0.0
  0
POLYLINE
  5
BD
330
1F
100
AcDbEntity
  8
001
370
     9
100
AcDb2dPolyline
 66
     1
 10
0.0
 20
0.0
 30
0.0
  0
VERTEX
  5
BF
330
BD
100
AcDbEntity
  8
001
370
     9
100
AcDbVertex
100
AcDb2dVertex
 10
235.766225
 20
131.913244
 30
0.0
  0
VERTEX
  5
C0
330
BD
100
AcDbEntity
  8
001
370
     9
100
AcDbVertex
100
AcDb2dVertex
 10
206.132696
 20
131.913244
 30
0.0
  0
VERTEX
  5
C1
330
BD
100
AcDbEntity
  8
001
370
     9
100
AcDbVertex
100
AcDb2dVertex
 10
203.382696
 20
131.913244
 30
0.0
  0
SEQEND
  5
BE
330
BD
100
AcDbEntity
  8
001
370
     9
  0
DIMENSION
  5
C2
330
1F
100
AcDbEntity
  8
001
370
     9
100
AcDbDimension
  2
*D3
 10
390.530535
 20
180.913244
 30
0.0
 11
387.530534
 21
196.913244
 31
0.0
 70
   160
 71
     5
 42
-1.0
  3
Standard
100
AcDbAlignedDimension
 13
351.266225
 23
212.913244
 33
0.0
 14
351.266225
 24
180.913244
 34
0.0
 50
270.0
100
AcDbRotatedDimension
  0
DIMENSION
  5
C3
330
1F
100
AcDbEntity
  8
001
370
     9
100
AcDbDimension
  2
*D4
 10
279.266225
 20
106.213083
 30
0.0
 11
319.266225
 21
109.213083
 31
0.0
 70
   160
 71
     5
 42
-1.0
  3
Standard
100
AcDbAlignedDimension
 13
359.266225
 23
188.913244
 33
0.0
 14
279.266225
 24
152.913244
 34
0.0
 50
180.0
100
AcDbRotatedDimension
  0
LINE
  5
C4
330
1F
100
AcDbEntity
  8
001
  6
CENTER
370
     9
100
AcDbLine
 10
226.301474
 20
196.913244
 30
0.0
 11
367.622095
 21
196.913244
 31
0.0
  0
LINE
  5
C5
330
1F
100
AcDbEntity
  8
001
370
    50
100
AcDbLine
 10
359.266225
 20
196.913244
 30
0.0
 11
364.933687
 21
200.185354
 31
0.0
  0
LINE
  5
C6
330
1F
100
AcDbEntity
  8
001
370
    50
100
AcDbLine
 10
359.266225
 20
196.913244
 30
0.0
 11
364.933687
 21
193.641134
 31
0.0
  0
LINE
  5
C7
330
1F
100
AcDbEntity
  8
001
370
    50
100
AcDbLine
 10
239.266225
 20
196.913244
 30
0.0
 11
233.598764
 21
200.185354
 31
0.0
  0
LINE
  5
C8
330
1F
100
AcDbEntity
  8
001
370
    50
100
AcDbLine
 10
239.266225
 20
196.913244
 30
0.0
 11
233.598764
 21
193.641134
 31
0.0
  0
POLYLINE
  5
C9
330
1F
100
AcDbEntity
  8
001
 62
   200
370
    50
100
AcDb2dPolyline
 66
     1
 10
0.0
 20
0.0
 30
0.0
  0
VERTEX
  5
CB
330
C9
100
AcDbEntity
  8
001
 62
   200
370
    50
100
AcDbVertex
100
AcDb2dVertex
 10
242.983661
 20
229.842203
 30
0.0
  0
VERTEX
  5
CC
330
C9
100
AcDbEntity
  8
001
 62
   200
370
    50
100
AcDbVertex
100
AcDb2dVertex
 10
243.371401
 20
227.68535
 30
0.0
  0
VERTEX
  5
CD
330
C9
100
AcDbEntity
  8
001
 62
   200
370
    50
100
AcDbVertex
100
AcDb2dVertex
 10
244.133292
 20
224.579662
 30
0.0
  0
VERTEX
  5
CE
330
C9
100
AcDbEntity
  8
001
 62
   200
370
    50
100
AcDbVertex
100
AcDb2dVertex
 10
245.245213
 20
221.279396
 30
0.0
  0
VERTEX
  5
CF
330
C9
100
AcDbEntity
  8
001
 62
   200
370
    50
100
AcDbVertex
100
AcDb2dVertex
 10
246.139449
 20
219.065883
 30
0.0
  0
SEQEND
  5
CA
330
C9
100
AcDbEntity
  8
001
370
    50
  0
LINE
  5
D0
330
1F
100
AcDbEntity
  8
001
 62
   200
370
    50
100
AcDbLine
 10
246.139449
 20
219.065883
 30
0.0
 11
241.410649
 21
219.065883
 31
0.0
  0
POLYLINE
  5
D1
330
1F
100
AcDbEntity
  8
001
 62
   200
370
    50
100
AcDb2dPolyline
 66
     1
 10
0.0
 20
0.0
 30
0.0
  0
VERTEX
  5
D3
330
D1
100
AcDbEntity
  8
001
 62
   200
370
    50
100
AcDbVertex
100
AcDb2dVertex
 10
241.405565
 20
225.093896
 30
0.0
  0
VERTEX
  5
D4
330
D1
100
AcDbEntity
  8
001
 62
   200
370
    50
100
AcDbVertex
100
AcDb2dVertex
 10
241.406265
 20
223.606776
 30
0.0
  0
VERTEX
  5
D5
330
D1
100
AcDbEntity
  8
001
 62
   200
370
    50
100
AcDbVertex
100
AcDb2dVertex
 10
241.407261
 20
222.119656
 30
0.0
  0
VERTEX
  5
D6
330
D1
100
AcDbEntity
  8
001
 62
   200
370
    50
100
AcDbVertex
100
AcDb2dVertex
 10
241.408799
 20
220.59277
 30
0.0
  0
VERTEX
  5
D7
330
D1
100
AcDbEntity
  8
001
 62
   200
370
    50
100
AcDbVertex
100
AcDb2dVertex
 10
241.410649
 20
219.065883
 30
0.0
  0
SEQEND
  5
D2
330
D1
100
AcDbEntity
  8
001
370
    50
  0
POLYLINE
  5
D8
330
1F
100
AcDbEntity
  8
001
 62
   200
370
    50
100
AcDb2dPolyline
 66
     1
 10
0.0
 20
0.0
 30
0.0
  0
VERTEX
  5
DA
330
D8
100
AcDbEntity
  8
001
 62
   200
370
    50
100
AcDbVertex
100
AcDb2dVertex
 10
241.405565
 20
225.093896
 30
0.0
  0
VERTEX
  5
DB
330
D8
100
AcDbEntity
  8
001
 62
   200
370
    50
100
AcDbVertex
100
AcDb2dVertex
 10
241.48089
 20
226.891394
 30
0.0
  0
VERTEX
  5
DC
330
D8
100
AcDbEntity
  8
001
 62
   200
370
    50
100
AcDbVertex
100
AcDb2dVertex
 10
241.419265
 20
229.516039
 30
0.0
  0
VERTEX
  5
DD
330
D8
100
AcDbEntity
  8
001
 62
   200
370
    50
100
AcDbVertex
100
AcDb2dVertex
 10
241.411707
 20
229.620782
 30
0.0
  0
VERTEX
  5
DE
330
D8
100
AcDbEntity
  8
001
 62
   200
370
    50
100
AcDbVertex
100
AcDb2dVertex
 10
241.406339
 20
229.692436
 30
0.0
  0
SEQEND
  5
D9
330
D8
100
AcDbEntity
  8
001
370
    50
  0
LINE
  5
DF
330
1F
100
AcDbEntity
  8
001
 62
   200
370
    50
100
AcDbLine
 10
241.406344
 20
229.699915
 30
0.0
 11
241.406339
 21
229.692436
 31
0.0
  0
POLYLINE
  5
E0
330
1F
100
AcDbEntity
  8
001
 62
   200
370
    50
100
AcDb2dPolyline
 66
     1
 10
0.0
 20
0.0
 30
0.0
  0
VERTEX
  5
E2
330
E0
100
AcDbEntity
  8
001
 62
   200
370
    50
100
AcDbVertex
100
AcDb2dVertex
 10
242.983661
 20
229.842203
 30
0.0
  0
VERTEX
  5
E3
330
E0
100
AcDbEntity
  8
001
 62
   200
370
    50
100
AcDbVertex
100
AcDb2dVertex
 10
242.663258
 20
229.813324
 30
0.0
  0
VERTEX
  5
E4
330
E0
100
AcDbEntity
  8
001
 62
   200
370
    50
100
AcDbVertex
100
AcDb2dVertex
 10
242.194978
 20
229.771096
 30
0.0
  0
VERTEX
  5
E5
330
E0
100
AcDbEntity
  8
001
 62
   200
370
    50
100
AcDbVertex
100
AcDb2dVertex
 10
241.726726
 20
229.728841
 30
0.0
  0
VERTEX
  5
E6
330
E0
100
AcDbEntity
  8
001
 62
   200
370
    50
100
AcDbVertex
100
AcDb2dVertex
 10
241.406344
 20
229.699915
 30
0.0
  0
SEQEND
  5
E1
330
E0
100
AcDbEntity
  8
001
370
    50
  0
LINE
  5
E7
330
1F
100
AcDbEntity
  8
001
 62
   200
370
    50
100
AcDbLine
 10
254.266225
 20
213.117133
 30
0.0
 11
246.139449
 21
219.065883
 31
0.0
  0
LINE
  5
E8
330
1F
100
AcDbEntity
  8
001
 62
   200
370
    50
100
AcDbLine
 10
254.266225
 20
207.077219
 30
0.0
 11
239.266225
 21
207.077219
 31
0.0
  0
LINE
  5
E9
330
1F
100
AcDbEntity
  8
001
 62
   200
370
    50
100
AcDbLine
 10
236.766225
 20
212.295315
 30
0.0
 11
239.266225
 21
210.424493
 31
0.0
  0
POLYLINE
  5
EA
330
1F
100
AcDbEntity
  8
001
 62
   200
370
    50
100
AcDb2dPolyline
 66
     1
 10
0.0
 20
0.0
 30
0.0
  0
VERTEX
  5
EC
330
EA
100
AcDbEntity
  8
001
 62
   200
370
    50
100
AcDbVertex
100
AcDb2dVertex
 10
241.410649
 20
219.065883
 30
0.0
  0
VERTEX
  5
ED
330
EA
100
AcDbEntity
  8
001
 62
   200
370
    50
100
AcDbVertex
100
AcDb2dVertex
 10
240.371612
 20
218.097652
 30
0.0
  0
VERTEX
  5
EE
330
EA
100
AcDbEntity
  8
001
 62
   200
370
    50
100
AcDbVertex
100
AcDb2dVertex
 10
239.339274
 20
217.122321
 30
0.0
  0
VERTEX
  5
EF
330
EA
100
AcDbEntity
  8
001
 62
   200
370
    50
100
AcDbVertex
100
AcDb2dVertex
 10
238.32669
 20
216.140884
 30
0.0
  0
VERTEX
  5
F0
330
EA
100
AcDbEntity
  8
001
 62
   200
370
    50
100
AcDbVertex
100
AcDb2dVertex
 10
237.3289
 20
215.144435
 30
0.0
  0
VERTEX
  5
F1
330
EA
100
AcDbEntity
  8
001
 62
   200
370
    50
100
AcDbVertex
100
AcDb2dVertex
 10
237.04723
 20
214.857552
 30
0.0
  0
VERTEX
  5
F2
330
EA
100
AcDbEntity
  8
001
 62
   200
370
    50
100
AcDbVertex
100
AcDb2dVertex
 10
236.766225
 20
214.570019
 30
0.0
  0
SEQEND
  5
EB
330
EA
100
AcDbEntity
  8
001
370
    50
  0
POLYLINE
  5
F3
330
1F
100
AcDbEntity
  8
001
 62
   200
370
    50
100
AcDb2dPolyline
 66
     1
 10
0.0
 20
0.0
 30
0.0
  0
VERTEX
  5
F5
330
F3
100
AcDbEntity
  8
001
 62
   200
370
    50
100
AcDbVertex
100
AcDb2dVertex
 10
242.344904
 20
218.397662
 30
0.0
  0
VERTEX
  5
F6
330
F3
100
AcDbEntity
  8
001
 62
   200
370
    50
100
AcDbVertex
100
AcDb2dVertex
 10
242.156031
 20
218.348292
 30
0.0
  0
VERTEX
  5
F7
330
F3
100
AcDbEntity
  8
001
 62
   200
370
    50
100
AcDbVertex
100
AcDb2dVertex
 10
241.891492
 20
218.265817
 30
0.0
  0
VERTEX
  5
F8
330
F3
100
AcDbEntity
  8
001
 62
   200
370
    50
100
AcDbVertex
100
AcDb2dVertex
 10
241.228967
 20
217.945029
 30
0.0
  0
VERTEX
  5
F9
330
F3
100
AcDbEntity
  8
001
 62
   200
370
    50
100
AcDbVertex
100
AcDb2dVertex
 10
240.738275
 20
217.499529
 30
0.0
  0
VERTEX
  5
FA
330
F3
100
AcDbEntity
  8
001
 62
   200
370
    50
100
AcDbVertex
100
AcDb2dVertex
 10
240.609058
 20
217.333862
 30
0.0
  0
VERTEX
  5
FB
330
F3
100
AcDbEntity
  8
001
 62
   200
370
    50
100
AcDbVertex
100
AcDb2dVertex
 10
240.494617
 20
217.153481
 30
0.0
  0
VERTEX
  5
FC
330
F3
100
AcDbEntity
  8
001
 62
   200
370
    50
100
AcDbVertex
100
AcDb2dVertex
 10
240.404709
 20
216.967649
 30
0.0
  0
VERTEX
  5
FD
330
F3
100
AcDbEntity
  8
001
 62
   200
370
    50
100
AcDbVertex
100
AcDb2dVertex
 10
240.335577
 20
216.778605
 30
0.0
  0
VERTEX
  5
FE
330
F3
100
AcDbEntity
  8
001
 62
   200
370
    50
100
AcDbVertex
100
AcDb2dVertex
 10
240.288564
 20
216.594015
 30
0.0
  0
VERTEX
  5
FF
330
F3
100
AcDbEntity
  8
001
 62
   200
370
    50
100
AcDbVertex
100
AcDb2dVertex
 10
240.265988
 20
216.386292
 30
0.0
  0
VERTEX
  5
100
330
F3
100
AcDbEntity
  8
001
 62
   200
370
    50
100
AcDbVertex
100
AcDb2dVertex
 10
240.26615
 20
216.213522
 30
0.0
  0
VERTEX
  5
101
330
F3
100
AcDbEntity
  8
001
 62
   200
370
    50
100
AcDbVertex
100
AcDb2dVertex
 10
240.273698
 20
216.089348
 30
0.0
  0
SEQEND
  5
F4
330
F3
100
AcDbEntity
  8
001
370
    50
  0
LINE
  5
102
330
1F
100
AcDbEntity
  8
001
 62
   200
370
    50
100
AcDbLine
 10
248.758088
 20
227.721186
 30
0.0
 11
242.983661
 21
229.842203
 31
0.0
  0
LINE
  5
103
330
1F
100
AcDbEntity
  8
001
 62
   200
370
    50
100
AcDbLine
 10
248.472336
 20
230.27202
 30
0.0
 11
248.758088
 21
227.721186
 31
0.0
  0
LINE
  5
104
330
1F
100
AcDbEntity
  8
001
 62
   200
370
    50
100
AcDbLine
 10
248.472336
 20
230.27202
 30
0.0
 11
254.266225
 21
226.978685
 31
0.0
  0
LINE
  5
105
330
1F
100
AcDbEntity
  8
001
 62
   200
370
    50
100
AcDbLine
 10
236.766225
 20
224.269096
 30
0.0
 11
241.405565
 21
225.093896
 31
0.0
  0
POLYLINE
  5
106
330
1F
100
AcDbEntity
  8
001
 62
   200
370
    50
100
AcDb2dPolyline
 66
     1
 10
0.0
 20
0.0
 30
0.0
  0
VERTEX
  5
108
330
106
100
AcDbEntity
  8
001
 62
   200
370
    50
100
AcDbVertex
100
AcDb2dVertex
 10
246.285384
 20
216.320055
 30
0.0
  0
VERTEX
  5
109
330
106
100
AcDbEntity
  8
001
 62
   200
370
    50
100
AcDbVertex
100
AcDb2dVertex
 10
246.279982
 20
216.361662
 30
0.0
  0
VERTEX
  5
10A
330
106
100
AcDbEntity
  8
001
 62
   200
370
    50
100
AcDbVertex
100
AcDb2dVertex
 10
246.271117
 20
216.420942
 30
0.0
  0
VERTEX
  5
10B
330
106
100
AcDbEntity
  8
001
 62
   200
370
    50
100
AcDbVertex
100
AcDb2dVertex
 10
246.223924
 20
216.632908
 30
0.0
  0
VERTEX
  5
10C
330
106
100
AcDbEntity
  8
001
 62
   200
370
    50
100
AcDbVertex
100
AcDb2dVertex
 10
246.158243
 20
216.812203
 30
0.0
  0
VERTEX
  5
10D
330
106
100
AcDbEntity
  8
001
 62
   200
370
    50
100
AcDbVertex
100
AcDb2dVertex
 10
246.068119
 20
216.99946
 30
0.0
  0
VERTEX
  5
10E
330
106
100
AcDbEntity
  8
001
 62
   200
370
    50
100
AcDbVertex
100
AcDb2dVertex
 10
245.957901
 20
217.185005
 30
0.0
  0
VERTEX
  5
10F
330
106
100
AcDbEntity
  8
001
 62
   200
370
    50
100
AcDbVertex
100
AcDb2dVertex
 10
245.489018
 20
217.703353
 30
0.0
  0
VERTEX
  5
110
330
106
100
AcDbEntity
  8
001
 62
   200
370
    50
100
AcDbVertex
100
AcDb2dVertex
 10
244.905045
 20
218.084227
 30
0.0
  0
VERTEX
  5
111
330
106
100
AcDbEntity
  8
001
 62
   200
370
    50
100
AcDbVertex
100
AcDb2dVertex
 10
244.434095
 20
218.283135
 30
0.0
  0
VERTEX
  5
112
330
106
100
AcDbEntity
  8
001
 62
   200
370
    50
100
AcDbVertex
100
AcDb2dVertex
 10
243.937851
 20
218.413735
 30
0.0
  0
VERTEX
  5
113
330
106
100
AcDbEntity
  8
001
 62
   200
370
    50
100
AcDbVertex
100
AcDb2dVertex
 10
243.675217
 20
218.454736
 30
0.0
  0
VERTEX
  5
114
330
106
100
AcDbEntity
  8
001
 62
   200
370
    50
100
AcDbVertex
100
AcDb2dVertex
 10
243.416636
 20
218.479832
 30
0.0
  0
VERTEX
  5
115
330
106
100
AcDbEntity
  8
001
 62
   200
370
    50
100
AcDbVertex
100
AcDb2dVertex
 10
243.164632
 20
218.48937
 30
0.0
  0
VERTEX
  5
116
330
106
100
AcDbEntity
  8
001
 62
   200
370
    50
100
AcDbVertex
100
AcDb2dVertex
 10
242.891255
 20
218.4768
 30
0.0
  0
VERTEX
  5
117
330
106
100
AcDbEntity
  8
001
 62
   200
370
    50
100
AcDbVertex
100
AcDb2dVertex
 10
242.574038
 20
218.437732
 30
0.0
  0
VERTEX
  5
118
330
106
100
AcDbEntity
  8
001
 62
   200
370
    50
100
AcDbVertex
100
AcDb2dVertex
 10
242.344904
 20
218.397662
 30
0.0
  0
SEQEND
  5
107
330
106
100
AcDbEntity
  8
001
370
    50
  0
POLYLINE
  5
119
330
1F
100
AcDbEntity
  8
001
 62
   200
370
    50
100
AcDb2dPolyline
 66
     1
 10
0.0
 20
0.0
 30
0.0
  0
VERTEX
  5
11B
330
119
100
AcDbEntity
  8
001
 62
   200
370
    50
100
AcDbVertex
100
AcDb2dVertex
 10
240.273698
 20
216.089348
 30
0.0
  0
VERTEX
  5
11C
330
119
100
AcDbEntity
  8
001
 62
   200
370
    50
100
AcDbVertex
100
AcDb2dVertex
 10
240.2791
 20
216.04774
 30
0.0
  0
VERTEX
  5
11D
330
119
100
AcDbEntity
  8
001
 62
   200
370
    50
100
AcDbVertex
100
AcDb2dVertex
 10
240.287965
 20
215.988461
 30
0.0
  0
VERTEX
  5
11E
330
119
100
AcDbEntity
  8
001
 62
   200
370
    50
100
AcDbVertex
100
AcDb2dVertex
 10
240.335151
 20
215.776493
 30
0.0
  0
VERTEX
  5
11F
330
119
100
AcDbEntity
  8
001
 62
   200
370
    50
100
AcDbVertex
100
AcDb2dVertex
 10
240.400838
 20
215.5972
 30
0.0
  0
VERTEX
  5
120
330
119
100
AcDbEntity
  8
001
 62
   200
370
    50
100
AcDbVertex
100
AcDb2dVertex
 10
240.490993
 20
215.409949
 30
0.0
  0
VERTEX
  5
121
330
119
100
AcDbEntity
  8
001
 62
   200
370
    50
100
AcDbVertex
100
AcDb2dVertex
 10
240.60118
 20
215.224398
 30
0.0
  0
VERTEX
  5
122
330
119
100
AcDbEntity
  8
001
 62
   200
370
    50
100
AcDbVertex
100
AcDb2dVertex
 10
241.069357
 20
214.705889
 30
0.0
  0
VERTEX
  5
123
330
119
100
AcDbEntity
  8
001
 62
   200
370
    50
100
AcDbVertex
100
AcDb2dVertex
 10
241.654037
 20
214.325176
 30
0.0
  0
VERTEX
  5
124
330
119
100
AcDbEntity
  8
001
 62
   200
370
    50
100
AcDbVertex
100
AcDb2dVertex
 10
242.127009
 20
214.126728
 30
0.0
  0
VERTEX
  5
125
330
119
100
AcDbEntity
  8
001
 62
   200
370
    50
100
AcDbVertex
100
AcDb2dVertex
 10
242.621231
 20
213.995668
 30
0.0
  0
VERTEX
  5
126
330
119
100
AcDbEntity
  8
001
 62
   200
370
    50
100
AcDbVertex
100
AcDb2dVertex
 10
242.880754
 20
213.953958
 30
0.0
  0
VERTEX
  5
127
330
119
100
AcDbEntity
  8
001
 62
   200
370
    50
100
AcDbVertex
100
AcDb2dVertex
 10
243.142446
 20
213.929571
 30
0.0
  0
VERTEX
  5
128
330
119
100
AcDbEntity
  8
001
 62
   200
370
    50
100
AcDbVertex
100
AcDb2dVertex
 10
243.405188
 20
213.922478
 30
0.0
  0
VERTEX
  5
129
330
119
100
AcDbEntity
  8
001
 62
   200
370
    50
100
AcDbVertex
100
AcDb2dVertex
 10
243.667827
 20
213.932602
 30
0.0
  0
VERTEX
  5
12A
330
119
100
AcDbEntity
  8
001
 62
   200
370
    50
100
AcDbVertex
100
AcDb2dVertex
 10
244.174051
 20
214.002446
 30
0.0
  0
VERTEX
  5
12B
330
119
100
AcDbEntity
  8
001
 62
   200
370
    50
100
AcDbVertex
100
AcDb2dVertex
 10
244.66759
 20
214.143585
 30
0.0
  0
VERTEX
  5
12C
330
119
100
AcDbEntity
  8
001
 62
   200
370
    50
100
AcDbVertex
100
AcDb2dVertex
 10
245.294752
 20
214.456975
 30
0.0
  0
VERTEX
  5
12D
330
119
100
AcDbEntity
  8
001
 62
   200
370
    50
100
AcDbVertex
100
AcDb2dVertex
 10
245.820807
 20
214.909874
 30
0.0
  0
VERTEX
  5
12E
330
119
100
AcDbEntity
  8
001
 62
   200
370
    50
100
AcDbVertex
100
AcDb2dVertex
 10
245.951595
 20
215.075869
 30
0.0
  0
VERTEX
  5
12F
330
119
100
AcDbEntity
  8
001
 62
   200
370
    50
100
AcDbVertex
100
AcDb2dVertex
 10
246.064465
 20
215.255922
 30
0.0
  0
VERTEX
  5
130
330
119
100
AcDbEntity
  8
001
 62
   200
370
    50
100
AcDbVertex
100
AcDb2dVertex
 10
246.153976
 20
215.441671
 30
0.0
  0
VERTEX
  5
131
330
119
100
AcDbEntity
  8
001
 62
   200
370
    50
100
AcDbVertex
100
AcDb2dVertex
 10
246.223505
 20
215.630797
 30
0.0
  0
VERTEX
  5
132
330
119
100
AcDbEntity
  8
001
 62
   200
370
    50
100
AcDbVertex
100
AcDb2dVertex
 10
246.270615
 20
215.815408
 30
0.0
  0
VERTEX
  5
133
330
119
100
AcDbEntity
  8
001
 62
   200
370
    50
100
AcDbVertex
100
AcDb2dVertex
 10
246.293094
 20
216.023111
 30
0.0
  0
VERTEX
  5
134
330
119
100
AcDbEntity
  8
001
 62
   200
370
    50
100
AcDbVertex
100
AcDb2dVertex
 10
246.292919
 20
216.195878
 30
0.0
  0
VERTEX
  5
135
330
119
100
AcDbEntity
  8
001
 62
   200
370
    50
100
AcDbVertex
100
AcDb2dVertex
 10
246.285384
 20
216.320055
 30
0.0
  0
SEQEND
  5
11A
330
119
100
AcDbEntity
  8
001
370
    50
  0
LINE
  5
136
330
1F
100
AcDbEntity
  8
001
 62
   200
370
    50
100
AcDbLine
 10
240.974252
 20
229.464607
 30
0.0
 11
236.766225
 21
227.170473
 31
0.0
  0
LINE
  5
137
330
1F
100
AcDbEntity
  8
001
 62
   200
370
    50
100
AcDbLine
 10
241.406339
 20
229.692436
 30
0.0
 11
240.974252
 21
229.464607
 31
0.0
  0
LINE
  5
138
330
1F
100
AcDbEntity
  8
001
 62
   200
370
    50
100
AcDbLine
 10
236.766225
 20
212.295315
 30
0.0
 11
236.766225
 21
227.170473
 31
0.0
  0
LINE
  5
139
330
1F
100
AcDbEntity
  8
001
 62
   200
370
    50
100
AcDbLine
 10
240.974252
 20
229.464607
 30
0.0
 11
241.406344
 21
229.699915
 31
0.0
  0
LINE
  5
13A
330
1F
100
AcDbEntity
  8
001
 62
   200
370
    50
100
AcDbLine
 10
247.802559
 20
229.880529
 30
0.0
 11
248.472336
 21
230.27202
 31
0.0
  0
LINE
  5
13B
330
1F
100
AcDbEntity
  8
001
 62
   200
370
    50
100
AcDbLine
 10
239.266225
 20
210.424493
 30
0.0
 11
239.266225
 21
206.703491
 31
0.0
  0
LINE
  5
13C
330
1F
100
AcDbEntity
  8
001
 62
   200
370
    50
100
AcDbLine
 10
254.266225
 20
206.87715
 30
0.0
 11
254.266225
 21
226.978685
 31
0.0
  0
LINE
  5
13D
330
1F
100
AcDbEntity
  8
001
 62
    40
370
    50
100
AcDbLine
 10
236.766225
 20
226.010516
 30
0.0
 11
236.315218
 21
226.176176
 31
0.0
  0
POLYLINE
  5
13E
330
1F
100
AcDbEntity
  8
001
 62
    40
370
    50
100
AcDb2dPolyline
 66
     1
 10
0.0
 20
0.0
 30
0.0
  0
VERTEX
  5
140
330
13E
100
AcDbEntity
  8
001
 62
    40
370
    50
100
AcDbVertex
100
AcDb2dVertex
 10
236.08308
 20
226.393991
 30
0.0
  0
VERTEX
  5
141
330
13E
100
AcDbEntity
  8
001
 62
    40
370
    50
100
AcDbVertex
100
AcDb2dVertex
 10
236.08916
 20
226.367776
 30
0.0
  0
VERTEX
  5
142
330
13E
100
AcDbEntity
  8
001
 62
    40
370
    50
100
AcDbVertex
100
AcDb2dVertex
 10
236.102144
 20
226.332978
 30
0.0
  0
VERTEX
  5
143
330
13E
100
AcDbEntity
  8
001
 62
    40
370
    50
100
AcDbVertex
100
AcDb2dVertex
 10
236.121746
 20
226.301413
 30
0.0
  0
VERTEX
  5
144
330
13E
100
AcDbEntity
  8
001
 62
    40
370
    50
100
AcDbVertex
100
AcDb2dVertex
 10
236.144786
 20
226.276525
 30
0.0
  0
VERTEX
  5
145
330
13E
100
AcDbEntity
  8
001
 62
    40
370
    50
100
AcDbVertex
100
AcDb2dVertex
 10
236.174408
 20
226.250614
 30
0.0
  0
VERTEX
  5
146
330
13E
100
AcDbEntity
  8
001
 62
    40
370
    50
100
AcDbVertex
100
AcDb2dVertex
 10
236.20971
 20
226.226348
 30
0.0
  0
VERTEX
  5
147
330
13E
100
AcDbEntity
  8
001
 62
    40
370
    50
100
AcDbVertex
100
AcDb2dVertex
 10
236.269614
 20
226.195364
 30
0.0
  0
VERTEX
  5
148
330
13E
100
AcDbEntity
  8
001
 62
    40
370
    50
100
AcDbVertex
100
AcDb2dVertex
 10
236.315218
 20
226.176176
 30
0.0
  0
SEQEND
  5
13F
330
13E
100
AcDbEntity
  8
001
370
    50
  0
LINE
  5
149
330
1F
100
AcDbEntity
  8
001
 62
    40
370
    50
100
AcDbLine
 10
236.082062
 20
226.412256
 30
0.0
 11
236.082062
 21
226.775449
 31
0.0
  0
POLYLINE
  5
14A
330
1F
100
AcDbEntity
  8
001
 62
    40
370
    50
100
AcDb2dPolyline
 66
     1
 10
0.0
 20
0.0
 30
0.0
  0
VERTEX
  5
14C
330
14A
100
AcDbEntity
  8
001
 62
    40
370
    50
100
AcDbVertex
100
AcDb2dVertex
 10
236.315218
 20
227.053
 30
0.0
  0
VERTEX
  5
14D
330
14A
100
AcDbEntity
  8
001
 62
    40
370
    50
100
AcDbVertex
100
AcDb2dVertex
 10
236.250223
 20
227.012495
 30
0.0
  0
VERTEX
  5
14E
330
14A
100
AcDbEntity
  8
001
 62
    40
370
    50
100
AcDbVertex
100
AcDb2dVertex
 10
236.169476
 20
226.94869
 30
0.0
  0
VERTEX
  5
14F
330
14A
100
AcDbEntity
  8
001
 62
    40
370
    50
100
AcDbVertex
100
AcDb2dVertex
 10
236.140595
 20
226.917356
 30
0.0
  0
VERTEX
  5
150
330
14A
100
AcDbEntity
  8
001
 62
    40
370
    50
100
AcDbVertex
100
AcDb2dVertex
 10
236.117265
 20
226.885391
 30
0.0
  0
VERTEX
  5
151
330
14A
100
AcDbEntity
  8
001
 62
    40
370
    50
100
AcDbVertex
100
AcDb2dVertex
 10
236.100434
 20
226.856176
 30
0.0
  0
VERTEX
  5
152
330
14A
100
AcDbEntity
  8
001
 62
    40
370
    50
100
AcDbVertex
100
AcDb2dVertex
 10
236.088171
 20
226.820902
 30
0.0
  0
VERTEX
  5
153
330
14A
100
AcDbEntity
  8
001
 62
    40
370
    50
100
AcDbVertex
100
AcDb2dVertex
 10
236.083617
 20
226.794549
 30
0.0
  0
VERTEX
  5
154
330
14A
100
AcDbEntity
  8
001
 62
    40
370
    50
100
AcDbVertex
100
AcDb2dVertex
 10
236.082062
 20
226.775449
 30
0.0
  0
SEQEND
  5
14B
330
14A
100
AcDbEntity
  8
001
370
    50
  0
LINE
  5
155
330
1F
100
AcDbEntity
  8
001
 62
    40
370
    50
100
AcDbLine
 10
236.315218
 20
227.053
 30
0.0
 11
241.095287
 21
229.659001
 31
0.0
  0
POLYLINE
  5
156
330
1F
100
AcDbEntity
  8
001
 62
    40
370
    50
100
AcDb2dPolyline
 66
     1
 10
0.0
 20
0.0
 30
0.0
  0
VERTEX
  5
158
330
156
100
AcDbEntity
  8
001
 62
    40
370
    50
100
AcDbVertex
100
AcDb2dVertex
 10
241.658176
 20
229.815438
 30
0.0
  0
VERTEX
  5
159
330
156
100
AcDbEntity
  8
001
 62
    40
370
    50
100
AcDbVertex
100
AcDb2dVertex
 10
241.641594
 20
229.813854
 30
0.0
  0
VERTEX
  5
15A
330
156
100
AcDbEntity
  8
001
 62
    40
370
    50
100
AcDbVertex
100
AcDb2dVertex
 10
241.617943
 20
229.811396
 30
0.0
  0
VERTEX
  5
15B
330
156
100
AcDbEntity
  8
001
 62
    40
370
    50
100
AcDbVertex
100
AcDb2dVertex
 10
241.543858
 20
229.801605
 30
0.0
  0
VERTEX
  5
15C
330
156
100
AcDbEntity
  8
001
 62
    40
370
    50
100
AcDbVertex
100
AcDb2dVertex
 10
241.480499
 20
229.790474
 30
0.0
  0
VERTEX
  5
15D
330
156
100
AcDbEntity
  8
001
 62
    40
370
    50
100
AcDbVertex
100
AcDb2dVertex
 10
241.359931
 20
229.763576
 30
0.0
  0
VERTEX
  5
15E
330
156
100
AcDbEntity
  8
001
 62
    40
370
    50
100
AcDbVertex
100
AcDb2dVertex
 10
241.225819
 20
229.718748
 30
0.0
  0
VERTEX
  5
15F
330
156
100
AcDbEntity
  8
001
 62
    40
370
    50
100
AcDbVertex
100
AcDb2dVertex
 10
241.14881
 20
229.685267
 30
0.0
  0
VERTEX
  5
160
330
156
100
AcDbEntity
  8
001
 62
    40
370
    50
100
AcDbVertex
100
AcDb2dVertex
 10
241.095287
 20
229.659001
 30
0.0
  0
SEQEND
  5
157
330
156
100
AcDbEntity
  8
001
370
    50
  0
LINE
  5
161
330
1F
100
AcDbEntity
  8
001
 62
    40
370
    50
100
AcDbLine
 10
241.658176
 20
229.815438
 30
0.0
 11
242.45422
 21
229.886234
 31
0.0
  0
POLYLINE
  5
162
330
1F
100
AcDbEntity
  8
001
 62
    40
370
    50
100
AcDb2dPolyline
 66
     1
 10
0.0
 20
0.0
 30
0.0
  0
VERTEX
  5
164
330
162
100
AcDbEntity
  8
001
 62
    40
370
    50
100
AcDbVertex
100
AcDb2dVertex
 10
242.98155
 20
229.842013
 30
0.0
  0
VERTEX
  5
165
330
162
100
AcDbEntity
  8
001
 62
    40
370
    50
100
AcDbVertex
100
AcDb2dVertex
 10
242.912458
 20
229.859388
 30
0.0
  0
VERTEX
  5
166
330
162
100
AcDbEntity
  8
001
 62
    40
370
    50
100
AcDbVertex
100
AcDb2dVertex
 10
242.816891
 20
229.878605
 30
0.0
  0
VERTEX
  5
167
330
162
100
AcDbEntity
  8
001
 62
    40
370
    50
100
AcDbVertex
100
AcDb2dVertex
 10
242.686799
 20
229.89364
 30
0.0
  0
VERTEX
  5
168
330
162
100
AcDbEntity
  8
001
 62
    40
370
    50
100
AcDbVertex
100
AcDb2dVertex
 10
242.552653
 20
229.892201
 30
0.0
  0
VERTEX
  5
169
330
162
100
AcDbEntity
  8
001
 62
    40
370
    50
100
AcDbVertex
100
AcDb2dVertex
 10
242.495202
 20
229.889081
 30
0.0
  0
VERTEX
  5
16A
330
162
100
AcDbEntity
  8
001
 62
    40
370
    50
100
AcDbVertex
100
AcDb2dVertex
 10
242.45422
 20
229.886234
 30
0.0
  0
SEQEND
  5
163
330
162
100
AcDbEntity
  8
001
370
    50
  0
POLYLINE
  5
16B
330
1F
100
AcDbEntity
  8
001
 62
    40
370
    50
100
AcDb2dPolyline
 66
     1
 10
0.0
 20
0.0
 30
0.0
  0
VERTEX
  5
16D
330
16B
100
AcDbEntity
  8
001
 62
    40
370
    50
100
AcDbVertex
100
AcDb2dVertex
 10
243.017109
 20
229.829917
 30
0.0
  0
VERTEX
  5
16E
330
16B
100
AcDbEntity
  8
001
 62
    40
370
    50
100
AcDbVertex
100
AcDb2dVertex
 10
243.010006
 20
229.83248
 30
0.0
  0
VERTEX
  5
16F
330
16B
100
AcDbEntity
  8
001
 62
    40
370
    50
100
AcDbVertex
100
AcDb2dVertex
 10
242.999586
 20
229.836112
 30
0.0
  0
VERTEX
  5
170
330
16B
100
AcDbEntity
  8
001
 62
    40
370
    50
100
AcDbVertex
100
AcDb2dVertex
 10
242.988892
 20
229.839662
 30
0.0
  0
VERTEX
  5
171
330
16B
100
AcDbEntity
  8
001
 62
    40
370
    50
100
AcDbVertex
100
AcDb2dVertex
 10
242.98155
 20
229.842013
 30
0.0
  0
SEQEND
  5
16C
330
16B
100
AcDbEntity
  8
001
370
    50
  0
POLYLINE
  5
172
330
1F
100
AcDbEntity
  8
001
 62
    40
370
    50
100
AcDb2dPolyline
 66
     1
 10
0.0
 20
0.0
 30
0.0
  0
VERTEX
  5
174
330
172
100
AcDbEntity
  8
001
 62
    40
370
    50
100
AcDbVertex
100
AcDb2dVertex
 10
241.342339
 20
232.634829
 30
0.0
  0
VERTEX
  5
175
330
172
100
AcDbEntity
  8
001
 62
    40
370
    50
100
AcDbVertex
100
AcDb2dVertex
 10
241.325757
 20
232.633245
 30
0.0
  0
VERTEX
  5
176
330
172
100
AcDbEntity
  8
001
 62
    40
370
    50
100
AcDbVertex
100
AcDb2dVertex
 10
241.302106
 20
232.630787
 30
0.0
  0
VERTEX
  5
177
330
172
100
AcDbEntity
  8
001
 62
    40
370
    50
100
AcDbVertex
100
AcDb2dVertex
 10
241.228021
 20
232.620996
 30
0.0
  0
VERTEX
  5
178
330
172
100
AcDbEntity
  8
001
 62
    40
370
    50
100
AcDbVertex
100
AcDb2dVertex
 10
241.164662
 20
232.609865
 30
0.0
  0
VERTEX
  5
179
330
172
100
AcDbEntity
  8
001
 62
    40
370
    50
100
AcDbVertex
100
AcDb2dVertex
 10
241.044094
 20
232.582967
 30
0.0
  0
VERTEX
  5
17A
330
172
100
AcDbEntity
  8
001
 62
    40
370
    50
100
AcDbVertex
100
AcDb2dVertex
 10
240.909983
 20
232.538139
 30
0.0
  0
VERTEX
  5
17B
330
172
100
AcDbEntity
  8
001
 62
    40
370
    50
100
AcDbVertex
100
AcDb2dVertex
 10
240.832973
 20
232.504658
 30
0.0
  0
VERTEX
  5
17C
330
172
100
AcDbEntity
  8
001
 62
    40
370
    50
100
AcDbVertex
100
AcDb2dVertex
 10
240.779451
 20
232.478393
 30
0.0
  0
SEQEND
  5
173
330
172
100
AcDbEntity
  8
001
370
    50
  0
LINE
  5
17D
330
1F
100
AcDbEntity
  8
001
 62
    40
370
    50
100
AcDbLine
 10
241.342339
 20
232.634829
 30
0.0
 11
242.138383
 21
232.705625
 31
0.0
  0
POLYLINE
  5
17E
330
1F
100
AcDbEntity
  8
001
 62
    40
370
    50
100
AcDb2dPolyline
 66
     1
 10
0.0
 20
0.0
 30
0.0
  0
VERTEX
  5
180
330
17E
100
AcDbEntity
  8
001
 62
    40
370
    50
100
AcDbVertex
100
AcDb2dVertex
 10
242.701272
 20
232.649308
 30
0.0
  0
VERTEX
  5
181
330
17E
100
AcDbEntity
  8
001
 62
    40
370
    50
100
AcDbVertex
100
AcDb2dVertex
 10
242.617086
 20
232.673025
 30
0.0
  0
VERTEX
  5
182
330
17E
100
AcDbEntity
  8
001
 62
    40
370
    50
100
AcDbVertex
100
AcDb2dVertex
 10
242.501054
 20
232.697996
 30
0.0
  0
VERTEX
  5
183
330
17E
100
AcDbEntity
  8
001
 62
    40
370
    50
100
AcDbVertex
100
AcDb2dVertex
 10
242.37161
 20
232.713146
 30
0.0
  0
VERTEX
  5
184
330
17E
100
AcDbEntity
  8
001
 62
    40
370
    50
100
AcDbVertex
100
AcDb2dVertex
 10
242.236817
 20
232.711592
 30
0.0
  0
VERTEX
  5
185
330
17E
100
AcDbEntity
  8
001
 62
    40
370
    50
100
AcDbVertex
100
AcDb2dVertex
 10
242.179336
 20
232.708467
 30
0.0
  0
VERTEX
  5
186
330
17E
100
AcDbEntity
  8
001
 62
    40
370
    50
100
AcDbVertex
100
AcDb2dVertex
 10
242.138383
 20
232.705625
 30
0.0
  0
SEQEND
  5
17F
330
17E
100
AcDbEntity
  8
001
370
    50
  0
LINE
  5
187
330
1F
100
AcDbEntity
  8
001
 62
    40
370
    50
100
AcDbLine
 10
235.999381
 20
229.872391
 30
0.0
 11
240.779451
 21
232.478393
 31
0.0
  0
LINE
  5
188
330
1F
100
AcDbEntity
  8
001
 62
    40
370
    50
100
AcDbLine
 10
242.701272
 20
232.649308
 30
0.0
 11
247.481341
 21
230.893531
 31
0.0
  0
POLYLINE
  5
189
330
1F
100
AcDbEntity
  8
001
 62
    40
370
    50
100
AcDb2dPolyline
 66
     1
 10
0.0
 20
0.0
 30
0.0
  0
VERTEX
  5
18B
330
189
100
AcDbEntity
  8
001
 62
    40
370
    50
100
AcDbVertex
100
AcDb2dVertex
 10
235.999381
 20
229.872391
 30
0.0
  0
VERTEX
  5
18C
330
189
100
AcDbEntity
  8
001
 62
    40
370
    50
100
AcDbVertex
100
AcDb2dVertex
 10
235.934386
 20
229.831887
 30
0.0
  0
VERTEX
  5
18D
330
189
100
AcDbEntity
  8
001
 62
    40
370
    50
100
AcDbVertex
100
AcDb2dVertex
 10
235.85364
 20
229.768081
 30
0.0
  0
VERTEX
  5
18E
330
189
100
AcDbEntity
  8
001
 62
    40
370
    50
100
AcDbVertex
100
AcDb2dVertex
 10
235.824758
 20
229.736747
 30
0.0
  0
VERTEX
  5
18F
330
189
100
AcDbEntity
  8
001
 62
    40
370
    50
100
AcDbVertex
100
AcDb2dVertex
 10
235.801428
 20
229.704782
 30
0.0
  0
VERTEX
  5
190
330
189
100
AcDbEntity
  8
001
 62
    40
370
    50
100
AcDbVertex
100
AcDb2dVertex
 10
235.784597
 20
229.675567
 30
0.0
  0
VERTEX
  5
191
330
189
100
AcDbEntity
  8
001
 62
    40
370
    50
100
AcDbVertex
100
AcDb2dVertex
 10
235.772335
 20
229.640293
 30
0.0
  0
VERTEX
  5
192
330
189
100
AcDbEntity
  8
001
 62
    40
370
    50
100
AcDbVertex
100
AcDb2dVertex
 10
235.76778
 20
229.61394
 30
0.0
  0
VERTEX
  5
193
330
189
100
AcDbEntity
  8
001
 62
    40
370
    50
100
AcDbVertex
100
AcDb2dVertex
 10
235.766225
 20
229.59484
 30
0.0
  0
SEQEND
  5
18A
330
189
100
AcDbEntity
  8
001
370
    50
  0
LINE
  5
194
330
1F
100
AcDbEntity
  8
001
 62
    40
370
    50
100
AcDbLine
 10
248.013831
 20
227.994561
 30
0.0
 11
247.71348
 21
230.675717
 31
0.0
  0
POLYLINE
  5
195
330
1F
100
AcDbEntity
  8
001
 62
    40
370
    50
100
AcDb2dPolyline
 66
     1
 10
0.0
 20
0.0
 30
0.0
  0
VERTEX
  5
197
330
195
100
AcDbEntity
  8
001
 62
    40
370
    50
100
AcDbVertex
100
AcDb2dVertex
 10
247.71348
 20
230.675717
 30
0.0
  0
VERTEX
  5
198
330
195
100
AcDbEntity
  8
001
 62
    40
370
    50
100
AcDbVertex
100
AcDb2dVertex
 10
247.707399
 20
230.701932
 30
0.0
  0
VERTEX
  5
199
330
195
100
AcDbEntity
  8
001
 62
    40
370
    50
100
AcDbVertex
100
AcDb2dVertex
 10
247.694415
 20
230.736729
 30
0.0
  0
VERTEX
  5
19A
330
195
100
AcDbEntity
  8
001
 62
    40
370
    50
100
AcDbVertex
100
AcDb2dVertex
 10
247.674813
 20
230.768295
 30
0.0
  0
VERTEX
  5
19B
330
195
100
AcDbEntity
  8
001
 62
    40
370
    50
100
AcDbVertex
100
AcDb2dVertex
 10
247.651773
 20
230.793182
 30
0.0
  0
VERTEX
  5
19C
330
195
100
AcDbEntity
  8
001
 62
    40
370
    50
100
AcDbVertex
100
AcDb2dVertex
 10
247.622151
 20
230.819093
 30
0.0
  0
VERTEX
  5
19D
330
195
100
AcDbEntity
  8
001
 62
    40
370
    50
100
AcDbVertex
100
AcDb2dVertex
 10
247.58685
 20
230.84336
 30
0.0
  0
VERTEX
  5
19E
330
195
100
AcDbEntity
  8
001
 62
    40
370
    50
100
AcDbVertex
100
AcDb2dVertex
 10
247.526946
 20
230.874343
 30
0.0
  0
VERTEX
  5
19F
330
195
100
AcDbEntity
  8
001
 62
    40
370
    50
100
AcDbVertex
100
AcDb2dVertex
 10
247.481341
 20
230.893531
 30
0.0
  0
SEQEND
  5
196
330
195
100
AcDbEntity
  8
001
370
    50
  0
POLYLINE
  5
1A0
330
1F
100
AcDbEntity
  8
001
 62
    40
370
    50
100
AcDb2dPolyline
 66
     1
 10
0.0
 20
0.0
 30
0.0
  0
VERTEX
  5
1A2
330
1A0
100
AcDbEntity
  8
001
 62
    40
370
    50
100
AcDbVertex
100
AcDb2dVertex
 10
236.082062
 20
226.412256
 30
0.0
  0
VERTEX
  5
1A3
330
1A0
100
AcDbEntity
  8
001
 62
    40
370
    50
100
AcDbVertex
100
AcDb2dVertex
 10
236.08211
 20
226.408534
 30
0.0
  0
VERTEX
  5
1A4
330
1A0
100
AcDbEntity
  8
001
 62
    40
370
    50
100
AcDbVertex
100
AcDb2dVertex
 10
236.082317
 20
226.403098
 30
0.0
  0
VERTEX
  5
1A5
330
1A0
100
AcDbEntity
  8
001
 62
    40
370
    50
100
AcDbVertex
100
AcDb2dVertex
 10
236.082714
 20
226.397686
 30
0.0
  0
VERTEX
  5
1A6
330
1A0
100
AcDbEntity
  8
001
 62
    40
370
    50
100
AcDbVertex
100
AcDb2dVertex
 10
236.08308
 20
226.393991
 30
0.0
  0
SEQEND
  5
1A1
330
1A0
100
AcDbEntity
  8
001
370
    50
  0
POLYLINE
  5
1A7
330
1F
100
AcDbEntity
  8
001
 62
    40
370
    50
100
AcDb2dPolyline
 66
     1
 10
0.0
 20
0.0
 30
0.0
  0
VERTEX
  5
1A9
330
1A7
100
AcDbEntity
  8
001
 62
    40
370
    50
100
AcDbVertex
100
AcDb2dVertex
 10
235.766225
 20
229.231648
 30
0.0
  0
VERTEX
  5
1AA
330
1A7
100
AcDbEntity
  8
001
 62
    40
370
    50
100
AcDbVertex
100
AcDb2dVertex
 10
235.766273
 20
229.227925
 30
0.0
  0
VERTEX
  5
1AB
330
1A7
100
AcDbEntity
  8
001
 62
    40
370
    50
100
AcDbVertex
100
AcDb2dVertex
 10
235.76648
 20
229.222489
 30
0.0
  0
VERTEX
  5
1AC
330
1A7
100
AcDbEntity
  8
001
 62
    40
370
    50
100
AcDbVertex
100
AcDb2dVertex
 10
235.766877
 20
229.217078
 30
0.0
  0
VERTEX
  5
1AD
330
1A7
100
AcDbEntity
  8
001
 62
    40
370
    50
100
AcDbVertex
100
AcDb2dVertex
 10
235.767243
 20
229.213382
 30
0.0
  0
SEQEND
  5
1A8
330
1A7
100
AcDbEntity
  8
001
370
    50
  0
LINE
  5
1AE
330
1F
100
AcDbEntity
  8
001
 62
    40
370
    50
100
AcDbLine
 10
235.767243
 20
229.213382
 30
0.0
 11
236.08308
 21
226.393991
 31
0.0
  0
LINE
  5
1AF
330
1F
100
AcDbEntity
  8
001
 62
    40
370
    50
100
AcDbLine
 10
236.766225
 20
260.334223
 30
0.0
 11
236.315218
 21
260.784494
 31
0.0
  0
POLYLINE
  5
1B0
330
1F
100
AcDbEntity
  8
001
 62
    40
370
    50
100
AcDb2dPolyline
 66
     1
 10
0.0
 20
0.0
 30
0.0
  0
VERTEX
  5
1B2
330
1B0
100
AcDbEntity
  8
001
 62
    40
370
    50
100
AcDbVertex
100
AcDb2dVertex
 10
236.082062
 20
261.348187
 30
0.0
  0
VERTEX
  5
1B3
330
1B0
100
AcDbEntity
  8
001
 62
    40
370
    50
100
AcDbVertex
100
AcDb2dVertex
 10
236.082197
 20
261.335785
 30
0.0
  0
VERTEX
  5
1B4
330
1B0
100
AcDbEntity
  8
001
 62
    40
370
    50
100
AcDbVertex
100
AcDb2dVertex
 10
236.082639
 20
261.317788
 30
0.0
  0
VERTEX
  5
1B5
330
1B0
100
AcDbEntity
  8
001
 62
    40
370
    50
100
AcDbVertex
100
AcDb2dVertex
 10
236.120844
 20
261.096375
 30
0.0
  0
VERTEX
  5
1B6
330
1B0
100
AcDbEntity
  8
001
 62
    40
370
    50
100
AcDbVertex
100
AcDb2dVertex
 10
236.204358
 20
260.923335
 30
0.0
  0
VERTEX
  5
1B7
330
1B0
100
AcDbEntity
  8
001
 62
    40
370
    50
100
AcDbVertex
100
AcDb2dVertex
 10
236.240449
 20
260.870164
 30
0.0
  0
VERTEX
  5
1B8
330
1B0
100
AcDbEntity
  8
001
 62
    40
370
    50
100
AcDbVertex
100
AcDb2dVertex
 10
236.288215
 20
260.812821
 30
0.0
  0
VERTEX
  5
1B9
330
1B0
100
AcDbEntity
  8
001
 62
    40
370
    50
100
AcDbVertex
100
AcDb2dVertex
 10
236.303977
 20
260.796044
 30
0.0
  0
VERTEX
  5
1BA
330
1B0
100
AcDbEntity
  8
001
 62
    40
370
    50
100
AcDbVertex
100
AcDb2dVertex
 10
236.315218
 20
260.784494
 30
0.0
  0
SEQEND
  5
1B1
330
1B0
100
AcDbEntity
  8
001
370
    50
  0
LINE
  5
1BB
330
1F
100
AcDbEntity
  8
001
 62
    40
370
    50
100
AcDbLine
 10
236.082062
 20
261.348187
 30
0.0
 11
236.082062
 21
262.14709
 31
0.0
  0
POLYLINE
  5
1BC
330
1F
100
AcDbEntity
  8
001
 62
    40
370
    50
100
AcDb2dPolyline
 66
     1
 10
0.0
 20
0.0
 30
0.0
  0
VERTEX
  5
1BE
330
1BC
100
AcDbEntity
  8
001
 62
    40
370
    50
100
AcDbVertex
100
AcDb2dVertex
 10
236.315218
 20
262.713218
 30
0.0
  0
VERTEX
  5
1BF
330
1BC
100
AcDbEntity
  8
001
 62
    40
370
    50
100
AcDbVertex
100
AcDb2dVertex
 10
236.286846
 20
262.682448
 30
0.0
  0
VERTEX
  5
1C0
330
1BC
100
AcDbEntity
  8
001
 62
    40
370
    50
100
AcDbVertex
100
AcDb2dVertex
 10
236.249271
 20
262.637828
 30
0.0
  0
VERTEX
  5
1C1
330
1BC
100
AcDbEntity
  8
001
 62
    40
370
    50
100
AcDbVertex
100
AcDb2dVertex
 10
236.206718
 20
262.577764
 30
0.0
  0
VERTEX
  5
1C2
330
1BC
100
AcDbEntity
  8
001
 62
    40
370
    50
100
AcDbVertex
100
AcDb2dVertex
 10
236.174065
 20
262.520405
 30
0.0
  0
VERTEX
  5
1C3
330
1BC
100
AcDbEntity
  8
001
 62
    40
370
    50
100
AcDbVertex
100
AcDb2dVertex
 10
236.145047
 20
262.460144
 30
0.0
  0
VERTEX
  5
1C4
330
1BC
100
AcDbEntity
  8
001
 62
    40
370
    50
100
AcDbVertex
100
AcDb2dVertex
 10
236.120251
 20
262.391765
 30
0.0
  0
VERTEX
  5
1C5
330
1BC
100
AcDbEntity
  8
001
 62
    40
370
    50
100
AcDbVertex
100
AcDb2dVertex
 10
236.091425
 20
262.251986
 30
0.0
  0
VERTEX
  5
1C6
330
1BC
100
AcDbEntity
  8
001
 62
    40
370
    50
100
AcDbVertex
100
AcDb2dVertex
 10
236.082062
 20
262.14709
 30
0.0
  0
SEQEND
  5
1BD
330
1BC
100
AcDbEntity
  8
001
370
    50
  0
LINE
  5
1C7
330
1F
100
AcDbEntity
  8
001
 62
    40
370
    50
100
AcDbLine
 10
236.315218
 20
262.713218
 30
0.0
 11
241.095287
 21
267.535426
 31
0.0
  0
POLYLINE
  5
1C8
330
1F
100
AcDbEntity
  8
001
 62
    40
370
    50
100
AcDb2dPolyline
 66
     1
 10
0.0
 20
0.0
 30
0.0
  0
VERTEX
  5
1CA
330
1C8
100
AcDbEntity
  8
001
 62
    40
370
    50
100
AcDbVertex
100
AcDb2dVertex
 10
241.658176
 20
267.77236
 30
0.0
  0
VERTEX
  5
1CB
330
1C8
100
AcDbEntity
  8
001
 62
    40
370
    50
100
AcDbVertex
100
AcDb2dVertex
 10
241.645794
 20
267.772137
 30
0.0
  0
VERTEX
  5
1CC
330
1C8
100
AcDbEntity
  8
001
 62
    40
370
    50
100
AcDbVertex
100
AcDb2dVertex
 10
241.627883
 20
267.771623
 30
0.0
  0
VERTEX
  5
1CD
330
1C8
100
AcDbEntity
  8
001
 62
    40
370
    50
100
AcDbVertex
100
AcDb2dVertex
 10
241.416019
 20
267.741633
 30
0.0
  0
VERTEX
  5
1CE
330
1C8
100
AcDbEntity
  8
001
 62
    40
370
    50
100
AcDbVertex
100
AcDb2dVertex
 10
241.234208
 20
267.647411
 30
0.0
  0
VERTEX
  5
1CF
330
1C8
100
AcDbEntity
  8
001
 62
    40
370
    50
100
AcDbVertex
100
AcDb2dVertex
 10
241.151663
 20
267.584543
 30
0.0
  0
VERTEX
  5
1D0
330
1C8
100
AcDbEntity
  8
001
 62
    40
370
    50
100
AcDbVertex
100
AcDb2dVertex
 10
241.095287
 20
267.535426
 30
0.0
  0
SEQEND
  5
1C9
330
1C8
100
AcDbEntity
  8
001
370
    50
  0
LINE
  5
1D1
330
1F
100
AcDbEntity
  8
001
 62
    40
370
    50
100
AcDbLine
 10
241.658176
 20
267.77236
 30
0.0
 11
242.45422
 21
267.776519
 31
0.0
  0
POLYLINE
  5
1D2
330
1F
100
AcDbEntity
  8
001
 62
    40
370
    50
100
AcDb2dPolyline
 66
     1
 10
0.0
 20
0.0
 30
0.0
  0
VERTEX
  5
1D4
330
1D2
100
AcDbEntity
  8
001
 62
    40
370
    50
100
AcDbVertex
100
AcDb2dVertex
 10
242.82572
 20
267.686126
 30
0.0
  0
VERTEX
  5
1D5
330
1D2
100
AcDbEntity
  8
001
 62
    40
370
    50
100
AcDbVertex
100
AcDb2dVertex
 10
242.772024
 20
267.710501
 30
0.0
  0
VERTEX
  5
1D6
330
1D2
100
AcDbEntity
  8
001
 62
    40
370
    50
100
AcDbVertex
100
AcDb2dVertex
 10
242.69782
 20
267.739466
 30
0.0
  0
VERTEX
  5
1D7
330
1D2
100
AcDbEntity
  8
001
 62
    40
370
    50
100
AcDbVertex
100
AcDb2dVertex
 10
242.631562
 20
267.758847
 30
0.0
  0
VERTEX
  5
1D8
330
1D2
100
AcDbEntity
  8
001
 62
    40
370
    50
100
AcDbVertex
100
AcDb2dVertex
 10
242.562519
 20
267.769657
 30
0.0
  0
VERTEX
  5
1D9
330
1D2
100
AcDbEntity
  8
001
 62
    40
370
    50
100
AcDbVertex
100
AcDb2dVertex
 10
242.500026
 20
267.774714
 30
0.0
  0
VERTEX
  5
1DA
330
1D2
100
AcDbEntity
  8
001
 62
    40
370
    50
100
AcDbVertex
100
AcDb2dVertex
 10
242.45422
 20
267.776519
 30
0.0
  0
SEQEND
  5
1D3
330
1D2
100
AcDbEntity
  8
001
370
    50
  0
POLYLINE
  5
1DB
330
1F
100
AcDbEntity
  8
001
 62
    40
370
    50
100
AcDb2dPolyline
 66
     1
 10
0.0
 20
0.0
 30
0.0
  0
VERTEX
  5
1DD
330
1DB
100
AcDbEntity
  8
001
 62
    40
370
    50
100
AcDbVertex
100
AcDb2dVertex
 10
241.171565
 20
260.091704
 30
0.0
  0
VERTEX
  5
1DE
330
1DB
100
AcDbEntity
  8
001
 62
    40
370
    50
100
AcDbVertex
100
AcDb2dVertex
 10
241.297818
 20
260.033686
 30
0.0
  0
VERTEX
  5
1DF
330
1DB
100
AcDbEntity
  8
001
 62
    40
370
    50
100
AcDbVertex
100
AcDb2dVertex
 10
241.476125
 20
259.96469
 30
0.0
  0
VERTEX
  5
1E0
330
1DB
100
AcDbEntity
  8
001
 62
    40
370
    50
100
AcDbVertex
100
AcDb2dVertex
 10
241.64196
 20
259.918415
 30
0.0
  0
VERTEX
  5
1E1
330
1DB
100
AcDbEntity
  8
001
 62
    40
370
    50
100
AcDbVertex
100
AcDb2dVertex
 10
241.798311
 20
259.892797
 30
0.0
  0
VERTEX
  5
1E2
330
1DB
100
AcDbEntity
  8
001
 62
    40
370
    50
100
AcDbVertex
100
AcDb2dVertex
 10
241.960976
 20
259.879138
 30
0.0
  0
VERTEX
  5
1E3
330
1DB
100
AcDbEntity
  8
001
 62
    40
370
    50
100
AcDbVertex
100
AcDb2dVertex
 10
242.128332
 20
259.878212
 30
0.0
  0
VERTEX
  5
1E4
330
1DB
100
AcDbEntity
  8
001
 62
    40
370
    50
100
AcDbVertex
100
AcDb2dVertex
 10
242.617426
 20
259.964725
 30
0.0
  0
VERTEX
  5
1E5
330
1DB
100
AcDbEntity
  8
001
 62
    40
370
    50
100
AcDbVertex
100
AcDb2dVertex
 10
243.065772
 20
260.173993
 30
0.0
  0
VERTEX
  5
1E6
330
1DB
100
AcDbEntity
  8
001
 62
    40
370
    50
100
AcDbVertex
100
AcDb2dVertex
 10
243.329364
 20
260.375221
 30
0.0
  0
VERTEX
  5
1E7
330
1DB
100
AcDbEntity
  8
001
 62
    40
370
    50
100
AcDbVertex
100
AcDb2dVertex
 10
243.553612
 20
260.620179
 30
0.0
  0
VERTEX
  5
1E8
330
1DB
100
AcDbEntity
  8
001
 62
    40
370
    50
100
AcDbVertex
100
AcDb2dVertex
 10
243.649261
 20
260.757672
 30
0.0
  0
VERTEX
  5
1E9
330
1DB
100
AcDbEntity
  8
001
 62
    40
370
    50
100
AcDbVertex
100
AcDb2dVertex
 10
243.732697
 20
260.899793
 30
0.0
  0
VERTEX
  5
1EA
330
1DB
100
AcDbEntity
  8
001
 62
    40
370
    50
100
AcDbVertex
100
AcDb2dVertex
 10
243.803399
 20
261.044849
 30
0.0
  0
VERTEX
  5
1EB
330
1DB
100
AcDbEntity
  8
001
 62
    40
370
    50
100
AcDbVertex
100
AcDb2dVertex
 10
243.860843
 20
261.206117
 30
0.0
  0
VERTEX
  5
1EC
330
1DB
100
AcDbEntity
  8
001
 62
    40
370
    50
100
AcDbVertex
100
AcDb2dVertex
 10
243.928794
 20
261.538293
 30
0.0
  0
VERTEX
  5
1ED
330
1DB
100
AcDbEntity
  8
001
 62
    40
370
    50
100
AcDbVertex
100
AcDb2dVertex
 10
243.951779
 20
261.788748
 30
0.0
  0
SEQEND
  5
1DC
330
1DB
100
AcDbEntity
  8
001
370
    50
  0
POLYLINE
  5
1EE
330
1F
100
AcDbEntity
  8
001
 62
    40
370
    50
100
AcDb2dPolyline
 66
     1
 10
0.0
 20
0.0
 30
0.0
  0
VERTEX
  5
1F0
330
1EE
100
AcDbEntity
  8
001
 62
    40
370
    50
100
AcDbVertex
100
AcDb2dVertex
 10
235.999381
 20
262.878824
 30
0.0
  0
VERTEX
  5
1F1
330
1EE
100
AcDbEntity
  8
001
 62
    40
370
    50
100
AcDbVertex
100
AcDb2dVertex
 10
235.971009
 20
262.848053
 30
0.0
  0
VERTEX
  5
1F2
330
1EE
100
AcDbEntity
  8
001
 62
    40
370
    50
100
AcDbVertex
100
AcDb2dVertex
 10
235.933434
 20
262.803434
 30
0.0
  0
VERTEX
  5
1F3
330
1EE
100
AcDbEntity
  8
001
 62
    40
370
    50
100
AcDbVertex
100
AcDb2dVertex
 10
235.890881
 20
262.74337
 30
0.0
  0
VERTEX
  5
1F4
330
1EE
100
AcDbEntity
  8
001
 62
    40
370
    50
100
AcDbVertex
100
AcDb2dVertex
 10
235.858228
 20
262.68601
 30
0.0
  0
VERTEX
  5
1F5
330
1EE
100
AcDbEntity
  8
001
 62
    40
370
    50
100
AcDbVertex
100
AcDb2dVertex
 10
235.82921
 20
262.62575
 30
0.0
  0
VERTEX
  5
1F6
330
1EE
100
AcDbEntity
  8
001
 62
    40
370
    50
100
AcDbVertex
100
AcDb2dVertex
 10
235.804414
 20
262.55737
 30
0.0
  0
VERTEX
  5
1F7
330
1EE
100
AcDbEntity
  8
001
 62
    40
370
    50
100
AcDbVertex
100
AcDb2dVertex
 10
235.775588
 20
262.417592
 30
0.0
  0
VERTEX
  5
1F8
330
1EE
100
AcDbEntity
  8
001
 62
    40
370
    50
100
AcDbVertex
100
AcDb2dVertex
 10
235.766225
 20
262.312696
 30
0.0
  0
SEQEND
  5
1EF
330
1EE
100
AcDbEntity
  8
001
370
    50
  0
LINE
  5
1F9
330
1F
100
AcDbEntity
  8
001
 62
    40
370
    50
100
AcDbLine
 10
235.999381
 20
262.878824
 30
0.0
 11
240.779451
 21
267.701032
 31
0.0
  0
LINE
  5
1FA
330
1F
100
AcDbEntity
  8
001
 62
    40
370
    50
100
AcDbLine
 10
235.766225
 20
261.513792
 30
0.0
 11
235.766225
 21
262.312696
 31
0.0
  0
POLYLINE
  5
1FB
330
1F
100
AcDbEntity
  8
001
 62
    40
370
    50
100
AcDb2dPolyline
 66
     1
 10
0.0
 20
0.0
 30
0.0
  0
VERTEX
  5
1FD
330
1FB
100
AcDbEntity
  8
001
 62
    40
370
    50
100
AcDbVertex
100
AcDb2dVertex
 10
235.766225
 20
261.513792
 30
0.0
  0
VERTEX
  5
1FE
330
1FB
100
AcDbEntity
  8
001
 62
    40
370
    50
100
AcDbVertex
100
AcDb2dVertex
 10
235.76636
 20
261.50139
 30
0.0
  0
VERTEX
  5
1FF
330
1FB
100
AcDbEntity
  8
001
 62
    40
370
    50
100
AcDbVertex
100
AcDb2dVertex
 10
235.766802
 20
261.483394
 30
0.0
  0
VERTEX
  5
200
330
1FB
100
AcDbEntity
  8
001
 62
    40
370
    50
100
AcDbVertex
100
AcDb2dVertex
 10
235.805007
 20
261.261981
 30
0.0
  0
VERTEX
  5
201
330
1FB
100
AcDbEntity
  8
001
 62
    40
370
    50
100
AcDbVertex
100
AcDb2dVertex
 10
235.888521
 20
261.08894
 30
0.0
  0
VERTEX
  5
202
330
1FB
100
AcDbEntity
  8
001
 62
    40
370
    50
100
AcDbVertex
100
AcDb2dVertex
 10
235.924612
 20
261.035769
 30
0.0
  0
VERTEX
  5
203
330
1FB
100
AcDbEntity
  8
001
 62
    40
370
    50
100
AcDbVertex
100
AcDb2dVertex
 10
235.972378
 20
260.978427
 30
0.0
  0
VERTEX
  5
204
330
1FB
100
AcDbEntity
  8
001
 62
    40
370
    50
100
AcDbVertex
100
AcDb2dVertex
 10
235.988141
 20
260.96165
 30
0.0
  0
VERTEX
  5
205
330
1FB
100
AcDbEntity
  8
001
 62
    40
370
    50
100
AcDbVertex
100
AcDb2dVertex
 10
235.999381
 20
260.9501
 30
0.0
  0
SEQEND
  5
1FC
330
1FB
100
AcDbEntity
  8
001
370
    50
  0
LINE
  5
206
330
1F
100
AcDbEntity
  8
001
 62
    40
370
    50
100
AcDbLine
 10
236.766225
 20
260.184507
 30
0.0
 11
235.999381
 21
260.9501
 31
0.0
  0
POLYLINE
  5
207
330
1F
100
AcDbEntity
  8
001
 62
    40
370
    50
100
AcDb2dPolyline
 66
     1
 10
0.0
 20
0.0
 30
0.0
  0
VERTEX
  5
209
330
207
100
AcDbEntity
  8
001
 62
    40
370
    50
100
AcDbVertex
100
AcDb2dVertex
 10
241.342339
 20
267.937966
 30
0.0
  0
VERTEX
  5
20A
330
207
100
AcDbEntity
  8
001
 62
    40
370
    50
100
AcDbVertex
100
AcDb2dVertex
 10
241.329957
 20
267.937742
 30
0.0
  0
VERTEX
  5
20B
330
207
100
AcDbEntity
  8
001
 62
    40
370
    50
100
AcDbVertex
100
AcDb2dVertex
 10
241.312046
 20
267.937229
 30
0.0
  0
VERTEX
  5
20C
330
207
100
AcDbEntity
  8
001
 62
    40
370
    50
100
AcDbVertex
100
AcDb2dVertex
 10
241.100182
 20
267.907239
 30
0.0
  0
VERTEX
  5
20D
330
207
100
AcDbEntity
  8
001
 62
    40
370
    50
100
AcDbVertex
100
AcDb2dVertex
 10
240.918371
 20
267.813016
 30
0.0
  0
VERTEX
  5
20E
330
207
100
AcDbEntity
  8
001
 62
    40
370
    50
100
AcDbVertex
100
AcDb2dVertex
 10
240.835826
 20
267.750149
 30
0.0
  0
VERTEX
  5
20F
330
207
100
AcDbEntity
  8
001
 62
    40
370
    50
100
AcDbVertex
100
AcDb2dVertex
 10
240.779451
 20
267.701032
 30
0.0
  0
SEQEND
  5
208
330
207
100
AcDbEntity
  8
001
370
    50
  0
LINE
  5
210
330
1F
100
AcDbEntity
  8
001
 62
    40
370
    50
100
AcDbLine
 10
241.342339
 20
267.937966
 30
0.0
 11
242.138383
 21
267.942124
 31
0.0
  0
POLYLINE
  5
211
330
1F
100
AcDbEntity
  8
001
 62
    40
370
    50
100
AcDb2dPolyline
 66
     1
 10
0.0
 20
0.0
 30
0.0
  0
VERTEX
  5
213
330
211
100
AcDbEntity
  8
001
 62
    40
370
    50
100
AcDbVertex
100
AcDb2dVertex
 10
242.98155
 20
267.578842
 30
0.0
  0
VERTEX
  5
214
330
211
100
AcDbEntity
  8
001
 62
    40
370
    50
100
AcDbVertex
100
AcDb2dVertex
 10
242.96584
 20
267.592292
 30
0.0
  0
VERTEX
  5
215
330
211
100
AcDbEntity
  8
001
 62
    40
370
    50
100
AcDbVertex
100
AcDb2dVertex
 10
242.942332
 20
267.611259
 30
0.0
  0
VERTEX
  5
216
330
211
100
AcDbEntity
  8
001
 62
    40
370
    50
100
AcDbVertex
100
AcDb2dVertex
 10
242.874581
 20
267.657913
 30
0.0
  0
VERTEX
  5
217
330
211
100
AcDbEntity
  8
001
 62
    40
370
    50
100
AcDbVertex
100
AcDb2dVertex
 10
242.82572
 20
267.686126
 30
0.0
  0
SEQEND
  5
212
330
211
100
AcDbEntity
  8
001
370
    50
  0
LINE
  5
218
330
1F
100
AcDbEntity
  8
001
 62
    40
370
    50
100
AcDbLine
 10
242.82572
 20
267.686126
 30
0.0
 11
242.509883
 21
267.851732
 31
0.0
  0
POLYLINE
  5
219
330
1F
100
AcDbEntity
  8
001
 62
    40
370
    50
100
AcDb2dPolyline
 66
     1
 10
0.0
 20
0.0
 30
0.0
  0
VERTEX
  5
21B
330
219
100
AcDbEntity
  8
001
 62
    40
370
    50
100
AcDbVertex
100
AcDb2dVertex
 10
242.509883
 20
267.851732
 30
0.0
  0
VERTEX
  5
21C
330
219
100
AcDbEntity
  8
001
 62
    40
370
    50
100
AcDbVertex
100
AcDb2dVertex
 10
242.456187
 20
267.876107
 30
0.0
  0
VERTEX
  5
21D
330
219
100
AcDbEntity
  8
001
 62
    40
370
    50
100
AcDbVertex
100
AcDb2dVertex
 10
242.381984
 20
267.905071
 30
0.0
  0
VERTEX
  5
21E
330
219
100
AcDbEntity
  8
001
 62
    40
370
    50
100
AcDbVertex
100
AcDb2dVertex
 10
242.315726
 20
267.924453
 30
0.0
  0
VERTEX
  5
21F
330
219
100
AcDbEntity
  8
001
 62
    40
370
    50
100
AcDbVertex
100
AcDb2dVertex
 10
242.246683
 20
267.935262
 30
0.0
  0
VERTEX
  5
220
330
219
100
AcDbEntity
  8
001
 62
    40
370
    50
100
AcDbVertex
100
AcDb2dVertex
 10
242.184189
 20
267.94032
 30
0.0
  0
VERTEX
  5
221
330
219
100
AcDbEntity
  8
001
 62
    40
370
    50
100
AcDbVertex
100
AcDb2dVertex
 10
242.138383
 20
267.942124
 30
0.0
  0
SEQEND
  5
21A
330
219
100
AcDbEntity
  8
001
370
    50
  0
POLYLINE
  5
222
330
1F
100
AcDbEntity
  8
001
 62
    40
370
    50
100
AcDb2dPolyline
 66
     1
 10
0.0
 20
0.0
 30
0.0
  0
VERTEX
  5
224
330
222
100
AcDbEntity
  8
001
 62
    40
370
    50
100
AcDbVertex
100
AcDb2dVertex
 10
243.951779
 20
261.788748
 30
0.0
  0
VERTEX
  5
225
330
222
100
AcDbEntity
  8
001
 62
    40
370
    50
100
AcDbVertex
100
AcDb2dVertex
 10
243.951437
 20
261.818299
 30
0.0
  0
VERTEX
  5
226
330
222
100
AcDbEntity
  8
001
 62
    40
370
    50
100
AcDbVertex
100
AcDb2dVertex
 10
243.950406
 20
261.861135
 30
0.0
  0
VERTEX
  5
227
330
222
100
AcDbEntity
  8
001
 62
    40
370
    50
100
AcDbVertex
100
AcDb2dVertex
 10
243.867849
 20
262.380936
 30
0.0
  0
VERTEX
  5
228
330
222
100
AcDbEntity
  8
001
 62
    40
370
    50
100
AcDbVertex
100
AcDb2dVertex
 10
243.660563
 20
262.800427
 30
0.0
  0
VERTEX
  5
229
330
222
100
AcDbEntity
  8
001
 62
    40
370
    50
100
AcDbVertex
100
AcDb2dVertex
 10
243.564608
 20
262.935887
 30
0.0
  0
VERTEX
  5
22A
330
222
100
AcDbEntity
  8
001
 62
    40
370
    50
100
AcDbVertex
100
AcDb2dVertex
 10
243.460878
 20
263.063587
 30
0.0
  0
VERTEX
  5
22B
330
222
100
AcDbEntity
  8
001
 62
    40
370
    50
100
AcDbVertex
100
AcDb2dVertex
 10
243.350892
 20
263.178061
 30
0.0
  0
VERTEX
  5
22C
330
222
100
AcDbEntity
  8
001
 62
    40
370
    50
100
AcDbVertex
100
AcDb2dVertex
 10
243.218513
 20
263.287711
 30
0.0
  0
VERTEX
  5
22D
330
222
100
AcDbEntity
  8
001
 62
    40
370
    50
100
AcDbVertex
100
AcDb2dVertex
 10
243.060355
 20
263.395048
 30
0.0
  0
VERTEX
  5
22E
330
222
100
AcDbEntity
  8
001
 62
    40
370
    50
100
AcDbVertex
100
AcDb2dVertex
 10
242.940832
 20
263.465988
 30
0.0
  0
SEQEND
  5
223
330
222
100
AcDbEntity
  8
001
370
    50
  0
POLYLINE
  5
22F
330
1F
100
AcDbEntity
  8
001
 62
    40
370
    50
100
AcDb2dPolyline
 66
     1
 10
0.0
 20
0.0
 30
0.0
  0
VERTEX
  5
231
330
22F
100
AcDbEntity
  8
001
 62
    40
370
    50
100
AcDbVertex
100
AcDb2dVertex
 10
240.264262
 20
261.149048
 30
0.0
  0
VERTEX
  5
232
330
22F
100
AcDbEntity
  8
001
 62
    40
370
    50
100
AcDbVertex
100
AcDb2dVertex
 10
240.335363
 20
260.979811
 30
0.0
  0
VERTEX
  5
233
330
22F
100
AcDbEntity
  8
001
 62
    40
370
    50
100
AcDbVertex
100
AcDb2dVertex
 10
240.451833
 20
260.757265
 30
0.0
  0
VERTEX
  5
234
330
22F
100
AcDbEntity
  8
001
 62
    40
370
    50
100
AcDbVertex
100
AcDb2dVertex
 10
240.549616
 20
260.614596
 30
0.0
  0
VERTEX
  5
235
330
22F
100
AcDbEntity
  8
001
 62
    40
370
    50
100
AcDbVertex
100
AcDb2dVertex
 10
240.651518
 20
260.494105
 30
0.0
  0
VERTEX
  5
236
330
22F
100
AcDbEntity
  8
001
 62
    40
370
    50
100
AcDbVertex
100
AcDb2dVertex
 10
240.761023
 20
260.381527
 30
0.0
  0
VERTEX
  5
237
330
22F
100
AcDbEntity
  8
001
 62
    40
370
    50
100
AcDbVertex
100
AcDb2dVertex
 10
240.893883
 20
260.269982
 30
0.0
  0
VERTEX
  5
238
330
22F
100
AcDbEntity
  8
001
 62
    40
370
    50
100
AcDbVertex
100
AcDb2dVertex
 10
241.052137
 20
260.162265
 30
0.0
  0
VERTEX
  5
239
330
22F
100
AcDbEntity
  8
001
 62
    40
370
    50
100
AcDbVertex
100
AcDb2dVertex
 10
241.171565
 20
260.091704
 30
0.0
  0
SEQEND
  5
230
330
22F
100
AcDbEntity
  8
001
370
    50
  0
POLYLINE
  5
23A
330
1F
100
AcDbEntity
  8
001
 62
    40
370
    50
100
AcDb2dPolyline
 66
     1
 10
0.0
 20
0.0
 30
0.0
  0
VERTEX
  5
23C
330
23A
100
AcDbEntity
  8
001
 62
    40
370
    50
100
AcDbVertex
100
AcDb2dVertex
 10
242.940832
 20
263.465988
 30
0.0
  0
VERTEX
  5
23D
330
23A
100
AcDbEntity
  8
001
 62
    40
370
    50
100
AcDbVertex
100
AcDb2dVertex
 10
242.814803
 20
263.524102
 30
0.0
  0
VERTEX
  5
23E
330
23A
100
AcDbEntity
  8
001
 62
    40
370
    50
100
AcDbVertex
100
AcDb2dVertex
 10
242.636271
 20
263.593003
 30
0.0
  0
VERTEX
  5
23F
330
23A
100
AcDbEntity
  8
001
 62
    40
370
    50
100
AcDbVertex
100
AcDb2dVertex
 10
242.469314
 20
263.638801
 30
0.0
  0
VERTEX
  5
240
330
23A
100
AcDbEntity
  8
001
 62
    40
370
    50
100
AcDbVertex
100
AcDb2dVertex
 10
242.314085
 20
263.664895
 30
0.0
  0
VERTEX
  5
241
330
23A
100
AcDbEntity
  8
001
 62
    40
370
    50
100
AcDbVertex
100
AcDb2dVertex
 10
242.155689
 20
263.680365
 30
0.0
  0
VERTEX
  5
242
330
23A
100
AcDbEntity
  8
001
 62
    40
370
    50
100
AcDbVertex
100
AcDb2dVertex
 10
241.984064
 20
263.679481
 30
0.0
  0
VERTEX
  5
243
330
23A
100
AcDbEntity
  8
001
 62
    40
370
    50
100
AcDbVertex
100
AcDb2dVertex
 10
241.60579
 20
263.616586
 30
0.0
  0
VERTEX
  5
244
330
23A
100
AcDbEntity
  8
001
 62
    40
370
    50
100
AcDbVertex
100
AcDb2dVertex
 10
241.333539
 20
263.53379
 30
0.0
  0
SEQEND
  5
23B
330
23A
100
AcDbEntity
  8
001
370
    50
  0
POLYLINE
  5
245
330
1F
100
AcDbEntity
  8
001
 62
    40
370
    50
100
AcDb2dPolyline
 66
     1
 10
0.0
 20
0.0
 30
0.0
  0
VERTEX
  5
247
330
245
100
AcDbEntity
  8
001
 62
    40
370
    50
100
AcDbVertex
100
AcDb2dVertex
 10
243.635942
 20
261.954354
 30
0.0
  0
VERTEX
  5
248
330
245
100
AcDbEntity
  8
001
 62
    40
370
    50
100
AcDbVertex
100
AcDb2dVertex
 10
243.6356
 20
261.983906
 30
0.0
  0
VERTEX
  5
249
330
245
100
AcDbEntity
  8
001
 62
    40
370
    50
100
AcDbVertex
100
AcDb2dVertex
 10
243.634569
 20
262.02674
 30
0.0
  0
VERTEX
  5
24A
330
245
100
AcDbEntity
  8
001
 62
    40
370
    50
100
AcDbVertex
100
AcDb2dVertex
 10
243.55241
 20
262.546071
 30
0.0
  0
VERTEX
  5
24B
330
245
100
AcDbEntity
  8
001
 62
    40
370
    50
100
AcDbVertex
100
AcDb2dVertex
 10
243.344726
 20
262.966033
 30
0.0
  0
VERTEX
  5
24C
330
245
100
AcDbEntity
  8
001
 62
    40
370
    50
100
AcDbVertex
100
AcDb2dVertex
 10
243.248298
 20
263.102052
 30
0.0
  0
VERTEX
  5
24D
330
245
100
AcDbEntity
  8
001
 62
    40
370
    50
100
AcDbVertex
100
AcDb2dVertex
 10
243.145042
 20
263.229193
 30
0.0
  0
VERTEX
  5
24E
330
245
100
AcDbEntity
  8
001
 62
    40
370
    50
100
AcDbVertex
100
AcDb2dVertex
 10
243.036645
 20
263.341789
 30
0.0
  0
VERTEX
  5
24F
330
245
100
AcDbEntity
  8
001
 62
    40
370
    50
100
AcDbVertex
100
AcDb2dVertex
 10
242.902676
 20
263.453316
 30
0.0
  0
VERTEX
  5
250
330
245
100
AcDbEntity
  8
001
 62
    40
370
    50
100
AcDbVertex
100
AcDb2dVertex
 10
242.830914
 20
263.505574
 30
0.0
  0
VERTEX
  5
251
330
245
100
AcDbEntity
  8
001
 62
    40
370
    50
100
AcDbVertex
100
AcDb2dVertex
 10
242.77898
 20
263.54129
 30
0.0
  0
SEQEND
  5
246
330
245
100
AcDbEntity
  8
001
370
    50
  0
POLYLINE
  5
252
330
1F
100
AcDbEntity
  8
001
 62
    40
370
    50
100
AcDb2dPolyline
 66
     1
 10
0.0
 20
0.0
 30
0.0
  0
VERTEX
  5
254
330
252
100
AcDbEntity
  8
001
 62
    40
370
    50
100
AcDbVertex
100
AcDb2dVertex
 10
241.017579
 20
260.182008
 30
0.0
  0
VERTEX
  5
255
330
252
100
AcDbEntity
  8
001
 62
    40
370
    50
100
AcDbVertex
100
AcDb2dVertex
 10
241.076471
 20
260.159588
 30
0.0
  0
VERTEX
  5
256
330
252
100
AcDbEntity
  8
001
 62
    40
370
    50
100
AcDbVertex
100
AcDb2dVertex
 10
241.160288
 20
260.130295
 30
0.0
  0
VERTEX
  5
257
330
252
100
AcDbEntity
  8
001
 62
    40
370
    50
100
AcDbVertex
100
AcDb2dVertex
 10
241.328538
 20
260.083756
 30
0.0
  0
VERTEX
  5
258
330
252
100
AcDbEntity
  8
001
 62
    40
370
    50
100
AcDbVertex
100
AcDb2dVertex
 10
241.482474
 20
260.058403
 30
0.0
  0
VERTEX
  5
259
330
252
100
AcDbEntity
  8
001
 62
    40
370
    50
100
AcDbVertex
100
AcDb2dVertex
 10
241.644414
 20
260.044823
 30
0.0
  0
VERTEX
  5
25A
330
252
100
AcDbEntity
  8
001
 62
    40
370
    50
100
AcDbVertex
100
AcDb2dVertex
 10
241.812495
 20
260.043817
 30
0.0
  0
VERTEX
  5
25B
330
252
100
AcDbEntity
  8
001
 62
    40
370
    50
100
AcDbVertex
100
AcDb2dVertex
 10
242.302316
 20
260.130251
 30
0.0
  0
VERTEX
  5
25C
330
252
100
AcDbEntity
  8
001
 62
    40
370
    50
100
AcDbVertex
100
AcDb2dVertex
 10
242.749935
 20
260.339598
 30
0.0
  0
VERTEX
  5
25D
330
252
100
AcDbEntity
  8
001
 62
    40
370
    50
100
AcDbVertex
100
AcDb2dVertex
 10
243.013425
 20
260.540838
 30
0.0
  0
VERTEX
  5
25E
330
252
100
AcDbEntity
  8
001
 62
    40
370
    50
100
AcDbVertex
100
AcDb2dVertex
 10
243.237776
 20
260.785784
 30
0.0
  0
VERTEX
  5
25F
330
252
100
AcDbEntity
  8
001
 62
    40
370
    50
100
AcDbVertex
100
AcDb2dVertex
 10
243.333434
 20
260.923276
 30
0.0
  0
VERTEX
  5
260
330
252
100
AcDbEntity
  8
001
 62
    40
370
    50
100
AcDbVertex
100
AcDb2dVertex
 10
243.41686
 20
261.065398
 30
0.0
  0
VERTEX
  5
261
330
252
100
AcDbEntity
  8
001
 62
    40
370
    50
100
AcDbVertex
100
AcDb2dVertex
 10
243.487559
 20
261.210455
 30
0.0
  0
VERTEX
  5
262
330
252
100
AcDbEntity
  8
001
 62
    40
370
    50
100
AcDbVertex
100
AcDb2dVertex
 10
243.545006
 20
261.371722
 30
0.0
  0
VERTEX
  5
263
330
252
100
AcDbEntity
  8
001
 62
    40
370
    50
100
AcDbVertex
100
AcDb2dVertex
 10
243.612958
 20
261.703899
 30
0.0
  0
VERTEX
  5
264
330
252
100
AcDbEntity
  8
001
 62
    40
370
    50
100
AcDbVertex
100
AcDb2dVertex
 10
243.635942
 20
261.954354
 30
0.0
  0
SEQEND
  5
253
330
252
100
AcDbEntity
  8
001
370
    50
  0
LINE
  5
265
330
1F
100
AcDbEntity
  8
001
 62
   200
370
    50
100
AcDbLine
 10
254.266225
 20
257.011448
 30
0.0
 11
246.139449
 21
264.960829
 31
0.0
  0
LINE
  5
266
330
1F
100
AcDbEntity
  8
001
 62
   200
370
    50
100
AcDbLine
 10
254.266225
 20
248.940245
 30
0.0
 11
239.266225
 21
248.940245
 31
0.0
  0
LINE
  5
267
330
1F
100
AcDbEntity
  8
001
 62
   200
370
    50
100
AcDbLine
 10
236.766225
 20
255.913244
 30
0.0
 11
239.266225
 21
253.413244
 31
0.0
  0
POLYLINE
  5
268
330
1F
100
AcDbEntity
  8
001
 62
   200
370
    50
100
AcDb2dPolyline
 66
     1
 10
0.0
 20
0.0
 30
0.0
  0
VERTEX
  5
26A
330
268
100
AcDbEntity
  8
001
 62
   200
370
    50
100
AcDbVertex
100
AcDb2dVertex
 10
241.410649
 20
264.960829
 30
0.0
  0
VERTEX
  5
26B
330
268
100
AcDbEntity
  8
001
 62
   200
370
    50
100
AcDbVertex
100
AcDb2dVertex
 10
240.37061
 20
263.665677
 30
0.0
  0
VERTEX
  5
26C
330
268
100
AcDbEntity
  8
001
 62
   200
370
    50
100
AcDbVertex
100
AcDb2dVertex
 10
239.339274
 20
262.363625
 30
0.0
  0
VERTEX
  5
26D
330
268
100
AcDbEntity
  8
001
 62
   200
370
    50
100
AcDbVertex
100
AcDb2dVertex
 10
238.324562
 20
261.049325
 30
0.0
  0
VERTEX
  5
26E
330
268
100
AcDbEntity
  8
001
 62
   200
370
    50
100
AcDbVertex
100
AcDb2dVertex
 10
237.3289
 20
259.720554
 30
0.0
  0
VERTEX
  5
26F
330
268
100
AcDbEntity
  8
001
 62
   200
370
    50
100
AcDbVertex
100
AcDb2dVertex
 10
237.047138
 20
259.337066
 30
0.0
  0
VERTEX
  5
270
330
268
100
AcDbEntity
  8
001
 62
   200
370
    50
100
AcDbVertex
100
AcDb2dVertex
 10
236.766225
 20
258.952956
 30
0.0
  0
SEQEND
  5
269
330
268
100
AcDbEntity
  8
001
370
    50
  0
LINE
  5
271
330
1F
100
AcDbEntity
  8
001
 62
   200
370
    50
100
AcDbLine
 10
246.139449
 20
264.960829
 30
0.0
 11
241.410649
 21
264.960829
 31
0.0
  0
POLYLINE
  5
272
330
1F
100
AcDbEntity
  8
001
 62
   200
370
    50
100
AcDb2dPolyline
 66
     1
 10
0.0
 20
0.0
 30
0.0
  0
VERTEX
  5
274
330
272
100
AcDbEntity
  8
001
 62
   200
370
    50
100
AcDbVertex
100
AcDb2dVertex
 10
242.344904
 20
264.067877
 30
0.0
  0
VERTEX
  5
275
330
272
100
AcDbEntity
  8
001
 62
   200
370
    50
100
AcDbVertex
100
AcDb2dVertex
 10
242.158188
 20
264.002898
 30
0.0
  0
VERTEX
  5
276
330
272
100
AcDbEntity
  8
001
 62
   200
370
    50
100
AcDbVertex
100
AcDb2dVertex
 10
241.905984
 20
263.89873
 30
0.0
  0
VERTEX
  5
277
330
272
100
AcDbEntity
  8
001
 62
   200
370
    50
100
AcDbVertex
100
AcDb2dVertex
 10
241.66612
 20
263.772108
 30
0.0
  0
VERTEX
  5
278
330
272
100
AcDbEntity
  8
001
 62
   200
370
    50
100
AcDbVertex
100
AcDb2dVertex
 10
241.460463
 20
263.63189
 30
0.0
  0
VERTEX
  5
279
330
272
100
AcDbEntity
  8
001
 62
   200
370
    50
100
AcDbVertex
100
AcDb2dVertex
 10
241.26056
 20
263.470285
 30
0.0
  0
VERTEX
  5
27A
330
272
100
AcDbEntity
  8
001
 62
   200
370
    50
100
AcDbVertex
100
AcDb2dVertex
 10
241.070214
 20
263.289255
 30
0.0
  0
VERTEX
  5
27B
330
272
100
AcDbEntity
  8
001
 62
   200
370
    50
100
AcDbVertex
100
AcDb2dVertex
 10
240.898694
 20
263.092208
 30
0.0
  0
VERTEX
  5
27C
330
272
100
AcDbEntity
  8
001
 62
   200
370
    50
100
AcDbVertex
100
AcDb2dVertex
 10
240.747095
 20
262.881238
 30
0.0
  0
VERTEX
  5
27D
330
272
100
AcDbEntity
  8
001
 62
   200
370
    50
100
AcDbVertex
100
AcDb2dVertex
 10
240.613874
 20
262.656569
 30
0.0
  0
VERTEX
  5
27E
330
272
100
AcDbEntity
  8
001
 62
   200
370
    50
100
AcDbVertex
100
AcDb2dVertex
 10
240.500922
 20
262.420234
 30
0.0
  0
VERTEX
  5
27F
330
272
100
AcDbEntity
  8
001
 62
   200
370
    50
100
AcDbVertex
100
AcDb2dVertex
 10
240.293493
 20
261.657376
 30
0.0
  0
VERTEX
  5
280
330
272
100
AcDbEntity
  8
001
 62
   200
370
    50
100
AcDbVertex
100
AcDb2dVertex
 10
240.28591
 20
260.864845
 30
0.0
  0
VERTEX
  5
281
330
272
100
AcDbEntity
  8
001
 62
   200
370
    50
100
AcDbVertex
100
AcDb2dVertex
 10
240.394795
 20
260.340321
 30
0.0
  0
VERTEX
  5
282
330
272
100
AcDbEntity
  8
001
 62
   200
370
    50
100
AcDbVertex
100
AcDb2dVertex
 10
240.59372
 20
259.842311
 30
0.0
  0
VERTEX
  5
283
330
272
100
AcDbEntity
  8
001
 62
   200
370
    50
100
AcDbVertex
100
AcDb2dVertex
 10
240.726012
 20
259.60528
 30
0.0
  0
VERTEX
  5
284
330
272
100
AcDbEntity
  8
001
 62
   200
370
    50
100
AcDbVertex
100
AcDb2dVertex
 10
240.873039
 20
259.382486
 30
0.0
  0
VERTEX
  5
285
330
272
100
AcDbEntity
  8
001
 62
   200
370
    50
100
AcDbVertex
100
AcDb2dVertex
 10
241.032857
 20
259.175931
 30
0.0
  0
VERTEX
  5
286
330
272
100
AcDbEntity
  8
001
 62
   200
370
    50
100
AcDbVertex
100
AcDb2dVertex
 10
241.225479
 20
258.975984
 30
0.0
  0
VERTEX
  5
287
330
272
100
AcDbEntity
  8
001
 62
   200
370
    50
100
AcDbVertex
100
AcDb2dVertex
 10
241.636318
 20
258.649309
 30
0.0
  0
VERTEX
  5
288
330
272
100
AcDbEntity
  8
001
 62
   200
370
    50
100
AcDbVertex
100
AcDb2dVertex
 10
241.963727
 20
258.439947
 30
0.0
  0
SEQEND
  5
273
330
272
100
AcDbEntity
  8
001
370
    50
  0
LINE
  5
289
330
1F
100
AcDbEntity
  8
001
 62
   200
370
    50
100
AcDbLine
 10
254.266225
 20
247.857578
 30
0.0
 11
254.266225
 21
257.011448
 31
0.0
  0
LINE
  5
28A
330
1F
100
AcDbEntity
  8
001
 62
   200
370
    50
100
AcDbLine
 10
239.266225
 20
253.413244
 30
0.0
 11
239.266225
 21
231.653412
 31
0.0
  0
POLYLINE
  5
28B
330
1F
100
AcDbEntity
  8
001
 62
   200
370
    50
100
AcDb2dPolyline
 66
     1
 10
0.0
 20
0.0
 30
0.0
  0
VERTEX
  5
28D
330
28B
100
AcDbEntity
  8
001
 62
   200
370
    50
100
AcDbVertex
100
AcDb2dVertex
 10
245.041324
 20
261.778846
 30
0.0
  0
VERTEX
  5
28E
330
28B
100
AcDbEntity
  8
001
 62
   200
370
    50
100
AcDbVertex
100
AcDb2dVertex
 10
245.040939
 20
261.831753
 30
0.0
  0
VERTEX
  5
28F
330
28B
100
AcDbEntity
  8
001
 62
   200
370
    50
100
AcDbVertex
100
AcDb2dVertex
 10
245.039202
 20
261.908434
 30
0.0
  0
VERTEX
  5
290
330
28B
100
AcDbEntity
  8
001
 62
   200
370
    50
100
AcDbVertex
100
AcDb2dVertex
 10
244.898043
 20
262.7353
 30
0.0
  0
VERTEX
  5
291
330
28B
100
AcDbEntity
  8
001
 62
   200
370
    50
100
AcDbVertex
100
AcDb2dVertex
 10
244.582757
 20
263.387635
 30
0.0
  0
VERTEX
  5
292
330
28B
100
AcDbEntity
  8
001
 62
   200
370
    50
100
AcDbVertex
100
AcDb2dVertex
 10
244.44514
 20
263.590673
 30
0.0
  0
VERTEX
  5
293
330
28B
100
AcDbEntity
  8
001
 62
   200
370
    50
100
AcDbVertex
100
AcDb2dVertex
 10
244.268293
 20
263.80206
 30
0.0
  0
VERTEX
  5
294
330
28B
100
AcDbEntity
  8
001
 62
   200
370
    50
100
AcDbVertex
100
AcDb2dVertex
 10
244.105347
 20
263.965666
 30
0.0
  0
VERTEX
  5
295
330
28B
100
AcDbEntity
  8
001
 62
   200
370
    50
100
AcDbVertex
100
AcDb2dVertex
 10
243.982878
 20
264.07726
 30
0.0
  0
SEQEND
  5
28C
330
28B
100
AcDbEntity
  8
001
370
    50
  0
POLYLINE
  5
296
330
1F
100
AcDbEntity
  8
001
 62
   200
370
    50
100
AcDb2dPolyline
 66
     1
 10
0.0
 20
0.0
 30
0.0
  0
VERTEX
  5
298
330
296
100
AcDbEntity
  8
001
 62
   200
370
    50
100
AcDbVertex
100
AcDb2dVertex
 10
244.595355
 20
263.834853
 30
0.0
  0
VERTEX
  5
299
330
296
100
AcDbEntity
  8
001
 62
   200
370
    50
100
AcDbVertex
100
AcDb2dVertex
 10
244.53797
 20
263.863903
 30
0.0
  0
VERTEX
  5
29A
330
296
100
AcDbEntity
  8
001
 62
   200
370
    50
100
AcDbVertex
100
AcDb2dVertex
 10
244.454094
 20
263.904445
 30
0.0
  0
VERTEX
  5
29B
330
296
100
AcDbEntity
  8
001
 62
   200
370
    50
100
AcDbVertex
100
AcDb2dVertex
 10
243.636736
 20
264.157958
 30
0.0
  0
VERTEX
  5
29C
330
296
100
AcDbEntity
  8
001
 62
   200
370
    50
100
AcDbVertex
100
AcDb2dVertex
 10
242.907424
 20
264.175148
 30
0.0
  0
VERTEX
  5
29D
330
296
100
AcDbEntity
  8
001
 62
   200
370
    50
100
AcDbVertex
100
AcDb2dVertex
 10
242.66967
 20
264.144948
 30
0.0
  0
VERTEX
  5
29E
330
296
100
AcDbEntity
  8
001
 62
   200
370
    50
100
AcDbVertex
100
AcDb2dVertex
 10
242.393239
 20
264.081669
 30
0.0
  0
VERTEX
  5
29F
330
296
100
AcDbEntity
  8
001
 62
   200
370
    50
100
AcDbVertex
100
AcDb2dVertex
 10
242.364624
 20
264.073581
 30
0.0
  0
VERTEX
  5
2A0
330
296
100
AcDbEntity
  8
001
 62
   200
370
    50
100
AcDbVertex
100
AcDb2dVertex
 10
242.344904
 20
264.067877
 30
0.0
  0
SEQEND
  5
297
330
296
100
AcDbEntity
  8
001
370
    50
  0
POLYLINE
  5
2A1
330
1F
100
AcDbEntity
  8
001
 62
   200
370
    50
100
AcDb2dPolyline
 66
     1
 10
0.0
 20
0.0
 30
0.0
  0
VERTEX
  5
2A3
330
2A1
100
AcDbEntity
  8
001
 62
   200
370
    50
100
AcDbVertex
100
AcDb2dVertex
 10
241.963727
 20
258.439947
 30
0.0
  0
VERTEX
  5
2A4
330
2A1
100
AcDbEntity
  8
001
 62
   200
370
    50
100
AcDbVertex
100
AcDb2dVertex
 10
242.021184
 20
258.41092
 30
0.0
  0
VERTEX
  5
2A5
330
2A1
100
AcDbEntity
  8
001
 62
   200
370
    50
100
AcDbVertex
100
AcDb2dVertex
 10
242.104988
 20
258.370356
 30
0.0
  0
VERTEX
  5
2A6
330
2A1
100
AcDbEntity
  8
001
 62
   200
370
    50
100
AcDbVertex
100
AcDb2dVertex
 10
242.905641
 20
258.111568
 30
0.0
  0
VERTEX
  5
2A7
330
2A1
100
AcDbEntity
  8
001
 62
   200
370
    50
100
AcDbVertex
100
AcDb2dVertex
 10
243.651657
 20
258.099652
 30
0.0
  0
VERTEX
  5
2A8
330
2A1
100
AcDbEntity
  8
001
 62
   200
370
    50
100
AcDbVertex
100
AcDb2dVertex
 10
243.908822
 20
258.135983
 30
0.0
  0
VERTEX
  5
2A9
330
2A1
100
AcDbEntity
  8
001
 62
   200
370
    50
100
AcDbVertex
100
AcDb2dVertex
 10
244.165843
 20
258.193131
 30
0.0
  0
VERTEX
  5
2AA
330
2A1
100
AcDbEntity
  8
001
 62
   200
370
    50
100
AcDbVertex
100
AcDb2dVertex
 10
244.414124
 20
258.273354
 30
0.0
  0
VERTEX
  5
2AB
330
2A1
100
AcDbEntity
  8
001
 62
   200
370
    50
100
AcDbVertex
100
AcDb2dVertex
 10
244.653098
 20
258.37607
 30
0.0
  0
VERTEX
  5
2AC
330
2A1
100
AcDbEntity
  8
001
 62
   200
370
    50
100
AcDbVertex
100
AcDb2dVertex
 10
244.881743
 20
258.499504
 30
0.0
  0
VERTEX
  5
2AD
330
2A1
100
AcDbEntity
  8
001
 62
   200
370
    50
100
AcDbVertex
100
AcDb2dVertex
 10
245.098619
 20
258.642911
 30
0.0
  0
VERTEX
  5
2AE
330
2A1
100
AcDbEntity
  8
001
 62
   200
370
    50
100
AcDbVertex
100
AcDb2dVertex
 10
245.30153
 20
258.80537
 30
0.0
  0
VERTEX
  5
2AF
330
2A1
100
AcDbEntity
  8
001
 62
   200
370
    50
100
AcDbVertex
100
AcDb2dVertex
 10
245.488867
 20
258.985546
 30
0.0
  0
VERTEX
  5
2B0
330
2A1
100
AcDbEntity
  8
001
 62
   200
370
    50
100
AcDbVertex
100
AcDb2dVertex
 10
245.659572
 20
259.182361
 30
0.0
  0
VERTEX
  5
2B1
330
2A1
100
AcDbEntity
  8
001
 62
   200
370
    50
100
AcDbVertex
100
AcDb2dVertex
 10
245.811987
 20
259.393563
 30
0.0
  0
VERTEX
  5
2B2
330
2A1
100
AcDbEntity
  8
001
 62
   200
370
    50
100
AcDbVertex
100
AcDb2dVertex
 10
245.945454
 20
259.618302
 30
0.0
  0
VERTEX
  5
2B3
330
2A1
100
AcDbEntity
  8
001
 62
   200
370
    50
100
AcDbVertex
100
AcDb2dVertex
 10
246.058159
 20
259.854566
 30
0.0
  0
VERTEX
  5
2B4
330
2A1
100
AcDbEntity
  8
001
 62
   200
370
    50
100
AcDbVertex
100
AcDb2dVertex
 10
246.265339
 20
260.617353
 30
0.0
  0
VERTEX
  5
2B5
330
2A1
100
AcDbEntity
  8
001
 62
   200
370
    50
100
AcDbVertex
100
AcDb2dVertex
 10
246.273171
 20
261.409956
 30
0.0
  0
VERTEX
  5
2B6
330
2A1
100
AcDbEntity
  8
001
 62
   200
370
    50
100
AcDbVertex
100
AcDb2dVertex
 10
246.164322
 20
261.93449
 30
0.0
  0
VERTEX
  5
2B7
330
2A1
100
AcDbEntity
  8
001
 62
   200
370
    50
100
AcDbVertex
100
AcDb2dVertex
 10
245.965362
 20
262.43249
 30
0.0
  0
VERTEX
  5
2B8
330
2A1
100
AcDbEntity
  8
001
 62
   200
370
    50
100
AcDbVertex
100
AcDb2dVertex
 10
245.833066
 20
262.669519
 30
0.0
  0
VERTEX
  5
2B9
330
2A1
100
AcDbEntity
  8
001
 62
   200
370
    50
100
AcDbVertex
100
AcDb2dVertex
 10
245.686043
 20
262.892314
 30
0.0
  0
VERTEX
  5
2BA
330
2A1
100
AcDbEntity
  8
001
 62
   200
370
    50
100
AcDbVertex
100
AcDb2dVertex
 10
245.526225
 20
263.09887
 30
0.0
  0
VERTEX
  5
2BB
330
2A1
100
AcDbEntity
  8
001
 62
   200
370
    50
100
AcDbVertex
100
AcDb2dVertex
 10
245.333603
 20
263.298817
 30
0.0
  0
VERTEX
  5
2BC
330
2A1
100
AcDbEntity
  8
001
 62
   200
370
    50
100
AcDbVertex
100
AcDb2dVertex
 10
244.922763
 20
263.625492
 30
0.0
  0
VERTEX
  5
2BD
330
2A1
100
AcDbEntity
  8
001
 62
   200
370
    50
100
AcDbVertex
100
AcDb2dVertex
 10
244.595355
 20
263.834853
 30
0.0
  0
SEQEND
  5
2A2
330
2A1
100
AcDbEntity
  8
001
370
    50
  0
POLYLINE
  5
2BE
330
1F
100
AcDbEntity
  8
001
 62
   200
370
    50
100
AcDb2dPolyline
 66
     1
 10
0.0
 20
0.0
 30
0.0
  0
VERTEX
  5
2C0
330
2BE
100
AcDbEntity
  8
001
 62
   200
370
    50
100
AcDbVertex
100
AcDb2dVertex
 10
241.344796
 20
258.865557
 30
0.0
  0
VERTEX
  5
2C1
330
2BE
100
AcDbEntity
  8
001
 62
   200
370
    50
100
AcDbVertex
100
AcDb2dVertex
 10
241.471444
 20
258.839232
 30
0.0
  0
VERTEX
  5
2C2
330
2BE
100
AcDbEntity
  8
001
 62
   200
370
    50
100
AcDbVertex
100
AcDb2dVertex
 10
241.650076
 20
258.808691
 30
0.0
  0
VERTEX
  5
2C3
330
2BE
100
AcDbEntity
  8
001
 62
   200
370
    50
100
AcDbVertex
100
AcDb2dVertex
 10
241.923961
 20
258.782091
 30
0.0
  0
VERTEX
  5
2C4
330
2BE
100
AcDbEntity
  8
001
 62
   200
370
    50
100
AcDbVertex
100
AcDb2dVertex
 10
242.169795
 20
258.785721
 30
0.0
  0
VERTEX
  5
2C5
330
2BE
100
AcDbEntity
  8
001
 62
   200
370
    50
100
AcDbVertex
100
AcDb2dVertex
 10
242.922266
 20
258.927069
 30
0.0
  0
VERTEX
  5
2C6
330
2BE
100
AcDbEntity
  8
001
 62
   200
370
    50
100
AcDbVertex
100
AcDb2dVertex
 10
243.646078
 20
259.251518
 30
0.0
  0
VERTEX
  5
2C7
330
2BE
100
AcDbEntity
  8
001
 62
   200
370
    50
100
AcDbVertex
100
AcDb2dVertex
 10
244.063655
 20
259.567685
 30
0.0
  0
VERTEX
  5
2C8
330
2BE
100
AcDbEntity
  8
001
 62
   200
370
    50
100
AcDbVertex
100
AcDb2dVertex
 10
244.414331
 20
259.954173
 30
0.0
  0
VERTEX
  5
2C9
330
2BE
100
AcDbEntity
  8
001
 62
   200
370
    50
100
AcDbVertex
100
AcDb2dVertex
 10
244.564725
 20
260.170791
 30
0.0
  0
VERTEX
  5
2CA
330
2BE
100
AcDbEntity
  8
001
 62
   200
370
    50
100
AcDbVertex
100
AcDb2dVertex
 10
244.696354
 20
260.39451
 30
0.0
  0
VERTEX
  5
2CB
330
2BE
100
AcDbEntity
  8
001
 62
   200
370
    50
100
AcDbVertex
100
AcDb2dVertex
 10
244.807721
 20
260.622848
 30
0.0
  0
VERTEX
  5
2CC
330
2BE
100
AcDbEntity
  8
001
 62
   200
370
    50
100
AcDbVertex
100
AcDb2dVertex
 10
244.898158
 20
260.87691
 30
0.0
  0
VERTEX
  5
2CD
330
2BE
100
AcDbEntity
  8
001
 62
   200
370
    50
100
AcDbVertex
100
AcDb2dVertex
 10
245.004295
 20
261.391274
 30
0.0
  0
VERTEX
  5
2CE
330
2BE
100
AcDbEntity
  8
001
 62
   200
370
    50
100
AcDbVertex
100
AcDb2dVertex
 10
245.041324
 20
261.778846
 30
0.0
  0
SEQEND
  5
2BF
330
2BE
100
AcDbEntity
  8
001
370
    50
  0
LINE
  5
2CF
330
1F
100
AcDbEntity
  8
001
 62
   200
370
    50
100
AcDbLine
 10
236.766225
 20
262.41612
 30
0.0
 11
241.405565
 21
266.820466
 31
0.0
  0
POLYLINE
  5
2D0
330
1F
100
AcDbEntity
  8
001
 62
   200
370
    50
100
AcDb2dPolyline
 66
     1
 10
0.0
 20
0.0
 30
0.0
  0
VERTEX
  5
2D2
330
2D0
100
AcDbEntity
  8
001
 62
   200
370
    50
100
AcDbVertex
100
AcDb2dVertex
 10
241.405565
 20
266.820466
 30
0.0
  0
VERTEX
  5
2D3
330
2D0
100
AcDbEntity
  8
001
 62
   200
370
    50
100
AcDbVertex
100
AcDb2dVertex
 10
241.406344
 20
266.420487
 30
0.0
  0
VERTEX
  5
2D4
330
2D0
100
AcDbEntity
  8
001
 62
   200
370
    50
100
AcDbVertex
100
AcDb2dVertex
 10
241.407261
 20
266.020508
 30
0.0
  0
VERTEX
  5
2D5
330
2D0
100
AcDbEntity
  8
001
 62
   200
370
    50
100
AcDbVertex
100
AcDb2dVertex
 10
241.408833
 20
265.490668
 30
0.0
  0
VERTEX
  5
2D6
330
2D0
100
AcDbEntity
  8
001
 62
   200
370
    50
100
AcDbVertex
100
AcDb2dVertex
 10
241.410649
 20
264.960829
 30
0.0
  0
SEQEND
  5
2D1
330
2D0
100
AcDbEntity
  8
001
370
    50
  0
POLYLINE
  5
2D7
330
1F
100
AcDbEntity
  8
001
 62
   200
370
    50
100
AcDb2dPolyline
 66
     1
 10
0.0
 20
0.0
 30
0.0
  0
VERTEX
  5
2D9
330
2D7
100
AcDbEntity
  8
001
 62
   200
370
    50
100
AcDbVertex
100
AcDb2dVertex
 10
241.405565
 20
266.820466
 30
0.0
  0
VERTEX
  5
2DA
330
2D7
100
AcDbEntity
  8
001
 62
   200
370
    50
100
AcDbVertex
100
AcDb2dVertex
 10
241.462011
 20
267.004144
 30
0.0
  0
VERTEX
  5
2DB
330
2D7
100
AcDbEntity
  8
001
 62
   200
370
    50
100
AcDbVertex
100
AcDb2dVertex
 10
241.491501
 20
267.276728
 30
0.0
  0
VERTEX
  5
2DC
330
2D7
100
AcDbEntity
  8
001
 62
   200
370
    50
100
AcDbVertex
100
AcDb2dVertex
 10
241.457935
 20
267.453432
 30
0.0
  0
VERTEX
  5
2DD
330
2D7
100
AcDbEntity
  8
001
 62
   200
370
    50
100
AcDbVertex
100
AcDb2dVertex
 10
241.406339
 20
267.565513
 30
0.0
  0
SEQEND
  5
2D8
330
2D7
100
AcDbEntity
  8
001
370
    50
  0
LINE
  5
2DE
330
1F
100
AcDbEntity
  8
001
 62
   200
370
    50
100
AcDbLine
 10
241.406344
 20
267.566197
 30
0.0
 11
241.406339
 21
267.565513
 31
0.0
  0
POLYLINE
  5
2DF
330
1F
100
AcDbEntity
  8
001
 62
   200
370
    50
100
AcDb2dPolyline
 66
     1
 10
0.0
 20
0.0
 30
0.0
  0
VERTEX
  5
2E1
330
2DF
100
AcDbEntity
  8
001
 62
   200
370
    50
100
AcDbVertex
100
AcDb2dVertex
 10
242.983661
 20
267.578859
 30
0.0
  0
VERTEX
  5
2E2
330
2DF
100
AcDbEntity
  8
001
 62
   200
370
    50
100
AcDbVertex
100
AcDb2dVertex
 10
242.663259
 20
267.57634
 30
0.0
  0
VERTEX
  5
2E3
330
2DF
100
AcDbEntity
  8
001
 62
   200
370
    50
100
AcDbVertex
100
AcDb2dVertex
 10
242.194978
 20
267.572614
 30
0.0
  0
VERTEX
  5
2E4
330
2DF
100
AcDbEntity
  8
001
 62
   200
370
    50
100
AcDbVertex
100
AcDb2dVertex
 10
241.726727
 20
267.568823
 30
0.0
  0
VERTEX
  5
2E5
330
2DF
100
AcDbEntity
  8
001
 62
   200
370
    50
100
AcDbVertex
100
AcDb2dVertex
 10
241.406344
 20
267.566197
 30
0.0
  0
SEQEND
  5
2E0
330
2DF
100
AcDbEntity
  8
001
370
    50
  0
POLYLINE
  5
2E6
330
1F
100
AcDbEntity
  8
001
 62
   200
370
    50
100
AcDb2dPolyline
 66
     1
 10
0.0
 20
0.0
 30
0.0
  0
VERTEX
  5
2E8
330
2E6
100
AcDbEntity
  8
001
 62
   200
370
    50
100
AcDbVertex
100
AcDb2dVertex
 10
246.139449
 20
264.960829
 30
0.0
  0
VERTEX
  5
2E9
330
2E6
100
AcDbEntity
  8
001
 62
   200
370
    50
100
AcDbVertex
100
AcDb2dVertex
 10
245.73887
 20
265.313914
 30
0.0
  0
VERTEX
  5
2EA
330
2E6
100
AcDbEntity
  8
001
 62
   200
370
    50
100
AcDbVertex
100
AcDb2dVertex
 10
245.189079
 20
265.798601
 30
0.0
  0
VERTEX
  5
2EB
330
2E6
100
AcDbEntity
  8
001
 62
   200
370
    50
100
AcDbVertex
100
AcDb2dVertex
 10
244.332467
 20
266.551382
 30
0.0
  0
VERTEX
  5
2EC
330
2E6
100
AcDbEntity
  8
001
 62
   200
370
    50
100
AcDbVertex
100
AcDb2dVertex
 10
243.407954
 20
267.279576
 30
0.0
  0
VERTEX
  5
2ED
330
2E6
100
AcDbEntity
  8
001
 62
   200
370
    50
100
AcDbVertex
100
AcDb2dVertex
 10
243.16095
 20
267.457883
 30
0.0
  0
VERTEX
  5
2EE
330
2E6
100
AcDbEntity
  8
001
 62
   200
370
    50
100
AcDbVertex
100
AcDb2dVertex
 10
242.983661
 20
267.578859
 30
0.0
  0
SEQEND
  5
2E7
330
2E6
100
AcDbEntity
  8
001
370
    50
  0
LINE
  5
2EF
330
1F
100
AcDbEntity
  8
001
 62
   200
370
    50
100
AcDbLine
 10
240.974252
 20
267.130869
 30
0.0
 11
236.766225
 21
262.885746
 31
0.0
  0
LINE
  5
2F0
330
1F
100
AcDbEntity
  8
001
 62
   200
370
    50
100
AcDbLine
 10
241.406339
 20
267.565513
 30
0.0
 11
240.974252
 21
267.130869
 31
0.0
  0
LINE
  5
2F1
330
1F
100
AcDbEntity
  8
001
 62
   200
370
    50
100
AcDbLine
 10
236.766225
 20
255.913244
 30
0.0
 11
236.766225
 21
262.885746
 31
0.0
  0
LINE
  5
2F2
330
1F
100
AcDbEntity
  8
001
 62
   200
370
    50
100
AcDbLine
 10
240.974252
 20
267.130869
 30
0.0
 11
241.406344
 21
267.566197
 31
0.0
  0
LINE
  5
2F3
330
1F
100
AcDbEntity
  8
001
 62
   200
370
    50
100
AcDbLine
 10
254.266225
 20
153.018928
 30
0.0
 11
246.139449
 21
151.018298
 31
0.0
  0
POLYLINE
  5
2F4
330
1F
100
AcDbEntity
  8
001
 62
   200
370
    50
100
AcDb2dPolyline
 66
     1
 10
0.0
 20
0.0
 30
0.0
  0
VERTEX
  5
2F6
330
2F4
100
AcDbEntity
  8
001
 62
   200
370
    50
100
AcDbVertex
100
AcDb2dVertex
 10
242.983661
 20
159.176588
 30
0.0
  0
VERTEX
  5
2F7
330
2F4
100
AcDbEntity
  8
001
 62
   200
370
    50
100
AcDbVertex
100
AcDb2dVertex
 10
243.122986
 20
158.407524
 30
0.0
  0
VERTEX
  5
2F8
330
2F4
100
AcDbEntity
  8
001
 62
   200
370
    50
100
AcDbVertex
100
AcDb2dVertex
 10
243.343022
 20
157.338051
 30
0.0
  0
VERTEX
  5
2F9
330
2F4
100
AcDbEntity
  8
001
 62
   200
370
    50
100
AcDbVertex
100
AcDb2dVertex
 10
244.00628
 20
154.96641
 30
0.0
  0
VERTEX
  5
2FA
330
2F4
100
AcDbEntity
  8
001
 62
   200
370
    50
100
AcDbVertex
100
AcDb2dVertex
 10
245.067428
 20
152.757415
 30
0.0
  0
VERTEX
  5
2FB
330
2F4
100
AcDbEntity
  8
001
 62
   200
370
    50
100
AcDbVertex
100
AcDb2dVertex
 10
245.67629
 20
151.736203
 30
0.0
  0
VERTEX
  5
2FC
330
2F4
100
AcDbEntity
  8
001
 62
   200
370
    50
100
AcDbVertex
100
AcDb2dVertex
 10
246.139449
 20
151.018298
 30
0.0
  0
SEQEND
  5
2F5
330
2F4
100
AcDbEntity
  8
001
370
    50
  0
LINE
  5
2FD
330
1F
100
AcDbEntity
  8
001
 62
   200
370
    50
100
AcDbLine
 10
248.758088
 20
162.820574
 30
0.0
 11
242.983661
 21
159.176588
 31
0.0
  0
LINE
  5
2FE
330
1F
100
AcDbEntity
  8
001
 62
   200
370
    50
100
AcDbLine
 10
248.472336
 20
165.221577
 30
0.0
 11
248.758088
 21
162.820574
 31
0.0
  0
LINE
  5
2FF
330
1F
100
AcDbEntity
  8
001
 62
   200
370
    50
100
AcDbLine
 10
248.472336
 20
165.221577
 30
0.0
 11
254.266225
 21
167.648147
 31
0.0
  0
LINE
  5
300
330
1F
100
AcDbEntity
  8
001
 62
   200
370
    50
100
AcDbLine
 10
248.758088
 20
162.820574
 30
0.0
 11
248.009368
 21
163.167707
 31
0.0
  0
LINE
  5
301
330
1F
100
AcDbEntity
  8
001
 62
   200
370
    50
100
AcDbLine
 10
246.139449
 20
151.018298
 30
0.0
 11
241.410649
 21
151.018298
 31
0.0
  0
POLYLINE
  5
302
330
1F
100
AcDbEntity
  8
001
 62
   200
370
    50
100
AcDb2dPolyline
 66
     1
 10
0.0
 20
0.0
 30
0.0
  0
VERTEX
  5
304
330
302
100
AcDbEntity
  8
001
 62
   200
370
    50
100
AcDbVertex
100
AcDb2dVertex
 10
241.405565
 20
155.186674
 30
0.0
  0
VERTEX
  5
305
330
302
100
AcDbEntity
  8
001
 62
   200
370
    50
100
AcDbVertex
100
AcDb2dVertex
 10
241.406218
 20
154.099533
 30
0.0
  0
VERTEX
  5
306
330
302
100
AcDbEntity
  8
001
 62
   200
370
    50
100
AcDbVertex
100
AcDb2dVertex
 10
241.407261
 20
153.012392
 30
0.0
  0
VERTEX
  5
307
330
302
100
AcDbEntity
  8
001
 62
   200
370
    50
100
AcDbVertex
100
AcDb2dVertex
 10
241.408791
 20
152.015345
 30
0.0
  0
VERTEX
  5
308
330
302
100
AcDbEntity
  8
001
 62
   200
370
    50
100
AcDbVertex
100
AcDb2dVertex
 10
241.410649
 20
151.018298
 30
0.0
  0
SEQEND
  5
303
330
302
100
AcDbEntity
  8
001
370
    50
  0
POLYLINE
  5
309
330
1F
100
AcDbEntity
  8
001
 62
   200
370
    50
100
AcDb2dPolyline
 66
     1
 10
0.0
 20
0.0
 30
0.0
  0
VERTEX
  5
30B
330
309
100
AcDbEntity
  8
001
 62
   200
370
    50
100
AcDbVertex
100
AcDb2dVertex
 10
241.405565
 20
155.186674
 30
0.0
  0
VERTEX
  5
30C
330
309
100
AcDbEntity
  8
001
 62
   200
370
    50
100
AcDbVertex
100
AcDb2dVertex
 10
241.4583
 20
155.931257
 30
0.0
  0
VERTEX
  5
30D
330
309
100
AcDbEntity
  8
001
 62
   200
370
    50
100
AcDbVertex
100
AcDb2dVertex
 10
241.491457
 20
157.020936
 30
0.0
  0
VERTEX
  5
30E
330
309
100
AcDbEntity
  8
001
 62
   200
370
    50
100
AcDbVertex
100
AcDb2dVertex
 10
241.463118
 20
158.170876
 30
0.0
  0
VERTEX
  5
30F
330
309
100
AcDbEntity
  8
001
 62
   200
370
    50
100
AcDbVertex
100
AcDb2dVertex
 10
241.413198
 20
158.95696
 30
0.0
  0
SEQEND
  5
30A
330
309
100
AcDbEntity
  8
001
370
    50
  0
LINE
  5
310
330
1F
100
AcDbEntity
  8
001
 62
   200
370
    50
100
AcDbLine
 10
236.766225
 20
158.76622
 30
0.0
 11
241.405565
 21
155.186674
 31
0.0
  0
LINE
  5
311
330
1F
100
AcDbEntity
  8
001
 62
   200
370
    50
100
AcDbLine
 10
237.683616
 20
168.177559
 30
0.0
 11
239.637504
 21
167.585342
 31
0.0
  0
LINE
  5
312
330
1F
100
AcDbEntity
  8
001
 62
   200
370
    50
100
AcDbLine
 10
239.266225
 20
168.848953
 30
0.0
 11
237.683616
 21
168.177559
 31
0.0
  0
LINE
  5
313
330
1F
100
AcDbEntity
  8
001
 62
   200
370
    50
100
AcDbLine
 10
239.266225
 20
170.333801
 30
0.0
 11
239.266225
 21
168.848953
 31
0.0
  0
LINE
  5
314
330
1F
100
AcDbEntity
  8
001
 62
   200
370
    50
100
AcDbLine
 10
254.266225
 20
153.018928
 30
0.0
 11
254.266225
 21
169.909535
 31
0.0
  0
LINE
  5
315
330
1F
100
AcDbEntity
  8
001
 62
   200
370
    50
100
AcDbLine
 10
247.726712
 20
165.542697
 30
0.0
 11
248.472336
 21
165.221577
 31
0.0
  0
POLYLINE
  5
316
330
1F
100
AcDbEntity
  8
001
 62
   200
370
    50
100
AcDb2dPolyline
 66
     1
 10
0.0
 20
0.0
 30
0.0
  0
VERTEX
  5
318
330
316
100
AcDbEntity
  8
001
 62
   200
370
    50
100
AcDbVertex
100
AcDb2dVertex
 10
241.410649
 20
151.018298
 30
0.0
  0
VERTEX
  5
319
330
316
100
AcDbEntity
  8
001
 62
   200
370
    50
100
AcDbVertex
100
AcDb2dVertex
 10
240.374306
 20
151.343051
 30
0.0
  0
VERTEX
  5
31A
330
316
100
AcDbEntity
  8
001
 62
   200
370
    50
100
AcDbVertex
100
AcDb2dVertex
 10
239.339274
 20
151.671939
 30
0.0
  0
VERTEX
  5
31B
330
316
100
AcDbEntity
  8
001
 62
   200
370
    50
100
AcDbVertex
100
AcDb2dVertex
 10
238.3326
 20
152.00005
 30
0.0
  0
VERTEX
  5
31C
330
316
100
AcDbEntity
  8
001
 62
   200
370
    50
100
AcDbVertex
100
AcDb2dVertex
 10
237.3289
 20
152.337124
 30
0.0
  0
VERTEX
  5
31D
330
316
100
AcDbEntity
  8
001
 62
   200
370
    50
100
AcDbVertex
100
AcDb2dVertex
 10
237.047495
 20
152.433517
 30
0.0
  0
VERTEX
  5
31E
330
316
100
AcDbEntity
  8
001
 62
   200
370
    50
100
AcDbVertex
100
AcDb2dVertex
 10
236.766225
 20
152.530307
 30
0.0
  0
SEQEND
  5
317
330
316
100
AcDbEntity
  8
001
370
    50
  0
LINE
  5
31F
330
1F
100
AcDbEntity
  8
001
 62
   200
370
    50
100
AcDbLine
 10
236.766225
 20
152.530307
 30
0.0
 11
236.766225
 21
161.043923
 31
0.0
  0
LINE
  5
320
330
1F
100
AcDbEntity
  8
001
 62
   200
370
    50
100
AcDbLine
 10
236.766225
 20
167.597818
 30
0.0
 11
237.683616
 21
168.177559
 31
0.0
  0
POLYLINE
  5
321
330
1F
100
AcDbEntity
  8
001
 62
   200
370
    50
100
AcDb2dPolyline
 66
     1
 10
0.0
 20
0.0
 30
0.0
  0
VERTEX
  5
323
330
321
100
AcDbEntity
  8
001
 62
   200
370
    50
100
AcDbVertex
100
AcDb2dVertex
 10
239.637504
 20
167.585342
 30
0.0
  0
VERTEX
  5
324
330
321
100
AcDbEntity
  8
001
 62
   200
370
    50
100
AcDbVertex
100
AcDb2dVertex
 10
239.591756
 20
167.537623
 30
0.0
  0
VERTEX
  5
325
330
321
100
AcDbEntity
  8
001
 62
   200
370
    50
100
AcDbVertex
100
AcDb2dVertex
 10
239.530275
 20
167.469907
 30
0.0
  0
VERTEX
  5
326
330
321
100
AcDbEntity
  8
001
 62
   200
370
    50
100
AcDbVertex
100
AcDb2dVertex
 10
239.4413
 20
167.358225
 30
0.0
  0
VERTEX
  5
327
330
321
100
AcDbEntity
  8
001
 62
   200
370
    50
100
AcDbVertex
100
AcDb2dVertex
 10
239.372693
 20
167.2356
 30
0.0
  0
VERTEX
  5
328
330
321
100
AcDbEntity
  8
001
 62
   200
370
    50
100
AcDbVertex
100
AcDb2dVertex
 10
239.326228
 20
167.124066
 30
0.0
  0
VERTEX
  5
329
330
321
100
AcDbEntity
  8
001
 62
   200
370
    50
100
AcDbVertex
100
AcDb2dVertex
 10
239.297761
 20
167.040173
 30
0.0
  0
SEQEND
  5
322
330
321
100
AcDbEntity
  8
001
370
    50
  0
POLYLINE
  5
32A
330
1F
100
AcDbEntity
  8
001
 62
   200
370
    50
100
AcDb2dPolyline
 66
     1
 10
0.0
 20
0.0
 30
0.0
  0
VERTEX
  5
32C
330
32A
100
AcDbEntity
  8
001
 62
   200
370
    50
100
AcDbVertex
100
AcDb2dVertex
 10
243.983379
 20
167.541649
 30
0.0
  0
VERTEX
  5
32D
330
32A
100
AcDbEntity
  8
001
 62
   200
370
    50
100
AcDbVertex
100
AcDb2dVertex
 10
243.963973
 20
167.556686
 30
0.0
  0
VERTEX
  5
32E
330
32A
100
AcDbEntity
  8
001
 62
   200
370
    50
100
AcDbVertex
100
AcDb2dVertex
 10
243.935255
 20
167.578155
 30
0.0
  0
VERTEX
  5
32F
330
32A
100
AcDbEntity
  8
001
 62
   200
370
    50
100
AcDbVertex
100
AcDb2dVertex
 10
243.489716
 20
167.815978
 30
0.0
  0
VERTEX
  5
330
330
32A
100
AcDbEntity
  8
001
 62
   200
370
    50
100
AcDbVertex
100
AcDb2dVertex
 10
243.156334
 20
167.925096
 30
0.0
  0
SEQEND
  5
32B
330
32A
100
AcDbEntity
  8
001
370
    50
  0
POLYLINE
  5
331
330
1F
100
AcDbEntity
  8
001
 62
   200
370
    50
100
AcDb2dPolyline
 66
     1
 10
0.0
 20
0.0
 30
0.0
  0
VERTEX
  5
333
330
331
100
AcDbEntity
  8
001
 62
   200
370
    50
100
AcDbVertex
100
AcDb2dVertex
 10
240.856257
 20
168.018586
 30
0.0
  0
VERTEX
  5
334
330
331
100
AcDbEntity
  8
001
 62
   200
370
    50
100
AcDbVertex
100
AcDb2dVertex
 10
240.710765
 20
167.991646
 30
0.0
  0
VERTEX
  5
335
330
331
100
AcDbEntity
  8
001
 62
   200
370
    50
100
AcDbVertex
100
AcDb2dVertex
 10
240.500081
 20
167.943807
 30
0.0
  0
VERTEX
  5
336
330
331
100
AcDbEntity
  8
001
 62
   200
370
    50
100
AcDbVertex
100
AcDb2dVertex
 10
239.975865
 20
167.760768
 30
0.0
  0
VERTEX
  5
337
330
331
100
AcDbEntity
  8
001
 62
   200
370
    50
100
AcDbVertex
100
AcDb2dVertex
 10
239.637504
 20
167.585342
 30
0.0
  0
SEQEND
  5
332
330
331
100
AcDbEntity
  8
001
370
    50
  0
POLYLINE
  5
338
330
1F
100
AcDbEntity
  8
001
 62
    40
370
    50
100
AcDb2dPolyline
 66
     1
 10
0.0
 20
0.0
 30
0.0
  0
VERTEX
  5
33A
330
338
100
AcDbEntity
  8
001
 62
    40
370
    50
100
AcDbVertex
100
AcDb2dVertex
 10
242.45422
 20
159.022959
 30
0.0
  0
VERTEX
  5
33B
330
338
100
AcDbEntity
  8
001
 62
    40
370
    50
100
AcDbVertex
100
AcDb2dVertex
 10
242.475405
 20
159.024946
 30
0.0
  0
VERTEX
  5
33C
330
338
100
AcDbEntity
  8
001
 62
    40
370
    50
100
AcDbVertex
100
AcDb2dVertex
 10
242.505458
 20
159.028152
 30
0.0
  0
VERTEX
  5
33D
330
338
100
AcDbEntity
  8
001
 62
    40
370
    50
100
AcDbVertex
100
AcDb2dVertex
 10
242.579235
 20
159.038692
 30
0.0
  0
VERTEX
  5
33E
330
338
100
AcDbEntity
  8
001
 62
    40
370
    50
100
AcDbVertex
100
AcDb2dVertex
 10
242.642624
 20
159.051109
 30
0.0
  0
VERTEX
  5
33F
330
338
100
AcDbEntity
  8
001
 62
    40
370
    50
100
AcDbVertex
100
AcDb2dVertex
 10
242.763215
 20
159.081743
 30
0.0
  0
VERTEX
  5
340
330
338
100
AcDbEntity
  8
001
 62
    40
370
    50
100
AcDbVertex
100
AcDb2dVertex
 10
242.89579
 20
159.133102
 30
0.0
  0
VERTEX
  5
341
330
338
100
AcDbEntity
  8
001
 62
    40
370
    50
100
AcDbVertex
100
AcDb2dVertex
 10
242.967541
 20
159.169437
 30
0.0
  0
VERTEX
  5
342
330
338
100
AcDbEntity
  8
001
 62
    40
370
    50
100
AcDbVertex
100
AcDb2dVertex
 10
243.017109
 20
159.197695
 30
0.0
  0
SEQEND
  5
339
330
338
100
AcDbEntity
  8
001
370
    50
  0
POLYLINE
  5
343
330
1F
100
AcDbEntity
  8
001
 62
    40
370
    50
100
AcDb2dPolyline
 66
     1
 10
0.0
 20
0.0
 30
0.0
  0
VERTEX
  5
345
330
343
100
AcDbEntity
  8
001
 62
    40
370
    50
100
AcDbVertex
100
AcDb2dVertex
 10
242.138383
 20
161.676745
 30
0.0
  0
VERTEX
  5
346
330
343
100
AcDbEntity
  8
001
 62
    40
370
    50
100
AcDbVertex
100
AcDb2dVertex
 10
242.159568
 20
161.678732
 30
0.0
  0
VERTEX
  5
347
330
343
100
AcDbEntity
  8
001
 62
    40
370
    50
100
AcDbVertex
100
AcDb2dVertex
 10
242.189621
 20
161.681937
 30
0.0
  0
VERTEX
  5
348
330
343
100
AcDbEntity
  8
001
 62
    40
370
    50
100
AcDbVertex
100
AcDb2dVertex
 10
242.263398
 20
161.692477
 30
0.0
  0
VERTEX
  5
349
330
343
100
AcDbEntity
  8
001
 62
    40
370
    50
100
AcDbVertex
100
AcDb2dVertex
 10
242.326788
 20
161.704895
 30
0.0
  0
VERTEX
  5
34A
330
343
100
AcDbEntity
  8
001
 62
    40
370
    50
100
AcDbVertex
100
AcDb2dVertex
 10
242.447378
 20
161.735529
 30
0.0
  0
VERTEX
  5
34B
330
343
100
AcDbEntity
  8
001
 62
    40
370
    50
100
AcDbVertex
100
AcDb2dVertex
 10
242.579953
 20
161.786888
 30
0.0
  0
VERTEX
  5
34C
330
343
100
AcDbEntity
  8
001
 62
    40
370
    50
100
AcDbVertex
100
AcDb2dVertex
 10
242.651704
 20
161.823222
 30
0.0
  0
VERTEX
  5
34D
330
343
100
AcDbEntity
  8
001
 62
    40
370
    50
100
AcDbVertex
100
AcDb2dVertex
 10
242.701272
 20
161.851481
 30
0.0
  0
SEQEND
  5
344
330
343
100
AcDbEntity
  8
001
370
    50
  0
POLYLINE
  5
34E
330
1F
100
AcDbEntity
  8
001
 62
    40
370
    50
100
AcDb2dPolyline
 66
     1
 10
0.0
 20
0.0
 30
0.0
  0
VERTEX
  5
350
330
34E
100
AcDbEntity
  8
001
 62
    40
370
    50
100
AcDbVertex
100
AcDb2dVertex
 10
247.714497
 20
165.631295
 30
0.0
  0
VERTEX
  5
351
330
34E
100
AcDbEntity
  8
001
 62
    40
370
    50
100
AcDbVertex
100
AcDb2dVertex
 10
247.71442
 20
165.636984
 30
0.0
  0
VERTEX
  5
352
330
34E
100
AcDbEntity
  8
001
 62
    40
370
    50
100
AcDbVertex
100
AcDb2dVertex
 10
247.714084
 20
165.64529
 30
0.0
  0
VERTEX
  5
353
330
34E
100
AcDbEntity
  8
001
 62
    40
370
    50
100
AcDbVertex
100
AcDb2dVertex
 10
247.713439
 20
165.653557
 30
0.0
  0
VERTEX
  5
354
330
34E
100
AcDbEntity
  8
001
 62
    40
370
    50
100
AcDbVertex
100
AcDb2dVertex
 10
247.712846
 20
165.659201
 30
0.0
  0
SEQEND
  5
34F
330
34E
100
AcDbEntity
  8
001
370
    50
  0
LINE
  5
355
330
1F
100
AcDbEntity
  8
001
 62
    40
370
    50
100
AcDbLine
 10
247.714497
 20
165.195583
 30
0.0
 11
247.714497
 21
165.631295
 31
0.0
  0
POLYLINE
  5
356
330
1F
100
AcDbEntity
  8
001
 62
    40
370
    50
100
AcDb2dPolyline
 66
     1
 10
0.0
 20
0.0
 30
0.0
  0
VERTEX
  5
358
330
356
100
AcDbEntity
  8
001
 62
    40
370
    50
100
AcDbVertex
100
AcDb2dVertex
 10
247.481341
 20
164.867972
 30
0.0
  0
VERTEX
  5
359
330
356
100
AcDbEntity
  8
001
 62
    40
370
    50
100
AcDbVertex
100
AcDb2dVertex
 10
247.549429
 20
164.917864
 30
0.0
  0
VERTEX
  5
35A
330
356
100
AcDbEntity
  8
001
 62
    40
370
    50
100
AcDbVertex
100
AcDb2dVertex
 10
247.632036
 20
164.995564
 30
0.0
  0
VERTEX
  5
35B
330
356
100
AcDbEntity
  8
001
 62
    40
370
    50
100
AcDbVertex
100
AcDb2dVertex
 10
247.660398
 20
165.033007
 30
0.0
  0
VERTEX
  5
35C
330
356
100
AcDbEntity
  8
001
 62
    40
370
    50
100
AcDbVertex
100
AcDb2dVertex
 10
247.682463
 20
165.070542
 30
0.0
  0
VERTEX
  5
35D
330
356
100
AcDbEntity
  8
001
 62
    40
370
    50
100
AcDbVertex
100
AcDb2dVertex
 10
247.698507
 20
165.105697
 30
0.0
  0
VERTEX
  5
35E
330
356
100
AcDbEntity
  8
001
 62
    40
370
    50
100
AcDbVertex
100
AcDb2dVertex
 10
247.709675
 20
165.147295
 30
0.0
  0
VERTEX
  5
35F
330
356
100
AcDbEntity
  8
001
 62
    40
370
    50
100
AcDbVertex
100
AcDb2dVertex
 10
247.713291
 20
165.175387
 30
0.0
  0
VERTEX
  5
360
330
356
100
AcDbEntity
  8
001
 62
    40
370
    50
100
AcDbVertex
100
AcDb2dVertex
 10
247.714497
 20
165.195583
 30
0.0
  0
SEQEND
  5
357
330
356
100
AcDbEntity
  8
001
370
    50
  0
LINE
  5
361
330
1F
100
AcDbEntity
  8
001
 62
    40
370
    50
100
AcDbLine
 10
242.701272
 20
161.851481
 30
0.0
 11
247.481341
 21
164.867972
 31
0.0
  0
LINE
  5
362
330
1F
100
AcDbEntity
  8
001
 62
    40
370
    50
100
AcDbLine
 10
241.342339
 20
161.610107
 30
0.0
 11
242.138383
 21
161.676745
 31
0.0
  0
POLYLINE
  5
363
330
1F
100
AcDbEntity
  8
001
 62
    40
370
    50
100
AcDb2dPolyline
 66
     1
 10
0.0
 20
0.0
 30
0.0
  0
VERTEX
  5
365
330
363
100
AcDbEntity
  8
001
 62
    40
370
    50
100
AcDbVertex
100
AcDb2dVertex
 10
240.779451
 20
161.690605
 30
0.0
  0
VERTEX
  5
366
330
363
100
AcDbEntity
  8
001
 62
    40
370
    50
100
AcDbVertex
100
AcDb2dVertex
 10
240.867518
 20
161.65917
 30
0.0
  0
VERTEX
  5
367
330
363
100
AcDbEntity
  8
001
 62
    40
370
    50
100
AcDbVertex
100
AcDb2dVertex
 10
240.989515
 20
161.625707
 30
0.0
  0
VERTEX
  5
368
330
363
100
AcDbEntity
  8
001
 62
    40
370
    50
100
AcDbVertex
100
AcDb2dVertex
 10
241.118647
 20
161.60578
 30
0.0
  0
VERTEX
  5
369
330
363
100
AcDbEntity
  8
001
 62
    40
370
    50
100
AcDbVertex
100
AcDb2dVertex
 10
241.254853
 20
161.605423
 30
0.0
  0
VERTEX
  5
36A
330
363
100
AcDbEntity
  8
001
 62
    40
370
    50
100
AcDbVertex
100
AcDb2dVertex
 10
241.306032
 20
161.607823
 30
0.0
  0
VERTEX
  5
36B
330
363
100
AcDbEntity
  8
001
 62
    40
370
    50
100
AcDbVertex
100
AcDb2dVertex
 10
241.342339
 20
161.610107
 30
0.0
  0
SEQEND
  5
364
330
363
100
AcDbEntity
  8
001
370
    50
  0
LINE
  5
36C
330
1F
100
AcDbEntity
  8
001
 62
    40
370
    50
100
AcDbLine
 10
235.999381
 20
163.906812
 30
0.0
 11
240.779451
 21
161.690605
 31
0.0
  0
POLYLINE
  5
36D
330
1F
100
AcDbEntity
  8
001
 62
    40
370
    50
100
AcDb2dPolyline
 66
     1
 10
0.0
 20
0.0
 30
0.0
  0
VERTEX
  5
36F
330
36D
100
AcDbEntity
  8
001
 62
    40
370
    50
100
AcDbVertex
100
AcDb2dVertex
 10
235.766225
 20
164.195388
 30
0.0
  0
VERTEX
  5
370
330
36D
100
AcDbEntity
  8
001
 62
    40
370
    50
100
AcDbVertex
100
AcDb2dVertex
 10
235.766303
 20
164.189699
 30
0.0
  0
VERTEX
  5
371
330
36D
100
AcDbEntity
  8
001
 62
    40
370
    50
100
AcDbVertex
100
AcDb2dVertex
 10
235.766638
 20
164.181393
 30
0.0
  0
VERTEX
  5
372
330
36D
100
AcDbEntity
  8
001
 62
    40
370
    50
100
AcDbVertex
100
AcDb2dVertex
 10
235.767283
 20
164.173126
 30
0.0
  0
VERTEX
  5
373
330
36D
100
AcDbEntity
  8
001
 62
    40
370
    50
100
AcDbVertex
100
AcDb2dVertex
 10
235.767876
 20
164.167482
 30
0.0
  0
SEQEND
  5
36E
330
36D
100
AcDbEntity
  8
001
370
    50
  0
LINE
  5
374
330
1F
100
AcDbEntity
  8
001
 62
    40
370
    50
100
AcDbLine
 10
235.766225
 20
164.6311
 30
0.0
 11
235.766225
 21
164.195388
 31
0.0
  0
POLYLINE
  5
375
330
1F
100
AcDbEntity
  8
001
 62
    40
370
    50
100
AcDb2dPolyline
 66
     1
 10
0.0
 20
0.0
 30
0.0
  0
VERTEX
  5
377
330
375
100
AcDbEntity
  8
001
 62
    40
370
    50
100
AcDbVertex
100
AcDb2dVertex
 10
235.999381
 20
164.958711
 30
0.0
  0
VERTEX
  5
378
330
375
100
AcDbEntity
  8
001
 62
    40
370
    50
100
AcDbVertex
100
AcDb2dVertex
 10
235.931294
 20
164.908819
 30
0.0
  0
VERTEX
  5
379
330
375
100
AcDbEntity
  8
001
 62
    40
370
    50
100
AcDbVertex
100
AcDb2dVertex
 10
235.848686
 20
164.831119
 30
0.0
  0
VERTEX
  5
37A
330
375
100
AcDbEntity
  8
001
 62
    40
370
    50
100
AcDbVertex
100
AcDb2dVertex
 10
235.820324
 20
164.793676
 30
0.0
  0
VERTEX
  5
37B
330
375
100
AcDbEntity
  8
001
 62
    40
370
    50
100
AcDbVertex
100
AcDb2dVertex
 10
235.79826
 20
164.756141
 30
0.0
  0
VERTEX
  5
37C
330
375
100
AcDbEntity
  8
001
 62
    40
370
    50
100
AcDbVertex
100
AcDb2dVertex
 10
235.782215
 20
164.720986
 30
0.0
  0
VERTEX
  5
37D
330
375
100
AcDbEntity
  8
001
 62
    40
370
    50
100
AcDbVertex
100
AcDb2dVertex
 10
235.771047
 20
164.679388
 30
0.0
  0
VERTEX
  5
37E
330
375
100
AcDbEntity
  8
001
 62
    40
370
    50
100
AcDbVertex
100
AcDb2dVertex
 10
235.767431
 20
164.651296
 30
0.0
  0
VERTEX
  5
37F
330
375
100
AcDbEntity
  8
001
 62
    40
370
    50
100
AcDbVertex
100
AcDb2dVertex
 10
235.766225
 20
164.6311
 30
0.0
  0
SEQEND
  5
376
330
375
100
AcDbEntity
  8
001
370
    50
  0
LINE
  5
380
330
1F
100
AcDbEntity
  8
001
 62
    40
370
    50
100
AcDbLine
 10
240.779451
 20
167.975202
 30
0.0
 11
235.999381
 21
164.958711
 31
0.0
  0
POLYLINE
  5
381
330
1F
100
AcDbEntity
  8
001
 62
    40
370
    50
100
AcDb2dPolyline
 66
     1
 10
0.0
 20
0.0
 30
0.0
  0
VERTEX
  5
383
330
381
100
AcDbEntity
  8
001
 62
    40
370
    50
100
AcDbVertex
100
AcDb2dVertex
 10
241.342339
 20
168.149938
 30
0.0
  0
VERTEX
  5
384
330
381
100
AcDbEntity
  8
001
 62
    40
370
    50
100
AcDbVertex
100
AcDb2dVertex
 10
241.321154
 20
168.147951
 30
0.0
  0
VERTEX
  5
385
330
381
100
AcDbEntity
  8
001
 62
    40
370
    50
100
AcDbVertex
100
AcDb2dVertex
 10
241.291101
 20
168.144746
 30
0.0
  0
VERTEX
  5
386
330
381
100
AcDbEntity
  8
001
 62
    40
370
    50
100
AcDbVertex
100
AcDb2dVertex
 10
241.217324
 20
168.134206
 30
0.0
  0
VERTEX
  5
387
330
381
100
AcDbEntity
  8
001
 62
    40
370
    50
100
AcDbVertex
100
AcDb2dVertex
 10
241.153935
 20
168.121788
 30
0.0
  0
VERTEX
  5
388
330
381
100
AcDbEntity
  8
001
 62
    40
370
    50
100
AcDbVertex
100
AcDb2dVertex
 10
241.033344
 20
168.091154
 30
0.0
  0
VERTEX
  5
389
330
381
100
AcDbEntity
  8
001
 62
    40
370
    50
100
AcDbVertex
100
AcDb2dVertex
 10
240.900769
 20
168.039795
 30
0.0
  0
VERTEX
  5
38A
330
381
100
AcDbEntity
  8
001
 62
    40
370
    50
100
AcDbVertex
100
AcDb2dVertex
 10
240.829018
 20
168.003461
 30
0.0
  0
VERTEX
  5
38B
330
381
100
AcDbEntity
  8
001
 62
    40
370
    50
100
AcDbVertex
100
AcDb2dVertex
 10
240.779451
 20
167.975202
 30
0.0
  0
SEQEND
  5
382
330
381
100
AcDbEntity
  8
001
370
    50
  0
LINE
  5
38C
330
1F
100
AcDbEntity
  8
001
 62
    40
370
    50
100
AcDbLine
 10
242.138383
 20
168.216576
 30
0.0
 11
241.342339
 21
168.149938
 31
0.0
  0
POLYLINE
  5
38D
330
1F
100
AcDbEntity
  8
001
 62
    40
370
    50
100
AcDb2dPolyline
 66
     1
 10
0.0
 20
0.0
 30
0.0
  0
VERTEX
  5
38F
330
38D
100
AcDbEntity
  8
001
 62
    40
370
    50
100
AcDbVertex
100
AcDb2dVertex
 10
242.701272
 20
168.136078
 30
0.0
  0
VERTEX
  5
390
330
38D
100
AcDbEntity
  8
001
 62
    40
370
    50
100
AcDbVertex
100
AcDb2dVertex
 10
242.613205
 20
168.167513
 30
0.0
  0
VERTEX
  5
391
330
38D
100
AcDbEntity
  8
001
 62
    40
370
    50
100
AcDbVertex
100
AcDb2dVertex
 10
242.491207
 20
168.200976
 30
0.0
  0
VERTEX
  5
392
330
38D
100
AcDbEntity
  8
001
 62
    40
370
    50
100
AcDbVertex
100
AcDb2dVertex
 10
242.362075
 20
168.220903
 30
0.0
  0
VERTEX
  5
393
330
38D
100
AcDbEntity
  8
001
 62
    40
370
    50
100
AcDbVertex
100
AcDb2dVertex
 10
242.225869
 20
168.22126
 30
0.0
  0
VERTEX
  5
394
330
38D
100
AcDbEntity
  8
001
 62
    40
370
    50
100
AcDbVertex
100
AcDb2dVertex
 10
242.17469
 20
168.21886
 30
0.0
  0
VERTEX
  5
395
330
38D
100
AcDbEntity
  8
001
 62
    40
370
    50
100
AcDbVertex
100
AcDb2dVertex
 10
242.138383
 20
168.216576
 30
0.0
  0
SEQEND
  5
38E
330
38D
100
AcDbEntity
  8
001
370
    50
  0
LINE
  5
396
330
1F
100
AcDbEntity
  8
001
 62
    40
370
    50
100
AcDbLine
 10
247.481341
 20
165.919871
 30
0.0
 11
242.701272
 21
168.136078
 31
0.0
  0
POLYLINE
  5
397
330
1F
100
AcDbEntity
  8
001
 62
    40
370
    50
100
AcDb2dPolyline
 66
     1
 10
0.0
 20
0.0
 30
0.0
  0
VERTEX
  5
399
330
397
100
AcDbEntity
  8
001
 62
    40
370
    50
100
AcDbVertex
100
AcDb2dVertex
 10
243.635942
 20
165.072021
 30
0.0
  0
VERTEX
  5
39A
330
397
100
AcDbEntity
  8
001
 62
    40
370
    50
100
AcDbVertex
100
AcDb2dVertex
 10
243.635758
 20
165.085569
 30
0.0
  0
VERTEX
  5
39B
330
397
100
AcDbEntity
  8
001
 62
    40
370
    50
100
AcDbVertex
100
AcDb2dVertex
 10
243.634959
 20
165.105347
 30
0.0
  0
VERTEX
  5
39C
330
397
100
AcDbEntity
  8
001
 62
    40
370
    50
100
AcDbVertex
100
AcDb2dVertex
 10
243.633424
 20
165.125033
 30
0.0
  0
VERTEX
  5
39D
330
397
100
AcDbEntity
  8
001
 62
    40
370
    50
100
AcDbVertex
100
AcDb2dVertex
 10
243.632011
 20
165.138474
 30
0.0
  0
SEQEND
  5
398
330
397
100
AcDbEntity
  8
001
370
    50
  0
LINE
  5
39E
330
1F
100
AcDbEntity
  8
001
 62
    40
370
    50
100
AcDbLine
 10
241.658176
 20
158.956322
 30
0.0
 11
242.45422
 21
159.022959
 31
0.0
  0
POLYLINE
  5
39F
330
1F
100
AcDbEntity
  8
001
 62
    40
370
    50
100
AcDb2dPolyline
 66
     1
 10
0.0
 20
0.0
 30
0.0
  0
VERTEX
  5
3A1
330
39F
100
AcDbEntity
  8
001
 62
    40
370
    50
100
AcDbVertex
100
AcDb2dVertex
 10
241.095287
 20
159.036819
 30
0.0
  0
VERTEX
  5
3A2
330
39F
100
AcDbEntity
  8
001
 62
    40
370
    50
100
AcDbVertex
100
AcDb2dVertex
 10
241.183354
 20
159.005384
 30
0.0
  0
VERTEX
  5
3A3
330
39F
100
AcDbEntity
  8
001
 62
    40
370
    50
100
AcDbVertex
100
AcDb2dVertex
 10
241.305352
 20
158.971921
 30
0.0
  0
VERTEX
  5
3A4
330
39F
100
AcDbEntity
  8
001
 62
    40
370
    50
100
AcDbVertex
100
AcDb2dVertex
 10
241.434484
 20
158.951994
 30
0.0
  0
VERTEX
  5
3A5
330
39F
100
AcDbEntity
  8
001
 62
    40
370
    50
100
AcDbVertex
100
AcDb2dVertex
 10
241.57069
 20
158.951638
 30
0.0
  0
VERTEX
  5
3A6
330
39F
100
AcDbEntity
  8
001
 62
    40
370
    50
100
AcDbVertex
100
AcDb2dVertex
 10
241.621869
 20
158.954037
 30
0.0
  0
VERTEX
  5
3A7
330
39F
100
AcDbEntity
  8
001
 62
    40
370
    50
100
AcDbVertex
100
AcDb2dVertex
 10
241.658176
 20
158.956322
 30
0.0
  0
SEQEND
  5
3A0
330
39F
100
AcDbEntity
  8
001
370
    50
  0
LINE
  5
3A8
330
1F
100
AcDbEntity
  8
001
 62
    40
370
    50
100
AcDbLine
 10
236.315218
 20
161.253026
 30
0.0
 11
241.095287
 21
159.036819
 31
0.0
  0
POLYLINE
  5
3A9
330
1F
100
AcDbEntity
  8
001
 62
    40
370
    50
100
AcDb2dPolyline
 66
     1
 10
0.0
 20
0.0
 30
0.0
  0
VERTEX
  5
3AB
330
3A9
100
AcDbEntity
  8
001
 62
    40
370
    50
100
AcDbVertex
100
AcDb2dVertex
 10
239.848711
 20
164.688209
 30
0.0
  0
VERTEX
  5
3AC
330
3A9
100
AcDbEntity
  8
001
 62
    40
370
    50
100
AcDbVertex
100
AcDb2dVertex
 10
239.865099
 20
164.613479
 30
0.0
  0
VERTEX
  5
3AD
330
3A9
100
AcDbEntity
  8
001
 62
    40
370
    50
100
AcDbVertex
100
AcDb2dVertex
 10
239.898636
 20
164.51361
 30
0.0
  0
VERTEX
  5
3AE
330
3A9
100
AcDbEntity
  8
001
 62
    40
370
    50
100
AcDbVertex
100
AcDb2dVertex
 10
239.946434
 20
164.424376
 30
0.0
  0
VERTEX
  5
3AF
330
3A9
100
AcDbEntity
  8
001
 62
    40
370
    50
100
AcDbVertex
100
AcDb2dVertex
 10
240.004521
 20
164.351157
 30
0.0
  0
VERTEX
  5
3B0
330
3A9
100
AcDbEntity
  8
001
 62
    40
370
    50
100
AcDbVertex
100
AcDb2dVertex
 10
240.079614
 20
164.275599
 30
0.0
  0
VERTEX
  5
3B1
330
3A9
100
AcDbEntity
  8
001
 62
    40
370
    50
100
AcDbVertex
100
AcDb2dVertex
 10
240.163149
 20
164.205785
 30
0.0
  0
VERTEX
  5
3B2
330
3A9
100
AcDbEntity
  8
001
 62
    40
370
    50
100
AcDbVertex
100
AcDb2dVertex
 10
240.513055
 20
164.016406
 30
0.0
  0
VERTEX
  5
3B3
330
3A9
100
AcDbEntity
  8
001
 62
    40
370
    50
100
AcDbVertex
100
AcDb2dVertex
 10
240.900199
 20
163.91295
 30
0.0
  0
VERTEX
  5
3B4
330
3A9
100
AcDbEntity
  8
001
 62
    40
370
    50
100
AcDbVertex
100
AcDb2dVertex
 10
241.215702
 20
163.872765
 30
0.0
  0
VERTEX
  5
3B5
330
3A9
100
AcDbEntity
  8
001
 62
    40
370
    50
100
AcDbVertex
100
AcDb2dVertex
 10
241.532036
 20
163.86465
 30
0.0
  0
VERTEX
  5
3B6
330
3A9
100
AcDbEntity
  8
001
 62
    40
370
    50
100
AcDbVertex
100
AcDb2dVertex
 10
241.697417
 20
163.872455
 30
0.0
  0
VERTEX
  5
3B7
330
3A9
100
AcDbEntity
  8
001
 62
    40
370
    50
100
AcDbVertex
100
AcDb2dVertex
 10
241.862371
 20
163.888169
 30
0.0
  0
VERTEX
  5
3B8
330
3A9
100
AcDbEntity
  8
001
 62
    40
370
    50
100
AcDbVertex
100
AcDb2dVertex
 10
242.026402
 20
163.9116
 30
0.0
  0
VERTEX
  5
3B9
330
3A9
100
AcDbEntity
  8
001
 62
    40
370
    50
100
AcDbVertex
100
AcDb2dVertex
 10
242.188999
 20
163.942838
 30
0.0
  0
VERTEX
  5
3BA
330
3A9
100
AcDbEntity
  8
001
 62
    40
370
    50
100
AcDbVertex
100
AcDb2dVertex
 10
242.494634
 20
164.025037
 30
0.0
  0
VERTEX
  5
3BB
330
3A9
100
AcDbEntity
  8
001
 62
    40
370
    50
100
AcDbVertex
100
AcDb2dVertex
 10
242.79185
 20
164.138082
 30
0.0
  0
VERTEX
  5
3BC
330
3A9
100
AcDbEntity
  8
001
 62
    40
370
    50
100
AcDbVertex
100
AcDb2dVertex
 10
243.143654
 20
164.329147
 30
0.0
  0
VERTEX
  5
3BD
330
3A9
100
AcDbEntity
  8
001
 62
    40
370
    50
100
AcDbVertex
100
AcDb2dVertex
 10
243.439583
 20
164.595726
 30
0.0
  0
VERTEX
  5
3BE
330
3A9
100
AcDbEntity
  8
001
 62
    40
370
    50
100
AcDbVertex
100
AcDb2dVertex
 10
243.504586
 20
164.683474
 30
0.0
  0
VERTEX
  5
3BF
330
3A9
100
AcDbEntity
  8
001
 62
    40
370
    50
100
AcDbVertex
100
AcDb2dVertex
 10
243.559661
 20
164.774267
 30
0.0
  0
VERTEX
  5
3C0
330
3A9
100
AcDbEntity
  8
001
 62
    40
370
    50
100
AcDbVertex
100
AcDb2dVertex
 10
243.598406
 20
164.85828
 30
0.0
  0
VERTEX
  5
3C1
330
3A9
100
AcDbEntity
  8
001
 62
    40
370
    50
100
AcDbVertex
100
AcDb2dVertex
 10
243.62446
 20
164.957034
 30
0.0
  0
VERTEX
  5
3C2
330
3A9
100
AcDbEntity
  8
001
 62
    40
370
    50
100
AcDbVertex
100
AcDb2dVertex
 10
243.633021
 20
165.0239
 30
0.0
  0
VERTEX
  5
3C3
330
3A9
100
AcDbEntity
  8
001
 62
    40
370
    50
100
AcDbVertex
100
AcDb2dVertex
 10
243.635942
 20
165.072021
 30
0.0
  0
SEQEND
  5
3AA
330
3A9
100
AcDbEntity
  8
001
370
    50
  0
POLYLINE
  5
3C4
330
1F
100
AcDbEntity
  8
001
 62
    40
370
    50
100
AcDb2dPolyline
 66
     1
 10
0.0
 20
0.0
 30
0.0
  0
VERTEX
  5
3C6
330
3C4
100
AcDbEntity
  8
001
 62
    40
370
    50
100
AcDbVertex
100
AcDb2dVertex
 10
243.632011
 20
165.138474
 30
0.0
  0
VERTEX
  5
3C7
330
3C4
100
AcDbEntity
  8
001
 62
    40
370
    50
100
AcDbVertex
100
AcDb2dVertex
 10
243.615624
 20
165.213204
 30
0.0
  0
VERTEX
  5
3C8
330
3C4
100
AcDbEntity
  8
001
 62
    40
370
    50
100
AcDbVertex
100
AcDb2dVertex
 10
243.582086
 20
165.313073
 30
0.0
  0
VERTEX
  5
3C9
330
3C4
100
AcDbEntity
  8
001
 62
    40
370
    50
100
AcDbVertex
100
AcDb2dVertex
 10
243.534288
 20
165.402307
 30
0.0
  0
VERTEX
  5
3CA
330
3C4
100
AcDbEntity
  8
001
 62
    40
370
    50
100
AcDbVertex
100
AcDb2dVertex
 10
243.476201
 20
165.475526
 30
0.0
  0
VERTEX
  5
3CB
330
3C4
100
AcDbEntity
  8
001
 62
    40
370
    50
100
AcDbVertex
100
AcDb2dVertex
 10
243.401108
 20
165.551084
 30
0.0
  0
VERTEX
  5
3CC
330
3C4
100
AcDbEntity
  8
001
 62
    40
370
    50
100
AcDbVertex
100
AcDb2dVertex
 10
243.317574
 20
165.620898
 30
0.0
  0
VERTEX
  5
3CD
330
3C4
100
AcDbEntity
  8
001
 62
    40
370
    50
100
AcDbVertex
100
AcDb2dVertex
 10
242.967667
 20
165.810278
 30
0.0
  0
VERTEX
  5
3CE
330
3C4
100
AcDbEntity
  8
001
 62
    40
370
    50
100
AcDbVertex
100
AcDb2dVertex
 10
242.580523
 20
165.913733
 30
0.0
  0
VERTEX
  5
3CF
330
3C4
100
AcDbEntity
  8
001
 62
    40
370
    50
100
AcDbVertex
100
AcDb2dVertex
 10
242.265019
 20
165.953917
 30
0.0
  0
VERTEX
  5
3D0
330
3C4
100
AcDbEntity
  8
001
 62
    40
370
    50
100
AcDbVertex
100
AcDb2dVertex
 10
241.948687
 20
165.962033
 30
0.0
  0
VERTEX
  5
3D1
330
3C4
100
AcDbEntity
  8
001
 62
    40
370
    50
100
AcDbVertex
100
AcDb2dVertex
 10
241.783306
 20
165.95423
 30
0.0
  0
VERTEX
  5
3D2
330
3C4
100
AcDbEntity
  8
001
 62
    40
370
    50
100
AcDbVertex
100
AcDb2dVertex
 10
241.618352
 20
165.938514
 30
0.0
  0
VERTEX
  5
3D3
330
3C4
100
AcDbEntity
  8
001
 62
    40
370
    50
100
AcDbVertex
100
AcDb2dVertex
 10
241.454316
 20
165.915076
 30
0.0
  0
VERTEX
  5
3D4
330
3C4
100
AcDbEntity
  8
001
 62
    40
370
    50
100
AcDbVertex
100
AcDb2dVertex
 10
241.291724
 20
165.883845
 30
0.0
  0
VERTEX
  5
3D5
330
3C4
100
AcDbEntity
  8
001
 62
    40
370
    50
100
AcDbVertex
100
AcDb2dVertex
 10
240.986132
 20
165.801712
 30
0.0
  0
VERTEX
  5
3D6
330
3C4
100
AcDbEntity
  8
001
 62
    40
370
    50
100
AcDbVertex
100
AcDb2dVertex
 10
240.688873
 20
165.688601
 30
0.0
  0
VERTEX
  5
3D7
330
3C4
100
AcDbEntity
  8
001
 62
    40
370
    50
100
AcDbVertex
100
AcDb2dVertex
 10
240.336824
 20
165.497171
 30
0.0
  0
VERTEX
  5
3D8
330
3C4
100
AcDbEntity
  8
001
 62
    40
370
    50
100
AcDbVertex
100
AcDb2dVertex
 10
240.041139
 20
165.230957
 30
0.0
  0
VERTEX
  5
3D9
330
3C4
100
AcDbEntity
  8
001
 62
    40
370
    50
100
AcDbVertex
100
AcDb2dVertex
 10
239.976323
 20
165.143488
 30
0.0
  0
VERTEX
  5
3DA
330
3C4
100
AcDbEntity
  8
001
 62
    40
370
    50
100
AcDbVertex
100
AcDb2dVertex
 10
239.921062
 20
165.052416
 30
0.0
  0
VERTEX
  5
3DB
330
3C4
100
AcDbEntity
  8
001
 62
    40
370
    50
100
AcDbVertex
100
AcDb2dVertex
 10
239.881782
 20
164.967609
 30
0.0
  0
VERTEX
  5
3DC
330
3C4
100
AcDbEntity
  8
001
 62
    40
370
    50
100
AcDbVertex
100
AcDb2dVertex
 10
239.856263
 20
164.869649
 30
0.0
  0
VERTEX
  5
3DD
330
3C4
100
AcDbEntity
  8
001
 62
    40
370
    50
100
AcDbVertex
100
AcDb2dVertex
 10
239.847101
 20
164.764699
 30
0.0
  0
VERTEX
  5
3DE
330
3C4
100
AcDbEntity
  8
001
 62
    40
370
    50
100
AcDbVertex
100
AcDb2dVertex
 10
239.848711
 20
164.688209
 30
0.0
  0
SEQEND
  5
3C5
330
3C4
100
AcDbEntity
  8
001
370
    50
  0
POLYLINE
  5
3DF
330
1F
100
AcDbEntity
  8
001
 62
    40
370
    50
100
AcDb2dPolyline
 66
     1
 10
0.0
 20
0.0
 30
0.0
  0
VERTEX
  5
3E1
330
3DF
100
AcDbEntity
  8
001
 62
    40
370
    50
100
AcDbVertex
100
AcDb2dVertex
 10
247.797178
 20
162.214186
 30
0.0
  0
VERTEX
  5
3E2
330
3DF
100
AcDbEntity
  8
001
 62
    40
370
    50
100
AcDbVertex
100
AcDb2dVertex
 10
247.865265
 20
162.264078
 30
0.0
  0
VERTEX
  5
3E3
330
3DF
100
AcDbEntity
  8
001
 62
    40
370
    50
100
AcDbVertex
100
AcDb2dVertex
 10
247.947873
 20
162.341778
 30
0.0
  0
VERTEX
  5
3E4
330
3DF
100
AcDbEntity
  8
001
 62
    40
370
    50
100
AcDbVertex
100
AcDb2dVertex
 10
247.976235
 20
162.379222
 30
0.0
  0
VERTEX
  5
3E5
330
3DF
100
AcDbEntity
  8
001
 62
    40
370
    50
100
AcDbVertex
100
AcDb2dVertex
 10
247.9983
 20
162.416756
 30
0.0
  0
VERTEX
  5
3E6
330
3DF
100
AcDbEntity
  8
001
 62
    40
370
    50
100
AcDbVertex
100
AcDb2dVertex
 10
248.014344
 20
162.451911
 30
0.0
  0
VERTEX
  5
3E7
330
3DF
100
AcDbEntity
  8
001
 62
    40
370
    50
100
AcDbVertex
100
AcDb2dVertex
 10
248.025512
 20
162.493509
 30
0.0
  0
VERTEX
  5
3E8
330
3DF
100
AcDbEntity
  8
001
 62
    40
370
    50
100
AcDbVertex
100
AcDb2dVertex
 10
248.029128
 20
162.521601
 30
0.0
  0
VERTEX
  5
3E9
330
3DF
100
AcDbEntity
  8
001
 62
    40
370
    50
100
AcDbVertex
100
AcDb2dVertex
 10
248.030334
 20
162.541798
 30
0.0
  0
SEQEND
  5
3E0
330
3DF
100
AcDbEntity
  8
001
370
    50
  0
LINE
  5
3EA
330
1F
100
AcDbEntity
  8
001
 62
    40
370
    50
100
AcDbLine
 10
248.030334
 20
162.541798
 30
0.0
 11
248.030334
 21
162.977509
 31
0.0
  0
POLYLINE
  5
3EB
330
1F
100
AcDbEntity
  8
001
 62
    40
370
    50
100
AcDb2dPolyline
 66
     1
 10
0.0
 20
0.0
 30
0.0
  0
VERTEX
  5
3ED
330
3EB
100
AcDbEntity
  8
001
 62
    40
370
    50
100
AcDbVertex
100
AcDb2dVertex
 10
236.083713
 20
161.513696
 30
0.0
  0
VERTEX
  5
3EE
330
3EB
100
AcDbEntity
  8
001
 62
    40
370
    50
100
AcDbVertex
100
AcDb2dVertex
 10
236.090531
 20
161.482338
 30
0.0
  0
VERTEX
  5
3EF
330
3EB
100
AcDbEntity
  8
001
 62
    40
370
    50
100
AcDbVertex
100
AcDb2dVertex
 10
236.104679
 20
161.440374
 30
0.0
  0
VERTEX
  5
3F0
330
3EB
100
AcDbEntity
  8
001
 62
    40
370
    50
100
AcDbVertex
100
AcDb2dVertex
 10
236.125101
 20
161.402764
 30
0.0
  0
VERTEX
  5
3F1
330
3EB
100
AcDbEntity
  8
001
 62
    40
370
    50
100
AcDbVertex
100
AcDb2dVertex
 10
236.149145
 20
161.372152
 30
0.0
  0
VERTEX
  5
3F2
330
3EB
100
AcDbEntity
  8
001
 62
    40
370
    50
100
AcDbVertex
100
AcDb2dVertex
 10
236.179133
 20
161.341022
 30
0.0
  0
VERTEX
  5
3F3
330
3EB
100
AcDbEntity
  8
001
 62
    40
370
    50
100
AcDbVertex
100
AcDb2dVertex
 10
236.21576
 20
161.311103
 30
0.0
  0
VERTEX
  5
3F4
330
3EB
100
AcDbEntity
  8
001
 62
    40
370
    50
100
AcDbVertex
100
AcDb2dVertex
 10
236.272136
 20
161.275655
 30
0.0
  0
VERTEX
  5
3F5
330
3EB
100
AcDbEntity
  8
001
 62
    40
370
    50
100
AcDbVertex
100
AcDb2dVertex
 10
236.315218
 20
161.253026
 30
0.0
  0
SEQEND
  5
3EC
330
3EB
100
AcDbEntity
  8
001
370
    50
  0
POLYLINE
  5
3F6
330
1F
100
AcDbEntity
  8
001
 62
    40
370
    50
100
AcDb2dPolyline
 66
     1
 10
0.0
 20
0.0
 30
0.0
  0
VERTEX
  5
3F8
330
3F6
100
AcDbEntity
  8
001
 62
    40
370
    50
100
AcDbVertex
100
AcDb2dVertex
 10
235.767876
 20
164.167482
 30
0.0
  0
VERTEX
  5
3F9
330
3F6
100
AcDbEntity
  8
001
 62
    40
370
    50
100
AcDbVertex
100
AcDb2dVertex
 10
235.774694
 20
164.136124
 30
0.0
  0
VERTEX
  5
3FA
330
3F6
100
AcDbEntity
  8
001
 62
    40
370
    50
100
AcDbVertex
100
AcDb2dVertex
 10
235.788842
 20
164.094159
 30
0.0
  0
VERTEX
  5
3FB
330
3F6
100
AcDbEntity
  8
001
 62
    40
370
    50
100
AcDbVertex
100
AcDb2dVertex
 10
235.809264
 20
164.05655
 30
0.0
  0
VERTEX
  5
3FC
330
3F6
100
AcDbEntity
  8
001
 62
    40
370
    50
100
AcDbVertex
100
AcDb2dVertex
 10
235.833308
 20
164.025937
 30
0.0
  0
VERTEX
  5
3FD
330
3F6
100
AcDbEntity
  8
001
 62
    40
370
    50
100
AcDbVertex
100
AcDb2dVertex
 10
235.863296
 20
163.994808
 30
0.0
  0
VERTEX
  5
3FE
330
3F6
100
AcDbEntity
  8
001
 62
    40
370
    50
100
AcDbVertex
100
AcDb2dVertex
 10
235.899923
 20
163.964889
 30
0.0
  0
VERTEX
  5
3FF
330
3F6
100
AcDbEntity
  8
001
 62
    40
370
    50
100
AcDbVertex
100
AcDb2dVertex
 10
235.9563
 20
163.929441
 30
0.0
  0
VERTEX
  5
400
330
3F6
100
AcDbEntity
  8
001
 62
    40
370
    50
100
AcDbVertex
100
AcDb2dVertex
 10
235.999381
 20
163.906812
 30
0.0
  0
SEQEND
  5
3F7
330
3F6
100
AcDbEntity
  8
001
370
    50
  0
LINE
  5
401
330
1F
100
AcDbEntity
  8
001
 62
    40
370
    50
100
AcDbLine
 10
235.767876
 20
164.167482
 30
0.0
 11
236.083713
 21
161.513696
 31
0.0
  0
POLYLINE
  5
402
330
1F
100
AcDbEntity
  8
001
 62
    40
370
    50
100
AcDb2dPolyline
 66
     1
 10
0.0
 20
0.0
 30
0.0
  0
VERTEX
  5
404
330
402
100
AcDbEntity
  8
001
 62
    40
370
    50
100
AcDbVertex
100
AcDb2dVertex
 10
247.712846
 20
165.659201
 30
0.0
  0
VERTEX
  5
405
330
402
100
AcDbEntity
  8
001
 62
    40
370
    50
100
AcDbVertex
100
AcDb2dVertex
 10
247.706028
 20
165.690559
 30
0.0
  0
VERTEX
  5
406
330
402
100
AcDbEntity
  8
001
 62
    40
370
    50
100
AcDbVertex
100
AcDb2dVertex
 10
247.69188
 20
165.732524
 30
0.0
  0
VERTEX
  5
407
330
402
100
AcDbEntity
  8
001
 62
    40
370
    50
100
AcDbVertex
100
AcDb2dVertex
 10
247.671458
 20
165.770133
 30
0.0
  0
VERTEX
  5
408
330
402
100
AcDbEntity
  8
001
 62
    40
370
    50
100
AcDbVertex
100
AcDb2dVertex
 10
247.647414
 20
165.800746
 30
0.0
  0
VERTEX
  5
409
330
402
100
AcDbEntity
  8
001
 62
    40
370
    50
100
AcDbVertex
100
AcDb2dVertex
 10
247.617426
 20
165.831875
 30
0.0
  0
VERTEX
  5
40A
330
402
100
AcDbEntity
  8
001
 62
    40
370
    50
100
AcDbVertex
100
AcDb2dVertex
 10
247.580799
 20
165.861794
 30
0.0
  0
VERTEX
  5
40B
330
402
100
AcDbEntity
  8
001
 62
    40
370
    50
100
AcDbVertex
100
AcDb2dVertex
 10
247.524423
 20
165.897242
 30
0.0
  0
VERTEX
  5
40C
330
402
100
AcDbEntity
  8
001
 62
    40
370
    50
100
AcDbVertex
100
AcDb2dVertex
 10
247.481341
 20
165.919871
 30
0.0
  0
SEQEND
  5
403
330
402
100
AcDbEntity
  8
001
370
    50
  0
LINE
  5
40D
330
1F
100
AcDbEntity
  8
001
 62
    40
370
    50
100
AcDbLine
 10
248.028683
 20
163.005415
 30
0.0
 11
247.712846
 21
165.659201
 31
0.0
  0
POLYLINE
  5
40E
330
1F
100
AcDbEntity
  8
001
 62
    40
370
    50
100
AcDb2dPolyline
 66
     1
 10
0.0
 20
0.0
 30
0.0
  0
VERTEX
  5
410
330
40E
100
AcDbEntity
  8
001
 62
    40
370
    50
100
AcDbVertex
100
AcDb2dVertex
 10
248.030334
 20
162.977509
 30
0.0
  0
VERTEX
  5
411
330
40E
100
AcDbEntity
  8
001
 62
    40
370
    50
100
AcDbVertex
100
AcDb2dVertex
 10
248.030257
 20
162.983198
 30
0.0
  0
VERTEX
  5
412
330
40E
100
AcDbEntity
  8
001
 62
    40
370
    50
100
AcDbVertex
100
AcDb2dVertex
 10
248.029921
 20
162.991504
 30
0.0
  0
VERTEX
  5
413
330
40E
100
AcDbEntity
  8
001
 62
    40
370
    50
100
AcDbVertex
100
AcDb2dVertex
 10
248.029276
 20
162.999771
 30
0.0
  0
VERTEX
  5
414
330
40E
100
AcDbEntity
  8
001
 62
    40
370
    50
100
AcDbVertex
100
AcDb2dVertex
 10
248.028683
 20
163.005415
 30
0.0
  0
SEQEND
  5
40F
330
40E
100
AcDbEntity
  8
001
370
    50
  0
LINE
  5
415
330
1F
100
AcDbEntity
  8
001
 62
   200
370
    50
100
AcDbLine
 10
236.766225
 20
240.531173
 30
0.0
 11
239.266225
 21
239.901995
 31
0.0
  0
POLYLINE
  5
416
330
1F
100
AcDbEntity
  8
001
 62
   200
370
    50
100
AcDb2dPolyline
 66
     1
 10
0.0
 20
0.0
 30
0.0
  0
VERTEX
  5
418
330
416
100
AcDbEntity
  8
001
 62
   200
370
    50
100
AcDbVertex
100
AcDb2dVertex
 10
239.265052
 20
242.130591
 30
0.0
  0
VERTEX
  5
419
330
416
100
AcDbEntity
  8
001
 62
   200
370
    50
100
AcDbVertex
100
AcDb2dVertex
 10
238.295945
 20
241.813036
 30
0.0
  0
VERTEX
  5
41A
330
416
100
AcDbEntity
  8
001
 62
   200
370
    50
100
AcDbVertex
100
AcDb2dVertex
 10
237.3289
 20
241.489363
 30
0.0
  0
VERTEX
  5
41B
330
416
100
AcDbEntity
  8
001
 62
   200
370
    50
100
AcDbVertex
100
AcDb2dVertex
 10
237.047475
 20
241.393032
 30
0.0
  0
VERTEX
  5
41C
330
416
100
AcDbEntity
  8
001
 62
   200
370
    50
100
AcDbVertex
100
AcDb2dVertex
 10
236.766225
 20
241.296181
 30
0.0
  0
SEQEND
  5
417
330
416
100
AcDbEntity
  8
001
370
    50
  0
LINE
  5
41D
330
1F
100
AcDbEntity
  8
001
 62
   200
370
    50
100
AcDbLine
 10
236.766225
 20
230.29046
 30
0.0
 11
236.766225
 21
241.296181
 31
0.0
  0
LINE
  5
41E
330
1F
100
AcDbEntity
  8
001
 62
    40
370
    50
100
AcDbLine
 10
236.766225
 20
231.236951
 30
0.0
 11
236.315218
 21
231.521562
 31
0.0
  0
POLYLINE
  5
41F
330
1F
100
AcDbEntity
  8
001
 62
    40
370
    50
100
AcDb2dPolyline
 66
     1
 10
0.0
 20
0.0
 30
0.0
  0
VERTEX
  5
421
330
41F
100
AcDbEntity
  8
001
 62
    40
370
    50
100
AcDbVertex
100
AcDb2dVertex
 10
236.082062
 20
231.849174
 30
0.0
  0
VERTEX
  5
422
330
41F
100
AcDbEntity
  8
001
 62
    40
370
    50
100
AcDbVertex
100
AcDb2dVertex
 10
236.083268
 20
231.828977
 30
0.0
  0
VERTEX
  5
423
330
41F
100
AcDbEntity
  8
001
 62
    40
370
    50
100
AcDbVertex
100
AcDb2dVertex
 10
236.086884
 20
231.800885
 30
0.0
  0
VERTEX
  5
424
330
41F
100
AcDbEntity
  8
001
 62
    40
370
    50
100
AcDbVertex
100
AcDb2dVertex
 10
236.098052
 20
231.759287
 30
0.0
  0
VERTEX
  5
425
330
41F
100
AcDbEntity
  8
001
 62
    40
370
    50
100
AcDbVertex
100
AcDb2dVertex
 10
236.114096
 20
231.724133
 30
0.0
  0
VERTEX
  5
426
330
41F
100
AcDbEntity
  8
001
 62
    40
370
    50
100
AcDbVertex
100
AcDb2dVertex
 10
236.136161
 20
231.686598
 30
0.0
  0
VERTEX
  5
427
330
41F
100
AcDbEntity
  8
001
 62
    40
370
    50
100
AcDbVertex
100
AcDb2dVertex
 10
236.164523
 20
231.649155
 30
0.0
  0
VERTEX
  5
428
330
41F
100
AcDbEntity
  8
001
 62
    40
370
    50
100
AcDbVertex
100
AcDb2dVertex
 10
236.247131
 20
231.571454
 30
0.0
  0
VERTEX
  5
429
330
41F
100
AcDbEntity
  8
001
 62
    40
370
    50
100
AcDbVertex
100
AcDb2dVertex
 10
236.315218
 20
231.521562
 30
0.0
  0
SEQEND
  5
420
330
41F
100
AcDbEntity
  8
001
370
    50
  0
LINE
  5
42A
330
1F
100
AcDbEntity
  8
001
 62
    40
370
    50
100
AcDbLine
 10
236.082062
 20
231.849174
 30
0.0
 11
236.082062
 21
232.284885
 31
0.0
  0
POLYLINE
  5
42B
330
1F
100
AcDbEntity
  8
001
 62
    40
370
    50
100
AcDb2dPolyline
 66
     1
 10
0.0
 20
0.0
 30
0.0
  0
VERTEX
  5
42D
330
42B
100
AcDbEntity
  8
001
 62
    40
370
    50
100
AcDbVertex
100
AcDb2dVertex
 10
236.083713
 20
232.312792
 30
0.0
  0
VERTEX
  5
42E
330
42B
100
AcDbEntity
  8
001
 62
    40
370
    50
100
AcDbVertex
100
AcDb2dVertex
 10
236.08312
 20
232.307147
 30
0.0
  0
VERTEX
  5
42F
330
42B
100
AcDbEntity
  8
001
 62
    40
370
    50
100
AcDbVertex
100
AcDb2dVertex
 10
236.082475
 20
232.29888
 30
0.0
  0
VERTEX
  5
430
330
42B
100
AcDbEntity
  8
001
 62
    40
370
    50
100
AcDbVertex
100
AcDb2dVertex
 10
236.082139
 20
232.290574
 30
0.0
  0
VERTEX
  5
431
330
42B
100
AcDbEntity
  8
001
 62
    40
370
    50
100
AcDbVertex
100
AcDb2dVertex
 10
236.082062
 20
232.284885
 30
0.0
  0
SEQEND
  5
42C
330
42B
100
AcDbEntity
  8
001
370
    50
  0
LINE
  5
432
330
1F
100
AcDbEntity
  8
001
 62
    40
370
    50
100
AcDbLine
 10
236.315218
 20
232.573462
 30
0.0
 11
236.766225
 21
232.782565
 31
0.0
  0
POLYLINE
  5
433
330
1F
100
AcDbEntity
  8
001
 62
    40
370
    50
100
AcDb2dPolyline
 66
     1
 10
0.0
 20
0.0
 30
0.0
  0
VERTEX
  5
435
330
433
100
AcDbEntity
  8
001
 62
    40
370
    50
100
AcDbVertex
100
AcDb2dVertex
 10
235.766225
 20
229.195388
 30
0.0
  0
VERTEX
  5
436
330
433
100
AcDbEntity
  8
001
 62
    40
370
    50
100
AcDbVertex
100
AcDb2dVertex
 10
235.76717
 20
229.175643
 30
0.0
  0
VERTEX
  5
437
330
433
100
AcDbEntity
  8
001
 62
    40
370
    50
100
AcDbVertex
100
AcDb2dVertex
 10
235.771047
 20
229.1471
 30
0.0
  0
VERTEX
  5
438
330
433
100
AcDbEntity
  8
001
 62
    40
370
    50
100
AcDbVertex
100
AcDb2dVertex
 10
235.774636
 20
229.131604
 30
0.0
  0
VERTEX
  5
439
330
433
100
AcDbEntity
  8
001
 62
    40
370
    50
100
AcDbVertex
100
AcDb2dVertex
 10
235.777579
 20
229.121111
 30
0.0
  0
SEQEND
  5
434
330
433
100
AcDbEntity
  8
001
370
    50
  0
LINE
  5
43A
330
1F
100
AcDbEntity
  8
001
 62
    40
370
    50
100
AcDbLine
 10
235.766225
 20
229.195388
 30
0.0
 11
235.766225
 21
229.6311
 31
0.0
  0
POLYLINE
  5
43B
330
1F
100
AcDbEntity
  8
001
 62
    40
370
    50
100
AcDb2dPolyline
 66
     1
 10
0.0
 20
0.0
 30
0.0
  0
VERTEX
  5
43D
330
43B
100
AcDbEntity
  8
001
 62
    40
370
    50
100
AcDbVertex
100
AcDb2dVertex
 10
236.315218
 20
232.573462
 30
0.0
  0
VERTEX
  5
43E
330
43B
100
AcDbEntity
  8
001
 62
    40
370
    50
100
AcDbVertex
100
AcDb2dVertex
 10
236.272136
 20
232.550833
 30
0.0
  0
VERTEX
  5
43F
330
43B
100
AcDbEntity
  8
001
 62
    40
370
    50
100
AcDbVertex
100
AcDb2dVertex
 10
236.21576
 20
232.515385
 30
0.0
  0
VERTEX
  5
440
330
43B
100
AcDbEntity
  8
001
 62
    40
370
    50
100
AcDbVertex
100
AcDb2dVertex
 10
236.179133
 20
232.485466
 30
0.0
  0
VERTEX
  5
441
330
43B
100
AcDbEntity
  8
001
 62
    40
370
    50
100
AcDbVertex
100
AcDb2dVertex
 10
236.149145
 20
232.454336
 30
0.0
  0
VERTEX
  5
442
330
43B
100
AcDbEntity
  8
001
 62
    40
370
    50
100
AcDbVertex
100
AcDb2dVertex
 10
236.125101
 20
232.423724
 30
0.0
  0
VERTEX
  5
443
330
43B
100
AcDbEntity
  8
001
 62
    40
370
    50
100
AcDbVertex
100
AcDb2dVertex
 10
236.104679
 20
232.386114
 30
0.0
  0
VERTEX
  5
444
330
43B
100
AcDbEntity
  8
001
 62
    40
370
    50
100
AcDbVertex
100
AcDb2dVertex
 10
236.090531
 20
232.34415
 30
0.0
  0
VERTEX
  5
445
330
43B
100
AcDbEntity
  8
001
 62
    40
370
    50
100
AcDbVertex
100
AcDb2dVertex
 10
236.083713
 20
232.312792
 30
0.0
  0
SEQEND
  5
43C
330
43B
100
AcDbEntity
  8
001
370
    50
  0
LINE
  5
446
330
1F
100
AcDbEntity
  8
001
 62
    40
370
    50
100
AcDbLine
 10
236.083713
 20
232.312792
 30
0.0
 11
235.767876
 21
229.659006
 31
0.0
  0
POLYLINE
  5
447
330
1F
100
AcDbEntity
  8
001
 62
    40
370
    50
100
AcDb2dPolyline
 66
     1
 10
0.0
 20
0.0
 30
0.0
  0
VERTEX
  5
449
330
447
100
AcDbEntity
  8
001
 62
    40
370
    50
100
AcDbVertex
100
AcDb2dVertex
 10
235.767876
 20
229.659006
 30
0.0
  0
VERTEX
  5
44A
330
447
100
AcDbEntity
  8
001
 62
    40
370
    50
100
AcDbVertex
100
AcDb2dVertex
 10
235.767283
 20
229.653362
 30
0.0
  0
VERTEX
  5
44B
330
447
100
AcDbEntity
  8
001
 62
    40
370
    50
100
AcDbVertex
100
AcDb2dVertex
 10
235.766638
 20
229.645095
 30
0.0
  0
VERTEX
  5
44C
330
447
100
AcDbEntity
  8
001
 62
    40
370
    50
100
AcDbVertex
100
AcDb2dVertex
 10
235.766303
 20
229.636789
 30
0.0
  0
VERTEX
  5
44D
330
447
100
AcDbEntity
  8
001
 62
    40
370
    50
100
AcDbVertex
100
AcDb2dVertex
 10
235.766225
 20
229.6311
 30
0.0
  0
SEQEND
  5
448
330
447
100
AcDbEntity
  8
001
370
    50
  0
LINE
  5
44E
330
1F
100
AcDbEntity
  8
001
 62
   200
370
    50
100
AcDbLine
 10
236.766225
 20
181.531173
 30
0.0
 11
239.266225
 21
183.401995
 31
0.0
  0
LINE
  5
44F
330
1F
100
AcDbEntity
  8
001
 62
   200
370
    50
100
AcDbLine
 10
236.766225
 20
165.442633
 30
0.0
 11
236.766225
 21
181.531173
 31
0.0
  0
LINE
  5
450
330
1F
100
AcDbEntity
  8
001
 62
    40
370
    50
100
AcDbLine
 10
236.766225
 20
167.815972
 30
0.0
 11
236.315218
 21
167.650312
 31
0.0
  0
LINE
  5
451
330
1F
100
AcDbEntity
  8
001
 62
    40
370
    50
100
AcDbLine
 10
236.08308
 20
167.432497
 30
0.0
 11
235.777579
 21
164.705377
 31
0.0
  0
POLYLINE
  5
452
330
1F
100
AcDbEntity
  8
001
 62
    40
370
    50
100
AcDb2dPolyline
 66
     1
 10
0.0
 20
0.0
 30
0.0
  0
VERTEX
  5
454
330
452
100
AcDbEntity
  8
001
 62
    40
370
    50
100
AcDbVertex
100
AcDb2dVertex
 10
236.315218
 20
167.650312
 30
0.0
  0
VERTEX
  5
455
330
452
100
AcDbEntity
  8
001
 62
    40
370
    50
100
AcDbVertex
100
AcDb2dVertex
 10
236.269614
 20
167.631123
 30
0.0
  0
VERTEX
  5
456
330
452
100
AcDbEntity
  8
001
 62
    40
370
    50
100
AcDbVertex
100
AcDb2dVertex
 10
236.20971
 20
167.60014
 30
0.0
  0
VERTEX
  5
457
330
452
100
AcDbEntity
  8
001
 62
    40
370
    50
100
AcDbVertex
100
AcDb2dVertex
 10
236.174408
 20
167.575874
 30
0.0
  0
VERTEX
  5
458
330
452
100
AcDbEntity
  8
001
 62
    40
370
    50
100
AcDbVertex
100
AcDb2dVertex
 10
236.144786
 20
167.549963
 30
0.0
  0
VERTEX
  5
459
330
452
100
AcDbEntity
  8
001
 62
    40
370
    50
100
AcDbVertex
100
AcDb2dVertex
 10
236.121746
 20
167.525075
 30
0.0
  0
VERTEX
  5
45A
330
452
100
AcDbEntity
  8
001
 62
    40
370
    50
100
AcDbVertex
100
AcDb2dVertex
 10
236.102144
 20
167.49351
 30
0.0
  0
VERTEX
  5
45B
330
452
100
AcDbEntity
  8
001
 62
    40
370
    50
100
AcDbVertex
100
AcDb2dVertex
 10
236.08916
 20
167.458712
 30
0.0
  0
VERTEX
  5
45C
330
452
100
AcDbEntity
  8
001
 62
    40
370
    50
100
AcDbVertex
100
AcDb2dVertex
 10
236.08308
 20
167.432497
 30
0.0
  0
SEQEND
  5
453
330
452
100
AcDbEntity
  8
001
370
    50
  0
LINE
  5
45D
330
1F
100
AcDbEntity
  8
001
 62
   200
370
    50
100
AcDbLine
 10
254.266225
 20
136.815039
 30
0.0
 11
246.139449
 21
128.865659
 31
0.0
  0
POLYLINE
  5
45E
330
1F
100
AcDbEntity
  8
001
 62
   200
370
    50
100
AcDb2dPolyline
 66
     1
 10
0.0
 20
0.0
 30
0.0
  0
VERTEX
  5
460
330
45E
100
AcDbEntity
  8
001
 62
   200
370
    50
100
AcDbVertex
100
AcDb2dVertex
 10
242.983661
 20
126.247629
 30
0.0
  0
VERTEX
  5
461
330
45E
100
AcDbEntity
  8
001
 62
   200
370
    50
100
AcDbVertex
100
AcDb2dVertex
 10
243.16095
 20
126.368605
 30
0.0
  0
VERTEX
  5
462
330
45E
100
AcDbEntity
  8
001
 62
   200
370
    50
100
AcDbVertex
100
AcDb2dVertex
 10
243.407954
 20
126.546911
 30
0.0
  0
VERTEX
  5
463
330
45E
100
AcDbEntity
  8
001
 62
   200
370
    50
100
AcDbVertex
100
AcDb2dVertex
 10
244.332467
 20
127.275106
 30
0.0
  0
VERTEX
  5
464
330
45E
100
AcDbEntity
  8
001
 62
   200
370
    50
100
AcDbVertex
100
AcDb2dVertex
 10
245.189079
 20
128.027887
 30
0.0
  0
VERTEX
  5
465
330
45E
100
AcDbEntity
  8
001
 62
   200
370
    50
100
AcDbVertex
100
AcDb2dVertex
 10
245.73887
 20
128.512574
 30
0.0
  0
VERTEX
  5
466
330
45E
100
AcDbEntity
  8
001
 62
   200
370
    50
100
AcDbVertex
100
AcDb2dVertex
 10
246.139449
 20
128.865659
 30
0.0
  0
SEQEND
  5
45F
330
45E
100
AcDbEntity
  8
001
370
    50
  0
LINE
  5
467
330
1F
100
AcDbEntity
  8
001
 62
   200
370
    50
100
AcDbLine
 10
248.758088
 20
132.012632
 30
0.0
 11
242.983661
 21
126.247629
 31
0.0
  0
LINE
  5
468
330
1F
100
AcDbEntity
  8
001
 62
   200
370
    50
100
AcDbLine
 10
248.472336
 20
131.862801
 30
0.0
 11
248.758088
 21
132.012632
 31
0.0
  0
LINE
  5
469
330
1F
100
AcDbEntity
  8
001
 62
   200
370
    50
100
AcDbLine
 10
248.472336
 20
131.862801
 30
0.0
 11
254.266225
 21
137.582706
 31
0.0
  0
LINE
  5
46A
330
1F
100
AcDbEntity
  8
001
 62
   200
370
    50
100
AcDbLine
 10
237.683616
 20
138.830635
 30
0.0
 11
239.637504
 21
137.434662
 31
0.0
  0
LINE
  5
46B
330
1F
100
AcDbEntity
  8
001
 62
   200
370
    50
100
AcDbLine
 10
239.266225
 20
143.913244
 30
0.0
 11
239.266225
 21
140.413244
 31
0.0
  0
LINE
  5
46C
330
1F
100
AcDbEntity
  8
001
 62
   200
370
    50
100
AcDbLine
 10
254.266225
 20
136.815039
 30
0.0
 11
254.266225
 21
142.913244
 31
0.0
  0
LINE
  5
46D
330
1F
100
AcDbEntity
  8
001
 62
   200
370
    50
100
AcDbLine
 10
244.27551
 20
136.12334
 30
0.0
 11
248.472336
 21
131.862801
 31
0.0
  0
POLYLINE
  5
46E
330
1F
100
AcDbEntity
  8
001
 62
   200
370
    50
100
AcDb2dPolyline
 66
     1
 10
0.0
 20
0.0
 30
0.0
  0
VERTEX
  5
470
330
46E
100
AcDbEntity
  8
001
 62
   200
370
    50
100
AcDbVertex
100
AcDb2dVertex
 10
244.27551
 20
136.12334
 30
0.0
  0
VERTEX
  5
471
330
46E
100
AcDbEntity
  8
001
 62
   200
370
    50
100
AcDbVertex
100
AcDb2dVertex
 10
244.251427
 20
136.443734
 30
0.0
  0
VERTEX
  5
472
330
46E
100
AcDbEntity
  8
001
 62
   200
370
    50
100
AcDbVertex
100
AcDb2dVertex
 10
244.172642
 20
136.870005
 30
0.0
  0
VERTEX
  5
473
330
46E
100
AcDbEntity
  8
001
 62
   200
370
    50
100
AcDbVertex
100
AcDb2dVertex
 10
244.101513
 20
137.083422
 30
0.0
  0
VERTEX
  5
474
330
46E
100
AcDbEntity
  8
001
 62
   200
370
    50
100
AcDbVertex
100
AcDb2dVertex
 10
244.012324
 20
137.27569
 30
0.0
  0
VERTEX
  5
475
330
46E
100
AcDbEntity
  8
001
 62
   200
370
    50
100
AcDbVertex
100
AcDb2dVertex
 10
243.906146
 20
137.464187
 30
0.0
  0
VERTEX
  5
476
330
46E
100
AcDbEntity
  8
001
 62
   200
370
    50
100
AcDbVertex
100
AcDb2dVertex
 10
243.783665
 20
137.64636
 30
0.0
  0
VERTEX
  5
477
330
46E
100
AcDbEntity
  8
001
 62
   200
370
    50
100
AcDbVertex
100
AcDb2dVertex
 10
243.645846
 20
137.815491
 30
0.0
  0
VERTEX
  5
478
330
46E
100
AcDbEntity
  8
001
 62
   200
370
    50
100
AcDbVertex
100
AcDb2dVertex
 10
243.493611
 20
137.970755
 30
0.0
  0
VERTEX
  5
479
330
46E
100
AcDbEntity
  8
001
 62
   200
370
    50
100
AcDbVertex
100
AcDb2dVertex
 10
243.328128
 20
138.112275
 30
0.0
  0
VERTEX
  5
47A
330
46E
100
AcDbEntity
  8
001
 62
   200
370
    50
100
AcDbVertex
100
AcDb2dVertex
 10
243.150976
 20
138.239017
 30
0.0
  0
VERTEX
  5
47B
330
46E
100
AcDbEntity
  8
001
 62
   200
370
    50
100
AcDbVertex
100
AcDb2dVertex
 10
242.96344
 20
138.349738
 30
0.0
  0
VERTEX
  5
47C
330
46E
100
AcDbEntity
  8
001
 62
   200
370
    50
100
AcDbVertex
100
AcDb2dVertex
 10
242.766172
 20
138.442995
 30
0.0
  0
VERTEX
  5
47D
330
46E
100
AcDbEntity
  8
001
 62
   200
370
    50
100
AcDbVertex
100
AcDb2dVertex
 10
242.560115
 20
138.518128
 30
0.0
  0
VERTEX
  5
47E
330
46E
100
AcDbEntity
  8
001
 62
   200
370
    50
100
AcDbVertex
100
AcDb2dVertex
 10
242.350888
 20
138.576491
 30
0.0
  0
VERTEX
  5
47F
330
46E
100
AcDbEntity
  8
001
 62
   200
370
    50
100
AcDbVertex
100
AcDb2dVertex
 10
241.72843
 20
138.650752
 30
0.0
  0
VERTEX
  5
480
330
46E
100
AcDbEntity
  8
001
 62
   200
370
    50
100
AcDbVertex
100
AcDb2dVertex
 10
241.050665
 20
138.524908
 30
0.0
  0
VERTEX
  5
481
330
46E
100
AcDbEntity
  8
001
 62
   200
370
    50
100
AcDbVertex
100
AcDb2dVertex
 10
240.796435
 20
138.427533
 30
0.0
  0
VERTEX
  5
482
330
46E
100
AcDbEntity
  8
001
 62
   200
370
    50
100
AcDbVertex
100
AcDb2dVertex
 10
240.621601
 20
138.347636
 30
0.0
  0
SEQEND
  5
46F
330
46E
100
AcDbEntity
  8
001
370
    50
  0
POLYLINE
  5
483
330
1F
100
AcDbEntity
  8
001
 62
   200
370
    50
100
AcDb2dPolyline
 66
     1
 10
0.0
 20
0.0
 30
0.0
  0
VERTEX
  5
485
330
483
100
AcDbEntity
  8
001
 62
   200
370
    50
100
AcDbVertex
100
AcDb2dVertex
 10
240.761802
 20
138.415777
 30
0.0
  0
VERTEX
  5
486
330
483
100
AcDbEntity
  8
001
 62
   200
370
    50
100
AcDbVertex
100
AcDb2dVertex
 10
240.663892
 20
138.351899
 30
0.0
  0
VERTEX
  5
487
330
483
100
AcDbEntity
  8
001
 62
   200
370
    50
100
AcDbVertex
100
AcDb2dVertex
 10
240.53085
 20
138.257167
 30
0.0
  0
VERTEX
  5
488
330
483
100
AcDbEntity
  8
001
 62
   200
370
    50
100
AcDbVertex
100
AcDb2dVertex
 10
240.355823
 20
138.110046
 30
0.0
  0
VERTEX
  5
489
330
483
100
AcDbEntity
  8
001
 62
   200
370
    50
100
AcDbVertex
100
AcDb2dVertex
 10
240.212785
 20
137.963041
 30
0.0
  0
VERTEX
  5
48A
330
483
100
AcDbEntity
  8
001
 62
   200
370
    50
100
AcDbVertex
100
AcDb2dVertex
 10
240.077321
 20
137.803019
 30
0.0
  0
VERTEX
  5
48B
330
483
100
AcDbEntity
  8
001
 62
   200
370
    50
100
AcDbVertex
100
AcDb2dVertex
 10
239.950732
 20
137.617687
 30
0.0
  0
VERTEX
  5
48C
330
483
100
AcDbEntity
  8
001
 62
   200
370
    50
100
AcDbVertex
100
AcDb2dVertex
 10
239.681766
 20
136.964366
 30
0.0
  0
VERTEX
  5
48D
330
483
100
AcDbEntity
  8
001
 62
   200
370
    50
100
AcDbVertex
100
AcDb2dVertex
 10
239.573327
 20
136.444501
 30
0.0
  0
SEQEND
  5
484
330
483
100
AcDbEntity
  8
001
370
    50
  0
POLYLINE
  5
48E
330
1F
100
AcDbEntity
  8
001
 62
   200
370
    50
100
AcDb2dPolyline
 66
     1
 10
0.0
 20
0.0
 30
0.0
  0
VERTEX
  5
490
330
48E
100
AcDbEntity
  8
001
 62
   200
370
    50
100
AcDbVertex
100
AcDb2dVertex
 10
240.621601
 20
138.347636
 30
0.0
  0
VERTEX
  5
491
330
48E
100
AcDbEntity
  8
001
 62
   200
370
    50
100
AcDbVertex
100
AcDb2dVertex
 10
240.470869
 20
138.259425
 30
0.0
  0
VERTEX
  5
492
330
48E
100
AcDbEntity
  8
001
 62
   200
370
    50
100
AcDbVertex
100
AcDb2dVertex
 10
240.269513
 20
138.124701
 30
0.0
  0
VERTEX
  5
493
330
48E
100
AcDbEntity
  8
001
 62
   200
370
    50
100
AcDbVertex
100
AcDb2dVertex
 10
240.088515
 20
137.976461
 30
0.0
  0
VERTEX
  5
494
330
48E
100
AcDbEntity
  8
001
 62
   200
370
    50
100
AcDbVertex
100
AcDb2dVertex
 10
239.941334
 20
137.829826
 30
0.0
  0
VERTEX
  5
495
330
48E
100
AcDbEntity
  8
001
 62
   200
370
    50
100
AcDbVertex
100
AcDb2dVertex
 10
239.807525
 20
137.676517
 30
0.0
  0
VERTEX
  5
496
330
48E
100
AcDbEntity
  8
001
 62
   200
370
    50
100
AcDbVertex
100
AcDb2dVertex
 10
239.668509
 20
137.483101
 30
0.0
  0
VERTEX
  5
497
330
48E
100
AcDbEntity
  8
001
 62
   200
370
    50
100
AcDbVertex
100
AcDb2dVertex
 10
239.650098
 20
137.454542
 30
0.0
  0
VERTEX
  5
498
330
48E
100
AcDbEntity
  8
001
 62
   200
370
    50
100
AcDbVertex
100
AcDb2dVertex
 10
239.637504
 20
137.434662
 30
0.0
  0
SEQEND
  5
48F
330
48E
100
AcDbEntity
  8
001
370
    50
  0
POLYLINE
  5
499
330
1F
100
AcDbEntity
  8
001
 62
   200
370
    50
100
AcDb2dPolyline
 66
     1
 10
0.0
 20
0.0
 30
0.0
  0
VERTEX
  5
49B
330
499
100
AcDbEntity
  8
001
 62
   200
370
    50
100
AcDbVertex
100
AcDb2dVertex
 10
239.637504
 20
137.434662
 30
0.0
  0
VERTEX
  5
49C
330
499
100
AcDbEntity
  8
001
 62
   200
370
    50
100
AcDbVertex
100
AcDb2dVertex
 10
239.422452
 20
136.961407
 30
0.0
  0
VERTEX
  5
49D
330
499
100
AcDbEntity
  8
001
 62
   200
370
    50
100
AcDbVertex
100
AcDb2dVertex
 10
239.274388
 20
136.229829
 30
0.0
  0
VERTEX
  5
49E
330
499
100
AcDbEntity
  8
001
 62
   200
370
    50
100
AcDbVertex
100
AcDb2dVertex
 10
239.272921
 20
136.17345
 30
0.0
  0
VERTEX
  5
49F
330
499
100
AcDbEntity
  8
001
 62
   200
370
    50
100
AcDbVertex
100
AcDb2dVertex
 10
239.272586
 20
136.134834
 30
0.0
  0
SEQEND
  5
49A
330
499
100
AcDbEntity
  8
001
370
    50
  0
LINE
  5
4A0
330
1F
100
AcDbEntity
  8
001
 62
   200
370
    50
100
AcDbLine
 10
236.766225
 20
137.913244
 30
0.0
 11
239.266225
 21
140.413244
 31
0.0
  0
LINE
  5
4A1
330
1F
100
AcDbEntity
  8
001
 62
   200
370
    50
100
AcDbLine
 10
236.766225
 20
133.64198
 30
0.0
 11
236.766225
 21
137.913244
 31
0.0
  0
POLYLINE
  5
4A2
330
1F
100
AcDbEntity
  8
001
 62
   200
370
    50
100
AcDb2dPolyline
 66
     1
 10
0.0
 20
0.0
 30
0.0
  0
VERTEX
  5
4A4
330
4A2
100
AcDbEntity
  8
001
 62
   200
370
    50
100
AcDbVertex
100
AcDb2dVertex
 10
240.264262
 20
132.67744
 30
0.0
  0
VERTEX
  5
4A5
330
4A2
100
AcDbEntity
  8
001
 62
   200
370
    50
100
AcDbVertex
100
AcDb2dVertex
 10
240.315418
 20
132.124965
 30
0.0
  0
VERTEX
  5
4A6
330
4A2
100
AcDbEntity
  8
001
 62
   200
370
    50
100
AcDbVertex
100
AcDb2dVertex
 10
240.500922
 20
131.406253
 30
0.0
  0
VERTEX
  5
4A7
330
4A2
100
AcDbEntity
  8
001
 62
   200
370
    50
100
AcDbVertex
100
AcDb2dVertex
 10
240.616464
 20
131.161028
 30
0.0
  0
VERTEX
  5
4A8
330
4A2
100
AcDbEntity
  8
001
 62
   200
370
    50
100
AcDbVertex
100
AcDb2dVertex
 10
240.747095
 20
130.94525
 30
0.0
  0
VERTEX
  5
4A9
330
4A2
100
AcDbEntity
  8
001
 62
   200
370
    50
100
AcDbVertex
100
AcDb2dVertex
 10
240.889486
 20
130.743893
 30
0.0
  0
VERTEX
  5
4AA
330
4A2
100
AcDbEntity
  8
001
 62
   200
370
    50
100
AcDbVertex
100
AcDb2dVertex
 10
241.070214
 20
130.537233
 30
0.0
  0
VERTEX
  5
4AB
330
4A2
100
AcDbEntity
  8
001
 62
   200
370
    50
100
AcDbVertex
100
AcDb2dVertex
 10
241.220914
 20
130.391935
 30
0.0
  0
VERTEX
  5
4AC
330
4A2
100
AcDbEntity
  8
001
 62
   200
370
    50
100
AcDbVertex
100
AcDb2dVertex
 10
241.333539
 20
130.292698
 30
0.0
  0
SEQEND
  5
4A3
330
4A2
100
AcDbEntity
  8
001
370
    50
  0
POLYLINE
  5
4AD
330
1F
100
AcDbEntity
  8
001
 62
    40
370
    50
100
AcDb2dPolyline
 66
     1
 10
0.0
 20
0.0
 30
0.0
  0
VERTEX
  5
4AF
330
4AD
100
AcDbEntity
  8
001
 62
    40
370
    50
100
AcDbVertex
100
AcDb2dVertex
 10
247.714497
 20
132.25028
 30
0.0
  0
VERTEX
  5
4B0
330
4AD
100
AcDbEntity
  8
001
 62
    40
370
    50
100
AcDbVertex
100
AcDb2dVertex
 10
247.705134
 20
132.355176
 30
0.0
  0
VERTEX
  5
4B1
330
4AD
100
AcDbEntity
  8
001
 62
    40
370
    50
100
AcDbVertex
100
AcDb2dVertex
 10
247.676308
 20
132.494955
 30
0.0
  0
VERTEX
  5
4B2
330
4AD
100
AcDbEntity
  8
001
 62
    40
370
    50
100
AcDbVertex
100
AcDb2dVertex
 10
247.651512
 20
132.563334
 30
0.0
  0
VERTEX
  5
4B3
330
4AD
100
AcDbEntity
  8
001
 62
    40
370
    50
100
AcDbVertex
100
AcDb2dVertex
 10
247.622494
 20
132.623595
 30
0.0
  0
VERTEX
  5
4B4
330
4AD
100
AcDbEntity
  8
001
 62
    40
370
    50
100
AcDbVertex
100
AcDb2dVertex
 10
247.589841
 20
132.680954
 30
0.0
  0
VERTEX
  5
4B5
330
4AD
100
AcDbEntity
  8
001
 62
    40
370
    50
100
AcDbVertex
100
AcDb2dVertex
 10
247.547288
 20
132.741018
 30
0.0
  0
VERTEX
  5
4B6
330
4AD
100
AcDbEntity
  8
001
 62
    40
370
    50
100
AcDbVertex
100
AcDb2dVertex
 10
247.509713
 20
132.785637
 30
0.0
  0
VERTEX
  5
4B7
330
4AD
100
AcDbEntity
  8
001
 62
    40
370
    50
100
AcDbVertex
100
AcDb2dVertex
 10
247.481341
 20
132.816408
 30
0.0
  0
SEQEND
  5
4AE
330
4AD
100
AcDbEntity
  8
001
370
    50
  0
LINE
  5
4B8
330
1F
100
AcDbEntity
  8
001
 62
    40
370
    50
100
AcDbLine
 10
247.714497
 20
131.451376
 30
0.0
 11
247.714497
 21
132.25028
 31
0.0
  0
POLYLINE
  5
4B9
330
1F
100
AcDbEntity
  8
001
 62
    40
370
    50
100
AcDb2dPolyline
 66
     1
 10
0.0
 20
0.0
 30
0.0
  0
VERTEX
  5
4BB
330
4B9
100
AcDbEntity
  8
001
 62
    40
370
    50
100
AcDbVertex
100
AcDb2dVertex
 10
247.481341
 20
130.887684
 30
0.0
  0
VERTEX
  5
4BC
330
4B9
100
AcDbEntity
  8
001
 62
    40
370
    50
100
AcDbVertex
100
AcDb2dVertex
 10
247.492582
 20
130.899234
 30
0.0
  0
VERTEX
  5
4BD
330
4B9
100
AcDbEntity
  8
001
 62
    40
370
    50
100
AcDbVertex
100
AcDb2dVertex
 10
247.508344
 20
130.916011
 30
0.0
  0
VERTEX
  5
4BE
330
4B9
100
AcDbEntity
  8
001
 62
    40
370
    50
100
AcDbVertex
100
AcDb2dVertex
 10
247.55611
 20
130.973353
 30
0.0
  0
VERTEX
  5
4BF
330
4B9
100
AcDbEntity
  8
001
 62
    40
370
    50
100
AcDbVertex
100
AcDb2dVertex
 10
247.592202
 20
131.026524
 30
0.0
  0
VERTEX
  5
4C0
330
4B9
100
AcDbEntity
  8
001
 62
    40
370
    50
100
AcDbVertex
100
AcDb2dVertex
 10
247.675716
 20
131.199565
 30
0.0
  0
VERTEX
  5
4C1
330
4B9
100
AcDbEntity
  8
001
 62
    40
370
    50
100
AcDbVertex
100
AcDb2dVertex
 10
247.71392
 20
131.420978
 30
0.0
  0
VERTEX
  5
4C2
330
4B9
100
AcDbEntity
  8
001
 62
    40
370
    50
100
AcDbVertex
100
AcDb2dVertex
 10
247.714362
 20
131.438974
 30
0.0
  0
VERTEX
  5
4C3
330
4B9
100
AcDbEntity
  8
001
 62
    40
370
    50
100
AcDbVertex
100
AcDb2dVertex
 10
247.714497
 20
131.451376
 30
0.0
  0
SEQEND
  5
4BA
330
4B9
100
AcDbEntity
  8
001
370
    50
  0
LINE
  5
4C4
330
1F
100
AcDbEntity
  8
001
 62
    40
370
    50
100
AcDbLine
 10
242.701272
 20
126.115417
 30
0.0
 11
247.481341
 21
130.887684
 31
0.0
  0
POLYLINE
  5
4C5
330
1F
100
AcDbEntity
  8
001
 62
    40
370
    50
100
AcDb2dPolyline
 66
     1
 10
0.0
 20
0.0
 30
0.0
  0
VERTEX
  5
4C7
330
4C5
100
AcDbEntity
  8
001
 62
    40
370
    50
100
AcDbVertex
100
AcDb2dVertex
 10
242.138383
 20
125.884364
 30
0.0
  0
VERTEX
  5
4C8
330
4C5
100
AcDbEntity
  8
001
 62
    40
370
    50
100
AcDbVertex
100
AcDb2dVertex
 10
242.184189
 20
125.886168
 30
0.0
  0
VERTEX
  5
4C9
330
4C5
100
AcDbEntity
  8
001
 62
    40
370
    50
100
AcDbVertex
100
AcDb2dVertex
 10
242.246683
 20
125.891226
 30
0.0
  0
VERTEX
  5
4CA
330
4C5
100
AcDbEntity
  8
001
 62
    40
370
    50
100
AcDbVertex
100
AcDb2dVertex
 10
242.315726
 20
125.902035
 30
0.0
  0
VERTEX
  5
4CB
330
4C5
100
AcDbEntity
  8
001
 62
    40
370
    50
100
AcDbVertex
100
AcDb2dVertex
 10
242.381984
 20
125.921417
 30
0.0
  0
VERTEX
  5
4CC
330
4C5
100
AcDbEntity
  8
001
 62
    40
370
    50
100
AcDbVertex
100
AcDb2dVertex
 10
242.456187
 20
125.950381
 30
0.0
  0
VERTEX
  5
4CD
330
4C5
100
AcDbEntity
  8
001
 62
    40
370
    50
100
AcDbVertex
100
AcDb2dVertex
 10
242.509883
 20
125.974756
 30
0.0
  0
SEQEND
  5
4C6
330
4C5
100
AcDbEntity
  8
001
370
    50
  0
LINE
  5
4CE
330
1F
100
AcDbEntity
  8
001
 62
    40
370
    50
100
AcDbLine
 10
241.342339
 20
125.888522
 30
0.0
 11
242.138383
 21
125.884364
 31
0.0
  0
POLYLINE
  5
4CF
330
1F
100
AcDbEntity
  8
001
 62
    40
370
    50
100
AcDb2dPolyline
 66
     1
 10
0.0
 20
0.0
 30
0.0
  0
VERTEX
  5
4D1
330
4CF
100
AcDbEntity
  8
001
 62
    40
370
    50
100
AcDbVertex
100
AcDb2dVertex
 10
240.779451
 20
126.125456
 30
0.0
  0
VERTEX
  5
4D2
330
4CF
100
AcDbEntity
  8
001
 62
    40
370
    50
100
AcDbVertex
100
AcDb2dVertex
 10
240.835826
 20
126.076339
 30
0.0
  0
VERTEX
  5
4D3
330
4CF
100
AcDbEntity
  8
001
 62
    40
370
    50
100
AcDbVertex
100
AcDb2dVertex
 10
240.918371
 20
126.013471
 30
0.0
  0
VERTEX
  5
4D4
330
4CF
100
AcDbEntity
  8
001
 62
    40
370
    50
100
AcDbVertex
100
AcDb2dVertex
 10
241.100182
 20
125.919249
 30
0.0
  0
VERTEX
  5
4D5
330
4CF
100
AcDbEntity
  8
001
 62
    40
370
    50
100
AcDbVertex
100
AcDb2dVertex
 10
241.312046
 20
125.889259
 30
0.0
  0
VERTEX
  5
4D6
330
4CF
100
AcDbEntity
  8
001
 62
    40
370
    50
100
AcDbVertex
100
AcDb2dVertex
 10
241.329957
 20
125.888745
 30
0.0
  0
VERTEX
  5
4D7
330
4CF
100
AcDbEntity
  8
001
 62
    40
370
    50
100
AcDbVertex
100
AcDb2dVertex
 10
241.342339
 20
125.888522
 30
0.0
  0
SEQEND
  5
4D0
330
4CF
100
AcDbEntity
  8
001
370
    50
  0
LINE
  5
4D8
330
1F
100
AcDbEntity
  8
001
 62
    40
370
    50
100
AcDbLine
 10
235.999381
 20
130.947664
 30
0.0
 11
240.779451
 21
126.125456
 31
0.0
  0
POLYLINE
  5
4D9
330
1F
100
AcDbEntity
  8
001
 62
    40
370
    50
100
AcDb2dPolyline
 66
     1
 10
0.0
 20
0.0
 30
0.0
  0
VERTEX
  5
4DB
330
4D9
100
AcDbEntity
  8
001
 62
    40
370
    50
100
AcDbVertex
100
AcDb2dVertex
 10
235.766225
 20
131.513792
 30
0.0
  0
VERTEX
  5
4DC
330
4D9
100
AcDbEntity
  8
001
 62
    40
370
    50
100
AcDbVertex
100
AcDb2dVertex
 10
235.775588
 20
131.408896
 30
0.0
  0
VERTEX
  5
4DD
330
4D9
100
AcDbEntity
  8
001
 62
    40
370
    50
100
AcDbVertex
100
AcDb2dVertex
 10
235.804414
 20
131.269117
 30
0.0
  0
VERTEX
  5
4DE
330
4D9
100
AcDbEntity
  8
001
 62
    40
370
    50
100
AcDbVertex
100
AcDb2dVertex
 10
235.82921
 20
131.200738
 30
0.0
  0
VERTEX
  5
4DF
330
4D9
100
AcDbEntity
  8
001
 62
    40
370
    50
100
AcDbVertex
100
AcDb2dVertex
 10
235.858228
 20
131.140477
 30
0.0
  0
VERTEX
  5
4E0
330
4D9
100
AcDbEntity
  8
001
 62
    40
370
    50
100
AcDbVertex
100
AcDb2dVertex
 10
235.890881
 20
131.083118
 30
0.0
  0
VERTEX
  5
4E1
330
4D9
100
AcDbEntity
  8
001
 62
    40
370
    50
100
AcDbVertex
100
AcDb2dVertex
 10
235.933434
 20
131.023054
 30
0.0
  0
VERTEX
  5
4E2
330
4D9
100
AcDbEntity
  8
001
 62
    40
370
    50
100
AcDbVertex
100
AcDb2dVertex
 10
235.971009
 20
130.978435
 30
0.0
  0
VERTEX
  5
4E3
330
4D9
100
AcDbEntity
  8
001
 62
    40
370
    50
100
AcDbVertex
100
AcDb2dVertex
 10
235.999381
 20
130.947664
 30
0.0
  0
SEQEND
  5
4DA
330
4D9
100
AcDbEntity
  8
001
370
    50
  0
LINE
  5
4E4
330
1F
100
AcDbEntity
  8
001
 62
    40
370
    50
100
AcDbLine
 10
235.766225
 20
132.312696
 30
0.0
 11
235.766225
 21
131.513792
 31
0.0
  0
POLYLINE
  5
4E5
330
1F
100
AcDbEntity
  8
001
 62
    40
370
    50
100
AcDb2dPolyline
 66
     1
 10
0.0
 20
0.0
 30
0.0
  0
VERTEX
  5
4E7
330
4E5
100
AcDbEntity
  8
001
 62
    40
370
    50
100
AcDbVertex
100
AcDb2dVertex
 10
235.999381
 20
132.876388
 30
0.0
  0
VERTEX
  5
4E8
330
4E5
100
AcDbEntity
  8
001
 62
    40
370
    50
100
AcDbVertex
100
AcDb2dVertex
 10
235.988141
 20
132.864838
 30
0.0
  0
VERTEX
  5
4E9
330
4E5
100
AcDbEntity
  8
001
 62
    40
370
    50
100
AcDbVertex
100
AcDb2dVertex
 10
235.972378
 20
132.848061
 30
0.0
  0
VERTEX
  5
4EA
330
4E5
100
AcDbEntity
  8
001
 62
    40
370
    50
100
AcDbVertex
100
AcDb2dVertex
 10
235.924612
 20
132.790719
 30
0.0
  0
VERTEX
  5
4EB
330
4E5
100
AcDbEntity
  8
001
 62
    40
370
    50
100
AcDbVertex
100
AcDb2dVertex
 10
235.888521
 20
132.737548
 30
0.0
  0
VERTEX
  5
4EC
330
4E5
100
AcDbEntity
  8
001
 62
    40
370
    50
100
AcDbVertex
100
AcDb2dVertex
 10
235.805007
 20
132.564507
 30
0.0
  0
VERTEX
  5
4ED
330
4E5
100
AcDbEntity
  8
001
 62
    40
370
    50
100
AcDbVertex
100
AcDb2dVertex
 10
235.766802
 20
132.343094
 30
0.0
  0
VERTEX
  5
4EE
330
4E5
100
AcDbEntity
  8
001
 62
    40
370
    50
100
AcDbVertex
100
AcDb2dVertex
 10
235.76636
 20
132.325098
 30
0.0
  0
VERTEX
  5
4EF
330
4E5
100
AcDbEntity
  8
001
 62
    40
370
    50
100
AcDbVertex
100
AcDb2dVertex
 10
235.766225
 20
132.312696
 30
0.0
  0
SEQEND
  5
4E6
330
4E5
100
AcDbEntity
  8
001
370
    50
  0
LINE
  5
4F0
330
1F
100
AcDbEntity
  8
001
 62
    40
370
    50
100
AcDbLine
 10
240.779451
 20
137.648655
 30
0.0
 11
235.999381
 21
132.876388
 31
0.0
  0
POLYLINE
  5
4F1
330
1F
100
AcDbEntity
  8
001
 62
    40
370
    50
100
AcDb2dPolyline
 66
     1
 10
0.0
 20
0.0
 30
0.0
  0
VERTEX
  5
4F3
330
4F1
100
AcDbEntity
  8
001
 62
    40
370
    50
100
AcDbVertex
100
AcDb2dVertex
 10
241.342339
 20
137.879708
 30
0.0
  0
VERTEX
  5
4F4
330
4F1
100
AcDbEntity
  8
001
 62
    40
370
    50
100
AcDbVertex
100
AcDb2dVertex
 10
241.296533
 20
137.877904
 30
0.0
  0
VERTEX
  5
4F5
330
4F1
100
AcDbEntity
  8
001
 62
    40
370
    50
100
AcDbVertex
100
AcDb2dVertex
 10
241.23404
 20
137.872846
 30
0.0
  0
VERTEX
  5
4F6
330
4F1
100
AcDbEntity
  8
001
 62
    40
370
    50
100
AcDbVertex
100
AcDb2dVertex
 10
241.164997
 20
137.862037
 30
0.0
  0
VERTEX
  5
4F7
330
4F1
100
AcDbEntity
  8
001
 62
    40
370
    50
100
AcDbVertex
100
AcDb2dVertex
 10
241.098739
 20
137.842655
 30
0.0
  0
VERTEX
  5
4F8
330
4F1
100
AcDbEntity
  8
001
 62
    40
370
    50
100
AcDbVertex
100
AcDb2dVertex
 10
241.024535
 20
137.813691
 30
0.0
  0
VERTEX
  5
4F9
330
4F1
100
AcDbEntity
  8
001
 62
    40
370
    50
100
AcDbVertex
100
AcDb2dVertex
 10
240.970839
 20
137.789316
 30
0.0
  0
SEQEND
  5
4F2
330
4F1
100
AcDbEntity
  8
001
370
    50
  0
LINE
  5
4FA
330
1F
100
AcDbEntity
  8
001
 62
    40
370
    50
100
AcDbLine
 10
242.138383
 20
137.87555
 30
0.0
 11
241.342339
 21
137.879708
 31
0.0
  0
POLYLINE
  5
4FB
330
1F
100
AcDbEntity
  8
001
 62
    40
370
    50
100
AcDb2dPolyline
 66
     1
 10
0.0
 20
0.0
 30
0.0
  0
VERTEX
  5
4FD
330
4FB
100
AcDbEntity
  8
001
 62
    40
370
    50
100
AcDbVertex
100
AcDb2dVertex
 10
242.701272
 20
137.638616
 30
0.0
  0
VERTEX
  5
4FE
330
4FB
100
AcDbEntity
  8
001
 62
    40
370
    50
100
AcDbVertex
100
AcDb2dVertex
 10
242.644896
 20
137.687733
 30
0.0
  0
VERTEX
  5
4FF
330
4FB
100
AcDbEntity
  8
001
 62
    40
370
    50
100
AcDbVertex
100
AcDb2dVertex
 10
242.562352
 20
137.750601
 30
0.0
  0
VERTEX
  5
500
330
4FB
100
AcDbEntity
  8
001
 62
    40
370
    50
100
AcDbVertex
100
AcDb2dVertex
 10
242.380541
 20
137.844823
 30
0.0
  0
VERTEX
  5
501
330
4FB
100
AcDbEntity
  8
001
 62
    40
370
    50
100
AcDbVertex
100
AcDb2dVertex
 10
242.168676
 20
137.874813
 30
0.0
  0
VERTEX
  5
502
330
4FB
100
AcDbEntity
  8
001
 62
    40
370
    50
100
AcDbVertex
100
AcDb2dVertex
 10
242.150765
 20
137.875327
 30
0.0
  0
VERTEX
  5
503
330
4FB
100
AcDbEntity
  8
001
 62
    40
370
    50
100
AcDbVertex
100
AcDb2dVertex
 10
242.138383
 20
137.87555
 30
0.0
  0
SEQEND
  5
4FC
330
4FB
100
AcDbEntity
  8
001
370
    50
  0
LINE
  5
504
330
1F
100
AcDbEntity
  8
001
 62
    40
370
    50
100
AcDbLine
 10
247.481341
 20
132.816408
 30
0.0
 11
242.701272
 21
137.638616
 31
0.0
  0
POLYLINE
  5
505
330
1F
100
AcDbEntity
  8
001
 62
    40
370
    50
100
AcDb2dPolyline
 66
     1
 10
0.0
 20
0.0
 30
0.0
  0
VERTEX
  5
507
330
505
100
AcDbEntity
  8
001
 62
    40
370
    50
100
AcDbVertex
100
AcDb2dVertex
 10
243.635942
 20
131.872134
 30
0.0
  0
VERTEX
  5
508
330
505
100
AcDbEntity
  8
001
 62
    40
370
    50
100
AcDbVertex
100
AcDb2dVertex
 10
243.612957
 20
132.122589
 30
0.0
  0
VERTEX
  5
509
330
505
100
AcDbEntity
  8
001
 62
    40
370
    50
100
AcDbVertex
100
AcDb2dVertex
 10
243.545006
 20
132.454766
 30
0.0
  0
VERTEX
  5
50A
330
505
100
AcDbEntity
  8
001
 62
    40
370
    50
100
AcDbVertex
100
AcDb2dVertex
 10
243.487562
 20
132.616033
 30
0.0
  0
VERTEX
  5
50B
330
505
100
AcDbEntity
  8
001
 62
    40
370
    50
100
AcDbVertex
100
AcDb2dVertex
 10
243.41686
 20
132.761089
 30
0.0
  0
VERTEX
  5
50C
330
505
100
AcDbEntity
  8
001
 62
    40
370
    50
100
AcDbVertex
100
AcDb2dVertex
 10
243.333424
 20
132.90321
 30
0.0
  0
VERTEX
  5
50D
330
505
100
AcDbEntity
  8
001
 62
    40
370
    50
100
AcDbVertex
100
AcDb2dVertex
 10
243.237776
 20
133.040704
 30
0.0
  0
VERTEX
  5
50E
330
505
100
AcDbEntity
  8
001
 62
    40
370
    50
100
AcDbVertex
100
AcDb2dVertex
 10
243.013527
 20
133.285661
 30
0.0
  0
VERTEX
  5
50F
330
505
100
AcDbEntity
  8
001
 62
    40
370
    50
100
AcDbVertex
100
AcDb2dVertex
 10
242.749935
 20
133.48689
 30
0.0
  0
VERTEX
  5
510
330
505
100
AcDbEntity
  8
001
 62
    40
370
    50
100
AcDbVertex
100
AcDb2dVertex
 10
242.301589
 20
133.696157
 30
0.0
  0
VERTEX
  5
511
330
505
100
AcDbEntity
  8
001
 62
    40
370
    50
100
AcDbVertex
100
AcDb2dVertex
 10
241.812495
 20
133.782671
 30
0.0
  0
VERTEX
  5
512
330
505
100
AcDbEntity
  8
001
 62
    40
370
    50
100
AcDbVertex
100
AcDb2dVertex
 10
241.645139
 20
133.781744
 30
0.0
  0
VERTEX
  5
513
330
505
100
AcDbEntity
  8
001
 62
    40
370
    50
100
AcDbVertex
100
AcDb2dVertex
 10
241.482474
 20
133.768085
 30
0.0
  0
VERTEX
  5
514
330
505
100
AcDbEntity
  8
001
 62
    40
370
    50
100
AcDbVertex
100
AcDb2dVertex
 10
241.326123
 20
133.742467
 30
0.0
  0
VERTEX
  5
515
330
505
100
AcDbEntity
  8
001
 62
    40
370
    50
100
AcDbVertex
100
AcDb2dVertex
 10
241.160288
 20
133.696193
 30
0.0
  0
VERTEX
  5
516
330
505
100
AcDbEntity
  8
001
 62
    40
370
    50
100
AcDbVertex
100
AcDb2dVertex
 10
240.981981
 20
133.627197
 30
0.0
  0
VERTEX
  5
517
330
505
100
AcDbEntity
  8
001
 62
    40
370
    50
100
AcDbVertex
100
AcDb2dVertex
 10
240.855727
 20
133.569178
 30
0.0
  0
SEQEND
  5
506
330
505
100
AcDbEntity
  8
001
370
    50
  0
LINE
  5
518
330
1F
100
AcDbEntity
  8
001
 62
    40
370
    50
100
AcDbLine
 10
244.242049
 20
136.568482
 30
0.0
 11
243.017109
 21
137.804222
 31
0.0
  0
LINE
  5
519
330
1F
100
AcDbEntity
  8
001
 62
    40
370
    50
100
AcDbLine
 10
248.030334
 20
131.616982
 30
0.0
 11
248.030334
 21
132.311514
 31
0.0
  0
POLYLINE
  5
51A
330
1F
100
AcDbEntity
  8
001
 62
    40
370
    50
100
AcDb2dPolyline
 66
     1
 10
0.0
 20
0.0
 30
0.0
  0
VERTEX
  5
51C
330
51A
100
AcDbEntity
  8
001
 62
    40
370
    50
100
AcDbVertex
100
AcDb2dVertex
 10
247.797178
 20
131.05329
 30
0.0
  0
VERTEX
  5
51D
330
51A
100
AcDbEntity
  8
001
 62
    40
370
    50
100
AcDbVertex
100
AcDb2dVertex
 10
247.808418
 20
131.064839
 30
0.0
  0
VERTEX
  5
51E
330
51A
100
AcDbEntity
  8
001
 62
    40
370
    50
100
AcDbVertex
100
AcDb2dVertex
 10
247.824181
 20
131.081617
 30
0.0
  0
VERTEX
  5
51F
330
51A
100
AcDbEntity
  8
001
 62
    40
370
    50
100
AcDbVertex
100
AcDb2dVertex
 10
247.871947
 20
131.138959
 30
0.0
  0
VERTEX
  5
520
330
51A
100
AcDbEntity
  8
001
 62
    40
370
    50
100
AcDbVertex
100
AcDb2dVertex
 10
247.908038
 20
131.19213
 30
0.0
  0
VERTEX
  5
521
330
51A
100
AcDbEntity
  8
001
 62
    40
370
    50
100
AcDbVertex
100
AcDb2dVertex
 10
247.991552
 20
131.365171
 30
0.0
  0
VERTEX
  5
522
330
51A
100
AcDbEntity
  8
001
 62
    40
370
    50
100
AcDbVertex
100
AcDb2dVertex
 10
248.029757
 20
131.586583
 30
0.0
  0
VERTEX
  5
523
330
51A
100
AcDbEntity
  8
001
 62
    40
370
    50
100
AcDbVertex
100
AcDb2dVertex
 10
248.030199
 20
131.60458
 30
0.0
  0
VERTEX
  5
524
330
51A
100
AcDbEntity
  8
001
 62
    40
370
    50
100
AcDbVertex
100
AcDb2dVertex
 10
248.030334
 20
131.616982
 30
0.0
  0
SEQEND
  5
51B
330
51A
100
AcDbEntity
  8
001
370
    50
  0
POLYLINE
  5
525
330
1F
100
AcDbEntity
  8
001
 62
    40
370
    50
100
AcDb2dPolyline
 66
     1
 10
0.0
 20
0.0
 30
0.0
  0
VERTEX
  5
527
330
525
100
AcDbEntity
  8
001
 62
    40
370
    50
100
AcDbVertex
100
AcDb2dVertex
 10
243.017109
 20
137.804222
 30
0.0
  0
VERTEX
  5
528
330
525
100
AcDbEntity
  8
001
 62
    40
370
    50
100
AcDbVertex
100
AcDb2dVertex
 10
242.960733
 20
137.853339
 30
0.0
  0
VERTEX
  5
529
330
525
100
AcDbEntity
  8
001
 62
    40
370
    50
100
AcDbVertex
100
AcDb2dVertex
 10
242.878188
 20
137.916206
 30
0.0
  0
VERTEX
  5
52A
330
525
100
AcDbEntity
  8
001
 62
    40
370
    50
100
AcDbVertex
100
AcDb2dVertex
 10
242.696377
 20
138.010428
 30
0.0
  0
VERTEX
  5
52B
330
525
100
AcDbEntity
  8
001
 62
    40
370
    50
100
AcDbVertex
100
AcDb2dVertex
 10
242.484513
 20
138.040419
 30
0.0
  0
VERTEX
  5
52C
330
525
100
AcDbEntity
  8
001
 62
    40
370
    50
100
AcDbVertex
100
AcDb2dVertex
 10
242.466602
 20
138.040932
 30
0.0
  0
VERTEX
  5
52D
330
525
100
AcDbEntity
  8
001
 62
    40
370
    50
100
AcDbVertex
100
AcDb2dVertex
 10
242.45422
 20
138.041156
 30
0.0
  0
SEQEND
  5
526
330
525
100
AcDbEntity
  8
001
370
    50
  0
LINE
  5
52E
330
1F
100
AcDbEntity
  8
001
 62
    40
370
    50
100
AcDbLine
 10
242.45422
 20
138.041156
 30
0.0
 11
241.658176
 21
138.045314
 31
0.0
  0
POLYLINE
  5
52F
330
1F
100
AcDbEntity
  8
001
 62
    40
370
    50
100
AcDb2dPolyline
 66
     1
 10
0.0
 20
0.0
 30
0.0
  0
VERTEX
  5
531
330
52F
100
AcDbEntity
  8
001
 62
    40
370
    50
100
AcDbVertex
100
AcDb2dVertex
 10
240.970839
 20
137.789316
 30
0.0
  0
VERTEX
  5
532
330
52F
100
AcDbEntity
  8
001
 62
    40
370
    50
100
AcDbVertex
100
AcDb2dVertex
 10
240.921969
 20
137.761096
 30
0.0
  0
VERTEX
  5
533
330
52F
100
AcDbEntity
  8
001
 62
    40
370
    50
100
AcDbVertex
100
AcDb2dVertex
 10
240.854228
 20
137.714449
 30
0.0
  0
VERTEX
  5
534
330
52F
100
AcDbEntity
  8
001
 62
    40
370
    50
100
AcDbVertex
100
AcDb2dVertex
 10
240.808949
 20
137.676437
 30
0.0
  0
VERTEX
  5
535
330
52F
100
AcDbEntity
  8
001
 62
    40
370
    50
100
AcDbVertex
100
AcDb2dVertex
 10
240.779451
 20
137.648655
 30
0.0
  0
SEQEND
  5
530
330
52F
100
AcDbEntity
  8
001
370
    50
  0
LINE
  5
536
330
1F
100
AcDbEntity
  8
001
 62
    40
370
    50
100
AcDbLine
 10
241.286676
 20
137.954921
 30
0.0
 11
240.970839
 21
137.789316
 31
0.0
  0
POLYLINE
  5
537
330
1F
100
AcDbEntity
  8
001
 62
    40
370
    50
100
AcDb2dPolyline
 66
     1
 10
0.0
 20
0.0
 30
0.0
  0
VERTEX
  5
539
330
537
100
AcDbEntity
  8
001
 62
    40
370
    50
100
AcDbVertex
100
AcDb2dVertex
 10
241.658176
 20
138.045314
 30
0.0
  0
VERTEX
  5
53A
330
537
100
AcDbEntity
  8
001
 62
    40
370
    50
100
AcDbVertex
100
AcDb2dVertex
 10
241.61237
 20
138.04351
 30
0.0
  0
VERTEX
  5
53B
330
537
100
AcDbEntity
  8
001
 62
    40
370
    50
100
AcDbVertex
100
AcDb2dVertex
 10
241.549877
 20
138.038452
 30
0.0
  0
VERTEX
  5
53C
330
537
100
AcDbEntity
  8
001
 62
    40
370
    50
100
AcDbVertex
100
AcDb2dVertex
 10
241.480834
 20
138.027642
 30
0.0
  0
VERTEX
  5
53D
330
537
100
AcDbEntity
  8
001
 62
    40
370
    50
100
AcDbVertex
100
AcDb2dVertex
 10
241.414575
 20
138.008261
 30
0.0
  0
VERTEX
  5
53E
330
537
100
AcDbEntity
  8
001
 62
    40
370
    50
100
AcDbVertex
100
AcDb2dVertex
 10
241.340372
 20
137.979296
 30
0.0
  0
VERTEX
  5
53F
330
537
100
AcDbEntity
  8
001
 62
    40
370
    50
100
AcDbVertex
100
AcDb2dVertex
 10
241.286676
 20
137.954921
 30
0.0
  0
SEQEND
  5
538
330
537
100
AcDbEntity
  8
001
370
    50
  0
POLYLINE
  5
540
330
1F
100
AcDbEntity
  8
001
 62
    40
370
    50
100
AcDb2dPolyline
 66
     1
 10
0.0
 20
0.0
 30
0.0
  0
VERTEX
  5
542
330
540
100
AcDbEntity
  8
001
 62
    40
370
    50
100
AcDbVertex
100
AcDb2dVertex
 10
241.017579
 20
133.644479
 30
0.0
  0
VERTEX
  5
543
330
540
100
AcDbEntity
  8
001
 62
    40
370
    50
100
AcDbVertex
100
AcDb2dVertex
 10
240.965645
 20
133.608789
 30
0.0
  0
VERTEX
  5
544
330
540
100
AcDbEntity
  8
001
 62
    40
370
    50
100
AcDbVertex
100
AcDb2dVertex
 10
240.893883
 20
133.556506
 30
0.0
  0
VERTEX
  5
545
330
540
100
AcDbEntity
  8
001
 62
    40
370
    50
100
AcDbVertex
100
AcDb2dVertex
 10
240.759912
 20
133.444585
 30
0.0
  0
VERTEX
  5
546
330
540
100
AcDbEntity
  8
001
 62
    40
370
    50
100
AcDbVertex
100
AcDb2dVertex
 10
240.651518
 20
133.332382
 30
0.0
  0
VERTEX
  5
547
330
540
100
AcDbEntity
  8
001
 62
    40
370
    50
100
AcDbVertex
100
AcDb2dVertex
 10
240.548268
 20
133.206892
 30
0.0
  0
VERTEX
  5
548
330
540
100
AcDbEntity
  8
001
 62
    40
370
    50
100
AcDbVertex
100
AcDb2dVertex
 10
240.451833
 20
133.069223
 30
0.0
  0
VERTEX
  5
549
330
540
100
AcDbEntity
  8
001
 62
    40
370
    50
100
AcDbVertex
100
AcDb2dVertex
 10
240.244022
 20
132.617407
 30
0.0
  0
VERTEX
  5
54A
330
540
100
AcDbEntity
  8
001
 62
    40
370
    50
100
AcDbVertex
100
AcDb2dVertex
 10
240.16199
 20
132.12993
 30
0.0
  0
VERTEX
  5
54B
330
540
100
AcDbEntity
  8
001
 62
    40
370
    50
100
AcDbVertex
100
AcDb2dVertex
 10
240.178516
 20
131.798162
 30
0.0
  0
VERTEX
  5
54C
330
540
100
AcDbEntity
  8
001
 62
    40
370
    50
100
AcDbVertex
100
AcDb2dVertex
 10
240.251553
 20
131.474912
 30
0.0
  0
VERTEX
  5
54D
330
540
100
AcDbEntity
  8
001
 62
    40
370
    50
100
AcDbVertex
100
AcDb2dVertex
 10
240.308988
 20
131.318909
 30
0.0
  0
VERTEX
  5
54E
330
540
100
AcDbEntity
  8
001
 62
    40
370
    50
100
AcDbVertex
100
AcDb2dVertex
 10
240.379699
 20
131.168588
 30
0.0
  0
VERTEX
  5
54F
330
540
100
AcDbEntity
  8
001
 62
    40
370
    50
100
AcDbVertex
100
AcDb2dVertex
 10
240.463129
 20
131.024937
 30
0.0
  0
VERTEX
  5
550
330
540
100
AcDbEntity
  8
001
 62
    40
370
    50
100
AcDbVertex
100
AcDb2dVertex
 10
240.558784
 20
130.888974
 30
0.0
  0
VERTEX
  5
551
330
540
100
AcDbEntity
  8
001
 62
    40
370
    50
100
AcDbVertex
100
AcDb2dVertex
 10
240.783131
 20
130.645062
 30
0.0
  0
VERTEX
  5
552
330
540
100
AcDbEntity
  8
001
 62
    40
370
    50
100
AcDbVertex
100
AcDb2dVertex
 10
241.046624
 20
130.442788
 30
0.0
  0
VERTEX
  5
553
330
540
100
AcDbEntity
  8
001
 62
    40
370
    50
100
AcDbVertex
100
AcDb2dVertex
 10
241.494244
 20
130.233028
 30
0.0
  0
VERTEX
  5
554
330
540
100
AcDbEntity
  8
001
 62
    40
370
    50
100
AcDbVertex
100
AcDb2dVertex
 10
241.984064
 20
130.147007
 30
0.0
  0
VERTEX
  5
555
330
540
100
AcDbEntity
  8
001
 62
    40
370
    50
100
AcDbVertex
100
AcDb2dVertex
 10
242.152145
 20
130.148034
 30
0.0
  0
VERTEX
  5
556
330
540
100
AcDbEntity
  8
001
 62
    40
370
    50
100
AcDbVertex
100
AcDb2dVertex
 10
242.314085
 20
130.161593
 30
0.0
  0
VERTEX
  5
557
330
540
100
AcDbEntity
  8
001
 62
    40
370
    50
100
AcDbVertex
100
AcDb2dVertex
 10
242.468021
 20
130.18694
 30
0.0
  0
VERTEX
  5
558
330
540
100
AcDbEntity
  8
001
 62
    40
370
    50
100
AcDbVertex
100
AcDb2dVertex
 10
242.636271
 20
130.233485
 30
0.0
  0
VERTEX
  5
559
330
540
100
AcDbEntity
  8
001
 62
    40
370
    50
100
AcDbVertex
100
AcDb2dVertex
 10
242.720088
 20
130.262778
 30
0.0
  0
VERTEX
  5
55A
330
540
100
AcDbEntity
  8
001
 62
    40
370
    50
100
AcDbVertex
100
AcDb2dVertex
 10
242.77898
 20
130.285198
 30
0.0
  0
SEQEND
  5
541
330
540
100
AcDbEntity
  8
001
370
    50
  0
POLYLINE
  5
55B
330
1F
100
AcDbEntity
  8
001
 62
    40
370
    50
100
AcDb2dPolyline
 66
     1
 10
0.0
 20
0.0
 30
0.0
  0
VERTEX
  5
55D
330
55B
100
AcDbEntity
  8
001
 62
    40
370
    50
100
AcDbVertex
100
AcDb2dVertex
 10
242.624995
 20
130.194894
 30
0.0
  0
VERTEX
  5
55E
330
55B
100
AcDbEntity
  8
001
 62
    40
370
    50
100
AcDbVertex
100
AcDb2dVertex
 10
242.744518
 20
130.265834
 30
0.0
  0
VERTEX
  5
55F
330
55B
100
AcDbEntity
  8
001
 62
    40
370
    50
100
AcDbVertex
100
AcDb2dVertex
 10
242.902676
 20
130.373172
 30
0.0
  0
VERTEX
  5
560
330
55B
100
AcDbEntity
  8
001
 62
    40
370
    50
100
AcDbVertex
100
AcDb2dVertex
 10
243.035055
 20
130.482821
 30
0.0
  0
VERTEX
  5
561
330
55B
100
AcDbEntity
  8
001
 62
    40
370
    50
100
AcDbVertex
100
AcDb2dVertex
 10
243.145042
 20
130.597295
 30
0.0
  0
VERTEX
  5
562
330
55B
100
AcDbEntity
  8
001
 62
    40
370
    50
100
AcDbVertex
100
AcDb2dVertex
 10
243.248771
 20
130.724995
 30
0.0
  0
VERTEX
  5
563
330
55B
100
AcDbEntity
  8
001
 62
    40
370
    50
100
AcDbVertex
100
AcDb2dVertex
 10
243.344726
 20
130.860455
 30
0.0
  0
VERTEX
  5
564
330
55B
100
AcDbEntity
  8
001
 62
    40
370
    50
100
AcDbVertex
100
AcDb2dVertex
 10
243.552012
 20
131.279946
 30
0.0
  0
VERTEX
  5
565
330
55B
100
AcDbEntity
  8
001
 62
    40
370
    50
100
AcDbVertex
100
AcDb2dVertex
 10
243.634569
 20
131.799748
 30
0.0
  0
VERTEX
  5
566
330
55B
100
AcDbEntity
  8
001
 62
    40
370
    50
100
AcDbVertex
100
AcDb2dVertex
 10
243.635601
 20
131.842583
 30
0.0
  0
VERTEX
  5
567
330
55B
100
AcDbEntity
  8
001
 62
    40
370
    50
100
AcDbVertex
100
AcDb2dVertex
 10
243.635942
 20
131.872134
 30
0.0
  0
SEQEND
  5
55C
330
55B
100
AcDbEntity
  8
001
370
    50
  0
POLYLINE
  5
568
330
1F
100
AcDbEntity
  8
001
 62
    40
370
    50
100
AcDb2dPolyline
 66
     1
 10
0.0
 20
0.0
 30
0.0
  0
VERTEX
  5
56A
330
568
100
AcDbEntity
  8
001
 62
    40
370
    50
100
AcDbVertex
100
AcDb2dVertex
 10
240.855727
 20
133.569178
 30
0.0
  0
VERTEX
  5
56B
330
568
100
AcDbEntity
  8
001
 62
    40
370
    50
100
AcDbVertex
100
AcDb2dVertex
 10
240.736204
 20
133.498325
 30
0.0
  0
VERTEX
  5
56C
330
568
100
AcDbEntity
  8
001
 62
    40
370
    50
100
AcDbVertex
100
AcDb2dVertex
 10
240.578046
 20
133.390901
 30
0.0
  0
VERTEX
  5
56D
330
568
100
AcDbEntity
  8
001
 62
    40
370
    50
100
AcDbVertex
100
AcDb2dVertex
 10
240.445666
 20
133.280815
 30
0.0
  0
VERTEX
  5
56E
330
568
100
AcDbEntity
  8
001
 62
    40
370
    50
100
AcDbVertex
100
AcDb2dVertex
 10
240.335681
 20
133.166777
 30
0.0
  0
VERTEX
  5
56F
330
568
100
AcDbEntity
  8
001
 62
    40
370
    50
100
AcDbVertex
100
AcDb2dVertex
 10
240.231954
 20
133.040735
 30
0.0
  0
VERTEX
  5
570
330
568
100
AcDbEntity
  8
001
 62
    40
370
    50
100
AcDbVertex
100
AcDb2dVertex
 10
240.135996
 20
132.903617
 30
0.0
  0
VERTEX
  5
571
330
568
100
AcDbEntity
  8
001
 62
    40
370
    50
100
AcDbVertex
100
AcDb2dVertex
 10
239.928664
 20
132.452354
 30
0.0
  0
VERTEX
  5
572
330
568
100
AcDbEntity
  8
001
 62
    40
370
    50
100
AcDbVertex
100
AcDb2dVertex
 10
239.846153
 20
131.964324
 30
0.0
  0
VERTEX
  5
573
330
568
100
AcDbEntity
  8
001
 62
    40
370
    50
100
AcDbVertex
100
AcDb2dVertex
 10
239.862615
 20
131.63248
 30
0.0
  0
VERTEX
  5
574
330
568
100
AcDbEntity
  8
001
 62
    40
370
    50
100
AcDbVertex
100
AcDb2dVertex
 10
239.935717
 20
131.309307
 30
0.0
  0
VERTEX
  5
575
330
568
100
AcDbEntity
  8
001
 62
    40
370
    50
100
AcDbVertex
100
AcDb2dVertex
 10
239.993155
 20
131.153311
 30
0.0
  0
VERTEX
  5
576
330
568
100
AcDbEntity
  8
001
 62
    40
370
    50
100
AcDbVertex
100
AcDb2dVertex
 10
240.063862
 20
131.002983
 30
0.0
  0
VERTEX
  5
577
330
568
100
AcDbEntity
  8
001
 62
    40
370
    50
100
AcDbVertex
100
AcDb2dVertex
 10
240.1473
 20
130.85933
 30
0.0
  0
VERTEX
  5
578
330
568
100
AcDbEntity
  8
001
 62
    40
370
    50
100
AcDbVertex
100
AcDb2dVertex
 10
240.242947
 20
130.723368
 30
0.0
  0
VERTEX
  5
579
330
568
100
AcDbEntity
  8
001
 62
    40
370
    50
100
AcDbVertex
100
AcDb2dVertex
 10
240.467194
 20
130.479447
 30
0.0
  0
VERTEX
  5
57A
330
568
100
AcDbEntity
  8
001
 62
    40
370
    50
100
AcDbVertex
100
AcDb2dVertex
 10
240.730787
 20
130.277182
 30
0.0
  0
VERTEX
  5
57B
330
568
100
AcDbEntity
  8
001
 62
    40
370
    50
100
AcDbVertex
100
AcDb2dVertex
 10
241.179134
 20
130.067502
 30
0.0
  0
VERTEX
  5
57C
330
568
100
AcDbEntity
  8
001
 62
    40
370
    50
100
AcDbVertex
100
AcDb2dVertex
 10
241.668227
 20
129.981402
 30
0.0
  0
VERTEX
  5
57D
330
568
100
AcDbEntity
  8
001
 62
    40
370
    50
100
AcDbVertex
100
AcDb2dVertex
 10
241.835583
 20
129.982349
 30
0.0
  0
VERTEX
  5
57E
330
568
100
AcDbEntity
  8
001
 62
    40
370
    50
100
AcDbVertex
100
AcDb2dVertex
 10
241.998248
 20
129.995987
 30
0.0
  0
VERTEX
  5
57F
330
568
100
AcDbEntity
  8
001
 62
    40
370
    50
100
AcDbVertex
100
AcDb2dVertex
 10
242.154599
 20
130.021599
 30
0.0
  0
VERTEX
  5
580
330
568
100
AcDbEntity
  8
001
 62
    40
370
    50
100
AcDbVertex
100
AcDb2dVertex
 10
242.320434
 20
130.06788
 30
0.0
  0
VERTEX
  5
581
330
568
100
AcDbEntity
  8
001
 62
    40
370
    50
100
AcDbVertex
100
AcDb2dVertex
 10
242.498742
 20
130.136877
 30
0.0
  0
VERTEX
  5
582
330
568
100
AcDbEntity
  8
001
 62
    40
370
    50
100
AcDbVertex
100
AcDb2dVertex
 10
242.624995
 20
130.194894
 30
0.0
  0
SEQEND
  5
569
330
568
100
AcDbEntity
  8
001
370
    50
  0
POLYLINE
  5
583
330
1F
100
AcDbEntity
  8
001
 62
    40
370
    50
100
AcDb2dPolyline
 66
     1
 10
0.0
 20
0.0
 30
0.0
  0
VERTEX
  5
585
330
583
100
AcDbEntity
  8
001
 62
    40
370
    50
100
AcDbVertex
100
AcDb2dVertex
 10
242.82572
 20
126.140362
 30
0.0
  0
VERTEX
  5
586
330
583
100
AcDbEntity
  8
001
 62
    40
370
    50
100
AcDbVertex
100
AcDb2dVertex
 10
242.874581
 20
126.168575
 30
0.0
  0
VERTEX
  5
587
330
583
100
AcDbEntity
  8
001
 62
    40
370
    50
100
AcDbVertex
100
AcDb2dVertex
 10
242.942332
 20
126.215229
 30
0.0
  0
VERTEX
  5
588
330
583
100
AcDbEntity
  8
001
 62
    40
370
    50
100
AcDbVertex
100
AcDb2dVertex
 10
242.96584
 20
126.234196
 30
0.0
  0
VERTEX
  5
589
330
583
100
AcDbEntity
  8
001
 62
    40
370
    50
100
AcDbVertex
100
AcDb2dVertex
 10
242.98155
 20
126.247646
 30
0.0
  0
SEQEND
  5
584
330
583
100
AcDbEntity
  8
001
370
    50
  0
POLYLINE
  5
58A
330
1F
100
AcDbEntity
  8
001
 62
    40
370
    50
100
AcDb2dPolyline
 66
     1
 10
0.0
 20
0.0
 30
0.0
  0
VERTEX
  5
58C
330
58A
100
AcDbEntity
  8
001
 62
    40
370
    50
100
AcDbVertex
100
AcDb2dVertex
 10
242.98155
 20
126.247646
 30
0.0
  0
VERTEX
  5
58D
330
58A
100
AcDbEntity
  8
001
 62
    40
370
    50
100
AcDbVertex
100
AcDb2dVertex
 10
242.988933
 20
126.254253
 30
0.0
  0
VERTEX
  5
58E
330
58A
100
AcDbEntity
  8
001
 62
    40
370
    50
100
AcDbVertex
100
AcDb2dVertex
 10
242.999586
 20
126.264059
 30
0.0
  0
VERTEX
  5
58F
330
58A
100
AcDbEntity
  8
001
 62
    40
370
    50
100
AcDbVertex
100
AcDb2dVertex
 10
243.010047
 20
126.274071
 30
0.0
  0
VERTEX
  5
590
330
58A
100
AcDbEntity
  8
001
 62
    40
370
    50
100
AcDbVertex
100
AcDb2dVertex
 10
243.017109
 20
126.281022
 30
0.0
  0
SEQEND
  5
58B
330
58A
100
AcDbEntity
  8
001
370
    50
  0
POLYLINE
  5
591
330
1F
100
AcDbEntity
  8
001
 62
    40
370
    50
100
AcDb2dPolyline
 66
     1
 10
0.0
 20
0.0
 30
0.0
  0
VERTEX
  5
593
330
591
100
AcDbEntity
  8
001
 62
    40
370
    50
100
AcDbVertex
100
AcDb2dVertex
 10
242.509883
 20
125.974756
 30
0.0
  0
VERTEX
  5
594
330
591
100
AcDbEntity
  8
001
 62
    40
370
    50
100
AcDbVertex
100
AcDb2dVertex
 10
242.558753
 20
126.002977
 30
0.0
  0
VERTEX
  5
595
330
591
100
AcDbEntity
  8
001
 62
    40
370
    50
100
AcDbVertex
100
AcDb2dVertex
 10
242.626495
 20
126.049623
 30
0.0
  0
VERTEX
  5
596
330
591
100
AcDbEntity
  8
001
 62
    40
370
    50
100
AcDbVertex
100
AcDb2dVertex
 10
242.671773
 20
126.087635
 30
0.0
  0
VERTEX
  5
597
330
591
100
AcDbEntity
  8
001
 62
    40
370
    50
100
AcDbVertex
100
AcDb2dVertex
 10
242.701272
 20
126.115417
 30
0.0
  0
SEQEND
  5
592
330
591
100
AcDbEntity
  8
001
370
    50
  0
LINE
  5
598
330
1F
100
AcDbEntity
  8
001
 62
    40
370
    50
100
AcDbLine
 10
242.509883
 20
125.974756
 30
0.0
 11
242.82572
 21
126.140362
 31
0.0
  0
LINE
  5
599
330
1F
100
AcDbEntity
  8
001
 62
   253
370
    50
100
AcDbLine
 10
239.266225
 20
170.333801
 30
0.0
 11
239.266225
 21
206.703491
 31
0.0
  0
POLYLINE
  5
59A
330
1F
100
AcDbEntity
  8
001
 62
   253
370
    50
100
AcDb2dPolyline
 66
     1
 10
0.0
 20
0.0
 30
0.0
  0
VERTEX
  5
59C
330
59A
100
AcDbEntity
  8
001
 62
   253
370
    50
100
AcDbVertex
100
AcDb2dVertex
 10
239.266225
 20
206.703491
 30
0.0
  0
VERTEX
  5
59D
330
59A
100
AcDbEntity
  8
001
 62
   253
370
    50
100
AcDbVertex
100
AcDb2dVertex
 10
239.26921
 20
206.713795
 30
0.0
  0
VERTEX
  5
59E
330
59A
100
AcDbEntity
  8
001
 62
   253
370
    50
100
AcDbVertex
100
AcDb2dVertex
 10
239.272923
 20
206.723556
 30
0.0
  0
VERTEX
  5
59F
330
59A
100
AcDbEntity
  8
001
 62
   253
370
    50
100
AcDbVertex
100
AcDb2dVertex
 10
239.311281
 20
206.759426
 30
0.0
  0
VERTEX
  5
5A0
330
59A
100
AcDbEntity
  8
001
 62
   253
370
    50
100
AcDbVertex
100
AcDb2dVertex
 10
239.367171
 20
206.779525
 30
0.0
  0
VERTEX
  5
5A1
330
59A
100
AcDbEntity
  8
001
 62
   253
370
    50
100
AcDbVertex
100
AcDb2dVertex
 10
239.467308
 20
206.806463
 30
0.0
  0
VERTEX
  5
5A2
330
59A
100
AcDbEntity
  8
001
 62
   253
370
    50
100
AcDbVertex
100
AcDb2dVertex
 10
239.562794
 20
206.826922
 30
0.0
  0
VERTEX
  5
5A3
330
59A
100
AcDbEntity
  8
001
 62
   253
370
    50
100
AcDbVertex
100
AcDb2dVertex
 10
239.698541
 20
206.846966
 30
0.0
  0
VERTEX
  5
5A4
330
59A
100
AcDbEntity
  8
001
 62
   253
370
    50
100
AcDbVertex
100
AcDb2dVertex
 10
239.837727
 20
206.860399
 30
0.0
  0
VERTEX
  5
5A5
330
59A
100
AcDbEntity
  8
001
 62
   253
370
    50
100
AcDbVertex
100
AcDb2dVertex
 10
239.999621
 20
206.870878
 30
0.0
  0
VERTEX
  5
5A6
330
59A
100
AcDbEntity
  8
001
 62
   253
370
    50
100
AcDbVertex
100
AcDb2dVertex
 10
240.160958
 20
206.876185
 30
0.0
  0
VERTEX
  5
5A7
330
59A
100
AcDbEntity
  8
001
 62
   253
370
    50
100
AcDbVertex
100
AcDb2dVertex
 10
240.213565
 20
206.87681
 30
0.0
  0
VERTEX
  5
5A8
330
59A
100
AcDbEntity
  8
001
 62
   253
370
    50
100
AcDbVertex
100
AcDb2dVertex
 10
240.266225
 20
206.87715
 30
0.0
  0
SEQEND
  5
59B
330
59A
100
AcDbEntity
  8
001
370
    50
  0
POLYLINE
  5
5A9
330
1F
100
AcDbEntity
  8
001
 62
   253
370
    50
100
AcDb2dPolyline
 66
     1
 10
0.0
 20
0.0
 30
0.0
  0
VERTEX
  5
5AB
330
5A9
100
AcDbEntity
  8
001
 62
   253
370
    50
100
AcDbVertex
100
AcDb2dVertex
 10
240.266225
 20
169.909535
 30
0.0
  0
VERTEX
  5
5AC
330
5A9
100
AcDbEntity
  8
001
 62
   253
370
    50
100
AcDbVertex
100
AcDb2dVertex
 10
240.100994
 20
169.917368
 30
0.0
  0
VERTEX
  5
5AD
330
5A9
100
AcDbEntity
  8
001
 62
   253
370
    50
100
AcDbVertex
100
AcDb2dVertex
 10
239.93636
 20
169.93328
 30
0.0
  0
VERTEX
  5
5AE
330
5A9
100
AcDbEntity
  8
001
 62
   253
370
    50
100
AcDbVertex
100
AcDb2dVertex
 10
239.788037
 20
169.960637
 30
0.0
  0
VERTEX
  5
5AF
330
5A9
100
AcDbEntity
  8
001
 62
   253
370
    50
100
AcDbVertex
100
AcDb2dVertex
 10
239.64349
 20
170.001836
 30
0.0
  0
VERTEX
  5
5B0
330
5A9
100
AcDbEntity
  8
001
 62
   253
370
    50
100
AcDbVertex
100
AcDb2dVertex
 10
239.529377
 20
170.047212
 30
0.0
  0
VERTEX
  5
5B1
330
5A9
100
AcDbEntity
  8
001
 62
   253
370
    50
100
AcDbVertex
100
AcDb2dVertex
 10
239.420215
 20
170.107589
 30
0.0
  0
VERTEX
  5
5B2
330
5A9
100
AcDbEntity
  8
001
 62
   253
370
    50
100
AcDbVertex
100
AcDb2dVertex
 10
239.345398
 20
170.16574
 30
0.0
  0
VERTEX
  5
5B3
330
5A9
100
AcDbEntity
  8
001
 62
   253
370
    50
100
AcDbVertex
100
AcDb2dVertex
 10
239.291495
 20
170.239022
 30
0.0
  0
VERTEX
  5
5B4
330
5A9
100
AcDbEntity
  8
001
 62
   253
370
    50
100
AcDbVertex
100
AcDb2dVertex
 10
239.276103
 20
170.285062
 30
0.0
  0
VERTEX
  5
5B5
330
5A9
100
AcDbEntity
  8
001
 62
   253
370
    50
100
AcDbVertex
100
AcDb2dVertex
 10
239.266225
 20
170.333801
 30
0.0
  0
SEQEND
  5
5AA
330
5A9
100
AcDbEntity
  8
001
370
    50
  0
LINE
  5
5B6
330
1F
100
AcDbEntity
  8
001
 62
   253
370
    50
100
AcDbLine
 10
263.266225
 20
250.913244
 30
0.0
 11
254.266225
 21
250.913244
 31
0.0
  0
LINE
  5
5B7
330
1F
100
AcDbEntity
  8
001
 62
   253
370
    50
100
AcDbLine
 10
240.266225
 20
142.913244
 30
0.0
 11
263.266225
 21
142.913244
 31
0.0
  0
LINE
  5
5B8
330
1F
100
AcDbEntity
  8
001
 62
   253
370
    50
100
AcDbLine
 10
254.266225
 20
169.909535
 30
0.0
 11
240.266225
 21
169.909535
 31
0.0
  0
LINE
  5
5B9
330
1F
100
AcDbEntity
  8
001
 62
   253
370
    50
100
AcDbLine
 10
240.266225
 20
206.87715
 30
0.0
 11
254.266225
 21
206.87715
 31
0.0
  0
LINE
  5
5BA
330
1F
100
AcDbEntity
  8
001
 62
   253
370
    50
100
AcDbLine
 10
240.266225
 20
247.857578
 30
0.0
 11
254.266225
 21
247.857578
 31
0.0
  0
ARC
  5
5BB
330
1F
100
AcDbEntity
  8
001
 62
   253
370
    50
100
AcDbCircle
 10
263.266225
 20
249.913244
 30
0.0
 40
0.9999999999999929
100
AcDbArc
 50
0.0
 51
90.0
  0
ARC
  5
5BC
330
1F
100
AcDbEntity
  8
001
 62
   253
370
    50
100
AcDbCircle
 10
263.266225
 20
143.913244
 30
0.0
 40
0.9999999999999929
100
AcDbArc
 50
270.0
 51
0.0
  0
LINE
  5
5BD
330
1F
100
AcDbEntity
  8
001
 62
   253
370
    50
100
AcDbLine
 10
264.266225
 20
143.913244
 30
0.0
 11
264.266225
 21
249.913244
 31
0.0
  0
ARC
  5
5BE
330
1F
100
AcDbEntity
  8
001
 62
   253
370
    50
100
AcDbCircle
 10
272.266225
 20
249.913244
 30
0.0
 40
8.000000000000007
100
AcDbArc
 50
180.0
 51
270.0
  0
ARC
  5
5BF
330
1F
100
AcDbEntity
  8
001
 62
   253
370
    50
100
AcDbCircle
 10
272.266225
 20
143.913244
 30
0.0
 40
8.000000000000007
100
AcDbArc
 50
90.0
 51
180.0
  0
POLYLINE
  5
5C0
330
1F
100
AcDbEntity
  8
001
 62
   253
370
    50
100
AcDb2dPolyline
 66
     1
 10
0.0
 20
0.0
 30
0.0
  0
VERTEX
  5
5C2
330
5C0
100
AcDbEntity
  8
001
 62
   253
370
    50
100
AcDbVertex
100
AcDb2dVertex
 10
239.266225
 20
246.917827
 30
0.0
  0
VERTEX
  5
5C3
330
5C0
100
AcDbEntity
  8
001
 62
   253
370
    50
100
AcDbVertex
100
AcDb2dVertex
 10
239.268607
 20
246.972196
 30
0.0
  0
VERTEX
  5
5C4
330
5C0
100
AcDbEntity
  8
001
 62
   253
370
    50
100
AcDbVertex
100
AcDb2dVertex
 10
239.272923
 20
247.026405
 30
0.0
  0
VERTEX
  5
5C5
330
5C0
100
AcDbEntity
  8
001
 62
   253
370
    50
100
AcDbVertex
100
AcDb2dVertex
 10
239.30588
 20
247.181836
 30
0.0
  0
VERTEX
  5
5C6
330
5C0
100
AcDbEntity
  8
001
 62
   253
370
    50
100
AcDbVertex
100
AcDb2dVertex
 10
239.367171
 20
247.329284
 30
0.0
  0
VERTEX
  5
5C7
330
5C0
100
AcDbEntity
  8
001
 62
   253
370
    50
100
AcDbVertex
100
AcDb2dVertex
 10
239.454171
 20
247.466003
 30
0.0
  0
VERTEX
  5
5C8
330
5C0
100
AcDbEntity
  8
001
 62
   253
370
    50
100
AcDbVertex
100
AcDb2dVertex
 10
239.562794
 20
247.585767
 30
0.0
  0
VERTEX
  5
5C9
330
5C0
100
AcDbEntity
  8
001
 62
   253
370
    50
100
AcDbVertex
100
AcDb2dVertex
 10
239.692685
 20
247.687504
 30
0.0
  0
VERTEX
  5
5CA
330
5C0
100
AcDbEntity
  8
001
 62
   253
370
    50
100
AcDbVertex
100
AcDb2dVertex
 10
239.837727
 20
247.766932
 30
0.0
  0
VERTEX
  5
5CB
330
5C0
100
AcDbEntity
  8
001
 62
   253
370
    50
100
AcDbVertex
100
AcDb2dVertex
 10
239.99608
 20
247.823222
 30
0.0
  0
VERTEX
  5
5CC
330
5C0
100
AcDbEntity
  8
001
 62
   253
370
    50
100
AcDbVertex
100
AcDb2dVertex
 10
240.160958
 20
247.852356
 30
0.0
  0
VERTEX
  5
5CD
330
5C0
100
AcDbEntity
  8
001
 62
   253
370
    50
100
AcDbVertex
100
AcDb2dVertex
 10
240.213546
 20
247.855713
 30
0.0
  0
VERTEX
  5
5CE
330
5C0
100
AcDbEntity
  8
001
 62
   253
370
    50
100
AcDbVertex
100
AcDb2dVertex
 10
240.266225
 20
247.857578
 30
0.0
  0
SEQEND
  5
5C1
330
5C0
100
AcDbEntity
  8
001
370
    50
  0
LINE
  5
5CF
330
1F
100
AcDbEntity
  8
001
 62
   253
370
    50
100
AcDbLine
 10
278.266225
 20
241.913244
 30
0.0
 11
272.266225
 21
241.913244
 31
0.0
  0
LINE
  5
5D0
330
1F
100
AcDbEntity
  8
001
 62
   253
370
    50
100
AcDbLine
 10
272.266225
 20
151.913244
 30
0.0
 11
278.266225
 21
151.913244
 31
0.0
  0
ARC
  5
5D1
330
1F
100
AcDbEntity
  8
001
 62
   253
370
    50
100
AcDbCircle
 10
278.266225
 20
240.913244
 30
0.0
 40
1.0
100
AcDbArc
 50
0.0
 51
90.0
  0
ARC
  5
5D2
330
1F
100
AcDbEntity
  8
001
 62
   253
370
    50
100
AcDbCircle
 10
278.266225
 20
152.913244
 30
0.0
 40
1.0
100
AcDbArc
 50
270.0
 51
0.0
  0
LINE
  5
5D3
330
1F
100
AcDbEntity
  8
001
 62
   253
370
    50
100
AcDbLine
 10
279.266225
 20
240.913244
 30
0.0
 11
279.266225
 21
152.913244
 31
0.0
  0
LINE
  5
5D4
330
1F
100
AcDbEntity
  8
001
 62
   253
370
    50
100
AcDbLine
 10
239.266225
 20
143.913244
 30
0.0
 11
239.266225
 21
151.657489
 31
0.0
  0
ARC
  5
5D5
330
1F
100
AcDbEntity
  8
001
 62
   253
370
    50
100
AcDbCircle
 10
240.266225
 20
143.913244
 30
0.0
 40
1.0
100
AcDbArc
 50
180.0
 51
229.689594
  0
POLYLINE
  5
5D6
330
1F
100
AcDbEntity
  8
001
 62
   253
370
    50
100
AcDb2dPolyline
 66
     1
 10
0.0
 20
0.0
 30
0.0
  0
VERTEX
  5
5D8
330
5D6
100
AcDbEntity
  8
001
 62
   253
370
    50
100
AcDbVertex
100
AcDb2dVertex
 10
240.266225
 20
142.913244
 30
0.0
  0
VERTEX
  5
5D9
330
5D6
100
AcDbEntity
  8
001
 62
   253
370
    50
100
AcDbVertex
100
AcDb2dVertex
 10
240.099052
 20
142.932503
 30
0.0
  0
VERTEX
  5
5DA
330
5D6
100
AcDbEntity
  8
001
 62
   253
370
    50
100
AcDbVertex
100
AcDb2dVertex
 10
239.93636
 20
142.969217
 30
0.0
  0
VERTEX
  5
5DB
330
5D6
100
AcDbEntity
  8
001
 62
   253
370
    50
100
AcDbVertex
100
AcDb2dVertex
 10
239.782802
 20
143.036574
 30
0.0
  0
VERTEX
  5
5DC
330
5D6
100
AcDbEntity
  8
001
 62
   253
370
    50
100
AcDbVertex
100
AcDb2dVertex
 10
239.64349
 20
143.130817
 30
0.0
  0
VERTEX
  5
5DD
330
5D6
100
AcDbEntity
  8
001
 62
   253
370
    50
100
AcDbVertex
100
AcDb2dVertex
 10
239.631285
 20
143.140771
 30
0.0
  0
VERTEX
  5
5DE
330
5D6
100
AcDbEntity
  8
001
 62
   253
370
    50
100
AcDbVertex
100
AcDb2dVertex
 10
239.619167
 20
143.150809
 30
0.0
  0
SEQEND
  5
5D7
330
5D6
100
AcDbEntity
  8
001
370
    50
  0
LINE
  5
5DF
330
1F
100
AcDbEntity
  8
001
 62
   253
370
    50
100
AcDbLine
 10
359.266225
 20
188.913244
 30
0.0
 11
359.266225
 21
204.913244
 31
0.0
  0
LINE
  5
5E0
330
1F
100
AcDbEntity
  8
001
 62
   253
370
    50
100
AcDbLine
 10
351.266225
 20
212.913244
 30
0.0
 11
282.266225
 21
212.913244
 31
0.0
  0
LINE
  5
5E1
330
1F
100
AcDbEntity
  8
001
 62
   253
370
    50
100
AcDbLine
 10
351.266225
 20
180.913244
 30
0.0
 11
282.266225
 21
180.913244
 31
0.0
  0
LINE
  5
5E2
330
1F
100
AcDbEntity
  8
001
 62
   253
370
    50
100
AcDbLine
 10
282.266225
 20
212.913244
 30
0.0
 11
282.266225
 21
180.913244
 31
0.0
  0
LINE
  5
5E3
330
1F
100
AcDbEntity
  8
001
 62
   253
370
    50
100
AcDbLine
 10
282.266225
 20
212.413244
 30
0.0
 11
279.266225
 21
212.413244
 31
0.0
  0
LINE
  5
5E4
330
1F
100
AcDbEntity
  8
001
 62
   253
370
    50
100
AcDbLine
 10
279.266225
 20
181.413244
 30
0.0
 11
282.266225
 21
181.413244
 31
0.0
  0
TEXT
  5
5E5
330
1F
100
AcDbEntity
  8
001
370
    30
100
AcDbText
 10
250.034555
 20
276.0935
 30
0.0
 40
8.0
  1
ＮＫＮ３２－１３０Ｓ－０６
 41
0.833333
100
AcDbText
  0
ARC
  5
5E6
330
1F
100
AcDbEntity
  8
001
 62
   253
370
    50
100
AcDbCircle
 10
351.266225
 20
204.913244
 30
0.0
 40
8.0
100
AcDbArc
 50
0.0
 51
90.0
  0
ARC
  5
5E7
330
1F
100
AcDbEntity
  8
001
 62
   253
370
    50
100
AcDbCircle
 10
351.266225
 20
188.913244
 30
0.0
 40
8.0
100
AcDbArc
 50
270.0
 51
0.0
  0
ENDSEC
  0
SECTION
  2
OBJECTS
  0
DICTIONARY
  5
C
330
0
100
AcDbDictionary
281
     1
  3
ACAD_GROUP
350
D
  3
ACAD_LAYOUT
350
1A
  3
ACAD_MLEADERSTYLE
350
5EB
  3
ACAD_MLINESTYLE
350
17
  3
ACAD_PLOTSETTINGS
350
19
  3
ACAD_PLOTSTYLENAME
350
E
  3
ACAD_SCALELIST
350
3B
  3
ACAD_TABLESTYLE
350
5EA
  3
ACAD_VISUALSTYLE
350
2A
  3
AcDbVariableDictionary
350
5E8
  0
DICTIONARY
  5
D
102
{ACAD_REACTORS
330
C
102
}
330
C
100
AcDbDictionary
281
     1
  0
DICTIONARY
  5
1A
102
{ACAD_REACTORS
330
C
102
}
330
C
100
AcDbDictionary
281
     1
  3
Layout1
350
1E
  3
Layout2
350
26
  3
Model
350
22
  0
DICTIONARY
  5
5EB
102
{ACAD_REACTORS
330
C
102
}
330
C
100
AcDbDictionary
281
     1
  0
DICTIONARY
  5
17
102
{ACAD_REACTORS
330
C
102
}
330
C
100
AcDbDictionary
281
     1
  3
Standard
350
18
  0
DICTIONARY
  5
19
102
{ACAD_REACTORS
330
C
102
}
330
C
100
AcDbDictionary
281
     1
  0
ACDBDICTIONARYWDFLT
  5
E
102
{ACAD_REACTORS
330
C
102
}
330
C
100
AcDbDictionary
281
     1
  3
Normal
350
F
100
AcDbDictionaryWithDefault
340
F
  0
DICTIONARY
  5
3B
102
{ACAD_REACTORS
330
C
102
}
330
C
100
AcDbDictionary
281
     1
  3
A0
350
3C
  3
A1
350
3D
  3
A2
350
3E
  3
A3
350
3F
  3
A4
350
40
  3
A5
350
41
  3
A6
350
42
  3
A7
350
43
  3
A8
350
44
  3
A9
350
45
  3
B0
350
46
  3
B1
350
47
  3
B2
350
48
  3
B3
350
49
  3
B4
350
4A
  3
B5
350
4B
  3
B6
350
4C
  3
B7
350
4D
  3
B8
350
4E
  3
B9
350
4F
  3
C0
350
50
  3
C1
350
51
  3
C2
350
52
  3
C3
350
53
  3
C4
350
54
  3
C5
350
55
  3
C6
350
56
  3
C7
350
57
  3
C8
350
58
  3
C9
350
59
  3
D0
350
5A
  3
D1
350
5B
  3
D2
350
5C
  0
DICTIONARY
  5
5EA
102
{ACAD_REACTORS
330
C
102
}
330
C
100
AcDbDictionary
281
     1
  0
DICTIONARY
  5
2A
102
{ACAD_REACTORS
330
C
102
}
330
C
100
AcDbDictionary
281
     1
  3
2dWireframe
350
2F
  3
3D Hidden
350
31
  3
3dWireframe
350
30
  3
Basic
350
32
  3
Brighten
350
36
  3
ColorChange
350
3A
  3
Conceptual
350
34
  3
Dim
350
35
  3
Facepattern
350
39
  3
Flat
350
2B
  3
FlatWithEdges
350
2C
  3
Gouraud
350
2D
  3
GouraudWithEdges
350
2E
  3
Linepattern
350
38
  3
Realistic
350
33
  3
Thicken
350
37
  0
DICTIONARY
  5
5E8
102
{ACAD_REACTORS
330
C
102
}
330
C
100
AcDbDictionary
281
     1
  3
CANNOSCALE
350
5E9
  3
PSOLHEIGHT
350
5ED
  3
PSOLWIDTH
350
5EC
  0
LAYOUT
  5
1E
102
{ACAD_REACTORS
330
1A
102
}
330
1A
100
AcDbPlotSettings
  1

  2
none_device
  4

  6

 40
0.0
 41
0.0
 42
0.0
 43
0.0
 44
0.0
 45
0.0
 46
0.0
 47
0.0
 48
0.0
 49
0.0
140
0.0
141
0.0
142
1.0
143
1.0
 70
   688
 72
     0
 73
     0
 74
     5
  7

 75
    16
147
1.0
148
0.0
149
0.0
100
AcDbLayout
  1
Layout1
 70
     1
 71
     1
 10
0.0
 20
0.0
 11
12.0
 21
9.0
 12
0.0
 22
0.0
 32
0.0
 14
1.000000E+20
 24
1.000000E+20
 34
0.0
 15
-1.000000E+20
 25
-1.000000E+20
 35
0.0
146
0.0
 13
0.0
 23
0.0
 33
0.0
 16
1.0
 26
0.0
 36
0.0
 17
0.0
 27
1.0
 37
0.0
 76
     0
330
1B
  0
LAYOUT
  5
26
102
{ACAD_REACTORS
330
1A
102
}
330
1A
100
AcDbPlotSettings
  1

  2
none_device
  4

  6

 40
0.0
 41
0.0
 42
0.0
 43
0.0
 44
0.0
 45
0.0
 46
0.0
 47
0.0
 48
0.0
 49
0.0
140
0.0
141
0.0
142
1.0
143
1.0
 70
   688
 72
     0
 73
     0
 74
     5
  7

 75
    16
147
1.0
148
0.0
149
0.0
100
AcDbLayout
  1
Layout2
 70
     1
 71
     2
 10
0.0
 20
0.0
 11
0.0
 21
0.0
 12
0.0
 22
0.0
 32
0.0
 14
0.0
 24
0.0
 34
0.0
 15
0.0
 25
0.0
 35
0.0
146
0.0
 13
0.0
 23
0.0
 33
0.0
 16
1.0
 26
0.0
 36
0.0
 17
0.0
 27
1.0
 37
0.0
 76
     0
330
23
  0
LAYOUT
  5
22
102
{ACAD_REACTORS
330
1A
102
}
330
1A
100
AcDbPlotSettings
  1

  2
none_device
  4

  6

 40
0.0
 41
0.0
 42
0.0
 43
0.0
 44
0.0
 45
0.0
 46
0.0
 47
0.0
 48
0.0
 49
0.0
140
0.0
141
0.0
142
1.0
143
1.0
 70
  1712
 72
     0
 73
     0
 74
     0
  7

 75
     0
147
1.0
148
0.0
149
0.0
100
AcDbLayout
  1
Model
 70
     1
 71
     0
 10
0.0
 20
0.0
 11
12.0
 21
9.0
 12
0.0
 22
0.0
 32
0.0
 14
201.132675
 24
89.287201
 34
0.0
 15
393.280518
 25
284.093506
 35
0.0
146
0.0
 13
0.0
 23
0.0
 33
0.0
 16
1.0
 26
0.0
 36
0.0
 17
0.0
 27
1.0
 37
0.0
 76
     0
330
1F
331
29
  0
MLINESTYLE
  5
18
102
{ACAD_REACTORS
330
17
102
}
330
17
100
AcDbMlineStyle
  2
Standard
 70
     0
  3

 62
   256
 51
90.0
 52
90.0
 71
     2
 49
0.5
 62
   256
  6
BYLAYER
 49
-0.5
 62
   256
  6
BYLAYER
  0
ACDBPLACEHOLDER
  5
F
102
{ACAD_REACTORS
330
E
102
}
330
E
  0
SCALE
  5
3C
102
{ACAD_REACTORS
330
3B
102
}
330
3B
100
AcDbScale
 70
     0
300
1:1
140
1.0
141
1.0
290
     1
  0
SCALE
  5
3D
102
{ACAD_REACTORS
330
3B
102
}
330
3B
100
AcDbScale
 70
     0
300
1:2
140
1.0
141
2.0
290
     0
  0
SCALE
  5
3E
102
{ACAD_REACTORS
330
3B
102
}
330
3B
100
AcDbScale
 70
     0
300
1:4
140
1.0
141
4.0
290
     0
  0
SCALE
  5
3F
102
{ACAD_REACTORS
330
3B
102
}
330
3B
100
AcDbScale
 70
     0
300
1:5
140
1.0
141
5.0
290
     0
  0
SCALE
  5
40
102
{ACAD_REACTORS
330
3B
102
}
330
3B
100
AcDbScale
 70
     0
300
1:8
140
1.0
141
8.0
290
     0
  0
SCALE
  5
41
102
{ACAD_REACTORS
330
3B
102
}
330
3B
100
AcDbScale
 70
     0
300
1:10
140
1.0
141
10.0
290
     0
  0
SCALE
  5
42
102
{ACAD_REACTORS
330
3B
102
}
330
3B
100
AcDbScale
 70
     0
300
1:16
140
1.0
141
16.0
290
     0
  0
SCALE
  5
43
102
{ACAD_REACTORS
330
3B
102
}
330
3B
100
AcDbScale
 70
     0
300
1:20
140
1.0
141
20.0
290
     0
  0
SCALE
  5
44
102
{ACAD_REACTORS
330
3B
102
}
330
3B
100
AcDbScale
 70
     0
300
1:30
140
1.0
141
30.0
290
     0
  0
SCALE
  5
45
102
{ACAD_REACTORS
330
3B
102
}
330
3B
100
AcDbScale
 70
     0
300
1:40
140
1.0
141
40.0
290
     0
  0
SCALE
  5
46
102
{ACAD_REACTORS
330
3B
102
}
330
3B
100
AcDbScale
 70
     0
300
1:50
140
1.0
141
50.0
290
     0
  0
SCALE
  5
47
102
{ACAD_REACTORS
330
3B
102
}
330
3B
100
AcDbScale
 70
     0
300
1:100
140
1.0
141
100.0
290
     0
  0
SCALE
  5
48
102
{ACAD_REACTORS
330
3B
102
}
330
3B
100
AcDbScale
 70
     0
300
2:1
140
2.0
141
1.0
290
     0
  0
SCALE
  5
49
102
{ACAD_REACTORS
330
3B
102
}
330
3B
100
AcDbScale
 70
     0
300
4:1
140
4.0
141
1.0
290
     0
  0
SCALE
  5
4A
102
{ACAD_REACTORS
330
3B
102
}
330
3B
100
AcDbScale
 70
     0
300
8:1
140
8.0
141
1.0
290
     0
  0
SCALE
  5
4B
102
{ACAD_REACTORS
330
3B
102
}
330
3B
100
AcDbScale
 70
     0
300
10:1
140
10.0
141
1.0
290
     0
  0
SCALE
  5
4C
102
{ACAD_REACTORS
330
3B
102
}
330
3B
100
AcDbScale
 70
     0
300
100:1
140
100.0
141
1.0
290
     0
  0
SCALE
  5
4D
102
{ACAD_REACTORS
330
3B
102
}
330
3B
100
AcDbScale
 70
     0
300
1/128" = 1'-0"
140
0.007812
141
12.0
290
     0
  0
SCALE
  5
4E
102
{ACAD_REACTORS
330
3B
102
}
330
3B
100
AcDbScale
 70
     0
300
1/64" = 1'-0"
140
0.015625
141
12.0
290
     0
  0
SCALE
  5
4F
102
{ACAD_REACTORS
330
3B
102
}
330
3B
100
AcDbScale
 70
     0
300
1/32" = 1'-0"
140
0.03125
141
12.0
290
     0
  0
SCALE
  5
50
102
{ACAD_REACTORS
330
3B
102
}
330
3B
100
AcDbScale
 70
     0
300
1/16" = 1'-0"
140
0.0625
141
12.0
290
     0
  0
SCALE
  5
51
102
{ACAD_REACTORS
330
3B
102
}
330
3B
100
AcDbScale
 70
     0
300
3/32" = 1'-0"
140
0.09375
141
12.0
290
     0
  0
SCALE
  5
52
102
{ACAD_REACTORS
330
3B
102
}
330
3B
100
AcDbScale
 70
     0
300
1/8" = 1'-0"
140
0.125
141
12.0
290
     0
  0
SCALE
  5
53
102
{ACAD_REACTORS
330
3B
102
}
330
3B
100
AcDbScale
 70
     0
300
3/16" = 1'-0"
140
0.1875
141
12.0
290
     0
  0
SCALE
  5
54
102
{ACAD_REACTORS
330
3B
102
}
330
3B
100
AcDbScale
 70
     0
300
1/4" = 1'-0"
140
0.25
141
12.0
290
     0
  0
SCALE
  5
55
102
{ACAD_REACTORS
330
3B
102
}
330
3B
100
AcDbScale
 70
     0
300
3/8" = 1'-0"
140
0.375
141
12.0
290
     0
  0
SCALE
  5
56
102
{ACAD_REACTORS
330
3B
102
}
330
3B
100
AcDbScale
 70
     0
300
1/2" = 1'-0"
140
0.5
141
12.0
290
     0
  0
SCALE
  5
57
102
{ACAD_REACTORS
330
3B
102
}
330
3B
100
AcDbScale
 70
     0
300
3/4" = 1'-0"
140
0.75
141
12.0
290
     0
  0
SCALE
  5
58
102
{ACAD_REACTORS
330
3B
102
}
330
3B
100
AcDbScale
 70
     0
300
1" = 1'-0"
140
1.0
141
12.0
290
     0
  0
SCALE
  5
59
102
{ACAD_REACTORS
330
3B
102
}
330
3B
100
AcDbScale
 70
     0
300
1-1/2" = 1'-0"
140
1.5
141
12.0
290
     0
  0
SCALE
  5
5A
102
{ACAD_REACTORS
330
3B
102
}
330
3B
100
AcDbScale
 70
     0
300
3" = 1'-0"
140
3.0
141
12.0
290
     0
  0
SCALE
  5
5B
102
{ACAD_REACTORS
330
3B
102
}
330
3B
100
AcDbScale
 70
     0
300
6" = 1'-0"
140
6.0
141
12.0
290
     0
  0
SCALE
  5
5C
102
{ACAD_REACTORS
330
3B
102
}
330
3B
100
AcDbScale
 70
     0
300
1'-0" = 1'-0"
140
12.0
141
12.0
290
     0
  0
VISUALSTYLE
  5
2F
102
{ACAD_REACTORS
330
2A
102
}
330
2A
100
AcDbVisualStyle
  2
2dWireframe
 70
     4
 71
     0
 72
     2
 73
     0
 90
        0
 40
-0.6
 41
-30.0
 62
     5
 63
     7
 74
     1
 91
        4
 64
     7
 65
   257
 75
     1
175
     1
 42
1.0
 92
        0
 66
   257
 43
1.0
 76
     1
 77
     6
 78
     2
 67
     7
 79
     5
170
     0
171
     0
290
     0
174
     0
 93
        1
 44
0.0
173
     0
291
     0
 45
0.0
1001
ACAD
1000
AcDbSavedByObjectVersion
1070
     0
  0
VISUALSTYLE
  5
31
102
{ACAD_REACTORS
330
2A
102
}
330
2A
100
AcDbVisualStyle
  2
3D Hidden
 70
     6
 71
     1
 72
     2
 73
     2
 90
        0
 40
-0.6
 41
-30.0
 62
     5
 63
     7
 74
     2
 91
        2
 64
     7
 65
   257
 75
     2
175
     1
 42
40.0
 92
        0
 66
   257
 43
1.0
 76
     1
 77
     6
 78
     2
 67
     7
 79
     3
170
     0
171
     0
290
     0
174
     0
 93
        1
 44
0.0
173
     0
291
     0
 45
0.0
1001
ACAD
1000
AcDbSavedByObjectVersion
1070
     0
  0
VISUALSTYLE
  5
30
102
{ACAD_REACTORS
330
2A
102
}
330
2A
100
AcDbVisualStyle
  2
3dWireframe
 70
     5
 71
     0
 72
     2
 73
     0
 90
        0
 40
-0.6
 41
-30.0
 62
     5
 63
     7
 74
     1
 91
        4
 64
     7
 65
   257
 75
     1
175
     1
 42
1.0
 92
        0
 66
   257
 43
1.0
 76
     1
 77
     6
 78
     2
 67
     7
 79
     5
170
     0
171
     0
290
     0
174
     0
 93
        1
 44
0.0
173
     0
291
     0
 45
0.0
1001
ACAD
1000
AcDbSavedByObjectVersion
1070
     0
  0
VISUALSTYLE
  5
32
102
{ACAD_REACTORS
330
2A
102
}
330
2A
100
AcDbVisualStyle
  2
Basic
 70
     7
 71
     1
 72
     0
 73
     1
 90
        0
 40
-0.6
 41
-30.0
 62
     5
 63
     7
 74
     0
 91
        4
 64
     7
 65
   257
 75
     1
175
     1
 42
1.0
 92
        8
 66
     7
 43
1.0
 76
     1
 77
     6
 78
     2
 67
     7
 79
     5
170
     0
171
     0
290
     0
174
     0
 93
        1
 44
0.0
173
     0
291
     1
 45
0.0
1001
ACAD
1000
AcDbSavedByObjectVersion
1070
     0
  0
VISUALSTYLE
  5
36
102
{ACAD_REACTORS
330
2A
102
}
330
2A
100
AcDbVisualStyle
  2
Brighten
 70
    12
 71
     2
 72
     2
 73
     0
 90
        0
 40
-0.6
 41
-30.0
 62
     5
 63
     7
 74
     1
 91
        4
 64
     7
 65
   257
 75
     1
175
     1
 42
1.0
 92
        8
 66
     7
 43
1.0
 76
     1
 77
     6
 78
     2
 67
     7
 79
     5
170
     0
171
     0
290
     0
174
     0
 93
        1
 44
50.0
173
     0
291
     1
 45
0.0
1001
ACAD
1000
AcDbSavedByObjectVersion
1070
     0
  0
VISUALSTYLE
  5
3A
102
{ACAD_REACTORS
330
2A
102
}
330
2A
100
AcDbVisualStyle
  2
ColorChange
 70
    16
 71
     2
 72
     2
 73
     3
 90
        0
 40
-0.6
 41
-30.0
 62
     5
 63
     8
 74
     1
 91
        4
 64
     7
 65
   257
 75
     1
175
     1
 42
1.0
 92
        8
 66
     8
 43
1.0
 76
     1
 77
     6
 78
     2
 67
     7
 79
     5
170
     0
171
     0
290
     0
174
     0
 93
        1
 44
0.0
173
     0
291
     1
 45
0.0
1001
ACAD
1000
AcDbSavedByObjectVersion
1070
     0
  0
VISUALSTYLE
  5
34
102
{ACAD_REACTORS
330
2A
102
}
330
2A
100
AcDbVisualStyle
  2
Conceptual
 70
     9
 71
     3
 72
     2
 73
     0
 90
        0
 40
-0.6
 41
-30.0
 62
     5
 63
     7
 74
     2
 91
        2
 64
     7
 65
   257
 75
     1
175
     1
 42
40.0
 92
        8
 66
     7
 43
1.0
 76
     1
 77
     6
 78
     2
 67
     7
 79
     3
170
     0
171
     0
290
     0
174
     0
 93
        1
 44
0.0
173
     0
291
     0
 45
0.0
1001
ACAD
1000
AcDbSavedByObjectVersion
1070
     0
  0
VISUALSTYLE
  5
35
102
{ACAD_REACTORS
330
2A
102
}
330
2A
100
AcDbVisualStyle
  2
Dim
 70
    11
 71
     2
 72
     2
 73
     0
 90
        0
 40
-0.6
 41
-30.0
 62
     5
 63
     7
 74
     1
 91
        4
 64
     7
 65
   257
 75
     1
175
     1
 42
1.0
 92
        8
 66
     7
 43
1.0
 76
     1
 77
     6
 78
     2
 67
     7
 79
     5
170
     0
171
     0
290
     0
174
     0
 93
        1
 44
-50.0
173
     0
291
     1
 45
0.0
1001
ACAD
1000
AcDbSavedByObjectVersion
1070
     0
  0
VISUALSTYLE
  5
39
102
{ACAD_REACTORS
330
2A
102
}
330
2A
100
AcDbVisualStyle
  2
Facepattern
 70
    15
 71
     2
 72
     2
 73
     0
 90
        0
 40
-0.6
 41
-30.0
 62
     5
 63
     7
 74
     1
 91
        4
 64
     7
 65
   257
 75
     1
175
     1
 42
1.0
 92
        8
 66
     7
 43
1.0
 76
     1
 77
     6
 78
     2
 67
     7
 79
     5
170
     0
171
     0
290
     0
174
     0
 93
        1
 44
0.0
173
     0
291
     1
 45
0.0
1001
ACAD
1000
AcDbSavedByObjectVersion
1070
     0
  0
VISUALSTYLE
  5
2B
102
{ACAD_REACTORS
330
2A
102
}
330
2A
100
AcDbVisualStyle
  2
Flat
 70
     0
 71
     2
 72
     1
 73
     1
 90
        2
 40
-0.6
 41
30.0
 62
     5
 63
     7
 74
     0
 91
        4
 64
     7
 65
   257
 75
     1
175
     1
 42
1.0
 92
        8
 66
     7
 43
1.0
 76
     1
 77
     6
 78
     2
 67
     7
 79
     5
170
     0
171
     0
290
     0
174
     0
 93
       13
 44
0.0
173
     0
291
     1
 45
0.0
1001
ACAD
1000
AcDbSavedByObjectVersion
1070
     0
  0
VISUALSTYLE
  5
2C
102
{ACAD_REACTORS
330
2A
102
}
330
2A
100
AcDbVisualStyle
  2
FlatWithEdges
 70
     1
 71
     2
 72
     1
 73
     1
 90
        2
 40
-0.6
 41
30.0
 62
     5
 63
     7
 74
     1
 91
        4
 64
     7
 65
   257
 75
     1
175
     1
 42
1.0
 92
        0
 66
   257
 43
1.0
 76
     1
 77
     6
 78
     2
 67
     7
 79
     5
170
     0
171
     0
290
     0
174
     0
 93
       13
 44
0.0
173
     0
291
     1
 45
0.0
1001
ACAD
1000
AcDbSavedByObjectVersion
1070
     0
  0
VISUALSTYLE
  5
2D
102
{ACAD_REACTORS
330
2A
102
}
330
2A
100
AcDbVisualStyle
  2
Gouraud
 70
     2
 71
     2
 72
     2
 73
     1
 90
        2
 40
-0.6
 41
30.0
 62
     5
 63
     7
 74
     0
 91
        4
 64
     7
 65
   257
 75
     1
175
     1
 42
1.0
 92
        0
 66
     7
 43
1.0
 76
     1
 77
     6
 78
     2
 67
     7
 79
     5
170
     0
171
     0
290
     0
174
     0
 93
       13
 44
0.0
173
     0
291
     1
 45
0.0
1001
ACAD
1000
AcDbSavedByObjectVersion
1070
     0
  0
VISUALSTYLE
  5
2E
102
{ACAD_REACTORS
330
2A
102
}
330
2A
100
AcDbVisualStyle
  2
GouraudWithEdges
 70
     3
 71
     2
 72
     2
 73
     1
 90
        2
 40
-0.6
 41
30.0
 62
     5
 63
     7
 74
     1
 91
        4
 64
     7
 65
   257
 75
     1
175
     1
 42
1.0
 92
        0
 66
   257
 43
1.0
 76
     1
 77
     6
 78
     2
 67
     7
 79
     5
170
     0
171
     0
290
     0
174
     0
 93
       13
 44
0.0
173
     0
291
     1
 45
0.0
1001
ACAD
1000
AcDbSavedByObjectVersion
1070
     0
  0
VISUALSTYLE
  5
38
102
{ACAD_REACTORS
330
2A
102
}
330
2A
100
AcDbVisualStyle
  2
Linepattern
 70
    14
 71
     2
 72
     2
 73
     0
 90
        0
 40
-0.6
 41
-30.0
 62
     5
 63
     7
 74
     1
 91
        4
 64
     7
 65
   257
 75
     7
175
     7
 42
1.0
 92
        8
 66
     7
 43
1.0
 76
     1
 77
     6
 78
     2
 67
     7
 79
     5
170
     0
171
     0
290
     0
174
     0
 93
        1
 44
0.0
173
     0
291
     1
 45
0.0
1001
ACAD
1000
AcDbSavedByObjectVersion
1070
     0
  0
VISUALSTYLE
  5
33
102
{ACAD_REACTORS
330
2A
102
}
330
2A
100
AcDbVisualStyle
  2
Realistic
 70
     8
 71
     2
 72
     2
 73
     0
 90
        0
 40
-0.6
 41
-30.0
 62
     5
 63
     7
 74
     1
 91
        0
 64
     7
 65
   257
 75
     1
175
     1
 42
1.0
 92
        8
 66
     8
 43
1.0
 76
     1
 77
     6
 78
     2
 67
     7
 79
     5
170
     0
171
     0
290
     0
174
     0
 93
       13
 44
0.0
173
     0
291
     0
 45
0.0
1001
ACAD
1000
AcDbSavedByObjectVersion
1070
     0
  0
VISUALSTYLE
  5
37
102
{ACAD_REACTORS
330
2A
102
}
330
2A
100
AcDbVisualStyle
  2
Thicken
 70
    13
 71
     2
 72
     2
 73
     0
 90
        0
 40
-0.6
 41
-30.0
 62
     5
 63
     7
 74
     1
 91
        4
 64
     7
 65
   257
 75
     1
175
     1
 42
1.0
 92
       12
 66
     7
 43
1.0
 76
     1
 77
     6
 78
     2
 67
     7
 79
     5
170
     0
171
     0
290
     0
174
     0
 93
        1
 44
0.0
173
     0
291
     1
 45
0.0
1001
ACAD
1000
AcDbSavedByObjectVersion
1070
     0
  0
DICTIONARYVAR
  5
5E9
102
{ACAD_REACTORS
330
5E8
102
}
330
5E8
100
DictionaryVariables
280
     0
  1
1:1
  0
DICTIONARYVAR
  5
5ED
102
{ACAD_REACTORS
330
5E8
102
}
330
5E8
100
DictionaryVariables
280
     0
  1
80.000000
  0
DICTIONARYVAR
  5
5EC
102
{ACAD_REACTORS
330
5E8
102
}
330
5E8
100
DictionaryVariables
280
     0
  1
5.000000
  0
ENDSEC
  0
EOF
