  0
SECTION
  2
HEADER
  9
$ACADVER
  1
AC1015
  9
$ACADMAINTVER
 70
     6
  9
$DWGCODEPAGE
  3
ANSI_932
  9
$INSBASE
 10
0.0
 20
0.0
 30
0.0
  9
$EXTMIN
 10
19.807785
 20
14.694214
 30
0.0
  9
$EXTMAX
 10
198.203079
 20
184.147263
 30
0.0
  9
$LIMMIN
 10
0.0
 20
0.0
  9
$LIMMAX
 10
12.0
 20
9.0
  9
$ORTHOMODE
 70
     0
  9
$REGENMODE
 70
     1
  9
$FILLMODE
 70
     1
  9
$QTEXTMODE
 70
     0
  9
$MIRRTEXT
 70
     1
  9
$LTSCALE
 40
2.460472
  9
$ATTMODE
 70
     1
  9
$TEXTSIZE
 40
3.2
  9
$TRACEWID
 40
1.0
  9
$TEXTSTYLE
  7
Standard
  9
$CLAYER
  8
0
  9
$CELTYPE
  6
ByLayer
  9
$CECOLOR
 62
   256
  9
$CELTSCALE
 40
1.0
  9
$DISPSILH
 70
     0
  9
$DIMSCALE
 40
1.0
  9
$DIMASZ
 40
2.5
  9
$DIMEXO
 40
0.625
  9
$DIMDLI
 40
3.75
  9
$DIMRND
 40
0.0
  9
$DIMDLE
 40
0.0
  9
$DIMEXE
 40
1.25
  9
$DIMTP
 40
0.0
  9
$DIMTM
 40
0.0
  9
$DIMTXT
 40
2.5
  9
$DIMCEN
 40
0.09
  9
$DIMTSZ
 40
0.0
  9
$DIMTOL
 70
     0
  9
$DIMLIM
 70
     0
  9
$DIMTIH
 70
     0
  9
$DIMTOH
 70
     0
  9
$DIMSE1
 70
     0
  9
$DIMSE2
 70
     0
  9
$DIMTAD
 70
     0
  9
$DIMZIN
 70
     8
  9
$DIMBLK
  1

  9
$DIMASO
 70
     1
  9
$DIMSHO
 70
     0
  9
$DIMPOST
  1

  9
$DIMAPOST
  1

  9
$DIMALT
 70
     0
  9
$DIMALTD
 70
     3
  9
$DIMALTF
 40
0.03937
  9
$DIMLFAC
 40
1.0
  9
$DIMTOFL
 70
     1
  9
$DIMTVP
 40
0.0
  9
$DIMTIX
 70
     0
  9
$DIMSOXD
 70
     0
  9
$DIMSAH
 70
     0
  9
$DIMBLK1
  1

  9
$DIMBLK2
  1

  9
$DIMSTYLE
  2
ISO-25
  9
$DIMCLRD
 70
     0
  9
$DIMCLRE
 70
     0
  9
$DIMCLRT
 70
     0
  9
$DIMTFAC
 40
1.0
  9
$DIMGAP
 40
0.625
  9
$DIMJUST
 70
     0
  9
$DIMSD1
 70
     0
  9
$DIMSD2
 70
     0
  9
$DIMTOLJ
 70
     0
  9
$DIMTZIN
 70
     8
  9
$DIMALTZ
 70
     0
  9
$DIMALTTZ
 70
     0
  9
$DIMUPT
 70
     0
  9
$DIMDEC
 70
     2
  9
$DIMTDEC
 70
     2
  9
$DIMALTU
 70
     2
  9
$DIMALTTD
 70
     3
  9
$DIMTXSTY
  7
Standard
  9
$DIMAUNIT
 70
     0
  9
$DIMADEC
 70
     0
  9
$DIMALTRND
 40
0.0
  9
$DIMAZIN
 70
     0
  9
$DIMDSEP
 70
    44
  9
$DIMATFIT
 70
     3
  9
$DIMFRAC
 70
     0
  9
$DIMLDRBLK
  1

  9
$DIMLUNIT
 70
     2
  9
$DIMLWD
 70
    -2
  9
$DIMLWE
 70
    -2
  9
$DIMTMOVE
 70
     0
  9
$LUNITS
 70
     2
  9
$LUPREC
 70
     4
  9
$SKETCHINC
 40
1.0
  9
$FILLETRAD
 40
0.0
  9
$AUNITS
 70
     0
  9
$AUPREC
 70
     0
  9
$MENU
  1
.
  9
$ELEVATION
 40
0.0
  9
$PELEVATION
 40
0.0
  9
$THICKNESS
 40
0.0
  9
$LIMCHECK
 70
     0
  9
$CHAMFERA
 40
10.0
  9
$CHAMFERB
 40
10.0
  9
$CHAMFERC
 40
20.0
  9
$CHAMFERD
 40
0.0
  9
$SKPOLY
 70
     0
  9
$TDCREATE
 40
2455356.488112882
  9
$TDUCREATE
 40
2455356.113112882
  9
$TDUPDATE
 40
2455356.488112893
  9
$TDUUPDATE
 40
2455356.113112893
  9
$TDINDWG
 40
0.0000000116
  9
$TDUSRTIMER
 40
0.0000000116
  9
$USRTIMER
 70
     1
  9
$ANGBASE
 50
0.0
  9
$ANGDIR
 70
     0
  9
$PDMODE
 70
     0
  9
$PDSIZE
 40
0.0
  9
$PLINEWID
 40
0.0
  9
$SPLFRAME
 70
     0
  9
$SPLINETYPE
 70
     6
  9
$SPLINESEGS
 70
     8
  9
$HANDSEED
  5
1C7
  9
$SURFTAB1
 70
     6
  9
$SURFTAB2
 70
     6
  9
$SURFTYPE
 70
     6
  9
$SURFU
 70
     6
  9
$SURFV
 70
     6
  9
$UCSBASE
  2

  9
$UCSNAME
  2

  9
$UCSORG
 10
0.0
 20
0.0
 30
0.0
  9
$UCSXDIR
 10
1.0
 20
0.0
 30
0.0
  9
$UCSYDIR
 10
0.0
 20
1.0
 30
0.0
  9
$UCSORTHOREF
  2

  9
$UCSORTHOVIEW
 70
     0
  9
$UCSORGTOP
 10
0.0
 20
0.0
 30
0.0
  9
$UCSORGBOTTOM
 10
0.0
 20
0.0
 30
0.0
  9
$UCSORGLEFT
 10
0.0
 20
0.0
 30
0.0
  9
$UCSORGRIGHT
 10
0.0
 20
0.0
 30
0.0
  9
$UCSORGFRONT
 10
0.0
 20
0.0
 30
0.0
  9
$UCSORGBACK
 10
0.0
 20
0.0
 30
0.0
  9
$PUCSBASE
  2

  9
$PUCSNAME
  2

  9
$PUCSORG
 10
0.0
 20
0.0
 30
0.0
  9
$PUCSXDIR
 10
1.0
 20
0.0
 30
0.0
  9
$PUCSYDIR
 10
0.0
 20
1.0
 30
0.0
  9
$PUCSORTHOREF
  2

  9
$PUCSORTHOVIEW
 70
     0
  9
$PUCSORGTOP
 10
0.0
 20
0.0
 30
0.0
  9
$PUCSORGBOTTOM
 10
0.0
 20
0.0
 30
0.0
  9
$PUCSORGLEFT
 10
0.0
 20
0.0
 30
0.0
  9
$PUCSORGRIGHT
 10
0.0
 20
0.0
 30
0.0
  9
$PUCSORGFRONT
 10
0.0
 20
0.0
 30
0.0
  9
$PUCSORGBACK
 10
0.0
 20
0.0
 30
0.0
  9
$USERI1
 70
     0
  9
$USERI2
 70
     0
  9
$USERI3
 70
     0
  9
$USERI4
 70
     0
  9
$USERI5
 70
     0
  9
$USERR1
 40
0.0
  9
$USERR2
 40
0.0
  9
$USERR3
 40
0.0
  9
$USERR4
 40
0.0
  9
$USERR5
 40
0.0
  9
$WORLDVIEW
 70
     1
  9
$SHADEDGE
 70
     3
  9
$SHADEDIF
 70
    70
  9
$TILEMODE
 70
     1
  9
$MAXACTVP
 70
    64
  9
$PINSBASE
 10
0.0
 20
0.0
 30
0.0
  9
$PLIMCHECK
 70
     0
  9
$PEXTMIN
 10
1.000000E+20
 20
1.000000E+20
 30
0.0
  9
$PEXTMAX
 10
-1.000000E+20
 20
-1.000000E+20
 30
0.0
  9
$PLIMMIN
 10
0.0
 20
0.0
  9
$PLIMMAX
 10
12.0
 20
9.0
  9
$UNITMODE
 70
     0
  9
$VISRETAIN
 70
     1
  9
$PLINEGEN
 70
     0
  9
$PSLTSCALE
 70
     1
  9
$TREEDEPTH
 70
  3020
  9
$CMLSTYLE
  2
Standard
  9
$CMLJUST
 70
     0
  9
$CMLSCALE
 40
20.0
  9
$PROXYGRAPHICS
 70
     1
  9
$MEASUREMENT
 70
     1
  9
$CELWEIGHT
370
    -1
  9
$ENDCAPS
280
     0
  9
$JOINSTYLE
280
     0
  9
$LWDISPLAY
290
     0
  9
$INSUNITS
 70
     4
  9
$HYPERLINKBASE
  1

  9
$STYLESHEET
  1

  9
$XEDIT
290
     1
  9
$CEPSNTYPE
380
     0
  9
$PSTYLEMODE
290
     1
  9
$FINGERPRINTGUID
  2
{5A44D3EB-3DA9-42D9-8B6E-9A3EC9F28189}
  9
$VERSIONGUID
  2
{FAEB1C32-E019-11D5-929B-00C0DF256EC4}
  9
$EXTNAMES
290
     1
  9
$PSVPSCALE
 40
0.0
  9
$OLESTARTUP
290
     0
  0
ENDSEC
  0
SECTION
  2
CLASSES
  0
CLASS
  1
ACDBDICTIONARYWDFLT
  2
AcDbDictionaryWithDefault
  3
ObjectDBX Classes
 90
        0
280
     0
281
     0
  0
CLASS
  1
VISUALSTYLE
  2
AcDbVisualStyle
  3
ObjectDBX Classes
 90
     4095
280
     0
281
     0
  0
CLASS
  1
SCALE
  2
AcDbScale
  3
ObjectDBX Classes
 90
     1153
280
     0
281
     0
  0
CLASS
  1
DICTIONARYVAR
  2
AcDbDictionaryVar
  3
ObjectDBX Classes
 90
        0
280
     0
281
     0
  0
CLASS
  1
ACDBPLACEHOLDER
  2
AcDbPlaceHolder
  3
ObjectDBX Classes
 90
        0
280
     0
281
     0
  0
CLASS
  1
LAYOUT
  2
AcDbLayout
  3
ObjectDBX Classes
 90
        0
280
     0
281
     0
  0
ENDSEC
  0
SECTION
  2
TABLES
  0
TABLE
  2
VPORT
  5
8
330
0
100
AcDbSymbolTable
 70
     1
  0
VPORT
  5
29
330
8
100
AcDbSymbolTableRecord
100
AcDbViewportTableRecord
  2
*Active
 70
     0
 10
0.0
 20
0.0
 11
1.0
 21
1.0
 12
109.005432
 22
99.420738
 13
0.0
 23
0.0
 14
1.0
 24
1.0
 15
0.0
 25
0.0
 16
0.0
 26
0.0
 36
1.0
 17
0.0
 27
0.0
 37
0.0
 40
171.147579
 41
1.691288
 42
50.0
 43
0.0
 44
0.0
 50
0.0
 51
0.0
 71
     0
 72
   100
 73
     1
 74
     3
 75
     0
 76
     0
 77
     0
 78
     0
281
     0
 65
     1
110
0.0
120
0.0
130
0.0
111
1.0
121
0.0
131
0.0
112
0.0
122
1.0
132
0.0
 79
     0
146
0.0
  0
ENDTAB
  0
TABLE
  2
LTYPE
  5
5
330
0
100
AcDbSymbolTable
 70
     5
  0
LTYPE
  5
14
330
5
100
AcDbSymbolTableRecord
100
AcDbLinetypeTableRecord
  2
ByBlock
 70
     0
  3

 72
    65
 73
     0
 40
0.0
  0
LTYPE
  5
15
330
5
100
AcDbSymbolTableRecord
100
AcDbLinetypeTableRecord
  2
ByLayer
 70
     0
  3

 72
    65
 73
     0
 40
0.0
  0
LTYPE
  5
16
330
5
100
AcDbSymbolTableRecord
100
AcDbLinetypeTableRecord
  2
Continuous
 70
     0
  3
Solid line
 72
    65
 73
     0
 40
0.0
  0
LTYPE
  5
5D
330
5
100
AcDbSymbolTableRecord
100
AcDbLinetypeTableRecord
  2
DASHED
 70
     0
  3
DASHED
 72
    83
 73
     2
 40
0.75
 49
0.5
 74
     0
 49
-0.25
 74
     0
  0
LTYPE
  5
5E
330
5
100
AcDbSymbolTableRecord
100
AcDbLinetypeTableRecord
  2
HIDDEN
 70
     0
  3
HIDDEN
 72
    83
 73
     2
 40
0.375
 49
0.25
 74
     0
 49
-0.125
 74
     0
  0
LTYPE
  5
5F
330
5
100
AcDbSymbolTableRecord
100
AcDbLinetypeTableRecord
  2
CENTER
 70
     0
  3
CENTER
 72
    83
 73
     4
 40
2.0
 49
1.25
 74
     0
 49
-0.25
 74
     0
 49
0.25
 74
     0
 49
-0.25
 74
     0
  0
LTYPE
  5
60
330
5
100
AcDbSymbolTableRecord
100
AcDbLinetypeTableRecord
  2
PHANTOM
 70
     0
  3
PHANTOM
 72
    83
 73
     6
 40
2.5
 49
1.25
 74
     0
 49
-0.25
 74
     0
 49
0.25
 74
     0
 49
-0.25
 74
     0
 49
0.25
 74
     0
 49
-0.25
 74
     0
  0
ENDTAB
  0
TABLE
  2
LAYER
  5
2
330
0
100
AcDbSymbolTable
 70
     2
  0
LAYER
  5
10
330
2
100
AcDbSymbolTableRecord
100
AcDbLayerTableRecord
  2
0
 70
     0
 62
     7
  6
Continuous
370
    -3
390
F
  0
LAYER
  5
61
330
2
100
AcDbSymbolTableRecord
100
AcDbLayerTableRecord
  2
001
 70
     0
 62
     7
  6
Continuous
370
    -3
390
F
  0
ENDTAB
  0
TABLE
  2
STYLE
  5
3
330
0
100
AcDbSymbolTable
 70
     2
  0
STYLE
  5
11
330
3
100
AcDbSymbolTableRecord
100
AcDbTextStyleTableRecord
  2
Standard
 70
     0
 40
0.0
 41
1.0
 50
0.0
 71
     0
 42
0.2
  3
TXT
  4
BIGFONT
  0
STYLE
  5
62
330
3
100
AcDbSymbolTableRecord
100
AcDbTextStyleTableRecord
  2
TATEGAKI
 70
     4
 40
1.0
 41
1.0
 50
0.0
 71
     0
 42
0.2
  3
TXT
  4
BIGFONT
  0
ENDTAB
  0
TABLE
  2
VIEW
  5
6
330
0
100
AcDbSymbolTable
 70
     0
  0
ENDTAB
  0
TABLE
  2
UCS
  5
7
330
0
100
AcDbSymbolTable
 70
     0
  0
ENDTAB
  0
TABLE
  2
APPID
  5
9
330
0
100
AcDbSymbolTable
 70
     1
  0
APPID
  5
12
330
9
100
AcDbSymbolTableRecord
100
AcDbRegAppTableRecord
  2
ACAD
 70
     0
  0
ENDTAB
  0
TABLE
  2
DIMSTYLE
  5
A
330
0
100
AcDbSymbolTable
 70
     2
100
AcDbDimStyleTable
  0
DIMSTYLE
105
27
330
A
100
AcDbSymbolTableRecord
100
AcDbDimStyleTableRecord
  2
ISO-25
 70
     0
 41
2.5
 42
0.625
 43
3.75
 44
1.25
 73
     0
 74
     0
 77
     1
 78
     8
140
2.5
141
2.5
143
0.03937
147
0.625
171
     3
172
     1
271
     2
272
     2
274
     3
278
    44
283
     0
284
     8
340
11
  0
DIMSTYLE
105
63
102
{ACAD_REACTORS
330
B4
330
C1
330
C2
330
C3
102
}
330
A
100
AcDbSymbolTableRecord
100
AcDbDimStyleTableRecord
  2
Standard
 70
     0
 41
1.5
 42
0.0
 44
2.75
 73
     0
 74
     0
 77
     1
 78
     8
 79
     2
140
4.0
146
0.8
147
1.0
172
     1
179
     1
271
     1
340
11
  0
ENDTAB
  0
TABLE
  2
BLOCK_RECORD
  5
1
330
0
100
AcDbSymbolTable
 70
     5
  0
BLOCK_RECORD
  5
1F
330
1
100
AcDbSymbolTableRecord
100
AcDbBlockTableRecord
  2
*Model_Space
340
22
  0
BLOCK_RECORD
  5
1B
330
1
100
AcDbSymbolTableRecord
100
AcDbBlockTableRecord
  2
*Paper_Space
340
1E
  0
BLOCK_RECORD
  5
23
330
1
100
AcDbSymbolTableRecord
100
AcDbBlockTableRecord
  2
*Paper_Space0
340
26
  0
BLOCK_RECORD
  5
64
330
1
100
AcDbSymbolTableRecord
100
AcDbBlockTableRecord
  2
*D1
340
0
  0
BLOCK_RECORD
  5
78
330
1
100
AcDbSymbolTableRecord
100
AcDbBlockTableRecord
  2
*D2
340
0
  0
BLOCK_RECORD
  5
8C
330
1
100
AcDbSymbolTableRecord
100
AcDbBlockTableRecord
  2
*D3
340
0
  0
BLOCK_RECORD
  5
A0
330
1
100
AcDbSymbolTableRecord
100
AcDbBlockTableRecord
  2
*D4
340
0
  0
ENDTAB
  0
ENDSEC
  0
SECTION
  2
BLOCKS
  0
BLOCK
  5
20
330
1F
100
AcDbEntity
  8
0
100
AcDbBlockBegin
  2
*Model_Space
 70
     0
 10
0.0
 20
0.0
 30
0.0
  3
*Model_Space
  1

  0
ENDBLK
  5
21
330
1F
100
AcDbEntity
  8
0
100
AcDbBlockEnd
  0
BLOCK
  5
1C
330
1B
100
AcDbEntity
 67
     1
  8
0
100
AcDbBlockBegin
  2
*Paper_Space
 70
     0
 10
0.0
 20
0.0
 30
0.0
  3
*Paper_Space
  1

  0
ENDBLK
  5
1D
330
1B
100
AcDbEntity
 67
     1
  8
0
100
AcDbBlockEnd
  0
BLOCK
  5
24
330
23
100
AcDbEntity
  8
0
100
AcDbBlockBegin
  2
*Paper_Space0
 70
     0
 10
0.0
 20
0.0
 30
0.0
  3
*Paper_Space0
  1

  0
ENDBLK
  5
25
330
23
100
AcDbEntity
  8
0
100
AcDbBlockEnd
  0
BLOCK
  5
65
330
64
100
AcDbEntity
  8
0
100
AcDbBlockBegin
  2
*D1
 70
     1
 10
0.0
 20
0.0
 30
0.0
  3
*D1
  1

  0
LINE
  5
67
330
64
100
AcDbEntity
  8
001
370
     9
100
AcDbLine
 10
164.513968
 20
125.205486
 30
0.0
 11
198.203078
 21
125.205486
 31
0.0
  0
LINE
  5
68
330
64
100
AcDbEntity
  8
001
370
     9
100
AcDbLine
 10
164.513968
 20
93.205486
 30
0.0
 11
198.203078
 21
93.205486
 31
0.0
  0
LINE
  5
69
330
64
100
AcDbEntity
  8
001
370
     9
100
AcDbLine
 10
195.453078
 20
125.205486
 30
0.0
 11
195.453078
 21
93.205486
 31
0.0
  0
POLYLINE
  5
6A
330
64
100
AcDbEntity
  8
001
370
     9
100
AcDb2dPolyline
 66
     1
 10
0.0
 20
0.0
 30
0.0
  0
VERTEX
  5
6C
330
6A
100
AcDbEntity
  8
001
370
     9
100
AcDbVertex
100
AcDb2dVertex
 10
195.051154
 20
123.705486
 30
0.0
  0
VERTEX
  5
6D
330
6A
100
AcDbEntity
  8
001
370
     9
100
AcDbVertex
100
AcDb2dVertex
 10
195.453078
 20
125.205486
 30
0.0
  0
VERTEX
  5
6E
330
6A
100
AcDbEntity
  8
001
370
     9
100
AcDbVertex
100
AcDb2dVertex
 10
195.855001
 20
123.705486
 30
0.0
  0
SEQEND
  5
6B
330
6A
100
AcDbEntity
  8
001
370
     9
  0
POLYLINE
  5
6F
330
64
100
AcDbEntity
  8
001
370
     9
100
AcDb2dPolyline
 66
     1
 10
0.0
 20
0.0
 30
0.0
  0
VERTEX
  5
71
330
6F
100
AcDbEntity
  8
001
370
     9
100
AcDbVertex
100
AcDb2dVertex
 10
195.855001
 20
94.705486
 30
0.0
  0
VERTEX
  5
72
330
6F
100
AcDbEntity
  8
001
370
     9
100
AcDbVertex
100
AcDb2dVertex
 10
195.453078
 20
93.205486
 30
0.0
  0
VERTEX
  5
73
330
6F
100
AcDbEntity
  8
001
370
     9
100
AcDbVertex
100
AcDb2dVertex
 10
195.051154
 20
94.705486
 30
0.0
  0
SEQEND
  5
70
330
6F
100
AcDbEntity
  8
001
370
     9
  0
TEXT
  5
74
330
64
100
AcDbEntity
  8
001
370
    30
100
AcDbText
 10
194.453078
 20
103.205486
 30
0.0
 40
4.0
  1
%%c３２
 50
90.000003
 41
0.882353
100
AcDbText
  0
POINT
  5
75
330
64
100
AcDbEntity
  8
001
370
     9
100
AcDbPoint
 10
164.513968
 20
125.205486
 30
0.0
  0
POINT
  5
76
330
64
100
AcDbEntity
  8
001
370
     9
100
AcDbPoint
 10
164.513968
 20
93.205486
 30
0.0
  0
POINT
  5
77
330
64
100
AcDbEntity
  8
001
370
     9
100
AcDbPoint
 10
195.453078
 20
93.205486
 30
0.0
  0
ENDBLK
  5
66
330
64
100
AcDbEntity
  8
0
100
AcDbBlockEnd
  0
BLOCK
  5
79
330
78
100
AcDbEntity
  8
0
100
AcDbBlockBegin
  2
*D2
 70
     1
 10
0.0
 20
0.0
 30
0.0
  3
*D2
  1

  0
LINE
  5
7B
330
78
100
AcDbEntity
  8
001
370
     9
100
AcDbLine
 10
92.513968
 20
80.205486
 30
0.0
 11
92.513968
 21
30.857483
 31
0.0
  0
LINE
  5
7C
330
78
100
AcDbEntity
  8
001
370
     9
100
AcDbLine
 10
49.013968
 20
59.205486
 30
0.0
 11
49.013968
 21
30.857483
 31
0.0
  0
LINE
  5
7D
330
78
100
AcDbEntity
  8
001
370
     9
100
AcDbLine
 10
92.513968
 20
33.607483
 30
0.0
 11
49.013968
 21
33.607483
 31
0.0
  0
POLYLINE
  5
7E
330
78
100
AcDbEntity
  8
001
370
     9
100
AcDb2dPolyline
 66
     1
 10
0.0
 20
0.0
 30
0.0
  0
VERTEX
  5
80
330
7E
100
AcDbEntity
  8
001
370
     9
100
AcDbVertex
100
AcDb2dVertex
 10
91.013968
 20
34.009407
 30
0.0
  0
VERTEX
  5
81
330
7E
100
AcDbEntity
  8
001
370
     9
100
AcDbVertex
100
AcDb2dVertex
 10
92.513968
 20
33.607483
 30
0.0
  0
VERTEX
  5
82
330
7E
100
AcDbEntity
  8
001
370
     9
100
AcDbVertex
100
AcDb2dVertex
 10
91.013968
 20
33.20556
 30
0.0
  0
SEQEND
  5
7F
330
7E
100
AcDbEntity
  8
001
370
     9
  0
POLYLINE
  5
83
330
78
100
AcDbEntity
  8
001
370
     9
100
AcDb2dPolyline
 66
     1
 10
0.0
 20
0.0
 30
0.0
  0
VERTEX
  5
85
330
83
100
AcDbEntity
  8
001
370
     9
100
AcDbVertex
100
AcDb2dVertex
 10
50.513968
 20
33.20556
 30
0.0
  0
VERTEX
  5
86
330
83
100
AcDbEntity
  8
001
370
     9
100
AcDbVertex
100
AcDb2dVertex
 10
49.013968
 20
33.607483
 30
0.0
  0
VERTEX
  5
87
330
83
100
AcDbEntity
  8
001
370
     9
100
AcDbVertex
100
AcDb2dVertex
 10
50.513968
 20
34.009407
 30
0.0
  0
SEQEND
  5
84
330
83
100
AcDbEntity
  8
001
370
     9
  0
TEXT
  5
88
330
78
100
AcDbEntity
  8
001
370
    30
100
AcDbText
 10
62.763968
 20
34.607483
 30
0.0
 40
4.0
  1
４３．５
 41
0.833333
100
AcDbText
  0
POINT
  5
89
330
78
100
AcDbEntity
  8
001
370
     9
100
AcDbPoint
 10
92.513968
 20
80.205486
 30
0.0
  0
POINT
  5
8A
330
78
100
AcDbEntity
  8
001
370
     9
100
AcDbPoint
 10
49.013968
 20
59.205486
 30
0.0
  0
POINT
  5
8B
330
78
100
AcDbEntity
  8
001
370
     9
100
AcDbPoint
 10
49.013968
 20
33.607483
 30
0.0
  0
ENDBLK
  5
7A
330
78
100
AcDbEntity
  8
0
100
AcDbBlockEnd
  0
BLOCK
  5
8D
330
8C
100
AcDbEntity
  8
0
100
AcDbBlockBegin
  2
*D3
 70
     1
 10
0.0
 20
0.0
 30
0.0
  3
*D3
  1

  0
LINE
  5
8F
330
8C
100
AcDbEntity
  8
001
370
     9
100
AcDbLine
 10
172.513968
 20
101.205486
 30
0.0
 11
172.513968
 21
30.857483
 31
0.0
  0
LINE
  5
90
330
8C
100
AcDbEntity
  8
001
370
     9
100
AcDbLine
 10
92.513968
 20
80.205486
 30
0.0
 11
92.513968
 21
30.857483
 31
0.0
  0
LINE
  5
91
330
8C
100
AcDbEntity
  8
001
370
     9
100
AcDbLine
 10
172.513968
 20
33.607483
 30
0.0
 11
92.513968
 21
33.607483
 31
0.0
  0
POLYLINE
  5
92
330
8C
100
AcDbEntity
  8
001
370
     9
100
AcDb2dPolyline
 66
     1
 10
0.0
 20
0.0
 30
0.0
  0
VERTEX
  5
94
330
92
100
AcDbEntity
  8
001
370
     9
100
AcDbVertex
100
AcDb2dVertex
 10
171.013968
 20
34.009407
 30
0.0
  0
VERTEX
  5
95
330
92
100
AcDbEntity
  8
001
370
     9
100
AcDbVertex
100
AcDb2dVertex
 10
172.513968
 20
33.607483
 30
0.0
  0
VERTEX
  5
96
330
92
100
AcDbEntity
  8
001
370
     9
100
AcDbVertex
100
AcDb2dVertex
 10
171.013968
 20
33.20556
 30
0.0
  0
SEQEND
  5
93
330
92
100
AcDbEntity
  8
001
370
     9
  0
POLYLINE
  5
97
330
8C
100
AcDbEntity
  8
001
370
     9
100
AcDb2dPolyline
 66
     1
 10
0.0
 20
0.0
 30
0.0
  0
VERTEX
  5
99
330
97
100
AcDbEntity
  8
001
370
     9
100
AcDbVertex
100
AcDb2dVertex
 10
94.013968
 20
33.20556
 30
0.0
  0
VERTEX
  5
9A
330
97
100
AcDbEntity
  8
001
370
     9
100
AcDbVertex
100
AcDb2dVertex
 10
92.513968
 20
33.607483
 30
0.0
  0
VERTEX
  5
9B
330
97
100
AcDbEntity
  8
001
370
     9
100
AcDbVertex
100
AcDb2dVertex
 10
94.013968
 20
34.009407
 30
0.0
  0
SEQEND
  5
98
330
97
100
AcDbEntity
  8
001
370
     9
  0
TEXT
  5
9C
330
8C
100
AcDbEntity
  8
001
370
    30
100
AcDbText
 10
128.513968
 20
34.607483
 30
0.0
 40
4.0
  1
８０
 41
0.833333
100
AcDbText
  0
POINT
  5
9D
330
8C
100
AcDbEntity
  8
001
370
     9
100
AcDbPoint
 10
172.513968
 20
101.205486
 30
0.0
  0
POINT
  5
9E
330
8C
100
AcDbEntity
  8
001
370
     9
100
AcDbPoint
 10
92.513968
 20
80.205486
 30
0.0
  0
POINT
  5
9F
330
8C
100
AcDbEntity
  8
001
370
     9
100
AcDbPoint
 10
92.513968
 20
33.607483
 30
0.0
  0
ENDBLK
  5
8E
330
8C
100
AcDbEntity
  8
0
100
AcDbBlockEnd
  0
BLOCK
  5
A1
330
A0
100
AcDbEntity
  8
0
100
AcDbBlockBegin
  2
*D4
 70
     1
 10
0.0
 20
0.0
 30
0.0
  3
*D4
  1

  0
LINE
  5
A3
330
A0
100
AcDbEntity
  8
001
370
     9
100
AcDbLine
 10
49.013968
 20
59.205486
 30
0.0
 11
49.013968
 21
14.694219
 31
0.0
  0
LINE
  5
A4
330
A0
100
AcDbEntity
  8
001
370
     9
100
AcDbLine
 10
172.513968
 20
101.205486
 30
0.0
 11
172.513968
 21
14.694219
 31
0.0
  0
LINE
  5
A5
330
A0
100
AcDbEntity
  8
001
370
     9
100
AcDbLine
 10
49.013968
 20
17.444219
 30
0.0
 11
172.513968
 21
17.444219
 31
0.0
  0
POLYLINE
  5
A6
330
A0
100
AcDbEntity
  8
001
370
     9
100
AcDb2dPolyline
 66
     1
 10
0.0
 20
0.0
 30
0.0
  0
VERTEX
  5
A8
330
A6
100
AcDbEntity
  8
001
370
     9
100
AcDbVertex
100
AcDb2dVertex
 10
50.513968
 20
17.042295
 30
0.0
  0
VERTEX
  5
A9
330
A6
100
AcDbEntity
  8
001
370
     9
100
AcDbVertex
100
AcDb2dVertex
 10
49.013968
 20
17.444219
 30
0.0
  0
VERTEX
  5
AA
330
A6
100
AcDbEntity
  8
001
370
     9
100
AcDbVertex
100
AcDb2dVertex
 10
50.513968
 20
17.846143
 30
0.0
  0
SEQEND
  5
A7
330
A6
100
AcDbEntity
  8
001
370
     9
  0
POLYLINE
  5
AB
330
A0
100
AcDbEntity
  8
001
370
     9
100
AcDb2dPolyline
 66
     1
 10
0.0
 20
0.0
 30
0.0
  0
VERTEX
  5
AD
330
AB
100
AcDbEntity
  8
001
370
     9
100
AcDbVertex
100
AcDb2dVertex
 10
171.013968
 20
17.846143
 30
0.0
  0
VERTEX
  5
AE
330
AB
100
AcDbEntity
  8
001
370
     9
100
AcDbVertex
100
AcDb2dVertex
 10
172.513968
 20
17.444219
 30
0.0
  0
VERTEX
  5
AF
330
AB
100
AcDbEntity
  8
001
370
     9
100
AcDbVertex
100
AcDb2dVertex
 10
171.013968
 20
17.042295
 30
0.0
  0
SEQEND
  5
AC
330
AB
100
AcDbEntity
  8
001
370
     9
  0
TEXT
  5
B0
330
A0
100
AcDbEntity
  8
001
370
    30
100
AcDbText
 10
100.763968
 20
18.444219
 30
0.0
 40
4.0
  1
１２３．５
 41
0.833333
100
AcDbText
  0
POINT
  5
B1
330
A0
100
AcDbEntity
  8
001
370
     9
100
AcDbPoint
 10
49.013968
 20
59.205486
 30
0.0
  0
POINT
  5
B2
330
A0
100
AcDbEntity
  8
001
370
     9
100
AcDbPoint
 10
172.513968
 20
101.205486
 30
0.0
  0
POINT
  5
B3
330
A0
100
AcDbEntity
  8
001
370
     9
100
AcDbPoint
 10
172.513968
 20
17.444219
 30
0.0
  0
ENDBLK
  5
A2
330
A0
100
AcDbEntity
  8
0
100
AcDbBlockEnd
  0
ENDSEC
  0
SECTION
  2
ENTITIES
  0
DIMENSION
  5
B4
330
1F
100
AcDbEntity
  8
001
370
     9
100
AcDbDimension
  2
*D1
 10
195.453078
 20
93.205486
 30
0.0
 11
192.453077
 21
109.205485
 31
0.0
 70
   160
 71
     5
 42
-1.0
  3
Standard
100
AcDbAlignedDimension
 13
164.513968
 23
125.205486
 33
0.0
 14
164.513968
 24
93.205486
 34
0.0
 50
270.0
100
AcDbRotatedDimension
  0
TEXT
  5
B5
330
1F
100
AcDbEntity
  8
001
370
    30
100
AcDbText
 10
23.807779
 20
101.205486
 30
0.0
 40
4.0
  1
%%c１００
 50
90.000003
 41
0.869565
100
AcDbText
  0
POLYLINE
  5
B6
330
1F
100
AcDbEntity
  8
001
370
     9
100
AcDb2dPolyline
 66
     1
 10
0.0
 20
0.0
 30
0.0
  0
VERTEX
  5
B8
330
B6
100
AcDbEntity
  8
001
370
     9
100
AcDbVertex
100
AcDb2dVertex
 10
25.209703
 20
60.705486
 30
0.0
  0
VERTEX
  5
B9
330
B6
100
AcDbEntity
  8
001
370
     9
100
AcDbVertex
100
AcDb2dVertex
 10
24.807779
 20
59.205486
 30
0.0
  0
VERTEX
  5
BA
330
B6
100
AcDbEntity
  8
001
370
     9
100
AcDbVertex
100
AcDb2dVertex
 10
24.405855
 20
60.705486
 30
0.0
  0
SEQEND
  5
B7
330
B6
100
AcDbEntity
  8
001
370
     9
  0
LINE
  5
BB
330
1F
100
AcDbEntity
  8
001
370
     9
100
AcDbLine
 10
24.807779
 20
159.205486
 30
0.0
 11
24.807779
 21
59.205486
 31
0.0
  0
POLYLINE
  5
BC
330
1F
100
AcDbEntity
  8
001
370
     9
100
AcDb2dPolyline
 66
     1
 10
0.0
 20
0.0
 30
0.0
  0
VERTEX
  5
BE
330
BC
100
AcDbEntity
  8
001
370
     9
100
AcDbVertex
100
AcDb2dVertex
 10
49.013968
 20
59.205486
 30
0.0
  0
VERTEX
  5
BF
330
BC
100
AcDbEntity
  8
001
370
     9
100
AcDbVertex
100
AcDb2dVertex
 10
24.807779
 20
59.205486
 30
0.0
  0
VERTEX
  5
C0
330
BC
100
AcDbEntity
  8
001
370
     9
100
AcDbVertex
100
AcDb2dVertex
 10
22.057779
 20
59.205486
 30
0.0
  0
SEQEND
  5
BD
330
BC
100
AcDbEntity
  8
001
370
     9
  0
DIMENSION
  5
C1
330
1F
100
AcDbEntity
  8
001
370
     9
100
AcDbDimension
  2
*D2
 10
49.013968
 20
33.607483
 30
0.0
 11
70.763968
 21
36.607483
 31
0.0
 70
   160
 71
     5
 42
-1.0
  3
Standard
100
AcDbAlignedDimension
 13
92.513968
 23
80.205486
 33
0.0
 14
49.013968
 24
59.205486
 34
0.0
 50
180.0
100
AcDbRotatedDimension
  0
DIMENSION
  5
C2
330
1F
100
AcDbEntity
  8
001
370
     9
100
AcDbDimension
  2
*D3
 10
92.513968
 20
33.607483
 30
0.0
 11
132.513968
 21
36.607483
 31
0.0
 70
   160
 71
     5
 42
-1.0
  3
Standard
100
AcDbAlignedDimension
 13
172.513968
 23
101.205486
 33
0.0
 14
92.513968
 24
80.205486
 34
0.0
 50
180.0
100
AcDbRotatedDimension
  0
DIMENSION
  5
C3
330
1F
100
AcDbEntity
  8
001
370
     9
100
AcDbDimension
  2
*D4
 10
172.513968
 20
17.444219
 30
0.0
 11
110.763968
 21
20.444219
 31
0.0
 70
   160
 71
     5
 42
-1.0
  3
Standard
100
AcDbAlignedDimension
 13
49.013968
 23
59.205486
 33
0.0
 14
172.513968
 24
101.205486
 34
0.0
100
AcDbRotatedDimension
  0
POLYLINE
  5
C4
330
1F
100
AcDbEntity
  8
001
 62
   200
370
    50
100
AcDb2dPolyline
 66
     1
 10
0.0
 20
0.0
 30
0.0
  0
VERTEX
  5
C6
330
C4
100
AcDbEntity
  8
001
 62
   200
370
    50
100
AcDbVertex
100
AcDb2dVertex
 10
56.825465
 20
131.381246
 30
0.0
  0
VERTEX
  5
C7
330
C4
100
AcDbEntity
  8
001
 62
   200
370
    50
100
AcDbVertex
100
AcDb2dVertex
 10
56.778972
 20
131.234724
 30
0.0
  0
VERTEX
  5
C8
330
C4
100
AcDbEntity
  8
001
 62
   200
370
    50
100
AcDbVertex
100
AcDb2dVertex
 10
56.71233
 20
131.02017
 30
0.0
  0
VERTEX
  5
C9
330
C4
100
AcDbEntity
  8
001
 62
   200
370
    50
100
AcDbVertex
100
AcDb2dVertex
 10
56.647685
 20
130.805624
 30
0.0
  0
VERTEX
  5
CA
330
C4
100
AcDbEntity
  8
001
 62
   200
370
    50
100
AcDbVertex
100
AcDb2dVertex
 10
56.604352
 20
130.65856
 30
0.0
  0
SEQEND
  5
C5
330
C4
100
AcDbEntity
  8
001
370
    50
  0
LINE
  5
CB
330
1F
100
AcDbEntity
  8
001
 62
   200
370
    50
100
AcDbLine
 10
64.513968
 20
131.381246
 30
0.0
 11
56.825465
 21
131.381246
 31
0.0
  0
POLYLINE
  5
CC
330
1F
100
AcDbEntity
  8
001
 62
   200
370
    50
100
AcDb2dPolyline
 66
     1
 10
0.0
 20
0.0
 30
0.0
  0
VERTEX
  5
CE
330
CC
100
AcDbEntity
  8
001
 62
   200
370
    50
100
AcDbVertex
100
AcDb2dVertex
 10
64.513968
 20
131.381246
 30
0.0
  0
VERTEX
  5
CF
330
CC
100
AcDbEntity
  8
001
 62
   200
370
    50
100
AcDbVertex
100
AcDb2dVertex
 10
65.349406
 20
129.302586
 30
0.0
  0
VERTEX
  5
D0
330
CC
100
AcDbEntity
  8
001
 62
   200
370
    50
100
AcDbVertex
100
AcDb2dVertex
 10
66.714705
 20
126.329466
 30
0.0
  0
VERTEX
  5
D1
330
CC
100
AcDbEntity
  8
001
 62
   200
370
    50
100
AcDbVertex
100
AcDb2dVertex
 10
67.183929
 20
125.413275
 30
0.0
  0
VERTEX
  5
D2
330
CC
100
AcDbEntity
  8
001
 62
   200
370
    50
100
AcDbVertex
100
AcDb2dVertex
 10
67.513968
 20
124.790956
 30
0.0
  0
SEQEND
  5
CD
330
CC
100
AcDbEntity
  8
001
370
    50
  0
LINE
  5
D3
330
1F
100
AcDbEntity
  8
001
 62
   200
370
    50
100
AcDbLine
 10
67.513968
 20
113.15114
 30
0.0
 11
52.513968
 21
113.15114
 31
0.0
  0
POLYLINE
  5
D4
330
1F
100
AcDbEntity
  8
001
 62
   200
370
    50
100
AcDb2dPolyline
 66
     1
 10
0.0
 20
0.0
 30
0.0
  0
VERTEX
  5
D6
330
D4
100
AcDbEntity
  8
001
 62
   200
370
    50
100
AcDbVertex
100
AcDb2dVertex
 10
50.03209
 20
118.959069
 30
0.0
  0
VERTEX
  5
D7
330
D4
100
AcDbEntity
  8
001
 62
   200
370
    50
100
AcDbVertex
100
AcDb2dVertex
 10
50.870399
 20
117.722987
 30
0.0
  0
VERTEX
  5
D8
330
D4
100
AcDbEntity
  8
001
 62
   200
370
    50
100
AcDbVertex
100
AcDb2dVertex
 10
52.139331
 20
115.947399
 30
0.0
  0
VERTEX
  5
D9
330
D4
100
AcDbEntity
  8
001
 62
   200
370
    50
100
AcDbVertex
100
AcDb2dVertex
 10
52.361271
 20
115.64954
 30
0.0
  0
VERTEX
  5
DA
330
D4
100
AcDbEntity
  8
001
 62
   200
370
    50
100
AcDbVertex
100
AcDb2dVertex
 10
52.513968
 20
115.446365
 30
0.0
  0
SEQEND
  5
D5
330
D4
100
AcDbEntity
  8
001
370
    50
  0
POLYLINE
  5
DB
330
1F
100
AcDbEntity
  8
001
 62
   200
370
    50
100
AcDb2dPolyline
 66
     1
 10
0.0
 20
0.0
 30
0.0
  0
VERTEX
  5
DD
330
DB
100
AcDbEntity
  8
001
 62
   200
370
    50
100
AcDbVertex
100
AcDb2dVertex
 10
54.148935
 20
131.348433
 30
0.0
  0
VERTEX
  5
DE
330
DB
100
AcDbEntity
  8
001
 62
   200
370
    50
100
AcDbVertex
100
AcDb2dVertex
 10
53.725371
 20
129.80701
 30
0.0
  0
VERTEX
  5
DF
330
DB
100
AcDbEntity
  8
001
 62
   200
370
    50
100
AcDbVertex
100
AcDb2dVertex
 10
53.286868
 20
128.269938
 30
0.0
  0
VERTEX
  5
E0
330
DB
100
AcDbEntity
  8
001
 62
   200
370
    50
100
AcDbVertex
100
AcDb2dVertex
 10
52.815327
 20
126.720068
 30
0.0
  0
VERTEX
  5
E1
330
DB
100
AcDbEntity
  8
001
 62
   200
370
    50
100
AcDbVertex
100
AcDb2dVertex
 10
52.31818
 20
125.178037
 30
0.0
  0
VERTEX
  5
E2
330
DB
100
AcDbEntity
  8
001
 62
   200
370
    50
100
AcDbVertex
100
AcDb2dVertex
 10
51.786216
 20
123.607465
 30
0.0
  0
VERTEX
  5
E3
330
DB
100
AcDbEntity
  8
001
 62
   200
370
    50
100
AcDbVertex
100
AcDb2dVertex
 10
51.226534
 20
122.046766
 30
0.0
  0
VERTEX
  5
E4
330
DB
100
AcDbEntity
  8
001
 62
   200
370
    50
100
AcDbVertex
100
AcDb2dVertex
 10
50.637768
 20
120.499756
 30
0.0
  0
VERTEX
  5
E5
330
DB
100
AcDbEntity
  8
001
 62
   200
370
    50
100
AcDbVertex
100
AcDb2dVertex
 10
50.03209
 20
118.959069
 30
0.0
  0
SEQEND
  5
DC
330
DB
100
AcDbEntity
  8
001
370
    50
  0
POLYLINE
  5
E6
330
1F
100
AcDbEntity
  8
001
 62
   200
370
    50
100
AcDb2dPolyline
 66
     1
 10
0.0
 20
0.0
 30
0.0
  0
VERTEX
  5
E8
330
E6
100
AcDbEntity
  8
001
 62
   200
370
    50
100
AcDbVertex
100
AcDb2dVertex
 10
56.604352
 20
130.65856
 30
0.0
  0
VERTEX
  5
E9
330
E6
100
AcDbEntity
  8
001
 62
   200
370
    50
100
AcDbVertex
100
AcDb2dVertex
 10
56.106526
 20
130.798962
 30
0.0
  0
VERTEX
  5
EA
330
E6
100
AcDbEntity
  8
001
 62
   200
370
    50
100
AcDbVertex
100
AcDb2dVertex
 10
55.378814
 20
131.003739
 30
0.0
  0
VERTEX
  5
EB
330
E6
100
AcDbEntity
  8
001
 62
   200
370
    50
100
AcDbVertex
100
AcDb2dVertex
 10
54.648622
 20
131.208574
 30
0.0
  0
VERTEX
  5
EC
330
E6
100
AcDbEntity
  8
001
 62
   200
370
    50
100
AcDbVertex
100
AcDb2dVertex
 10
54.148935
 20
131.348433
 30
0.0
  0
SEQEND
  5
E7
330
E6
100
AcDbEntity
  8
001
370
    50
  0
POLYLINE
  5
ED
330
1F
100
AcDbEntity
  8
001
 62
   200
370
    50
100
AcDb2dPolyline
 66
     1
 10
0.0
 20
0.0
 30
0.0
  0
VERTEX
  5
EF
330
ED
100
AcDbEntity
  8
001
 62
   200
370
    50
100
AcDbVertex
100
AcDb2dVertex
 10
49.857006
 20
120.008151
 30
0.0
  0
VERTEX
  5
F0
330
ED
100
AcDbEntity
  8
001
 62
   200
370
    50
100
AcDbVertex
100
AcDb2dVertex
 10
49.89167
 20
119.795319
 30
0.0
  0
VERTEX
  5
F1
330
ED
100
AcDbEntity
  8
001
 62
   200
370
    50
100
AcDbVertex
100
AcDb2dVertex
 10
49.943051
 20
119.484374
 30
0.0
  0
VERTEX
  5
F2
330
ED
100
AcDbEntity
  8
001
 62
   200
370
    50
100
AcDbVertex
100
AcDb2dVertex
 10
49.995626
 20
119.172425
 30
0.0
  0
VERTEX
  5
F3
330
ED
100
AcDbEntity
  8
001
 62
   200
370
    50
100
AcDbVertex
100
AcDb2dVertex
 10
50.03209
 20
118.959069
 30
0.0
  0
SEQEND
  5
EE
330
ED
100
AcDbEntity
  8
001
370
    50
  0
LINE
  5
F4
330
1F
100
AcDbEntity
  8
001
 62
   200
370
    50
100
AcDbLine
 10
49.857006
 20
120.008151
 30
0.0
 11
49.857006
 21
130.448857
 31
0.0
  0
LINE
  5
F5
330
1F
100
AcDbEntity
  8
001
 62
   200
370
    50
100
AcDbLine
 10
54.148935
 20
131.348433
 30
0.0
 11
49.857006
 21
130.448857
 31
0.0
  0
LINE
  5
F6
330
1F
100
AcDbEntity
  8
001
 62
   200
370
    50
100
AcDbLine
 10
64.513968
 20
132.716237
 30
0.0
 11
64.513968
 21
131.381246
 31
0.0
  0
LINE
  5
F7
330
1F
100
AcDbEntity
  8
001
 62
   200
370
    50
100
AcDbLine
 10
67.513968
 20
130.655289
 30
0.0
 11
64.513968
 21
132.716237
 31
0.0
  0
LINE
  5
F8
330
1F
100
AcDbEntity
  8
001
 62
   200
370
    50
100
AcDbLine
 10
64.513968
 20
132.716237
 30
0.0
 11
59.148677
 21
133.962966
 31
0.0
  0
LINE
  5
F9
330
1F
100
AcDbEntity
  8
001
 62
   200
370
    50
100
AcDbLine
 10
56.825465
 20
131.381246
 30
0.0
 11
59.148677
 21
133.962966
 31
0.0
  0
LINE
  5
FA
330
1F
100
AcDbEntity
  8
001
 62
   200
370
    50
100
AcDbLine
 10
52.513968
 20
115.446365
 30
0.0
 11
52.513968
 21
111.292098
 31
0.0
  0
LINE
  5
FB
330
1F
100
AcDbEntity
  8
001
 62
   200
370
    50
100
AcDbLine
 10
67.513968
 20
111.466964
 30
0.0
 11
67.513968
 21
130.655289
 31
0.0
  0
LINE
  5
FC
330
1F
100
AcDbEntity
  8
001
 62
     4
370
    50
100
AcDbLine
 10
56.378443
 20
130.818672
 30
0.0
 11
56.604352
 21
130.65856
 31
0.0
  0
LINE
  5
FD
330
1F
100
AcDbEntity
  8
001
 62
     4
370
    50
100
AcDbLine
 10
57.145917
 20
135.625646
 30
0.0
 11
56.378443
 21
130.818672
 31
0.0
  0
LINE
  5
FE
330
1F
100
AcDbEntity
  8
001
 62
     4
370
    50
100
AcDbLine
 10
57.145917
 20
135.625646
 30
0.0
 11
59.659243
 21
133.844326
 31
0.0
  0
LINE
  5
FF
330
1F
100
AcDbEntity
  8
001
 62
     4
370
    50
100
AcDbLine
 10
49.857006
 20
130.448857
 30
0.0
 11
49.857006
 21
130.580459
 31
0.0
  0
LINE
  5
100
330
1F
100
AcDbEntity
  8
001
 62
     4
370
    50
100
AcDbLine
 10
49.857006
 20
130.580459
 30
0.0
 11
53.676473
 21
131.463753
 31
0.0
  0
LINE
  5
101
330
1F
100
AcDbEntity
  8
001
 62
     4
370
    50
100
AcDbLine
 10
53.676473
 20
131.463753
 30
0.0
 11
56.378443
 21
130.818672
 31
0.0
  0
LINE
  5
102
330
1F
100
AcDbEntity
  8
001
 62
     4
370
    50
100
AcDbLine
 10
55.186607
 20
136.09342
 30
0.0
 11
57.145917
 21
135.625646
 31
0.0
  0
LINE
  5
103
330
1F
100
AcDbEntity
  8
001
 62
     4
370
    50
100
AcDbLine
 10
55.186607
 20
136.09342
 30
0.0
 11
53.676473
 21
131.463753
 31
0.0
  0
LINE
  5
104
330
1F
100
AcDbEntity
  8
001
 62
     4
370
    50
100
AcDbLine
 10
49.013968
 20
134.665929
 30
0.0
 11
49.857006
 21
130.580459
 31
0.0
  0
LINE
  5
105
330
1F
100
AcDbEntity
  8
001
 62
     4
370
    50
100
AcDbLine
 10
49.013968
 20
134.665929
 30
0.0
 11
55.186607
 21
136.09342
 31
0.0
  0
LINE
  5
106
330
1F
100
AcDbEntity
  8
001
 62
     4
370
    50
100
AcDbLine
 10
49.013968
 20
133.745042
 30
0.0
 11
49.857006
 21
129.310518
 31
0.0
  0
LINE
  5
107
330
1F
100
AcDbEntity
  8
001
 62
   200
370
    50
100
AcDbLine
 10
67.513968
 20
149.222607
 30
0.0
 11
52.513968
 21
149.222607
 31
0.0
  0
LINE
  5
108
330
1F
100
AcDbEntity
  8
001
 62
   200
370
    50
100
AcDbLine
 10
52.513968
 20
149.222607
 30
0.0
 11
52.513968
 21
147.205486
 31
0.0
  0
LINE
  5
109
330
1F
100
AcDbEntity
  8
001
 62
   200
370
    50
100
AcDbLine
 10
67.513968
 20
148.205486
 30
0.0
 11
67.513968
 21
149.222607
 31
0.0
  0
LINE
  5
10A
330
1F
100
AcDbEntity
  8
001
 62
   200
370
    50
100
AcDbLine
 10
49.857006
 20
137.611498
 30
0.0
 11
52.513968
 21
136.710441
 31
0.0
  0
LINE
  5
10B
330
1F
100
AcDbEntity
  8
001
 62
   200
370
    50
100
AcDbLine
 10
49.857006
 20
137.611498
 30
0.0
 11
49.857006
 21
147.045563
 31
0.0
  0
POLYLINE
  5
10C
330
1F
100
AcDbEntity
  8
001
 62
   200
370
    50
100
AcDb2dPolyline
 66
     1
 10
0.0
 20
0.0
 30
0.0
  0
VERTEX
  5
10E
330
10C
100
AcDbEntity
  8
001
 62
   200
370
    50
100
AcDbVertex
100
AcDb2dVertex
 10
50.03209
 20
147.911179
 30
0.0
  0
VERTEX
  5
10F
330
10C
100
AcDbEntity
  8
001
 62
   200
370
    50
100
AcDbVertex
100
AcDb2dVertex
 10
49.995569
 20
147.735749
 30
0.0
  0
VERTEX
  5
110
330
10C
100
AcDbEntity
  8
001
 62
   200
370
    50
100
AcDbVertex
100
AcDb2dVertex
 10
49.943051
 20
147.479175
 30
0.0
  0
VERTEX
  5
111
330
10C
100
AcDbEntity
  8
001
 62
   200
370
    50
100
AcDbVertex
100
AcDb2dVertex
 10
49.891613
 20
147.221788
 30
0.0
  0
VERTEX
  5
112
330
10C
100
AcDbEntity
  8
001
 62
   200
370
    50
100
AcDbVertex
100
AcDb2dVertex
 10
49.857006
 20
147.045563
 30
0.0
  0
SEQEND
  5
10D
330
10C
100
AcDbEntity
  8
001
370
    50
  0
POLYLINE
  5
113
330
1F
100
AcDbEntity
  8
001
 62
   200
370
    50
100
AcDb2dPolyline
 66
     1
 10
0.0
 20
0.0
 30
0.0
  0
VERTEX
  5
115
330
113
100
AcDbEntity
  8
001
 62
   200
370
    50
100
AcDbVertex
100
AcDb2dVertex
 10
52.513968
 20
148.82317
 30
0.0
  0
VERTEX
  5
116
330
113
100
AcDbEntity
  8
001
 62
   200
370
    50
100
AcDbVertex
100
AcDb2dVertex
 10
51.992724
 20
148.668572
 30
0.0
  0
VERTEX
  5
117
330
113
100
AcDbEntity
  8
001
 62
   200
370
    50
100
AcDbVertex
100
AcDb2dVertex
 10
51.240498
 20
148.414273
 30
0.0
  0
VERTEX
  5
118
330
113
100
AcDbEntity
  8
001
 62
   200
370
    50
100
AcDbVertex
100
AcDb2dVertex
 10
50.518524
 20
148.126779
 30
0.0
  0
VERTEX
  5
119
330
113
100
AcDbEntity
  8
001
 62
   200
370
    50
100
AcDbVertex
100
AcDb2dVertex
 10
50.03209
 20
147.911179
 30
0.0
  0
SEQEND
  5
114
330
113
100
AcDbEntity
  8
001
370
    50
  0
LINE
  5
11A
330
1F
100
AcDbEntity
  8
001
 62
     4
370
    50
100
AcDbLine
 10
49.03265
 20
133.646769
 30
0.0
 11
49.013968
 21
133.653105
 31
0.0
  0
LINE
  5
11B
330
1F
100
AcDbEntity
  8
001
 62
     4
370
    50
100
AcDbLine
 10
49.013968
 20
133.653105
 30
0.0
 11
49.02338
 21
133.695534
 31
0.0
  0
LINE
  5
11C
330
1F
100
AcDbEntity
  8
001
 62
     4
370
    50
100
AcDbLine
 10
49.25079
 20
134.720697
 30
0.0
 11
49.857006
 21
137.453503
 31
0.0
  0
LINE
  5
11D
330
1F
100
AcDbEntity
  8
001
 62
     4
370
    50
100
AcDbLine
 10
52.513968
 20
136.552446
 30
0.0
 11
49.857006
 21
137.453503
 31
0.0
  0
LINE
  5
11E
330
1F
100
AcDbEntity
  8
001
 62
     4
370
    50
100
AcDbLine
 10
49.857006
 20
137.453503
 30
0.0
 11
49.857006
 21
137.611498
 31
0.0
  0
LINE
  5
11F
330
1F
100
AcDbEntity
  8
001
 62
     4
370
    50
100
AcDbLine
 10
49.013968
 20
134.757866
 30
0.0
 11
49.857006
 21
138.977014
 31
0.0
  0
LINE
  5
120
330
1F
100
AcDbEntity
  8
001
 62
     4
370
    50
100
AcDbLine
 10
49.013968
 20
133.653105
 30
0.0
 11
49.013968
 21
134.757866
 31
0.0
  0
LINE
  5
121
330
1F
100
AcDbEntity
  8
001
 62
   200
370
    50
100
AcDbLine
 10
57.03143
 20
66.712369
 30
0.0
 11
53.606249
 21
70.205486
 31
0.0
  0
LINE
  5
122
330
1F
100
AcDbEntity
  8
001
 62
   200
370
    50
100
AcDbLine
 10
67.513968
 20
57.163761
 30
0.0
 11
64.513968
 21
54.163761
 31
0.0
  0
LINE
  5
123
330
1F
100
AcDbEntity
  8
001
 62
   200
370
    50
100
AcDbLine
 10
64.513968
 20
54.163761
 30
0.0
 11
59.282315
 21
54.163761
 31
0.0
  0
POLYLINE
  5
124
330
1F
100
AcDbEntity
  8
001
 62
   200
370
    50
100
AcDb2dPolyline
 66
     1
 10
0.0
 20
0.0
 30
0.0
  0
VERTEX
  5
126
330
124
100
AcDbEntity
  8
001
 62
   200
370
    50
100
AcDbVertex
100
AcDb2dVertex
 10
61.860044
 20
62.332765
 30
0.0
  0
VERTEX
  5
127
330
124
100
AcDbEntity
  8
001
 62
   200
370
    50
100
AcDbVertex
100
AcDb2dVertex
 10
61.765713
 20
62.349285
 30
0.0
  0
VERTEX
  5
128
330
124
100
AcDbEntity
  8
001
 62
   200
370
    50
100
AcDbVertex
100
AcDb2dVertex
 10
61.62712
 20
62.368131
 30
0.0
  0
VERTEX
  5
129
330
124
100
AcDbEntity
  8
001
 62
   200
370
    50
100
AcDbVertex
100
AcDb2dVertex
 10
61.487651
 20
62.379571
 30
0.0
  0
VERTEX
  5
12A
330
124
100
AcDbEntity
  8
001
 62
   200
370
    50
100
AcDbVertex
100
AcDb2dVertex
 10
61.391927
 20
62.383749
 30
0.0
  0
SEQEND
  5
125
330
124
100
AcDbEntity
  8
001
370
    50
  0
LINE
  5
12B
330
1F
100
AcDbEntity
  8
001
 62
   200
370
    50
100
AcDbLine
 10
67.513968
 20
70.205486
 30
0.0
 11
67.513968
 21
57.163761
 31
0.0
  0
LINE
  5
12C
330
1F
100
AcDbEntity
  8
001
 62
   200
370
    50
100
AcDbLine
 10
54.906901
 20
66.393401
 30
0.0
 11
52.513968
 21
68.833796
 31
0.0
  0
POLYLINE
  5
12D
330
1F
100
AcDbEntity
  8
001
 62
   200
370
    50
100
AcDb2dPolyline
 66
     1
 10
0.0
 20
0.0
 30
0.0
  0
VERTEX
  5
12F
330
12D
100
AcDbEntity
  8
001
 62
   200
370
    50
100
AcDbVertex
100
AcDb2dVertex
 10
61.41378
 20
56.397283
 30
0.0
  0
VERTEX
  5
130
330
12D
100
AcDbEntity
  8
001
 62
   200
370
    50
100
AcDbVertex
100
AcDb2dVertex
 10
61.539928
 20
56.408992
 30
0.0
  0
VERTEX
  5
131
330
12D
100
AcDbEntity
  8
001
 62
   200
370
    50
100
AcDbVertex
100
AcDb2dVertex
 10
61.715923
 20
56.431876
 30
0.0
  0
VERTEX
  5
132
330
12D
100
AcDbEntity
  8
001
 62
   200
370
    50
100
AcDbVertex
100
AcDb2dVertex
 10
61.978962
 20
56.486248
 30
0.0
  0
VERTEX
  5
133
330
12D
100
AcDbEntity
  8
001
 62
   200
370
    50
100
AcDbVertex
100
AcDb2dVertex
 10
62.206973
 20
56.561142
 30
0.0
  0
VERTEX
  5
134
330
12D
100
AcDbEntity
  8
001
 62
   200
370
    50
100
AcDbVertex
100
AcDb2dVertex
 10
62.872431
 20
56.916066
 30
0.0
  0
VERTEX
  5
135
330
12D
100
AcDbEntity
  8
001
 62
   200
370
    50
100
AcDbVertex
100
AcDb2dVertex
 10
63.457035
 20
57.435805
 30
0.0
  0
VERTEX
  5
136
330
12D
100
AcDbEntity
  8
001
 62
   200
370
    50
100
AcDbVertex
100
AcDb2dVertex
 10
63.760471
 20
57.861718
 30
0.0
  0
VERTEX
  5
137
330
12D
100
AcDbEntity
  8
001
 62
   200
370
    50
100
AcDbVertex
100
AcDb2dVertex
 10
63.982076
 20
58.33081
 30
0.0
  0
VERTEX
  5
138
330
12D
100
AcDbEntity
  8
001
 62
   200
370
    50
100
AcDbVertex
100
AcDb2dVertex
 10
64.063951
 20
58.579294
 30
0.0
  0
VERTEX
  5
139
330
12D
100
AcDbEntity
  8
001
 62
   200
370
    50
100
AcDbVertex
100
AcDb2dVertex
 10
64.125088
 20
58.833666
 30
0.0
  0
VERTEX
  5
13A
330
12D
100
AcDbEntity
  8
001
 62
   200
370
    50
100
AcDbVertex
100
AcDb2dVertex
 10
64.164474
 20
59.092247
 30
0.0
  0
VERTEX
  5
13B
330
12D
100
AcDbEntity
  8
001
 62
   200
370
    50
100
AcDbVertex
100
AcDb2dVertex
 10
64.181804
 20
59.353376
 30
0.0
  0
VERTEX
  5
13C
330
12D
100
AcDbEntity
  8
001
 62
   200
370
    50
100
AcDbVertex
100
AcDb2dVertex
 10
64.15056
 20
59.872391
 30
0.0
  0
VERTEX
  5
13D
330
12D
100
AcDbEntity
  8
001
 62
   200
370
    50
100
AcDbVertex
100
AcDb2dVertex
 10
64.032129
 20
60.380167
 30
0.0
  0
VERTEX
  5
13E
330
12D
100
AcDbEntity
  8
001
 62
   200
370
    50
100
AcDbVertex
100
AcDb2dVertex
 10
63.702896
 20
61.074554
 30
0.0
  0
VERTEX
  5
13F
330
12D
100
AcDbEntity
  8
001
 62
   200
370
    50
100
AcDbVertex
100
AcDb2dVertex
 10
63.203065
 20
61.660926
 30
0.0
  0
VERTEX
  5
140
330
12D
100
AcDbEntity
  8
001
 62
   200
370
    50
100
AcDbVertex
100
AcDb2dVertex
 10
63.003425
 20
61.82314
 30
0.0
  0
VERTEX
  5
141
330
12D
100
AcDbEntity
  8
001
 62
   200
370
    50
100
AcDbVertex
100
AcDb2dVertex
 10
62.796746
 20
61.965467
 30
0.0
  0
VERTEX
  5
142
330
12D
100
AcDbEntity
  8
001
 62
   200
370
    50
100
AcDbVertex
100
AcDb2dVertex
 10
62.586404
 20
62.086611
 30
0.0
  0
VERTEX
  5
143
330
12D
100
AcDbEntity
  8
001
 62
   200
370
    50
100
AcDbVertex
100
AcDb2dVertex
 10
62.344492
 20
62.191704
 30
0.0
  0
VERTEX
  5
144
330
12D
100
AcDbEntity
  8
001
 62
   200
370
    50
100
AcDbVertex
100
AcDb2dVertex
 10
62.066074
 20
62.280887
 30
0.0
  0
VERTEX
  5
145
330
12D
100
AcDbEntity
  8
001
 62
   200
370
    50
100
AcDbVertex
100
AcDb2dVertex
 10
61.860044
 20
62.332764
 30
0.0
  0
SEQEND
  5
12E
330
12D
100
AcDbEntity
  8
001
370
    50
  0
LINE
  5
146
330
1F
100
AcDbEntity
  8
001
 62
   200
370
    50
100
AcDbLine
 10
52.513968
 20
63.885892
 30
0.0
 11
52.513968
 21
71.205486
 31
0.0
  0
LINE
  5
147
330
1F
100
AcDbEntity
  8
001
 62
     4
370
    50
100
AcDbLine
 10
57.145917
 20
51.925071
 30
0.0
 11
63.318556
 21
58.393261
 31
0.0
  0
LINE
  5
148
330
1F
100
AcDbEntity
  8
001
 62
     4
370
    50
100
AcDbLine
 10
55.186607
 20
51.897595
 30
0.0
 11
57.145917
 21
51.925071
 31
0.0
  0
LINE
  5
149
330
1F
100
AcDbEntity
  8
001
 62
     4
370
    50
100
AcDbLine
 10
49.013968
 20
58.192662
 30
0.0
 11
55.186607
 21
51.897595
 31
0.0
  0
LINE
  5
14A
330
1F
100
AcDbEntity
  8
001
 62
     4
370
    50
100
AcDbLine
 10
49.013968
 20
60.218309
 30
0.0
 11
49.013968
 21
58.192662
 31
0.0
  0
LINE
  5
14B
330
1F
100
AcDbEntity
  8
001
 62
     4
370
    50
100
AcDbLine
 10
55.186607
 20
66.686499
 30
0.0
 11
49.013968
 21
60.218309
 31
0.0
  0
LINE
  5
14C
330
1F
100
AcDbEntity
  8
001
 62
     4
370
    50
100
AcDbLine
 10
57.145917
 20
66.713975
 30
0.0
 11
55.186607
 21
66.686499
 31
0.0
  0
LINE
  5
14D
330
1F
100
AcDbEntity
  8
001
 62
     4
370
    50
100
AcDbLine
 10
63.318556
 20
60.418908
 30
0.0
 11
57.145917
 21
66.713975
 31
0.0
  0
LINE
  5
14E
330
1F
100
AcDbEntity
  8
001
 62
     4
370
    50
100
AcDbLine
 10
63.318556
 20
58.393261
 30
0.0
 11
63.318556
 21
60.418908
 31
0.0
  0
POLYLINE
  5
14F
330
1F
100
AcDbEntity
  8
001
 62
     4
370
    50
100
AcDb2dPolyline
 66
     1
 10
0.0
 20
0.0
 30
0.0
  0
VERTEX
  5
151
330
14F
100
AcDbEntity
  8
001
 62
     4
370
    50
100
AcDbVertex
100
AcDb2dVertex
 10
56.166262
 20
56.309896
 30
0.0
  0
VERTEX
  5
152
330
14F
100
AcDbEntity
  8
001
 62
     4
370
    50
100
AcDbVertex
100
AcDb2dVertex
 10
56.347394
 20
56.320823
 30
0.0
  0
VERTEX
  5
153
330
14F
100
AcDbEntity
  8
001
 62
     4
370
    50
100
AcDbVertex
100
AcDb2dVertex
 10
56.597234
 20
56.349259
 30
0.0
  0
VERTEX
  5
154
330
14F
100
AcDbEntity
  8
001
 62
     4
370
    50
100
AcDbVertex
100
AcDb2dVertex
 10
56.85854
 20
56.402916
 30
0.0
  0
VERTEX
  5
155
330
14F
100
AcDbEntity
  8
001
 62
     4
370
    50
100
AcDbVertex
100
AcDb2dVertex
 10
57.088285
 20
56.478524
 30
0.0
  0
VERTEX
  5
156
330
14F
100
AcDbEntity
  8
001
 62
     4
370
    50
100
AcDbVertex
100
AcDb2dVertex
 10
57.755502
 20
56.834173
 30
0.0
  0
VERTEX
  5
157
330
14F
100
AcDbEntity
  8
001
 62
     4
370
    50
100
AcDbVertex
100
AcDb2dVertex
 10
58.338346
 20
57.353188
 30
0.0
  0
VERTEX
  5
158
330
14F
100
AcDbEntity
  8
001
 62
     4
370
    50
100
AcDbVertex
100
AcDb2dVertex
 10
58.641533
 20
57.778998
 30
0.0
  0
VERTEX
  5
159
330
14F
100
AcDbEntity
  8
001
 62
     4
370
    50
100
AcDbVertex
100
AcDb2dVertex
 10
58.863387
 20
58.248193
 30
0.0
  0
VERTEX
  5
15A
330
14F
100
AcDbEntity
  8
001
 62
     4
370
    50
100
AcDbVertex
100
AcDb2dVertex
 10
58.945287
 20
58.496686
 30
0.0
  0
VERTEX
  5
15B
330
14F
100
AcDbEntity
  8
001
 62
     4
370
    50
100
AcDbVertex
100
AcDb2dVertex
 10
59.006399
 20
58.751048
 30
0.0
  0
VERTEX
  5
15C
330
14F
100
AcDbEntity
  8
001
 62
     4
370
    50
100
AcDbVertex
100
AcDb2dVertex
 10
59.045779
 20
59.009627
 30
0.0
  0
VERTEX
  5
15D
330
14F
100
AcDbEntity
  8
001
 62
     4
370
    50
100
AcDbVertex
100
AcDb2dVertex
 10
59.063115
 20
59.270759
 30
0.0
  0
VERTEX
  5
15E
330
14F
100
AcDbEntity
  8
001
 62
     4
370
    50
100
AcDbVertex
100
AcDb2dVertex
 10
59.031876
 20
59.789775
 30
0.0
  0
VERTEX
  5
15F
330
14F
100
AcDbEntity
  8
001
 62
     4
370
    50
100
AcDbVertex
100
AcDb2dVertex
 10
58.91344
 20
60.29755
 30
0.0
  0
VERTEX
  5
160
330
14F
100
AcDbEntity
  8
001
 62
     4
370
    50
100
AcDbVertex
100
AcDb2dVertex
 10
58.584206
 20
60.991936
 30
0.0
  0
VERTEX
  5
161
330
14F
100
AcDbEntity
  8
001
 62
     4
370
    50
100
AcDbVertex
100
AcDb2dVertex
 10
58.084377
 20
61.578309
 30
0.0
  0
VERTEX
  5
162
330
14F
100
AcDbEntity
  8
001
 62
     4
370
    50
100
AcDbVertex
100
AcDb2dVertex
 10
57.884737
 20
61.740522
 30
0.0
  0
VERTEX
  5
163
330
14F
100
AcDbEntity
  8
001
 62
     4
370
    50
100
AcDbVertex
100
AcDb2dVertex
 10
57.678058
 20
61.882849
 30
0.0
  0
VERTEX
  5
164
330
14F
100
AcDbEntity
  8
001
 62
     4
370
    50
100
AcDbVertex
100
AcDb2dVertex
 10
57.467715
 20
62.003993
 30
0.0
  0
VERTEX
  5
165
330
14F
100
AcDbEntity
  8
001
 62
     4
370
    50
100
AcDbVertex
100
AcDb2dVertex
 10
57.225804
 20
62.109086
 30
0.0
  0
VERTEX
  5
166
330
14F
100
AcDbEntity
  8
001
 62
     4
370
    50
100
AcDbVertex
100
AcDb2dVertex
 10
56.947386
 20
62.198269
 30
0.0
  0
VERTEX
  5
167
330
14F
100
AcDbEntity
  8
001
 62
     4
370
    50
100
AcDbVertex
100
AcDb2dVertex
 10
56.741356
 20
62.250147
 30
0.0
  0
SEQEND
  5
150
330
14F
100
AcDbEntity
  8
001
370
    50
  0
POLYLINE
  5
168
330
1F
100
AcDbEntity
  8
001
 62
     4
370
    50
100
AcDb2dPolyline
 66
     1
 10
0.0
 20
0.0
 30
0.0
  0
VERTEX
  5
16A
330
168
100
AcDbEntity
  8
001
 62
     4
370
    50
100
AcDbVertex
100
AcDb2dVertex
 10
55.591168
 20
56.361423
 30
0.0
  0
VERTEX
  5
16B
330
168
100
AcDbEntity
  8
001
 62
     4
370
    50
100
AcDbVertex
100
AcDb2dVertex
 10
55.794265
 20
56.330535
 30
0.0
  0
VERTEX
  5
16C
330
168
100
AcDbEntity
  8
001
 62
     4
370
    50
100
AcDbVertex
100
AcDb2dVertex
 10
56.093089
 20
56.309825
 30
0.0
  0
VERTEX
  5
16D
330
168
100
AcDbEntity
  8
001
 62
     4
370
    50
100
AcDbVertex
100
AcDb2dVertex
 10
56.136533
 20
56.309658
 30
0.0
  0
VERTEX
  5
16E
330
168
100
AcDbEntity
  8
001
 62
     4
370
    50
100
AcDbVertex
100
AcDb2dVertex
 10
56.166262
 20
56.309896
 30
0.0
  0
SEQEND
  5
169
330
168
100
AcDbEntity
  8
001
370
    50
  0
POLYLINE
  5
16F
330
1F
100
AcDbEntity
  8
001
 62
     4
370
    50
100
AcDb2dPolyline
 66
     1
 10
0.0
 20
0.0
 30
0.0
  0
VERTEX
  5
171
330
16F
100
AcDbEntity
  8
001
 62
     4
370
    50
100
AcDbVertex
100
AcDb2dVertex
 10
56.741356
 20
62.250147
 30
0.0
  0
VERTEX
  5
172
330
16F
100
AcDbEntity
  8
001
 62
     4
370
    50
100
AcDbVertex
100
AcDb2dVertex
 10
56.530948
 20
62.279608
 30
0.0
  0
VERTEX
  5
173
330
16F
100
AcDbEntity
  8
001
 62
     4
370
    50
100
AcDbVertex
100
AcDb2dVertex
 10
56.239434
 20
62.301744
 30
0.0
  0
VERTEX
  5
174
330
16F
100
AcDbEntity
  8
001
 62
     4
370
    50
100
AcDbVertex
100
AcDb2dVertex
 10
55.975758
 20
62.295403
 30
0.0
  0
VERTEX
  5
175
330
16F
100
AcDbEntity
  8
001
 62
     4
370
    50
100
AcDbVertex
100
AcDb2dVertex
 10
55.735289
 20
62.262311
 30
0.0
  0
VERTEX
  5
176
330
16F
100
AcDbEntity
  8
001
 62
     4
370
    50
100
AcDbVertex
100
AcDb2dVertex
 10
55.490244
 20
62.208216
 30
0.0
  0
VERTEX
  5
177
330
16F
100
AcDbEntity
  8
001
 62
     4
370
    50
100
AcDbVertex
100
AcDb2dVertex
 10
55.244239
 20
62.133046
 30
0.0
  0
VERTEX
  5
178
330
16F
100
AcDbEntity
  8
001
 62
     4
370
    50
100
AcDbVertex
100
AcDb2dVertex
 10
54.560519
 20
61.777841
 30
0.0
  0
VERTEX
  5
179
330
16F
100
AcDbEntity
  8
001
 62
     4
370
    50
100
AcDbVertex
100
AcDb2dVertex
 10
53.994178
 20
61.258382
 30
0.0
  0
VERTEX
  5
17A
330
16F
100
AcDbEntity
  8
001
 62
     4
370
    50
100
AcDbVertex
100
AcDb2dVertex
 10
53.693335
 20
60.832509
 30
0.0
  0
VERTEX
  5
17B
330
16F
100
AcDbEntity
  8
001
 62
     4
370
    50
100
AcDbVertex
100
AcDb2dVertex
 10
53.469136
 20
60.363377
 30
0.0
  0
VERTEX
  5
17C
330
16F
100
AcDbEntity
  8
001
 62
     4
370
    50
100
AcDbVertex
100
AcDb2dVertex
 10
53.387002
 20
60.11489
 30
0.0
  0
VERTEX
  5
17D
330
16F
100
AcDbEntity
  8
001
 62
     4
370
    50
100
AcDbVertex
100
AcDb2dVertex
 10
53.326124
 20
59.860522
 30
0.0
  0
VERTEX
  5
17E
330
16F
100
AcDbEntity
  8
001
 62
     4
370
    50
100
AcDbVertex
100
AcDb2dVertex
 10
53.286813
 20
59.601941
 30
0.0
  0
VERTEX
  5
17F
330
16F
100
AcDbEntity
  8
001
 62
     4
370
    50
100
AcDbVertex
100
AcDb2dVertex
 10
53.269408
 20
59.340811
 30
0.0
  0
VERTEX
  5
180
330
16F
100
AcDbEntity
  8
001
 62
     4
370
    50
100
AcDbVertex
100
AcDb2dVertex
 10
53.300602
 20
58.821796
 30
0.0
  0
VERTEX
  5
181
330
16F
100
AcDbEntity
  8
001
 62
     4
370
    50
100
AcDbVertex
100
AcDb2dVertex
 10
53.419084
 20
58.31402
 30
0.0
  0
VERTEX
  5
182
330
16F
100
AcDbEntity
  8
001
 62
     4
370
    50
100
AcDbVertex
100
AcDb2dVertex
 10
53.748336
 20
57.619633
 30
0.0
  0
VERTEX
  5
183
330
16F
100
AcDbEntity
  8
001
 62
     4
370
    50
100
AcDbVertex
100
AcDb2dVertex
 10
54.248147
 20
57.033261
 30
0.0
  0
VERTEX
  5
184
330
16F
100
AcDbEntity
  8
001
 62
     4
370
    50
100
AcDbVertex
100
AcDb2dVertex
 10
54.447786
 20
56.871048
 30
0.0
  0
VERTEX
  5
185
330
16F
100
AcDbEntity
  8
001
 62
     4
370
    50
100
AcDbVertex
100
AcDb2dVertex
 10
54.654466
 20
56.728721
 30
0.0
  0
VERTEX
  5
186
330
16F
100
AcDbEntity
  8
001
 62
     4
370
    50
100
AcDbVertex
100
AcDb2dVertex
 10
54.864809
 20
56.607576
 30
0.0
  0
VERTEX
  5
187
330
16F
100
AcDbEntity
  8
001
 62
     4
370
    50
100
AcDbVertex
100
AcDb2dVertex
 10
55.10672
 20
56.502484
 30
0.0
  0
VERTEX
  5
188
330
16F
100
AcDbEntity
  8
001
 62
     4
370
    50
100
AcDbVertex
100
AcDb2dVertex
 10
55.385138
 20
56.4133
 30
0.0
  0
VERTEX
  5
189
330
16F
100
AcDbEntity
  8
001
 62
     4
370
    50
100
AcDbVertex
100
AcDb2dVertex
 10
55.591168
 20
56.361423
 30
0.0
  0
SEQEND
  5
170
330
16F
100
AcDbEntity
  8
001
370
    50
  0
ARC
  5
18A
330
1F
100
AcDbEntity
  8
001
 62
   140
370
    50
100
AcDbCircle
 10
76.513968
 20
147.205486
 30
0.0
 40
0.9999999999999929
100
AcDbArc
 50
0.0
 51
90.0
  0
ARC
  5
18B
330
1F
100
AcDbEntity
  8
001
 62
   140
370
    50
100
AcDbCircle
 10
76.513968
 20
71.205486
 30
0.0
 40
0.9999999999999929
100
AcDbArc
 50
270.0
 51
360.0
  0
LINE
  5
18C
330
1F
100
AcDbEntity
  8
001
 62
   140
370
    50
100
AcDbLine
 10
77.513968
 20
71.205486
 30
0.0
 11
77.513968
 21
147.205486
 31
0.0
  0
LINE
  5
18D
330
1F
100
AcDbEntity
  8
001
 62
   140
370
    50
100
AcDbLine
 10
76.513968
 20
148.205486
 30
0.0
 11
53.513968
 21
148.205486
 31
0.0
  0
LINE
  5
18E
330
1F
100
AcDbEntity
  8
001
 62
   140
370
    50
100
AcDbLine
 10
53.513968
 20
70.205486
 30
0.0
 11
76.513968
 21
70.205486
 31
0.0
  0
LINE
  5
18F
330
1F
100
AcDbEntity
  8
001
 62
   140
370
    50
100
AcDbLine
 10
53.513968
 20
111.466964
 30
0.0
 11
67.513968
 21
111.466964
 31
0.0
  0
ARC
  5
190
330
1F
100
AcDbEntity
  8
001
 62
   140
370
    50
100
AcDbCircle
 10
53.513968
 20
71.205486
 30
0.0
 40
1.0
100
AcDbArc
 50
180.0
 51
229.690072
  0
LINE
  5
191
330
1F
100
AcDbEntity
  8
001
 62
   140
370
    50
100
AcDbLine
 10
52.513968
 20
71.205486
 30
0.0
 11
52.513968
 21
111.292098
 31
0.0
  0
POLYLINE
  5
192
330
1F
100
AcDbEntity
  8
001
 62
   140
370
    50
100
AcDb2dPolyline
 66
     1
 10
0.0
 20
0.0
 30
0.0
  0
VERTEX
  5
194
330
192
100
AcDbEntity
  8
001
 62
   140
370
    50
100
AcDbVertex
100
AcDb2dVertex
 10
53.513968
 20
70.205486
 30
0.0
  0
VERTEX
  5
195
330
192
100
AcDbEntity
  8
001
 62
   140
370
    50
100
AcDbVertex
100
AcDb2dVertex
 10
53.346795
 20
70.224745
 30
0.0
  0
VERTEX
  5
196
330
192
100
AcDbEntity
  8
001
 62
   140
370
    50
100
AcDbVertex
100
AcDb2dVertex
 10
53.184104
 20
70.261458
 30
0.0
  0
VERTEX
  5
197
330
192
100
AcDbEntity
  8
001
 62
   140
370
    50
100
AcDbVertex
100
AcDb2dVertex
 10
53.030548
 20
70.328815
 30
0.0
  0
VERTEX
  5
198
330
192
100
AcDbEntity
  8
001
 62
   140
370
    50
100
AcDbVertex
100
AcDb2dVertex
 10
52.891237
 20
70.423057
 30
0.0
  0
VERTEX
  5
199
330
192
100
AcDbEntity
  8
001
 62
   140
370
    50
100
AcDbVertex
100
AcDb2dVertex
 10
52.879033
 20
70.43301
 30
0.0
  0
VERTEX
  5
19A
330
192
100
AcDbEntity
  8
001
 62
   140
370
    50
100
AcDbVertex
100
AcDb2dVertex
 10
52.866917
 20
70.443047
 30
0.0
  0
SEQEND
  5
193
330
192
100
AcDbEntity
  8
001
370
    50
  0
POLYLINE
  5
19B
330
1F
100
AcDbEntity
  8
001
 62
   140
370
    50
100
AcDb2dPolyline
 66
     1
 10
0.0
 20
0.0
 30
0.0
  0
VERTEX
  5
19D
330
19B
100
AcDbEntity
  8
001
 62
   140
370
    50
100
AcDbVertex
100
AcDb2dVertex
 10
52.513968
 20
111.292098
 30
0.0
  0
VERTEX
  5
19E
330
19B
100
AcDbEntity
  8
001
 62
   140
370
    50
100
AcDbVertex
100
AcDb2dVertex
 10
52.516655
 20
111.301953
 30
0.0
  0
VERTEX
  5
19F
330
19B
100
AcDbEntity
  8
001
 62
   140
370
    50
100
AcDbVertex
100
AcDb2dVertex
 10
52.520023
 20
111.311316
 30
0.0
  0
VERTEX
  5
1A0
330
19B
100
AcDbEntity
  8
001
 62
   140
370
    50
100
AcDbVertex
100
AcDb2dVertex
 10
52.557781
 20
111.347642
 30
0.0
  0
VERTEX
  5
1A1
330
19B
100
AcDbEntity
  8
001
 62
   140
370
    50
100
AcDbVertex
100
AcDb2dVertex
 10
52.613556
 20
111.368179
 30
0.0
  0
VERTEX
  5
1A2
330
19B
100
AcDbEntity
  8
001
 62
   140
370
    50
100
AcDbVertex
100
AcDb2dVertex
 10
52.714255
 20
111.395688
 30
0.0
  0
VERTEX
  5
1A3
330
19B
100
AcDbEntity
  8
001
 62
   140
370
    50
100
AcDbVertex
100
AcDb2dVertex
 10
52.810206
 20
111.416335
 30
0.0
  0
VERTEX
  5
1A4
330
19B
100
AcDbEntity
  8
001
 62
   140
370
    50
100
AcDbVertex
100
AcDb2dVertex
 10
52.946578
 20
111.436571
 30
0.0
  0
VERTEX
  5
1A5
330
19B
100
AcDbEntity
  8
001
 62
   140
370
    50
100
AcDbVertex
100
AcDb2dVertex
 10
53.086465
 20
111.450182
 30
0.0
  0
VERTEX
  5
1A6
330
19B
100
AcDbEntity
  8
001
 62
   140
370
    50
100
AcDbVertex
100
AcDb2dVertex
 10
53.248346
 20
111.460708
 30
0.0
  0
VERTEX
  5
1A7
330
19B
100
AcDbEntity
  8
001
 62
   140
370
    50
100
AcDbVertex
100
AcDb2dVertex
 10
53.40966
 20
111.46601
 30
0.0
  0
VERTEX
  5
1A8
330
19B
100
AcDbEntity
  8
001
 62
   140
370
    50
100
AcDbVertex
100
AcDb2dVertex
 10
53.461787
 20
111.466627
 30
0.0
  0
VERTEX
  5
1A9
330
19B
100
AcDbEntity
  8
001
 62
   140
370
    50
100
AcDbVertex
100
AcDb2dVertex
 10
53.513968
 20
111.466964
 30
0.0
  0
SEQEND
  5
19C
330
19B
100
AcDbEntity
  8
001
370
    50
  0
ARC
  5
1AA
330
1F
100
AcDbEntity
  8
001
 62
   140
370
    50
100
AcDbCircle
 10
85.513968
 20
147.205486
 30
0.0
 40
8.000000000000007
100
AcDbArc
 50
180.0
 51
270.0
  0
ARC
  5
1AB
330
1F
100
AcDbEntity
  8
001
 62
   140
370
    50
100
AcDbCircle
 10
85.513968
 20
71.205486
 30
0.0
 40
8.000000000000007
100
AcDbArc
 50
90.0
 51
180.0
  0
ARC
  5
1AC
330
1F
100
AcDbEntity
  8
001
 62
   140
370
    50
100
AcDbCircle
 10
53.513968
 20
147.205486
 30
0.0
 40
1.0
100
AcDbArc
 50
90.0
 51
180.0
  0
LINE
  5
1AD
330
1F
100
AcDbEntity
  8
001
 62
   140
370
    50
100
AcDbLine
 10
52.513968
 20
135.475343
 30
0.0
 11
52.513968
 21
147.205486
 31
0.0
  0
ARC
  5
1AE
330
1F
100
AcDbEntity
  8
001
 62
   140
370
    50
100
AcDbCircle
 10
91.513968
 20
138.205486
 30
0.0
 40
1.0
100
AcDbArc
 50
0.0
 51
90.0
  0
ARC
  5
1AF
330
1F
100
AcDbEntity
  8
001
 62
   140
370
    50
100
AcDbCircle
 10
91.513968
 20
80.205486
 30
0.0
 40
1.0
100
AcDbArc
 50
270.0
 51
0.0
  0
LINE
  5
1B0
330
1F
100
AcDbEntity
  8
001
 62
   140
370
    50
100
AcDbLine
 10
92.513968
 20
138.205486
 30
0.0
 11
92.513968
 21
80.205486
 31
0.0
  0
LINE
  5
1B1
330
1F
100
AcDbEntity
  8
001
 62
   140
370
    50
100
AcDbLine
 10
91.513968
 20
139.205486
 30
0.0
 11
85.513968
 21
139.205486
 31
0.0
  0
LINE
  5
1B2
330
1F
100
AcDbEntity
  8
001
 62
   140
370
    50
100
AcDbLine
 10
85.513968
 20
79.205486
 30
0.0
 11
91.513968
 21
79.205486
 31
0.0
  0
LINE
  5
1B3
330
1F
100
AcDbEntity
  8
001
 62
   140
370
    50
100
AcDbLine
 10
164.513968
 20
125.205486
 30
0.0
 11
95.513968
 21
125.205486
 31
0.0
  0
LINE
  5
1B4
330
1F
100
AcDbEntity
  8
001
 62
   140
370
    50
100
AcDbLine
 10
164.513968
 20
93.205486
 30
0.0
 11
95.513968
 21
93.205486
 31
0.0
  0
LINE
  5
1B5
330
1F
100
AcDbEntity
  8
001
 62
   140
370
    50
100
AcDbLine
 10
95.513968
 20
125.205486
 30
0.0
 11
95.513968
 21
93.205486
 31
0.0
  0
LINE
  5
1B6
330
1F
100
AcDbEntity
  8
001
 62
   140
370
    50
100
AcDbLine
 10
172.513968
 20
101.205486
 30
0.0
 11
172.513968
 21
117.205486
 31
0.0
  0
LINE
  5
1B7
330
1F
100
AcDbEntity
  8
001
 62
   140
370
    50
100
AcDbLine
 10
95.513968
 20
124.705486
 30
0.0
 11
92.513968
 21
124.705486
 31
0.0
  0
LINE
  5
1B8
330
1F
100
AcDbEntity
  8
001
 62
   140
370
    50
100
AcDbLine
 10
92.513968
 20
93.705486
 30
0.0
 11
95.513968
 21
93.705486
 31
0.0
  0
LINE
  5
1B9
330
1F
100
AcDbEntity
  8
001
370
    50
100
AcDbLine
 10
172.513968
 20
109.205486
 30
0.0
 11
176.89488
 21
111.734806
 31
0.0
  0
LINE
  5
1BA
330
1F
100
AcDbEntity
  8
001
370
    50
100
AcDbLine
 10
172.513968
 20
109.205486
 30
0.0
 11
176.89488
 21
106.676165
 31
0.0
  0
LINE
  5
1BB
330
1F
100
AcDbEntity
  8
001
370
    50
100
AcDbLine
 10
52.513968
 20
109.205486
 30
0.0
 11
48.133056
 21
111.734806
 31
0.0
  0
LINE
  5
1BC
330
1F
100
AcDbEntity
  8
001
370
    50
100
AcDbLine
 10
52.513968
 20
109.205486
 30
0.0
 11
48.133056
 21
106.676165
 31
0.0
  0
LINE
  5
1BD
330
1F
100
AcDbEntity
  8
001
  6
CENTER
370
     9
100
AcDbLine
 10
44.73293
 20
109.205486
 30
0.0
 11
179.218645
 21
109.205486
 31
0.0
  0
ARC
  5
1BE
330
1F
100
AcDbEntity
  8
001
 62
   140
370
    50
100
AcDbCircle
 10
164.513968
 20
117.205486
 30
0.0
 40
8.0
100
AcDbArc
 50
0.0
 51
90.0
  0
ARC
  5
1BF
330
1F
100
AcDbEntity
  8
001
 62
   140
370
    50
100
AcDbCircle
 10
164.513968
 20
101.205486
 30
0.0
 40
8.0
100
AcDbArc
 50
270.0
 51
0.0
  0
TEXT
  5
1C0
330
1F
100
AcDbEntity
  8
001
370
    30
100
AcDbText
 10
58.447573
 20
176.147262
 30
0.0
 40
8.0
  1
ＮＫＰ３２－１００Ｓ－０３
 41
0.833333
100
AcDbText
  0
ENDSEC
  0
SECTION
  2
OBJECTS
  0
DICTIONARY
  5
C
330
0
100
AcDbDictionary
281
     1
  3
ACAD_GROUP
350
D
  3
ACAD_LAYOUT
350
1A
  3
ACAD_MLEADERSTYLE
350
1C4
  3
ACAD_MLINESTYLE
350
17
  3
ACAD_PLOTSETTINGS
350
19
  3
ACAD_PLOTSTYLENAME
350
E
  3
ACAD_SCALELIST
350
3B
  3
ACAD_TABLESTYLE
350
1C3
  3
ACAD_VISUALSTYLE
350
2A
  3
AcDbVariableDictionary
350
1C1
  0
DICTIONARY
  5
D
102
{ACAD_REACTORS
330
C
102
}
330
C
100
AcDbDictionary
281
     1
  0
DICTIONARY
  5
1A
102
{ACAD_REACTORS
330
C
102
}
330
C
100
AcDbDictionary
281
     1
  3
Layout1
350
1E
  3
Layout2
350
26
  3
Model
350
22
  0
DICTIONARY
  5
1C4
102
{ACAD_REACTORS
330
C
102
}
330
C
100
AcDbDictionary
281
     1
  0
DICTIONARY
  5
17
102
{ACAD_REACTORS
330
C
102
}
330
C
100
AcDbDictionary
281
     1
  3
Standard
350
18
  0
DICTIONARY
  5
19
102
{ACAD_REACTORS
330
C
102
}
330
C
100
AcDbDictionary
281
     1
  0
ACDBDICTIONARYWDFLT
  5
E
102
{ACAD_REACTORS
330
C
102
}
330
C
100
AcDbDictionary
281
     1
  3
Normal
350
F
100
AcDbDictionaryWithDefault
340
F
  0
DICTIONARY
  5
3B
102
{ACAD_REACTORS
330
C
102
}
330
C
100
AcDbDictionary
281
     1
  3
A0
350
3C
  3
A1
350
3D
  3
A2
350
3E
  3
A3
350
3F
  3
A4
350
40
  3
A5
350
41
  3
A6
350
42
  3
A7
350
43
  3
A8
350
44
  3
A9
350
45
  3
B0
350
46
  3
B1
350
47
  3
B2
350
48
  3
B3
350
49
  3
B4
350
4A
  3
B5
350
4B
  3
B6
350
4C
  3
B7
350
4D
  3
B8
350
4E
  3
B9
350
4F
  3
C0
350
50
  3
C1
350
51
  3
C2
350
52
  3
C3
350
53
  3
C4
350
54
  3
C5
350
55
  3
C6
350
56
  3
C7
350
57
  3
C8
350
58
  3
C9
350
59
  3
D0
350
5A
  3
D1
350
5B
  3
D2
350
5C
  0
DICTIONARY
  5
1C3
102
{ACAD_REACTORS
330
C
102
}
330
C
100
AcDbDictionary
281
     1
  0
DICTIONARY
  5
2A
102
{ACAD_REACTORS
330
C
102
}
330
C
100
AcDbDictionary
281
     1
  3
2dWireframe
350
2F
  3
3D Hidden
350
31
  3
3dWireframe
350
30
  3
Basic
350
32
  3
Brighten
350
36
  3
ColorChange
350
3A
  3
Conceptual
350
34
  3
Dim
350
35
  3
Facepattern
350
39
  3
Flat
350
2B
  3
FlatWithEdges
350
2C
  3
Gouraud
350
2D
  3
GouraudWithEdges
350
2E
  3
Linepattern
350
38
  3
Realistic
350
33
  3
Thicken
350
37
  0
DICTIONARY
  5
1C1
102
{ACAD_REACTORS
330
C
102
}
330
C
100
AcDbDictionary
281
     1
  3
CANNOSCALE
350
1C2
  3
PSOLHEIGHT
350
1C6
  3
PSOLWIDTH
350
1C5
  0
LAYOUT
  5
1E
102
{ACAD_REACTORS
330
1A
102
}
330
1A
100
AcDbPlotSettings
  1

  2
none_device
  4

  6

 40
0.0
 41
0.0
 42
0.0
 43
0.0
 44
0.0
 45
0.0
 46
0.0
 47
0.0
 48
0.0
 49
0.0
140
0.0
141
0.0
142
1.0
143
1.0
 70
   688
 72
     0
 73
     0
 74
     5
  7

 75
    16
147
1.0
148
0.0
149
0.0
100
AcDbLayout
  1
Layout1
 70
     1
 71
     1
 10
0.0
 20
0.0
 11
12.0
 21
9.0
 12
0.0
 22
0.0
 32
0.0
 14
1.000000E+20
 24
1.000000E+20
 34
0.0
 15
-1.000000E+20
 25
-1.000000E+20
 35
0.0
146
0.0
 13
0.0
 23
0.0
 33
0.0
 16
1.0
 26
0.0
 36
0.0
 17
0.0
 27
1.0
 37
0.0
 76
     0
330
1B
  0
LAYOUT
  5
26
102
{ACAD_REACTORS
330
1A
102
}
330
1A
100
AcDbPlotSettings
  1

  2
none_device
  4

  6

 40
0.0
 41
0.0
 42
0.0
 43
0.0
 44
0.0
 45
0.0
 46
0.0
 47
0.0
 48
0.0
 49
0.0
140
0.0
141
0.0
142
1.0
143
1.0
 70
   688
 72
     0
 73
     0
 74
     5
  7

 75
    16
147
1.0
148
0.0
149
0.0
100
AcDbLayout
  1
Layout2
 70
     1
 71
     2
 10
0.0
 20
0.0
 11
0.0
 21
0.0
 12
0.0
 22
0.0
 32
0.0
 14
0.0
 24
0.0
 34
0.0
 15
0.0
 25
0.0
 35
0.0
146
0.0
 13
0.0
 23
0.0
 33
0.0
 16
1.0
 26
0.0
 36
0.0
 17
0.0
 27
1.0
 37
0.0
 76
     0
330
23
  0
LAYOUT
  5
22
102
{ACAD_REACTORS
330
1A
102
}
330
1A
100
AcDbPlotSettings
  1

  2
none_device
  4

  6

 40
0.0
 41
0.0
 42
0.0
 43
0.0
 44
0.0
 45
0.0
 46
0.0
 47
0.0
 48
0.0
 49
0.0
140
0.0
141
0.0
142
1.0
143
1.0
 70
  1712
 72
     0
 73
     0
 74
     0
  7

 75
     0
147
1.0
148
0.0
149
0.0
100
AcDbLayout
  1
Model
 70
     1
 71
     0
 10
0.0
 20
0.0
 11
12.0
 21
9.0
 12
0.0
 22
0.0
 32
0.0
 14
19.807785
 24
14.694214
 34
0.0
 15
198.203079
 25
184.147263
 35
0.0
146
0.0
 13
0.0
 23
0.0
 33
0.0
 16
1.0
 26
0.0
 36
0.0
 17
0.0
 27
1.0
 37
0.0
 76
     0
330
1F
331
29
  0
MLINESTYLE
  5
18
102
{ACAD_REACTORS
330
17
102
}
330
17
100
AcDbMlineStyle
  2
Standard
 70
     0
  3

 62
   256
 51
90.0
 52
90.0
 71
     2
 49
0.5
 62
   256
  6
BYLAYER
 49
-0.5
 62
   256
  6
BYLAYER
  0
ACDBPLACEHOLDER
  5
F
102
{ACAD_REACTORS
330
E
102
}
330
E
  0
SCALE
  5
3C
102
{ACAD_REACTORS
330
3B
102
}
330
3B
100
AcDbScale
 70
     0
300
1:1
140
1.0
141
1.0
290
     1
  0
SCALE
  5
3D
102
{ACAD_REACTORS
330
3B
102
}
330
3B
100
AcDbScale
 70
     0
300
1:2
140
1.0
141
2.0
290
     0
  0
SCALE
  5
3E
102
{ACAD_REACTORS
330
3B
102
}
330
3B
100
AcDbScale
 70
     0
300
1:4
140
1.0
141
4.0
290
     0
  0
SCALE
  5
3F
102
{ACAD_REACTORS
330
3B
102
}
330
3B
100
AcDbScale
 70
     0
300
1:5
140
1.0
141
5.0
290
     0
  0
SCALE
  5
40
102
{ACAD_REACTORS
330
3B
102
}
330
3B
100
AcDbScale
 70
     0
300
1:8
140
1.0
141
8.0
290
     0
  0
SCALE
  5
41
102
{ACAD_REACTORS
330
3B
102
}
330
3B
100
AcDbScale
 70
     0
300
1:10
140
1.0
141
10.0
290
     0
  0
SCALE
  5
42
102
{ACAD_REACTORS
330
3B
102
}
330
3B
100
AcDbScale
 70
     0
300
1:16
140
1.0
141
16.0
290
     0
  0
SCALE
  5
43
102
{ACAD_REACTORS
330
3B
102
}
330
3B
100
AcDbScale
 70
     0
300
1:20
140
1.0
141
20.0
290
     0
  0
SCALE
  5
44
102
{ACAD_REACTORS
330
3B
102
}
330
3B
100
AcDbScale
 70
     0
300
1:30
140
1.0
141
30.0
290
     0
  0
SCALE
  5
45
102
{ACAD_REACTORS
330
3B
102
}
330
3B
100
AcDbScale
 70
     0
300
1:40
140
1.0
141
40.0
290
     0
  0
SCALE
  5
46
102
{ACAD_REACTORS
330
3B
102
}
330
3B
100
AcDbScale
 70
     0
300
1:50
140
1.0
141
50.0
290
     0
  0
SCALE
  5
47
102
{ACAD_REACTORS
330
3B
102
}
330
3B
100
AcDbScale
 70
     0
300
1:100
140
1.0
141
100.0
290
     0
  0
SCALE
  5
48
102
{ACAD_REACTORS
330
3B
102
}
330
3B
100
AcDbScale
 70
     0
300
2:1
140
2.0
141
1.0
290
     0
  0
SCALE
  5
49
102
{ACAD_REACTORS
330
3B
102
}
330
3B
100
AcDbScale
 70
     0
300
4:1
140
4.0
141
1.0
290
     0
  0
SCALE
  5
4A
102
{ACAD_REACTORS
330
3B
102
}
330
3B
100
AcDbScale
 70
     0
300
8:1
140
8.0
141
1.0
290
     0
  0
SCALE
  5
4B
102
{ACAD_REACTORS
330
3B
102
}
330
3B
100
AcDbScale
 70
     0
300
10:1
140
10.0
141
1.0
290
     0
  0
SCALE
  5
4C
102
{ACAD_REACTORS
330
3B
102
}
330
3B
100
AcDbScale
 70
     0
300
100:1
140
100.0
141
1.0
290
     0
  0
SCALE
  5
4D
102
{ACAD_REACTORS
330
3B
102
}
330
3B
100
AcDbScale
 70
     0
300
1/128" = 1'-0"
140
0.007812
141
12.0
290
     0
  0
SCALE
  5
4E
102
{ACAD_REACTORS
330
3B
102
}
330
3B
100
AcDbScale
 70
     0
300
1/64" = 1'-0"
140
0.015625
141
12.0
290
     0
  0
SCALE
  5
4F
102
{ACAD_REACTORS
330
3B
102
}
330
3B
100
AcDbScale
 70
     0
300
1/32" = 1'-0"
140
0.03125
141
12.0
290
     0
  0
SCALE
  5
50
102
{ACAD_REACTORS
330
3B
102
}
330
3B
100
AcDbScale
 70
     0
300
1/16" = 1'-0"
140
0.0625
141
12.0
290
     0
  0
SCALE
  5
51
102
{ACAD_REACTORS
330
3B
102
}
330
3B
100
AcDbScale
 70
     0
300
3/32" = 1'-0"
140
0.09375
141
12.0
290
     0
  0
SCALE
  5
52
102
{ACAD_REACTORS
330
3B
102
}
330
3B
100
AcDbScale
 70
     0
300
1/8" = 1'-0"
140
0.125
141
12.0
290
     0
  0
SCALE
  5
53
102
{ACAD_REACTORS
330
3B
102
}
330
3B
100
AcDbScale
 70
     0
300
3/16" = 1'-0"
140
0.1875
141
12.0
290
     0
  0
SCALE
  5
54
102
{ACAD_REACTORS
330
3B
102
}
330
3B
100
AcDbScale
 70
     0
300
1/4" = 1'-0"
140
0.25
141
12.0
290
     0
  0
SCALE
  5
55
102
{ACAD_REACTORS
330
3B
102
}
330
3B
100
AcDbScale
 70
     0
300
3/8" = 1'-0"
140
0.375
141
12.0
290
     0
  0
SCALE
  5
56
102
{ACAD_REACTORS
330
3B
102
}
330
3B
100
AcDbScale
 70
     0
300
1/2" = 1'-0"
140
0.5
141
12.0
290
     0
  0
SCALE
  5
57
102
{ACAD_REACTORS
330
3B
102
}
330
3B
100
AcDbScale
 70
     0
300
3/4" = 1'-0"
140
0.75
141
12.0
290
     0
  0
SCALE
  5
58
102
{ACAD_REACTORS
330
3B
102
}
330
3B
100
AcDbScale
 70
     0
300
1" = 1'-0"
140
1.0
141
12.0
290
     0
  0
SCALE
  5
59
102
{ACAD_REACTORS
330
3B
102
}
330
3B
100
AcDbScale
 70
     0
300
1-1/2" = 1'-0"
140
1.5
141
12.0
290
     0
  0
SCALE
  5
5A
102
{ACAD_REACTORS
330
3B
102
}
330
3B
100
AcDbScale
 70
     0
300
3" = 1'-0"
140
3.0
141
12.0
290
     0
  0
SCALE
  5
5B
102
{ACAD_REACTORS
330
3B
102
}
330
3B
100
AcDbScale
 70
     0
300
6" = 1'-0"
140
6.0
141
12.0
290
     0
  0
SCALE
  5
5C
102
{ACAD_REACTORS
330
3B
102
}
330
3B
100
AcDbScale
 70
     0
300
1'-0" = 1'-0"
140
12.0
141
12.0
290
     0
  0
VISUALSTYLE
  5
2F
102
{ACAD_REACTORS
330
2A
102
}
330
2A
100
AcDbVisualStyle
  2
2dWireframe
 70
     4
 71
     0
 72
     2
 73
     0
 90
        0
 40
-0.6
 41
-30.0
 62
     5
 63
     7
 74
     1
 91
        4
 64
     7
 65
   257
 75
     1
175
     1
 42
1.0
 92
        0
 66
   257
 43
1.0
 76
     1
 77
     6
 78
     2
 67
     7
 79
     5
170
     0
171
     0
290
     0
174
     0
 93
        1
 44
0.0
173
     0
291
     0
 45
0.0
1001
ACAD
1000
AcDbSavedByObjectVersion
1070
     0
  0
VISUALSTYLE
  5
31
102
{ACAD_REACTORS
330
2A
102
}
330
2A
100
AcDbVisualStyle
  2
3D Hidden
 70
     6
 71
     1
 72
     2
 73
     2
 90
        0
 40
-0.6
 41
-30.0
 62
     5
 63
     7
 74
     2
 91
        2
 64
     7
 65
   257
 75
     2
175
     1
 42
40.0
 92
        0
 66
   257
 43
1.0
 76
     1
 77
     6
 78
     2
 67
     7
 79
     3
170
     0
171
     0
290
     0
174
     0
 93
        1
 44
0.0
173
     0
291
     0
 45
0.0
1001
ACAD
1000
AcDbSavedByObjectVersion
1070
     0
  0
VISUALSTYLE
  5
30
102
{ACAD_REACTORS
330
2A
102
}
330
2A
100
AcDbVisualStyle
  2
3dWireframe
 70
     5
 71
     0
 72
     2
 73
     0
 90
        0
 40
-0.6
 41
-30.0
 62
     5
 63
     7
 74
     1
 91
        4
 64
     7
 65
   257
 75
     1
175
     1
 42
1.0
 92
        0
 66
   257
 43
1.0
 76
     1
 77
     6
 78
     2
 67
     7
 79
     5
170
     0
171
     0
290
     0
174
     0
 93
        1
 44
0.0
173
     0
291
     0
 45
0.0
1001
ACAD
1000
AcDbSavedByObjectVersion
1070
     0
  0
VISUALSTYLE
  5
32
102
{ACAD_REACTORS
330
2A
102
}
330
2A
100
AcDbVisualStyle
  2
Basic
 70
     7
 71
     1
 72
     0
 73
     1
 90
        0
 40
-0.6
 41
-30.0
 62
     5
 63
     7
 74
     0
 91
        4
 64
     7
 65
   257
 75
     1
175
     1
 42
1.0
 92
        8
 66
     7
 43
1.0
 76
     1
 77
     6
 78
     2
 67
     7
 79
     5
170
     0
171
     0
290
     0
174
     0
 93
        1
 44
0.0
173
     0
291
     1
 45
0.0
1001
ACAD
1000
AcDbSavedByObjectVersion
1070
     0
  0
VISUALSTYLE
  5
36
102
{ACAD_REACTORS
330
2A
102
}
330
2A
100
AcDbVisualStyle
  2
Brighten
 70
    12
 71
     2
 72
     2
 73
     0
 90
        0
 40
-0.6
 41
-30.0
 62
     5
 63
     7
 74
     1
 91
        4
 64
     7
 65
   257
 75
     1
175
     1
 42
1.0
 92
        8
 66
     7
 43
1.0
 76
     1
 77
     6
 78
     2
 67
     7
 79
     5
170
     0
171
     0
290
     0
174
     0
 93
        1
 44
50.0
173
     0
291
     1
 45
0.0
1001
ACAD
1000
AcDbSavedByObjectVersion
1070
     0
  0
VISUALSTYLE
  5
3A
102
{ACAD_REACTORS
330
2A
102
}
330
2A
100
AcDbVisualStyle
  2
ColorChange
 70
    16
 71
     2
 72
     2
 73
     3
 90
        0
 40
-0.6
 41
-30.0
 62
     5
 63
     8
 74
     1
 91
        4
 64
     7
 65
   257
 75
     1
175
     1
 42
1.0
 92
        8
 66
     8
 43
1.0
 76
     1
 77
     6
 78
     2
 67
     7
 79
     5
170
     0
171
     0
290
     0
174
     0
 93
        1
 44
0.0
173
     0
291
     1
 45
0.0
1001
ACAD
1000
AcDbSavedByObjectVersion
1070
     0
  0
VISUALSTYLE
  5
34
102
{ACAD_REACTORS
330
2A
102
}
330
2A
100
AcDbVisualStyle
  2
Conceptual
 70
     9
 71
     3
 72
     2
 73
     0
 90
        0
 40
-0.6
 41
-30.0
 62
     5
 63
     7
 74
     2
 91
        2
 64
     7
 65
   257
 75
     1
175
     1
 42
40.0
 92
        8
 66
     7
 43
1.0
 76
     1
 77
     6
 78
     2
 67
     7
 79
     3
170
     0
171
     0
290
     0
174
     0
 93
        1
 44
0.0
173
     0
291
     0
 45
0.0
1001
ACAD
1000
AcDbSavedByObjectVersion
1070
     0
  0
VISUALSTYLE
  5
35
102
{ACAD_REACTORS
330
2A
102
}
330
2A
100
AcDbVisualStyle
  2
Dim
 70
    11
 71
     2
 72
     2
 73
     0
 90
        0
 40
-0.6
 41
-30.0
 62
     5
 63
     7
 74
     1
 91
        4
 64
     7
 65
   257
 75
     1
175
     1
 42
1.0
 92
        8
 66
     7
 43
1.0
 76
     1
 77
     6
 78
     2
 67
     7
 79
     5
170
     0
171
     0
290
     0
174
     0
 93
        1
 44
-50.0
173
     0
291
     1
 45
0.0
1001
ACAD
1000
AcDbSavedByObjectVersion
1070
     0
  0
VISUALSTYLE
  5
39
102
{ACAD_REACTORS
330
2A
102
}
330
2A
100
AcDbVisualStyle
  2
Facepattern
 70
    15
 71
     2
 72
     2
 73
     0
 90
        0
 40
-0.6
 41
-30.0
 62
     5
 63
     7
 74
     1
 91
        4
 64
     7
 65
   257
 75
     1
175
     1
 42
1.0
 92
        8
 66
     7
 43
1.0
 76
     1
 77
     6
 78
     2
 67
     7
 79
     5
170
     0
171
     0
290
     0
174
     0
 93
        1
 44
0.0
173
     0
291
     1
 45
0.0
1001
ACAD
1000
AcDbSavedByObjectVersion
1070
     0
  0
VISUALSTYLE
  5
2B
102
{ACAD_REACTORS
330
2A
102
}
330
2A
100
AcDbVisualStyle
  2
Flat
 70
     0
 71
     2
 72
     1
 73
     1
 90
        2
 40
-0.6
 41
30.0
 62
     5
 63
     7
 74
     0
 91
        4
 64
     7
 65
   257
 75
     1
175
     1
 42
1.0
 92
        8
 66
     7
 43
1.0
 76
     1
 77
     6
 78
     2
 67
     7
 79
     5
170
     0
171
     0
290
     0
174
     0
 93
       13
 44
0.0
173
     0
291
     1
 45
0.0
1001
ACAD
1000
AcDbSavedByObjectVersion
1070
     0
  0
VISUALSTYLE
  5
2C
102
{ACAD_REACTORS
330
2A
102
}
330
2A
100
AcDbVisualStyle
  2
FlatWithEdges
 70
     1
 71
     2
 72
     1
 73
     1
 90
        2
 40
-0.6
 41
30.0
 62
     5
 63
     7
 74
     1
 91
        4
 64
     7
 65
   257
 75
     1
175
     1
 42
1.0
 92
        0
 66
   257
 43
1.0
 76
     1
 77
     6
 78
     2
 67
     7
 79
     5
170
     0
171
     0
290
     0
174
     0
 93
       13
 44
0.0
173
     0
291
     1
 45
0.0
1001
ACAD
1000
AcDbSavedByObjectVersion
1070
     0
  0
VISUALSTYLE
  5
2D
102
{ACAD_REACTORS
330
2A
102
}
330
2A
100
AcDbVisualStyle
  2
Gouraud
 70
     2
 71
     2
 72
     2
 73
     1
 90
        2
 40
-0.6
 41
30.0
 62
     5
 63
     7
 74
     0
 91
        4
 64
     7
 65
   257
 75
     1
175
     1
 42
1.0
 92
        0
 66
     7
 43
1.0
 76
     1
 77
     6
 78
     2
 67
     7
 79
     5
170
     0
171
     0
290
     0
174
     0
 93
       13
 44
0.0
173
     0
291
     1
 45
0.0
1001
ACAD
1000
AcDbSavedByObjectVersion
1070
     0
  0
VISUALSTYLE
  5
2E
102
{ACAD_REACTORS
330
2A
102
}
330
2A
100
AcDbVisualStyle
  2
GouraudWithEdges
 70
     3
 71
     2
 72
     2
 73
     1
 90
        2
 40
-0.6
 41
30.0
 62
     5
 63
     7
 74
     1
 91
        4
 64
     7
 65
   257
 75
     1
175
     1
 42
1.0
 92
        0
 66
   257
 43
1.0
 76
     1
 77
     6
 78
     2
 67
     7
 79
     5
170
     0
171
     0
290
     0
174
     0
 93
       13
 44
0.0
173
     0
291
     1
 45
0.0
1001
ACAD
1000
AcDbSavedByObjectVersion
1070
     0
  0
VISUALSTYLE
  5
38
102
{ACAD_REACTORS
330
2A
102
}
330
2A
100
AcDbVisualStyle
  2
Linepattern
 70
    14
 71
     2
 72
     2
 73
     0
 90
        0
 40
-0.6
 41
-30.0
 62
     5
 63
     7
 74
     1
 91
        4
 64
     7
 65
   257
 75
     7
175
     7
 42
1.0
 92
        8
 66
     7
 43
1.0
 76
     1
 77
     6
 78
     2
 67
     7
 79
     5
170
     0
171
     0
290
     0
174
     0
 93
        1
 44
0.0
173
     0
291
     1
 45
0.0
1001
ACAD
1000
AcDbSavedByObjectVersion
1070
     0
  0
VISUALSTYLE
  5
33
102
{ACAD_REACTORS
330
2A
102
}
330
2A
100
AcDbVisualStyle
  2
Realistic
 70
     8
 71
     2
 72
     2
 73
     0
 90
        0
 40
-0.6
 41
-30.0
 62
     5
 63
     7
 74
     1
 91
        0
 64
     7
 65
   257
 75
     1
175
     1
 42
1.0
 92
        8
 66
     8
 43
1.0
 76
     1
 77
     6
 78
     2
 67
     7
 79
     5
170
     0
171
     0
290
     0
174
     0
 93
       13
 44
0.0
173
     0
291
     0
 45
0.0
1001
ACAD
1000
AcDbSavedByObjectVersion
1070
     0
  0
VISUALSTYLE
  5
37
102
{ACAD_REACTORS
330
2A
102
}
330
2A
100
AcDbVisualStyle
  2
Thicken
 70
    13
 71
     2
 72
     2
 73
     0
 90
        0
 40
-0.6
 41
-30.0
 62
     5
 63
     7
 74
     1
 91
        4
 64
     7
 65
   257
 75
     1
175
     1
 42
1.0
 92
       12
 66
     7
 43
1.0
 76
     1
 77
     6
 78
     2
 67
     7
 79
     5
170
     0
171
     0
290
     0
174
     0
 93
        1
 44
0.0
173
     0
291
     1
 45
0.0
1001
ACAD
1000
AcDbSavedByObjectVersion
1070
     0
  0
DICTIONARYVAR
  5
1C2
102
{ACAD_REACTORS
330
1C1
102
}
330
1C1
100
DictionaryVariables
280
     0
  1
1:1
  0
DICTIONARYVAR
  5
1C6
102
{ACAD_REACTORS
330
1C1
102
}
330
1C1
100
DictionaryVariables
280
     0
  1
80.000000
  0
DICTIONARYVAR
  5
1C5
102
{ACAD_REACTORS
330
1C1
102
}
330
1C1
100
DictionaryVariables
280
     0
  1
5.000000
  0
ENDSEC
  0
EOF
